  0
SECTION
  2
HEADER
  9
$ACADVER
  1
AC1015
  9
$DWGCODEPAGE
  3
ANSI_1252
  9
$EXTMAX
 10
297.0
 20
210.0
 30
0.0
  9
$EXTMIN
 10
0.0
 20
0.0
 30
0.0
  9
$LIMMIN
 10
0.0
 20
0.0
  9
$LIMMAX
 10
297.0
 20
210.0
  9
$VIEWCTR
 10
148.5
 20
105.0
  9
$VIEWSIZE
 40
210.0
  9
$CLAYER
  8
0
  9
$LTSCALE
 40
16.335
  9
$CELTYPE
  6
BYLAYER
  9
$DIMSCALE
 40
1.0
  9
$DIMASZ
 40
3.0
  9
$DIMEXO
 40
1.85625
  9
$DIMDLI
 40
11.286
  9
$DIMEXE
 40
5.346
  9
$DIMCEN
 40
2.673
  9
$DIMLFAC
 40
1.0
  9
$DIMBLK
  1
_FILLED
  9
$DIMTXT
 40
3.0
  9
$DIMTOL
 70
1
  9
$DIMLIM
 70
0
  9
$DIMTFAC
 40
1.0
  9
$DIMTP
 40
0.01
  9
$DIMTM
 40
0.01
  9
$PDMODE
 70
3
  9
$PDSIZE
 40
3.0
  9
$HANDSEED
  5
366
  9
$TILEMODE
 70
1
  9
$MEASUREMENT
 70
1
  9
$INSUNITS
 70
4
  0
ENDSEC
  0
SECTION
  2
CLASSES
  0
CLASS
  1
ACDBDICTIONARYWDFLT
  2
AcDbDictionaryWithDefault
  3
AutoCAD 2000
 90
0
280
0
281
0
  0
CLASS
  1
ACDBPLACEHOLDER
  2
AcDbPlaceHolder
  3
AutoCAD 2000
 90
0
280
0
281
0
  0
CLASS
  1
LAYOUT
  2
AcDbLayout
  3
AutoCAD 2000
 90
0
280
0
281
0
  0
ENDSEC
  0
SECTION
  2
TABLES
  0
TABLE
  2
VPORT
  5
8
100
AcDbSymbolTable
 70
2
  0
VPORT
  5
1F4
100
AcDbSymbolTableRecord
100
AcDbViewportTableRecord
  2
*ACTIVE
 70
0
 10
0.0
 20
0.0
 11
1.0
 21
1.0
 12
148.5
 22
105.0
 13
0.0
 23
0.0
 14
1.0
 24
1.0
 15
0.0
 25
0.0
 16
0.0
 26
0.0
 36
1.0
 17
0.0
 27
0.0
 37
0.0
 40
210.0
 41
1.4142857143
 42
50.0
 43
0.0
 44
0.0
 50
0.0
 51
0.0
 71
0
 72
100
 73
1
 74
1
 75
0
 76
0
 77
0
 78
0
  0
ENDTAB
  0
TABLE
  2
LTYPE
  5
5
100
AcDbSymbolTable
 70
6
  0
LTYPE
  5
14
100
AcDbSymbolTableRecord
100
AcDbLinetypeTableRecord
  2
BYBLOCK
 70
0
  3

 72
65
 73
0
 40
0.0
  0
LTYPE
  5
15
100
AcDbSymbolTableRecord
100
AcDbLinetypeTableRecord
  2
BYLAYER
 70
0
  3

 72
65
 73
0
 40
0.0
  0
LTYPE
  5
16
100
AcDbSymbolTableRecord
100
AcDbLinetypeTableRecord
  2
CONTINUOUS
 70
64
  3
Solid line
 72
65
 73
0
 40
0.0
  0
LTYPE
  5
1F5
100
AcDbSymbolTableRecord
100
AcDbLinetypeTableRecord
  2
CENTER
 70
64
  3
____ _ ____ _ ____ _ ____ _ ____ _ ____ _ ____
 72
65
 73
4
 40
0.6
 49
0.375
 74
0
 49
-0.075
 74
0
 49
0.075
 74
0
 49
-0.075
 74
0
  0
LTYPE
  5
1F6
100
AcDbSymbolTableRecord
100
AcDbLinetypeTableRecord
  2
HIDDEN
 70
64
  3
- - - - - - - - - - - - - - - - - - - -
 72
65
 73
2
 40
0.2
 49
0.1
 74
0
 49
-0.1
 74
0
  0
LTYPE
  5
1F7
100
AcDbSymbolTableRecord
100
AcDbLinetypeTableRecord
  2
PHANTOM
 70
64
  3
_____ _ _ _____ _ _ _____ _ _ _____
 72
65
 73
6
 40
0.8
 49
0.45
 74
0
 49
-0.05
 74
0
 49
0.1
 74
0
 49
-0.05
 74
0
 49
0.1
 74
0
 49
-0.05
 74
0
  0
LTYPE
  5
1F8
100
AcDbSymbolTableRecord
100
AcDbLinetypeTableRecord
  2
DOT
 70
64
  3
. . . . . . . . . . . . . . . . . . . .
 72
65
 73
2
 40
0.2
 49
0.1
 74
0
 49
-0.1
 74
0
  0
LTYPE
  5
1F9
100
AcDbSymbolTableRecord
100
AcDbLinetypeTableRecord
  2
DASHED
 70
64
  3
- - - - - - - - - - - - - - - - - - - -
 72
65
 73
2
 40
0.2
 49
0.1
 74
0
 49
-0.1
 74
0
  0
ENDTAB
  0
TABLE
  2
LAYER
  5
2
100
AcDbSymbolTable
 70
36
  0
LAYER
  5
10
100
AcDbSymbolTableRecord
100
AcDbLayerTableRecord
  2
0
 70
0
 62
7
  6
CONTINUOUS
370
-3
390
F
  0
LAYER
  5
1FA
100
AcDbSymbolTableRecord
100
AcDbLayerTableRecord
  2
DEFAULT_1
 70
0
 62
7
  6
CENTER
370
-3
390
F
  0
LAYER
  5
1FB
100
AcDbSymbolTableRecord
100
AcDbLayerTableRecord
  2
DEFAULT_2
 70
0
 62
7
  6
HIDDEN
370
-3
390
F
  0
LAYER
  5
1FC
100
AcDbSymbolTableRecord
100
AcDbLayerTableRecord
  2
DEFAULT_3
 70
0
 62
7
  6
PHANTOM
370
-3
390
F
  0
LAYER
  5
1FD
100
AcDbSymbolTableRecord
100
AcDbLayerTableRecord
  2
ASSI
 70
0
 62
7
  6
CONTINUOUS
370
-3
390
F
  0
LAYER
  5
1FE
100
AcDbSymbolTableRecord
100
AcDbLayerTableRecord
  2
COORDINATE
 70
0
 62
7
  6
CONTINUOUS
370
-3
390
F
  0
LAYER
  5
1FF
100
AcDbSymbolTableRecord
100
AcDbLayerTableRecord
  2
COORD_ORIGINE
 70
0
 62
7
  6
CONTINUOUS
370
-3
390
F
  0
LAYER
  5
200
100
AcDbSymbolTableRecord
100
AcDbLayerTableRecord
  2
COPY_PUBLISH
 70
0
 62
7
  6
CONTINUOUS
370
-3
390
F
  0
LAYER
  5
201
100
AcDbSymbolTableRecord
100
AcDbLayerTableRecord
  2
COSMETIC
 70
0
 62
7
  6
CONTINUOUS
370
-3
390
F
  0
LAYER
  5
202
100
AcDbSymbolTableRecord
100
AcDbLayerTableRecord
  2
COSMETICI
 70
0
 62
7
  6
CONTINUOUS
370
-3
390
F
  0
LAYER
  5
203
100
AcDbSymbolTableRecord
100
AcDbLayerTableRecord
  2
CURVE
 70
0
 62
7
  6
CONTINUOUS
370
-3
390
F
  0
LAYER
  5
204
100
AcDbSymbolTableRecord
100
AcDbLayerTableRecord
  2
CURVE_TASSELLI
 70
0
 62
7
  6
CONTINUOUS
370
-3
390
F
  0
LAYER
  5
205
100
AcDbSymbolTableRecord
100
AcDbLayerTableRecord
  2
DRAFT
 70
0
 62
7
  6
CONTINUOUS
370
-3
390
F
  0
LAYER
  5
206
100
AcDbSymbolTableRecord
100
AcDbLayerTableRecord
  2
IGES
 70
0
 62
7
  6
CONTINUOUS
370
-3
390
F
  0
LAYER
  5
207
100
AcDbSymbolTableRecord
100
AcDbLayerTableRecord
  2
IMPORT_IGES
 70
0
 62
7
  6
CONTINUOUS
370
-3
390
F
  0
LAYER
  5
208
100
AcDbSymbolTableRecord
100
AcDbLayerTableRecord
  2
INTFCLR_2
 70
0
 62
7
  6
CONTINUOUS
370
-3
390
F
  0
LAYER
  5
209
100
AcDbSymbolTableRecord
100
AcDbLayerTableRecord
  2
NOTE
 70
0
 62
7
  6
CONTINUOUS
370
-3
390
F
  0
LAYER
  5
20A
100
AcDbSymbolTableRecord
100
AcDbLayerTableRecord
  2
PIANI
 70
0
 62
7
  6
CONTINUOUS
370
-3
390
F
  0
LAYER
  5
20B
100
AcDbSymbolTableRecord
100
AcDbLayerTableRecord
  2
PIANI_ORIGINE
 70
0
 62
7
  6
CONTINUOUS
370
-3
390
F
  0
LAYER
  5
20C
100
AcDbSymbolTableRecord
100
AcDbLayerTableRecord
  2
PUNTI
 70
0
 62
7
  6
CONTINUOUS
370
-3
390
F
  0
LAYER
  5
20D
100
AcDbSymbolTableRecord
100
AcDbLayerTableRecord
  2
RACCORDO
 70
0
 62
7
  6
CONTINUOUS
370
-3
390
F
  0
LAYER
  5
20E
100
AcDbSymbolTableRecord
100
AcDbLayerTableRecord
  2
SIMBOLI
 70
0
 62
7
  6
CONTINUOUS
370
-3
390
F
  0
LAYER
  5
20F
100
AcDbSymbolTableRecord
100
AcDbLayerTableRecord
  2
SMUSSO
 70
0
 62
7
  6
CONTINUOUS
370
-3
390
F
  0
LAYER
  5
210
100
AcDbSymbolTableRecord
100
AcDbLayerTableRecord
  2
SNAPLINE
 70
0
 62
7
  6
CONTINUOUS
370
-3
390
F
  0
LAYER
  5
211
100
AcDbSymbolTableRecord
100
AcDbLayerTableRecord
  2
SUPERFICI
 70
0
 62
7
  6
CONTINUOUS
370
-3
390
F
  0
LAYER
  5
212
100
AcDbSymbolTableRecord
100
AcDbLayerTableRecord
  2
TRASH
 70
0
 62
7
  6
CONTINUOUS
370
-3
390
F
  0
LAYER
  5
213
100
AcDbSymbolTableRecord
100
AcDbLayerTableRecord
  2
XSEC_DATUMS
 70
0
 62
7
  6
CONTINUOUS
370
-3
390
F
  0
ENDTAB
  0
TABLE
  2
STYLE
  5
3
100
AcDbSymbolTable
 70
1
  0
STYLE
  5
11
100
AcDbSymbolTableRecord
100
AcDbTextStyleTableRecord
  2
STANDARD
 70
0
 40
0.0
 41
0.8
 50
0.0
 71
0
 42
0.2
  3
txt
  4

  0
STYLE
  5
214
100
AcDbSymbolTableRecord
100
AcDbTextStyleTableRecord
  2
TEXTSTYLE_1
 70
0
 40
0.0
 41
0.8
 50
0.0
 71
0
 42
0.2
  3
gdt
  4

  0
ENDTAB
  0
TABLE
  2
VIEW
  5
6
100
AcDbSymbolTable
 70
0
  0
ENDTAB
  0
TABLE
  2
UCS
  5
7
100
AcDbSymbolTable
 70
0
  0
ENDTAB
  0
TABLE
  2
APPID
  5
9
100
AcDbSymbolTable
 70
1
  0
APPID
  5
215
100
AcDbSymbolTableRecord
100
AcDbRegAppTableRecord
  2
ACAD
 70
0
  0
ENDTAB
  0
TABLE
  2
BLOCK_RECORD
  5
1
100
AcDbSymbolTable
 70
0
  0
BLOCK_RECORD
  5
216
100
AcDbSymbolTableRecord
100
AcDbBlockTableRecord
  2
*Model_Space
  0
BLOCK_RECORD
  5
217
100
AcDbSymbolTableRecord
100
AcDbBlockTableRecord
  2
*Paper_Space
  0
BLOCK_RECORD
  5
218
100
AcDbSymbolTableRecord
100
AcDbBlockTableRecord
  2
_FILLED
  0
BLOCK_RECORD
  5
219
100
AcDbSymbolTableRecord
100
AcDbBlockTableRecord
  2
*D0
  0
BLOCK_RECORD
  5
21A
100
AcDbSymbolTableRecord
100
AcDbBlockTableRecord
  2
*D1
  0
BLOCK_RECORD
  5
21B
100
AcDbSymbolTableRecord
100
AcDbBlockTableRecord
  2
*D2
  0
ENDTAB
  0
TABLE
  2
DIMSTYLE
  5
A
100
AcDbSymbolTable
 70
1
100
AcDbDimStyleTable
 71
0
  0
DIMSTYLE
105
21C
100
AcDbSymbolTableRecord
100
AcDbDimStyleTableRecord
  2
STANDARD
 70
0
  3

  4

 40
1.0
 41
3.0
 42
0.0625
 43
0.38
 44
0.18
 45
0.0
 46
0.0
 47
0.01
 48
0.01
140
3.0
141
0.09
142
0.0
143
25.4
144
1.0
145
0.0
146
1.0
147
0.09
 71
1.0
 72
0.0
 73
0
 74
0
 75
0
 76
0
 77
1
 78
8
170
0
171
2
172
0
173
0
174
0
175
0
176
0
177
0
178
0
270
2
271
2
272
2
273
2
274
2
275
0
280
0
281
0
282
0
283
1
284
8
285
0
286
0
287
3
288
0
340
11
341
218
342
218
343
218
344
218
  0
DIMSTYLE
105
21D
100
AcDbSymbolTableRecord
100
AcDbDimStyleTableRecord
  2
DIMSTYLE_1
 70
0
  3

  4

 40
1.0
 41
3.0
 42
0.0625
 43
0.38
 44
0.18
 45
0.0
 46
0.0
 47
0.0
 48
0.0
140
3.0
141
0.09
142
0.0
143
25.4
144
1.0
145
0.0
146
1.0
147
0.09
 71
0.0
 72
0.0
 73
0
 74
0
 75
0
 76
0
 77
1
 78
8
170
0
171
2
172
0
173
0
174
0
175
0
176
0
177
0
178
0
270
2
271
2
272
2
273
2
274
2
275
0
280
0
281
0
282
0
283
1
284
8
285
0
286
0
287
3
288
0
340
11
341
218
342
218
343
218
344
218
  0
DIMSTYLE
105
21E
100
AcDbSymbolTableRecord
100
AcDbDimStyleTableRecord
  2
DIMSTYLE_2
 70
0
  3

  4

 40
1.0
 41
3.0
 42
0.0625
 43
0.38
 44
0.18
 45
0.0
 46
0.0
 47
0.0
 48
0.0
140
3.0
141
0.09
142
0.0
143
25.4
144
1.0
145
0.0
146
1.0
147
0.09
 71
0.0
 72
0.0
 73
0
 74
0
 75
0
 76
0
 77
1
 78
8
170
0
171
2
172
0
173
0
174
0
175
0
176
0
177
0
178
0
270
2
271
1
272
1
273
2
274
2
275
0
280
0
281
0
282
0
283
1
284
8
285
0
286
0
287
3
288
0
340
11
341
218
342
218
343
218
344
218
  0
ENDTAB
  0
ENDSEC
  0
SECTION
  2
BLOCKS
  0
BLOCK
  5
20
100
AcDbEntity
  8
0
100
AcDbBlockBegin
  2
*Model_Space
 70
0
 10
0.0
 20
0.0
 30
0.0
  3
*Model_Space
  1

  0
ENDBLK
  5
21
100
AcDbEntity
  8
0
100
AcDbBlockEnd
  0
BLOCK
  5
1C
100
AcDbEntity
  8
0
100
AcDbBlockBegin
  2
*Paper_Space
 70
0
 10
0.0
 20
0.0
 30
0.0
  3
*Paper_Space
  1

  0
ENDBLK
  5
1D
100
AcDbEntity
  8
0
100
AcDbBlockEnd
  0
BLOCK
  5
21F
100
AcDbEntity
  8
0
100
AcDbBlockBegin
  2
_FILLED
 70
64
 10
0.0
 20
0.0
  3
_FILLED
  1

  0
SOLID
  5
220
100
AcDbEntity
  8
0
  6
BYBLOCK
 62
0
100
AcDbTrace
 10
0.0
 20
0.0
 11
-1.0
 21
0.3166666667
 12
-1.0
 22
-0.3166666667
 13
-1.0
 23
-0.3166666667
  0
ENDBLK
  5
221
100
AcDbEntity
  8
0
  6
BYBLOCK
 62
0
100
AcDbBlockEnd
  0
BLOCK
  5
222
100
AcDbEntity
  8
0
100
AcDbBlockBegin
 62
7
  6
CONTINUOUS
  2
*D0
 70
65
 10
0.0
 20
0.0
  3
*D0
  1

  0
MTEXT
  5
223
100
AcDbEntity
  8
0
100
AcDbMText
 62
7
  6
CONTINUOUS
  7
STANDARD
 71
2
 72
1
 10
21.281173012
 20
89.6008187695
 30
0.0
 11
1.0
 21
0.0
 31
0.0
 44
0.9
  1
155,2
 40
3.0
 41
10.0714285714
  0
LINE
  5
224
100
AcDbEntity
  8
0
100
AcDbLine
 62
7
  6
CONTINUOUS
 10
98.881173012
 20
77.3508187695
 11
98.881173012
 21
87.3508187695
  0
LINE
  5
225
100
AcDbEntity
  8
0
100
AcDbLine
 62
7
  6
CONTINUOUS
 10
-56.318826988
 20
77.3508187695
 11
-56.318826988
 21
87.3508187695
  0
LINE
  5
226
100
AcDbEntity
  8
0
100
AcDbLine
 62
7
  6
CONTINUOUS
 10
98.881173012
 20
85.8508187695
 11
21.281173012
 21
85.8508187695
  0
LINE
  5
227
100
AcDbEntity
  8
0
100
AcDbLine
 62
7
  6
CONTINUOUS
 10
-56.318826988
 20
85.8508187695
 11
21.281173012
 21
85.8508187695
  0
INSERT
  5
228
100
AcDbEntity
  8
0
100
AcDbBlockReference
 62
7
  6
CONTINUOUS
  2
_FILLED
 10
98.881173012
 20
85.8508187695
 41
3.0
 42
3.0
 43
3.0
 50
0.0
  0
INSERT
  5
229
100
AcDbEntity
  8
0
100
AcDbBlockReference
 62
7
  6
CONTINUOUS
  2
_FILLED
 10
-56.318826988
 20
85.8508187695
 41
3.0
 42
3.0
 43
3.0
 50
180.0
  0
ENDBLK
  5
22A
100
AcDbEntity
  8
0
  6
BYBLOCK
 62
0
100
AcDbBlockEnd
  0
BLOCK
  5
22B
100
AcDbEntity
  8
0
100
AcDbBlockBegin
 62
7
  6
CONTINUOUS
  2
*D1
 70
65
 10
0.0
 20
0.0
  3
*D1
  1

  0
MTEXT
  5
22C
100
AcDbEntity
  8
0
100
AcDbMText
 62
7
  6
CONTINUOUS
  7
STANDARD
 71
2
 72
1
 10
103.131173012
 20
0.2508187695
 30
0.0
 11
0.0
 21
1.0
 31
0.0
 44
0.9
  1
155,2
 40
3.0
 41
10.0714285714
  0
LINE
  5
22D
100
AcDbEntity
  8
0
100
AcDbLine
 62
7
  6
CONTINUOUS
 10
98.381173012
 20
77.8508187695
 11
108.381173012
 21
77.8508187695
  0
LINE
  5
22E
100
AcDbEntity
  8
0
100
AcDbLine
 62
7
  6
CONTINUOUS
 10
98.381173012
 20
-77.3491812305
 11
108.381173012
 21
-77.3491812305
  0
LINE
  5
22F
100
AcDbEntity
  8
0
100
AcDbLine
 62
7
  6
CONTINUOUS
 10
106.881173012
 20
77.8508187695
 11
106.881173012
 21
0.2508187695
  0
LINE
  5
230
100
AcDbEntity
  8
0
100
AcDbLine
 62
7
  6
CONTINUOUS
 10
106.881173012
 20
-77.3491812305
 11
106.881173012
 21
0.2508187695
  0
INSERT
  5
231
100
AcDbEntity
  8
0
100
AcDbBlockReference
 62
7
  6
CONTINUOUS
  2
_FILLED
 10
106.881173012
 20
77.8508187695
 41
3.0
 42
3.0
 43
3.0
 50
90.0
  0
INSERT
  5
232
100
AcDbEntity
  8
0
100
AcDbBlockReference
 62
7
  6
CONTINUOUS
  2
_FILLED
 10
106.881173012
 20
-77.3491812305
 41
3.0
 42
3.0
 43
3.0
 50
270.0
  0
ENDBLK
  5
233
100
AcDbEntity
  8
0
  6
BYBLOCK
 62
0
100
AcDbBlockEnd
  0
BLOCK
  5
234
100
AcDbEntity
  8
0
100
AcDbBlockBegin
 62
7
  6
CONTINUOUS
  2
*D2
 70
65
 10
0.0
 20
0.0
  3
*D2
  1

  0
MTEXT
  5
235
100
AcDbEntity
  8
0
100
AcDbMText
 62
7
  6
CONTINUOUS
  7
STANDARD
 71
2
 72
1
 10
-94.3458360367
 20
89.6008187695
 30
0.0
 11
1.0
 21
0.0
 31
0.0
 44
0.9
  1
10,5
 40
3.0
 41
7.9285714286
  0
LINE
  5
236
100
AcDbEntity
  8
0
100
AcDbLine
 62
7
  6
CONTINUOUS
 10
-89.1208360367
 20
76.5508187695
 11
-89.1208360367
 21
87.3508187695
  0
LINE
  5
237
100
AcDbEntity
  8
0
100
AcDbLine
 62
7
  6
CONTINUOUS
 10
-99.5708360367
 20
61.8560705125
 11
-99.5708360367
 21
87.3508187695
  0
LINE
  5
238
100
AcDbEntity
  8
0
100
AcDbLine
 62
7
  6
CONTINUOUS
 10
-89.1208360367
 20
85.8508187695
 11
-85.1208360367
 21
85.8508187695
  0
LINE
  5
239
100
AcDbEntity
  8
0
100
AcDbLine
 62
7
  6
CONTINUOUS
 10
-85.1208360367
 20
85.8508187695
 11
-94.3458360367
 21
85.8508187695
  0
LINE
  5
23A
100
AcDbEntity
  8
0
100
AcDbLine
 62
7
  6
CONTINUOUS
 10
-99.5708360367
 20
85.8508187695
 11
-103.5708360367
 21
85.8508187695
  0
LINE
  5
23B
100
AcDbEntity
  8
0
100
AcDbLine
 62
7
  6
CONTINUOUS
 10
-103.5708360367
 20
85.8508187695
 11
-94.3458360367
 21
85.8508187695
  0
INSERT
  5
23C
100
AcDbEntity
  8
0
100
AcDbBlockReference
 62
7
  6
CONTINUOUS
  2
_FILLED
 10
-89.1208360367
 20
85.8508187695
 41
3.0
 42
3.0
 43
3.0
 50
180.0
  0
INSERT
  5
23D
100
AcDbEntity
  8
0
100
AcDbBlockReference
 62
7
  6
CONTINUOUS
  2
_FILLED
 10
-99.5708360367
 20
85.8508187695
 41
3.0
 42
3.0
 43
3.0
  0
ENDBLK
  5
23E
100
AcDbEntity
  8
0
  6
BYBLOCK
 62
0
100
AcDbBlockEnd
  0
ENDSEC
  0
SECTION
  2
ENTITIES
  0
DIMENSION
  5
23F
100
AcDbEntity
  8
0
100
AcDbDimension
 62
7
  6
CONTINUOUS
  2
*D0
 10
-56.318826988
 20
85.8508187695
 11
16.2454587262
 21
88.1008187695
 70
160
 71
2
 42
155.2
  3
DIMSTYLE_1
100
AcDbAlignedDimension
 13
98.881173012
 23
77.3508187695
 14
-56.318826988
 24
77.3508187695
 50
180.0
100
AcDbRotatedDimension
  0
DIMENSION
  5
240
100
AcDbEntity
  8
0
100
AcDbDimension
 62
7
  6
CONTINUOUS
  2
*D1
 10
106.881173012
 20
-77.3491812305
 11
106.8875437217
 21
-4.2510930008
 70
160
 71
2
 42
155.2
  3
DIMSTYLE_1
100
AcDbAlignedDimension
 13
98.381173012
 23
77.8508187695
 14
98.381173012
 24
-77.3491812305
 50
270.0
100
AcDbRotatedDimension
  0
DIMENSION
  5
241
100
AcDbEntity
  8
0
100
AcDbDimension
 62
7
  6
CONTINUOUS
  2
*D2
 10
-99.5708360367
 20
85.8508187695
 11
-98.3101217509
 21
88.1008187695
 70
160
 71
2
 42
10.45
  3
DIMSTYLE_2
100
AcDbAlignedDimension
 13
-89.1208360367
 23
76.5508187695
 14
-99.5708360367
 24
61.8560705125
 50
180.0
100
AcDbRotatedDimension
  0
LINE
  5
242
100
AcDbEntity
  8
SMUSSO
100
AcDbLine
 62
7
  6
CONTINUOUS
 10
-56.318826988
 20
76.8508187695
 11
-56.318826988
 21
-76.3491812305
  0
LINE
  5
243
100
AcDbEntity
  8
SMUSSO
100
AcDbLine
 62
7
  6
CONTINUOUS
 10
-55.318826988
 20
-77.3491812305
 11
97.881173012
 21
-77.3491812305
  0
LINE
  5
244
100
AcDbEntity
  8
SMUSSO
100
AcDbLine
 62
7
  6
CONTINUOUS
 10
-50.318826988
 20
71.8508187695
 11
-50.318826988
 21
-71.3491812305
  0
LINE
  5
245
100
AcDbEntity
  8
SMUSSO
100
AcDbLine
 62
7
  6
CONTINUOUS
 10
-50.318826988
 20
-71.3491812305
 11
92.881173012
 21
-71.3491812305
  0
LINE
  5
246
100
AcDbEntity
  8
RACCORDO
100
AcDbLine
 62
7
  6
CONTINUOUS
 10
-26.8959889521
 20
-61.5762365811
 11
69.458334976
 21
-61.5762365811
  0
LINE
  5
247
100
AcDbEntity
  8
RACCORDO
100
AcDbLine
 62
253
  6
CONTINUOUS
 10
-26.8740693102
 20
-61.5543169393
 11
69.436424755
 21
-61.5543263601
  0
LINE
  5
248
100
AcDbEntity
  8
RACCORDO
100
AcDbLine
 62
253
  6
CONTINUOUS
 10
-26.8740787302
 20
-61.2543720517
 11
69.436424755
 21
-61.2543720516
  0
LINE
  5
249
100
AcDbEntity
  8
RACCORDO
100
AcDbLine
 62
253
  6
CONTINUOUS
 10
70.1363082351
 20
-60.8544329734
 11
69.8363638331
 21
-60.8544329735
  0
LINE
  5
24A
100
AcDbEntity
  8
RACCORDO
100
AcDbLine
 62
253
  6
CONTINUOUS
 10
-27.5739721177
 20
-60.8544329731
 11
-27.2740178091
 21
-60.8544329735
  0
LINE
  5
24B
100
AcDbEntity
  8
RACCORDO
100
AcDbLine
 62
253
  6
CONTINUOUS
 10
-24.273317166
 20
-58.8332269042
 11
66.8356631899
 21
-58.8332269042
  0
LINE
  5
24C
100
AcDbEntity
  8
RACCORDO
100
AcDbLine
 62
253
  6
CONTINUOUS
 10
-24.273317166
 20
-58.5434491563
 11
66.8356631899
 21
-58.5434491563
  0
LINE
  5
24D
100
AcDbEntity
  8
RACCORDO
100
AcDbLine
 62
253
  6
CONTINUOUS
 10
67.4152186856
 20
-58.2536714084
 11
67.1254409359
 21
-58.2536714084
  0
LINE
  5
24E
100
AcDbEntity
  8
RACCORDO
100
AcDbLine
 62
253
  6
CONTINUOUS
 10
-24.5630949228
 20
-58.2536714084
 11
-24.8528726617
 21
-58.2536714084
  0
LINE
  5
24F
100
AcDbEntity
  8
RACCORDO
100
AcDbLine
 62
253
  6
CONTINUOUS
 10
-23.5178012365
 20
-57.8150707219
 11
66.0801472604
 21
-57.8150707219
  0
LINE
  5
250
100
AcDbEntity
  8
RACCORDO
100
AcDbLine
 62
253
  6
CONTINUOUS
 10
-23.5178012365
 20
-57.7981097875
 11
66.0801472604
 21
-57.7981097875
  0
LINE
  5
251
100
AcDbEntity
  8
RACCORDO
100
AcDbLine
 62
7
  6
CONTINUOUS
 10
66.0716184177
 20
-57.7895809448
 11
-23.5092723938
 21
-57.7895809448
  0
LINE
  5
252
100
AcDbEntity
  8
RACCORDO
100
AcDbLine
 62
253
  6
CONTINUOUS
 10
-23.817755545
 20
-57.4981554789
 11
-23.8347164794
 21
-57.4981554786
  0
LINE
  5
253
100
AcDbEntity
  8
RACCORDO
100
AcDbLine
 62
253
  6
CONTINUOUS
 10
66.3801015689
 20
-57.4981554789
 11
66.3970625034
 21
-57.4981554789
  0
LINE
  5
254
100
AcDbEntity
  8
RACCORDO
100
AcDbLine
 62
7
  6
CONTINUOUS
 10
-27.5958823387
 20
61.3779807335
 11
-27.5958823387
 21
-60.8763431945
  0
LINE
  5
255
100
AcDbEntity
  8
RACCORDO
100
AcDbLine
 62
253
  6
CONTINUOUS
 10
-27.5739626968
 20
61.3560610916
 11
-27.5739721177
 21
-60.8544329735
  0
LINE
  5
256
100
AcDbEntity
  8
RACCORDO
100
AcDbLine
 62
253
  6
CONTINUOUS
 10
-27.2740178091
 20
61.3605773942
 11
-27.2740178091
 21
-60.8544329735
  0
LINE
  5
257
100
AcDbEntity
  8
RACCORDO
100
AcDbLine
 62
253
  6
CONTINUOUS
 10
-26.8740787307
 20
62.0559638991
 11
-26.874078731
 21
61.7560095906
  0
LINE
  5
258
100
AcDbEntity
  8
RACCORDO
100
AcDbLine
 62
253
  6
CONTINUOUS
 10
-26.874078731
 20
-61.5543164537
 11
-26.874078731
 21
-61.2543720517
  0
LINE
  5
259
100
AcDbEntity
  8
RACCORDO
100
AcDbLine
 62
253
  6
CONTINUOUS
 10
-24.8528726617
 20
-58.2536714084
 11
-24.8528726617
 21
58.7553089474
  0
LINE
  5
25A
100
AcDbEntity
  8
RACCORDO
100
AcDbLine
 62
253
  6
CONTINUOUS
 10
-24.5630949138
 20
-58.2536714084
 11
-24.5630949138
 21
58.7553089474
  0
LINE
  5
25B
100
AcDbEntity
  8
RACCORDO
100
AcDbLine
 62
253
  6
CONTINUOUS
 10
-24.2733171659
 20
-58.8332269042
 11
-24.273317166
 21
-58.5434491544
  0
LINE
  5
25C
100
AcDbEntity
  8
RACCORDO
100
AcDbLine
 62
253
  6
CONTINUOUS
 10
-24.273317166
 20
59.0450866931
 11
-24.2733171659
 21
59.3348644432
  0
LINE
  5
25D
100
AcDbEntity
  8
RACCORDO
100
AcDbLine
 62
253
  6
CONTINUOUS
 10
-23.8347164794
 20
57.9997930179
 11
-23.8347164794
 21
-57.4981554789
  0
LINE
  5
25E
100
AcDbEntity
  8
RACCORDO
100
AcDbLine
 62
253
  6
CONTINUOUS
 10
-23.817755545
 20
57.9997930179
 11
-23.817755545
 21
-57.4981554789
  0
LINE
  5
25F
100
AcDbEntity
  8
RACCORDO
100
AcDbLine
 62
7
  6
CONTINUOUS
 10
-23.8092267023
 20
-57.4896266363
 11
-23.8092267023
 21
57.9912641752
  0
LINE
  5
260
100
AcDbEntity
  8
RACCORDO
100
AcDbLine
 62
253
  6
CONTINUOUS
 10
-23.5178012365
 20
-57.7981097875
 11
-23.5178012365
 21
-57.8150707219
  0
LINE
  5
261
100
AcDbEntity
  8
RACCORDO
100
AcDbLine
 62
253
  6
CONTINUOUS
 10
-23.5178012365
 20
58.2997473265
 11
-23.5178012365
 21
58.3167082609
  0
LINE
  5
262
100
AcDbEntity
  8
RACCORDO
100
AcDbLine
 62
253
  6
CONTINUOUS
 10
69.4364153341
 20
62.0559544783
 11
69.458334976
 21
62.0778741201
  0
LINE
  5
263
100
AcDbEntity
  8
RACCORDO
100
AcDbLine
 62
253
  6
CONTINUOUS
 10
66.0801472604
 20
58.2997473265
 11
66.0716184177
 21
58.2912184838
  0
LINE
  5
264
100
AcDbEntity
  8
RACCORDO
100
AcDbLine
 62
253
  6
CONTINUOUS
 10
66.8356631899
 20
59.0450866953
 11
66.1068375006
 21
58.3162311037
  0
LINE
  5
265
100
AcDbEntity
  8
RACCORDO
100
AcDbLine
 62
253
  6
CONTINUOUS
 10
67.1254409378
 20
58.7553089474
 11
66.3965858503
 21
58.0264641826
  0
LINE
  5
266
100
AcDbEntity
  8
RACCORDO
100
AcDbLine
 62
253
  6
CONTINUOUS
 10
66.3801015689
 20
57.9997930179
 11
66.3715727262
 21
57.9912641752
  0
LINE
  5
267
100
AcDbEntity
  8
RACCORDO
100
AcDbLine
 62
253
  6
CONTINUOUS
 10
70.1363181416
 20
61.3560705125
 11
70.1582283626
 21
61.3779807335
  0
LINE
  5
268
100
AcDbEntity
  8
RACCORDO
100
AcDbLine
 62
253
  6
CONTINUOUS
 10
69.436424755
 20
-61.5543263601
 11
69.458334976
 21
-61.5762365811
  0
LINE
  5
269
100
AcDbEntity
  8
RACCORDO
100
AcDbLine
 62
253
  6
CONTINUOUS
 10
66.0801472604
 20
-57.7981097875
 11
66.0716184177
 21
-57.7895809448
  0
LINE
  5
26A
100
AcDbEntity
  8
RACCORDO
100
AcDbLine
 62
253
  6
CONTINUOUS
 10
66.8356631899
 20
-58.5434491563
 11
66.106818425
 21
-57.8145940689
  0
LINE
  5
26B
100
AcDbEntity
  8
RACCORDO
100
AcDbLine
 62
253
  6
CONTINUOUS
 10
67.1254409378
 20
-58.2536714084
 11
66.3965853462
 21
-57.5248457192
  0
LINE
  5
26C
100
AcDbEntity
  8
RACCORDO
100
AcDbLine
 62
253
  6
CONTINUOUS
 10
66.3801015689
 20
-57.4981554789
 11
66.3715727262
 21
-57.4896266363
  0
LINE
  5
26D
100
AcDbEntity
  8
RACCORDO
100
AcDbLine
 62
253
  6
CONTINUOUS
 10
70.1363087207
 20
-60.8544235527
 11
70.1582283626
 21
-60.8763431945
  0
LINE
  5
26E
100
AcDbEntity
  8
SMUSSO
100
AcDbLine
 62
7
  6
CONTINUOUS
 10
98.5882797931
 20
77.5579255507
 11
92.881173012
 21
71.8508187695
  0
LINE
  5
26F
100
AcDbEntity
  8
SMUSSO
100
AcDbLine
 62
7
  6
CONTINUOUS
 10
-56.0259337692
 20
-77.0562880117
 11
-50.318826988
 21
-71.3491812305
  0
LINE
  5
270
100
AcDbEntity
  8
SMUSSO
100
AcDbLine
 62
7
  6
CONTINUOUS
 10
-56.0259337692
 20
77.5579255507
 11
-50.318826988
 21
71.8508187695
  0
LINE
  5
271
100
AcDbEntity
  8
SMUSSO
100
AcDbLine
 62
7
  6
CONTINUOUS
 10
98.5882797931
 20
-77.0562880117
 11
92.881173012
 21
-71.3491812305
  0
LINE
  5
272
100
AcDbEntity
  8
RACCORDO
100
AcDbLine
 62
253
  6
CONTINUOUS
 10
-27.5739721177
 20
-60.8544329735
 11
-27.5958823387
 21
-60.8763431945
  0
LINE
  5
273
100
AcDbEntity
  8
RACCORDO
100
AcDbLine
 62
253
  6
CONTINUOUS
 10
-23.817755545
 20
-57.4981554789
 11
-23.8092267023
 21
-57.4896266363
  0
LINE
  5
274
100
AcDbEntity
  8
RACCORDO
100
AcDbLine
 62
253
  6
CONTINUOUS
 10
-24.5630949138
 20
-58.2536714084
 11
-23.8342398264
 21
-57.5248266436
  0
LINE
  5
275
100
AcDbEntity
  8
RACCORDO
100
AcDbLine
 62
253
  6
CONTINUOUS
 10
-24.273317166
 20
-58.5434491563
 11
-23.5444914767
 21
-57.8145935648
  0
LINE
  5
276
100
AcDbEntity
  8
RACCORDO
100
AcDbLine
 62
253
  6
CONTINUOUS
 10
-23.5178012365
 20
-57.7981097875
 11
-23.5092723938
 21
-57.7895809448
  0
LINE
  5
277
100
AcDbEntity
  8
RACCORDO
100
AcDbLine
 62
253
  6
CONTINUOUS
 10
-26.8740693102
 20
-61.5543169393
 11
-26.8959889521
 21
-61.5762365811
  0
LINE
  5
278
100
AcDbEntity
  8
RACCORDO
100
AcDbLine
 62
253
  6
CONTINUOUS
 10
-27.5739626968
 20
61.3560610916
 11
-27.5958823387
 21
61.3779807335
  0
LINE
  5
279
100
AcDbEntity
  8
RACCORDO
100
AcDbLine
 62
253
  6
CONTINUOUS
 10
-23.8092267023
 20
57.9912641752
 11
-23.817755545
 21
57.9997930179
  0
LINE
  5
27A
100
AcDbEntity
  8
RACCORDO
100
AcDbLine
 62
253
  6
CONTINUOUS
 10
-23.8342398211
 20
58.0264642617
 11
-24.5630949138
 21
58.7553089474
  0
LINE
  5
27B
100
AcDbEntity
  8
RACCORDO
100
AcDbLine
 62
253
  6
CONTINUOUS
 10
-23.544520476
 20
58.3162303324
 11
-24.273317166
 21
59.0450866953
  0
LINE
  5
27C
100
AcDbEntity
  8
RACCORDO
100
AcDbLine
 62
253
  6
CONTINUOUS
 10
-23.5092723938
 20
58.2912184838
 11
-23.5178012365
 21
58.2997473265
  0
LINE
  5
27D
100
AcDbEntity
  8
RACCORDO
100
AcDbLine
 62
253
  6
CONTINUOUS
 10
-26.874078731
 20
62.0559638991
 11
-26.8959889521
 21
62.0778741201
  0
LINE
  5
27E
100
AcDbEntity
  8
RACCORDO
100
AcDbLine
 62
253
  6
CONTINUOUS
 10
66.0801472604
 20
-57.7981097875
 11
66.08014726
 21
-57.8150707219
  0
LINE
  5
27F
100
AcDbEntity
  8
RACCORDO
100
AcDbLine
 62
253
  6
CONTINUOUS
 10
66.0801472604
 20
58.2997473265
 11
66.0801472604
 21
58.3167082609
  0
LINE
  5
280
100
AcDbEntity
  8
RACCORDO
100
AcDbLine
 62
7
  6
CONTINUOUS
 10
66.3715727262
 20
57.9912641752
 11
66.3715727262
 21
-57.4896266363
  0
LINE
  5
281
100
AcDbEntity
  8
RACCORDO
100
AcDbLine
 62
253
  6
CONTINUOUS
 10
66.3801015689
 20
-57.4981554789
 11
66.3801015689
 21
57.9997930179
  0
LINE
  5
282
100
AcDbEntity
  8
RACCORDO
100
AcDbLine
 62
253
  6
CONTINUOUS
 10
66.3970625034
 20
-57.4981554789
 11
66.3970625034
 21
57.9997930179
  0
LINE
  5
283
100
AcDbEntity
  8
RACCORDO
100
AcDbLine
 62
253
  6
CONTINUOUS
 10
66.8356631898
 20
59.3348644432
 11
66.8356631899
 21
59.0450866934
  0
LINE
  5
284
100
AcDbEntity
  8
RACCORDO
100
AcDbLine
 62
253
  6
CONTINUOUS
 10
66.8356631899
 20
-58.5434491652
 11
66.8356631899
 21
-58.8332269042
  0
LINE
  5
285
100
AcDbEntity
  8
RACCORDO
100
AcDbLine
 62
253
  6
CONTINUOUS
 10
67.1254409378
 20
58.7553089474
 11
67.1254409378
 21
-58.2536714084
  0
LINE
  5
286
100
AcDbEntity
  8
RACCORDO
100
AcDbLine
 62
253
  6
CONTINUOUS
 10
67.4152186856
 20
58.7553089474
 11
67.4152186856
 21
-58.2536714084
  0
LINE
  5
287
100
AcDbEntity
  8
RACCORDO
100
AcDbLine
 62
253
  6
CONTINUOUS
 10
69.4364247549
 20
62.0559539927
 11
69.436424755
 21
61.7560095906
  0
LINE
  5
288
100
AcDbEntity
  8
RACCORDO
100
AcDbLine
 62
253
  6
CONTINUOUS
 10
69.4364247546
 20
-61.5543263601
 11
69.436424755
 21
-61.2543720516
  0
LINE
  5
289
100
AcDbEntity
  8
RACCORDO
100
AcDbLine
 62
253
  6
CONTINUOUS
 10
69.8363638331
 20
-60.8544329726
 11
69.836363833
 21
61.3560705125
  0
LINE
  5
28A
100
AcDbEntity
  8
RACCORDO
100
AcDbLine
 62
253
  6
CONTINUOUS
 10
70.1363087207
 20
-60.8544235527
 11
70.1363181416
 21
61.3560705125
  0
LINE
  5
28B
100
AcDbEntity
  8
RACCORDO
100
AcDbLine
 62
7
  6
CONTINUOUS
 10
70.1582283626
 20
-60.8763431945
 11
70.1582283626
 21
61.3779807335
  0
LINE
  5
28C
100
AcDbEntity
  8
RACCORDO
100
AcDbLine
 62
253
  6
CONTINUOUS
 10
-23.817755545
 20
57.9997930179
 11
-23.8347164794
 21
57.9997930179
  0
LINE
  5
28D
100
AcDbEntity
  8
RACCORDO
100
AcDbLine
 62
253
  6
CONTINUOUS
 10
66.3801015689
 20
57.9997930179
 11
66.3970625033
 21
57.9997930175
  0
LINE
  5
28E
100
AcDbEntity
  8
RACCORDO
100
AcDbLine
 62
7
  6
CONTINUOUS
 10
-23.5092723938
 20
58.2912184838
 11
66.0716184177
 21
58.2912184838
  0
LINE
  5
28F
100
AcDbEntity
  8
RACCORDO
100
AcDbLine
 62
253
  6
CONTINUOUS
 10
66.0801472604
 20
58.2997473265
 11
-23.5178012365
 21
58.2997473265
  0
LINE
  5
290
100
AcDbEntity
  8
RACCORDO
100
AcDbLine
 62
253
  6
CONTINUOUS
 10
66.0801472604
 20
58.3167082609
 11
-23.5178012365
 21
58.3167082609
  0
LINE
  5
291
100
AcDbEntity
  8
RACCORDO
100
AcDbLine
 62
253
  6
CONTINUOUS
 10
-24.8528726617
 20
58.7553089474
 11
-24.5630949229
 21
58.7553089474
  0
LINE
  5
292
100
AcDbEntity
  8
RACCORDO
100
AcDbLine
 62
253
  6
CONTINUOUS
 10
67.1254409467
 20
58.7553089474
 11
67.4152186856
 21
58.7553089474
  0
LINE
  5
293
100
AcDbEntity
  8
RACCORDO
100
AcDbLine
 62
253
  6
CONTINUOUS
 10
66.8356631899
 20
59.0450866953
 11
-24.273317166
 21
59.0450866953
  0
LINE
  5
294
100
AcDbEntity
  8
RACCORDO
100
AcDbLine
 62
253
  6
CONTINUOUS
 10
66.8356631899
 20
59.3348644432
 11
-24.273317166
 21
59.3348644432
  0
LINE
  5
295
100
AcDbEntity
  8
RACCORDO
100
AcDbLine
 62
253
  6
CONTINUOUS
 10
70.1363181416
 20
61.3560705121
 11
69.836363833
 21
61.3560705125
  0
LINE
  5
296
100
AcDbEntity
  8
RACCORDO
100
AcDbLine
 62
253
  6
CONTINUOUS
 10
-27.5739622112
 20
61.3560705124
 11
-27.2740178091
 21
61.3560705125
  0
LINE
  5
297
100
AcDbEntity
  8
RACCORDO
100
AcDbLine
 62
253
  6
CONTINUOUS
 10
69.4409316439
 20
61.7560095906
 11
-26.874078731
 21
61.7560095906
  0
LINE
  5
298
100
AcDbEntity
  8
RACCORDO
100
AcDbLine
 62
253
  6
CONTINUOUS
 10
69.4364153341
 20
62.0559544783
 11
-26.874078731
 21
62.0559638991
  0
LINE
  5
299
100
AcDbEntity
  8
RACCORDO
100
AcDbLine
 62
7
  6
CONTINUOUS
 10
69.458334976
 20
62.0778741201
 11
-26.8959889521
 21
62.0778741201
  0
LINE
  5
29A
100
AcDbEntity
  8
SMUSSO
100
AcDbLine
 62
7
  6
CONTINUOUS
 10
92.881173012
 20
-71.3491812305
 11
92.881173012
 21
71.8508187695
  0
LINE
  5
29B
100
AcDbEntity
  8
SMUSSO
100
AcDbLine
 62
7
  6
CONTINUOUS
 10
92.881173012
 20
71.8508187695
 11
-50.318826988
 21
71.8508187695
  0
LINE
  5
29C
100
AcDbEntity
  8
SMUSSO
100
AcDbLine
 62
7
  6
CONTINUOUS
 10
98.881173012
 20
-76.3491812305
 11
98.881173012
 21
76.8508187695
  0
LINE
  5
29D
100
AcDbEntity
  8
SMUSSO
100
AcDbLine
 62
7
  6
CONTINUOUS
 10
97.881173012
 20
77.8508187695
 11
-55.318826988
 21
77.8508187695
  0
LINE
  5
29E
100
AcDbEntity
  8
SMUSSO
100
AcDbLine
 62
7
  6
CONTINUOUS
 10
-96.0208360367
 20
-77.3491812305
 11
-94.5208360367
 21
-77.3491812305
  0
LINE
  5
29F
100
AcDbEntity
  8
RACCORDO
100
AcDbLine
 62
7
  6
CONTINUOUS
 10
-93.3477525415
 20
-77.0998372194
 11
-90.5208360367
 21
-77.1491812305
  0
LINE
  5
2A0
100
AcDbEntity
  8
SMUSSO
100
AcDbLine
 62
253
  6
CONTINUOUS
 10
-94.0208360367
 20
-76.3491812305
 11
-96.0208360367
 21
-76.3491812305
  0
LINE
  5
2A1
100
AcDbEntity
  8
RACCORDO
100
AcDbLine
 62
7
  6
CONTINUOUS
 10
-93.8634861269
 20
-75.5986376789
 11
-93.4869121507
 21
-75.598637645
  0
LINE
  5
2A2
100
AcDbEntity
  8
RACCORDO
100
AcDbLine
 62
253
  6
CONTINUOUS
 10
-93.9208360367
 20
-75.598637683
 11
-93.8634861269
 21
-75.598637683
  0
LINE
  5
2A3
100
AcDbEntity
  8
SMUSSO
100
AcDbLine
 62
253
  6
CONTINUOUS
 10
-89.1208360367
 20
-75.5491812305
 11
-90.5208360367
 21
-75.5491812305
  0
LINE
  5
2A4
100
AcDbEntity
  8
RACCORDO
100
AcDbLine
 62
7
  6
CONTINUOUS
 10
-93.9208360367
 20
-73.7491812305
 11
-93.9708360367
 21
-73.7491812305
  0
LINE
  5
2A5
100
AcDbEntity
  8
RACCORDO
100
AcDbLine
 62
253
  6
CONTINUOUS
 10
-93.3477525415
 20
-75.6000656766
 11
-90.5208360367
 21
-75.6494096878
  0
LINE
  5
2A6
100
AcDbEntity
  8
SMUSSO
100
AcDbLine
 62
7
  6
CONTINUOUS
 10
-93.9208360367
 20
74.6035036856
 11
-93.9708360367
 21
74.5746361721
  0
LINE
  5
2A7
100
AcDbEntity
  8
DRAFT
100
AcDbLine
 62
7
  6
CONTINUOUS
 10
-93.9208360367
 20
-61.8465629708
 11
-93.9708360367
 21
-61.8456902175
  0
LINE
  5
2A8
100
AcDbEntity
  8
RACCORDO
100
AcDbLine
 62
7
  6
CONTINUOUS
 10
-99.2760717586
 20
-61.5543263601
 11
-98.0208360367
 21
-61.5762365811
  0
LINE
  5
2A9
100
AcDbEntity
  8
SMUSSO
100
AcDbLine
 62
7
  6
CONTINUOUS
 10
-93.9708360367
 20
-74.0729986331
 11
-93.9208360367
 21
-74.1018661466
  0
LWPOLYLINE
  5
2AA
100
AcDbEntity
  8
RACCORDO
100
AcDbPolyline
 62
7
  6
CONTINUOUS
 90
3
 70
0
 10
-93.4667537934
 20
77.5596406488
 10
-93.4797866117
 20
77.5486310034
 10
-93.4869848838
 20
77.5416631503
  0
LINE
  5
2AB
100
AcDbEntity
  8
ASSI
100
AcDbLine
 62
7
  6
CONTINUOUS
 10
-93.9708360367
 20
-60.9991812305
 11
-94.0208360367
 21
-60.9991812305
  0
LINE
  5
2AC
100
AcDbEntity
  8
RACCORDO
100
AcDbLine
 62
253
  6
CONTINUOUS
 10
-99.2766114716
 20
-60.8544329734
 11
-99.5708360367
 21
-60.8544329735
  0
LINE
  5
2AD
100
AcDbEntity
  8
RACCORDO
100
AcDbLine
 62
253
  6
CONTINUOUS
 10
-99.2766114792
 20
-60.8544235527
 11
-98.0208360367
 21
-60.8763431945
  0
LINE
  5
2AE
100
AcDbEntity
  8
RACCORDO
100
AcDbLine
 62
7
  6
CONTINUOUS
 10
-94.0208360367
 20
-60.8448174643
 11
-93.9208360367
 21
-60.8465629708
  0
LINE
  5
2AF
100
AcDbEntity
  8
RACCORDO
100
AcDbLine
 62
253
  6
CONTINUOUS
 10
-94.0208360367
 20
-59.5450154606
 11
-93.9208360367
 21
-59.5467609671
  0
LINE
  5
2B0
100
AcDbEntity
  8
RACCORDO
100
AcDbLine
 62
7
  6
CONTINUOUS
 10
-93.8634861269
 20
77.1584826093
 11
-93.4869121507
 21
77.5416870716
  0
LINE
  5
2B1
100
AcDbEntity
  8
SMUSSO
100
AcDbLine
 62
7
  6
CONTINUOUS
 10
-93.4869856084
 20
77.5416628909
 11
-93.8634889544
 21
77.1585019282
  0
LINE
  5
2B2
100
AcDbEntity
  8
DRAFT
100
AcDbLine
 62
7
  6
CONTINUOUS
 10
-93.9208360367
 20
-54.7465629708
 11
-93.9708360367
 21
-54.7456902175
  0
LINE
  5
2B3
100
AcDbEntity
  8
SMUSSO
100
AcDbLine
 62
7
  6
CONTINUOUS
 10
-93.9208360367
 20
-53.7238713864
 11
-93.9708360367
 21
-53.7229986331
  0
LWPOLYLINE
  5
2B4
100
AcDbEntity
  8
RACCORDO
100
AcDbPolyline
 62
7
  6
CONTINUOUS
 90
11
 70
0
 10
-93.4869823629
 20
-77.0400273466
 10
-93.4797358287
 20
-77.0470395958
 10
-93.4666965476
 20
-77.0580471113
 10
-93.4527156373
 20
-77.0679363018
 10
-93.4378835369
 20
-77.0766235309
 10
-93.4223187866
 20
-77.0840230315
 10
-93.4061394877
 20
-77.0900668541
 10
-93.3894550231
 20
-77.0947027295
 10
-93.3723822202
 20
-77.0978853117
 10
-93.3550453403
 20
-77.0995778343
 10
-93.3477875989
 20
-77.0998363725
  0
LINE
  5
2B5
100
AcDbEntity
  8
RACCORDO
100
AcDbLine
 62
7
  6
CONTINUOUS
 10
-93.8634861269
 20
-76.6568450703
 11
-93.4869121507
 21
-77.0400495326
  0
LINE
  5
2B6
100
AcDbEntity
  8
SMUSSO
100
AcDbLine
 62
7
  6
CONTINUOUS
 10
-93.8634886032
 20
-76.6568646215
 11
-93.4869828049
 21
-77.040027042
  0
LINE
  5
2B7
100
AcDbEntity
  8
SMUSSO
100
AcDbLine
 62
7
  6
CONTINUOUS
 10
-93.9708360367
 20
-45.7753638279
 11
-93.9208360367
 21
-45.7744910747
  0
LINE
  5
2B8
100
AcDbEntity
  8
DRAFT
100
AcDbLine
 62
7
  6
CONTINUOUS
 10
-93.9208360367
 20
-44.7517994902
 11
-93.9708360367
 21
-44.7526722435
  0
LINE
  5
2B9
100
AcDbEntity
  8
RACCORDO
100
AcDbLine
 62
7
  6
CONTINUOUS
 10
-93.9208360367
 20
-43.9430719578
 11
-94.0208360367
 21
-43.9448174643
  0
LINE
  5
2BA
100
AcDbEntity
  8
RACCORDO
100
AcDbLine
 62
7
  6
CONTINUOUS
 10
-93.9208360367
 20
-43.2552905032
 11
-94.0208360367
 21
-43.2535449967
  0
LINE
  5
2BB
100
AcDbEntity
  8
RACCORDO
100
AcDbLine
 62
7
  6
CONTINUOUS
 10
-93.9208360367
 20
-36.2430719578
 11
-94.0208360367
 21
-36.2448174643
  0
LINE
  5
2BC
100
AcDbEntity
  8
RACCORDO
100
AcDbLine
 62
7
  6
CONTINUOUS
 10
-93.9208360367
 20
-35.5552905032
 11
-94.0208360367
 21
-35.5535449967
  0
LINE
  5
2BD
100
AcDbEntity
  8
DRAFT
100
AcDbLine
 62
7
  6
CONTINUOUS
 10
-93.9208360367
 20
-34.7465629708
 11
-93.9708360367
 21
-34.7456902175
  0
LINE
  5
2BE
100
AcDbEntity
  8
SMUSSO
100
AcDbLine
 62
7
  6
CONTINUOUS
 10
-96.0208360367
 20
77.8508187695
 11
-98.0208360367
 21
71.8508187695
  0
LINE
  5
2BF
100
AcDbEntity
  8
SMUSSO
100
AcDbLine
 62
7
  6
CONTINUOUS
 10
-98.0208360367
 20
-71.3491812305
 11
-96.0208360367
 21
-77.3491812305
  0
LINE
  5
2C0
100
AcDbEntity
  8
DRAFT
100
AcDbLine
 62
7
  6
CONTINUOUS
 10
-93.9208360367
 20
-24.7517994902
 11
-93.9708360367
 21
-24.7526722435
  0
LINE
  5
2C1
100
AcDbEntity
  8
RACCORDO
100
AcDbLine
 62
7
  6
CONTINUOUS
 10
-93.9208360367
 20
-23.9430719578
 11
-94.0208360367
 21
-23.9448174643
  0
LINE
  5
2C2
100
AcDbEntity
  8
RACCORDO
100
AcDbLine
 62
7
  6
CONTINUOUS
 10
-93.9208360367
 20
-23.2552905032
 11
-94.0208360367
 21
-23.2535449967
  0
LINE
  5
2C3
100
AcDbEntity
  8
RACCORDO
100
AcDbLine
 62
7
  6
CONTINUOUS
 10
-93.9208360367
 20
-16.2430719578
 11
-94.0208360367
 21
-16.2448174643
  0
LINE
  5
2C4
100
AcDbEntity
  8
RACCORDO
100
AcDbLine
 62
7
  6
CONTINUOUS
 10
-93.9208360367
 20
-15.5552905032
 11
-94.0208360367
 21
-15.5535449967
  0
LINE
  5
2C5
100
AcDbEntity
  8
DRAFT
100
AcDbLine
 62
7
  6
CONTINUOUS
 10
-93.9208360367
 20
-14.7465629708
 11
-93.9708360367
 21
-14.7456902175
  0
LINE
  5
2C6
100
AcDbEntity
  8
RACCORDO
100
AcDbLine
 62
7
  6
CONTINUOUS
 10
-99.5708360367
 20
-61.2543720516
 11
-99.5708360367
 21
61.7560095906
  0
LINE
  5
2C7
100
AcDbEntity
  8
RACCORDO
100
AcDbLine
 62
253
  6
CONTINUOUS
 10
-99.2766114792
 20
-60.8544235527
 11
-99.2760717586
 21
61.3560705125
  0
LINE
  5
2C8
100
AcDbEntity
  8
DRAFT
100
AcDbLine
 62
7
  6
CONTINUOUS
 10
-93.9208360367
 20
-4.7517994902
 11
-93.9708360367
 21
-4.7526722435
  0
LINE
  5
2C9
100
AcDbEntity
  8
SMUSSO
100
AcDbLine
 62
7
  6
CONTINUOUS
 10
-98.0208360367
 20
-71.3491812305
 11
-98.0208360367
 21
71.8508187695
  0
LINE
  5
2CA
100
AcDbEntity
  8
SMUSSO
100
AcDbLine
 62
7
  6
CONTINUOUS
 10
-96.0208360367
 20
-76.3491812305
 11
-96.0208360367
 21
76.8508187695
  0
LINE
  5
2CB
100
AcDbEntity
  8
SMUSSO
100
AcDbLine
 62
7
  6
CONTINUOUS
 10
-94.5208360367
 20
77.8508187695
 11
-94.5208360367
 21
-77.3491812305
  0
LINE
  5
2CC
100
AcDbEntity
  8
SMUSSO
100
AcDbLine
 62
7
  6
CONTINUOUS
 10
-94.0208360367
 20
77.3508187695
 11
-94.0208360367
 21
-76.8491812305
  0
LINE
  5
2CD
100
AcDbEntity
  8
SMUSSO
100
AcDbLine
 62
7
  6
CONTINUOUS
 10
-93.9708360367
 20
74.5746361721
 11
-93.9708360367
 21
74.2508187695
  0
LINE
  5
2CE
100
AcDbEntity
  8
DRAFT
100
AcDbLine
 62
7
  6
CONTINUOUS
 10
-93.9708360367
 20
-61.8456902175
 11
-93.9708360367
 21
-60.8456902175
  0
LINE
  5
2CF
100
AcDbEntity
  8
DRAFT
100
AcDbLine
 62
7
  6
CONTINUOUS
 10
-93.9708360367
 20
-54.7456902175
 11
-93.9708360367
 21
-53.7229986331
  0
LINE
  5
2D0
100
AcDbEntity
  8
SMUSSO
100
AcDbLine
 62
7
  6
CONTINUOUS
 10
-93.9708360367
 20
-53.7229986331
 11
-93.9708360367
 21
-45.7753638279
  0
LINE
  5
2D1
100
AcDbEntity
  8
DRAFT
100
AcDbLine
 62
7
  6
CONTINUOUS
 10
-93.9708360367
 20
-45.7753638279
 11
-93.9708360367
 21
-44.7526722435
  0
LINE
  5
2D2
100
AcDbEntity
  8
DRAFT
100
AcDbLine
 62
7
  6
CONTINUOUS
 10
-93.9708360367
 20
-34.7456902175
 11
-93.9708360367
 21
-24.7526722435
  0
LINE
  5
2D3
100
AcDbEntity
  8
DRAFT
100
AcDbLine
 62
7
  6
CONTINUOUS
 10
-93.9708360367
 20
-14.7456902175
 11
-93.9708360367
 21
-4.7526722435
  0
LINE
  5
2D4
100
AcDbEntity
  8
SMUSSO
100
AcDbLine
 62
7
  6
CONTINUOUS
 10
-93.9708360367
 20
-3.7229986331
 11
-93.9708360367
 21
4.2246361721
  0
LINE
  5
2D5
100
AcDbEntity
  8
DRAFT
100
AcDbLine
 62
7
  6
CONTINUOUS
 10
-93.9708360367
 20
5.2543097825
 11
-93.9708360367
 21
15.2473277565
  0
LINE
  5
2D6
100
AcDbEntity
  8
SMUSSO
100
AcDbLine
 62
7
  6
CONTINUOUS
 10
-93.9708360367
 20
-73.7491812305
 11
-93.9708360367
 21
-74.0729986331
  0
LINE
  5
2D7
100
AcDbEntity
  8
DRAFT
100
AcDbLine
 62
7
  6
CONTINUOUS
 10
-93.9708360367
 20
25.2543097825
 11
-93.9708360367
 21
35.2473277565
  0
LINE
  5
2D8
100
AcDbEntity
  8
DRAFT
100
AcDbLine
 62
7
  6
CONTINUOUS
 10
-93.9708360367
 20
45.2543097825
 11
-93.9708360367
 21
46.2770013669
  0
LINE
  5
2D9
100
AcDbEntity
  8
SMUSSO
100
AcDbLine
 62
7
  6
CONTINUOUS
 10
-93.9708360367
 20
46.2770013669
 11
-93.9708360367
 21
54.2246361721
  0
LINE
  5
2DA
100
AcDbEntity
  8
DRAFT
100
AcDbLine
 62
7
  6
CONTINUOUS
 10
-93.9708360367
 20
54.2246361721
 11
-93.9708360367
 21
55.2473277565
  0
LINE
  5
2DB
100
AcDbEntity
  8
DRAFT
100
AcDbLine
 62
7
  6
CONTINUOUS
 10
-93.9708360367
 20
61.3473277565
 11
-93.9708360367
 21
62.3473277565
  0
LINE
  5
2DC
100
AcDbEntity
  8
RACCORDO
100
AcDbLine
 62
7
  6
CONTINUOUS
 10
-93.9208360367
 20
-76.5166632175
 11
-93.9208360367
 21
77.0183007564
  0
LINE
  5
2DD
100
AcDbEntity
  8
RACCORDO
100
AcDbLine
 62
253
  6
CONTINUOUS
 10
-93.8634861269
 20
-75.5986376789
 11
-93.8634861269
 21
76.1002752187
  0
LINE
  5
2DE
100
AcDbEntity
  8
RACCORDO
100
AcDbLine
 62
7
  6
CONTINUOUS
 10
-93.9208360367
 20
-3.9430719578
 11
-94.0208360367
 21
-3.9448174643
  0
LINE
  5
2DF
100
AcDbEntity
  8
SMUSSO
100
AcDbLine
 62
7
  6
CONTINUOUS
 10
-93.9208360367
 20
-3.7238713864
 11
-93.9708360367
 21
-3.7229986331
  0
LINE
  5
2E0
100
AcDbEntity
  8
RACCORDO
100
AcDbLine
 62
7
  6
CONTINUOUS
 10
-93.9708360367
 20
-3.25441775
 11
-94.0208360367
 21
-3.2535449967
  0
LINE
  5
2E1
100
AcDbEntity
  8
RACCORDO
100
AcDbLine
 62
253
  6
CONTINUOUS
 10
-93.4869121507
 20
76.1002751851
 11
-93.4869121507
 21
-75.598637645
  0
LINE
  5
2E2
100
AcDbEntity
  8
RACCORDO
100
AcDbLine
 62
253
  6
CONTINUOUS
 10
-93.3477525415
 20
76.1017032156
 11
-93.3477525415
 21
-75.6000656766
  0
LINE
  5
2E3
100
AcDbEntity
  8
RACCORDO
100
AcDbLine
 62
7
  6
CONTINUOUS
 10
-90.5208360367
 20
-77.1491812305
 11
-90.5208360367
 21
77.6508187695
  0
LINE
  5
2E4
100
AcDbEntity
  8
SMUSSO
100
AcDbLine
 62
7
  6
CONTINUOUS
 10
-89.1208360367
 20
76.1508187695
 11
-89.1208360367
 21
-75.6491812305
  0
LINE
  5
2E5
100
AcDbEntity
  8
RACCORDO
100
AcDbLine
 62
7
  6
CONTINUOUS
 10
-93.9708360367
 20
3.756055289
 11
-94.0208360367
 21
3.7551825357
  0
LINE
  5
2E6
100
AcDbEntity
  8
SMUSSO
100
AcDbLine
 62
7
  6
CONTINUOUS
 10
-93.9708360367
 20
4.2246361721
 11
-93.9208360367
 21
4.2255089253
  0
LINE
  5
2E7
100
AcDbEntity
  8
RACCORDO
100
AcDbLine
 62
7
  6
CONTINUOUS
 10
-93.9208360367
 20
4.4447094968
 11
-94.0208360367
 21
4.4464550033
  0
LINE
  5
2E8
100
AcDbEntity
  8
DRAFT
100
AcDbLine
 62
7
  6
CONTINUOUS
 10
-93.9208360367
 20
5.2534370292
 11
-93.9708360367
 21
5.2543097825
  0
LINE
  5
2E9
100
AcDbEntity
  8
DRAFT
100
AcDbLine
 62
7
  6
CONTINUOUS
 10
-93.9208360367
 20
15.2482005098
 11
-93.9708360367
 21
15.2473277565
  0
LINE
  5
2EA
100
AcDbEntity
  8
RACCORDO
100
AcDbLine
 62
7
  6
CONTINUOUS
 10
-93.9208360367
 20
16.0569280422
 11
-94.0208360367
 21
16.0551825357
  0
LINE
  5
2EB
100
AcDbEntity
  8
RACCORDO
100
AcDbLine
 62
7
  6
CONTINUOUS
 10
-93.9208360367
 20
16.7447094968
 11
-94.0208360367
 21
16.7464550033
  0
LINE
  5
2EC
100
AcDbEntity
  8
RACCORDO
100
AcDbLine
 62
7
  6
CONTINUOUS
 10
-93.9208360367
 20
23.7569280422
 11
-94.0208360367
 21
23.7551825357
  0
LINE
  5
2ED
100
AcDbEntity
  8
RACCORDO
100
AcDbLine
 62
7
  6
CONTINUOUS
 10
-93.9208360367
 20
24.4447094968
 11
-94.0208360367
 21
24.4464550033
  0
LINE
  5
2EE
100
AcDbEntity
  8
DRAFT
100
AcDbLine
 62
7
  6
CONTINUOUS
 10
-93.9208360367
 20
25.2534370292
 11
-93.9708360367
 21
25.2543097825
  0
LINE
  5
2EF
100
AcDbEntity
  8
DRAFT
100
AcDbLine
 62
7
  6
CONTINUOUS
 10
-93.9208360367
 20
35.2482005098
 11
-93.9708360367
 21
35.2473277565
  0
LINE
  5
2F0
100
AcDbEntity
  8
RACCORDO
100
AcDbLine
 62
7
  6
CONTINUOUS
 10
-93.9208360367
 20
36.0569280422
 11
-94.0208360367
 21
36.0551825357
  0
LINE
  5
2F1
100
AcDbEntity
  8
RACCORDO
100
AcDbLine
 62
7
  6
CONTINUOUS
 10
-93.9208360367
 20
36.7447094968
 11
-94.0208360367
 21
36.7464550033
  0
LINE
  5
2F2
100
AcDbEntity
  8
RACCORDO
100
AcDbLine
 62
7
  6
CONTINUOUS
 10
-93.9208360367
 20
43.7569280422
 11
-94.0208360367
 21
43.7551825357
  0
LINE
  5
2F3
100
AcDbEntity
  8
RACCORDO
100
AcDbLine
 62
7
  6
CONTINUOUS
 10
-93.9208360367
 20
44.4447094968
 11
-94.0208360367
 21
44.4464550033
  0
LINE
  5
2F4
100
AcDbEntity
  8
DRAFT
100
AcDbLine
 62
7
  6
CONTINUOUS
 10
-93.9208360367
 20
45.2534370292
 11
-93.9708360367
 21
45.2543097825
  0
LINE
  5
2F5
100
AcDbEntity
  8
SMUSSO
100
AcDbLine
 62
7
  6
CONTINUOUS
 10
-93.9208360367
 20
46.2761286136
 11
-93.9708360367
 21
46.2770013669
  0
LINE
  5
2F6
100
AcDbEntity
  8
SMUSSO
100
AcDbLine
 62
7
  6
CONTINUOUS
 10
-94.0208360367
 20
-76.8491812305
 11
-94.5208360367
 21
-77.3491812305
  0
LINE
  5
2F7
100
AcDbEntity
  8
SMUSSO
100
AcDbLine
 62
7
  6
CONTINUOUS
 10
-89.1208360366
 20
-75.6491812305
 11
-90.5208360365
 21
-77.0491812303
  0
LINE
  5
2F8
100
AcDbEntity
  8
SMUSSO
100
AcDbLine
 62
7
  6
CONTINUOUS
 10
-93.9708360367
 20
54.2246361721
 11
-93.9208360367
 21
54.2255089253
  0
LINE
  5
2F9
100
AcDbEntity
  8
DRAFT
100
AcDbLine
 62
7
  6
CONTINUOUS
 10
-93.9208360367
 20
55.2482005098
 11
-93.9708360367
 21
55.2473277565
  0
LINE
  5
2FA
100
AcDbEntity
  8
SMUSSO
100
AcDbLine
 62
7
  6
CONTINUOUS
 10
-94.0208360367
 20
77.3508187695
 11
-94.5208360367
 21
77.8508187695
  0
LINE
  5
2FB
100
AcDbEntity
  8
SMUSSO
100
AcDbLine
 62
7
  6
CONTINUOUS
 10
-89.1208360367
 20
76.1508187695
 11
-90.5208360367
 21
77.5508187695
  0
LINE
  5
2FC
100
AcDbEntity
  8
RACCORDO
100
AcDbLine
 62
253
  6
CONTINUOUS
 10
-94.0208360367
 20
60.0466529996
 11
-93.9208360367
 21
60.048398506
  0
LINE
  5
2FD
100
AcDbEntity
  8
RACCORDO
100
AcDbLine
 62
7
  6
CONTINUOUS
 10
-94.0208360367
 20
61.3464550033
 11
-93.9208360367
 21
61.3482005098
  0
LINE
  5
2FE
100
AcDbEntity
  8
RACCORDO
100
AcDbLine
 62
253
  6
CONTINUOUS
 10
-99.2760717586
 20
61.3560705125
 11
-98.0208360367
 21
61.3779807335
  0
LINE
  5
2FF
100
AcDbEntity
  8
RACCORDO
100
AcDbLine
 62
7
  6
CONTINUOUS
 10
-99.2760717586
 20
62.0559638991
 11
-98.0208360367
 21
62.0778741201
  0
LINE
  5
300
100
AcDbEntity
  8
DRAFT
100
AcDbLine
 62
7
  6
CONTINUOUS
 10
-93.9208360367
 20
62.3482005098
 11
-93.9708360367
 21
62.3473277565
  0
LINE
  5
301
100
AcDbEntity
  8
RACCORDO
100
AcDbLine
 62
253
  6
CONTINUOUS
 10
-99.2760717586
 20
61.3560705121
 11
-99.5708360367
 21
61.3560705125
  0
LINE
  5
302
100
AcDbEntity
  8
ASSI
100
AcDbLine
 62
7
  6
CONTINUOUS
 10
-93.9708360367
 20
61.5008187695
 11
-94.0208360367
 21
61.5008187695
  0
LWPOLYLINE
  5
303
100
AcDbEntity
  8
RACCORDO
100
AcDbPolyline
 62
7
  6
CONTINUOUS
 90
8
 70
0
 10
-93.355098454
 20
77.6012119329
 10
-93.3724415484
 20
77.5995139016
 10
-93.3895185184
 20
77.5963250839
 10
-93.4062051458
 20
77.5916826644
 10
-93.4223847762
 20
77.5856323451
 10
-93.4379483958
 20
77.5782266055
 10
-93.4527777323
 20
77.5695338438
 10
-93.4667537934
 20
77.5596406488
  0
LINE
  5
304
100
AcDbEntity
  8
RACCORDO
100
AcDbLine
 62
7
  6
CONTINUOUS
 10
-93.3477879305
 20
77.6014733155
 11
-93.355098454
 21
77.6012119329
  0
LINE
  5
305
100
AcDbEntity
  8
RACCORDO
100
AcDbLine
 62
253
  6
CONTINUOUS
 10
-93.3477525415
 20
76.1017032156
 11
-90.5208360367
 21
76.1510472268
  0
LINE
  5
306
100
AcDbEntity
  8
RACCORDO
100
AcDbLine
 62
7
  6
CONTINUOUS
 10
-93.3477876223
 20
77.601474146
 11
-90.5208360367
 21
77.6508187695
  0
LINE
  5
307
100
AcDbEntity
  8
RACCORDO
100
AcDbLine
 62
7
  6
CONTINUOUS
 10
-93.9708360367
 20
74.2508187695
 11
-93.9208360367
 21
74.2508187695
  0
LINE
  5
308
100
AcDbEntity
  8
SMUSSO
100
AcDbLine
 62
253
  6
CONTINUOUS
 10
-89.1208360367
 20
76.0508187695
 11
-90.5208360367
 21
76.0508187695
  0
LINE
  5
309
100
AcDbEntity
  8
RACCORDO
100
AcDbLine
 62
253
  6
CONTINUOUS
 10
-93.9208360367
 20
76.100275222
 11
-93.86347673
 21
76.1002752126
  0
LINE
  5
30A
100
AcDbEntity
  8
RACCORDO
100
AcDbLine
 62
7
  6
CONTINUOUS
 10
-93.8634861269
 20
76.1002752187
 11
-93.4869121507
 21
76.1002751851
  0
LINE
  5
30B
100
AcDbEntity
  8
SMUSSO
100
AcDbLine
 62
253
  6
CONTINUOUS
 10
-94.0208360367
 20
76.8508187695
 11
-96.0208360367
 21
76.8508187695
  0
LINE
  5
30C
100
AcDbEntity
  8
RACCORDO
100
AcDbLine
 62
7
  6
CONTINUOUS
 10
-96.0208360367
 20
77.8508187695
 11
-94.5208360367
 21
77.8508187695
  0
LINE
  5
30D
100
AcDbEntity
  8
SMUSSO
100
AcDbLine
 62
7
  6
CONTINUOUS
 10
-96.0208360367
 20
77.8508187695
 11
-94.5208360367
 21
77.8508187695
  0
ARC
  5
30E
100
AcDbEntity
  8
SMUSSO
100
AcDbCircle
 62
7
  6
CONTINUOUS
 10
97.881173012
 20
-76.3491812305
 40
1.0
100
AcDbArc
 50
270.0
 51
360.0
  0
ARC
  5
30F
100
AcDbEntity
  8
SMUSSO
100
AcDbCircle
 62
7
  6
CONTINUOUS
 10
97.881173012
 20
76.8508187695
 40
1.0
100
AcDbArc
 50
0.0
 51
90.0
  0
ARC
  5
310
100
AcDbEntity
  8
SMUSSO
100
AcDbCircle
 62
7
  6
CONTINUOUS
 10
-55.318826988
 20
-76.3491812305
 40
1.0
100
AcDbArc
 50
180.0
 51
270.0
  0
ARC
  5
311
100
AcDbEntity
  8
SMUSSO
100
AcDbCircle
 62
7
  6
CONTINUOUS
 10
-55.318826988
 20
76.8508187695
 40
1.0
100
AcDbArc
 50
90.0
 51
180.0
  0
ARC
  5
312
100
AcDbEntity
  8
RACCORDO
100
AcDbCircle
 62
253
  6
CONTINUOUS
 10
-23.0802531181
 20
-57.4980119487
 40
0.754463375
100
AcDbArc
 50
180.0109000379
 51
182.0368019674
  0
ARC
  5
313
100
AcDbEntity
  8
RACCORDO
100
AcDbCircle
 62
253
  6
CONTINUOUS
 10
65.642599142
 20
57.9996494876
 40
0.754463375
100
AcDbArc
 50
0.0109000379
 51
2.0368019674
  0
ARC
  5
314
100
AcDbEntity
  8
RACCORDO
100
AcDbCircle
 62
253
  6
CONTINUOUS
 10
66.0800037301
 20
-57.0606073605
 40
0.754463375
100
AcDbArc
 50
270.0109000379
 51
272.0368019674
  0
ARC
  5
315
100
AcDbEntity
  8
RACCORDO
100
AcDbCircle
 62
253
  6
CONTINUOUS
 10
65.6432814698
 20
-57.4980290764
 40
0.7537810442
100
AcDbArc
 50
357.9612053678
 51
359.9903919991
  0
ARC
  5
316
100
AcDbEntity
  8
RACCORDO
100
AcDbCircle
 62
253
  6
CONTINUOUS
 10
-23.517674834
 20
-57.0612896884
 40
0.7537810442
100
AcDbArc
 50
267.9612053678
 51
269.9903919991
  0
ARC
  5
317
100
AcDbEntity
  8
RACCORDO
100
AcDbCircle
 62
253
  6
CONTINUOUS
 10
66.0800208579
 20
57.5629272273
 40
0.7537810442
100
AcDbArc
 50
87.9612053677
 51
89.9903919991
  0
ARC
  5
318
100
AcDbEntity
  8
RACCORDO
100
AcDbCircle
 62
253
  6
CONTINUOUS
 10
-23.5177120944
 20
57.5645979916
 40
0.7521102746
100
AcDbArc
 50
90.0067908473
 51
92.0426958853
  0
ARC
  5
319
100
AcDbEntity
  8
RACCORDO
100
AcDbCircle
 62
253
  6
CONTINUOUS
 10
-23.0849226105
 20
57.9997328675
 40
0.7497938713
100
AcDbArc
 50
177.9568775342
 51
179.9954035863
  0
ARC
  5
31A
100
AcDbEntity
  8
RACCORDO
100
AcDbCircle
 62
253
  6
CONTINUOUS
 10
-26.8739936851
 20
61.3559854666
 40
0.6999784377
100
AcDbArc
 50
90.0069613172
 51
179.9930386828
  0
ARC
  5
31B
100
AcDbEntity
  8
RACCORDO
100
AcDbCircle
 62
253
  6
CONTINUOUS
 10
69.436339709
 20
61.3559854666
 40
0.6999784377
100
AcDbArc
 50
0.0069613172
 51
89.9930386828
  0
ARC
  5
31C
100
AcDbEntity
  8
RACCORDO
100
AcDbCircle
 62
253
  6
CONTINUOUS
 10
69.436339709
 20
-60.8543479276
 40
0.6999784377
100
AcDbArc
 50
270.0069613172
 51
359.9930386828
  0
ARC
  5
31D
100
AcDbEntity
  8
RACCORDO
100
AcDbCircle
 62
253
  6
CONTINUOUS
 10
-26.8739936851
 20
-60.8543479276
 40
0.6999784377
100
AcDbArc
 50
180.0069613172
 51
269.9930386828
  0
ARC
  5
31E
100
AcDbEntity
  8
RACCORDO
100
AcDbCircle
 62
253
  6
CONTINUOUS
 10
69.4364441706
 20
-60.854452389
 40
0.399919154
100
AcDbArc
 50
269.9972183598
 51
0.0027817561
  0
ARC
  5
31F
100
AcDbEntity
  8
RACCORDO
100
AcDbCircle
 62
253
  6
CONTINUOUS
 10
-26.8741024217
 20
-60.8544566642
 40
0.3999138953
100
AcDbArc
 50
179.9966058371
 51
270.0033942783
  0
ARC
  5
320
100
AcDbEntity
  8
RACCORDO
100
AcDbCircle
 62
253
  6
CONTINUOUS
 10
66.1281343075
 20
57.9999144707
 40
0.2519672907
100
AcDbArc
 50
359.9723823946
 51
2.2431438112
  0
ARC
  5
321
100
AcDbEntity
  8
RACCORDO
100
AcDbCircle
 62
253
  6
CONTINUOUS
 10
66.0802687132
 20
-57.546142526
 40
0.2519672908
100
AcDbArc
 50
269.9723823947
 51
272.243143811
  0
ARC
  5
322
100
AcDbEntity
  8
RACCORDO
100
AcDbCircle
 62
253
  6
CONTINUOUS
 10
-23.5657882835
 20
-57.4982769317
 40
0.2519672908
100
AcDbArc
 50
179.9723823946
 51
182.243143811
  0
ARC
  5
323
100
AcDbEntity
  8
RACCORDO
100
AcDbCircle
 62
253
  6
CONTINUOUS
 10
66.0802687183
 20
58.0477803289
 40
0.2519670269
100
AcDbArc
 50
87.7568549997
 51
90.0276187946
  0
ARC
  5
324
100
AcDbEntity
  8
RACCORDO
100
AcDbCircle
 62
253
  6
CONTINUOUS
 10
66.1281345713
 20
-57.4982769368
 40
0.2519670269
100
AcDbArc
 50
357.7568549998
 51
0.0276187944
  0
ARC
  5
325
100
AcDbEntity
  8
RACCORDO
100
AcDbCircle
 62
253
  6
CONTINUOUS
 10
-23.5179226944
 20
-57.5461427898
 40
0.2519670269
100
AcDbArc
 50
267.7568549998
 51
270.0276187944
  0
ARC
  5
326
100
AcDbEntity
  8
RACCORDO
100
AcDbCircle
 62
253
  6
CONTINUOUS
 10
-23.5662505039
 20
57.9999234084
 40
0.2515050749
100
AcDbArc
 50
177.7547693132
 51
180.0297044812
  0
ARC
  5
327
100
AcDbEntity
  8
RACCORDO
100
AcDbCircle
 62
253
  6
CONTINUOUS
 10
-23.517935691
 20
58.0484524585
 40
0.251294904
100
AcDbArc
 50
89.9693440707
 51
92.2461821353
  0
ARC
  5
328
100
AcDbEntity
  8
RACCORDO
100
AcDbCircle
 62
7
  6
CONTINUOUS
 10
-99.2708360367
 20
-61.2543720516
 40
0.3
100
AcDbArc
 50
180.0000000167
 51
268.8969051354
  0
ARC
  5
329
100
AcDbEntity
  8
RACCORDO
100
AcDbCircle
 62
7
  6
CONTINUOUS
 10
-99.2708360367
 20
61.7560095906
 40
0.3
100
AcDbArc
 50
91.0
 51
180.0
  0
ARC
  5
32A
100
AcDbEntity
  8
RACCORDO
100
AcDbCircle
 62
7
  6
CONTINUOUS
 10
-93.3442620602
 20
-76.8998676803
 40
0.2
100
AcDbArc
 50
224.4999997481
 51
269.0
  0
ARC
  5
32B
100
AcDbEntity
  8
RACCORDO
100
AcDbCircle
 62
7
  6
CONTINUOUS
 10
-93.7208360367
 20
77.0183007569
 40
0.2
100
AcDbArc
 50
135.5000001834
 51
180.0000001308
  0
ARC
  5
32C
100
AcDbEntity
  8
RACCORDO
100
AcDbCircle
 62
7
  6
CONTINUOUS
 10
-93.7208360367
 20
-76.5166846892
 40
0.2
100
AcDbArc
 50
179.9938488065
 51
224.499453158
  0
ARC
  5
32D
100
AcDbEntity
  8
RACCORDO
100
AcDbCircle
 62
7
  6
CONTINUOUS
 10
-93.3442620602
 20
77.4015052193
 40
0.2
100
AcDbArc
 50
91.0
 51
135.5071291858
  0
SPLINE
  5
32E
100
AcDbEntity
  8
RACCORDO
100
AcDbSpline
 62
253
  6
CONTINUOUS
 70
0
 71
3
 72
11
 73
7
 74
5
 42
0.0000001
 43
0.0000001
 44
0.0000000001
 12
-0.9071733294
 22
-0.0000394998
 32
0.0
 13
-0.0000122996
 23
-0.9071733302
 33
0.0
 40
0.0
 40
0.0
 40
0.0
 40
0.0
 40
0.2500885221
 40
0.5000001758
 40
0.7499117876
 40
1.0
 40
1.0
 40
1.0
 40
1.0
 10
-24.273317166
 20
59.3348644432
 30
0.0
 10
-24.3489417117
 20
59.3348611504
 30
0.0
 10
-24.501892466
 20
59.3064631455
 30
0.0
 10
-24.696515329
 20
59.1785064229
 30
0.0
 10
-24.8244738807
 20
58.9838848568
 30
0.0
 10
-24.8528716364
 20
58.8309333996
 30
0.0
 10
-24.8528726617
 20
58.7553089474
 30
0.0
 11
-24.273317166
 21
59.3348644432
 31
0.0
 11
-24.4961457509
 21
59.2922138963
 31
0.0
 11
-24.6854072491
 21
59.1673982141
 31
0.0
 11
-24.8102243008
 21
58.9781376646
 31
0.0
 11
-24.8528726617
 21
58.7553089474
 31
0.0
  0
SPLINE
  5
32F
100
AcDbEntity
  8
RACCORDO
100
AcDbSpline
 62
253
  6
CONTINUOUS
 70
0
 71
3
 72
11
 73
7
 74
5
 42
0.0000001
 43
0.0000001
 44
0.0000000001
 12
0.0000126196
 22
-0.9071733301
 32
0.0
 13
0.9071733294
 23
-0.0000392266
 33
0.0
 40
0.0
 40
0.0
 40
0.0
 40
0.0
 40
0.2500882116
 40
0.4999998238
 40
0.7499114764
 40
1.0
 40
1.0
 40
1.0
 40
1.0
 10
-24.8528726617
 20
-58.2536714084
 30
0.0
 10
-24.8528716097
 20
-58.3292958603
 30
0.0
 10
-24.8244738961
 20
-58.4822473174
 30
0.0
 10
-24.6965153256
 20
-58.6768688854
 30
0.0
 10
-24.5018924673
 20
-58.8048255939
 30
0.0
 10
-24.3489417121
 20
-58.8332236342
 30
0.0
 10
-24.273317166
 20
-58.8332269042
 30
0.0
 11
-24.8528726617
 21
-58.2536714084
 31
0.0
 11
-24.8102243026
 21
-58.4765001252
 31
0.0
 11
-24.6854072494
 21
-58.6657606741
 31
0.0
 11
-24.4961457518
 21
-58.7905763555
 31
0.0
 11
-24.273317166
 21
-58.8332269042
 31
0.0
  0
SPLINE
  5
330
100
AcDbEntity
  8
RACCORDO
100
AcDbSpline
 62
253
  6
CONTINUOUS
 70
0
 71
3
 72
11
 73
7
 74
5
 42
0.0000001
 43
0.0000001
 44
0.0000000001
 12
0.9071733301
 22
0.0000126196
 32
0.0
 13
0.0000392266
 23
0.9071733294
 33
0.0
 40
0.0
 40
0.0
 40
0.0
 40
0.0
 40
0.2500882116
 40
0.4999998238
 40
0.7499114764
 40
1.0
 40
1.0
 40
1.0
 40
1.0
 10
66.8356631899
 20
-58.8332269042
 30
0.0
 10
66.9112876418
 20
-58.8332258522
 30
0.0
 10
67.0642390988
 20
-58.8048281385
 30
0.0
 10
67.2588606668
 20
-58.6768695681
 30
0.0
 10
67.3868173753
 20
-58.4822467098
 30
0.0
 10
67.4152154156
 20
-58.3292959546
 30
0.0
 10
67.4152186856
 20
-58.2536714084
 30
0.0
 11
66.8356631899
 21
-58.8332269042
 31
0.0
 11
67.0584919067
 21
-58.7905785451
 31
0.0
 11
67.2477524555
 21
-58.6657614919
 31
0.0
 11
67.372568137
 21
-58.4764999943
 31
0.0
 11
67.4152186856
 21
-58.2536714084
 31
0.0
  0
SPLINE
  5
331
100
AcDbEntity
  8
RACCORDO
100
AcDbSpline
 62
253
  6
CONTINUOUS
 70
0
 71
3
 72
11
 73
7
 74
5
 42
0.0000001
 43
0.0000001
 44
0.0000000001
 12
-0.0000126196
 22
0.9071733301
 32
0.0
 13
-0.9071733294
 23
0.0000392266
 33
0.0
 40
0.0
 40
0.0
 40
0.0
 40
0.0
 40
0.2500882116
 40
0.4999998238
 40
0.7499114764
 40
1.0
 40
1.0
 40
1.0
 40
1.0
 10
67.4152186856
 20
58.7553089474
 30
0.0
 10
67.4152176336
 20
58.8309333993
 30
0.0
 10
67.38681992
 20
58.9838848563
 30
0.0
 10
67.2588613495
 20
59.1785064244
 30
0.0
 10
67.0642384912
 20
59.3064631328
 30
0.0
 10
66.9112877361
 20
59.3348611731
 30
0.0
 10
66.8356631899
 20
59.3348644432
 30
0.0
 11
67.4152186856
 21
58.7553089474
 31
0.0
 11
67.3725703265
 21
58.9781376642
 31
0.0
 11
67.2477532733
 21
59.1673982131
 31
0.0
 11
67.0584917757
 21
59.2922138945
 31
0.0
 11
66.8356631899
 21
59.3348644432
 31
0.0
  0
SPLINE
  5
332
100
AcDbEntity
  8
RACCORDO
100
AcDbSpline
 62
253
  6
CONTINUOUS
 70
0
 71
3
 72
12
 73
8
 74
6
 42
0.0000001
 43
0.0000001
 44
0.0000000001
 12
-0.0000009443
 22
0.6205214071
 32
0.0
 13
0.6205214067
 23
0.0000214267
 33
0.0
 40
0.0
 40
0.0
 40
0.0
 40
0.0
 40
0.1254466776
 40
0.2508924308
 40
0.5005955773
 40
0.7502986155
 40
1.0
 40
1.0
 40
1.0
 40
1.0
 10
-27.2740178091
 20
61.3605773942
 30
0.0
 10
-27.2740178486
 20
61.3865248438
 30
0.0
 10
-27.2678734145
 20
61.4385090161
 30
0.0
 10
-27.2370450409
 20
61.5378273742
 30
0.0
 10
-27.1624244551
 20
61.6478440904
 30
0.0
 10
-27.0301500031
 20
61.7354675373
 30
0.0
 10
-26.9257270825
 20
61.7560078071
 30
0.0
 10
-26.874078731
 20
61.7560095906
 30
0.0
 11
-27.2740178091
 21
61.3605773942
 31
0.0
 11
-27.2655467815
 21
61.4379574496
 31
0.0
 11
-27.2422710679
 21
61.5122378853
 31
0.0
 11
-27.1552885718
 21
61.6404656284
 31
0.0
 11
-27.0260896685
 21
61.7259988459
 31
0.0
 11
-26.874078731
 21
61.7560095906
 31
0.0
  0
SPLINE
  5
333
100
AcDbEntity
  8
RACCORDO
100
AcDbSpline
 62
253
  6
CONTINUOUS
 70
0
 71
3
 72
12
 73
8
 74
6
 42
0.0000001
 43
0.0000001
 44
0.0000000001
 12
0.6205213999
 22
0.0000009443
 32
0.0
 13
0.0000214267
 23
-0.6205213995
 33
0.0
 40
0.0
 40
0.0
 40
0.0
 40
0.0
 40
0.1254466776
 40
0.2508924308
 40
0.5005955773
 40
0.7502986154
 40
1.0
 40
1.0
 40
1.0
 40
1.0
 10
69.4409316439
 20
61.7560095906
 30
0.0
 10
69.4668790933
 20
61.75600963
 30
0.0
 10
69.5188632648
 20
61.7498651943
 30
0.0
 10
69.6181816213
 20
61.71903682
 30
0.0
 10
69.7281983354
 20
61.6444162337
 30
0.0
 10
69.8158217802
 20
61.5121417827
 30
0.0
 10
69.8363620496
 20
61.4077188634
 30
0.0
 10
69.836363833
 20
61.3560705125
 30
0.0
 11
69.4409316439
 21
61.7560095906
 31
0.0
 11
69.5183116983
 21
61.7475385617
 31
0.0
 11
69.5925921328
 21
61.7242628472
 31
0.0
 11
69.7208198734
 21
61.6372803506
 31
0.0
 11
69.806353089
 21
61.5080814483
 31
0.0
 11
69.836363833
 21
61.3560705125
 31
0.0
  0
SPLINE
  5
334
100
AcDbEntity
  8
RACCORDO
100
AcDbSpline
 62
253
  6
CONTINUOUS
 70
0
 71
3
 72
9
 73
5
 74
3
 42
0.0000001
 43
0.0000001
 44
0.0000000001
 12
-0.0024342484
 22
0.0240581003
 32
0.0
 13
-0.0213278312
 23
0.0113947958
 33
0.0
 40
0.0
 40
0.0
 40
0.0
 40
0.0
 40
0.3915199185
 40
1.0
 40
1.0
 40
1.0
 40
1.0
 10
-23.8175625073
 20
58.0097765324
 30
0.0
 10
-23.8178801928
 20
58.0129162742
 30
0.0
 10
-23.8229941531
 20
58.0200827891
 30
0.0
 10
-23.8299141578
 20
58.0241429561
 30
0.0
 10
-23.8342400113
 20
58.0264541249
 30
0.0
 11
-23.8175625073
 21
58.0097765324
 31
0.0
 11
-23.8221614721
 21
58.0180517755
 31
0.0
 11
-23.8342400113
 21
58.0264541249
 31
0.0
  0
SPLINE
  5
335
100
AcDbEntity
  8
RACCORDO
100
AcDbSpline
 62
253
  6
CONTINUOUS
 70
0
 71
3
 72
9
 73
5
 74
3
 42
0.0000001
 43
0.0000001
 44
0.0000000001
 12
-0.0240582391
 22
0.0024341814
 32
0.0
 13
-0.0113946227
 23
0.0213280727
 33
0.0
 40
0.0
 40
0.0
 40
0.0
 40
0.0
 40
0.3915214139
 40
1.0
 40
1.0
 40
1.0
 40
1.0
 10
-23.527784736
 20
58.299553837
 30
0.0
 10
-23.5309245079
 20
58.2998715151
 30
0.0
 10
-23.5380910925
 20
58.3049854801
 30
0.0
 10
-23.5421512156
 20
58.3119055786
 30
0.0
 10
-23.5444623435
 20
58.3162314704
 30
0.0
 11
-23.527784736
 21
58.299553837
 31
0.0
 11
-23.5360600641
 21
58.3041528291
 31
0.0
 11
-23.5444623435
 21
58.3162314704
 31
0.0
  0
SPLINE
  5
336
100
AcDbEntity
  8
RACCORDO
100
AcDbSpline
 62
253
  6
CONTINUOUS
 70
0
 71
3
 72
9
 73
5
 74
3
 42
0.0000001
 43
0.0000001
 44
0.0000000001
 12
0.0240581959
 22
0.0024342294
 32
0.0
 13
0.0113946189
 23
0.0213280314
 33
0.0
 40
0.0
 40
0.0
 40
0.0
 40
0.0
 40
0.3915218909
 40
1.0
 40
1.0
 40
1.0
 40
1.0
 10
66.0901307746
 20
58.2995542794
 30
0.0
 10
66.0932705447
 20
58.2998719641
 30
0.0
 10
66.1004371163
 20
58.304985913
 30
0.0
 10
66.104497242
 20
58.3119059978
 30
0.0
 10
66.1068083674
 20
58.3162318779
 30
0.0
 11
66.0901307746
 21
58.2995542794
 31
0.0
 11
66.0984060988
 21
58.3041532715
 31
0.0
 11
66.1068083674
 21
58.3162318779
 31
0.0
  0
SPLINE
  5
337
100
AcDbEntity
  8
RACCORDO
100
AcDbSpline
 62
253
  6
CONTINUOUS
 70
0
 71
3
 72
9
 73
5
 74
3
 42
0.0000001
 43
0.0000001
 44
0.0000000001
 12
0.0024342817
 22
0.0240581444
 32
0.0
 13
0.0213279745
 23
0.0113946277
 33
0.0
 40
0.0
 40
0.0
 40
0.0
 40
0.0
 40
0.3915222167
 40
1.0
 40
1.0
 40
1.0
 40
1.0
 10
66.3799090059
 20
58.0097765482
 30
0.0
 10
66.3802266977
 20
58.0129163142
 30
0.0
 10
66.3853406318
 20
58.0200828678
 30
0.0
 10
66.3922606968
 20
58.0241429989
 30
0.0
 10
66.396586563
 20
58.0264541249
 30
0.0
 11
66.3799090059
 21
58.0097765482
 31
0.0
 11
66.3845079965
 21
58.0180518617
 31
0.0
 11
66.396586563
 21
58.0264541249
 31
0.0
  0
SPLINE
  5
338
100
AcDbEntity
  8
RACCORDO
100
AcDbSpline
 62
253
  6
CONTINUOUS
 70
0
 71
3
 72
9
 73
5
 74
3
 42
0.0000001
 43
0.0000001
 44
0.0000000001
 12
0.0024342294
 22
-0.0240581959
 32
0.0
 13
0.0213280314
 23
-0.0113946189
 33
0.0
 40
0.0
 40
0.0
 40
0.0
 40
0.0
 40
0.3915218909
 40
1.0
 40
1.0
 40
1.0
 40
1.0
 10
66.3799085219
 20
-57.5081389931
 30
0.0
 10
66.3802262066
 20
-57.5112787632
 30
0.0
 10
66.3853401555
 20
-57.5184453348
 30
0.0
 10
66.3922602403
 20
-57.5225054605
 30
0.0
 10
66.3965861203
 20
-57.5248165859
 30
0.0
 11
66.3799085219
 21
-57.5081389931
 31
0.0
 11
66.3845075139
 21
-57.5164143174
 31
0.0
 11
66.3965861203
 21
-57.5248165859
 31
0.0
  0
SPLINE
  5
339
100
AcDbEntity
  8
RACCORDO
100
AcDbSpline
 62
253
  6
CONTINUOUS
 70
0
 71
3
 72
9
 73
5
 74
3
 42
0.0000001
 43
0.0000001
 44
0.0000000001
 12
0.0240581444
 22
-0.0024342817
 32
0.0
 13
0.0113946277
 23
-0.0213279745
 33
0.0
 40
0.0
 40
0.0
 40
0.0
 40
0.0
 40
0.3915222167
 40
1.0
 40
1.0
 40
1.0
 40
1.0
 10
66.0901307907
 20
-57.7979172245
 30
0.0
 10
66.0932705567
 20
-57.7982349163
 30
0.0
 10
66.1004371103
 20
-57.8033488504
 30
0.0
 10
66.1044972414
 20
-57.8102689154
 30
0.0
 10
66.1068083673
 20
-57.8145947816
 30
0.0
 11
66.0901307907
 21
-57.7979172245
 31
0.0
 11
66.0984061042
 21
-57.8025162151
 31
0.0
 11
66.1068083673
 21
-57.8145947816
 31
0.0
  0
SPLINE
  5
33A
100
AcDbEntity
  8
RACCORDO
100
AcDbSpline
 62
253
  6
CONTINUOUS
 70
0
 71
3
 72
9
 73
5
 74
3
 42
0.0000001
 43
0.0000001
 44
0.0000000001
 12
-0.0240581959
 22
-0.0024342294
 32
0.0
 13
-0.0113946189
 23
-0.0213280314
 33
0.0
 40
0.0
 40
0.0
 40
0.0
 40
0.0
 40
0.3915218909
 40
1.0
 40
1.0
 40
1.0
 40
1.0
 10
-23.5277847507
 20
-57.7979167404
 30
0.0
 10
-23.5309245208
 20
-57.7982344251
 30
0.0
 10
-23.5380910924
 20
-57.803348374
 30
0.0
 10
-23.5421512181
 20
-57.8102684588
 30
0.0
 10
-23.5444623435
 20
-57.8145943389
 30
0.0
 11
-23.5277847507
 21
-57.7979167404
 31
0.0
 11
-23.5360600749
 21
-57.8025157325
 31
0.0
 11
-23.5444623435
 21
-57.8145943389
 31
0.0
  0
SPLINE
  5
33B
100
AcDbEntity
  8
RACCORDO
100
AcDbSpline
 62
253
  6
CONTINUOUS
 70
0
 71
3
 72
9
 73
5
 74
3
 42
0.0000001
 43
0.0000001
 44
0.0000000001
 12
-0.0024342817
 22
-0.0240581444
 32
0.0
 13
-0.0213279745
 23
-0.0113946277
 33
0.0
 40
0.0
 40
0.0
 40
0.0
 40
0.0
 40
0.3915222167
 40
1.0
 40
1.0
 40
1.0
 40
1.0
 10
-23.817562982
 20
-57.5081390092
 30
0.0
 10
-23.8178806738
 20
-57.5112787753
 30
0.0
 10
-23.8229946079
 20
-57.5184453288
 30
0.0
 10
-23.8299146729
 20
-57.5225054599
 30
0.0
 10
-23.8342405391
 20
-57.5248165859
 30
0.0
 11
-23.817562982
 21
-57.5081390092
 31
0.0
 11
-23.8221619726
 21
-57.5164143227
 31
0.0
 11
-23.8342405391
 21
-57.5248165859
 31
0.0
  0
SPLINE
  5
33C
100
AcDbEntity
  8
RACCORDO
100
AcDbSpline
 62
253
  6
CONTINUOUS
 70
0
 71
3
 72
11
 73
7
 74
5
 42
0.0000001
 43
0.0000001
 44
0.0000000001
 12
0.0273503572
 22
-0.4633434684
 32
0.0
 13
-0.4633454892
 23
0.0273161024
 33
0.0
 40
0.0
 40
0.0
 40
0.0
 40
0.0
 40
0.2486357399
 40
0.5000006038
 40
0.7513659212
 40
1.0
 40
1.0
 40
1.0
 40
1.0
 10
67.125440331
 20
-58.2536579234
 30
0.0
 10
67.1277070898
 20
-58.2920591721
 30
0.0
 10
67.1186922207
 20
-58.3711562835
 30
0.0
 10
67.056155345
 20
-58.4741556331
 30
0.0
 10
66.9531588676
 20
-58.5366996574
 30
0.0
 10
66.8740620956
 20
-58.5457129596
 30
0.0
 10
66.835660936
 20
-58.5434490549
 30
0.0
 11
67.125440331
 21
-58.2536579234
 31
0.0
 11
67.1106799942
 21
-58.3681143751
 31
0.0
 11
67.0493875949
 21
-58.4673885596
 31
0.0
 11
66.9501162555
 21
-58.5286859677
 31
0.0
 11
66.835660936
 21
-58.5434490549
 31
0.0
  0
SPLINE
  5
33D
100
AcDbEntity
  8
RACCORDO
100
AcDbSpline
 62
253
  6
CONTINUOUS
 70
0
 71
3
 72
11
 73
7
 74
5
 42
0.0000001
 43
0.0000001
 44
0.0000000001
 12
0.4633434684
 22
0.0273503572
 32
0.0
 13
-0.0273161024
 23
-0.4633454892
 33
0.0
 40
0.0
 40
0.0
 40
0.0
 40
0.0
 40
0.2486357399
 40
0.5000006038
 40
0.7513659212
 40
1.0
 40
1.0
 40
1.0
 40
1.0
 10
66.8356497048
 20
59.0450860886
 30
0.0
 10
66.8740509535
 20
59.0473528473
 30
0.0
 10
66.953148065
 20
59.0383379782
 30
0.0
 10
67.0561474146
 20
58.9758011025
 30
0.0
 10
67.1186914388
 20
58.8728046251
 30
0.0
 10
67.127704741
 20
58.7937078531
 30
0.0
 10
67.1254408363
 20
58.7553066935
 30
0.0
 11
66.8356497048
 21
59.0450860886
 31
0.0
 11
66.9501061565
 21
59.0303257517
 31
0.0
 11
67.0493803411
 21
58.9690333524
 31
0.0
 11
67.1106777491
 21
58.8697620131
 31
0.0
 11
67.1254408363
 21
58.7553066935
 31
0.0
  0
SPLINE
  5
33E
100
AcDbEntity
  8
RACCORDO
100
AcDbSpline
 62
253
  6
CONTINUOUS
 70
0
 71
3
 72
11
 73
7
 74
5
 42
0.0000001
 43
0.0000001
 44
0.0000000001
 12
-0.4633434684
 22
-0.0273503572
 32
0.0
 13
0.0273161024
 23
0.4633454892
 33
0.0
 40
0.0
 40
0.0
 40
0.0
 40
0.0
 40
0.2486357399
 40
0.5000006038
 40
0.7513659212
 40
1.0
 40
1.0
 40
1.0
 40
1.0
 10
-24.2733036809
 20
-58.5434485496
 30
0.0
 10
-24.3117049296
 20
-58.5457153083
 30
0.0
 10
-24.3908020411
 20
-58.5367004392
 30
0.0
 10
-24.4938013907
 20
-58.4741635636
 30
0.0
 10
-24.5563454149
 20
-58.3711670861
 30
0.0
 10
-24.5653587171
 20
-58.2920703141
 30
0.0
 10
-24.5630948124
 20
-58.2536691545
 30
0.0
 11
-24.2733036809
 21
-58.5434485496
 31
0.0
 11
-24.3877601326
 21
-58.5286882127
 31
0.0
 11
-24.4870343172
 21
-58.4673958134
 31
0.0
 11
-24.5483317252
 21
-58.3681244741
 31
0.0
 11
-24.5630948124
 21
-58.2536691545
 31
0.0
  0
SPLINE
  5
33F
100
AcDbEntity
  8
RACCORDO
100
AcDbSpline
 62
253
  6
CONTINUOUS
 70
0
 71
3
 72
11
 73
7
 74
5
 42
0.0000001
 43
0.0000001
 44
0.0000000001
 12
-0.027316087
 22
0.4633454758
 32
0.0
 13
0.4633434515
 23
-0.0273504013
 33
0.0
 40
0.0
 40
0.0
 40
0.0
 40
0.0
 40
0.2486340814
 40
0.4999993991
 40
0.7513642621
 40
1.0
 40
1.0
 40
1.0
 40
1.0
 10
-24.5630948172
 20
58.7553067984
 30
0.0
 10
-24.5653587206
 20
58.7937079573
 30
0.0
 10
-24.5563453761
 20
58.8728047263
 30
0.0
 10
-24.4938013182
 20
58.9758011746
 30
0.0
 10
-24.3908019467
 20
59.0383380115
 30
0.0
 10
-24.3117048375
 20
59.0473528469
 30
0.0
 10
-24.2733035905
 20
59.0450860845
 30
0.0
 11
-24.5630948172
 21
58.7553067984
 31
0.0
 11
-24.5483316914
 21
58.8697621106
 31
0.0
 11
-24.4870342464
 21
58.9690334231
 31
0.0
 11
-24.3877600422
 21
59.0303257829
 31
0.0
 11
-24.2733035905
 21
59.0450860845
 31
0.0
  0
SPLINE
  5
340
100
AcDbEntity
  8
RACCORDO
100
AcDbSpline
 62
253
  6
CONTINUOUS
 70
0
 71
3
 72
11
 73
7
 74
5
 42
0.0000001
 43
0.0000001
 44
0.0000000001
 12
-0.4555180674
 22
0.0054800017
 32
0.0
 13
0.0054838821
 23
-0.4555180207
 33
0.0
 40
0.0
 40
0.0
 40
0.0
 40
0.0
 40
0.2500587494
 40
0.4999992321
 40
0.7499395713
 40
1.0
 40
1.0
 40
1.0
 40
1.0
 10
-23.5445221011
 20
58.3162319523
 30
0.0
 10
-23.5824908605
 20
58.3166887264
 30
0.0
 10
-23.6595042677
 20
58.3034961415
 30
0.0
 10
-23.7578240118
 20
58.2397810492
 30
0.0
 10
-23.8215222603
 20
58.1414482819
 30
0.0
 10
-23.8346972064
 20
58.064433557
 30
0.0
 10
-23.8342401058
 20
58.0264645465
 30
0.0
 11
-23.5445221011
 21
58.3162319523
 31
0.0
 11
-23.6566556957
 21
58.2961676817
 31
0.0
 11
-23.7520546648
 21
58.2340123683
 31
0.0
 11
-23.8141920914
 21
58.1386018259
 31
0.0
 11
-23.8342401058
 21
58.0264645465
 31
0.0
  0
SPLINE
  5
341
100
AcDbEntity
  8
RACCORDO
100
AcDbSpline
 62
253
  6
CONTINUOUS
 70
0
 71
3
 72
11
 73
7
 74
5
 42
0.0000001
 43
0.0000001
 44
0.0000000001
 12
-0.4473051946
 22
-0.0175270307
 32
0.0
 13
-0.0175584957
 23
-0.4473039606
 33
0.0
 40
0.0
 40
0.0
 40
0.0
 40
0.0
 40
0.2466224059
 40
0.4999986581
 40
0.7533733615
 40
1.0
 40
1.0
 40
1.0
 40
1.0
 10
-23.5277847507
 20
58.29955428
 30
0.0
 10
-23.5645565784
 20
58.2981134272
 30
0.0
 10
-23.6392509741
 20
58.2810634329
 30
0.0
 10
-23.7342925999
 20
58.2162858757
 30
0.0
 10
-23.7990732425
 20
58.1212439452
 30
0.0
 10
-23.8161190343
 20
58.0465488895
 30
0.0
 10
-23.8175624986
 20
58.0097765321
 30
0.0
 11
-23.5277847507
 21
58.29955428
 31
0.0
 11
-23.6354156556
 21
58.2749823721
 31
0.0
 11
-23.729203997
 21
58.2111965251
 31
0.0
 11
-23.7929902597
 21
58.117409305
 31
0.0
 11
-23.8175624986
 21
58.0097765321
 31
0.0
  0
SPLINE
  5
342
100
AcDbEntity
  8
RACCORDO
100
AcDbSpline
 62
253
  6
CONTINUOUS
 70
0
 71
3
 72
11
 73
7
 74
5
 42
0.0000001
 43
0.0000001
 44
0.0000000001
 12
0.0054839322
 22
0.455547462
 32
0.0
 13
-0.455547242
 23
-0.0055021796
 33
0.0
 40
0.0
 40
0.0
 40
0.0
 40
0.0
 40
0.2500602726
 40
0.5000004489
 40
0.74994087
 40
1.0
 40
1.0
 40
1.0
 40
1.0
 10
66.3965861296
 20
58.0264644619
 30
0.0
 10
66.3970432341
 20
58.0644359028
 30
0.0
 10
66.3838665847
 20
58.1414557754
 30
0.0
 10
66.3201599889
 20
58.2397923757
 30
0.0
 10
66.2218292879
 20
58.3035062225
 30
0.0
 10
66.1448095612
 20
58.3166905374
 30
0.0
 10
66.1068383122
 20
58.316231914
 30
0.0
 11
66.3965861296
 21
58.0264644619
 31
0.0
 11
66.3765354505
 21
58.1386086711
 31
0.0
 11
66.3143902294
 21
58.2340228297
 31
0.0
 11
66.218981034
 21
58.2961758747
 31
0.0
 11
66.1068383122
 21
58.316231914
 31
0.0
  0
SPLINE
  5
343
100
AcDbEntity
  8
RACCORDO
100
AcDbSpline
 62
253
  6
CONTINUOUS
 70
0
 71
3
 72
11
 73
7
 74
5
 42
0.0000001
 43
0.0000001
 44
0.0000000001
 12
-0.0175586516
 22
0.4473039548
 32
0.0
 13
-0.4473051996
 23
0.0175269134
 33
0.0
 40
0.0
 40
0.0
 40
0.0
 40
0.0
 40
0.2466266199
 40
0.5000013352
 40
0.7533775704
 40
1.0
 40
1.0
 40
1.0
 40
1.0
 10
66.3799085225
 20
58.0097765321
 30
0.0
 10
66.3784650455
 20
58.0465488863
 30
0.0
 10
66.3614192733
 20
58.1212439412
 30
0.0
 10
66.2966386269
 20
58.2162858713
 30
0.0
 10
66.2015970038
 20
58.281063429
 30
0.0
 10
66.1269026063
 20
58.2981134367
 30
0.0
 10
66.0901307746
 20
58.29955428
 30
0.0
 11
66.3799085225
 21
58.0097765321
 31
0.0
 11
66.3553362865
 21
58.1174092972
 31
0.0
 11
66.2915500228
 21
58.2111965233
 31
0.0
 11
66.1977616899
 21
58.2749823692
 31
0.0
 11
66.0901307746
 21
58.29955428
 31
0.0
  0
SPLINE
  5
344
100
AcDbEntity
  8
RACCORDO
100
AcDbSpline
 62
253
  6
CONTINUOUS
 70
0
 71
3
 72
11
 73
7
 74
5
 42
0.0000001
 43
0.0000001
 44
0.0000000001
 12
0.455547462
 22
-0.0054839322
 32
0.0
 13
-0.0055021796
 23
0.455547242
 33
0.0
 40
0.0
 40
0.0
 40
0.0
 40
0.0
 40
0.2500602726
 40
0.5000004489
 40
0.74994087
 40
1.0
 40
1.0
 40
1.0
 40
1.0
 10
66.1068187044
 20
-57.8145943481
 30
0.0
 10
66.1447901452
 20
-57.8150514526
 30
0.0
 10
66.2218100179
 20
-57.8018748033
 30
0.0
 10
66.3201466182
 20
-57.7381682075
 30
0.0
 10
66.383860465
 20
-57.6398375064
 30
0.0
 10
66.3970447798
 20
-57.5628177797
 30
0.0
 10
66.3965861564
 20
-57.5248465307
 30
0.0
 11
66.1068187044
 21
-57.8145943481
 31
0.0
 11
66.2189629135
 21
-57.794543669
 31
0.0
 11
66.3143770721
 21
-57.7323984479
 31
0.0
 11
66.3765301171
 21
-57.6369892526
 31
0.0
 11
66.3965861564
 21
-57.5248465307
 31
0.0
  0
SPLINE
  5
345
100
AcDbEntity
  8
RACCORDO
100
AcDbSpline
 62
253
  6
CONTINUOUS
 70
0
 71
3
 72
11
 73
7
 74
5
 42
0.0000001
 43
0.0000001
 44
0.0000000001
 12
0.4473039548
 22
0.0175586516
 32
0.0
 13
0.0175269134
 23
0.4473051996
 33
0.0
 40
0.0
 40
0.0
 40
0.0
 40
0.0
 40
0.2466266199
 40
0.5000013352
 40
0.7533775704
 40
1.0
 40
1.0
 40
1.0
 40
1.0
 10
66.0901307746
 20
-57.797916741
 30
0.0
 10
66.1269031287
 20
-57.7964732641
 30
0.0
 10
66.2015981837
 20
-57.7794274918
 30
0.0
 10
66.2966401138
 20
-57.7146468455
 30
0.0
 10
66.3614176714
 20
-57.6196052224
 30
0.0
 10
66.3784676791
 20
-57.5449108248
 30
0.0
 10
66.3799085225
 20
-57.5081389931
 30
0.0
 11
66.0901307746
 21
-57.797916741
 31
0.0
 11
66.1977635397
 21
-57.773344505
 31
0.0
 11
66.2915507657
 21
-57.7095582414
 31
0.0
 11
66.3553366117
 21
-57.6157699084
 31
0.0
 11
66.3799085225
 21
-57.5081389931
 31
0.0
  0
SPLINE
  5
346
100
AcDbEntity
  8
RACCORDO
100
AcDbSpline
 62
253
  6
CONTINUOUS
 70
0
 71
3
 72
11
 73
7
 74
5
 42
0.0000001
 43
0.0000001
 44
0.0000000001
 12
-0.0054839322
 22
-0.455547462
 32
0.0
 13
0.455547242
 23
0.0055021796
 33
0.0
 40
0.0
 40
0.0
 40
0.0
 40
0.0
 40
0.2500602726
 40
0.5000004489
 40
0.74994087
 40
1.0
 40
1.0
 40
1.0
 40
1.0
 10
-23.8342401057
 20
-57.5248269229
 30
0.0
 10
-23.8346972102
 20
-57.5627983638
 30
0.0
 10
-23.8215205608
 20
-57.6398182364
 30
0.0
 10
-23.757813965
 20
-57.7381548367
 30
0.0
 10
-23.659483264
 20
-57.8018686835
 30
0.0
 10
-23.5824635372
 20
-57.8150529984
 30
0.0
 10
-23.5444922882
 20
-57.814594375
 30
0.0
 11
-23.8342401057
 21
-57.5248269229
 31
0.0
 11
-23.8141894266
 21
-57.6369711321
 31
0.0
 11
-23.7520442054
 21
-57.7323852907
 31
0.0
 11
-23.6566350101
 21
-57.7945383357
 31
0.0
 11
-23.5444922882
 21
-57.814594375
 31
0.0
  0
SPLINE
  5
347
100
AcDbEntity
  8
RACCORDO
100
AcDbSpline
 62
253
  6
CONTINUOUS
 70
0
 71
3
 72
11
 73
7
 74
5
 42
0.0000001
 43
0.0000001
 44
0.0000000001
 12
0.0175586516
 22
-0.4473039548
 32
0.0
 13
0.4473051996
 23
-0.0175269134
 33
0.0
 40
0.0
 40
0.0
 40
0.0
 40
0.0
 40
0.2466266199
 40
0.5000013352
 40
0.7533775704
 40
1.0
 40
1.0
 40
1.0
 40
1.0
 10
-23.8175624986
 20
-57.5081389931
 30
0.0
 10
-23.8161190216
 20
-57.5449113473
 30
0.0
 10
-23.7990732494
 20
-57.6196064022
 30
0.0
 10
-23.734292603
 20
-57.7146483323
 30
0.0
 10
-23.6392509799
 20
-57.77942589
 30
0.0
 10
-23.5645565824
 20
-57.7964758977
 30
0.0
 10
-23.5277847507
 20
-57.797916741
 30
0.0
 11
-23.8175624986
 21
-57.5081389931
 31
0.0
 11
-23.7929902626
 21
-57.6157717582
 31
0.0
 11
-23.7292039989
 21
-57.7095589843
 31
0.0
 11
-23.635415666
 21
-57.7733448302
 31
0.0
 11
-23.5277847507
 21
-57.797916741
 31
0.0
  0
SPLINE
  5
348
100
AcDbEntity
  8
RACCORDO
100
AcDbSpline
 62
253
  6
CONTINUOUS
 70
0
 71
3
 72
23
 73
19
 74
17
 42
0.0000001
 43
0.0000001
 44
0.0000000001
 12
-0.0052257321
 22
0.6999443681
 32
0.0
 13
0.699851616
 23
0.0125356414
 33
0.0
 40
0.0
 40
0.0
 40
0.0
 40
0.0
 40
0.1950643086
 40
0.3826304685
 40
0.5554924549
 40
0.6343031525
 40
0.707008751
 40
0.7729014345
 40
0.8313582967
 40
0.8818035836
 40
0.9237654335
 40
0.9568267
 40
0.9699234141
 40
0.9806855133
 40
0.9890831408
 40
0.9951023458
 40
0.998735732
 40
1.0
 40
1.0
 40
1.0
 40
1.0
 10
-99.2760717586
 20
61.3560705125
 30
0.0
 10
-99.2764115432
 20
61.4015819006
 30
0.0
 10
-99.277015397
 20
61.4908557304
 30
0.0
 10
-99.2776963827
 20
61.6204622122
 30
0.0
 10
-99.2780631196
 20
61.7229453815
 30
0.0
 10
-99.2782124921
 20
61.7986296415
 30
0.0
 10
-99.2782509728
 20
61.8493556996
 30
0.0
 10
-99.278219514
 20
61.8953331473
 30
0.0
 10
-99.2781183612
 20
61.9361155385
 30
0.0
 10
-99.2779516469
 20
61.9713175553
 30
0.0
 10
-99.2777151265
 20
62.0005838101
 30
0.0
 10
-99.277466067
 20
62.0211596045
 30
0.0
 10
-99.2771997919
 20
62.0344116872
 30
0.0
 10
-99.2770391476
 20
62.0419909637
 30
0.0
 10
-99.2767672117
 20
62.0477186256
 30
0.0
 10
-99.2767242225
 20
62.0522523228
 30
0.0
 10
-99.2762340602
 20
62.0542127281
 30
0.0
 10
-99.2763666919
 20
62.0559586163
 30
0.0
 10
-99.2760717586
 20
62.0559638991
 30
0.0
 11
-99.2760717586
 21
61.3560705125
 31
0.0
 11
-99.2769922013
 21
61.4926053793
 31
0.0
 11
-99.2776762459
 21
61.6238931335
 31
0.0
 11
-99.278097188
 21
61.7448895471
 31
0.0
 11
-99.2782036822
 21
61.8000540857
 31
0.0
 11
-99.2782393393
 21
61.8509453657
 31
0.0
 11
-99.2782036952
 21
61.8970678499
 31
0.0
 11
-99.2780972082
 21
61.9379854032
 31
0.0
 11
-99.2779207913
 21
61.973294841
 31
0.0
 11
-99.2776762562
 21
62.0026656021
 31
0.0
 11
-99.2773657909
 21
62.0258052117
 31
0.0
 11
-99.2771866981
 21
62.0349706888
 31
0.0
 11
-99.2769921899
 21
62.0425012579
 31
0.0
 11
-99.2767827036
 21
62.0483755597
 31
0.0
 11
-99.27655895
 21
62.0525828401
 31
0.0
 11
-99.2763217086
 21
62.0551149897
 31
0.0
 11
-99.2760717586
 21
62.0559638991
 31
0.0
  0
SPLINE
  5
349
100
AcDbEntity
  8
RACCORDO
100
AcDbSpline
 62
253
  6
CONTINUOUS
 70
0
 71
3
 72
23
 73
19
 74
17
 42
0.0000001
 43
0.0000001
 44
0.0000000001
 12
-0.6998215042
 22
0.0141165512
 32
0.0
 13
0.0052251321
 23
0.699944364
 33
0.0
 40
0.0
 40
0.0
 40
0.0
 40
0.0
 40
0.0012647456
 40
0.0048981228
 40
0.0109170841
 40
0.0193144987
 40
0.0300766235
 40
0.0431735432
 40
0.0762352275
 40
0.1181972398
 40
0.1686425838
 40
0.227099564
 40
0.2929923806
 40
0.3656980255
 40
0.4445088585
 40
0.6173712155
 40
0.8049357875
 40
1.0
 40
1.0
 40
1.0
 40
1.0
 10
-99.2760717586
 20
-61.5543263601
 30
0.0
 10
-99.2763667906
 20
-61.5543204088
 30
0.0
 10
-99.2762339854
 20
-61.5525758493
 30
0.0
 10
-99.2767242866
 20
-61.5506139169
 30
0.0
 10
-99.2767672136
 20
-61.5460811831
 30
0.0
 10
-99.2770391687
 20
-61.5403532475
 30
0.0
 10
-99.277199793
 20
-61.5327741092
 30
0.0
 10
-99.2774660638
 20
-61.5195218081
 30
0.0
 10
-99.2777151132
 20
-61.4989458739
 30
0.0
 10
-99.2779516275
 20
-61.469679452
 30
0.0
 10
-99.2781183394
 20
-61.4344773635
 30
0.0
 10
-99.2782195008
 20
-61.3936948987
 30
0.0
 10
-99.2782509735
 20
-61.3477173829
 30
0.0
 10
-99.2782125065
 20
-61.2969912516
 30
0.0
 10
-99.2780631442
 20
-61.2213068638
 30
0.0
 10
-99.277696396
 20
-61.1188239481
 30
0.0
 10
-99.2770153864
 20
-60.9892177744
 30
0.0
 10
-99.276411504
 20
-60.8999443389
 30
0.0
 10
-99.2760717586
 20
-60.8544329735
 30
0.0
 11
-99.2760717586
 21
-61.5543263601
 31
0.0
 11
-99.2763217285
 21
-61.5534771081
 31
0.0
 11
-99.2765589745
 21
-61.5509449653
 31
0.0
 11
-99.2767827233
 21
-61.5467378555
 31
0.0
 11
-99.2769922013
 21
-61.5408637026
 31
0.0
 11
-99.2771867021
 21
-61.5333331155
 31
0.0
 11
-99.2773657891
 21
-61.5241674944
 31
0.0
 11
-99.2776762459
 21
-61.5010275925
 31
0.0
 11
-99.2779207733
 21
-61.471656718
 31
0.0
 11
-99.278097188
 21
-61.4363472407
 31
0.0
 11
-99.2782036822
 21
-61.3954296054
 31
0.0
 11
-99.2782393393
 21
-61.3493070285
 31
0.0
 11
-99.2782036952
 21
-61.2984157166
 31
0.0
 11
-99.2780972082
 21
-61.243251084
 31
0.0
 11
-99.2776762562
 21
-61.1222544124
 31
0.0
 11
-99.2769921899
 21
-60.9909677715
 31
0.0
 11
-99.2760717586
 21
-60.8544329735
 31
0.0
  0
LINE
  5
34A
100
AcDbEntity
  8
RACCORDO
100
AcDbLine
 62
253
  6
CONTINUOUS
 10
-93.8634886236
 20
-76.6568645951
 11
-93.8634875431
 21
-75.5986376733
  0
LINE
  5
34B
100
AcDbEntity
  8
RACCORDO
100
AcDbLine
 62
253
  6
CONTINUOUS
 10
-93.8634875574
 20
76.100275214
 11
-93.8634873698
 21
77.1585027938
  0
SPLINE
  5
34C
100
AcDbEntity
  8
RACCORDO
100
AcDbSpline
 62
253
  6
CONTINUOUS
 70
0
 71
3
 72
23
 73
19
 74
17
 42
0.0000001
 43
0.0000001
 44
0.0000000001
 12
-0.7939513347
 22
-1.2030524815
 32
0.0
 13
0.0073812676
 23
-1.4414019259
 33
0.0
 40
0.0
 40
0.0
 40
0.0
 40
0.0
 40
0.0015928878
 40
0.0055528125
 40
0.0118815358
 40
0.0205650223
 40
0.0315856687
 40
0.0449163663
 40
0.0783756927
 40
0.120625085
 40
0.1712684566
 40
0.2298202835
 40
0.2957195521
 40
0.3683377364
 40
0.4469734343
 40
0.619235132
 40
0.805944683
 40
1.0
 40
1.0
 40
1.0
 40
1.0
 10
-93.4870040094
 20
77.5416393781
 30
0.0
 10
-93.4874255679
 20
77.5410006022
 30
0.0
 10
-93.4872185243
 20
77.5381122122
 30
0.0
 10
-93.4878756746
 20
77.5326071168
 30
0.0
 10
-93.4879533774
 20
77.5233897534
 30
0.0
 10
-93.4883216034
 20
77.5109301903
 30
0.0
 10
-93.4885571963
 20
77.4950427645
 30
0.0
 10
-93.4889382877
 20
77.4672767035
 30
0.0
 10
-93.4892939396
 20
77.4244917869
 30
0.0
 10
-93.4896195185
 20
77.3637859835
 30
0.0
 10
-93.4898550839
 20
77.2910204121
 30
0.0
 10
-93.4899953757
 20
77.2068924935
 30
0.0
 10
-93.4900350588
 20
77.1122058111
 30
0.0
 10
-93.4899764457
 20
77.0078694808
 30
0.0
 10
-93.4897566335
 20
76.8524289158
 30
0.0
 10
-93.4892355011
 20
76.6421709002
 30
0.0
 10
-93.4882308909
 20
76.3764580958
 30
0.0
 10
-93.4874218475
 20
76.1935123826
 30
0.0
 10
-93.4869443895
 20
76.1002751468
 30
0.0
 11
-93.4870040094
 21
77.5416393781
 31
0.0
 11
-93.4873490923
 21
77.5393694369
 31
0.0
 11
-93.4876666058
 21
77.533670357
 31
0.0
 11
-93.4879705441
 21
77.5245530681
 31
0.0
 11
-93.4882617079
 21
77.5120398968
 31
0.0
 11
-93.4885380306
 21
77.4961569111
 31
0.0
 11
-93.4887957325
 21
77.476943494
 31
0.0
 11
-93.4892378674
 21
77.4287165509
 31
0.0
 11
-93.489578264
 21
77.3678183483
 31
0.0
 11
-93.4898250677
 21
77.2948203551
 31
0.0
 11
-93.4899729638
 21
77.210422662
 31
0.0
 11
-93.4900189305
 21
77.115434095
 31
0.0
 11
-93.4899637918
 21
77.0107607464
 31
0.0
 11
-93.4898076432
 21
76.8974137214
 31
0.0
 11
-93.4892009836
 21
76.649112864
 31
0.0
 11
-93.4882160165
 21
76.3799876314
 31
0.0
 11
-93.4869443895
 21
76.1002751468
 31
0.0
  0
SPLINE
  5
34D
100
AcDbEntity
  8
RACCORDO
100
AcDbSpline
 62
253
  6
CONTINUOUS
 70
0
 71
3
 72
26
 73
22
 74
20
 42
0.0000001
 43
0.0000001
 44
0.0000000001
 12
-0.0098790147
 22
-1.4998671688
 32
0.0
 13
1.4996646638
 23
-0.0265521207
 33
0.0
 40
0.0
 40
0.0
 40
0.0
 40
0.0
 40
0.195031502
 40
0.382607098
 40
0.5555111804
 40
0.6343468958
 40
0.7070721512
 40
0.772980531
 40
0.8314378577
 40
0.8818803768
 40
0.9238251991
 40
0.9414831562
 40
0.9568739262
 40
0.969961037
 40
0.9807133098
 40
0.9891057672
 40
0.9951190568
 40
0.9972298207
 40
0.9987424664
 40
0.9996594712
 40
1.0
 40
1.0
 40
1.0
 40
1.0
 10
-93.3477876223
 20
-75.6000650643
 30
0.0
 10
-93.348429862
 20
-75.6975721799
 30
0.0
 10
-93.349477067
 20
-75.8888601427
 30
0.0
 10
-93.35080223
 20
-76.166594049
 30
0.0
 10
-93.3514668993
 20
-76.386236189
 30
0.0
 10
-93.3517501101
 20
-76.5484576374
 30
0.0
 10
-93.351820273
 20
-76.657185051
 30
0.0
 10
-93.3517612656
 20
-76.7557239381
 30
0.0
 10
-93.3515729624
 20
-76.8431221026
 30
0.0
 10
-93.3512576277
 20
-76.9185386409
 30
0.0
 10
-93.3508768987
 20
-76.9735567864
 30
0.0
 10
-93.350496929
 20
-77.0110485547
 30
0.0
 10
-93.3502004751
 20
-77.0341144944
 30
0.0
 10
-93.3498705028
 20
-77.0537213489
 30
0.0
 10
-93.3495152453
 20
-77.0698440619
 30
0.0
 10
-93.3491330902
 20
-77.0823865552
 30
0.0
 10
-93.348804528
 20
-77.0907003627
 30
0.0
 10
-93.3484824418
 20
-77.0954246973
 30
0.0
 10
-93.3483084855
 20
-77.0978255746
 30
0.0
 10
-93.3480713188
 20
-77.0989472355
 30
0.0
 10
-93.3479577829
 20
-77.0998335943
 30
0.0
 10
-93.3477875566
 20
-77.0998366082
 30
0.0
 11
-93.3477876223
 21
-75.6000650643
 31
0.0
 11
-93.3494625252
 21
-75.8925879613
 31
0.0
 11
-93.3507520666
 21
-76.1739295867
 31
0.0
 11
-93.3515332039
 21
-76.4332671921
 31
0.0
 11
-93.3517328807
 21
-76.5515126896
 31
0.0
 11
-93.3517987417
 21
-76.6605932587
 31
0.0
 11
-93.3517318671
 21
-76.7594491954
 31
0.0
 11
-93.3515325329
 21
-76.8471290957
 31
0.0
 11
-93.3512021519
 21
-76.9227870938
 31
0.0
 11
-93.3507454379
 21
-76.9856984625
 31
0.0
 11
-93.3504726204
 21
-77.012182222
 31
0.0
 11
-93.3501691572
 21
-77.0352648386
 31
0.0
 11
-93.3498321073
 21
-77.0548912984
 31
0.0
 11
-93.3494640643
 21
-77.071014429
 31
0.0
 11
-93.3490739572
 21
-77.0835962271
 31
0.0
 11
-93.3486666744
 21
-77.092606358
 31
0.0
 11
-93.3484564383
 21
-77.0957653039
 31
0.0
 11
-93.3482411193
 21
-77.0980238804
 31
0.0
 11
-93.3480188412
 21
-77.0993812158
 31
0.0
 11
-93.3477875566
 21
-77.0998366082
 31
0.0
  0
LINE
  5
34E
100
AcDbEntity
  8
RACCORDO
100
AcDbLine
 62
253
  6
CONTINUOUS
 10
-93.3477525415
 20
-75.6000656766
 11
-93.4869295915
 21
-75.5986376052
  0
LINE
  5
34F
100
AcDbEntity
  8
RACCORDO
100
AcDbLine
 62
253
  6
CONTINUOUS
 10
-93.3477525415
 20
76.1017032156
 11
-93.4869121507
 21
76.100275222
  0
SPLINE
  5
350
100
AcDbEntity
  8
RACCORDO
100
AcDbSpline
 62
253
  6
CONTINUOUS
 70
0
 71
3
 72
23
 73
19
 74
17
 42
0.0000001
 43
0.0000001
 44
0.0000000001
 12
-0.0076317324
 22
-1.4413901533
 32
0.0
 13
0.7261614413
 23
-1.245131872
 33
0.0
 40
0.0
 40
0.0
 40
0.0
 40
0.0
 40
0.1939958908
 40
0.3806596961
 40
0.5528888063
 40
0.6315061706
 40
0.7041063925
 40
0.7699916857
 40
0.8285348948
 40
0.8791768849
 40
0.9214382008
 40
0.9549213168
 40
0.9682694741
 40
0.9793112774
 40
0.9880217151
 40
0.9943800527
 40
0.998373061
 40
1.0
 40
1.0
 40
1.0
 40
1.0
 10
-93.4869443772
 20
-75.5986376055
 30
0.0
 10
-93.4874378854
 20
-75.6918455278
 30
0.0
 10
-93.4882194885
 20
-75.8747395169
 30
0.0
 10
-93.4892453486
 20
-76.1403841124
 30
0.0
 10
-93.4897557392
 20
-76.3505941902
 30
0.0
 10
-93.4899774909
 20
-76.5060005233
 30
0.0
 10
-93.4900350739
 20
-76.6103119482
 30
0.0
 10
-93.489994712
 20
-76.7049784411
 30
0.0
 10
-93.4898546292
 20
-76.7890942777
 30
0.0
 10
-93.4896209869
 20
-76.8618601053
 30
0.0
 10
-93.4892875688
 20
-76.922582353
 30
0.0
 10
-93.488941459
 20
-76.9653915472
 30
0.0
 10
-93.4885694631
 20
-76.9931890927
 30
0.0
 10
-93.4883250461
 20
-77.0091044469
 30
0.0
 10
-93.4879606544
 20
-77.0216099937
 30
0.0
 10
-93.4878564468
 20
-77.0308498295
 30
0.0
 10
-93.4872399291
 20
-77.0364386682
 30
0.0
 10
-93.4874015935
 20
-77.0393176091
 30
0.0
 10
-93.4870077867
 20
-77.0399928603
 30
0.0
 11
-93.4869443772
 21
-75.5986376055
 31
0.0
 11
-93.4882149845
 21
-75.8782624049
 31
0.0
 11
-93.4892052516
 21
-76.1473197249
 31
0.0
 11
-93.4898080672
 21
-76.3955718162
 31
0.0
 11
-93.4899644351
 21
-76.5088915915
 31
0.0
 11
-93.4900189633
 21
-76.613538289
 31
0.0
 11
-93.4899724401
 21
-76.7085060216
 31
0.0
 11
-93.4898249974
 21
-76.7928906807
 31
0.0
 11
-93.4895778205
 21
-76.8658861513
 31
0.0
 11
-93.4892350134
 21
-76.9268010851
 31
0.0
 11
-93.4888023609
 21
-76.975062056
 31
0.0
 11
-93.4885476522
 21
-76.9943005422
 31
0.0
 11
-93.4882672676
 21
-77.0102138419
 31
0.0
 11
-93.4879705709
 21
-77.0227656509
 31
0.0
 11
-93.4876638464
 21
-77.0319254906
 31
0.0
 11
-93.487345782
 21
-77.0376722589
 31
0.0
 11
-93.4870077867
 21
-77.0399928603
 31
0.0
  0
SPLINE
  5
351
100
AcDbEntity
  8
RACCORDO
100
AcDbSpline
 62
253
  6
CONTINUOUS
 70
0
 71
3
 72
26
 73
22
 74
20
 42
0.0000001
 43
0.0000001
 44
0.0000000001
 12
-1.499659519
 22
-0.0269713474
 32
0.0
 13
0.0096422257
 23
-1.4998710458
 33
0.0
 40
0.0
 40
0.0
 40
0.0
 40
0.0
 40
0.0003422445
 40
0.0012600172
 40
0.0027731927
 40
0.0048843408
 40
0.0108999058
 40
0.0192947274
 40
0.0300511808
 40
0.0431436425
 40
0.0585403777
 40
0.0762070334
 40
0.11816937
 40
0.1686312687
 40
0.2271046186
 40
0.2930248229
 40
0.3657564606
 40
0.4445904501
 40
0.6174657598
 40
0.805003091
 40
1.0
 40
1.0
 40
1.0
 40
1.0
 10
-93.3477876223
 20
77.601474146
 30
0.0
 10
-93.3479587057
 20
77.6014710691
 30
0.0
 10
-93.3480805383
 20
77.6005871589
 30
0.0
 10
-93.3483151267
 20
77.5994608451
 30
0.0
 10
-93.3484923376
 20
77.5970611551
 30
0.0
 10
-93.3488108258
 20
77.5923338584
 30
0.0
 10
-93.349137429
 20
77.5840183023
 30
0.0
 10
-93.3495125177
 20
77.5714707458
 30
0.0
 10
-93.3498634464
 20
77.5553421441
 30
0.0
 10
-93.3501976136
 20
77.5357275325
 30
0.0
 10
-93.3505022483
 20
77.5126516725
 30
0.0
 10
-93.350885026
 20
77.4751437678
 30
0.0
 10
-93.3512573237
 20
77.4201026848
 30
0.0
 10
-93.3515737993
 20
77.3446595854
 30
0.0
 10
-93.3517625412
 20
77.2572376699
 30
0.0
 10
-93.3518202524
 20
77.1586815147
 30
0.0
 10
-93.3517484922
 20
77.0499456944
 30
0.0
 10
-93.3514681804
 20
76.8877360425
 30
0.0
 10
-93.3507880652
 20
76.6681279976
 30
0.0
 10
-93.3494905082
 20
76.3904443334
 30
0.0
 10
-93.3484142913
 20
76.199192677
 30
0.0
 10
-93.3477875566
 20
76.1017026044
 30
0.0
 11
-93.3477876223
 21
77.601474146
 31
0.0
 11
-93.348023765
 21
77.6010183526
 31
0.0
 11
-93.3482489688
 21
77.5996603299
 31
0.0
 11
-93.3484652318
 21
77.5974010418
 31
0.0
 11
-93.3486745516
 21
77.5942414524
 31
0.0
 11
-93.3490781801
 21
77.5852277268
 31
0.0
 11
-93.3494625252
 21
77.572642184
 31
0.0
 11
-93.3498265298
 21
77.5565126645
 31
0.0
 11
-93.3501664735
 21
77.5368781972
 31
0.0
 11
-93.3504765248
 21
77.5137866841
 31
0.0
 11
-93.3507520666
 21
77.4872898638
 31
0.0
 11
-93.3512041097
 21
77.4243520929
 31
0.0
 11
-93.3515332039
 21
77.3486649036
 31
0.0
 11
-93.3517328807
 21
77.2609608342
 31
0.0
 11
-93.3517987417
 21
77.1620870073
 31
0.0
 11
-93.3517318671
 21
77.0529966961
 31
0.0
 11
-93.3515325329
 21
76.9347536025
 31
0.0
 11
-93.3507454379
 21
76.6754587677
 31
0.0
 11
-93.3494640643
 21
76.3941740608
 31
0.0
 11
-93.3477875566
 21
76.1017026044
 31
0.0
  0
ELLIPSE
  5
352
100
AcDbEntity
  8
RACCORDO
100
AcDbEllipse
 62
7
  6
CONTINUOUS
 10
-23.5091810039
 20
57.9911727854
 30
0.0
 11
0.2121966568
 21
-0.2121966568
 31
0.0
 40
0.9996954599
 41
2.3563467834
 42
3.9268385237
  0
ELLIPSE
  5
353
100
AcDbEntity
  8
RACCORDO
100
AcDbEllipse
 62
7
  6
CONTINUOUS
 10
66.0715270278
 20
57.9911727854
 30
0.0
 11
0.2121966568
 21
0.2121966568
 31
0.0
 40
0.9996954599
 41
-0.7852458701
 42
0.7852458701
  0
ELLIPSE
  5
354
100
AcDbEntity
  8
RACCORDO
100
AcDbEllipse
 62
7
  6
CONTINUOUS
 10
66.0715270278
 20
-57.4895352464
 30
0.0
 11
0.2121966568
 21
-0.2121966568
 31
0.0
 40
0.9996954599
 41
-0.7852458701
 42
0.7852458701
  0
ELLIPSE
  5
355
100
AcDbEntity
  8
RACCORDO
100
AcDbEllipse
 62
7
  6
CONTINUOUS
 10
-23.5091810039
 20
-57.4895352464
 30
0.0
 11
-0.2121966568
 21
-0.2121966568
 31
0.0
 40
0.9996954599
 41
-0.7852458701
 42
0.7852458701
  0
ELLIPSE
  5
356
100
AcDbEntity
  8
RACCORDO
100
AcDbEllipse
 62
7
  6
CONTINUOUS
 10
69.458121733
 20
61.3777674905
 30
0.0
 11
0.4951255324
 21
0.4951255324
 31
0.0
 40
0.9996954599
 41
-0.7852458702
 42
0.7852458701
  0
ELLIPSE
  5
357
100
AcDbEntity
  8
RACCORDO
100
AcDbEllipse
 62
7
  6
CONTINUOUS
 10
69.458121733
 20
-60.8761299515
 30
0.0
 11
0.4951255324
 21
-0.4951255324
 31
0.0
 40
0.9996954599
 41
-0.7852458702
 42
0.7852458701
  0
ELLIPSE
  5
358
100
AcDbEntity
  8
RACCORDO
100
AcDbEllipse
 62
7
  6
CONTINUOUS
 10
-26.8957757091
 20
-60.8761299515
 30
0.0
 11
0.4951255324
 21
0.4951255324
 31
0.0
 40
0.9996954599
 41
-3.9268385238
 42
-2.3563467835
  0
ELLIPSE
  5
359
100
AcDbEntity
  8
RACCORDO
100
AcDbEllipse
 62
7
  6
CONTINUOUS
 10
-26.8957757091
 20
61.3777674905
 30
0.0
 11
0.4951255324
 21
-0.4951255324
 31
0.0
 40
0.9996954599
 41
2.3563467834
 42
3.9268385237
  0
ELLIPSE
  5
35A
100
AcDbEntity
  8
SMUSSO
100
AcDbEllipse
 62
7
  6
CONTINUOUS
 10
-96.35416937
 20
-76.3491812305
 30
0.0
 11
-0.0
 21
1.0
 31
0.0
 40
0.3333333333
 41
-2.3561944902
 42
-1.5707963268
  0
ELLIPSE
  5
35B
100
AcDbEntity
  8
SMUSSO
100
AcDbEllipse
 62
7
  6
CONTINUOUS
 10
-96.35416937
 20
76.8508187695
 30
0.0
 11
-0.0
 21
1.0
 31
0.0
 40
0.3333333333
 41
-1.5707963268
 42
-0.7853981634
  0
ELLIPSE
  5
35C
100
AcDbEntity
  8
RACCORDO
100
AcDbEllipse
 62
7
  6
CONTINUOUS
 10
-108.0933264443
 20
-45.7491812305
 30
0.0
 11
22.9159846523
 21
-0.0
 31
0.0
 40
0.0174550649
 41
0.9067956157
 42
0.909563149
  0
ELLIPSE
  5
35D
100
AcDbEntity
  8
RACCORDO
100
AcDbEllipse
 62
7
  6
CONTINUOUS
 10
-108.0933264443
 20
-45.7491812305
 30
0.0
 11
22.9159846523
 21
-0.0
 31
0.0
 40
0.0174550649
 41
-0.909563149
 42
-0.9067956157
  0
ELLIPSE
  5
35E
100
AcDbEntity
  8
RACCORDO
100
AcDbEllipse
 62
7
  6
CONTINUOUS
 10
-108.0933264443
 20
-9.7491812305
 30
0.0
 11
22.9159846523
 21
0.0
 31
0.0
 40
0.0174550649
 41
0.9067956157
 42
0.909563149
  0
ELLIPSE
  5
35F
100
AcDbEntity
  8
RACCORDO
100
AcDbEllipse
 62
7
  6
CONTINUOUS
 10
-108.0933264443
 20
-9.7491812305
 30
0.0
 11
22.9159846523
 21
0.0
 31
0.0
 40
0.0174550649
 41
-0.909563149
 42
-0.9067956157
  0
ELLIPSE
  5
360
100
AcDbEntity
  8
RACCORDO
100
AcDbEllipse
 62
7
  6
CONTINUOUS
 10
-108.0933264443
 20
10.2508187695
 30
0.0
 11
22.9159846523
 21
0.0
 31
0.0
 40
0.0174550649
 41
0.9067956157
 42
0.909563149
  0
ELLIPSE
  5
361
100
AcDbEntity
  8
RACCORDO
100
AcDbEllipse
 62
7
  6
CONTINUOUS
 10
-108.0933264443
 20
10.2508187695
 30
0.0
 11
22.9159846523
 21
0.0
 31
0.0
 40
0.0174550649
 41
-0.909563149
 42
-0.9067956157
  0
ELLIPSE
  5
362
100
AcDbEntity
  8
RACCORDO
100
AcDbEllipse
 62
7
  6
CONTINUOUS
 10
-108.0933264443
 20
46.2508187695
 30
0.0
 11
22.9159846523
 21
-0.0
 31
0.0
 40
0.0174550649
 41
0.9067956157
 42
0.909563149
  0
ELLIPSE
  5
363
100
AcDbEntity
  8
RACCORDO
100
AcDbEllipse
 62
7
  6
CONTINUOUS
 10
-108.0933264443
 20
46.2508187695
 30
0.0
 11
22.9159846523
 21
-0.0
 31
0.0
 40
0.0174550649
 41
-0.909563149
 42
-0.9067956157
  0
ENDSEC
  0
SECTION
  2
OBJECTS
  0
DICTIONARY
  5
C
100
AcDbDictionary
280
0
281
1
  3
ACAD_GROUP
350
D
  3
ACAD_MLINESTYLE
350
17
  3
ACAD_LAYOUT
350
1A
  3
ACAD_PLOTSETTINGS
350
19
  3
ACAD_PLOTSTYLENAME
350
E
  0
DICTIONARY
  5
D
102
{ACAD_REACTORS
330
C
102
}
100
AcDbDictionary
280
0
281
1
  0
ACDBDICTIONARYWDFLT
  5
E
102
{ACAD_REACTORS
330
C
102
}
100
AcDbDictionary
281
1
  3
Normal
350
F
100
AcDbDictionaryWithDefault
340
F
  0
DICTIONARY
  5
17
102
{ACAD_REACTORS
330
C
102
}
100
AcDbDictionary
280
0
281
1
  3
Standard
350
18
  0
DICTIONARY
  5
19
102
{ACAD_REACTORS
330
C
102
}
100
AcDbDictionary
281
1
  0
DICTIONARY
  5
1A
102
{ACAD_REACTORS
330
C
102
}
100
AcDbDictionary
281
1
  3
Model
350
364
  3
Layout1
350
365
  0
ACDBPLACEHOLDER
  5
F
102
{ACAD_REACTORS
330
E
102
}
  0
MLINESTYLE
  5
18
102
{ACAD_REACTORS
330
17
102
}
100
AcDbMlineStyle
  2
STANDARD
 70
0
  3

 62
256
 51
90.0
 52
90.0
 71
2
 49
0.5
 62
256
  6
BYLAYER
 49
-0.5
 62
256
  6
BYLAYER
  0
LAYOUT
  5
364
102
{ACAD_REACTORS
330
1A
102
}
100
AcDbPlotSettings
  1

  2
none_device
  4
ISO_A4_(297.00_x_210.00_MM)
  6

 40
0.0
 41
0.0
 42
0.0
 43
0.0
 44
297.0
 45
210.0
 46
0.0
 47
0.0
 48
0.0
 49
0.0
140
0.0
141
0.0
142
1.0
143
1.0
 70
1024
 72
1
 73
0
 74
0
  7

 75
0
147
1.0
148
0.0
149
0.0
100
AcDbLayout
  1
Model
 70
0
 71
0
 10
0.0
 20
0.0
 11
297.0
 21
210.0
 12
0.0
 22
0.0
 32
0.0
 14
0.0
 24
0.0
 34
0.0
 15
0.0
 25
0.0
 35
0.0
146
0.0
 13
0.0
 23
0.0
 33
0.0
 16
1.0
 26
0.0
 36
0.0
 17
0.0
 27
1.0
 37
0.0
 76
0
330
216
345
0
346
0
  0
LAYOUT
  5
365
102
{ACAD_REACTORS
330
1A
102
}
100
AcDbPlotSettings
  1

  2
none_device
  4
ISO_A4_(297.00_x_210.00_MM)
  6

 40
0.0
 41
0.0
 42
0.0
 43
0.0
 44
297.0
 45
210.0
 46
0.0
 47
0.0
 48
0.0
 49
0.0
140
0.0
141
0.0
142
1.0
143
1.0
 70
0
 72
1
 73
0
 74
0
  7

 75
0
147
1.0
148
0.0
149
0.0
100
AcDbLayout
  1
Layout1
 70
0
 71
1
 10
0.0
 20
0.0
 11
297.0
 21
210.0
 12
0.0
 22
0.0
 32
0.0
 14
0.0
 24
0.0
 34
0.0
 15
0.0
 25
0.0
 35
0.0
146
0.0
 13
0.0
 23
0.0
 33
0.0
 16
1.0
 26
0.0
 36
0.0
 17
0.0
 27
1.0
 37
0.0
 76
0
330
217
345
0
346
0
  0
ENDSEC
  0
EOF
