  0
SECTION
  2
HEADER
  9
$ACADVER
  1
AC1015
  9
$DWGCODEPAGE
  3
ANSI_1252
  9
$EXTMAX
 10
297.0
 20
210.0
 30
0.0
  9
$EXTMIN
 10
0.0
 20
0.0
 30
0.0
  9
$LIMMIN
 10
0.0
 20
0.0
  9
$LIMMAX
 10
297.0
 20
210.0
  9
$VIEWCTR
 10
148.5
 20
105.0
  9
$VIEWSIZE
 40
210.0
  9
$CLAYER
  8
0
  9
$LTSCALE
 40
16.335
  9
$CELTYPE
  6
BYLAYER
  9
$DIMSCALE
 40
1.0
  9
$DIMASZ
 40
3.0
  9
$DIMEXO
 40
1.85625
  9
$DIMDLI
 40
11.286
  9
$DIMEXE
 40
5.346
  9
$DIMCEN
 40
2.673
  9
$DIMLFAC
 40
1.0
  9
$DIMBLK
  1
_FILLED
  9
$DIMTXT
 40
3.0
  9
$DIMTOL
 70
1
  9
$DIMLIM
 70
0
  9
$DIMTFAC
 40
1.0
  9
$DIMTP
 40
0.01
  9
$DIMTM
 40
0.01
  9
$PDMODE
 70
3
  9
$PDSIZE
 40
3.0
  9
$HANDSEED
  5
648
  9
$TILEMODE
 70
1
  9
$MEASUREMENT
 70
1
  9
$INSUNITS
 70
4
  0
ENDSEC
  0
SECTION
  2
CLASSES
  0
CLASS
  1
ACDBDICTIONARYWDFLT
  2
AcDbDictionaryWithDefault
  3
AutoCAD 2000
 90
0
280
0
281
0
  0
CLASS
  1
ACDBPLACEHOLDER
  2
AcDbPlaceHolder
  3
AutoCAD 2000
 90
0
280
0
281
0
  0
CLASS
  1
LAYOUT
  2
AcDbLayout
  3
AutoCAD 2000
 90
0
280
0
281
0
  0
ENDSEC
  0
SECTION
  2
TABLES
  0
TABLE
  2
VPORT
  5
8
100
AcDbSymbolTable
 70
2
  0
VPORT
  5
1F4
100
AcDbSymbolTableRecord
100
AcDbViewportTableRecord
  2
*ACTIVE
 70
0
 10
0.0
 20
0.0
 11
1.0
 21
1.0
 12
148.5
 22
105.0
 13
0.0
 23
0.0
 14
1.0
 24
1.0
 15
0.0
 25
0.0
 16
0.0
 26
0.0
 36
1.0
 17
0.0
 27
0.0
 37
0.0
 40
210.0
 41
1.4142857143
 42
50.0
 43
0.0
 44
0.0
 50
0.0
 51
0.0
 71
0
 72
100
 73
1
 74
1
 75
0
 76
0
 77
0
 78
0
  0
ENDTAB
  0
TABLE
  2
LTYPE
  5
5
100
AcDbSymbolTable
 70
6
  0
LTYPE
  5
14
100
AcDbSymbolTableRecord
100
AcDbLinetypeTableRecord
  2
BYBLOCK
 70
0
  3

 72
65
 73
0
 40
0.0
  0
LTYPE
  5
15
100
AcDbSymbolTableRecord
100
AcDbLinetypeTableRecord
  2
BYLAYER
 70
0
  3

 72
65
 73
0
 40
0.0
  0
LTYPE
  5
16
100
AcDbSymbolTableRecord
100
AcDbLinetypeTableRecord
  2
CONTINUOUS
 70
64
  3
Solid line
 72
65
 73
0
 40
0.0
  0
LTYPE
  5
1F5
100
AcDbSymbolTableRecord
100
AcDbLinetypeTableRecord
  2
CENTER
 70
64
  3
____ _ ____ _ ____ _ ____ _ ____ _ ____ _ ____
 72
65
 73
4
 40
0.6
 49
0.375
 74
0
 49
-0.075
 74
0
 49
0.075
 74
0
 49
-0.075
 74
0
  0
LTYPE
  5
1F6
100
AcDbSymbolTableRecord
100
AcDbLinetypeTableRecord
  2
HIDDEN
 70
64
  3
- - - - - - - - - - - - - - - - - - - -
 72
65
 73
2
 40
0.2
 49
0.1
 74
0
 49
-0.1
 74
0
  0
LTYPE
  5
1F7
100
AcDbSymbolTableRecord
100
AcDbLinetypeTableRecord
  2
PHANTOM
 70
64
  3
_____ _ _ _____ _ _ _____ _ _ _____
 72
65
 73
6
 40
0.8
 49
0.45
 74
0
 49
-0.05
 74
0
 49
0.1
 74
0
 49
-0.05
 74
0
 49
0.1
 74
0
 49
-0.05
 74
0
  0
LTYPE
  5
1F8
100
AcDbSymbolTableRecord
100
AcDbLinetypeTableRecord
  2
DOT
 70
64
  3
. . . . . . . . . . . . . . . . . . . .
 72
65
 73
2
 40
0.2
 49
0.1
 74
0
 49
-0.1
 74
0
  0
LTYPE
  5
1F9
100
AcDbSymbolTableRecord
100
AcDbLinetypeTableRecord
  2
DASHED
 70
64
  3
- - - - - - - - - - - - - - - - - - - -
 72
65
 73
2
 40
0.2
 49
0.1
 74
0
 49
-0.1
 74
0
  0
ENDTAB
  0
TABLE
  2
LAYER
  5
2
100
AcDbSymbolTable
 70
36
  0
LAYER
  5
10
100
AcDbSymbolTableRecord
100
AcDbLayerTableRecord
  2
0
 70
0
 62
7
  6
CONTINUOUS
370
-3
390
F
  0
LAYER
  5
1FA
100
AcDbSymbolTableRecord
100
AcDbLayerTableRecord
  2
DEFAULT_1
 70
0
 62
7
  6
CENTER
370
-3
390
F
  0
LAYER
  5
1FB
100
AcDbSymbolTableRecord
100
AcDbLayerTableRecord
  2
DEFAULT_2
 70
0
 62
7
  6
HIDDEN
370
-3
390
F
  0
LAYER
  5
1FC
100
AcDbSymbolTableRecord
100
AcDbLayerTableRecord
  2
DEFAULT_3
 70
0
 62
7
  6
PHANTOM
370
-3
390
F
  0
LAYER
  5
1FD
100
AcDbSymbolTableRecord
100
AcDbLayerTableRecord
  2
ASSI
 70
0
 62
7
  6
CONTINUOUS
370
-3
390
F
  0
LAYER
  5
1FE
100
AcDbSymbolTableRecord
100
AcDbLayerTableRecord
  2
COORDINATE
 70
0
 62
7
  6
CONTINUOUS
370
-3
390
F
  0
LAYER
  5
1FF
100
AcDbSymbolTableRecord
100
AcDbLayerTableRecord
  2
COORD_ORIGINE
 70
0
 62
7
  6
CONTINUOUS
370
-3
390
F
  0
LAYER
  5
200
100
AcDbSymbolTableRecord
100
AcDbLayerTableRecord
  2
COPY_PUBLISH
 70
0
 62
7
  6
CONTINUOUS
370
-3
390
F
  0
LAYER
  5
201
100
AcDbSymbolTableRecord
100
AcDbLayerTableRecord
  2
COSMETIC
 70
0
 62
7
  6
CONTINUOUS
370
-3
390
F
  0
LAYER
  5
202
100
AcDbSymbolTableRecord
100
AcDbLayerTableRecord
  2
COSMETICI
 70
0
 62
7
  6
CONTINUOUS
370
-3
390
F
  0
LAYER
  5
203
100
AcDbSymbolTableRecord
100
AcDbLayerTableRecord
  2
CURVE
 70
0
 62
7
  6
CONTINUOUS
370
-3
390
F
  0
LAYER
  5
204
100
AcDbSymbolTableRecord
100
AcDbLayerTableRecord
  2
DRAFT
 70
0
 62
7
  6
CONTINUOUS
370
-3
390
F
  0
LAYER
  5
205
100
AcDbSymbolTableRecord
100
AcDbLayerTableRecord
  2
IMPORT_IGES
 70
0
 62
7
  6
CONTINUOUS
370
-3
390
F
  0
LAYER
  5
206
100
AcDbSymbolTableRecord
100
AcDbLayerTableRecord
  2
INTFCLR_2
 70
0
 62
7
  6
CONTINUOUS
370
-3
390
F
  0
LAYER
  5
207
100
AcDbSymbolTableRecord
100
AcDbLayerTableRecord
  2
NOTE
 70
0
 62
7
  6
CONTINUOUS
370
-3
390
F
  0
LAYER
  5
208
100
AcDbSymbolTableRecord
100
AcDbLayerTableRecord
  2
PIANI
 70
0
 62
7
  6
CONTINUOUS
370
-3
390
F
  0
LAYER
  5
209
100
AcDbSymbolTableRecord
100
AcDbLayerTableRecord
  2
PIANI_ORIGINE
 70
0
 62
7
  6
CONTINUOUS
370
-3
390
F
  0
LAYER
  5
20A
100
AcDbSymbolTableRecord
100
AcDbLayerTableRecord
  2
PIANI_RIFERIMENTO
 70
0
 62
7
  6
CONTINUOUS
370
-3
390
F
  0
LAYER
  5
20B
100
AcDbSymbolTableRecord
100
AcDbLayerTableRecord
  2
PUNTI
 70
0
 62
7
  6
CONTINUOUS
370
-3
390
F
  0
LAYER
  5
20C
100
AcDbSymbolTableRecord
100
AcDbLayerTableRecord
  2
RACCORDO
 70
0
 62
7
  6
CONTINUOUS
370
-3
390
F
  0
LAYER
  5
20D
100
AcDbSymbolTableRecord
100
AcDbLayerTableRecord
  2
SIMBOLI
 70
0
 62
7
  6
CONTINUOUS
370
-3
390
F
  0
LAYER
  5
20E
100
AcDbSymbolTableRecord
100
AcDbLayerTableRecord
  2
SMUSSO
 70
0
 62
7
  6
CONTINUOUS
370
-3
390
F
  0
LAYER
  5
20F
100
AcDbSymbolTableRecord
100
AcDbLayerTableRecord
  2
SNAPLINE
 70
0
 62
7
  6
CONTINUOUS
370
-3
390
F
  0
LAYER
  5
210
100
AcDbSymbolTableRecord
100
AcDbLayerTableRecord
  2
SUPERFICI
 70
0
 62
7
  6
CONTINUOUS
370
-3
390
F
  0
LAYER
  5
211
100
AcDbSymbolTableRecord
100
AcDbLayerTableRecord
  2
TRASH
 70
0
 62
7
  6
CONTINUOUS
370
-3
390
F
  0
LAYER
  5
212
100
AcDbSymbolTableRecord
100
AcDbLayerTableRecord
  2
XSEC_DATUMS
 70
0
 62
7
  6
CONTINUOUS
370
-3
390
F
  0
ENDTAB
  0
TABLE
  2
STYLE
  5
3
100
AcDbSymbolTable
 70
1
  0
STYLE
  5
11
100
AcDbSymbolTableRecord
100
AcDbTextStyleTableRecord
  2
STANDARD
 70
0
 40
0.0
 41
0.8
 50
0.0
 71
0
 42
0.2
  3
txt
  4

  0
STYLE
  5
213
100
AcDbSymbolTableRecord
100
AcDbTextStyleTableRecord
  2
TEXTSTYLE_1
 70
0
 40
0.0
 41
0.8
 50
0.0
 71
0
 42
0.2
  3
gdt
  4

  0
ENDTAB
  0
TABLE
  2
VIEW
  5
6
100
AcDbSymbolTable
 70
0
  0
ENDTAB
  0
TABLE
  2
UCS
  5
7
100
AcDbSymbolTable
 70
0
  0
ENDTAB
  0
TABLE
  2
APPID
  5
9
100
AcDbSymbolTable
 70
1
  0
APPID
  5
214
100
AcDbSymbolTableRecord
100
AcDbRegAppTableRecord
  2
ACAD
 70
0
  0
ENDTAB
  0
TABLE
  2
BLOCK_RECORD
  5
1
100
AcDbSymbolTable
 70
0
  0
BLOCK_RECORD
  5
215
100
AcDbSymbolTableRecord
100
AcDbBlockTableRecord
  2
*Model_Space
  0
BLOCK_RECORD
  5
216
100
AcDbSymbolTableRecord
100
AcDbBlockTableRecord
  2
*Paper_Space
  0
BLOCK_RECORD
  5
217
100
AcDbSymbolTableRecord
100
AcDbBlockTableRecord
  2
_FILLED
  0
BLOCK_RECORD
  5
218
100
AcDbSymbolTableRecord
100
AcDbBlockTableRecord
  2
*D0
  0
BLOCK_RECORD
  5
219
100
AcDbSymbolTableRecord
100
AcDbBlockTableRecord
  2
*D1
  0
BLOCK_RECORD
  5
21A
100
AcDbSymbolTableRecord
100
AcDbBlockTableRecord
  2
*D2
  0
BLOCK_RECORD
  5
21B
100
AcDbSymbolTableRecord
100
AcDbBlockTableRecord
  2
*D3
  0
ENDTAB
  0
TABLE
  2
DIMSTYLE
  5
A
100
AcDbSymbolTable
 70
1
100
AcDbDimStyleTable
 71
0
  0
DIMSTYLE
105
21C
100
AcDbSymbolTableRecord
100
AcDbDimStyleTableRecord
  2
STANDARD
 70
0
  3

  4

 40
1.0
 41
3.0
 42
0.0625
 43
0.38
 44
0.18
 45
0.0
 46
0.0
 47
0.01
 48
0.01
140
3.0
141
0.09
142
0.0
143
25.4
144
1.0
145
0.0
146
1.0
147
0.09
 71
1.0
 72
0.0
 73
0
 74
0
 75
0
 76
0
 77
1
 78
8
170
0
171
2
172
0
173
0
174
0
175
0
176
0
177
0
178
0
270
2
271
2
272
2
273
2
274
2
275
0
280
0
281
0
282
0
283
1
284
8
285
0
286
0
287
3
288
0
340
11
341
217
342
217
343
217
344
217
  0
DIMSTYLE
105
21D
100
AcDbSymbolTableRecord
100
AcDbDimStyleTableRecord
  2
DIMSTYLE_1
 70
0
  3

  4

 40
1.0
 41
3.0
 42
0.0625
 43
0.38
 44
0.18
 45
0.0
 46
0.0
 47
0.0
 48
0.0
140
3.0
141
0.09
142
0.0
143
25.4
144
1.0
145
0.0
146
1.0
147
0.09
 71
0.0
 72
0.0
 73
0
 74
0
 75
0
 76
0
 77
1
 78
8
170
0
171
2
172
0
173
0
174
0
175
0
176
0
177
0
178
0
270
2
271
2
272
2
273
2
274
2
275
0
280
0
281
0
282
0
283
1
284
8
285
0
286
0
287
3
288
0
340
11
341
217
342
217
343
217
344
217
  0
ENDTAB
  0
ENDSEC
  0
SECTION
  2
BLOCKS
  0
BLOCK
  5
20
100
AcDbEntity
  8
0
100
AcDbBlockBegin
  2
*Model_Space
 70
0
 10
0.0
 20
0.0
 30
0.0
  3
*Model_Space
  1

  0
ENDBLK
  5
21
100
AcDbEntity
  8
0
100
AcDbBlockEnd
  0
BLOCK
  5
1C
100
AcDbEntity
  8
0
100
AcDbBlockBegin
  2
*Paper_Space
 70
0
 10
0.0
 20
0.0
 30
0.0
  3
*Paper_Space
  1

  0
ENDBLK
  5
1D
100
AcDbEntity
  8
0
100
AcDbBlockEnd
  0
BLOCK
  5
21E
100
AcDbEntity
  8
0
100
AcDbBlockBegin
  2
_FILLED
 70
64
 10
0.0
 20
0.0
  3
_FILLED
  1

  0
SOLID
  5
21F
100
AcDbEntity
  8
0
  6
BYBLOCK
 62
0
100
AcDbTrace
 10
0.0
 20
0.0
 11
-1.0
 21
0.3166666667
 12
-1.0
 22
-0.3166666667
 13
-1.0
 23
-0.3166666667
  0
ENDBLK
  5
220
100
AcDbEntity
  8
0
  6
BYBLOCK
 62
0
100
AcDbBlockEnd
  0
BLOCK
  5
221
100
AcDbEntity
  8
0
100
AcDbBlockBegin
 62
7
  6
CONTINUOUS
  2
*D0
 70
65
 10
0.0
 20
0.0
  3
*D0
  1

  0
LINE
  5
222
100
AcDbEntity
  8
0
100
AcDbLine
 62
7
  6
CONTINUOUS
 10
-47.2
 20
-154.2
 11
-57.2
 21
-154.2
  0
LINE
  5
223
100
AcDbEntity
  8
0
100
AcDbLine
 62
7
  6
CONTINUOUS
 10
-47.2
 20
154.2
 11
-57.2
 21
154.2
  0
LINE
  5
224
100
AcDbEntity
  8
0
100
AcDbLine
 62
7
  6
CONTINUOUS
 10
-55.7
 20
-154.2
 11
-55.7
 21
0.0
  0
LINE
  5
225
100
AcDbEntity
  8
0
100
AcDbLine
 62
7
  6
CONTINUOUS
 10
-55.7
 20
154.2
 11
-55.7
 21
0.0
  0
INSERT
  5
226
100
AcDbEntity
  8
0
100
AcDbBlockReference
 62
7
  6
CONTINUOUS
  2
_FILLED
 10
-55.7
 20
-154.2
 41
3.0
 42
3.0
 43
3.0
 50
270.0
  0
INSERT
  5
227
100
AcDbEntity
  8
0
100
AcDbBlockReference
 62
7
  6
CONTINUOUS
  2
_FILLED
 10
-55.7
 20
154.2
 41
3.0
 42
3.0
 43
3.0
 50
90.0
  0
ENDBLK
  5
228
100
AcDbEntity
  8
0
  6
BYBLOCK
 62
0
100
AcDbBlockEnd
  0
BLOCK
  5
229
100
AcDbEntity
  8
0
100
AcDbBlockBegin
 62
7
  6
CONTINUOUS
  2
*D1
 70
65
 10
0.0
 20
0.0
  3
*D1
  1

  0
LINE
  5
22A
100
AcDbEntity
  8
0
100
AcDbLine
 62
7
  6
CONTINUOUS
 10
-47.7
 20
153.7
 11
-47.7
 21
163.7
  0
LINE
  5
22B
100
AcDbEntity
  8
0
100
AcDbLine
 62
7
  6
CONTINUOUS
 10
47.7
 20
153.7
 11
47.7
 21
163.7
  0
LINE
  5
22C
100
AcDbEntity
  8
0
100
AcDbLine
 62
7
  6
CONTINUOUS
 10
-47.7
 20
162.2
 11
0.0
 21
162.2
  0
LINE
  5
22D
100
AcDbEntity
  8
0
100
AcDbLine
 62
7
  6
CONTINUOUS
 10
47.7
 20
162.2
 11
0.0
 21
162.2
  0
INSERT
  5
22E
100
AcDbEntity
  8
0
100
AcDbBlockReference
 62
7
  6
CONTINUOUS
  2
_FILLED
 10
-47.7
 20
162.2
 41
3.0
 42
3.0
 43
3.0
 50
180.0
  0
INSERT
  5
22F
100
AcDbEntity
  8
0
100
AcDbBlockReference
 62
7
  6
CONTINUOUS
  2
_FILLED
 10
47.7
 20
162.2
 41
3.0
 42
3.0
 43
3.0
  0
ENDBLK
  5
230
100
AcDbEntity
  8
0
  6
BYBLOCK
 62
0
100
AcDbBlockEnd
  0
BLOCK
  5
231
100
AcDbEntity
  8
0
100
AcDbBlockBegin
 62
7
  6
CONTINUOUS
  2
*D2
 70
65
 10
0.0
 20
0.0
  3
*D2
  1

  0
LINE
  5
232
100
AcDbEntity
  8
0
100
AcDbLine
 62
7
  6
CONTINUOUS
 10
105.8166118707
 20
132.5930331976
 11
105.8166118707
 21
163.7
  0
LINE
  5
233
100
AcDbEntity
  8
0
100
AcDbLine
 62
7
  6
CONTINUOUS
 10
97.2166118707
 20
153.15
 11
97.2166118707
 21
163.7
  0
LINE
  5
234
100
AcDbEntity
  8
0
100
AcDbLine
 62
7
  6
CONTINUOUS
 10
105.8166118707
 20
162.2
 11
101.5166118707
 21
162.2
  0
LINE
  5
235
100
AcDbEntity
  8
0
100
AcDbLine
 62
7
  6
CONTINUOUS
 10
101.5166118707
 20
162.2
 11
113.6849474137
 21
162.2
  0
LINE
  5
236
100
AcDbEntity
  8
0
100
AcDbLine
 62
7
  6
CONTINUOUS
 10
97.2166118707
 20
162.2
 11
101.5166118707
 21
162.2
  0
INSERT
  5
237
100
AcDbEntity
  8
0
100
AcDbBlockReference
 62
7
  6
CONTINUOUS
  2
_FILLED
 10
105.8166118707
 20
162.2
 41
3.0
 42
3.0
 43
3.0
  0
INSERT
  5
238
100
AcDbEntity
  8
0
100
AcDbBlockReference
 62
7
  6
CONTINUOUS
  2
_FILLED
 10
97.2166118707
 20
162.2
 41
3.0
 42
3.0
 43
3.0
 50
180.0
  0
ENDBLK
  5
239
100
AcDbEntity
  8
0
  6
BYBLOCK
 62
0
100
AcDbBlockEnd
  0
BLOCK
  5
23A
100
AcDbEntity
  8
0
100
AcDbBlockBegin
 62
7
  6
CONTINUOUS
  2
*D3
 70
65
 10
0.0
 20
0.0
  3
*D3
  1

  0
LINE
  5
23B
100
AcDbEntity
  8
0
100
AcDbLine
 62
7
  6
CONTINUOUS
 10
105.8166118707
 20
132.5930331976
 11
105.8166118707
 21
173.7
  0
LINE
  5
23C
100
AcDbEntity
  8
0
100
AcDbLine
 62
7
  6
CONTINUOUS
 10
95.8166118707
 20
132.4
 11
95.8166118707
 21
173.7
  0
LINE
  5
23D
100
AcDbEntity
  8
0
100
AcDbLine
 62
7
  6
CONTINUOUS
 10
105.8166118707
 20
172.2
 11
100.8166118707
 21
172.2
  0
LINE
  5
23E
100
AcDbEntity
  8
0
100
AcDbLine
 62
7
  6
CONTINUOUS
 10
95.8166118707
 20
172.2
 11
100.8166118707
 21
172.2
  0
INSERT
  5
23F
100
AcDbEntity
  8
0
100
AcDbBlockReference
 62
7
  6
CONTINUOUS
  2
_FILLED
 10
105.8166118707
 20
172.2
 41
3.0
 42
3.0
 43
3.0
  0
INSERT
  5
240
100
AcDbEntity
  8
0
100
AcDbBlockReference
 62
7
  6
CONTINUOUS
  2
_FILLED
 10
95.8166118707
 20
172.2
 41
3.0
 42
3.0
 43
3.0
 50
180.0
  0
ENDBLK
  5
241
100
AcDbEntity
  8
0
  6
BYBLOCK
 62
0
100
AcDbBlockEnd
  0
ENDSEC
  0
SECTION
  2
ENTITIES
  0
SOLID
  5
242
100
AcDbEntity
  8
PIANI
100
AcDbTrace
 62
7
  6
CONTINUOUS
 10
98.2166118707
 20
-157.4956328082
 11
98.2166118707
 21
-154.0315311931
 12
101.2166118707
 22
-155.7635820007
 13
101.2166118707
 23
-155.7635820007
  0
LWPOLYLINE
  5
243
100
AcDbEntity
  8
PIANI
100
AcDbPolyline
 62
7
  6
CONTINUOUS
 90
3
 70
0
 43
0.35
 10
100.0916103516
 20
-157.2635804443
 10
100.9487573547
 20
-154.2635795288
 10
101.8058952942
 20
-157.2635804443
  0
LWPOLYLINE
  5
244
100
AcDbEntity
  8
PIANI
100
AcDbPolyline
 62
7
  6
CONTINUOUS
 90
2
 70
0
 43
0.35
 10
100.3773260193
 20
-156.4064425049
 10
101.5201796265
 20
-156.4064425049
  0
DIMENSION
  5
245
100
AcDbEntity
  8
0
100
AcDbDimension
 62
7
  6
CONTINUOUS
  2
*D0
 10
-55.7
 20
154.2
 11
-56.45
 21
-5.4642857143
 70
160
 71
2
 42
308.4
  3
DIMSTYLE_1
100
AcDbAlignedDimension
 13
-47.2
 23
-154.2
 14
-47.2
 24
154.2
 50
90.0
100
AcDbRotatedDimension
  0
DIMENSION
  5
246
100
AcDbEntity
  8
0
100
AcDbDimension
 62
7
  6
CONTINUOUS
  2
*D1
 10
47.7
 20
162.2
 11
-4.2857142857
 21
162.95
 70
160
 71
2
 42
95.4
  3
DIMSTYLE_1
100
AcDbAlignedDimension
 13
-47.7
 23
153.7
 14
47.7
 24
153.7
100
AcDbRotatedDimension
  0
DIMENSION
  5
247
100
AcDbEntity
  8
0
100
AcDbDimension
 62
7
  6
CONTINUOUS
  2
*D2
 10
97.2166118707
 20
162.2
 11
107.2563759851
 21
162.95
 70
160
 71
1
 42
8.6
  3
DIMSTYLE_1
100
AcDbAlignedDimension
 13
105.8166118707
 23
132.5930331976
 14
97.2166118707
 24
153.15
 50
180.0
100
AcDbRotatedDimension
  0
DIMENSION
  5
248
100
AcDbEntity
  8
0
100
AcDbDimension
 62
7
  6
CONTINUOUS
  2
*D3
 10
95.8166118707
 20
172.2
 11
98.780897585
 21
172.95
 70
160
 71
2
 42
10.0
  3
DIMSTYLE_1
100
AcDbAlignedDimension
 13
105.8166118707
 23
132.5930331976
 14
95.8166118707
 24
132.4
 50
180.0
100
AcDbRotatedDimension
  0
LINE
  5
249
100
AcDbEntity
  8
SMUSSO
100
AcDbLine
 62
7
  6
CONTINUOUS
 10
-46.7
 20
-154.2
 11
46.7
 21
-154.2
  0
LINE
  5
24A
100
AcDbEntity
  8
SMUSSO
100
AcDbLine
 62
7
  6
CONTINUOUS
 10
-46.7
 20
-153.2
 11
46.7
 21
-153.2
  0
LINE
  5
24B
100
AcDbEntity
  8
SMUSSO
100
AcDbLine
 62
253
  6
CONTINUOUS
 10
46.7
 20
-153.2
 11
47.7
 21
-153.2
  0
LINE
  5
24C
100
AcDbEntity
  8
SMUSSO
100
AcDbLine
 62
253
  6
CONTINUOUS
 10
-46.7
 20
-153.2
 11
-47.7
 21
-153.2
  0
LINE
  5
24D
100
AcDbEntity
  8
RACCORDO
100
AcDbLine
 62
7
  6
CONTINUOUS
 10
-25.6001066134
 20
-132.8
 11
25.6001066134
 21
-132.8
  0
LINE
  5
24E
100
AcDbEntity
  8
RACCORDO
100
AcDbLine
 62
253
  6
CONTINUOUS
 10
-25.5930331976
 20
-132.7929265842
 11
25.5930331976
 21
-132.7929265842
  0
LINE
  5
24F
100
AcDbEntity
  8
RACCORDO
100
AcDbLine
 62
253
  6
CONTINUOUS
 10
-25.5930331976
 20
-132.4929722756
 11
25.5962623332
 21
-132.4929722756
  0
LINE
  5
250
100
AcDbEntity
  8
RACCORDO
100
AcDbLine
 62
253
  6
CONTINUOUS
 10
-26.2929265842
 20
-132.0930331956
 11
-25.9929722756
 21
-132.0930331976
  0
LINE
  5
251
100
AcDbEntity
  8
RACCORDO
100
AcDbLine
 62
253
  6
CONTINUOUS
 10
26.2929265842
 20
-132.0930331962
 11
25.9929722756
 21
-132.0930331976
  0
LINE
  5
252
100
AcDbEntity
  8
RACCORDO
100
AcDbLine
 62
253
  6
CONTINUOUS
 10
22.8649960872
 20
-129.9288116597
 11
-22.8649960872
 21
-129.9288116597
  0
LINE
  5
253
100
AcDbEntity
  8
RACCORDO
100
AcDbLine
 62
253
  6
CONTINUOUS
 10
22.8649948583
 20
-129.6469038735
 11
-22.8650067667
 21
-129.6469038735
  0
LINE
  5
254
100
AcDbEntity
  8
RACCORDO
100
AcDbLine
 62
253
  6
CONTINUOUS
 10
-23.4288116597
 20
-129.3649960872
 11
-23.1469038735
 21
-129.3649960872
  0
LINE
  5
255
100
AcDbEntity
  8
RACCORDO
100
AcDbLine
 62
253
  6
CONTINUOUS
 10
23.4288116597
 20
-129.3649960872
 11
23.1469038735
 21
-129.3649960873
  0
LINE
  5
256
100
AcDbEntity
  8
RACCORDO
100
AcDbLine
 62
253
  6
CONTINUOUS
 10
-22.2985854258
 20
-129.1286172716
 11
22.2985854258
 21
-129.1286172716
  0
LINE
  5
257
100
AcDbEntity
  8
RACCORDO
100
AcDbLine
 62
253
  6
CONTINUOUS
 10
-22.2985854258
 20
-129.0985397344
 11
22.2985854258
 21
-129.0985397344
  0
LINE
  5
258
100
AcDbEntity
  8
RACCORDO
100
AcDbLine
 62
7
  6
CONTINUOUS
 10
22.291318159
 20
-129.0912724675
 11
-22.291318159
 21
-129.0912724675
  0
LINE
  5
259
100
AcDbEntity
  8
RACCORDO
100
AcDbLine
 62
253
  6
CONTINUOUS
 10
22.5985397344
 20
-128.7985854258
 11
22.6286172716
 21
-128.7985854258
  0
LINE
  5
25A
100
AcDbEntity
  8
RACCORDO
100
AcDbLine
 62
253
  6
CONTINUOUS
 10
-22.5985397344
 20
-128.7985854258
 11
-22.6286172712
 21
-128.7985854231
  0
LWPOLYLINE
  5
25B
100
AcDbEntity
  8
0
100
AcDbPolyline
 62
7
  6
CONTINUOUS
 90
10
 70
0
 43
0.3500000006
 10
-3.8571428204
 20
162.9500040894
 10
-3.0000000658
 20
163.8071420288
 10
-2.7857141647
 20
164.6642799683
 10
-2.7857141647
 20
165.5214360352
 10
-3.2142856836
 20
165.9500050049
 10
-3.8571428204
 20
165.9500050049
 10
-4.2857143393
 20
165.5214360352
 10
-4.2857143393
 20
164.6642799683
 10
-3.8571428204
 20
164.2357109985
 10
-2.9285714321
 20
164.2357109985
  0
LINE
  5
25C
100
AcDbEntity
  8
RACCORDO
100
AcDbLine
 62
253
  6
CONTINUOUS
 10
-26.2929265842
 20
80.9069668024
 11
-26.3
 21
80.8998933866
  0
LINE
  5
25D
100
AcDbEntity
  8
RACCORDO
100
AcDbLine
 62
253
  6
CONTINUOUS
 10
25.5930331976
 20
132.7929265842
 11
25.6001066134
 21
132.8
  0
LINE
  5
25E
100
AcDbEntity
  8
RACCORDO
100
AcDbLine
 62
253
  6
CONTINUOUS
 10
22.2985854258
 20
129.0985397344
 11
22.291318159
 21
129.0912724675
  0
LINE
  5
25F
100
AcDbEntity
  8
RACCORDO
100
AcDbLine
 62
253
  6
CONTINUOUS
 10
-22.5985397344
 20
84.2014145742
 11
-22.5912724675
 21
84.208681841
  0
LINE
  5
260
100
AcDbEntity
  8
RACCORDO
100
AcDbLine
 62
253
  6
CONTINUOUS
 10
-23.1469038735
 20
83.6350051417
 11
-22.6271795873
 21
84.1546948153
  0
LINE
  5
261
100
AcDbEntity
  8
RACCORDO
100
AcDbLine
 62
253
  6
CONTINUOUS
 10
22.8650067667
 20
129.6469038735
 11
22.345273255
 21
129.1271810404
  0
LINE
  5
262
100
AcDbEntity
  8
RACCORDO
100
AcDbLine
 62
253
  6
CONTINUOUS
 10
23.1469038735
 20
129.3649948583
 11
22.6271795873
 21
128.8453051847
  0
LINE
  5
263
100
AcDbEntity
  8
RACCORDO
100
AcDbLine
 62
253
  6
CONTINUOUS
 10
-22.8650067667
 20
83.3530961265
 11
-22.345273255
 21
83.8728189596
  0
LINE
  5
264
100
AcDbEntity
  8
RACCORDO
100
AcDbLine
 62
253
  6
CONTINUOUS
 10
22.5985397344
 20
128.7985854258
 11
22.5912724675
 21
128.791318159
  0
LINE
  5
265
100
AcDbEntity
  8
RACCORDO
100
AcDbLine
 62
253
  6
CONTINUOUS
 10
-22.2985854258
 20
83.9014602656
 11
-22.291318159
 21
83.9087275325
  0
LINE
  5
266
100
AcDbEntity
  8
RACCORDO
100
AcDbLine
 62
253
  6
CONTINUOUS
 10
-25.5930331976
 20
80.2070734158
 11
-25.6001066134
 21
80.2
  0
LINE
  5
267
100
AcDbEntity
  8
RACCORDO
100
AcDbLine
 62
253
  6
CONTINUOUS
 10
26.2929265842
 20
132.0930331976
 11
26.3
 21
132.1001066134
  0
LINE
  5
268
100
AcDbEntity
  8
RACCORDO
100
AcDbLine
 62
253
  6
CONTINUOUS
 10
22.5985397344
 20
-84.2014145742
 11
22.6286172712
 21
-84.2014145769
  0
LINE
  5
269
100
AcDbEntity
  8
RACCORDO
100
AcDbLine
 62
253
  6
CONTINUOUS
 10
-22.5985397344
 20
-84.2014145742
 11
-22.6286172716
 21
-84.2014145742
  0
LINE
  5
26A
100
AcDbEntity
  8
RACCORDO
100
AcDbLine
 62
7
  6
CONTINUOUS
 10
-22.291318159
 20
-83.9087275325
 11
22.291318159
 21
-83.9087275325
  0
LINE
  5
26B
100
AcDbEntity
  8
RACCORDO
100
AcDbLine
 62
253
  6
CONTINUOUS
 10
22.2985854258
 20
-83.9014602656
 11
-22.2985854258
 21
-83.9014602656
  0
LINE
  5
26C
100
AcDbEntity
  8
RACCORDO
100
AcDbLine
 62
253
  6
CONTINUOUS
 10
22.2985854258
 20
-83.8713827284
 11
-22.2985854258
 21
-83.8713827284
  0
LINE
  5
26D
100
AcDbEntity
  8
RACCORDO
100
AcDbLine
 62
253
  6
CONTINUOUS
 10
-23.4288116597
 20
-83.6350039128
 11
-23.1469038735
 21
-83.6350039128
  0
LINE
  5
26E
100
AcDbEntity
  8
RACCORDO
100
AcDbLine
 62
253
  6
CONTINUOUS
 10
23.4288116597
 20
-83.6350039128
 11
23.1469038735
 21
-83.6350039128
  0
LINE
  5
26F
100
AcDbEntity
  8
RACCORDO
100
AcDbLine
 62
253
  6
CONTINUOUS
 10
-22.8650068917
 20
-83.3530961265
 11
22.8650067667
 21
-83.3530961265
  0
LINE
  5
270
100
AcDbEntity
  8
RACCORDO
100
AcDbLine
 62
253
  6
CONTINUOUS
 10
-22.8649960872
 20
-83.0711883403
 11
22.8649960872
 21
-83.0711883403
  0
LINE
  5
271
100
AcDbEntity
  8
RACCORDO
100
AcDbLine
 62
253
  6
CONTINUOUS
 10
-26.2929265842
 20
-80.9069668038
 11
-25.9929722756
 21
-80.9069668024
  0
LINE
  5
272
100
AcDbEntity
  8
RACCORDO
100
AcDbLine
 62
253
  6
CONTINUOUS
 10
26.2929265842
 20
-80.9069668044
 11
25.9929722756
 21
-80.9069668024
  0
LINE
  5
273
100
AcDbEntity
  8
RACCORDO
100
AcDbLine
 62
253
  6
CONTINUOUS
 10
25.5930331976
 20
-80.5070277244
 11
-25.5962623223
 21
-80.5070277244
  0
LINE
  5
274
100
AcDbEntity
  8
RACCORDO
100
AcDbLine
 62
253
  6
CONTINUOUS
 10
25.5930331976
 20
-80.2070734158
 11
-25.5930331976
 21
-80.2070734158
  0
LINE
  5
275
100
AcDbEntity
  8
RACCORDO
100
AcDbLine
 62
7
  6
CONTINUOUS
 10
25.6001066134
 20
-80.2
 11
-25.6001066134
 21
-80.2
  0
LINE
  5
276
100
AcDbEntity
  8
RACCORDO
100
AcDbLine
 62
253
  6
CONTINUOUS
 10
-26.2929265842
 20
-80.9069668024
 11
-26.3
 21
-80.8998933866
  0
LINE
  5
277
100
AcDbEntity
  8
RACCORDO
100
AcDbLine
 62
253
  6
CONTINUOUS
 10
25.5930331976
 20
-132.7929265842
 11
25.6001066134
 21
-132.8
  0
LINE
  5
278
100
AcDbEntity
  8
RACCORDO
100
AcDbLine
 62
253
  6
CONTINUOUS
 10
22.2985854258
 20
-129.0985397344
 11
22.291318159
 21
-129.0912724675
  0
LINE
  5
279
100
AcDbEntity
  8
RACCORDO
100
AcDbLine
 62
253
  6
CONTINUOUS
 10
-22.5912724675
 20
-84.208681841
 11
-22.5985397344
 21
-84.2014145742
  0
LINE
  5
27A
100
AcDbEntity
  8
RACCORDO
100
AcDbLine
 62
253
  6
CONTINUOUS
 10
-22.6271795883
 20
-84.1546947066
 11
-23.1469038735
 21
-83.6350052588
  0
LINE
  5
27B
100
AcDbEntity
  8
RACCORDO
100
AcDbLine
 62
253
  6
CONTINUOUS
 10
22.8649948583
 20
-129.6469038735
 11
22.3453051847
 21
-129.1271795873
  0
LINE
  5
27C
100
AcDbEntity
  8
RACCORDO
100
AcDbLine
 62
253
  6
CONTINUOUS
 10
-22.345273254
 20
-83.8728189595
 11
-22.8650068917
 21
-83.3530961265
  0
LINE
  5
27D
100
AcDbEntity
  8
RACCORDO
100
AcDbLine
 62
253
  6
CONTINUOUS
 10
23.1469038735
 20
-129.3650067667
 11
22.6271810404
 21
-128.845273255
  0
LINE
  5
27E
100
AcDbEntity
  8
RACCORDO
100
AcDbLine
 62
253
  6
CONTINUOUS
 10
22.5985397344
 20
-128.7985854258
 11
22.5912724675
 21
-128.791318159
  0
LINE
  5
27F
100
AcDbEntity
  8
RACCORDO
100
AcDbLine
 62
253
  6
CONTINUOUS
 10
-22.291318159
 20
-83.9087275325
 11
-22.2985854258
 21
-83.9014602656
  0
LINE
  5
280
100
AcDbEntity
  8
RACCORDO
100
AcDbLine
 62
253
  6
CONTINUOUS
 10
-25.5930331976
 20
-80.2070734158
 11
-25.6001066134
 21
-80.2
  0
LINE
  5
281
100
AcDbEntity
  8
RACCORDO
100
AcDbLine
 62
253
  6
CONTINUOUS
 10
26.2929265842
 20
-132.0930331976
 11
26.3
 21
-132.1001066134
  0
LWPOLYLINE
  5
282
100
AcDbEntity
  8
0
100
AcDbPolyline
 62
7
  6
CONTINUOUS
 90
3
 70
0
 43
0.3500000006
 10
-57.0928570862
 20
4.6071432953
 10
-57.0928570862
 20
3.1071428375
 10
-59.4500000153
 20
3.750000824
  0
LWPOLYLINE
  5
283
100
AcDbEntity
  8
0
100
AcDbPolyline
 62
7
  6
CONTINUOUS
 90
6
 70
0
 43
0.3500000006
 10
-56.4499990997
 20
-5.4642852745
 10
-56.4499990997
 20
-4.3928571854
 10
-56.6642835846
 20
-4.1785715675
 10
-57.7357150726
 20
-4.1785715675
 10
-58.1642840424
 20
-4.6071428032
 10
-58.1642840424
 20
-5.0357140388
  0
LINE
  5
284
100
AcDbEntity
  8
RACCORDO
100
AcDbLine
 62
7
  6
CONTINUOUS
 10
-25.6001066134
 20
-61.8
 11
25.6001066134
 21
-61.8
  0
LINE
  5
285
100
AcDbEntity
  8
RACCORDO
100
AcDbLine
 62
253
  6
CONTINUOUS
 10
-25.5930331976
 20
-61.7929265842
 11
25.5930331976
 21
-61.7929265842
  0
LINE
  5
286
100
AcDbEntity
  8
RACCORDO
100
AcDbLine
 62
253
  6
CONTINUOUS
 10
-25.5930331976
 20
-61.4929722756
 11
25.5962623332
 21
-61.4929722756
  0
LINE
  5
287
100
AcDbEntity
  8
RACCORDO
100
AcDbLine
 62
253
  6
CONTINUOUS
 10
-26.2929265842
 20
-61.0930331956
 11
-25.9929722756
 21
-61.0930331976
  0
LINE
  5
288
100
AcDbEntity
  8
RACCORDO
100
AcDbLine
 62
253
  6
CONTINUOUS
 10
26.2929265842
 20
-61.0930331962
 11
25.9929722756
 21
-61.0930331976
  0
LINE
  5
289
100
AcDbEntity
  8
RACCORDO
100
AcDbLine
 62
253
  6
CONTINUOUS
 10
22.8649960872
 20
-58.9288116597
 11
-22.8649960872
 21
-58.9288116597
  0
LINE
  5
28A
100
AcDbEntity
  8
RACCORDO
100
AcDbLine
 62
253
  6
CONTINUOUS
 10
22.8649948583
 20
-58.6469038735
 11
-22.8650067667
 21
-58.6469038735
  0
LINE
  5
28B
100
AcDbEntity
  8
RACCORDO
100
AcDbLine
 62
253
  6
CONTINUOUS
 10
-23.4288116597
 20
-58.3649960872
 11
-23.1469038735
 21
-58.3649960872
  0
LINE
  5
28C
100
AcDbEntity
  8
RACCORDO
100
AcDbLine
 62
253
  6
CONTINUOUS
 10
23.4288116597
 20
-58.3649960872
 11
23.1469038735
 21
-58.3649960873
  0
LINE
  5
28D
100
AcDbEntity
  8
RACCORDO
100
AcDbLine
 62
253
  6
CONTINUOUS
 10
-22.2985854258
 20
-58.1286172716
 11
22.2985854258
 21
-58.1286172716
  0
LINE
  5
28E
100
AcDbEntity
  8
RACCORDO
100
AcDbLine
 62
253
  6
CONTINUOUS
 10
-22.2985854258
 20
-58.0985397344
 11
22.2985854258
 21
-58.0985397344
  0
LINE
  5
28F
100
AcDbEntity
  8
RACCORDO
100
AcDbLine
 62
7
  6
CONTINUOUS
 10
22.291318159
 20
-58.0912724675
 11
-22.291318159
 21
-58.0912724675
  0
LINE
  5
290
100
AcDbEntity
  8
RACCORDO
100
AcDbLine
 62
253
  6
CONTINUOUS
 10
22.5985397344
 20
-57.7985854258
 11
22.6286172716
 21
-57.7985854258
  0
LINE
  5
291
100
AcDbEntity
  8
RACCORDO
100
AcDbLine
 62
253
  6
CONTINUOUS
 10
-22.5985397344
 20
-57.7985854258
 11
-22.6286172712
 21
-57.7985854231
  0
LINE
  5
292
100
AcDbEntity
  8
SMUSSO
100
AcDbLine
 62
7
  6
CONTINUOUS
 10
-47.7
 20
153.2
 11
-47.7
 21
-153.2
  0
LINE
  5
293
100
AcDbEntity
  8
SMUSSO
100
AcDbLine
 62
7
  6
CONTINUOUS
 10
-46.7
 20
153.2
 11
-46.7
 21
-153.2
  0
LINE
  5
294
100
AcDbEntity
  8
SMUSSO
100
AcDbLine
 62
253
  6
CONTINUOUS
 10
-46.7
 20
-153.2
 11
-46.7
 21
-154.2
  0
LINE
  5
295
100
AcDbEntity
  8
SMUSSO
100
AcDbLine
 62
253
  6
CONTINUOUS
 10
-46.7
 20
153.2
 11
-46.7
 21
154.2
  0
LWPOLYLINE
  5
296
100
AcDbEntity
  8
0
100
AcDbPolyline
 62
7
  6
CONTINUOUS
 90
3
 70
0
 43
0.3500000006
 10
0.9285714591
 20
163.2357106934
 10
0.8571428254
 20
163.0214262085
 10
0.7142856996
 20
162.7357196045
  0
LWPOLYLINE
  5
297
100
AcDbEntity
  8
0
100
AcDbPolyline
 62
7
  6
CONTINUOUS
 90
13
 70
0
 43
0.3500000006
 10
-58.1642840424
 20
-0.5357137985
 10
-58.3785730591
 20
-0.8214294662
 10
-59.0214265137
 20
-0.8214294662
 10
-59.4500000153
 20
-0.5357137985
 10
-59.4500000153
 20
0.107141922
 10
-59.0214265137
 20
0.3928575897
 10
-58.3785730591
 20
0.3928575897
 10
-58.1642840424
 20
0.107141922
 10
-57.7357150726
 20
0.5357131577
 10
-56.8785726013
 20
0.5357131577
 10
-56.4499990997
 20
0.107141922
 10
-56.4499990997
 20
-0.5357137985
 10
-56.8785726013
 20
-0.9642850342
  0
LWPOLYLINE
  5
298
100
AcDbEntity
  8
0
100
AcDbPolyline
 62
7
  6
CONTINUOUS
 90
5
 70
0
 43
0.3500000006
 10
-58.1642840424
 20
-4.6071428032
 10
-58.3785730591
 20
-4.2500004845
 10
-59.0214265137
 20
-4.2500004845
 10
-59.4500000153
 20
-4.6071428032
 10
-59.4500000153
 20
-5.4642852745
  0
LINE
  5
299
100
AcDbEntity
  8
RACCORDO
100
AcDbLine
 62
7
  6
CONTINUOUS
 10
-26.3
 20
132.1001066134
 11
-26.3
 21
80.8998933866
  0
LINE
  5
29A
100
AcDbEntity
  8
RACCORDO
100
AcDbLine
 62
7
  6
CONTINUOUS
 10
-26.3
 20
61.1001066134
 11
-26.3
 21
9.8998933866
  0
LINE
  5
29B
100
AcDbEntity
  8
RACCORDO
100
AcDbLine
 62
7
  6
CONTINUOUS
 10
-26.3
 20
-9.8998933866
 11
-26.3
 21
-61.1001066134
  0
LINE
  5
29C
100
AcDbEntity
  8
RACCORDO
100
AcDbLine
 62
7
  6
CONTINUOUS
 10
-26.3
 20
-80.8998933866
 11
-26.3
 21
-132.1001066134
  0
LINE
  5
29D
100
AcDbEntity
  8
RACCORDO
100
AcDbLine
 62
253
  6
CONTINUOUS
 10
-26.2929265842
 20
132.0930331976
 11
-26.2929265842
 21
80.9069668024
  0
LINE
  5
29E
100
AcDbEntity
  8
RACCORDO
100
AcDbLine
 62
253
  6
CONTINUOUS
 10
-26.2929265842
 20
61.0930331976
 11
-26.2929265842
 21
9.9069668024
  0
LINE
  5
29F
100
AcDbEntity
  8
RACCORDO
100
AcDbLine
 62
253
  6
CONTINUOUS
 10
-26.2929265842
 20
-9.9069668024
 11
-26.2929265842
 21
-61.0930331976
  0
LINE
  5
2A0
100
AcDbEntity
  8
RACCORDO
100
AcDbLine
 62
253
  6
CONTINUOUS
 10
-26.2929265842
 20
-80.9069668024
 11
-26.2929265842
 21
-132.0930331976
  0
LINE
  5
2A1
100
AcDbEntity
  8
RACCORDO
100
AcDbLine
 62
253
  6
CONTINUOUS
 10
-25.9929722756
 20
132.0930331976
 11
-25.9929722756
 21
80.9037376763
  0
LINE
  5
2A2
100
AcDbEntity
  8
RACCORDO
100
AcDbLine
 62
253
  6
CONTINUOUS
 10
-25.9929722756
 20
61.0930331976
 11
-25.9929722756
 21
9.9037376763
  0
LINE
  5
2A3
100
AcDbEntity
  8
RACCORDO
100
AcDbLine
 62
253
  6
CONTINUOUS
 10
-25.9929722756
 20
-9.9069668024
 11
-25.9929722756
 21
-61.0962623237
  0
LINE
  5
2A4
100
AcDbEntity
  8
RACCORDO
100
AcDbLine
 62
253
  6
CONTINUOUS
 10
-25.9929722756
 20
-80.9069668024
 11
-25.9929722756
 21
-132.0962623237
  0
LINE
  5
2A5
100
AcDbEntity
  8
RACCORDO
100
AcDbLine
 62
253
  6
CONTINUOUS
 10
-25.5930331956
 20
132.7929265842
 11
-25.5930331976
 21
132.4929722756
  0
LINE
  5
2A6
100
AcDbEntity
  8
RACCORDO
100
AcDbLine
 62
253
  6
CONTINUOUS
 10
-25.5930331962
 20
-132.7929265842
 11
-25.5930331976
 21
-132.4929722756
  0
LINE
  5
2A7
100
AcDbEntity
  8
RACCORDO
100
AcDbLine
 62
253
  6
CONTINUOUS
 10
-25.5930331956
 20
61.7929265842
 11
-25.5930331976
 21
61.4929722756
  0
LINE
  5
2A8
100
AcDbEntity
  8
RACCORDO
100
AcDbLine
 62
253
  6
CONTINUOUS
 10
-25.5930331962
 20
-61.7929265842
 11
-25.5930331976
 21
-61.4929722756
  0
LINE
  5
2A9
100
AcDbEntity
  8
RACCORDO
100
AcDbLine
 62
253
  6
CONTINUOUS
 10
-25.5930331956
 20
-9.2070734158
 11
-25.5930331976
 21
-9.5070277244
  0
LINE
  5
2AA
100
AcDbEntity
  8
RACCORDO
100
AcDbLine
 62
253
  6
CONTINUOUS
 10
-25.5930331962
 20
9.2070734158
 11
-25.5930331976
 21
9.5070277244
  0
LINE
  5
2AB
100
AcDbEntity
  8
RACCORDO
100
AcDbLine
 62
253
  6
CONTINUOUS
 10
-25.5930331956
 20
-80.2070734158
 11
-25.5930331976
 21
-80.5070277244
  0
LINE
  5
2AC
100
AcDbEntity
  8
RACCORDO
100
AcDbLine
 62
253
  6
CONTINUOUS
 10
-25.5930331962
 20
80.2070734158
 11
-25.5930331976
 21
80.5070277244
  0
LINE
  5
2AD
100
AcDbEntity
  8
RACCORDO
100
AcDbLine
 62
253
  6
CONTINUOUS
 10
-23.4288116597
 20
-129.3649960872
 11
-23.4288116597
 21
-83.6350039128
  0
LINE
  5
2AE
100
AcDbEntity
  8
RACCORDO
100
AcDbLine
 62
253
  6
CONTINUOUS
 10
-23.4288116597
 20
-58.3649960872
 11
-23.4288116597
 21
-12.6350039128
  0
LINE
  5
2AF
100
AcDbEntity
  8
RACCORDO
100
AcDbLine
 62
253
  6
CONTINUOUS
 10
-23.4288116597
 20
12.6350039128
 11
-23.4288116597
 21
58.3649960872
  0
LINE
  5
2B0
100
AcDbEntity
  8
RACCORDO
100
AcDbLine
 62
253
  6
CONTINUOUS
 10
-23.4288116597
 20
83.6350039128
 11
-23.4288116597
 21
129.3649960872
  0
LINE
  5
2B1
100
AcDbEntity
  8
RACCORDO
100
AcDbLine
 62
253
  6
CONTINUOUS
 10
-23.1469038735
 20
-129.3649948583
 11
-23.1469038735
 21
-83.6350052588
  0
LINE
  5
2B2
100
AcDbEntity
  8
RACCORDO
100
AcDbLine
 62
253
  6
CONTINUOUS
 10
-23.1469038735
 20
-58.3649948583
 11
-23.1469038735
 21
-12.6350052588
  0
LINE
  5
2B3
100
AcDbEntity
  8
RACCORDO
100
AcDbLine
 62
253
  6
CONTINUOUS
 10
-23.1469038735
 20
12.6350051417
 11
-23.1469038735
 21
58.3649947412
  0
LINE
  5
2B4
100
AcDbEntity
  8
RACCORDO
100
AcDbLine
 62
253
  6
CONTINUOUS
 10
-23.1469038735
 20
83.6350051417
 11
-23.1469038735
 21
129.3649947412
  0
LINE
  5
2B5
100
AcDbEntity
  8
RACCORDO
100
AcDbLine
 62
253
  6
CONTINUOUS
 10
-22.8649960872
 20
129.9288116597
 11
-22.8649960872
 21
129.6469038735
  0
LINE
  5
2B6
100
AcDbEntity
  8
RACCORDO
100
AcDbLine
 62
253
  6
CONTINUOUS
 10
-22.8649960872
 20
-129.9288116597
 11
-22.8649960873
 21
-129.6469038735
  0
LINE
  5
2B7
100
AcDbEntity
  8
RACCORDO
100
AcDbLine
 62
253
  6
CONTINUOUS
 10
-22.8649960872
 20
58.9288116597
 11
-22.8649960872
 21
58.6469038735
  0
LINE
  5
2B8
100
AcDbEntity
  8
RACCORDO
100
AcDbLine
 62
253
  6
CONTINUOUS
 10
-22.8649960872
 20
-58.9288116597
 11
-22.8649960873
 21
-58.6469038735
  0
LINE
  5
2B9
100
AcDbEntity
  8
RACCORDO
100
AcDbLine
 62
253
  6
CONTINUOUS
 10
-22.8649960872
 20
-12.0711883403
 11
-22.8649960872
 21
-12.3530961265
  0
LINE
  5
2BA
100
AcDbEntity
  8
RACCORDO
100
AcDbLine
 62
253
  6
CONTINUOUS
 10
-22.8649960872
 20
12.0711883403
 11
-22.8649960873
 21
12.3530961265
  0
LINE
  5
2BB
100
AcDbEntity
  8
RACCORDO
100
AcDbLine
 62
253
  6
CONTINUOUS
 10
-22.8649960872
 20
-83.0711883403
 11
-22.8649960872
 21
-83.3530961265
  0
LINE
  5
2BC
100
AcDbEntity
  8
RACCORDO
100
AcDbLine
 62
253
  6
CONTINUOUS
 10
-22.8649960872
 20
83.0711883403
 11
-22.8649960873
 21
83.3530961265
  0
LINE
  5
2BD
100
AcDbEntity
  8
RACCORDO
100
AcDbLine
 62
253
  6
CONTINUOUS
 10
-22.6286172716
 20
128.7985854258
 11
-22.6286172716
 21
84.2014145742
  0
LINE
  5
2BE
100
AcDbEntity
  8
RACCORDO
100
AcDbLine
 62
253
  6
CONTINUOUS
 10
-22.6286172716
 20
57.7985854258
 11
-22.6286172716
 21
13.2014145742
  0
LINE
  5
2BF
100
AcDbEntity
  8
RACCORDO
100
AcDbLine
 62
253
  6
CONTINUOUS
 10
-22.6286172716
 20
-13.2014145742
 11
-22.6286172716
 21
-57.7985854258
  0
LINE
  5
2C0
100
AcDbEntity
  8
RACCORDO
100
AcDbLine
 62
253
  6
CONTINUOUS
 10
-22.6286172716
 20
-84.2014145742
 11
-22.6286172716
 21
-128.7985854258
  0
LINE
  5
2C1
100
AcDbEntity
  8
RACCORDO
100
AcDbLine
 62
253
  6
CONTINUOUS
 10
-22.5985397344
 20
128.7985854258
 11
-22.5985397344
 21
84.2014145742
  0
LINE
  5
2C2
100
AcDbEntity
  8
RACCORDO
100
AcDbLine
 62
253
  6
CONTINUOUS
 10
-22.5985397344
 20
57.7985854258
 11
-22.5985397344
 21
13.2014145742
  0
LINE
  5
2C3
100
AcDbEntity
  8
RACCORDO
100
AcDbLine
 62
253
  6
CONTINUOUS
 10
-22.5985397344
 20
-13.2014145742
 11
-22.5985397344
 21
-57.7985854258
  0
LINE
  5
2C4
100
AcDbEntity
  8
RACCORDO
100
AcDbLine
 62
253
  6
CONTINUOUS
 10
-22.5985397344
 20
-84.2014145742
 11
-22.5985397344
 21
-128.7985854258
  0
LINE
  5
2C5
100
AcDbEntity
  8
RACCORDO
100
AcDbLine
 62
7
  6
CONTINUOUS
 10
-22.5912724675
 20
-128.791318159
 11
-22.5912724675
 21
-84.208681841
  0
LINE
  5
2C6
100
AcDbEntity
  8
RACCORDO
100
AcDbLine
 62
7
  6
CONTINUOUS
 10
-22.5912724675
 20
-57.791318159
 11
-22.5912724675
 21
-13.208681841
  0
LINE
  5
2C7
100
AcDbEntity
  8
RACCORDO
100
AcDbLine
 62
7
  6
CONTINUOUS
 10
-22.5912724675
 20
13.208681841
 11
-22.5912724675
 21
57.791318159
  0
LINE
  5
2C8
100
AcDbEntity
  8
RACCORDO
100
AcDbLine
 62
7
  6
CONTINUOUS
 10
-22.5912724675
 20
84.208681841
 11
-22.5912724675
 21
128.791318159
  0
LINE
  5
2C9
100
AcDbEntity
  8
RACCORDO
100
AcDbLine
 62
253
  6
CONTINUOUS
 10
-22.2985854258
 20
-83.9014602656
 11
-22.2985854265
 21
-83.8713827284
  0
LINE
  5
2CA
100
AcDbEntity
  8
RACCORDO
100
AcDbLine
 62
253
  6
CONTINUOUS
 10
-22.2985854258
 20
83.9014602656
 11
-22.2985854258
 21
83.8713827284
  0
LINE
  5
2CB
100
AcDbEntity
  8
RACCORDO
100
AcDbLine
 62
253
  6
CONTINUOUS
 10
-22.2985854258
 20
12.9014602656
 11
-22.2985854258
 21
12.8713827284
  0
LINE
  5
2CC
100
AcDbEntity
  8
RACCORDO
100
AcDbLine
 62
253
  6
CONTINUOUS
 10
-22.2985854258
 20
-12.9014602656
 11
-22.2985854265
 21
-12.8713827284
  0
LINE
  5
2CD
100
AcDbEntity
  8
RACCORDO
100
AcDbLine
 62
253
  6
CONTINUOUS
 10
-22.2985854258
 20
-58.0985397344
 11
-22.2985854258
 21
-58.1286172716
  0
LINE
  5
2CE
100
AcDbEntity
  8
RACCORDO
100
AcDbLine
 62
253
  6
CONTINUOUS
 10
-22.2985854258
 20
-129.0985397344
 11
-22.2985854258
 21
-129.1286172716
  0
LINE
  5
2CF
100
AcDbEntity
  8
RACCORDO
100
AcDbLine
 62
253
  6
CONTINUOUS
 10
-22.2985854258
 20
58.0985397344
 11
-22.2985854265
 21
58.1286172716
  0
LINE
  5
2D0
100
AcDbEntity
  8
RACCORDO
100
AcDbLine
 62
253
  6
CONTINUOUS
 10
-22.2985854258
 20
129.0985397344
 11
-22.2985854265
 21
129.1286172716
  0
LINE
  5
2D1
100
AcDbEntity
  8
RACCORDO
100
AcDbLine
 62
253
  6
CONTINUOUS
 10
-26.2929265842
 20
9.9069668024
 11
-26.3
 21
9.8998933866
  0
LINE
  5
2D2
100
AcDbEntity
  8
RACCORDO
100
AcDbLine
 62
253
  6
CONTINUOUS
 10
25.5930331976
 20
61.7929265842
 11
25.6001066134
 21
61.8
  0
LINE
  5
2D3
100
AcDbEntity
  8
RACCORDO
100
AcDbLine
 62
253
  6
CONTINUOUS
 10
22.2985854258
 20
58.0985397344
 11
22.291318159
 21
58.0912724675
  0
LINE
  5
2D4
100
AcDbEntity
  8
RACCORDO
100
AcDbLine
 62
253
  6
CONTINUOUS
 10
-22.5985397344
 20
13.2014145742
 11
-22.5912724675
 21
13.208681841
  0
LINE
  5
2D5
100
AcDbEntity
  8
RACCORDO
100
AcDbLine
 62
253
  6
CONTINUOUS
 10
22.8650067667
 20
58.6469038735
 11
22.345273255
 21
58.1271810404
  0
LINE
  5
2D6
100
AcDbEntity
  8
RACCORDO
100
AcDbLine
 62
253
  6
CONTINUOUS
 10
-23.1469038735
 20
12.6350051417
 11
-22.6271795873
 21
13.1546948153
  0
LINE
  5
2D7
100
AcDbEntity
  8
RACCORDO
100
AcDbLine
 62
253
  6
CONTINUOUS
 10
23.1469038735
 20
58.3649948583
 11
22.6271795873
 21
57.8453051847
  0
LINE
  5
2D8
100
AcDbEntity
  8
RACCORDO
100
AcDbLine
 62
253
  6
CONTINUOUS
 10
-22.8650067667
 20
12.3530961265
 11
-22.345273255
 21
12.8728189596
  0
LINE
  5
2D9
100
AcDbEntity
  8
RACCORDO
100
AcDbLine
 62
253
  6
CONTINUOUS
 10
22.5985397344
 20
57.7985854258
 11
22.5912724675
 21
57.791318159
  0
LINE
  5
2DA
100
AcDbEntity
  8
RACCORDO
100
AcDbLine
 62
253
  6
CONTINUOUS
 10
-22.2985854258
 20
12.9014602656
 11
-22.291318159
 21
12.9087275325
  0
LINE
  5
2DB
100
AcDbEntity
  8
RACCORDO
100
AcDbLine
 62
253
  6
CONTINUOUS
 10
-25.5930331976
 20
9.2070734158
 11
-25.6001066134
 21
9.2
  0
LINE
  5
2DC
100
AcDbEntity
  8
RACCORDO
100
AcDbLine
 62
253
  6
CONTINUOUS
 10
26.2929265842
 20
61.0930331976
 11
26.3
 21
61.1001066134
  0
LWPOLYLINE
  5
2DD
100
AcDbEntity
  8
0
100
AcDbPolyline
 62
7
  6
CONTINUOUS
 90
10
 70
0
 43
0.3500000006
 10
-56.9499992523
 20
2.0357136154
 10
-56.8071414185
 20
2.1071425323
 10
-56.7357147675
 20
2.1071425323
 10
-56.5928569336
 20
1.9642846985
 10
-56.5928569336
 20
1.8928580475
 10
-56.6642835846
 20
1.8214291306
 10
-56.7357147675
 20
1.8214291306
 10
-56.8785726013
 20
1.8928580475
 10
-56.9499992523
 20
1.9642846985
 10
-56.9499992523
 20
2.0357136154
  0
LINE
  5
2DE
100
AcDbEntity
  8
RACCORDO
100
AcDbLine
 62
253
  6
CONTINUOUS
 10
-26.2929265842
 20
-9.9069668024
 11
-26.3
 21
-9.8998933866
  0
LINE
  5
2DF
100
AcDbEntity
  8
RACCORDO
100
AcDbLine
 62
253
  6
CONTINUOUS
 10
25.5930331976
 20
-61.7929265842
 11
25.6001066134
 21
-61.8
  0
LINE
  5
2E0
100
AcDbEntity
  8
RACCORDO
100
AcDbLine
 62
253
  6
CONTINUOUS
 10
22.2985854258
 20
-58.0985397344
 11
22.291318159
 21
-58.0912724675
  0
LINE
  5
2E1
100
AcDbEntity
  8
RACCORDO
100
AcDbLine
 62
253
  6
CONTINUOUS
 10
-22.5912724675
 20
-13.208681841
 11
-22.5985397344
 21
-13.2014145742
  0
LINE
  5
2E2
100
AcDbEntity
  8
RACCORDO
100
AcDbLine
 62
253
  6
CONTINUOUS
 10
-22.6271795883
 20
-13.1546947066
 11
-23.1469038735
 21
-12.6350052588
  0
LINE
  5
2E3
100
AcDbEntity
  8
RACCORDO
100
AcDbLine
 62
253
  6
CONTINUOUS
 10
22.8649948583
 20
-58.6469038735
 11
22.3453051847
 21
-58.1271795873
  0
LINE
  5
2E4
100
AcDbEntity
  8
RACCORDO
100
AcDbLine
 62
253
  6
CONTINUOUS
 10
-22.345273254
 20
-12.8728189595
 11
-22.8650068917
 21
-12.3530961265
  0
LINE
  5
2E5
100
AcDbEntity
  8
RACCORDO
100
AcDbLine
 62
253
  6
CONTINUOUS
 10
23.1469038735
 20
-58.3650067667
 11
22.6271810404
 21
-57.845273255
  0
LINE
  5
2E6
100
AcDbEntity
  8
RACCORDO
100
AcDbLine
 62
253
  6
CONTINUOUS
 10
22.5985397344
 20
-57.7985854258
 11
22.5912724675
 21
-57.791318159
  0
LINE
  5
2E7
100
AcDbEntity
  8
RACCORDO
100
AcDbLine
 62
253
  6
CONTINUOUS
 10
-22.291318159
 20
-12.9087275325
 11
-22.2985854258
 21
-12.9014602656
  0
LINE
  5
2E8
100
AcDbEntity
  8
RACCORDO
100
AcDbLine
 62
253
  6
CONTINUOUS
 10
-25.5930331976
 20
-9.2070734158
 11
-25.6001066134
 21
-9.2
  0
LINE
  5
2E9
100
AcDbEntity
  8
RACCORDO
100
AcDbLine
 62
253
  6
CONTINUOUS
 10
26.2929265842
 20
-61.0930331976
 11
26.3
 21
-61.1001066134
  0
LINE
  5
2EA
100
AcDbEntity
  8
RACCORDO
100
AcDbLine
 62
253
  6
CONTINUOUS
 10
-22.5985397344
 20
-13.2014145742
 11
-22.6286172716
 21
-13.2014145742
  0
LINE
  5
2EB
100
AcDbEntity
  8
RACCORDO
100
AcDbLine
 62
253
  6
CONTINUOUS
 10
22.5985397344
 20
-13.2014145742
 11
22.6286172712
 21
-13.2014145769
  0
LINE
  5
2EC
100
AcDbEntity
  8
RACCORDO
100
AcDbLine
 62
7
  6
CONTINUOUS
 10
-22.291318159
 20
-12.9087275325
 11
22.291318159
 21
-12.9087275325
  0
LINE
  5
2ED
100
AcDbEntity
  8
RACCORDO
100
AcDbLine
 62
253
  6
CONTINUOUS
 10
22.2985854258
 20
-12.9014602656
 11
-22.2985854258
 21
-12.9014602656
  0
LINE
  5
2EE
100
AcDbEntity
  8
RACCORDO
100
AcDbLine
 62
253
  6
CONTINUOUS
 10
22.2985854258
 20
-12.8713827284
 11
-22.2985854258
 21
-12.8713827284
  0
LINE
  5
2EF
100
AcDbEntity
  8
RACCORDO
100
AcDbLine
 62
253
  6
CONTINUOUS
 10
-23.4288116597
 20
-12.6350039128
 11
-23.1469038735
 21
-12.6350039128
  0
LINE
  5
2F0
100
AcDbEntity
  8
RACCORDO
100
AcDbLine
 62
253
  6
CONTINUOUS
 10
23.4288116597
 20
-12.6350039128
 11
23.1469038735
 21
-12.6350039128
  0
LINE
  5
2F1
100
AcDbEntity
  8
RACCORDO
100
AcDbLine
 62
253
  6
CONTINUOUS
 10
-22.8650068917
 20
-12.3530961265
 11
22.8650067667
 21
-12.3530961265
  0
LINE
  5
2F2
100
AcDbEntity
  8
RACCORDO
100
AcDbLine
 62
253
  6
CONTINUOUS
 10
-22.8649960872
 20
-12.0711883403
 11
22.8649960872
 21
-12.0711883403
  0
LINE
  5
2F3
100
AcDbEntity
  8
RACCORDO
100
AcDbLine
 62
253
  6
CONTINUOUS
 10
-26.2929265842
 20
-9.9069668038
 11
-25.9929722756
 21
-9.9069668024
  0
LINE
  5
2F4
100
AcDbEntity
  8
RACCORDO
100
AcDbLine
 62
253
  6
CONTINUOUS
 10
26.2929265842
 20
-9.9069668044
 11
25.9929722756
 21
-9.9069668024
  0
LINE
  5
2F5
100
AcDbEntity
  8
RACCORDO
100
AcDbLine
 62
253
  6
CONTINUOUS
 10
25.5930331976
 20
-9.5070277244
 11
-25.5962623223
 21
-9.5070277244
  0
LWPOLYLINE
  5
2F6
100
AcDbEntity
  8
0
100
AcDbPolyline
 62
7
  6
CONTINUOUS
 90
3
 70
0
 43
0.3500000006
 10
-56.7357147675
 20
2.1071425323
 10
-56.5214302826
 20
2.0357136154
 10
-56.2357146149
 20
1.8928580475
  0
LINE
  5
2F7
100
AcDbEntity
  8
RACCORDO
100
AcDbLine
 62
253
  6
CONTINUOUS
 10
25.5930331976
 20
-9.2070734158
 11
-25.5930331976
 21
-9.2070734158
  0
LINE
  5
2F8
100
AcDbEntity
  8
RACCORDO
100
AcDbLine
 62
7
  6
CONTINUOUS
 10
25.6001066134
 20
-9.2
 11
-25.6001066134
 21
-9.2
  0
LWPOLYLINE
  5
2F9
100
AcDbEntity
  8
0
100
AcDbPolyline
 62
7
  6
CONTINUOUS
 90
13
 70
0
 43
0.3500000006
 10
-57.307141571
 20
-3.3214290962
 10
-58.5928575439
 20
-3.3214290962
 10
-59.0214265137
 20
-3.1071423454
 10
-59.4500000153
 20
-2.6785711098
 10
-59.4500000153
 20
-2.4642854919
 10
-59.0214265137
 20
-2.0357142563
 10
-58.5928575439
 20
-1.8214286385
 10
-57.307141571
 20
-1.8214286385
 10
-56.8785726013
 20
-2.0357142563
 10
-56.4499990997
 20
-2.4642854919
 10
-56.4499990997
 20
-2.6785711098
 10
-56.8785726013
 20
-3.1071423454
 10
-57.307141571
 20
-3.3214290962
  0
LWPOLYLINE
  5
2FA
100
AcDbEntity
  8
0
100
AcDbPolyline
 62
7
  6
CONTINUOUS
 90
4
 70
0
 43
0.3500000006
 10
-56.8785726013
 20
-0.9642850342
 10
-57.7357150726
 20
-0.9642850342
 10
-58.1642840424
 20
-0.5357137985
 10
-58.1642840424
 20
0.107141922
  0
LWPOLYLINE
  5
2FB
100
AcDbEntity
  8
0
100
AcDbPolyline
 62
7
  6
CONTINUOUS
 90
2
 70
0
 43
0.3500000006
 10
2.9285714321
 20
162.9500040894
 10
2.9285714321
 20
164.4499954834
  0
LWPOLYLINE
  5
2FC
100
AcDbEntity
  8
0
100
AcDbPolyline
 62
7
  6
CONTINUOUS
 90
2
 70
0
 43
0.3500000006
 10
-56.4499990997
 20
4.1071431427
 10
-57.9499995575
 20
4.1071431427
  0
LINE
  5
2FD
100
AcDbEntity
  8
RACCORDO
100
AcDbLine
 62
7
  6
CONTINUOUS
 10
-25.6001066134
 20
9.2
 11
25.6001066134
 21
9.2
  0
LINE
  5
2FE
100
AcDbEntity
  8
RACCORDO
100
AcDbLine
 62
253
  6
CONTINUOUS
 10
-25.5930331976
 20
9.2070734158
 11
25.5930331976
 21
9.2070734158
  0
LINE
  5
2FF
100
AcDbEntity
  8
RACCORDO
100
AcDbLine
 62
253
  6
CONTINUOUS
 10
-25.5930331976
 20
9.5070277244
 11
25.5962623332
 21
9.5070277244
  0
LINE
  5
300
100
AcDbEntity
  8
RACCORDO
100
AcDbLine
 62
253
  6
CONTINUOUS
 10
-26.2929265842
 20
9.9069668044
 11
-25.9929722756
 21
9.9069668024
  0
LINE
  5
301
100
AcDbEntity
  8
RACCORDO
100
AcDbLine
 62
253
  6
CONTINUOUS
 10
26.2929265842
 20
9.9069668038
 11
25.9929722756
 21
9.9069668024
  0
LINE
  5
302
100
AcDbEntity
  8
RACCORDO
100
AcDbLine
 62
253
  6
CONTINUOUS
 10
22.8649960872
 20
12.0711883403
 11
-22.8649960872
 21
12.0711883403
  0
LINE
  5
303
100
AcDbEntity
  8
RACCORDO
100
AcDbLine
 62
253
  6
CONTINUOUS
 10
22.2985854258
 20
83.9014602656
 11
22.2985854231
 21
83.8713827288
  0
LINE
  5
304
100
AcDbEntity
  8
RACCORDO
100
AcDbLine
 62
253
  6
CONTINUOUS
 10
22.2985854258
 20
12.9014602656
 11
22.2985854231
 21
12.8713827288
  0
LINE
  5
305
100
AcDbEntity
  8
RACCORDO
100
AcDbLine
 62
253
  6
CONTINUOUS
 10
22.2985854258
 20
-83.9014602656
 11
22.2985854258
 21
-83.8713827284
  0
LINE
  5
306
100
AcDbEntity
  8
RACCORDO
100
AcDbLine
 62
253
  6
CONTINUOUS
 10
22.2985854258
 20
-12.9014602656
 11
22.2985854258
 21
-12.8713827284
  0
LINE
  5
307
100
AcDbEntity
  8
RACCORDO
100
AcDbLine
 62
253
  6
CONTINUOUS
 10
22.2985854258
 20
58.0985397344
 11
22.2985854258
 21
58.1286172716
  0
LINE
  5
308
100
AcDbEntity
  8
RACCORDO
100
AcDbLine
 62
253
  6
CONTINUOUS
 10
22.2985854258
 20
129.0985397344
 11
22.2985854258
 21
129.1286172716
  0
LINE
  5
309
100
AcDbEntity
  8
RACCORDO
100
AcDbLine
 62
253
  6
CONTINUOUS
 10
22.2985854258
 20
-58.0985397344
 11
22.2985854231
 21
-58.1286172712
  0
LINE
  5
30A
100
AcDbEntity
  8
RACCORDO
100
AcDbLine
 62
253
  6
CONTINUOUS
 10
22.2985854258
 20
-129.0985397344
 11
22.2985854231
 21
-129.1286172712
  0
LINE
  5
30B
100
AcDbEntity
  8
RACCORDO
100
AcDbLine
 62
7
  6
CONTINUOUS
 10
22.5912724675
 20
128.791318159
 11
22.5912724675
 21
84.208681841
  0
LINE
  5
30C
100
AcDbEntity
  8
RACCORDO
100
AcDbLine
 62
7
  6
CONTINUOUS
 10
22.5912724675
 20
57.791318159
 11
22.5912724675
 21
13.208681841
  0
LINE
  5
30D
100
AcDbEntity
  8
RACCORDO
100
AcDbLine
 62
7
  6
CONTINUOUS
 10
22.5912724675
 20
-13.208681841
 11
22.5912724675
 21
-57.791318159
  0
LINE
  5
30E
100
AcDbEntity
  8
RACCORDO
100
AcDbLine
 62
7
  6
CONTINUOUS
 10
22.5912724675
 20
-84.208681841
 11
22.5912724675
 21
-128.791318159
  0
LINE
  5
30F
100
AcDbEntity
  8
RACCORDO
100
AcDbLine
 62
253
  6
CONTINUOUS
 10
22.5985397344
 20
-128.7985854258
 11
22.5985397344
 21
-84.2014145742
  0
LINE
  5
310
100
AcDbEntity
  8
RACCORDO
100
AcDbLine
 62
253
  6
CONTINUOUS
 10
22.5985397344
 20
-57.7985854258
 11
22.5985397344
 21
-13.2014145742
  0
LINE
  5
311
100
AcDbEntity
  8
RACCORDO
100
AcDbLine
 62
253
  6
CONTINUOUS
 10
22.5985397344
 20
13.2014145742
 11
22.5985397344
 21
57.7985854258
  0
LINE
  5
312
100
AcDbEntity
  8
RACCORDO
100
AcDbLine
 62
253
  6
CONTINUOUS
 10
22.5985397344
 20
84.2014145742
 11
22.5985397344
 21
128.7985854258
  0
LINE
  5
313
100
AcDbEntity
  8
RACCORDO
100
AcDbLine
 62
253
  6
CONTINUOUS
 10
22.6286172716
 20
-128.7985854258
 11
22.6286172716
 21
-84.2014145742
  0
LINE
  5
314
100
AcDbEntity
  8
RACCORDO
100
AcDbLine
 62
253
  6
CONTINUOUS
 10
22.6286172716
 20
-57.7985854258
 11
22.6286172716
 21
-13.2014145742
  0
LINE
  5
315
100
AcDbEntity
  8
RACCORDO
100
AcDbLine
 62
253
  6
CONTINUOUS
 10
22.6286172716
 20
13.2014145742
 11
22.6286172716
 21
57.7985854258
  0
LINE
  5
316
100
AcDbEntity
  8
RACCORDO
100
AcDbLine
 62
253
  6
CONTINUOUS
 10
22.6286172716
 20
84.2014145742
 11
22.6286172716
 21
128.7985854258
  0
LINE
  5
317
100
AcDbEntity
  8
RACCORDO
100
AcDbLine
 62
253
  6
CONTINUOUS
 10
22.8649960872
 20
129.9288116597
 11
22.8649960873
 21
129.6469038735
  0
LINE
  5
318
100
AcDbEntity
  8
RACCORDO
100
AcDbLine
 62
253
  6
CONTINUOUS
 10
22.8649960872
 20
-129.9288116597
 11
22.8649960872
 21
-129.6469038735
  0
LINE
  5
319
100
AcDbEntity
  8
RACCORDO
100
AcDbLine
 62
253
  6
CONTINUOUS
 10
22.8649960872
 20
58.9288116597
 11
22.8649960873
 21
58.6469038735
  0
LINE
  5
31A
100
AcDbEntity
  8
RACCORDO
100
AcDbLine
 62
253
  6
CONTINUOUS
 10
22.8649960872
 20
-58.9288116597
 11
22.8649960872
 21
-58.6469038735
  0
LINE
  5
31B
100
AcDbEntity
  8
RACCORDO
100
AcDbLine
 62
253
  6
CONTINUOUS
 10
22.8649960872
 20
-12.0711883403
 11
22.8649960873
 21
-12.3530961265
  0
LINE
  5
31C
100
AcDbEntity
  8
RACCORDO
100
AcDbLine
 62
253
  6
CONTINUOUS
 10
22.8649960872
 20
12.0711883403
 11
22.8649960872
 21
12.3530961265
  0
LINE
  5
31D
100
AcDbEntity
  8
RACCORDO
100
AcDbLine
 62
253
  6
CONTINUOUS
 10
22.8649960872
 20
-83.0711883403
 11
22.8649960873
 21
-83.3530961265
  0
LINE
  5
31E
100
AcDbEntity
  8
RACCORDO
100
AcDbLine
 62
253
  6
CONTINUOUS
 10
22.8649960872
 20
83.0711883403
 11
22.8649960872
 21
83.3530961265
  0
LINE
  5
31F
100
AcDbEntity
  8
RACCORDO
100
AcDbLine
 62
253
  6
CONTINUOUS
 10
22.8649948583
 20
12.3530961265
 11
-22.8650067667
 21
12.3530961265
  0
LINE
  5
320
100
AcDbEntity
  8
RACCORDO
100
AcDbLine
 62
253
  6
CONTINUOUS
 10
-23.4288116597
 20
12.6350039128
 11
-23.1469038735
 21
12.6350039128
  0
LINE
  5
321
100
AcDbEntity
  8
RACCORDO
100
AcDbLine
 62
253
  6
CONTINUOUS
 10
23.4288116597
 20
12.6350039128
 11
23.1469038735
 21
12.6350039127
  0
LINE
  5
322
100
AcDbEntity
  8
RACCORDO
100
AcDbLine
 62
253
  6
CONTINUOUS
 10
-22.2985854258
 20
12.8713827284
 11
22.2985854258
 21
12.8713827284
  0
LINE
  5
323
100
AcDbEntity
  8
RACCORDO
100
AcDbLine
 62
253
  6
CONTINUOUS
 10
-22.2985854258
 20
12.9014602656
 11
22.2985854258
 21
12.9014602656
  0
LINE
  5
324
100
AcDbEntity
  8
RACCORDO
100
AcDbLine
 62
7
  6
CONTINUOUS
 10
22.291318159
 20
12.9087275325
 11
-22.291318159
 21
12.9087275325
  0
LINE
  5
325
100
AcDbEntity
  8
RACCORDO
100
AcDbLine
 62
253
  6
CONTINUOUS
 10
-22.5985397344
 20
13.2014145742
 11
-22.6286172712
 21
13.2014145769
  0
LINE
  5
326
100
AcDbEntity
  8
RACCORDO
100
AcDbLine
 62
253
  6
CONTINUOUS
 10
22.5985397344
 20
13.2014145742
 11
22.6286172716
 21
13.2014145742
  0
LINE
  5
327
100
AcDbEntity
  8
RACCORDO
100
AcDbLine
 62
253
  6
CONTINUOUS
 10
23.1469038735
 20
129.3649948583
 11
23.1469038735
 21
83.6349932333
  0
LINE
  5
328
100
AcDbEntity
  8
RACCORDO
100
AcDbLine
 62
253
  6
CONTINUOUS
 10
23.1469038735
 20
58.3649948583
 11
23.1469038735
 21
12.6349932333
  0
LINE
  5
329
100
AcDbEntity
  8
RACCORDO
100
AcDbLine
 62
253
  6
CONTINUOUS
 10
23.1469038735
 20
-12.6350051417
 11
23.1469038735
 21
-58.3650067667
  0
LINE
  5
32A
100
AcDbEntity
  8
RACCORDO
100
AcDbLine
 62
253
  6
CONTINUOUS
 10
23.1469038735
 20
-83.6350051417
 11
23.1469038735
 21
-129.3650067667
  0
LINE
  5
32B
100
AcDbEntity
  8
RACCORDO
100
AcDbLine
 62
253
  6
CONTINUOUS
 10
23.4288116597
 20
129.3649960872
 11
23.4288116597
 21
83.6350039128
  0
LINE
  5
32C
100
AcDbEntity
  8
RACCORDO
100
AcDbLine
 62
253
  6
CONTINUOUS
 10
23.4288116597
 20
58.3649960872
 11
23.4288116597
 21
12.6350039128
  0
LINE
  5
32D
100
AcDbEntity
  8
RACCORDO
100
AcDbLine
 62
253
  6
CONTINUOUS
 10
23.4288116597
 20
-12.6350039128
 11
23.4288116597
 21
-58.3649960872
  0
LINE
  5
32E
100
AcDbEntity
  8
RACCORDO
100
AcDbLine
 62
253
  6
CONTINUOUS
 10
23.4288116597
 20
-83.6350039128
 11
23.4288116597
 21
-129.3649960872
  0
LINE
  5
32F
100
AcDbEntity
  8
RACCORDO
100
AcDbLine
 62
253
  6
CONTINUOUS
 10
25.5930331962
 20
132.7929265842
 11
25.5930331976
 21
132.4929722756
  0
LINE
  5
330
100
AcDbEntity
  8
RACCORDO
100
AcDbLine
 62
253
  6
CONTINUOUS
 10
25.5930331956
 20
-132.7929265842
 11
25.5930331976
 21
-132.4929722756
  0
LINE
  5
331
100
AcDbEntity
  8
RACCORDO
100
AcDbLine
 62
253
  6
CONTINUOUS
 10
25.5930331962
 20
61.7929265842
 11
25.5930331976
 21
61.4929722756
  0
LINE
  5
332
100
AcDbEntity
  8
RACCORDO
100
AcDbLine
 62
253
  6
CONTINUOUS
 10
25.5930331956
 20
-61.7929265842
 11
25.5930331976
 21
-61.4929722756
  0
LINE
  5
333
100
AcDbEntity
  8
RACCORDO
100
AcDbLine
 62
253
  6
CONTINUOUS
 10
25.5930331962
 20
-9.2070734158
 11
25.5930331976
 21
-9.5070277244
  0
LINE
  5
334
100
AcDbEntity
  8
RACCORDO
100
AcDbLine
 62
253
  6
CONTINUOUS
 10
25.5930331956
 20
9.2070734158
 11
25.5930331976
 21
9.5070277244
  0
LINE
  5
335
100
AcDbEntity
  8
RACCORDO
100
AcDbLine
 62
253
  6
CONTINUOUS
 10
25.5930331962
 20
-80.2070734158
 11
25.5930331976
 21
-80.5070277244
  0
LINE
  5
336
100
AcDbEntity
  8
RACCORDO
100
AcDbLine
 62
253
  6
CONTINUOUS
 10
25.5930331956
 20
80.2070734158
 11
25.5930331976
 21
80.5070277244
  0
LINE
  5
337
100
AcDbEntity
  8
RACCORDO
100
AcDbLine
 62
253
  6
CONTINUOUS
 10
25.9929722756
 20
-132.0930331976
 11
25.9929722756
 21
-80.9037376732
  0
LINE
  5
338
100
AcDbEntity
  8
RACCORDO
100
AcDbLine
 62
253
  6
CONTINUOUS
 10
25.9929722756
 20
-61.0930331976
 11
25.9929722756
 21
-9.9037376732
  0
LINE
  5
339
100
AcDbEntity
  8
RACCORDO
100
AcDbLine
 62
253
  6
CONTINUOUS
 10
25.9929722756
 20
9.9069668024
 11
25.9929722756
 21
61.0962623268
  0
LINE
  5
33A
100
AcDbEntity
  8
RACCORDO
100
AcDbLine
 62
253
  6
CONTINUOUS
 10
25.9929722756
 20
80.9069668024
 11
25.9929722756
 21
132.0962623268
  0
LINE
  5
33B
100
AcDbEntity
  8
RACCORDO
100
AcDbLine
 62
253
  6
CONTINUOUS
 10
26.2929265842
 20
-132.0930331976
 11
26.2929265842
 21
-80.9069668024
  0
LINE
  5
33C
100
AcDbEntity
  8
RACCORDO
100
AcDbLine
 62
253
  6
CONTINUOUS
 10
26.2929265842
 20
-61.0930331976
 11
26.2929265842
 21
-9.9069668024
  0
LINE
  5
33D
100
AcDbEntity
  8
RACCORDO
100
AcDbLine
 62
253
  6
CONTINUOUS
 10
26.2929265842
 20
9.9069668024
 11
26.2929265842
 21
61.0930331976
  0
LINE
  5
33E
100
AcDbEntity
  8
RACCORDO
100
AcDbLine
 62
253
  6
CONTINUOUS
 10
26.2929265842
 20
80.9069668024
 11
26.2929265842
 21
132.0930331976
  0
LINE
  5
33F
100
AcDbEntity
  8
RACCORDO
100
AcDbLine
 62
7
  6
CONTINUOUS
 10
26.3
 20
-132.1001066134
 11
26.3
 21
-80.8998933866
  0
LINE
  5
340
100
AcDbEntity
  8
RACCORDO
100
AcDbLine
 62
7
  6
CONTINUOUS
 10
26.3
 20
-61.1001066134
 11
26.3
 21
-9.8998933866
  0
LINE
  5
341
100
AcDbEntity
  8
RACCORDO
100
AcDbLine
 62
7
  6
CONTINUOUS
 10
26.3
 20
9.8998933866
 11
26.3
 21
61.1001066134
  0
LINE
  5
342
100
AcDbEntity
  8
RACCORDO
100
AcDbLine
 62
7
  6
CONTINUOUS
 10
26.3
 20
80.8998933866
 11
26.3
 21
132.1001066134
  0
LINE
  5
343
100
AcDbEntity
  8
RACCORDO
100
AcDbLine
 62
253
  6
CONTINUOUS
 10
25.5930331976
 20
-9.2070734158
 11
25.6001066134
 21
-9.2
  0
LINE
  5
344
100
AcDbEntity
  8
RACCORDO
100
AcDbLine
 62
253
  6
CONTINUOUS
 10
-26.2929265842
 20
-61.0930331976
 11
-26.3
 21
-61.1001066134
  0
LINE
  5
345
100
AcDbEntity
  8
RACCORDO
100
AcDbLine
 62
253
  6
CONTINUOUS
 10
-22.5985397344
 20
-57.7985854258
 11
-22.5912724675
 21
-57.791318159
  0
LINE
  5
346
100
AcDbEntity
  8
RACCORDO
100
AcDbLine
 62
253
  6
CONTINUOUS
 10
22.2985854258
 20
-12.9014602656
 11
22.291318159
 21
-12.9087275325
  0
LINE
  5
347
100
AcDbEntity
  8
RACCORDO
100
AcDbLine
 62
253
  6
CONTINUOUS
 10
22.8650067667
 20
-12.3530961265
 11
22.345273255
 21
-12.8728189596
  0
LINE
  5
348
100
AcDbEntity
  8
RACCORDO
100
AcDbLine
 62
253
  6
CONTINUOUS
 10
-23.1469038735
 20
-58.3649948583
 11
-22.6271795873
 21
-57.8453051847
  0
LINE
  5
349
100
AcDbEntity
  8
RACCORDO
100
AcDbLine
 62
253
  6
CONTINUOUS
 10
23.1469038735
 20
-12.6350051417
 11
22.6271795873
 21
-13.1546948153
  0
LINE
  5
34A
100
AcDbEntity
  8
RACCORDO
100
AcDbLine
 62
253
  6
CONTINUOUS
 10
-22.8650067667
 20
-58.6469038735
 11
-22.345273255
 21
-58.1271810404
  0
LINE
  5
34B
100
AcDbEntity
  8
RACCORDO
100
AcDbLine
 62
253
  6
CONTINUOUS
 10
-22.2985854258
 20
-58.0985397344
 11
-22.291318159
 21
-58.0912724675
  0
LINE
  5
34C
100
AcDbEntity
  8
RACCORDO
100
AcDbLine
 62
253
  6
CONTINUOUS
 10
22.5985397344
 20
-13.2014145742
 11
22.5912724675
 21
-13.208681841
  0
LINE
  5
34D
100
AcDbEntity
  8
RACCORDO
100
AcDbLine
 62
253
  6
CONTINUOUS
 10
26.2929265842
 20
-9.9069668024
 11
26.3
 21
-9.8998933866
  0
LINE
  5
34E
100
AcDbEntity
  8
RACCORDO
100
AcDbLine
 62
253
  6
CONTINUOUS
 10
-25.5930331976
 20
-61.7929265842
 11
-25.6001066134
 21
-61.8
  0
LINE
  5
34F
100
AcDbEntity
  8
RACCORDO
100
AcDbLine
 62
253
  6
CONTINUOUS
 10
25.5930331976
 20
9.2070734158
 11
25.6001066134
 21
9.2
  0
LINE
  5
350
100
AcDbEntity
  8
RACCORDO
100
AcDbLine
 62
253
  6
CONTINUOUS
 10
-26.2929265842
 20
61.0930331976
 11
-26.3
 21
61.1001066134
  0
LINE
  5
351
100
AcDbEntity
  8
RACCORDO
100
AcDbLine
 62
253
  6
CONTINUOUS
 10
22.2985854258
 20
12.9014602656
 11
22.291318159
 21
12.9087275325
  0
LINE
  5
352
100
AcDbEntity
  8
RACCORDO
100
AcDbLine
 62
253
  6
CONTINUOUS
 10
-22.5912724675
 20
57.791318159
 11
-22.5985397344
 21
57.7985854258
  0
LINE
  5
353
100
AcDbEntity
  8
RACCORDO
100
AcDbLine
 62
253
  6
CONTINUOUS
 10
22.8649948583
 20
12.3530961265
 11
22.3453051847
 21
12.8728204127
  0
LINE
  5
354
100
AcDbEntity
  8
RACCORDO
100
AcDbLine
 62
253
  6
CONTINUOUS
 10
-22.6271795883
 20
57.8453052934
 11
-23.1469038735
 21
58.3649947412
  0
LINE
  5
355
100
AcDbEntity
  8
RACCORDO
100
AcDbLine
 62
253
  6
CONTINUOUS
 10
23.1469038735
 20
12.6349932333
 11
22.6271810404
 21
13.154726745
  0
LINE
  5
356
100
AcDbEntity
  8
RACCORDO
100
AcDbLine
 62
253
  6
CONTINUOUS
 10
-22.345273254
 20
58.1271810405
 11
-22.8650068917
 21
58.6469038735
  0
LINE
  5
357
100
AcDbEntity
  8
RACCORDO
100
AcDbLine
 62
253
  6
CONTINUOUS
 10
22.5985397344
 20
13.2014145742
 11
22.5912724675
 21
13.208681841
  0
LINE
  5
358
100
AcDbEntity
  8
RACCORDO
100
AcDbLine
 62
253
  6
CONTINUOUS
 10
-22.291318159
 20
58.0912724675
 11
-22.2985854258
 21
58.0985397344
  0
LINE
  5
359
100
AcDbEntity
  8
RACCORDO
100
AcDbLine
 62
253
  6
CONTINUOUS
 10
26.2929265842
 20
9.9069668024
 11
26.3
 21
9.8998933866
  0
LINE
  5
35A
100
AcDbEntity
  8
RACCORDO
100
AcDbLine
 62
253
  6
CONTINUOUS
 10
-25.5930331976
 20
61.7929265842
 11
-25.6001066134
 21
61.8
  0
LINE
  5
35B
100
AcDbEntity
  8
SMUSSO
100
AcDbLine
 62
253
  6
CONTINUOUS
 10
46.7
 20
-153.2
 11
46.7
 21
-154.2
  0
LINE
  5
35C
100
AcDbEntity
  8
SMUSSO
100
AcDbLine
 62
7
  6
CONTINUOUS
 10
46.7
 20
-153.2
 11
46.7
 21
153.2
  0
LINE
  5
35D
100
AcDbEntity
  8
SMUSSO
100
AcDbLine
 62
253
  6
CONTINUOUS
 10
46.7
 20
153.2
 11
46.7
 21
154.2
  0
LINE
  5
35E
100
AcDbEntity
  8
SMUSSO
100
AcDbLine
 62
7
  6
CONTINUOUS
 10
47.7
 20
-153.2
 11
47.7
 21
153.2
  0
LINE
  5
35F
100
AcDbEntity
  8
RACCORDO
100
AcDbLine
 62
253
  6
CONTINUOUS
 10
22.5985397344
 20
57.7985854258
 11
22.6286172712
 21
57.7985854231
  0
LINE
  5
360
100
AcDbEntity
  8
RACCORDO
100
AcDbLine
 62
253
  6
CONTINUOUS
 10
-22.5985397344
 20
57.7985854258
 11
-22.6286172716
 21
57.7985854258
  0
LINE
  5
361
100
AcDbEntity
  8
RACCORDO
100
AcDbLine
 62
7
  6
CONTINUOUS
 10
-22.291318159
 20
58.0912724675
 11
22.291318159
 21
58.0912724675
  0
LINE
  5
362
100
AcDbEntity
  8
RACCORDO
100
AcDbLine
 62
253
  6
CONTINUOUS
 10
22.2985854258
 20
58.0985397344
 11
-22.2985854258
 21
58.0985397344
  0
LINE
  5
363
100
AcDbEntity
  8
RACCORDO
100
AcDbLine
 62
253
  6
CONTINUOUS
 10
22.2985854258
 20
58.1286172716
 11
-22.2985854258
 21
58.1286172716
  0
LINE
  5
364
100
AcDbEntity
  8
RACCORDO
100
AcDbLine
 62
253
  6
CONTINUOUS
 10
-23.4288116597
 20
58.3649960872
 11
-23.1469038735
 21
58.3649960872
  0
LINE
  5
365
100
AcDbEntity
  8
RACCORDO
100
AcDbLine
 62
253
  6
CONTINUOUS
 10
23.4288116597
 20
58.3649960872
 11
23.1469038735
 21
58.3649960872
  0
LINE
  5
366
100
AcDbEntity
  8
RACCORDO
100
AcDbLine
 62
253
  6
CONTINUOUS
 10
-22.8650068917
 20
58.6469038735
 11
22.8650067667
 21
58.6469038735
  0
LINE
  5
367
100
AcDbEntity
  8
RACCORDO
100
AcDbLine
 62
253
  6
CONTINUOUS
 10
-22.8649960872
 20
58.9288116597
 11
22.8649960872
 21
58.9288116597
  0
LINE
  5
368
100
AcDbEntity
  8
RACCORDO
100
AcDbLine
 62
253
  6
CONTINUOUS
 10
-26.2929265842
 20
61.0930331962
 11
-25.9929722756
 21
61.0930331976
  0
LINE
  5
369
100
AcDbEntity
  8
RACCORDO
100
AcDbLine
 62
253
  6
CONTINUOUS
 10
26.2929265842
 20
61.0930331956
 11
25.9929722756
 21
61.0930331976
  0
LINE
  5
36A
100
AcDbEntity
  8
RACCORDO
100
AcDbLine
 62
253
  6
CONTINUOUS
 10
25.5930331976
 20
61.4929722756
 11
-25.5962623223
 21
61.4929722756
  0
LINE
  5
36B
100
AcDbEntity
  8
RACCORDO
100
AcDbLine
 62
253
  6
CONTINUOUS
 10
25.5930331976
 20
61.7929265842
 11
-25.5930331976
 21
61.7929265842
  0
LINE
  5
36C
100
AcDbEntity
  8
RACCORDO
100
AcDbLine
 62
7
  6
CONTINUOUS
 10
25.6001066134
 20
61.8
 11
-25.6001066134
 21
61.8
  0
LINE
  5
36D
100
AcDbEntity
  8
RACCORDO
100
AcDbLine
 62
253
  6
CONTINUOUS
 10
25.5930331976
 20
-80.2070734158
 11
25.6001066134
 21
-80.2
  0
LINE
  5
36E
100
AcDbEntity
  8
RACCORDO
100
AcDbLine
 62
253
  6
CONTINUOUS
 10
-26.2929265842
 20
-132.0930331976
 11
-26.3
 21
-132.1001066134
  0
LINE
  5
36F
100
AcDbEntity
  8
RACCORDO
100
AcDbLine
 62
253
  6
CONTINUOUS
 10
-22.5985397344
 20
-128.7985854258
 11
-22.5912724675
 21
-128.791318159
  0
LINE
  5
370
100
AcDbEntity
  8
RACCORDO
100
AcDbLine
 62
253
  6
CONTINUOUS
 10
22.2985854258
 20
-83.9014602656
 11
22.291318159
 21
-83.9087275325
  0
LINE
  5
371
100
AcDbEntity
  8
RACCORDO
100
AcDbLine
 62
253
  6
CONTINUOUS
 10
22.8650067667
 20
-83.3530961265
 11
22.345273255
 21
-83.8728189596
  0
LINE
  5
372
100
AcDbEntity
  8
RACCORDO
100
AcDbLine
 62
253
  6
CONTINUOUS
 10
-23.1469038735
 20
-129.3649948583
 11
-22.6271795873
 21
-128.8453051847
  0
LINE
  5
373
100
AcDbEntity
  8
RACCORDO
100
AcDbLine
 62
253
  6
CONTINUOUS
 10
-22.8650067667
 20
-129.6469038735
 11
-22.345273255
 21
-129.1271810404
  0
LINE
  5
374
100
AcDbEntity
  8
RACCORDO
100
AcDbLine
 62
253
  6
CONTINUOUS
 10
23.1469038735
 20
-83.6350051417
 11
22.6271795873
 21
-84.1546948153
  0
LINE
  5
375
100
AcDbEntity
  8
RACCORDO
100
AcDbLine
 62
253
  6
CONTINUOUS
 10
-22.2985854258
 20
-129.0985397344
 11
-22.291318159
 21
-129.0912724675
  0
LINE
  5
376
100
AcDbEntity
  8
RACCORDO
100
AcDbLine
 62
253
  6
CONTINUOUS
 10
22.5985397344
 20
-84.2014145742
 11
22.5912724675
 21
-84.208681841
  0
LINE
  5
377
100
AcDbEntity
  8
RACCORDO
100
AcDbLine
 62
253
  6
CONTINUOUS
 10
26.2929265842
 20
-80.9069668024
 11
26.3
 21
-80.8998933866
  0
LINE
  5
378
100
AcDbEntity
  8
RACCORDO
100
AcDbLine
 62
253
  6
CONTINUOUS
 10
-25.5930331976
 20
-132.7929265842
 11
-25.6001066134
 21
-132.8
  0
LINE
  5
379
100
AcDbEntity
  8
RACCORDO
100
AcDbLine
 62
253
  6
CONTINUOUS
 10
25.5930331976
 20
80.2070734158
 11
25.6001066134
 21
80.2
  0
LINE
  5
37A
100
AcDbEntity
  8
RACCORDO
100
AcDbLine
 62
253
  6
CONTINUOUS
 10
-26.2929265842
 20
132.0930331976
 11
-26.3
 21
132.1001066134
  0
LINE
  5
37B
100
AcDbEntity
  8
RACCORDO
100
AcDbLine
 62
253
  6
CONTINUOUS
 10
22.2985854258
 20
83.9014602656
 11
22.291318159
 21
83.9087275325
  0
LINE
  5
37C
100
AcDbEntity
  8
RACCORDO
100
AcDbLine
 62
253
  6
CONTINUOUS
 10
-22.5912724675
 20
128.791318159
 11
-22.5985397344
 21
128.7985854258
  0
LINE
  5
37D
100
AcDbEntity
  8
RACCORDO
100
AcDbLine
 62
253
  6
CONTINUOUS
 10
22.8649948583
 20
83.3530961265
 11
22.3453051847
 21
83.8728204127
  0
LINE
  5
37E
100
AcDbEntity
  8
RACCORDO
100
AcDbLine
 62
253
  6
CONTINUOUS
 10
-22.6271795883
 20
128.8453052934
 11
-23.1469038735
 21
129.3649947412
  0
LINE
  5
37F
100
AcDbEntity
  8
RACCORDO
100
AcDbLine
 62
253
  6
CONTINUOUS
 10
23.1469038735
 20
83.6349932333
 11
22.6271810404
 21
84.154726745
  0
LINE
  5
380
100
AcDbEntity
  8
RACCORDO
100
AcDbLine
 62
253
  6
CONTINUOUS
 10
-22.345273254
 20
129.1271810405
 11
-22.8650068917
 21
129.6469038735
  0
LINE
  5
381
100
AcDbEntity
  8
RACCORDO
100
AcDbLine
 62
253
  6
CONTINUOUS
 10
22.5985397344
 20
84.2014145742
 11
22.5912724675
 21
84.208681841
  0
LINE
  5
382
100
AcDbEntity
  8
RACCORDO
100
AcDbLine
 62
253
  6
CONTINUOUS
 10
-22.291318159
 20
129.0912724675
 11
-22.2985854258
 21
129.0985397344
  0
LINE
  5
383
100
AcDbEntity
  8
RACCORDO
100
AcDbLine
 62
253
  6
CONTINUOUS
 10
26.2929265842
 20
80.9069668024
 11
26.3
 21
80.8998933866
  0
LINE
  5
384
100
AcDbEntity
  8
RACCORDO
100
AcDbLine
 62
253
  6
CONTINUOUS
 10
-25.5930331976
 20
132.7929265842
 11
-25.6001066134
 21
132.8
  0
LWPOLYLINE
  5
385
100
AcDbEntity
  8
0
100
AcDbPolyline
 62
7
  6
CONTINUOUS
 90
10
 70
0
 43
0.3500000006
 10
0.8571428254
 20
163.4499951782
 10
0.9285714591
 20
163.3071509399
 10
0.9285714591
 20
163.2357106934
 10
0.7857142625
 20
163.0928483276
 10
0.7142856996
 20
163.0928483276
 10
0.6428571367
 20
163.1642885742
 10
0.6428571367
 20
163.2357106934
 10
0.7142856996
 20
163.3785730591
 10
0.7857142625
 20
163.4499951782
 10
0.8571428254
 20
163.4499951782
  0
LINE
  5
386
100
AcDbEntity
  8
RACCORDO
100
AcDbLine
 62
7
  6
CONTINUOUS
 10
-25.6001066134
 20
80.2
 11
25.6001066134
 21
80.2
  0
LINE
  5
387
100
AcDbEntity
  8
RACCORDO
100
AcDbLine
 62
253
  6
CONTINUOUS
 10
-25.5930331976
 20
80.2070734158
 11
25.5930331976
 21
80.2070734158
  0
LINE
  5
388
100
AcDbEntity
  8
RACCORDO
100
AcDbLine
 62
253
  6
CONTINUOUS
 10
-25.5930331976
 20
80.5070277244
 11
25.5962623332
 21
80.5070277244
  0
LINE
  5
389
100
AcDbEntity
  8
RACCORDO
100
AcDbLine
 62
253
  6
CONTINUOUS
 10
-26.2929265842
 20
80.9069668044
 11
-25.9929722756
 21
80.9069668024
  0
LINE
  5
38A
100
AcDbEntity
  8
RACCORDO
100
AcDbLine
 62
253
  6
CONTINUOUS
 10
26.2929265842
 20
80.9069668038
 11
25.9929722756
 21
80.9069668024
  0
LINE
  5
38B
100
AcDbEntity
  8
RACCORDO
100
AcDbLine
 62
253
  6
CONTINUOUS
 10
22.8649960872
 20
83.0711883403
 11
-22.8649960872
 21
83.0711883403
  0
LINE
  5
38C
100
AcDbEntity
  8
RACCORDO
100
AcDbLine
 62
253
  6
CONTINUOUS
 10
22.8649948583
 20
83.3530961265
 11
-22.8650067667
 21
83.3530961265
  0
LINE
  5
38D
100
AcDbEntity
  8
RACCORDO
100
AcDbLine
 62
253
  6
CONTINUOUS
 10
-23.4288116597
 20
83.6350039128
 11
-23.1469038735
 21
83.6350039128
  0
LINE
  5
38E
100
AcDbEntity
  8
RACCORDO
100
AcDbLine
 62
253
  6
CONTINUOUS
 10
23.4288116597
 20
83.6350039128
 11
23.1469038735
 21
83.6350039127
  0
LINE
  5
38F
100
AcDbEntity
  8
RACCORDO
100
AcDbLine
 62
253
  6
CONTINUOUS
 10
-22.2985854258
 20
83.8713827284
 11
22.2985854258
 21
83.8713827284
  0
LINE
  5
390
100
AcDbEntity
  8
RACCORDO
100
AcDbLine
 62
253
  6
CONTINUOUS
 10
-22.2985854258
 20
83.9014602656
 11
22.2985854258
 21
83.9014602656
  0
LINE
  5
391
100
AcDbEntity
  8
RACCORDO
100
AcDbLine
 62
7
  6
CONTINUOUS
 10
22.291318159
 20
83.9087275325
 11
-22.291318159
 21
83.9087275325
  0
LINE
  5
392
100
AcDbEntity
  8
RACCORDO
100
AcDbLine
 62
253
  6
CONTINUOUS
 10
22.5985397344
 20
84.2014145742
 11
22.6286172716
 21
84.2014145742
  0
LINE
  5
393
100
AcDbEntity
  8
RACCORDO
100
AcDbLine
 62
253
  6
CONTINUOUS
 10
-22.5985397344
 20
84.2014145742
 11
-22.6286172712
 21
84.2014145769
  0
LINE
  5
394
100
AcDbEntity
  8
RACCORDO
100
AcDbLine
 62
253
  6
CONTINUOUS
 10
22.5985397344
 20
128.7985854258
 11
22.6286172712
 21
128.7985854231
  0
LINE
  5
395
100
AcDbEntity
  8
RACCORDO
100
AcDbLine
 62
253
  6
CONTINUOUS
 10
-22.5985397344
 20
128.7985854258
 11
-22.6286172716
 21
128.7985854258
  0
LINE
  5
396
100
AcDbEntity
  8
RACCORDO
100
AcDbLine
 62
7
  6
CONTINUOUS
 10
-22.291318159
 20
129.0912724675
 11
22.291318159
 21
129.0912724675
  0
LINE
  5
397
100
AcDbEntity
  8
RACCORDO
100
AcDbLine
 62
253
  6
CONTINUOUS
 10
22.2985854258
 20
129.0985397344
 11
-22.2985854258
 21
129.0985397344
  0
LINE
  5
398
100
AcDbEntity
  8
RACCORDO
100
AcDbLine
 62
253
  6
CONTINUOUS
 10
22.2985854258
 20
129.1286172716
 11
-22.2985854258
 21
129.1286172716
  0
LINE
  5
399
100
AcDbEntity
  8
RACCORDO
100
AcDbLine
 62
253
  6
CONTINUOUS
 10
-23.4288116597
 20
129.3649960872
 11
-23.1469038735
 21
129.3649960872
  0
LINE
  5
39A
100
AcDbEntity
  8
RACCORDO
100
AcDbLine
 62
253
  6
CONTINUOUS
 10
23.4288116597
 20
129.3649960872
 11
23.1469038735
 21
129.3649960872
  0
LINE
  5
39B
100
AcDbEntity
  8
RACCORDO
100
AcDbLine
 62
253
  6
CONTINUOUS
 10
-22.8650068917
 20
129.6469038735
 11
22.8650067667
 21
129.6469038735
  0
LINE
  5
39C
100
AcDbEntity
  8
RACCORDO
100
AcDbLine
 62
253
  6
CONTINUOUS
 10
-22.8649960872
 20
129.9288116597
 11
22.8649960872
 21
129.9288116597
  0
LINE
  5
39D
100
AcDbEntity
  8
RACCORDO
100
AcDbLine
 62
253
  6
CONTINUOUS
 10
-26.2929265842
 20
132.0930331962
 11
-25.9929722756
 21
132.0930331976
  0
LINE
  5
39E
100
AcDbEntity
  8
RACCORDO
100
AcDbLine
 62
253
  6
CONTINUOUS
 10
26.2929265842
 20
132.0930331956
 11
25.9929722756
 21
132.0930331976
  0
LINE
  5
39F
100
AcDbEntity
  8
RACCORDO
100
AcDbLine
 62
253
  6
CONTINUOUS
 10
25.5930331976
 20
132.4929722756
 11
-25.5962623223
 21
132.4929722756
  0
LINE
  5
3A0
100
AcDbEntity
  8
RACCORDO
100
AcDbLine
 62
253
  6
CONTINUOUS
 10
25.5930331976
 20
132.7929265842
 11
-25.5930331976
 21
132.7929265842
  0
LINE
  5
3A1
100
AcDbEntity
  8
RACCORDO
100
AcDbLine
 62
7
  6
CONTINUOUS
 10
25.6001066134
 20
132.8
 11
-25.6001066134
 21
132.8
  0
LINE
  5
3A2
100
AcDbEntity
  8
SMUSSO
100
AcDbLine
 62
7
  6
CONTINUOUS
 10
46.7
 20
153.2
 11
-46.7
 21
153.2
  0
LINE
  5
3A3
100
AcDbEntity
  8
SMUSSO
100
AcDbLine
 62
253
  6
CONTINUOUS
 10
46.7
 20
153.2
 11
47.7
 21
153.2
  0
LINE
  5
3A4
100
AcDbEntity
  8
SMUSSO
100
AcDbLine
 62
253
  6
CONTINUOUS
 10
-46.7
 20
153.2
 11
-47.7
 21
153.2
  0
LINE
  5
3A5
100
AcDbEntity
  8
SMUSSO
100
AcDbLine
 62
7
  6
CONTINUOUS
 10
46.7
 20
154.2
 11
-46.7
 21
154.2
  0
LWPOLYLINE
  5
3A6
100
AcDbEntity
  8
0
100
AcDbPolyline
 62
7
  6
CONTINUOUS
 90
8
 70
0
 43
0.3500000006
 10
-1.9285714102
 20
162.9500040894
 10
-1.0714285848
 20
162.9500040894
 10
-0.6428571367
 20
163.3785730591
 10
-0.6428571367
 20
164.2357109985
 10
-1.0714285848
 20
164.6642799683
 10
-1.9285714102
 20
164.6642799683
 10
-1.9285714102
 20
165.9500050049
 10
-0.6428571367
 20
165.9500050049
  0
LWPOLYLINE
  5
3A7
100
AcDbEntity
  8
0
100
AcDbPolyline
 62
7
  6
CONTINUOUS
 90
3
 70
0
 43
0.3500000006
 10
3.4285713015
 20
163.5928575439
 10
1.9285714102
 20
163.5928575439
 10
2.5714285469
 20
165.9500050049
  0
LINE
  5
3A8
100
AcDbEntity
  8
DRAFT
100
AcDbLine
 62
7
  6
CONTINUOUS
 10
100.6083599894
 20
-154.1082518813
 11
98.2166118707
 21
-154.15
  0
LINE
  5
3A9
100
AcDbEntity
  8
PIANI
100
AcDbLine
 62
7
  6
CONTINUOUS
 10
104.1630404421
 20
-158.7635820007
 11
98.5916118707
 21
-158.7635820007
  0
LINE
  5
3AA
100
AcDbEntity
  8
PIANI
100
AcDbLine
 62
7
  6
CONTINUOUS
 10
101.2166118707
 20
-155.7635820007
 11
98.5916118707
 21
-155.7635820007
  0
LINE
  5
3AB
100
AcDbEntity
  8
RACCORDO
100
AcDbLine
 62
7
  6
CONTINUOUS
 10
104.1166118707
 20
-154.2
 11
101.6166118707
 21
-154.2
  0
LINE
  5
3AC
100
AcDbEntity
  8
SMUSSO
100
AcDbLine
 62
7
  6
CONTINUOUS
 10
104.1166118707
 20
-154.2
 11
101.6166118707
 21
-154.2
  0
LINE
  5
3AD
100
AcDbEntity
  8
SMUSSO
100
AcDbLine
 62
253
  6
CONTINUOUS
 10
101.1166118707
 20
-153.2
 11
105.1166118707
 21
-153.2
  0
LINE
  5
3AE
100
AcDbEntity
  8
PIANI
100
AcDbLine
 62
7
  6
CONTINUOUS
 10
98.5916118707
 20
-152.7635820007
 11
104.1630404421
 21
-152.7635820007
  0
LINE
  5
3AF
100
AcDbEntity
  8
DRAFT
100
AcDbLine
 62
253
  6
CONTINUOUS
 10
97.2166118707
 20
-152.65
 11
101.0666118707
 21
-152.65
  0
LINE
  5
3B0
100
AcDbEntity
  8
RACCORDO
100
AcDbLine
 62
7
  6
CONTINUOUS
 10
105.5218475926
 20
-132.7929265842
 11
105.1166118707
 21
-132.8
  0
LINE
  5
3B1
100
AcDbEntity
  8
DRAFT
100
AcDbLine
 62
7
  6
CONTINUOUS
 10
101.0666118707
 20
-132.3473817403
 11
101.1166118707
 21
-132.346508987
  0
LINE
  5
3B2
100
AcDbEntity
  8
0
100
AcDbLine
 62
253
  6
CONTINUOUS
 10
96.0943830604
 20
-133.4277711897
 11
97.2166118707
 21
-133.4282781284
  0
LINE
  5
3B3
100
AcDbEntity
  8
0
100
AcDbLine
 62
7
  6
CONTINUOUS
 10
97.2166118707
 20
-133.6524434634
 11
96.316001084
 21
-133.6508715995
  0
LINE
  5
3B4
100
AcDbEntity
  8
0
100
AcDbLine
 62
7
  6
CONTINUOUS
 10
95.8166118707
 20
-132.85
 11
97.2166118707
 21
-132.8581449617
  0
LWPOLYLINE
  5
3B5
100
AcDbEntity
  8
0
100
AcDbPolyline
 62
7
  6
CONTINUOUS
 90
3
 70
0
 43
0.3500000006
 10
98.780896637
 20
175.0928519897
 10
99.6380436401
 20
175.9500080566
 10
99.6380436401
 20
172.9500071411
  0
LINE
  5
3B6
100
AcDbEntity
  8
0
100
AcDbLine
 62
7
  6
CONTINUOUS
 10
96.0061446794
 20
-132.2916264167
 11
97.2166118707
 21
-132.2381478244
  0
LINE
  5
3B7
100
AcDbEntity
  8
RACCORDO
100
AcDbLine
 62
7
  6
CONTINUOUS
 10
101.0666118707
 20
-132.1973817403
 11
101.1166118707
 21
-132.196508987
  0
LINE
  5
3B8
100
AcDbEntity
  8
RACCORDO
100
AcDbLine
 62
253
  6
CONTINUOUS
 10
105.5218475926
 20
-132.0930331976
 11
105.1166118707
 21
-132.1001066134
  0
LINE
  5
3B9
100
AcDbEntity
  8
RACCORDO
100
AcDbLine
 62
253
  6
CONTINUOUS
 10
101.0666118707
 20
-130.8975797366
 11
101.1166118707
 21
-130.8967069833
  0
LINE
  5
3BA
100
AcDbEntity
  8
RACCORDO
100
AcDbLine
 62
253
  6
CONTINUOUS
 10
105.5218475926
 20
-132.0930331956
 11
105.8166118707
 21
-132.0930331976
  0
LINE
  5
3BB
100
AcDbEntity
  8
0
100
AcDbLine
 62
7
  6
CONTINUOUS
 10
96.0166118707
 20
-131.7
 11
97.2166118707
 21
-131.7
  0
LINE
  5
3BC
100
AcDbEntity
  8
0
100
AcDbLine
 62
7
  6
CONTINUOUS
 10
97.2166118707
 20
-131.55
 11
97.1916118707
 21
-131.55
  0
LINE
  5
3BD
100
AcDbEntity
  8
0
100
AcDbLine
 62
7
  6
CONTINUOUS
 10
96.8416118707
 20
-131.55
 11
96.6916118707
 21
-131.55
  0
LINE
  5
3BE
100
AcDbEntity
  8
0
100
AcDbLine
 62
7
  6
CONTINUOUS
 10
96.3416118707
 20
-131.55
 11
96.1916118707
 21
-131.55
  0
LINE
  5
3BF
100
AcDbEntity
  8
RACCORDO
100
AcDbLine
 62
7
  6
CONTINUOUS
 10
101.0666118707
 20
-129.2
 11
101.1166118707
 21
-129.2
  0
LINE
  5
3C0
100
AcDbEntity
  8
RACCORDO
100
AcDbLine
 62
7
  6
CONTINUOUS
 10
101.1166118707
 20
-128.2
 11
101.0666118707
 21
-128.2
  0
LINE
  5
3C1
100
AcDbEntity
  8
0
100
AcDbLine
 62
7
  6
CONTINUOUS
 10
96.0943830604
 20
-119.7902460313
 11
95.8166118707
 21
-119.8641726926
  0
LINE
  5
3C2
100
AcDbEntity
  8
0
100
AcDbLine
 62
7
  6
CONTINUOUS
 10
96.0061446794
 20
-114.7400670064
 11
97.2166118707
 21
-114.676629109
  0
LINE
  5
3C3
100
AcDbEntity
  8
0
100
AcDbLine
 62
7
  6
CONTINUOUS
 10
95.8166118707
 20
-115.3
 11
97.2166118707
 21
-115.2966262464
  0
LINE
  5
3C4
100
AcDbEntity
  8
0
100
AcDbLine
 62
253
  6
CONTINUOUS
 10
96.0943830604
 20
-119.2097539687
 11
97.2166118707
 21
-119.2078620477
  0
LINE
  5
3C5
100
AcDbEntity
  8
0
100
AcDbLine
 62
7
  6
CONTINUOUS
 10
95.8166118707
 20
-118.9830127019
 11
97.2166118707
 21
-118.980830266
  0
LINE
  5
3C6
100
AcDbEntity
  8
0
100
AcDbLine
 62
7
  6
CONTINUOUS
 10
95.8166118707
 20
-118.55
 11
97.2166118707
 21
-118.5478175641
  0
LINE
  5
3C7
100
AcDbEntity
  8
0
100
AcDbLine
 62
253
  6
CONTINUOUS
 10
96.0943830604
 20
-115.7097539687
 11
97.2166118707
 21
-115.7078620477
  0
LINE
  5
3C8
100
AcDbEntity
  8
0
100
AcDbLine
 62
7
  6
CONTINUOUS
 10
95.8166118707
 20
-119.0554425497
 11
97.2166118707
 21
-119.0550953261
  0
LINE
  5
3C9
100
AcDbEntity
  8
0
100
AcDbLine
 62
7
  6
CONTINUOUS
 10
95.8166118707
 20
-115.5554425497
 11
97.2166118707
 21
-115.5550953261
  0
LINE
  5
3CA
100
AcDbEntity
  8
RACCORDO
100
AcDbLine
 62
7
  6
CONTINUOUS
 10
101.1166118707
 20
-121.2
 11
101.0666118707
 21
-121.2
  0
LINE
  5
3CB
100
AcDbEntity
  8
RACCORDO
100
AcDbLine
 62
7
  6
CONTINUOUS
 10
101.0666118707
 20
-114.3
 11
101.1166118707
 21
-114.3
  0
LINE
  5
3CC
100
AcDbEntity
  8
0
100
AcDbLine
 62
7
  6
CONTINUOUS
 10
95.8166118707
 20
-119.9445574503
 11
97.2166118707
 21
-119.9449046739
  0
LINE
  5
3CD
100
AcDbEntity
  8
0
100
AcDbLine
 62
7
  6
CONTINUOUS
 10
95.8166118707
 20
-116.4445574503
 11
97.2166118707
 21
-116.4449046739
  0
LINE
  5
3CE
100
AcDbEntity
  8
0
100
AcDbLine
 62
7
  6
CONTINUOUS
 10
95.8166118707
 20
-116.95
 11
97.2166118707
 21
-116.9521824359
  0
LINE
  5
3CF
100
AcDbEntity
  8
0
100
AcDbLine
 62
7
  6
CONTINUOUS
 10
95.8166118707
 20
-116.5169872981
 11
97.2166118707
 21
-116.519169734
  0
LINE
  5
3D0
100
AcDbEntity
  8
0
100
AcDbLine
 62
253
  6
CONTINUOUS
 10
96.0943830604
 20
-119.7902460313
 11
97.2166118707
 21
-119.7921379523
  0
LINE
  5
3D1
100
AcDbEntity
  8
0
100
AcDbLine
 62
253
  6
CONTINUOUS
 10
96.0943830604
 20
-116.2902460313
 11
97.2166118707
 21
-116.2921379523
  0
LINE
  5
3D2
100
AcDbEntity
  8
0
100
AcDbLine
 62
7
  6
CONTINUOUS
 10
95.8166118707
 20
-120.2
 11
97.2166118707
 21
-120.2033737536
  0
LINE
  5
3D3
100
AcDbEntity
  8
0
100
AcDbLine
 62
7
  6
CONTINUOUS
 10
96.0061446794
 20
-120.7599329936
 11
97.2166118707
 21
-120.823370891
  0
LINE
  5
3D4
100
AcDbEntity
  8
0
100
AcDbLine
 62
7
  6
CONTINUOUS
 10
96.0943830604
 20
-119.2097539687
 11
95.8166118707
 21
-119.1358273074
  0
LINE
  5
3D5
100
AcDbEntity
  8
0
100
AcDbLine
 62
7
  6
CONTINUOUS
 10
96.0943830604
 20
-115.7097539687
 11
95.8166118707
 21
-115.6358273074
  0
LINE
  5
3D6
100
AcDbEntity
  8
DRAFT
100
AcDbLine
 62
7
  6
CONTINUOUS
 10
97.2166118707
 20
153.15
 11
98.2166118707
 21
154.15
  0
LWPOLYLINE
  5
3D7
100
AcDbEntity
  8
0
100
AcDbPolyline
 62
7
  6
CONTINUOUS
 90
10
 70
0
 43
0.3500000006
 10
112.3992366943
 20
165.9500050049
 10
111.756374176
 20
165.3071515503
 10
111.3278052063
 20
164.4499954834
 10
111.3278052063
 20
163.3785730591
 10
111.756374176
 20
162.9500040894
 10
112.3992366943
 20
162.9500040894
 10
112.8278056641
 20
163.3785730591
 10
112.8278056641
 20
164.2357109985
 10
112.3992366943
 20
164.6642799683
 10
111.4706585083
 20
164.6642799683
  0
LINE
  5
3D8
100
AcDbEntity
  8
SMUSSO
100
AcDbLine
 62
7
  6
CONTINUOUS
 10
101.1166118707
 20
153.7
 11
101.6166118707
 21
154.2
  0
LINE
  5
3D9
100
AcDbEntity
  8
0
100
AcDbLine
 62
7
  6
CONTINUOUS
 10
96.0943830604
 20
-116.2902460313
 11
95.8166118707
 21
-116.3641726926
  0
LINE
  5
3DA
100
AcDbEntity
  8
SMUSSO
100
AcDbLine
 62
7
  6
CONTINUOUS
 10
97.2166118707
 20
-153.15
 11
98.2166118707
 21
-154.15
  0
LINE
  5
3DB
100
AcDbEntity
  8
DRAFT
100
AcDbLine
 62
7
  6
CONTINUOUS
 10
97.2166118707
 20
-153.15
 11
98.2166118707
 21
-154.15
  0
LINE
  5
3DC
100
AcDbEntity
  8
SMUSSO
100
AcDbLine
 62
7
  6
CONTINUOUS
 10
101.1166118707
 20
-153.7
 11
101.6166118707
 21
-154.2
  0
LINE
  5
3DD
100
AcDbEntity
  8
ASSI
100
AcDbLine
 62
7
  6
CONTINUOUS
 10
95.8166118707
 20
133.15
 11
96.3174310039
 21
133.6508191332
  0
LINE
  5
3DE
100
AcDbEntity
  8
ASSI
100
AcDbLine
 62
7
  6
CONTINUOUS
 10
96.4916118707
 20
131.7
 11
96.3416118707
 21
131.55
  0
LINE
  5
3DF
100
AcDbEntity
  8
ASSI
100
AcDbLine
 62
7
  6
CONTINUOUS
 10
96.9916118707
 20
131.7
 11
96.8416118707
 21
131.55
  0
LINE
  5
3E0
100
AcDbEntity
  8
0
100
AcDbLine
 62
7
  6
CONTINUOUS
 10
96.0943830604
 20
-97.2902460313
 11
95.8166118707
 21
-97.3641726926
  0
LINE
  5
3E1
100
AcDbEntity
  8
0
100
AcDbLine
 62
7
  6
CONTINUOUS
 10
96.0061446794
 20
-92.2400670064
 11
97.2166118707
 21
-92.176629109
  0
LINE
  5
3E2
100
AcDbEntity
  8
0
100
AcDbLine
 62
7
  6
CONTINUOUS
 10
95.8166118707
 20
-92.8
 11
97.2166118707
 21
-92.7966262464
  0
LINE
  5
3E3
100
AcDbEntity
  8
0
100
AcDbLine
 62
253
  6
CONTINUOUS
 10
96.0943830604
 20
-96.7097539687
 11
97.2166118707
 21
-96.7078620477
  0
LINE
  5
3E4
100
AcDbEntity
  8
0
100
AcDbLine
 62
7
  6
CONTINUOUS
 10
95.8166118707
 20
-96.4830127019
 11
97.2166118707
 21
-96.480830266
  0
LINE
  5
3E5
100
AcDbEntity
  8
0
100
AcDbLine
 62
7
  6
CONTINUOUS
 10
95.8166118707
 20
-96.05
 11
97.2166118707
 21
-96.0478175641
  0
LINE
  5
3E6
100
AcDbEntity
  8
0
100
AcDbLine
 62
253
  6
CONTINUOUS
 10
96.0943830604
 20
-93.2097539687
 11
97.2166118707
 21
-93.2078620477
  0
LINE
  5
3E7
100
AcDbEntity
  8
0
100
AcDbLine
 62
7
  6
CONTINUOUS
 10
95.8166118707
 20
-96.5554425497
 11
97.2166118707
 21
-96.5550953261
  0
LINE
  5
3E8
100
AcDbEntity
  8
0
100
AcDbLine
 62
7
  6
CONTINUOUS
 10
95.8166118707
 20
-93.0554425497
 11
97.2166118707
 21
-93.0550953261
  0
LINE
  5
3E9
100
AcDbEntity
  8
RACCORDO
100
AcDbLine
 62
7
  6
CONTINUOUS
 10
101.0666118707
 20
-98.7
 11
101.1166118707
 21
-98.7
  0
LINE
  5
3EA
100
AcDbEntity
  8
RACCORDO
100
AcDbLine
 62
7
  6
CONTINUOUS
 10
101.1166118707
 20
-91.8
 11
101.0666118707
 21
-91.8
  0
LINE
  5
3EB
100
AcDbEntity
  8
0
100
AcDbLine
 62
7
  6
CONTINUOUS
 10
95.8166118707
 20
-97.4445574503
 11
97.2166118707
 21
-97.4449046739
  0
LINE
  5
3EC
100
AcDbEntity
  8
0
100
AcDbLine
 62
7
  6
CONTINUOUS
 10
95.8166118707
 20
-93.9445574503
 11
97.2166118707
 21
-93.9449046739
  0
LINE
  5
3ED
100
AcDbEntity
  8
0
100
AcDbLine
 62
7
  6
CONTINUOUS
 10
95.8166118707
 20
-94.45
 11
97.2166118707
 21
-94.4521824359
  0
LINE
  5
3EE
100
AcDbEntity
  8
0
100
AcDbLine
 62
7
  6
CONTINUOUS
 10
95.8166118707
 20
-94.0169872981
 11
97.2166118707
 21
-94.019169734
  0
LINE
  5
3EF
100
AcDbEntity
  8
0
100
AcDbLine
 62
253
  6
CONTINUOUS
 10
96.0943830604
 20
-97.2902460313
 11
97.2166118707
 21
-97.2921379523
  0
LINE
  5
3F0
100
AcDbEntity
  8
0
100
AcDbLine
 62
253
  6
CONTINUOUS
 10
96.0943830604
 20
-93.7902460313
 11
97.2166118707
 21
-93.7921379523
  0
LINE
  5
3F1
100
AcDbEntity
  8
0
100
AcDbLine
 62
7
  6
CONTINUOUS
 10
95.8166118707
 20
-97.7
 11
97.2166118707
 21
-97.7033737536
  0
LINE
  5
3F2
100
AcDbEntity
  8
0
100
AcDbLine
 62
7
  6
CONTINUOUS
 10
96.0061446794
 20
-98.2599329936
 11
97.2166118707
 21
-98.323370891
  0
LINE
  5
3F3
100
AcDbEntity
  8
0
100
AcDbLine
 62
7
  6
CONTINUOUS
 10
96.0943830604
 20
-96.7097539687
 11
95.8166118707
 21
-96.6358273074
  0
LINE
  5
3F4
100
AcDbEntity
  8
0
100
AcDbLine
 62
7
  6
CONTINUOUS
 10
96.0943830604
 20
-93.2097539687
 11
95.8166118707
 21
-93.1358273074
  0
LINE
  5
3F5
100
AcDbEntity
  8
0
100
AcDbLine
 62
7
  6
CONTINUOUS
 10
95.8166118707
 20
-133.15
 11
96.3174310039
 21
-133.6508191332
  0
LINE
  5
3F6
100
AcDbEntity
  8
0
100
AcDbLine
 62
7
  6
CONTINUOUS
 10
96.4916118707
 20
-131.7
 11
96.3416118707
 21
-131.55
  0
LINE
  5
3F7
100
AcDbEntity
  8
0
100
AcDbLine
 62
7
  6
CONTINUOUS
 10
96.9916118707
 20
-131.7
 11
96.8416118707
 21
-131.55
  0
LINE
  5
3F8
100
AcDbEntity
  8
0
100
AcDbLine
 62
7
  6
CONTINUOUS
 10
96.0943830604
 20
-93.7902460313
 11
95.8166118707
 21
-93.8641726926
  0
LINE
  5
3F9
100
AcDbEntity
  8
RACCORDO
100
AcDbLine
 62
7
  6
CONTINUOUS
 10
101.1166118707
 20
-84.8
 11
101.0666118707
 21
-84.8
  0
LINE
  5
3FA
100
AcDbEntity
  8
RACCORDO
100
AcDbLine
 62
7
  6
CONTINUOUS
 10
101.0666118707
 20
-83.8
 11
101.1166118707
 21
-83.8
  0
LINE
  5
3FB
100
AcDbEntity
  8
0
100
AcDbLine
 62
7
  6
CONTINUOUS
 10
95.8434067899
 20
-81.2
 11
97.2166118707
 21
-81.2
  0
LINE
  5
3FC
100
AcDbEntity
  8
RACCORDO
100
AcDbLine
 62
253
  6
CONTINUOUS
 10
105.5218475926
 20
-80.9069668038
 11
105.8166118707
 21
-80.9069668024
  0
LINE
  5
3FD
100
AcDbEntity
  8
RACCORDO
100
AcDbLine
 62
253
  6
CONTINUOUS
 10
101.0666118707
 20
-82.1024202634
 11
101.1166118707
 21
-82.1032930167
  0
LINE
  5
3FE
100
AcDbEntity
  8
0
100
AcDbLine
 62
7
  6
CONTINUOUS
 10
95.8166118707
 20
-80.15
 11
97.2166118707
 21
-80.1418550383
  0
LINE
  5
3FF
100
AcDbEntity
  8
0
100
AcDbLine
 62
7
  6
CONTINUOUS
 10
97.2166118707
 20
-79.3475565366
 11
96.316001084
 21
-79.3491284005
  0
LINE
  5
400
100
AcDbEntity
  8
0
100
AcDbLine
 62
253
  6
CONTINUOUS
 10
96.0943830604
 20
-79.5722288103
 11
97.2166118707
 21
-79.5717218716
  0
LINE
  5
401
100
AcDbEntity
  8
RACCORDO
100
AcDbLine
 62
253
  6
CONTINUOUS
 10
105.5218475926
 20
-80.9069668024
 11
105.1166118707
 21
-80.8998933866
  0
LINE
  5
402
100
AcDbEntity
  8
RACCORDO
100
AcDbLine
 62
7
  6
CONTINUOUS
 10
101.0666118707
 20
-80.8026182597
 11
101.1166118707
 21
-80.803491013
  0
LINE
  5
403
100
AcDbEntity
  8
RACCORDO
100
AcDbLine
 62
7
  6
CONTINUOUS
 10
105.5218475926
 20
-80.2070734158
 11
105.1166118707
 21
-80.2
  0
LINE
  5
404
100
AcDbEntity
  8
0
100
AcDbLine
 62
7
  6
CONTINUOUS
 10
96.0061446794
 20
-80.7083735833
 11
97.2166118707
 21
-80.7618521756
  0
LINE
  5
405
100
AcDbEntity
  8
0
100
AcDbLine
 62
7
  6
CONTINUOUS
 10
96.0061446794
 20
-61.2916264167
 11
97.2166118707
 21
-61.2381478244
  0
LINE
  5
406
100
AcDbEntity
  8
RACCORDO
100
AcDbLine
 62
7
  6
CONTINUOUS
 10
105.5218475926
 20
-61.7929265842
 11
105.1166118707
 21
-61.8
  0
LINE
  5
407
100
AcDbEntity
  8
RACCORDO
100
AcDbLine
 62
7
  6
CONTINUOUS
 10
101.1166118707
 20
-61.196508987
 11
101.0666118707
 21
-61.1973817403
  0
LINE
  5
408
100
AcDbEntity
  8
RACCORDO
100
AcDbLine
 62
253
  6
CONTINUOUS
 10
105.5218475926
 20
-61.0930331976
 11
105.1166118707
 21
-61.1001066134
  0
LINE
  5
409
100
AcDbEntity
  8
RACCORDO
100
AcDbLine
 62
253
  6
CONTINUOUS
 10
105.5218475926
 20
-61.0930331956
 11
105.8166118707
 21
-61.0930331976
  0
LINE
  5
40A
100
AcDbEntity
  8
0
100
AcDbLine
 62
7
  6
CONTINUOUS
 10
95.8434067899
 20
-60.8
 11
97.2166118707
 21
-60.8
  0
LINE
  5
40B
100
AcDbEntity
  8
0
100
AcDbLine
 62
253
  6
CONTINUOUS
 10
96.0943830604
 20
-62.4277711897
 11
97.2166118707
 21
-62.4282781284
  0
LINE
  5
40C
100
AcDbEntity
  8
0
100
AcDbLine
 62
7
  6
CONTINUOUS
 10
96.316001084
 20
-62.6508715995
 11
97.2166118707
 21
-62.6524434634
  0
LINE
  5
40D
100
AcDbEntity
  8
0
100
AcDbLine
 62
7
  6
CONTINUOUS
 10
95.8166118707
 20
-61.85
 11
97.2166118707
 21
-61.8581449617
  0
LINE
  5
40E
100
AcDbEntity
  8
RACCORDO
100
AcDbLine
 62
253
  6
CONTINUOUS
 10
101.1166118707
 20
-59.8967069833
 11
101.0666118707
 21
-59.8975797366
  0
LINE
  5
40F
100
AcDbEntity
  8
RACCORDO
100
AcDbLine
 62
7
  6
CONTINUOUS
 10
101.0666118707
 20
-58.2
 11
101.1166118707
 21
-58.2
  0
LINE
  5
410
100
AcDbEntity
  8
RACCORDO
100
AcDbLine
 62
7
  6
CONTINUOUS
 10
101.1166118707
 20
-57.2
 11
101.0666118707
 21
-57.2
  0
LINE
  5
411
100
AcDbEntity
  8
RACCORDO
100
AcDbLine
 62
7
  6
CONTINUOUS
 10
101.1166118707
 20
-50.2
 11
101.0666118707
 21
-50.2
  0
LWPOLYLINE
  5
412
100
AcDbEntity
  8
0
100
AcDbPolyline
 62
7
  6
CONTINUOUS
 90
3
 70
0
 43
0.3500000006
 10
110.3278049011
 20
163.2357106934
 10
110.2563737183
 20
163.0214262085
 10
110.1135204163
 20
162.7357196045
  0
LINE
  5
413
100
AcDbEntity
  8
0
100
AcDbLine
 62
7
  6
CONTINUOUS
 10
95.8166118707
 20
62.15
 11
96.3174310039
 21
62.6508191332
  0
LINE
  5
414
100
AcDbEntity
  8
0
100
AcDbLine
 62
7
  6
CONTINUOUS
 10
96.0943830604
 20
-48.7902460313
 11
95.8166118707
 21
-48.8641726926
  0
LINE
  5
415
100
AcDbEntity
  8
0
100
AcDbLine
 62
7
  6
CONTINUOUS
 10
96.0943830604
 20
-45.2902460313
 11
95.8166118707
 21
-45.3641726926
  0
LINE
  5
416
100
AcDbEntity
  8
0
100
AcDbLine
 62
7
  6
CONTINUOUS
 10
96.0061446794
 20
-43.7400670064
 11
97.2166118707
 21
-43.676629109
  0
LINE
  5
417
100
AcDbEntity
  8
0
100
AcDbLine
 62
7
  6
CONTINUOUS
 10
95.8166118707
 20
-44.3
 11
97.2166118707
 21
-44.2966262464
  0
LINE
  5
418
100
AcDbEntity
  8
0
100
AcDbLine
 62
253
  6
CONTINUOUS
 10
96.0943830604
 20
-48.2097539687
 11
97.2166118707
 21
-48.2078620477
  0
LINE
  5
419
100
AcDbEntity
  8
0
100
AcDbLine
 62
7
  6
CONTINUOUS
 10
95.8166118707
 20
-47.9830127019
 11
97.2166118707
 21
-47.980830266
  0
LINE
  5
41A
100
AcDbEntity
  8
0
100
AcDbLine
 62
7
  6
CONTINUOUS
 10
95.8166118707
 20
-47.55
 11
97.2166118707
 21
-47.5478175641
  0
LINE
  5
41B
100
AcDbEntity
  8
0
100
AcDbLine
 62
253
  6
CONTINUOUS
 10
96.0943830604
 20
-44.7097539687
 11
97.2166118707
 21
-44.7078620477
  0
LINE
  5
41C
100
AcDbEntity
  8
0
100
AcDbLine
 62
7
  6
CONTINUOUS
 10
95.8166118707
 20
-48.0554425497
 11
97.2166118707
 21
-48.0550953261
  0
LINE
  5
41D
100
AcDbEntity
  8
0
100
AcDbLine
 62
7
  6
CONTINUOUS
 10
95.8166118707
 20
-44.5554425497
 11
97.2166118707
 21
-44.5550953261
  0
LINE
  5
41E
100
AcDbEntity
  8
RACCORDO
100
AcDbLine
 62
7
  6
CONTINUOUS
 10
101.0666118707
 20
-43.3
 11
101.1166118707
 21
-43.3
  0
LINE
  5
41F
100
AcDbEntity
  8
0
100
AcDbLine
 62
7
  6
CONTINUOUS
 10
95.8166118707
 20
-48.9445574503
 11
97.2166118707
 21
-48.9449046739
  0
LINE
  5
420
100
AcDbEntity
  8
0
100
AcDbLine
 62
7
  6
CONTINUOUS
 10
95.8166118707
 20
-45.4445574503
 11
97.2166118707
 21
-45.4449046739
  0
LINE
  5
421
100
AcDbEntity
  8
0
100
AcDbLine
 62
7
  6
CONTINUOUS
 10
95.8166118707
 20
-45.95
 11
97.2166118707
 21
-45.9521824359
  0
LINE
  5
422
100
AcDbEntity
  8
0
100
AcDbLine
 62
7
  6
CONTINUOUS
 10
95.8166118707
 20
-45.5169872981
 11
97.2166118707
 21
-45.519169734
  0
LINE
  5
423
100
AcDbEntity
  8
0
100
AcDbLine
 62
253
  6
CONTINUOUS
 10
96.0943830604
 20
-48.7902460313
 11
97.2166118707
 21
-48.7921379523
  0
LINE
  5
424
100
AcDbEntity
  8
0
100
AcDbLine
 62
253
  6
CONTINUOUS
 10
96.0943830604
 20
-45.2902460313
 11
97.2166118707
 21
-45.2921379523
  0
LINE
  5
425
100
AcDbEntity
  8
0
100
AcDbLine
 62
7
  6
CONTINUOUS
 10
95.8166118707
 20
-49.2
 11
97.2166118707
 21
-49.2033737536
  0
LINE
  5
426
100
AcDbEntity
  8
0
100
AcDbLine
 62
7
  6
CONTINUOUS
 10
96.0061446794
 20
-49.7599329936
 11
97.2166118707
 21
-49.823370891
  0
LINE
  5
427
100
AcDbEntity
  8
0
100
AcDbLine
 62
7
  6
CONTINUOUS
 10
96.0943830604
 20
-48.2097539687
 11
95.8166118707
 21
-48.1358273074
  0
LINE
  5
428
100
AcDbEntity
  8
0
100
AcDbLine
 62
7
  6
CONTINUOUS
 10
96.0943830604
 20
-44.7097539687
 11
95.8166118707
 21
-44.6358273074
  0
LINE
  5
429
100
AcDbEntity
  8
0
100
AcDbLine
 62
7
  6
CONTINUOUS
 10
96.3174310039
 20
-62.6508191332
 11
95.8166118707
 21
-62.15
  0
LINE
  5
42A
100
AcDbEntity
  8
0
100
AcDbLine
 62
7
  6
CONTINUOUS
 10
96.0943830604
 20
-26.2902460313
 11
95.8166118707
 21
-26.3641726926
  0
LINE
  5
42B
100
AcDbEntity
  8
0
100
AcDbLine
 62
7
  6
CONTINUOUS
 10
96.0943830604
 20
-22.7902460313
 11
95.8166118707
 21
-22.8641726926
  0
LINE
  5
42C
100
AcDbEntity
  8
0
100
AcDbLine
 62
7
  6
CONTINUOUS
 10
96.0061446794
 20
-21.2400670064
 11
97.2166118707
 21
-21.176629109
  0
LINE
  5
42D
100
AcDbEntity
  8
0
100
AcDbLine
 62
7
  6
CONTINUOUS
 10
95.8166118707
 20
-21.8
 11
97.2166118707
 21
-21.7966262464
  0
LINE
  5
42E
100
AcDbEntity
  8
0
100
AcDbLine
 62
253
  6
CONTINUOUS
 10
96.0943830604
 20
-25.7097539687
 11
97.2166118707
 21
-25.7078620477
  0
LINE
  5
42F
100
AcDbEntity
  8
0
100
AcDbLine
 62
7
  6
CONTINUOUS
 10
95.8166118707
 20
-25.4830127019
 11
97.2166118707
 21
-25.480830266
  0
LINE
  5
430
100
AcDbEntity
  8
0
100
AcDbLine
 62
7
  6
CONTINUOUS
 10
95.8166118707
 20
-25.05
 11
97.2166118707
 21
-25.0478175641
  0
LINE
  5
431
100
AcDbEntity
  8
0
100
AcDbLine
 62
253
  6
CONTINUOUS
 10
96.0943830604
 20
-22.2097539687
 11
97.2166118707
 21
-22.2078620477
  0
LINE
  5
432
100
AcDbEntity
  8
0
100
AcDbLine
 62
7
  6
CONTINUOUS
 10
95.8166118707
 20
-25.5554425497
 11
97.2166118707
 21
-25.5550953261
  0
LINE
  5
433
100
AcDbEntity
  8
0
100
AcDbLine
 62
7
  6
CONTINUOUS
 10
95.8166118707
 20
-22.0554425497
 11
97.2166118707
 21
-22.0550953261
  0
LINE
  5
434
100
AcDbEntity
  8
RACCORDO
100
AcDbLine
 62
7
  6
CONTINUOUS
 10
101.0666118707
 20
-27.7
 11
101.1166118707
 21
-27.7
  0
LINE
  5
435
100
AcDbEntity
  8
RACCORDO
100
AcDbLine
 62
7
  6
CONTINUOUS
 10
101.1166118707
 20
-20.8
 11
101.0666118707
 21
-20.8
  0
LINE
  5
436
100
AcDbEntity
  8
0
100
AcDbLine
 62
7
  6
CONTINUOUS
 10
95.8166118707
 20
-26.4445574503
 11
97.2166118707
 21
-26.4449046739
  0
LINE
  5
437
100
AcDbEntity
  8
0
100
AcDbLine
 62
7
  6
CONTINUOUS
 10
95.8166118707
 20
-22.9445574503
 11
97.2166118707
 21
-22.9449046739
  0
LINE
  5
438
100
AcDbEntity
  8
0
100
AcDbLine
 62
7
  6
CONTINUOUS
 10
95.8166118707
 20
-23.45
 11
97.2166118707
 21
-23.4521824359
  0
LINE
  5
439
100
AcDbEntity
  8
0
100
AcDbLine
 62
7
  6
CONTINUOUS
 10
95.8166118707
 20
-23.0169872981
 11
97.2166118707
 21
-23.019169734
  0
LINE
  5
43A
100
AcDbEntity
  8
0
100
AcDbLine
 62
253
  6
CONTINUOUS
 10
96.0943830604
 20
-26.2902460313
 11
97.2166118707
 21
-26.2921379523
  0
LINE
  5
43B
100
AcDbEntity
  8
0
100
AcDbLine
 62
253
  6
CONTINUOUS
 10
96.0943830604
 20
-22.7902460313
 11
97.2166118707
 21
-22.7921379523
  0
LINE
  5
43C
100
AcDbEntity
  8
0
100
AcDbLine
 62
7
  6
CONTINUOUS
 10
95.8166118707
 20
-26.7
 11
97.2166118707
 21
-26.7033737536
  0
LINE
  5
43D
100
AcDbEntity
  8
0
100
AcDbLine
 62
7
  6
CONTINUOUS
 10
96.0061446794
 20
-27.2599329936
 11
97.2166118707
 21
-27.323370891
  0
LINE
  5
43E
100
AcDbEntity
  8
0
100
AcDbLine
 62
7
  6
CONTINUOUS
 10
96.0943830604
 20
-25.7097539687
 11
95.8166118707
 21
-25.6358273074
  0
LINE
  5
43F
100
AcDbEntity
  8
0
100
AcDbLine
 62
7
  6
CONTINUOUS
 10
96.0943830604
 20
-22.2097539687
 11
95.8166118707
 21
-22.1358273074
  0
LINE
  5
440
100
AcDbEntity
  8
0
100
AcDbLine
 62
7
  6
CONTINUOUS
 10
95.8166118707
 20
-9.15
 11
97.2166118707
 21
-9.1418550383
  0
LINE
  5
441
100
AcDbEntity
  8
RACCORDO
100
AcDbLine
 62
7
  6
CONTINUOUS
 10
101.1166118707
 20
-13.8
 11
101.0666118707
 21
-13.8
  0
LINE
  5
442
100
AcDbEntity
  8
RACCORDO
100
AcDbLine
 62
7
  6
CONTINUOUS
 10
101.0666118707
 20
-12.8
 11
101.1166118707
 21
-12.8
  0
LINE
  5
443
100
AcDbEntity
  8
0
100
AcDbLine
 62
7
  6
CONTINUOUS
 10
95.8434067899
 20
-10.2
 11
97.2166118707
 21
-10.2
  0
LINE
  5
444
100
AcDbEntity
  8
RACCORDO
100
AcDbLine
 62
253
  6
CONTINUOUS
 10
105.5218475926
 20
-9.9069668038
 11
105.8166118707
 21
-9.9069668024
  0
LINE
  5
445
100
AcDbEntity
  8
RACCORDO
100
AcDbLine
 62
253
  6
CONTINUOUS
 10
101.1166118707
 20
-11.1032930167
 11
101.0666118707
 21
-11.1024202634
  0
LINE
  5
446
100
AcDbEntity
  8
RACCORDO
100
AcDbLine
 62
253
  6
CONTINUOUS
 10
105.5218475926
 20
-9.9069668024
 11
105.1166118707
 21
-9.8998933866
  0
LINE
  5
447
100
AcDbEntity
  8
RACCORDO
100
AcDbLine
 62
7
  6
CONTINUOUS
 10
101.1166118707
 20
-9.803491013
 11
101.0666118707
 21
-9.8026182597
  0
LINE
  5
448
100
AcDbEntity
  8
RACCORDO
100
AcDbLine
 62
7
  6
CONTINUOUS
 10
105.5218475926
 20
-9.2070734158
 11
105.1166118707
 21
-9.2
  0
LINE
  5
449
100
AcDbEntity
  8
0
100
AcDbLine
 62
7
  6
CONTINUOUS
 10
96.0061446794
 20
-9.7083735833
 11
97.2166118707
 21
-9.7618521756
  0
LINE
  5
44A
100
AcDbEntity
  8
0
100
AcDbLine
 62
7
  6
CONTINUOUS
 10
95.8166118707
 20
-133.15
 11
95.8166118707
 21
-131.9
  0
LINE
  5
44B
100
AcDbEntity
  8
0
100
AcDbLine
 62
7
  6
CONTINUOUS
 10
95.8166118707
 20
-81.1
 11
95.8166118707
 21
-79.85
  0
LINE
  5
44C
100
AcDbEntity
  8
0
100
AcDbLine
 62
7
  6
CONTINUOUS
 10
95.8166118707
 20
-21.4397929133
 11
95.8166118707
 21
-27.0602070867
  0
LINE
  5
44D
100
AcDbEntity
  8
0
100
AcDbLine
 62
7
  6
CONTINUOUS
 10
95.8166118707
 20
-10.1
 11
95.8166118707
 21
-8.85
  0
LINE
  5
44E
100
AcDbEntity
  8
0
100
AcDbLine
 62
7
  6
CONTINUOUS
 10
95.8166118707
 20
-43.9397929133
 11
95.8166118707
 21
-49.5602070867
  0
LINE
  5
44F
100
AcDbEntity
  8
0
100
AcDbLine
 62
7
  6
CONTINUOUS
 10
95.8166118707
 20
8.85
 11
95.8166118707
 21
10.1
  0
LINE
  5
450
100
AcDbEntity
  8
0
100
AcDbLine
 62
7
  6
CONTINUOUS
 10
95.8166118707
 20
-60.9
 11
95.8166118707
 21
-62.15
  0
LINE
  5
451
100
AcDbEntity
  8
0
100
AcDbLine
 62
7
  6
CONTINUOUS
 10
95.8166118707
 20
21.4397929133
 11
95.8166118707
 21
27.0602070867
  0
LINE
  5
452
100
AcDbEntity
  8
0
100
AcDbLine
 62
7
  6
CONTINUOUS
 10
95.8166118707
 20
43.9397929133
 11
95.8166118707
 21
49.5602070867
  0
LINE
  5
453
100
AcDbEntity
  8
0
100
AcDbLine
 62
7
  6
CONTINUOUS
 10
95.8166118707
 20
-92.4397929133
 11
95.8166118707
 21
-98.0602070867
  0
LINE
  5
454
100
AcDbEntity
  8
0
100
AcDbLine
 62
7
  6
CONTINUOUS
 10
95.8166118707
 20
60.9
 11
95.8166118707
 21
62.15
  0
LINE
  5
455
100
AcDbEntity
  8
0
100
AcDbLine
 62
7
  6
CONTINUOUS
 10
95.8166118707
 20
-114.9397929133
 11
95.8166118707
 21
-120.5602070867
  0
LINE
  5
456
100
AcDbEntity
  8
ASSI
100
AcDbLine
 62
7
  6
CONTINUOUS
 10
95.8166118707
 20
79.85
 11
95.8166118707
 21
81.1
  0
LINE
  5
457
100
AcDbEntity
  8
0
100
AcDbLine
 62
7
  6
CONTINUOUS
 10
95.8166118707
 20
92.4397929133
 11
95.8166118707
 21
98.0602070867
  0
LINE
  5
458
100
AcDbEntity
  8
0
100
AcDbLine
 62
7
  6
CONTINUOUS
 10
95.8166118707
 20
114.9397929133
 11
95.8166118707
 21
120.5602070867
  0
LINE
  5
459
100
AcDbEntity
  8
ASSI
100
AcDbLine
 62
7
  6
CONTINUOUS
 10
95.8166118707
 20
131.9
 11
95.8166118707
 21
133.15
  0
LINE
  5
45A
100
AcDbEntity
  8
0
100
AcDbLine
 62
253
  6
CONTINUOUS
 10
96.0061446794
 20
-61.2916264167
 11
96.0061446794
 21
-60.8
  0
LINE
  5
45B
100
AcDbEntity
  8
0
100
AcDbLine
 62
253
  6
CONTINUOUS
 10
96.0061446794
 20
-10.2
 11
96.0061446794
 21
-9.7083735833
  0
LINE
  5
45C
100
AcDbEntity
  8
0
100
AcDbLine
 62
253
  6
CONTINUOUS
 10
96.0061446794
 20
9.7083735833
 11
96.0061446794
 21
10.2
  0
LINE
  5
45D
100
AcDbEntity
  8
0
100
AcDbLine
 62
253
  6
CONTINUOUS
 10
96.0061446794
 20
-80.7083735833
 11
96.0061446794
 21
-81.2
  0
LINE
  5
45E
100
AcDbEntity
  8
0
100
AcDbLine
 62
253
  6
CONTINUOUS
 10
96.0061446794
 20
60.8
 11
96.0061446794
 21
61.2916264167
  0
LINE
  5
45F
100
AcDbEntity
  8
0
100
AcDbLine
 62
253
  6
CONTINUOUS
 10
96.0061446794
 20
80.7083735833
 11
96.0061446794
 21
81.2
  0
LINE
  5
460
100
AcDbEntity
  8
0
100
AcDbLine
 62
253
  6
CONTINUOUS
 10
96.0061446794
 20
-131.700274093
 11
96.0061446794
 21
-132.2916264167
  0
LINE
  5
461
100
AcDbEntity
  8
ASSI
100
AcDbLine
 62
253
  6
CONTINUOUS
 10
96.0061446794
 20
131.700274093
 11
96.0061446794
 21
132.2916264167
  0
LINE
  5
462
100
AcDbEntity
  8
SMUSSO
100
AcDbLine
 62
7
  6
CONTINUOUS
 10
97.2166118707
 20
-153.15
 11
97.2166118707
 21
153.15
  0
LINE
  5
463
100
AcDbEntity
  8
PIANI
100
AcDbLine
 62
7
  6
CONTINUOUS
 10
98.2166118707
 20
155.7635820007
 11
98.2166118707
 21
-155.7635820007
  0
LINE
  5
464
100
AcDbEntity
  8
DRAFT
100
AcDbLine
 62
7
  6
CONTINUOUS
 10
98.2166118707
 20
-154.15
 11
98.2166118707
 21
154.15
  0
LINE
  5
465
100
AcDbEntity
  8
PIANI
100
AcDbLine
 62
7
  6
CONTINUOUS
 10
98.5916118707
 20
-158.7635820007
 11
98.5916118707
 21
-152.7635820007
  0
LWPOLYLINE
  5
466
100
AcDbEntity
  8
0
100
AcDbPolyline
 62
7
  6
CONTINUOUS
 90
13
 70
0
 43
0.3500000006
 10
100.4951815796
 20
173.8071450806
 10
100.4951815796
 20
175.0928519897
 10
100.7094660645
 20
175.5214209595
 10
101.1380440979
 20
175.9500080566
 10
101.3523285828
 20
175.9500080566
 10
101.7808975525
 20
175.5214209595
 10
101.9951820374
 20
175.0928519897
 10
101.9951820374
 20
173.8071450806
 10
101.7808975525
 20
173.3785761108
 10
101.3523285828
 20
172.9500071411
 10
101.1380440979
 20
172.9500071411
 10
100.7094660645
 20
173.3785761108
 10
100.4951815796
 20
173.8071450806
  0
LINE
  5
467
100
AcDbEntity
  8
DRAFT
100
AcDbLine
 62
7
  6
CONTINUOUS
 10
100.6083599894
 20
154.1082518813
 11
100.6083599894
 21
-154.1082518813
  0
LINE
  5
468
100
AcDbEntity
  8
SMUSSO
100
AcDbLine
 62
7
  6
CONTINUOUS
 10
101.0666118707
 20
153.65
 11
101.0666118707
 21
-153.65
  0
LINE
  5
469
100
AcDbEntity
  8
SMUSSO
100
AcDbLine
 62
7
  6
CONTINUOUS
 10
101.1166118707
 20
-153.7
 11
101.1166118707
 21
153.7
  0
LINE
  5
46A
100
AcDbEntity
  8
SMUSSO
100
AcDbLine
 62
7
  6
CONTINUOUS
 10
101.6166118707
 20
-154.2
 11
101.6166118707
 21
154.2
  0
LINE
  5
46B
100
AcDbEntity
  8
0
100
AcDbLine
 62
7
  6
CONTINUOUS
 10
96.316001084
 20
-8.3491284005
 11
97.2166118707
 21
-8.3475565366
  0
LINE
  5
46C
100
AcDbEntity
  8
0
100
AcDbLine
 62
253
  6
CONTINUOUS
 10
96.0943830604
 20
-8.5722288103
 11
97.2166118707
 21
-8.5717218716
  0
LINE
  5
46D
100
AcDbEntity
  8
SMUSSO
100
AcDbLine
 62
7
  6
CONTINUOUS
 10
104.1166118707
 20
154.2
 11
104.1166118707
 21
-154.2
  0
LINE
  5
46E
100
AcDbEntity
  8
PIANI
100
AcDbLine
 62
7
  6
CONTINUOUS
 10
104.1630404421
 20
-152.7635820007
 11
104.1630404421
 21
-158.7635820007
  0
LINE
  5
46F
100
AcDbEntity
  8
SMUSSO
100
AcDbLine
 62
7
  6
CONTINUOUS
 10
105.1166118707
 20
153.2
 11
105.1166118707
 21
-153.2
  0
LINE
  5
470
100
AcDbEntity
  8
RACCORDO
100
AcDbLine
 62
253
  6
CONTINUOUS
 10
105.5218475926
 20
132.0930331976
 11
105.5218475926
 21
80.9069668024
  0
LINE
  5
471
100
AcDbEntity
  8
RACCORDO
100
AcDbLine
 62
253
  6
CONTINUOUS
 10
105.5218475926
 20
61.0930331976
 11
105.5218475926
 21
9.9069668024
  0
LINE
  5
472
100
AcDbEntity
  8
RACCORDO
100
AcDbLine
 62
253
  6
CONTINUOUS
 10
105.5218475926
 20
-9.9069668024
 11
105.5218475926
 21
-61.0930331976
  0
LINE
  5
473
100
AcDbEntity
  8
RACCORDO
100
AcDbLine
 62
253
  6
CONTINUOUS
 10
105.5218475926
 20
-80.9069668024
 11
105.5218475926
 21
-132.0930331976
  0
LINE
  5
474
100
AcDbEntity
  8
RACCORDO
100
AcDbLine
 62
7
  6
CONTINUOUS
 10
105.8166118707
 20
-61.4929722756
 11
105.8166118707
 21
-9.5070277244
  0
LINE
  5
475
100
AcDbEntity
  8
RACCORDO
100
AcDbLine
 62
7
  6
CONTINUOUS
 10
105.8166118707
 20
-80.5070277244
 11
105.8166118707
 21
-132.4929722756
  0
LINE
  5
476
100
AcDbEntity
  8
RACCORDO
100
AcDbLine
 62
7
  6
CONTINUOUS
 10
105.8166118707
 20
9.5070277244
 11
105.8166118707
 21
61.4929722756
  0
LINE
  5
477
100
AcDbEntity
  8
RACCORDO
100
AcDbLine
 62
7
  6
CONTINUOUS
 10
105.8166118707
 20
80.5070277244
 11
105.8166118707
 21
132.4929722756
  0
LWPOLYLINE
  5
478
100
AcDbEntity
  8
0
100
AcDbPolyline
 62
7
  6
CONTINUOUS
 90
4
 70
0
 43
0.3500000006
 10
107.2563728027
 20
163.3785730591
 10
107.2563728027
 20
164.2357109985
 10
107.6849508362
 20
164.6642799683
 10
108.3278042908
 20
164.6642799683
  0
LINE
  5
479
100
AcDbEntity
  8
0
100
AcDbLine
 62
7
  6
CONTINUOUS
 10
95.8166118707
 20
-8.85
 11
96.3174310039
 21
-8.3491808668
  0
LINE
  5
47A
100
AcDbEntity
  8
0
100
AcDbLine
 62
7
  6
CONTINUOUS
 10
96.0061446794
 20
9.7083735833
 11
97.2166118707
 21
9.7618521756
  0
LINE
  5
47B
100
AcDbEntity
  8
RACCORDO
100
AcDbLine
 62
7
  6
CONTINUOUS
 10
105.5218475926
 20
9.2070734158
 11
105.1166118707
 21
9.2
  0
LINE
  5
47C
100
AcDbEntity
  8
RACCORDO
100
AcDbLine
 62
7
  6
CONTINUOUS
 10
101.1166118707
 20
9.803491013
 11
101.0666118707
 21
9.8026182597
  0
LINE
  5
47D
100
AcDbEntity
  8
RACCORDO
100
AcDbLine
 62
253
  6
CONTINUOUS
 10
105.5218475926
 20
9.9069668024
 11
105.1166118707
 21
9.8998933866
  0
LINE
  5
47E
100
AcDbEntity
  8
RACCORDO
100
AcDbLine
 62
253
  6
CONTINUOUS
 10
101.1166118707
 20
11.1032930167
 11
101.0666118707
 21
11.1024202634
  0
LINE
  5
47F
100
AcDbEntity
  8
RACCORDO
100
AcDbLine
 62
253
  6
CONTINUOUS
 10
105.5218475926
 20
9.9069668044
 11
105.8166118707
 21
9.9069668024
  0
LINE
  5
480
100
AcDbEntity
  8
0
100
AcDbLine
 62
7
  6
CONTINUOUS
 10
95.8434067899
 20
10.2
 11
97.2166118707
 21
10.2
  0
LINE
  5
481
100
AcDbEntity
  8
0
100
AcDbLine
 62
253
  6
CONTINUOUS
 10
96.0943830604
 20
8.5722288103
 11
97.2166118707
 21
8.5717218716
  0
LINE
  5
482
100
AcDbEntity
  8
0
100
AcDbLine
 62
7
  6
CONTINUOUS
 10
96.316001084
 20
8.3491284005
 11
97.2166118707
 21
8.3475565366
  0
LINE
  5
483
100
AcDbEntity
  8
0
100
AcDbLine
 62
7
  6
CONTINUOUS
 10
95.8166118707
 20
9.15
 11
97.2166118707
 21
9.1418550383
  0
LINE
  5
484
100
AcDbEntity
  8
0
100
AcDbLine
 62
7
  6
CONTINUOUS
 10
96.3174310039
 20
8.3491808668
 11
95.8166118707
 21
8.85
  0
LINE
  5
485
100
AcDbEntity
  8
RACCORDO
100
AcDbLine
 62
7
  6
CONTINUOUS
 10
101.0666118707
 20
12.8
 11
101.1166118707
 21
12.8
  0
LINE
  5
486
100
AcDbEntity
  8
RACCORDO
100
AcDbLine
 62
7
  6
CONTINUOUS
 10
101.1166118707
 20
13.8
 11
101.0666118707
 21
13.8
  0
LINE
  5
487
100
AcDbEntity
  8
RACCORDO
100
AcDbLine
 62
7
  6
CONTINUOUS
 10
101.1166118707
 20
20.8
 11
101.0666118707
 21
20.8
  0
LINE
  5
488
100
AcDbEntity
  8
0
100
AcDbLine
 62
7
  6
CONTINUOUS
 10
95.8166118707
 20
21.8
 11
97.2166118707
 21
21.7966262464
  0
LINE
  5
489
100
AcDbEntity
  8
0
100
AcDbLine
 62
7
  6
CONTINUOUS
 10
96.0061446794
 20
21.2400670064
 11
97.2166118707
 21
21.176629109
  0
LINE
  5
48A
100
AcDbEntity
  8
0
100
AcDbLine
 62
7
  6
CONTINUOUS
 10
96.0943830604
 20
22.7902460313
 11
95.8166118707
 21
22.8641726926
  0
LINE
  5
48B
100
AcDbEntity
  8
0
100
AcDbLine
 62
7
  6
CONTINUOUS
 10
96.0943830604
 20
22.2097539687
 11
95.8166118707
 21
22.1358273074
  0
LINE
  5
48C
100
AcDbEntity
  8
0
100
AcDbLine
 62
7
  6
CONTINUOUS
 10
96.0943830604
 20
25.7097539687
 11
95.8166118707
 21
25.6358273074
  0
LINE
  5
48D
100
AcDbEntity
  8
0
100
AcDbLine
 62
7
  6
CONTINUOUS
 10
96.0061446794
 20
27.2599329936
 11
97.2166118707
 21
27.323370891
  0
LINE
  5
48E
100
AcDbEntity
  8
0
100
AcDbLine
 62
7
  6
CONTINUOUS
 10
95.8166118707
 20
26.7
 11
97.2166118707
 21
26.7033737536
  0
LINE
  5
48F
100
AcDbEntity
  8
0
100
AcDbLine
 62
253
  6
CONTINUOUS
 10
96.0943830604
 20
22.7902460313
 11
97.2166118707
 21
22.7921379523
  0
LINE
  5
490
100
AcDbEntity
  8
0
100
AcDbLine
 62
7
  6
CONTINUOUS
 10
95.8166118707
 20
23.0169872981
 11
97.2166118707
 21
23.019169734
  0
LINE
  5
491
100
AcDbEntity
  8
0
100
AcDbLine
 62
7
  6
CONTINUOUS
 10
95.8166118707
 20
23.45
 11
97.2166118707
 21
23.4521824359
  0
LINE
  5
492
100
AcDbEntity
  8
0
100
AcDbLine
 62
253
  6
CONTINUOUS
 10
96.0943830604
 20
26.2902460313
 11
97.2166118707
 21
26.2921379523
  0
LINE
  5
493
100
AcDbEntity
  8
0
100
AcDbLine
 62
7
  6
CONTINUOUS
 10
95.8166118707
 20
22.9445574503
 11
97.2166118707
 21
22.9449046739
  0
LINE
  5
494
100
AcDbEntity
  8
0
100
AcDbLine
 62
7
  6
CONTINUOUS
 10
95.8166118707
 20
26.4445574503
 11
97.2166118707
 21
26.4449046739
  0
LINE
  5
495
100
AcDbEntity
  8
RACCORDO
100
AcDbLine
 62
7
  6
CONTINUOUS
 10
101.0666118707
 20
27.7
 11
101.1166118707
 21
27.7
  0
LINE
  5
496
100
AcDbEntity
  8
0
100
AcDbLine
 62
7
  6
CONTINUOUS
 10
95.8166118707
 20
22.0554425497
 11
97.2166118707
 21
22.0550953261
  0
LINE
  5
497
100
AcDbEntity
  8
0
100
AcDbLine
 62
7
  6
CONTINUOUS
 10
95.8166118707
 20
25.5554425497
 11
97.2166118707
 21
25.5550953261
  0
LINE
  5
498
100
AcDbEntity
  8
0
100
AcDbLine
 62
7
  6
CONTINUOUS
 10
95.8166118707
 20
25.05
 11
97.2166118707
 21
25.0478175641
  0
LINE
  5
499
100
AcDbEntity
  8
0
100
AcDbLine
 62
7
  6
CONTINUOUS
 10
95.8166118707
 20
25.4830127019
 11
97.2166118707
 21
25.480830266
  0
LINE
  5
49A
100
AcDbEntity
  8
0
100
AcDbLine
 62
253
  6
CONTINUOUS
 10
96.0943830604
 20
22.2097539687
 11
97.2166118707
 21
22.2078620477
  0
LINE
  5
49B
100
AcDbEntity
  8
0
100
AcDbLine
 62
253
  6
CONTINUOUS
 10
96.0943830604
 20
25.7097539687
 11
97.2166118707
 21
25.7078620477
  0
LINE
  5
49C
100
AcDbEntity
  8
0
100
AcDbLine
 62
7
  6
CONTINUOUS
 10
96.0943830604
 20
26.2902460313
 11
95.8166118707
 21
26.3641726926
  0
LINE
  5
49D
100
AcDbEntity
  8
0
100
AcDbLine
 62
7
  6
CONTINUOUS
 10
96.0943830604
 20
44.7097539687
 11
95.8166118707
 21
44.6358273074
  0
LINE
  5
49E
100
AcDbEntity
  8
0
100
AcDbLine
 62
7
  6
CONTINUOUS
 10
96.0943830604
 20
48.2097539687
 11
95.8166118707
 21
48.1358273074
  0
LINE
  5
49F
100
AcDbEntity
  8
0
100
AcDbLine
 62
7
  6
CONTINUOUS
 10
96.0061446794
 20
49.7599329936
 11
97.2166118707
 21
49.823370891
  0
LINE
  5
4A0
100
AcDbEntity
  8
0
100
AcDbLine
 62
7
  6
CONTINUOUS
 10
95.8166118707
 20
49.2
 11
97.2166118707
 21
49.2033737536
  0
LINE
  5
4A1
100
AcDbEntity
  8
0
100
AcDbLine
 62
253
  6
CONTINUOUS
 10
96.0943830604
 20
45.2902460313
 11
97.2166118707
 21
45.2921379523
  0
LINE
  5
4A2
100
AcDbEntity
  8
0
100
AcDbLine
 62
7
  6
CONTINUOUS
 10
95.8166118707
 20
45.5169872981
 11
97.2166118707
 21
45.519169734
  0
LINE
  5
4A3
100
AcDbEntity
  8
0
100
AcDbLine
 62
7
  6
CONTINUOUS
 10
95.8166118707
 20
45.95
 11
97.2166118707
 21
45.9521824359
  0
LINE
  5
4A4
100
AcDbEntity
  8
0
100
AcDbLine
 62
253
  6
CONTINUOUS
 10
96.0943830604
 20
48.7902460313
 11
97.2166118707
 21
48.7921379523
  0
LINE
  5
4A5
100
AcDbEntity
  8
0
100
AcDbLine
 62
7
  6
CONTINUOUS
 10
95.8166118707
 20
45.4445574503
 11
97.2166118707
 21
45.4449046739
  0
LINE
  5
4A6
100
AcDbEntity
  8
0
100
AcDbLine
 62
7
  6
CONTINUOUS
 10
95.8166118707
 20
48.9445574503
 11
97.2166118707
 21
48.9449046739
  0
LINE
  5
4A7
100
AcDbEntity
  8
RACCORDO
100
AcDbLine
 62
7
  6
CONTINUOUS
 10
101.0666118707
 20
43.3
 11
101.1166118707
 21
43.3
  0
LINE
  5
4A8
100
AcDbEntity
  8
RACCORDO
100
AcDbLine
 62
7
  6
CONTINUOUS
 10
101.1166118707
 20
50.2
 11
101.0666118707
 21
50.2
  0
LINE
  5
4A9
100
AcDbEntity
  8
0
100
AcDbLine
 62
7
  6
CONTINUOUS
 10
95.8166118707
 20
44.5554425497
 11
97.2166118707
 21
44.5550953261
  0
LINE
  5
4AA
100
AcDbEntity
  8
0
100
AcDbLine
 62
7
  6
CONTINUOUS
 10
95.8166118707
 20
48.0554425497
 11
97.2166118707
 21
48.0550953261
  0
LINE
  5
4AB
100
AcDbEntity
  8
0
100
AcDbLine
 62
7
  6
CONTINUOUS
 10
95.8166118707
 20
47.55
 11
97.2166118707
 21
47.5478175641
  0
LINE
  5
4AC
100
AcDbEntity
  8
0
100
AcDbLine
 62
7
  6
CONTINUOUS
 10
95.8166118707
 20
47.9830127019
 11
97.2166118707
 21
47.980830266
  0
LINE
  5
4AD
100
AcDbEntity
  8
0
100
AcDbLine
 62
253
  6
CONTINUOUS
 10
96.0943830604
 20
44.7097539687
 11
97.2166118707
 21
44.7078620477
  0
LINE
  5
4AE
100
AcDbEntity
  8
0
100
AcDbLine
 62
253
  6
CONTINUOUS
 10
96.0943830604
 20
48.2097539687
 11
97.2166118707
 21
48.2078620477
  0
LINE
  5
4AF
100
AcDbEntity
  8
0
100
AcDbLine
 62
7
  6
CONTINUOUS
 10
95.8166118707
 20
44.3
 11
97.2166118707
 21
44.2966262464
  0
LINE
  5
4B0
100
AcDbEntity
  8
0
100
AcDbLine
 62
7
  6
CONTINUOUS
 10
96.0061446794
 20
43.7400670064
 11
97.2166118707
 21
43.676629109
  0
LINE
  5
4B1
100
AcDbEntity
  8
0
100
AcDbLine
 62
7
  6
CONTINUOUS
 10
96.0943830604
 20
45.2902460313
 11
95.8166118707
 21
45.3641726926
  0
LINE
  5
4B2
100
AcDbEntity
  8
0
100
AcDbLine
 62
7
  6
CONTINUOUS
 10
96.0943830604
 20
48.7902460313
 11
95.8166118707
 21
48.8641726926
  0
LINE
  5
4B3
100
AcDbEntity
  8
0
100
AcDbLine
 62
7
  6
CONTINUOUS
 10
96.3174310039
 20
-79.3491808668
 11
95.8166118707
 21
-79.85
  0
LINE
  5
4B4
100
AcDbEntity
  8
0
100
AcDbLine
 62
7
  6
CONTINUOUS
 10
95.8166118707
 20
61.85
 11
97.2166118707
 21
61.8581449617
  0
LINE
  5
4B5
100
AcDbEntity
  8
0
100
AcDbLine
 62
7
  6
CONTINUOUS
 10
96.316001084
 20
62.6508715995
 11
97.2166118707
 21
62.6524434634
  0
LINE
  5
4B6
100
AcDbEntity
  8
0
100
AcDbLine
 62
253
  6
CONTINUOUS
 10
96.0943830604
 20
62.4277711897
 11
97.2166118707
 21
62.4282781284
  0
LINE
  5
4B7
100
AcDbEntity
  8
RACCORDO
100
AcDbLine
 62
7
  6
CONTINUOUS
 10
101.1166118707
 20
57.2
 11
101.0666118707
 21
57.2
  0
LINE
  5
4B8
100
AcDbEntity
  8
RACCORDO
100
AcDbLine
 62
7
  6
CONTINUOUS
 10
101.0666118707
 20
58.2
 11
101.1166118707
 21
58.2
  0
LINE
  5
4B9
100
AcDbEntity
  8
0
100
AcDbLine
 62
7
  6
CONTINUOUS
 10
95.8434067899
 20
60.8
 11
97.2166118707
 21
60.8
  0
LINE
  5
4BA
100
AcDbEntity
  8
RACCORDO
100
AcDbLine
 62
253
  6
CONTINUOUS
 10
105.5218475926
 20
61.0930331962
 11
105.8166118707
 21
61.0930331976
  0
LINE
  5
4BB
100
AcDbEntity
  8
RACCORDO
100
AcDbLine
 62
253
  6
CONTINUOUS
 10
101.1166118707
 20
59.8967069833
 11
101.0666118707
 21
59.8975797366
  0
LINE
  5
4BC
100
AcDbEntity
  8
RACCORDO
100
AcDbLine
 62
253
  6
CONTINUOUS
 10
105.5218475926
 20
61.0930331976
 11
105.1166118707
 21
61.1001066134
  0
LINE
  5
4BD
100
AcDbEntity
  8
RACCORDO
100
AcDbLine
 62
7
  6
CONTINUOUS
 10
101.1166118707
 20
61.196508987
 11
101.0666118707
 21
61.1973817403
  0
LINE
  5
4BE
100
AcDbEntity
  8
RACCORDO
100
AcDbLine
 62
7
  6
CONTINUOUS
 10
105.5218475926
 20
61.7929265842
 11
105.1166118707
 21
61.8
  0
LINE
  5
4BF
100
AcDbEntity
  8
0
100
AcDbLine
 62
7
  6
CONTINUOUS
 10
96.0061446794
 20
61.2916264167
 11
97.2166118707
 21
61.2381478244
  0
LINE
  5
4C0
100
AcDbEntity
  8
ASSI
100
AcDbLine
 62
7
  6
CONTINUOUS
 10
96.3174310039
 20
79.3491808668
 11
95.8166118707
 21
79.85
  0
LINE
  5
4C1
100
AcDbEntity
  8
ASSI
100
AcDbLine
 62
7
  6
CONTINUOUS
 10
96.0061446794
 20
80.7083735833
 11
97.2166118707
 21
80.7618521756
  0
LINE
  5
4C2
100
AcDbEntity
  8
RACCORDO
100
AcDbLine
 62
7
  6
CONTINUOUS
 10
105.5218475926
 20
80.2070734158
 11
105.1166118707
 21
80.2
  0
LINE
  5
4C3
100
AcDbEntity
  8
RACCORDO
100
AcDbLine
 62
7
  6
CONTINUOUS
 10
101.1166118707
 20
80.803491013
 11
101.0666118707
 21
80.8026182597
  0
LINE
  5
4C4
100
AcDbEntity
  8
RACCORDO
100
AcDbLine
 62
253
  6
CONTINUOUS
 10
105.5218475926
 20
80.9069668024
 11
105.1166118707
 21
80.8998933866
  0
LINE
  5
4C5
100
AcDbEntity
  8
RACCORDO
100
AcDbLine
 62
253
  6
CONTINUOUS
 10
101.1166118707
 20
82.1032930167
 11
101.0666118707
 21
82.1024202634
  0
LINE
  5
4C6
100
AcDbEntity
  8
RACCORDO
100
AcDbLine
 62
253
  6
CONTINUOUS
 10
105.5218475926
 20
80.9069668044
 11
105.8166118707
 21
80.9069668024
  0
LINE
  5
4C7
100
AcDbEntity
  8
0
100
AcDbLine
 62
7
  6
CONTINUOUS
 10
95.8434067899
 20
81.2
 11
97.2166118707
 21
81.2
  0
LINE
  5
4C8
100
AcDbEntity
  8
ASSI
100
AcDbLine
 62
253
  6
CONTINUOUS
 10
96.0943830604
 20
79.5722288103
 11
97.2166118707
 21
79.5717218716
  0
LINE
  5
4C9
100
AcDbEntity
  8
ASSI
100
AcDbLine
 62
7
  6
CONTINUOUS
 10
96.316001084
 20
79.3491284005
 11
97.2166118707
 21
79.3475565366
  0
LINE
  5
4CA
100
AcDbEntity
  8
ASSI
100
AcDbLine
 62
7
  6
CONTINUOUS
 10
95.8166118707
 20
80.15
 11
97.2166118707
 21
80.1418550383
  0
LWPOLYLINE
  5
4CB
100
AcDbEntity
  8
0
100
AcDbPolyline
 62
7
  6
CONTINUOUS
 90
10
 70
0
 43
0.3500000006
 10
110.2563737183
 20
163.4499951782
 10
110.3278049011
 20
163.3071509399
 10
110.3278049011
 20
163.2357106934
 10
110.1849515991
 20
163.0928483276
 10
110.1135204163
 20
163.0928483276
 10
110.0420892334
 20
163.1642885742
 10
110.0420892334
 20
163.2357106934
 10
110.1135204163
 20
163.3785730591
 10
110.1849515991
 20
163.4499951782
 10
110.2563737183
 20
163.4499951782
  0
LINE
  5
4CC
100
AcDbEntity
  8
0
100
AcDbLine
 62
7
  6
CONTINUOUS
 10
96.1916118707
 20
-131.55
 11
96.0416118707
 21
-131.7
  0
LINE
  5
4CD
100
AcDbEntity
  8
0
100
AcDbLine
 62
7
  6
CONTINUOUS
 10
96.6916118707
 20
-131.55
 11
96.5416118707
 21
-131.7
  0
LINE
  5
4CE
100
AcDbEntity
  8
0
100
AcDbLine
 62
7
  6
CONTINUOUS
 10
97.1916118707
 20
-131.55
 11
97.0416118707
 21
-131.7
  0
LINE
  5
4CF
100
AcDbEntity
  8
0
100
AcDbLine
 62
7
  6
CONTINUOUS
 10
96.0943830604
 20
93.2097539687
 11
95.8166118707
 21
93.1358273074
  0
LINE
  5
4D0
100
AcDbEntity
  8
0
100
AcDbLine
 62
253
  6
CONTINUOUS
 10
96.0943830604
 20
93.7902460313
 11
97.2166118707
 21
93.7921379523
  0
LINE
  5
4D1
100
AcDbEntity
  8
0
100
AcDbLine
 62
7
  6
CONTINUOUS
 10
95.8166118707
 20
93.9445574503
 11
97.2166118707
 21
93.9449046739
  0
LINE
  5
4D2
100
AcDbEntity
  8
RACCORDO
100
AcDbLine
 62
7
  6
CONTINUOUS
 10
101.0666118707
 20
83.8
 11
101.1166118707
 21
83.8
  0
LINE
  5
4D3
100
AcDbEntity
  8
RACCORDO
100
AcDbLine
 62
7
  6
CONTINUOUS
 10
101.1166118707
 20
84.8
 11
101.0666118707
 21
84.8
  0
LINE
  5
4D4
100
AcDbEntity
  8
RACCORDO
100
AcDbLine
 62
7
  6
CONTINUOUS
 10
101.1166118707
 20
91.8
 11
101.0666118707
 21
91.8
  0
LINE
  5
4D5
100
AcDbEntity
  8
0
100
AcDbLine
 62
7
  6
CONTINUOUS
 10
95.8166118707
 20
93.0554425497
 11
97.2166118707
 21
93.0550953261
  0
LINE
  5
4D6
100
AcDbEntity
  8
0
100
AcDbLine
 62
253
  6
CONTINUOUS
 10
96.0943830604
 20
93.2097539687
 11
97.2166118707
 21
93.2078620477
  0
LINE
  5
4D7
100
AcDbEntity
  8
0
100
AcDbLine
 62
7
  6
CONTINUOUS
 10
95.8166118707
 20
92.8
 11
97.2166118707
 21
92.7966262464
  0
LINE
  5
4D8
100
AcDbEntity
  8
0
100
AcDbLine
 62
7
  6
CONTINUOUS
 10
96.0061446794
 20
92.2400670064
 11
97.2166118707
 21
92.176629109
  0
LINE
  5
4D9
100
AcDbEntity
  8
0
100
AcDbLine
 62
7
  6
CONTINUOUS
 10
96.0943830604
 20
93.7902460313
 11
95.8166118707
 21
93.8641726926
  0
LINE
  5
4DA
100
AcDbEntity
  8
0
100
AcDbLine
 62
7
  6
CONTINUOUS
 10
96.0943830604
 20
97.2902460313
 11
95.8166118707
 21
97.3641726926
  0
LINE
  5
4DB
100
AcDbEntity
  8
ASSI
100
AcDbLine
 62
7
  6
CONTINUOUS
 10
96.1916118707
 20
131.55
 11
96.0416118707
 21
131.7
  0
LINE
  5
4DC
100
AcDbEntity
  8
ASSI
100
AcDbLine
 62
7
  6
CONTINUOUS
 10
96.6916118707
 20
131.55
 11
96.5416118707
 21
131.7
  0
LINE
  5
4DD
100
AcDbEntity
  8
ASSI
100
AcDbLine
 62
7
  6
CONTINUOUS
 10
97.1916118707
 20
131.55
 11
97.0416118707
 21
131.7
  0
LINE
  5
4DE
100
AcDbEntity
  8
0
100
AcDbLine
 62
7
  6
CONTINUOUS
 10
96.0943830604
 20
96.7097539687
 11
95.8166118707
 21
96.6358273074
  0
LINE
  5
4DF
100
AcDbEntity
  8
0
100
AcDbLine
 62
7
  6
CONTINUOUS
 10
96.0061446794
 20
98.2599329936
 11
97.2166118707
 21
98.323370891
  0
LINE
  5
4E0
100
AcDbEntity
  8
0
100
AcDbLine
 62
7
  6
CONTINUOUS
 10
95.8166118707
 20
97.7
 11
97.2166118707
 21
97.7033737536
  0
LINE
  5
4E1
100
AcDbEntity
  8
0
100
AcDbLine
 62
7
  6
CONTINUOUS
 10
95.8166118707
 20
94.0169872981
 11
97.2166118707
 21
94.019169734
  0
LINE
  5
4E2
100
AcDbEntity
  8
0
100
AcDbLine
 62
7
  6
CONTINUOUS
 10
95.8166118707
 20
94.45
 11
97.2166118707
 21
94.4521824359
  0
LINE
  5
4E3
100
AcDbEntity
  8
0
100
AcDbLine
 62
253
  6
CONTINUOUS
 10
96.0943830604
 20
97.2902460313
 11
97.2166118707
 21
97.2921379523
  0
LINE
  5
4E4
100
AcDbEntity
  8
0
100
AcDbLine
 62
7
  6
CONTINUOUS
 10
95.8166118707
 20
97.4445574503
 11
97.2166118707
 21
97.4449046739
  0
LINE
  5
4E5
100
AcDbEntity
  8
RACCORDO
100
AcDbLine
 62
7
  6
CONTINUOUS
 10
101.0666118707
 20
98.7
 11
101.1166118707
 21
98.7
  0
LINE
  5
4E6
100
AcDbEntity
  8
0
100
AcDbLine
 62
7
  6
CONTINUOUS
 10
95.8166118707
 20
96.5554425497
 11
97.2166118707
 21
96.5550953261
  0
LINE
  5
4E7
100
AcDbEntity
  8
0
100
AcDbLine
 62
7
  6
CONTINUOUS
 10
95.8166118707
 20
96.05
 11
97.2166118707
 21
96.0478175641
  0
LINE
  5
4E8
100
AcDbEntity
  8
0
100
AcDbLine
 62
7
  6
CONTINUOUS
 10
95.8166118707
 20
96.4830127019
 11
97.2166118707
 21
96.480830266
  0
LINE
  5
4E9
100
AcDbEntity
  8
0
100
AcDbLine
 62
253
  6
CONTINUOUS
 10
96.0943830604
 20
96.7097539687
 11
97.2166118707
 21
96.7078620477
  0
LINE
  5
4EA
100
AcDbEntity
  8
SMUSSO
100
AcDbLine
 62
7
  6
CONTINUOUS
 10
101.0666118707
 20
-153.6499999999
 11
100.6083599894
 21
-154.1082518813
  0
LINE
  5
4EB
100
AcDbEntity
  8
DRAFT
100
AcDbLine
 62
7
  6
CONTINUOUS
 10
101.0666118707
 20
-153.65
 11
100.6083599894
 21
-154.1082518813
  0
LINE
  5
4EC
100
AcDbEntity
  8
SMUSSO
100
AcDbLine
 62
7
  6
CONTINUOUS
 10
105.1166118707
 20
-153.2
 11
104.1166118707
 21
-154.2
  0
LINE
  5
4ED
100
AcDbEntity
  8
0
100
AcDbLine
 62
7
  6
CONTINUOUS
 10
96.0943830604
 20
115.7097539687
 11
95.8166118707
 21
115.6358273074
  0
LINE
  5
4EE
100
AcDbEntity
  8
RACCORDO
100
AcDbLine
 62
7
  6
CONTINUOUS
 10
101.0666118707
 20
114.3
 11
101.1166118707
 21
114.3
  0
LINE
  5
4EF
100
AcDbEntity
  8
0
100
AcDbLine
 62
7
  6
CONTINUOUS
 10
96.0061446794
 20
114.7400670064
 11
97.2166118707
 21
114.676629109
  0
LINE
  5
4F0
100
AcDbEntity
  8
0
100
AcDbLine
 62
7
  6
CONTINUOUS
 10
96.0943830604
 20
116.2902460313
 11
95.8166118707
 21
116.3641726926
  0
LINE
  5
4F1
100
AcDbEntity
  8
DRAFT
100
AcDbLine
 62
7
  6
CONTINUOUS
 10
101.0666118707
 20
153.65
 11
100.6083599894
 21
154.1082518813
  0
LINE
  5
4F2
100
AcDbEntity
  8
SMUSSO
100
AcDbLine
 62
7
  6
CONTINUOUS
 10
105.1166118707
 20
153.2
 11
104.1166118707
 21
154.2
  0
LINE
  5
4F3
100
AcDbEntity
  8
0
100
AcDbLine
 62
7
  6
CONTINUOUS
 10
96.0943830604
 20
119.2097539687
 11
95.8166118707
 21
119.1358273074
  0
LINE
  5
4F4
100
AcDbEntity
  8
0
100
AcDbLine
 62
7
  6
CONTINUOUS
 10
96.0061446794
 20
120.7599329936
 11
97.2166118707
 21
120.823370891
  0
LINE
  5
4F5
100
AcDbEntity
  8
0
100
AcDbLine
 62
7
  6
CONTINUOUS
 10
95.8166118707
 20
120.2
 11
97.2166118707
 21
120.2033737536
  0
LINE
  5
4F6
100
AcDbEntity
  8
0
100
AcDbLine
 62
253
  6
CONTINUOUS
 10
96.0943830604
 20
116.2902460313
 11
97.2166118707
 21
116.2921379523
  0
LINE
  5
4F7
100
AcDbEntity
  8
0
100
AcDbLine
 62
7
  6
CONTINUOUS
 10
95.8166118707
 20
116.5169872981
 11
97.2166118707
 21
116.519169734
  0
LINE
  5
4F8
100
AcDbEntity
  8
0
100
AcDbLine
 62
7
  6
CONTINUOUS
 10
95.8166118707
 20
116.95
 11
97.2166118707
 21
116.9521824359
  0
LINE
  5
4F9
100
AcDbEntity
  8
0
100
AcDbLine
 62
253
  6
CONTINUOUS
 10
96.0943830604
 20
119.7902460313
 11
97.2166118707
 21
119.7921379523
  0
LINE
  5
4FA
100
AcDbEntity
  8
0
100
AcDbLine
 62
7
  6
CONTINUOUS
 10
95.8166118707
 20
116.4445574503
 11
97.2166118707
 21
116.4449046739
  0
LINE
  5
4FB
100
AcDbEntity
  8
0
100
AcDbLine
 62
7
  6
CONTINUOUS
 10
95.8166118707
 20
119.9445574503
 11
97.2166118707
 21
119.9449046739
  0
LINE
  5
4FC
100
AcDbEntity
  8
RACCORDO
100
AcDbLine
 62
7
  6
CONTINUOUS
 10
101.1166118707
 20
121.2
 11
101.0666118707
 21
121.2
  0
LINE
  5
4FD
100
AcDbEntity
  8
0
100
AcDbLine
 62
7
  6
CONTINUOUS
 10
95.8166118707
 20
115.5554425497
 11
97.2166118707
 21
115.5550953261
  0
LINE
  5
4FE
100
AcDbEntity
  8
0
100
AcDbLine
 62
7
  6
CONTINUOUS
 10
95.8166118707
 20
119.0554425497
 11
97.2166118707
 21
119.0550953261
  0
LINE
  5
4FF
100
AcDbEntity
  8
0
100
AcDbLine
 62
7
  6
CONTINUOUS
 10
95.8166118707
 20
118.55
 11
97.2166118707
 21
118.5478175641
  0
LINE
  5
500
100
AcDbEntity
  8
0
100
AcDbLine
 62
7
  6
CONTINUOUS
 10
95.8166118707
 20
118.9830127019
 11
97.2166118707
 21
118.980830266
  0
LINE
  5
501
100
AcDbEntity
  8
0
100
AcDbLine
 62
253
  6
CONTINUOUS
 10
96.0943830604
 20
115.7097539687
 11
97.2166118707
 21
115.7078620477
  0
LINE
  5
502
100
AcDbEntity
  8
0
100
AcDbLine
 62
253
  6
CONTINUOUS
 10
96.0943830604
 20
119.2097539687
 11
97.2166118707
 21
119.2078620477
  0
LINE
  5
503
100
AcDbEntity
  8
0
100
AcDbLine
 62
7
  6
CONTINUOUS
 10
95.8166118707
 20
115.3
 11
97.2166118707
 21
115.2966262464
  0
LINE
  5
504
100
AcDbEntity
  8
0
100
AcDbLine
 62
7
  6
CONTINUOUS
 10
96.0943830604
 20
119.7902460313
 11
95.8166118707
 21
119.8641726926
  0
LINE
  5
505
100
AcDbEntity
  8
ASSI
100
AcDbLine
 62
7
  6
CONTINUOUS
 10
95.8166118707
 20
132.85
 11
97.2166118707
 21
132.8581449617
  0
LINE
  5
506
100
AcDbEntity
  8
ASSI
100
AcDbLine
 62
7
  6
CONTINUOUS
 10
96.316001084
 20
133.6508715995
 11
97.2166118707
 21
133.6524434634
  0
LINE
  5
507
100
AcDbEntity
  8
ASSI
100
AcDbLine
 62
253
  6
CONTINUOUS
 10
96.0943830604
 20
133.4277711897
 11
97.2166118707
 21
133.4282781284
  0
LINE
  5
508
100
AcDbEntity
  8
RACCORDO
100
AcDbLine
 62
7
  6
CONTINUOUS
 10
101.1166118707
 20
128.2
 11
101.0666118707
 21
128.2
  0
LINE
  5
509
100
AcDbEntity
  8
RACCORDO
100
AcDbLine
 62
7
  6
CONTINUOUS
 10
101.0666118707
 20
129.2
 11
101.1166118707
 21
129.2
  0
LINE
  5
50A
100
AcDbEntity
  8
ASSI
100
AcDbLine
 62
7
  6
CONTINUOUS
 10
97.2166118707
 20
131.55
 11
97.1916118707
 21
131.55
  0
LINE
  5
50B
100
AcDbEntity
  8
ASSI
100
AcDbLine
 62
7
  6
CONTINUOUS
 10
96.8416118707
 20
131.55
 11
96.6916118707
 21
131.55
  0
LINE
  5
50C
100
AcDbEntity
  8
ASSI
100
AcDbLine
 62
7
  6
CONTINUOUS
 10
96.3416118707
 20
131.55
 11
96.1916118707
 21
131.55
  0
LINE
  5
50D
100
AcDbEntity
  8
ASSI
100
AcDbLine
 62
7
  6
CONTINUOUS
 10
96.0166118707
 20
131.7
 11
97.2166118707
 21
131.7
  0
LINE
  5
50E
100
AcDbEntity
  8
RACCORDO
100
AcDbLine
 62
253
  6
CONTINUOUS
 10
105.5218475926
 20
132.0930331962
 11
105.8166118707
 21
132.0930331976
  0
LINE
  5
50F
100
AcDbEntity
  8
RACCORDO
100
AcDbLine
 62
253
  6
CONTINUOUS
 10
101.1166118707
 20
130.8967069833
 11
101.0666118707
 21
130.8975797366
  0
LINE
  5
510
100
AcDbEntity
  8
RACCORDO
100
AcDbLine
 62
253
  6
CONTINUOUS
 10
105.5218475926
 20
132.0930331976
 11
105.1166118707
 21
132.1001066134
  0
LINE
  5
511
100
AcDbEntity
  8
RACCORDO
100
AcDbLine
 62
7
  6
CONTINUOUS
 10
101.1166118707
 20
132.196508987
 11
101.0666118707
 21
132.1973817403
  0
LINE
  5
512
100
AcDbEntity
  8
DRAFT
100
AcDbLine
 62
7
  6
CONTINUOUS
 10
101.0666118707
 20
132.3473817403
 11
101.1166118707
 21
132.346508987
  0
LINE
  5
513
100
AcDbEntity
  8
RACCORDO
100
AcDbLine
 62
7
  6
CONTINUOUS
 10
105.5218475926
 20
132.7929265842
 11
105.1166118707
 21
132.8
  0
LINE
  5
514
100
AcDbEntity
  8
ASSI
100
AcDbLine
 62
7
  6
CONTINUOUS
 10
96.0061446794
 20
132.2916264167
 11
97.2166118707
 21
132.2381478244
  0
LINE
  5
515
100
AcDbEntity
  8
DRAFT
100
AcDbLine
 62
253
  6
CONTINUOUS
 10
97.2166118707
 20
152.65
 11
101.0666118707
 21
152.65
  0
LINE
  5
516
100
AcDbEntity
  8
SMUSSO
100
AcDbLine
 62
253
  6
CONTINUOUS
 10
101.1166118707
 20
153.2
 11
105.1166118707
 21
153.2
  0
LINE
  5
517
100
AcDbEntity
  8
SMUSSO
100
AcDbLine
 62
7
  6
CONTINUOUS
 10
104.1166118707
 20
154.2
 11
101.6166118707
 21
154.2
  0
LINE
  5
518
100
AcDbEntity
  8
DRAFT
100
AcDbLine
 62
7
  6
CONTINUOUS
 10
100.6083599894
 20
154.1082518813
 11
98.2166118707
 21
154.15
  0
LWPOLYLINE
  5
519
100
AcDbEntity
  8
0
100
AcDbPolyline
 62
7
  6
CONTINUOUS
 90
13
 70
0
 43
0.3500000006
 10
107.6849508362
 20
164.6642799683
 10
107.3992351685
 20
164.8785644531
 10
107.3992351685
 20
165.5214360352
 10
107.6849508362
 20
165.9500050049
 10
108.3278042908
 20
165.9500050049
 10
108.6135199585
 20
165.5214360352
 10
108.6135199585
 20
164.8785644531
 10
108.3278042908
 20
164.6642799683
 10
108.7563732605
 20
164.2357109985
 10
108.7563732605
 20
163.3785730591
 10
108.3278042908
 20
162.9500040894
 10
107.6849508362
 20
162.9500040894
 10
107.2563728027
 20
163.3785730591
  0
ARC
  5
51A
100
AcDbEntity
  8
SMUSSO
100
AcDbCircle
 62
7
  6
CONTINUOUS
 10
-46.7
 20
-153.2
 40
1.0
100
AcDbArc
 50
180.0
 51
270.0
  0
ARC
  5
51B
100
AcDbEntity
  8
RACCORDO
100
AcDbCircle
 62
253
  6
CONTINUOUS
 10
-21.8552471073
 20
-13.2018309899
 40
0.7733702763
100
AcDbArc
 50
176.505703563
 51
179.9691494897
  0
ARC
  5
51C
100
AcDbEntity
  8
RACCORDO
100
AcDbCircle
 62
253
  6
CONTINUOUS
 10
-21.8552471073
 20
-84.2018309899
 40
0.7733702763
100
AcDbArc
 50
176.505703563
 51
179.9691494897
  0
ARC
  5
51D
100
AcDbEntity
  8
RACCORDO
100
AcDbCircle
 62
253
  6
CONTINUOUS
 10
-21.8678382773
 20
-57.798556347
 40
0.7607789948
100
AcDbArc
 50
180.0021899864
 51
183.5229674289
  0
ARC
  5
51E
100
AcDbEntity
  8
RACCORDO
100
AcDbCircle
 62
253
  6
CONTINUOUS
 10
-21.8678382773
 20
-128.798556347
 40
0.7607789948
100
AcDbArc
 50
180.0021899865
 51
183.5229674289
  0
ARC
  5
51F
100
AcDbEntity
  8
RACCORDO
100
AcDbCircle
 62
253
  6
CONTINUOUS
 10
-22.2986745549
 20
-13.6280484115
 40
0.7566656883
100
AcDbArc
 50
89.9932510237
 51
93.530752584
  0
ARC
  5
520
100
AcDbEntity
  8
RACCORDO
100
AcDbCircle
 62
253
  6
CONTINUOUS
 10
-22.2986745549
 20
-84.6280484115
 40
0.7566656883
100
AcDbArc
 50
89.9932510238
 51
93.5307525839
  0
ARC
  5
521
100
AcDbEntity
  8
RACCORDO
100
AcDbCircle
 62
253
  6
CONTINUOUS
 10
-22.2987170648
 20
-57.3733334555
 40
0.7552838275
100
AcDbArc
 50
266.4660102338
 51
270.0099861189
  0
ARC
  5
522
100
AcDbEntity
  8
RACCORDO
100
AcDbCircle
 62
253
  6
CONTINUOUS
 10
-22.2987170648
 20
-128.3733334555
 40
0.7552838275
100
AcDbArc
 50
266.4660102339
 51
270.0099861189
  0
ARC
  5
523
100
AcDbEntity
  8
RACCORDO
100
AcDbCircle
 62
253
  6
CONTINUOUS
 10
-25.5929411657
 20
-61.0929411657
 40
0.6999862456
100
AcDbArc
 50
180.0075330706
 51
269.9924669294
  0
ARC
  5
524
100
AcDbEntity
  8
RACCORDO
100
AcDbCircle
 62
253
  6
CONTINUOUS
 10
-25.5929411657
 20
-9.9070588343
 40
0.6999862456
100
AcDbArc
 50
90.0075330706
 51
179.9924669294
  0
ARC
  5
525
100
AcDbEntity
  8
RACCORDO
100
AcDbCircle
 62
253
  6
CONTINUOUS
 10
-25.5929411657
 20
-132.0929411657
 40
0.6999862456
100
AcDbArc
 50
180.0075330706
 51
269.9924669294
  0
ARC
  5
526
100
AcDbEntity
  8
RACCORDO
100
AcDbCircle
 62
253
  6
CONTINUOUS
 10
-25.5929411657
 20
-80.9070588343
 40
0.6999862456
100
AcDbArc
 50
90.0075330706
 51
179.9924669294
  0
ARC
  5
527
100
AcDbEntity
  8
RACCORDO
100
AcDbCircle
 62
253
  6
CONTINUOUS
 10
-22.3363739035
 20
-13.2012654418
 40
0.2621658733
100
AcDbArc
 50
176.2110307647
 51
180.0325925456
  0
ARC
  5
528
100
AcDbEntity
  8
RACCORDO
100
AcDbCircle
 62
253
  6
CONTINUOUS
 10
-22.3363739035
 20
-84.2012654418
 40
0.2621658733
100
AcDbArc
 50
176.2110307647
 51
180.0325925456
  0
ARC
  5
529
100
AcDbEntity
  8
RACCORDO
100
AcDbCircle
 62
253
  6
CONTINUOUS
 10
-22.3368972152
 20
-57.7987517188
 40
0.261642572
100
AcDbArc
 50
179.9635843536
 51
183.7927923362
  0
ARC
  5
52A
100
AcDbEntity
  8
RACCORDO
100
AcDbCircle
 62
253
  6
CONTINUOUS
 10
-22.3368972152
 20
-128.7987517188
 40
0.261642572
100
AcDbArc
 50
179.9635843535
 51
183.7927923362
  0
ARC
  5
52B
100
AcDbEntity
  8
RACCORDO
100
AcDbCircle
 62
253
  6
CONTINUOUS
 10
-22.2987615345
 20
-13.1628034533
 40
0.261343247
100
AcDbArc
 50
89.9613906764
 51
93.7949860133
  0
ARC
  5
52C
100
AcDbEntity
  8
RACCORDO
100
AcDbCircle
 62
253
  6
CONTINUOUS
 10
-22.2987615345
 20
-84.1628034533
 40
0.261343247
100
AcDbArc
 50
89.9613906763
 51
93.7949860134
  0
ARC
  5
52D
100
AcDbEntity
  8
RACCORDO
100
AcDbCircle
 62
253
  6
CONTINUOUS
 10
-22.2987648869
 20
-57.8372987772
 40
0.2612410188
100
AcDbArc
 50
266.2042636303
 51
270.0393596799
  0
ARC
  5
52E
100
AcDbEntity
  8
RACCORDO
100
AcDbCircle
 62
253
  6
CONTINUOUS
 10
-22.2987648869
 20
-128.8372987772
 40
0.2612410189
100
AcDbArc
 50
266.2042636304
 51
270.0393596798
  0
ARC
  5
52F
100
AcDbEntity
  8
SMUSSO
100
AcDbCircle
 62
7
  6
CONTINUOUS
 10
-46.7
 20
153.2
 40
1.0
100
AcDbArc
 50
90.0
 51
180.0
  0
ARC
  5
530
100
AcDbEntity
  8
RACCORDO
100
AcDbCircle
 62
253
  6
CONTINUOUS
 10
-21.8552471073
 20
57.7981690101
 40
0.7733702763
100
AcDbArc
 50
176.505703563
 51
179.9691494897
  0
ARC
  5
531
100
AcDbEntity
  8
RACCORDO
100
AcDbCircle
 62
253
  6
CONTINUOUS
 10
-21.8552471073
 20
128.7981690101
 40
0.7733702763
100
AcDbArc
 50
176.505703563
 51
179.9691494897
  0
ARC
  5
532
100
AcDbEntity
  8
RACCORDO
100
AcDbCircle
 62
253
  6
CONTINUOUS
 10
-21.8678382773
 20
13.201443653
 40
0.7607789948
100
AcDbArc
 50
180.0021899864
 51
183.5229674289
  0
ARC
  5
533
100
AcDbEntity
  8
RACCORDO
100
AcDbCircle
 62
253
  6
CONTINUOUS
 10
-21.8678382773
 20
84.201443653
 40
0.7607789948
100
AcDbArc
 50
180.0021899865
 51
183.5229674289
  0
ARC
  5
534
100
AcDbEntity
  8
RACCORDO
100
AcDbCircle
 62
253
  6
CONTINUOUS
 10
-22.2986745549
 20
57.3719515885
 40
0.7566656883
100
AcDbArc
 50
89.9932510237
 51
93.530752584
  0
ARC
  5
535
100
AcDbEntity
  8
RACCORDO
100
AcDbCircle
 62
253
  6
CONTINUOUS
 10
-22.2986745549
 20
128.3719515885
 40
0.7566656883
100
AcDbArc
 50
89.9932510237
 51
93.530752584
  0
ARC
  5
536
100
AcDbEntity
  8
RACCORDO
100
AcDbCircle
 62
253
  6
CONTINUOUS
 10
-22.2987170648
 20
13.6266665445
 40
0.7552838275
100
AcDbArc
 50
266.4660102338
 51
270.0099861189
  0
ARC
  5
537
100
AcDbEntity
  8
RACCORDO
100
AcDbCircle
 62
253
  6
CONTINUOUS
 10
-22.2987170648
 20
84.6266665445
 40
0.7552838275
100
AcDbArc
 50
266.4660102339
 51
270.0099861189
  0
ARC
  5
538
100
AcDbEntity
  8
RACCORDO
100
AcDbCircle
 62
253
  6
CONTINUOUS
 10
-25.5929411657
 20
9.9070588343
 40
0.6999862456
100
AcDbArc
 50
180.0075330706
 51
269.9924669294
  0
ARC
  5
539
100
AcDbEntity
  8
RACCORDO
100
AcDbCircle
 62
253
  6
CONTINUOUS
 10
-25.5929411657
 20
61.0929411657
 40
0.6999862456
100
AcDbArc
 50
90.0075330706
 51
179.9924669294
  0
ARC
  5
53A
100
AcDbEntity
  8
RACCORDO
100
AcDbCircle
 62
253
  6
CONTINUOUS
 10
-25.5929411657
 20
80.9070588343
 40
0.6999862456
100
AcDbArc
 50
180.0075330706
 51
269.9924669294
  0
ARC
  5
53B
100
AcDbEntity
  8
RACCORDO
100
AcDbCircle
 62
253
  6
CONTINUOUS
 10
-25.5929411657
 20
132.0929411657
 40
0.6999862456
100
AcDbArc
 50
90.0075330706
 51
179.9924669294
  0
ARC
  5
53C
100
AcDbEntity
  8
RACCORDO
100
AcDbCircle
 62
253
  6
CONTINUOUS
 10
-22.3363739035
 20
57.7987345582
 40
0.2621658733
100
AcDbArc
 50
176.2110307647
 51
180.0325925456
  0
ARC
  5
53D
100
AcDbEntity
  8
RACCORDO
100
AcDbCircle
 62
253
  6
CONTINUOUS
 10
-22.3363739035
 20
128.7987345582
 40
0.2621658733
100
AcDbArc
 50
176.2110307647
 51
180.0325925456
  0
ARC
  5
53E
100
AcDbEntity
  8
RACCORDO
100
AcDbCircle
 62
253
  6
CONTINUOUS
 10
-22.3368972152
 20
13.2012482812
 40
0.261642572
100
AcDbArc
 50
179.9635843536
 51
183.7927923362
  0
ARC
  5
53F
100
AcDbEntity
  8
RACCORDO
100
AcDbCircle
 62
253
  6
CONTINUOUS
 10
-22.3368972152
 20
84.2012482812
 40
0.261642572
100
AcDbArc
 50
179.9635843535
 51
183.7927923363
  0
ARC
  5
540
100
AcDbEntity
  8
RACCORDO
100
AcDbCircle
 62
253
  6
CONTINUOUS
 10
-22.2987615345
 20
57.8371965467
 40
0.261343247
100
AcDbArc
 50
89.9613906765
 51
93.7949860133
  0
ARC
  5
541
100
AcDbEntity
  8
RACCORDO
100
AcDbCircle
 62
253
  6
CONTINUOUS
 10
-22.2987615345
 20
128.8371965467
 40
0.261343247
100
AcDbArc
 50
89.9613906764
 51
93.7949860133
  0
ARC
  5
542
100
AcDbEntity
  8
RACCORDO
100
AcDbCircle
 62
253
  6
CONTINUOUS
 10
-22.2987648869
 20
13.1627012228
 40
0.2612410188
100
AcDbArc
 50
266.2042636303
 51
270.0393596799
  0
ARC
  5
543
100
AcDbEntity
  8
RACCORDO
100
AcDbCircle
 62
253
  6
CONTINUOUS
 10
-22.2987648869
 20
84.1627012228
 40
0.2612410188
100
AcDbArc
 50
266.2042636301
 51
270.0393596801
  0
ARC
  5
544
100
AcDbEntity
  8
SMUSSO
100
AcDbCircle
 62
7
  6
CONTINUOUS
 10
46.7
 20
-153.2
 40
1.0
100
AcDbArc
 50
270.0
 51
360.0
  0
ARC
  5
545
100
AcDbEntity
  8
RACCORDO
100
AcDbCircle
 62
253
  6
CONTINUOUS
 10
21.8678382773
 20
-13.201443653
 40
0.7607789948
100
AcDbArc
 50
0.0021899864
 51
3.5229674289
  0
ARC
  5
546
100
AcDbEntity
  8
RACCORDO
100
AcDbCircle
 62
253
  6
CONTINUOUS
 10
22.298556347
 20
-57.3678382773
 40
0.7607789948
100
AcDbArc
 50
270.0021899864
 51
273.5229674289
  0
ARC
  5
547
100
AcDbEntity
  8
RACCORDO
100
AcDbCircle
 62
253
  6
CONTINUOUS
 10
21.8678382773
 20
-84.201443653
 40
0.7607789948
100
AcDbArc
 50
0.0021899864
 51
3.5229674289
  0
ARC
  5
548
100
AcDbEntity
  8
RACCORDO
100
AcDbCircle
 62
253
  6
CONTINUOUS
 10
22.298556347
 20
-128.3678382773
 40
0.7607789948
100
AcDbArc
 50
270.0021899864
 51
273.5229674289
  0
ARC
  5
549
100
AcDbEntity
  8
RACCORDO
100
AcDbCircle
 62
253
  6
CONTINUOUS
 10
21.8733334555
 20
-57.7987170648
 40
0.7552838275
100
AcDbArc
 50
356.4660102338
 51
0.0099861189
  0
ARC
  5
54A
100
AcDbEntity
  8
RACCORDO
100
AcDbCircle
 62
253
  6
CONTINUOUS
 10
22.2987170648
 20
-13.6266665445
 40
0.7552838275
100
AcDbArc
 50
86.4660102338
 51
90.0099861189
  0
ARC
  5
54B
100
AcDbEntity
  8
RACCORDO
100
AcDbCircle
 62
253
  6
CONTINUOUS
 10
21.8733334555
 20
-128.7987170648
 40
0.7552838275
100
AcDbArc
 50
356.4660102338
 51
0.0099861189
  0
ARC
  5
54C
100
AcDbEntity
  8
RACCORDO
100
AcDbCircle
 62
253
  6
CONTINUOUS
 10
22.2987170648
 20
-84.6266665445
 40
0.7552838275
100
AcDbArc
 50
86.4660102338
 51
90.0099861189
  0
ARC
  5
54D
100
AcDbEntity
  8
RACCORDO
100
AcDbCircle
 62
253
  6
CONTINUOUS
 10
25.5929411657
 20
-9.9070588343
 40
0.6999862456
100
AcDbArc
 50
0.0075330706
 51
89.9924669294
  0
ARC
  5
54E
100
AcDbEntity
  8
RACCORDO
100
AcDbCircle
 62
253
  6
CONTINUOUS
 10
25.5929411657
 20
-61.0929411657
 40
0.6999862456
100
AcDbArc
 50
270.0075330706
 51
359.9924669294
  0
ARC
  5
54F
100
AcDbEntity
  8
RACCORDO
100
AcDbCircle
 62
253
  6
CONTINUOUS
 10
25.5929411657
 20
-80.9070588343
 40
0.6999862456
100
AcDbArc
 50
0.0075330701
 51
89.9924669299
  0
ARC
  5
550
100
AcDbEntity
  8
RACCORDO
100
AcDbCircle
 62
253
  6
CONTINUOUS
 10
25.5929411657
 20
-132.0929411657
 40
0.6999862456
100
AcDbArc
 50
270.0075330701
 51
359.9924669299
  0
ARC
  5
551
100
AcDbEntity
  8
RACCORDO
100
AcDbCircle
 62
253
  6
CONTINUOUS
 10
22.3368972152
 20
-13.2012482812
 40
0.261642572
100
AcDbArc
 50
359.9635843536
 51
3.7927923361
  0
ARC
  5
552
100
AcDbEntity
  8
RACCORDO
100
AcDbCircle
 62
253
  6
CONTINUOUS
 10
22.2987517188
 20
-57.8368972152
 40
0.261642572
100
AcDbArc
 50
269.9635843536
 51
273.7927923361
  0
ARC
  5
553
100
AcDbEntity
  8
RACCORDO
100
AcDbCircle
 62
253
  6
CONTINUOUS
 10
22.3368972152
 20
-84.2012482812
 40
0.261642572
100
AcDbArc
 50
359.9635843535
 51
3.7927923363
  0
ARC
  5
554
100
AcDbEntity
  8
RACCORDO
100
AcDbCircle
 62
253
  6
CONTINUOUS
 10
22.2987517188
 20
-128.8368972152
 40
0.2616425721
100
AcDbArc
 50
269.9635843536
 51
273.792792336
  0
ARC
  5
555
100
AcDbEntity
  8
RACCORDO
100
AcDbCircle
 62
253
  6
CONTINUOUS
 10
22.2987648869
 20
-13.1627012228
 40
0.2612410188
100
AcDbArc
 50
86.2042636303
 51
90.0393596799
  0
ARC
  5
556
100
AcDbEntity
  8
RACCORDO
100
AcDbCircle
 62
253
  6
CONTINUOUS
 10
22.3372987772
 20
-57.7987648869
 40
0.2612410188
100
AcDbArc
 50
356.2042636303
 51
0.0393596799
  0
ARC
  5
557
100
AcDbEntity
  8
RACCORDO
100
AcDbCircle
 62
253
  6
CONTINUOUS
 10
22.2987648869
 20
-84.1627012228
 40
0.2612410188
100
AcDbArc
 50
86.2042636303
 51
90.03935968
  0
ARC
  5
558
100
AcDbEntity
  8
RACCORDO
100
AcDbCircle
 62
253
  6
CONTINUOUS
 10
22.3372987772
 20
-128.7987648869
 40
0.2612410189
100
AcDbArc
 50
356.2042636304
 51
0.0393596798
  0
ARC
  5
559
100
AcDbEntity
  8
SMUSSO
100
AcDbCircle
 62
7
  6
CONTINUOUS
 10
46.7
 20
153.2
 40
1.0
100
AcDbArc
 50
0.0
 51
90.0
  0
ARC
  5
55A
100
AcDbEntity
  8
RACCORDO
100
AcDbCircle
 62
253
  6
CONTINUOUS
 10
21.8678382773
 20
57.798556347
 40
0.7607789948
100
AcDbArc
 50
0.0021899865
 51
3.5229674289
  0
ARC
  5
55B
100
AcDbEntity
  8
RACCORDO
100
AcDbCircle
 62
253
  6
CONTINUOUS
 10
22.298556347
 20
13.6321617227
 40
0.7607789948
100
AcDbArc
 50
270.0021899864
 51
273.5229674289
  0
ARC
  5
55C
100
AcDbEntity
  8
RACCORDO
100
AcDbCircle
 62
253
  6
CONTINUOUS
 10
21.8678382773
 20
128.798556347
 40
0.7607789948
100
AcDbArc
 50
0.0021899864
 51
3.5229674289
  0
ARC
  5
55D
100
AcDbEntity
  8
RACCORDO
100
AcDbCircle
 62
253
  6
CONTINUOUS
 10
22.298556347
 20
84.6321617227
 40
0.7607789948
100
AcDbArc
 50
270.0021899864
 51
273.5229674289
  0
ARC
  5
55E
100
AcDbEntity
  8
RACCORDO
100
AcDbCircle
 62
253
  6
CONTINUOUS
 10
21.8733334555
 20
13.2012829352
 40
0.7552838275
100
AcDbArc
 50
356.4660102338
 51
0.0099861189
  0
ARC
  5
55F
100
AcDbEntity
  8
RACCORDO
100
AcDbCircle
 62
253
  6
CONTINUOUS
 10
22.2987170647
 20
57.3733334555
 40
0.7552838276
100
AcDbArc
 50
86.4660102339
 51
90.0099861188
  0
ARC
  5
560
100
AcDbEntity
  8
RACCORDO
100
AcDbCircle
 62
253
  6
CONTINUOUS
 10
21.8733334555
 20
84.2012829352
 40
0.7552838275
100
AcDbArc
 50
356.4660102338
 51
0.0099861189
  0
ARC
  5
561
100
AcDbEntity
  8
RACCORDO
100
AcDbCircle
 62
253
  6
CONTINUOUS
 10
22.2987170648
 20
128.3733334555
 40
0.7552838276
100
AcDbArc
 50
86.4660102339
 51
90.0099861189
  0
ARC
  5
562
100
AcDbEntity
  8
RACCORDO
100
AcDbCircle
 62
253
  6
CONTINUOUS
 10
25.5929411657
 20
61.0929411657
 40
0.6999862456
100
AcDbArc
 50
0.0075330706
 51
89.9924669294
  0
ARC
  5
563
100
AcDbEntity
  8
RACCORDO
100
AcDbCircle
 62
253
  6
CONTINUOUS
 10
25.5929411657
 20
9.9070588343
 40
0.6999862456
100
AcDbArc
 50
270.0075330706
 51
359.9924669294
  0
ARC
  5
564
100
AcDbEntity
  8
RACCORDO
100
AcDbCircle
 62
253
  6
CONTINUOUS
 10
25.5929411657
 20
132.0929411657
 40
0.6999862456
100
AcDbArc
 50
0.0075330706
 51
89.9924669294
  0
ARC
  5
565
100
AcDbEntity
  8
RACCORDO
100
AcDbCircle
 62
253
  6
CONTINUOUS
 10
25.5929411657
 20
80.9070588343
 40
0.6999862456
100
AcDbArc
 50
270.0075330706
 51
359.9924669294
  0
ARC
  5
566
100
AcDbEntity
  8
RACCORDO
100
AcDbCircle
 62
253
  6
CONTINUOUS
 10
22.3368972152
 20
57.7987517188
 40
0.261642572
100
AcDbArc
 50
359.9635843535
 51
3.7927923362
  0
ARC
  5
567
100
AcDbEntity
  8
RACCORDO
100
AcDbCircle
 62
253
  6
CONTINUOUS
 10
22.2987517188
 20
13.1631027848
 40
0.261642572
100
AcDbArc
 50
269.9635843536
 51
273.7927923361
  0
ARC
  5
568
100
AcDbEntity
  8
RACCORDO
100
AcDbCircle
 62
253
  6
CONTINUOUS
 10
22.3368972152
 20
128.7987517188
 40
0.261642572
100
AcDbArc
 50
359.9635843535
 51
3.7927923363
  0
ARC
  5
569
100
AcDbEntity
  8
RACCORDO
100
AcDbCircle
 62
253
  6
CONTINUOUS
 10
22.2987517188
 20
84.1631027848
 40
0.2616425721
100
AcDbArc
 50
269.9635843536
 51
273.792792336
  0
ARC
  5
56A
100
AcDbEntity
  8
RACCORDO
100
AcDbCircle
 62
253
  6
CONTINUOUS
 10
22.2987648869
 20
57.8372987772
 40
0.2612410189
100
AcDbArc
 50
86.2042636304
 51
90.0393596798
  0
ARC
  5
56B
100
AcDbEntity
  8
RACCORDO
100
AcDbCircle
 62
253
  6
CONTINUOUS
 10
22.3372987772
 20
13.2012351131
 40
0.2612410188
100
AcDbArc
 50
356.2042636303
 51
0.0393596799
  0
ARC
  5
56C
100
AcDbEntity
  8
RACCORDO
100
AcDbCircle
 62
253
  6
CONTINUOUS
 10
22.2987648869
 20
128.8372987772
 40
0.2612410188
100
AcDbArc
 50
86.2042636303
 51
90.03935968
  0
ARC
  5
56D
100
AcDbEntity
  8
RACCORDO
100
AcDbCircle
 62
253
  6
CONTINUOUS
 10
22.3372987772
 20
84.2012351131
 40
0.2612410189
100
AcDbArc
 50
356.2042636304
 51
0.0393596798
  0
ARC
  5
56E
100
AcDbEntity
  8
0
100
AcDbCircle
 62
7
  6
CONTINUOUS
 10
96.0166118707
 20
-81.1
 40
0.2
100
AcDbArc
 50
180.0
 51
210.0
  0
ARC
  5
56F
100
AcDbEntity
  8
0
100
AcDbCircle
 62
7
  6
CONTINUOUS
 10
96.0166118707
 20
-60.9
 40
0.2
100
AcDbArc
 50
150.0
 51
180.0
  0
ARC
  5
570
100
AcDbEntity
  8
0
100
AcDbCircle
 62
7
  6
CONTINUOUS
 10
96.0166118707
 20
-92.4397929133
 40
0.2
100
AcDbArc
 50
93.0
 51
180.0
  0
ARC
  5
571
100
AcDbEntity
  8
0
100
AcDbCircle
 62
7
  6
CONTINUOUS
 10
96.0166118707
 20
-120.5602070867
 40
0.2
100
AcDbArc
 50
180.0
 51
267.0
  0
ARC
  5
572
100
AcDbEntity
  8
0
100
AcDbCircle
 62
7
  6
CONTINUOUS
 10
96.0166118707
 20
-98.0602070867
 40
0.2
100
AcDbArc
 50
180.0
 51
267.0
  0
ARC
  5
573
100
AcDbEntity
  8
0
100
AcDbCircle
 62
7
  6
CONTINUOUS
 10
96.0166118707
 20
-114.9397929133
 40
0.2
100
AcDbArc
 50
93.0
 51
180.0
  0
ARC
  5
574
100
AcDbEntity
  8
0
100
AcDbCircle
 62
7
  6
CONTINUOUS
 10
96.0166118707
 20
-131.9
 40
0.2
100
AcDbArc
 50
90.0
 51
180.0
  0
ARC
  5
575
100
AcDbEntity
  8
0
100
AcDbCircle
 62
7
  6
CONTINUOUS
 10
96.0166118707
 20
-43.9397929133
 40
0.2
100
AcDbArc
 50
93.0
 51
180.0
  0
ARC
  5
576
100
AcDbEntity
  8
0
100
AcDbCircle
 62
7
  6
CONTINUOUS
 10
96.0166118707
 20
-49.5602070867
 40
0.2
100
AcDbArc
 50
180.0
 51
267.0
  0
ARC
  5
577
100
AcDbEntity
  8
0
100
AcDbCircle
 62
7
  6
CONTINUOUS
 10
96.0166118707
 20
-21.4397929133
 40
0.2
100
AcDbArc
 50
93.0
 51
180.0
  0
ARC
  5
578
100
AcDbEntity
  8
0
100
AcDbCircle
 62
7
  6
CONTINUOUS
 10
96.0166118707
 20
-27.0602070867
 40
0.2
100
AcDbArc
 50
180.0
 51
267.0
  0
ARC
  5
579
100
AcDbEntity
  8
0
100
AcDbCircle
 62
7
  6
CONTINUOUS
 10
96.0166118707
 20
-10.1
 40
0.2
100
AcDbArc
 50
180.0
 51
210.0
  0
ARC
  5
57A
100
AcDbEntity
  8
0
100
AcDbCircle
 62
7
  6
CONTINUOUS
 10
96.0166118707
 20
10.1
 40
0.2
100
AcDbArc
 50
150.0
 51
180.0
  0
ARC
  5
57B
100
AcDbEntity
  8
0
100
AcDbCircle
 62
7
  6
CONTINUOUS
 10
96.0166118707
 20
81.1
 40
0.2
100
AcDbArc
 50
150.0
 51
180.0
  0
ARC
  5
57C
100
AcDbEntity
  8
0
100
AcDbCircle
 62
7
  6
CONTINUOUS
 10
96.0166118707
 20
21.4397929133
 40
0.2
100
AcDbArc
 50
180.0
 51
267.0
  0
ARC
  5
57D
100
AcDbEntity
  8
0
100
AcDbCircle
 62
7
  6
CONTINUOUS
 10
96.0166118707
 20
49.5602070867
 40
0.2
100
AcDbArc
 50
93.0
 51
180.0
  0
ARC
  5
57E
100
AcDbEntity
  8
0
100
AcDbCircle
 62
7
  6
CONTINUOUS
 10
96.0166118707
 20
27.0602070867
 40
0.2
100
AcDbArc
 50
93.0
 51
180.0
  0
ARC
  5
57F
100
AcDbEntity
  8
ASSI
100
AcDbCircle
 62
7
  6
CONTINUOUS
 10
96.0166118707
 20
131.9
 40
0.2
100
AcDbArc
 50
180.0
 51
270.0
  0
ARC
  5
580
100
AcDbEntity
  8
0
100
AcDbCircle
 62
7
  6
CONTINUOUS
 10
96.0166118707
 20
43.9397929133
 40
0.2
100
AcDbArc
 50
180.0
 51
267.0
  0
ARC
  5
581
100
AcDbEntity
  8
0
100
AcDbCircle
 62
7
  6
CONTINUOUS
 10
96.0166118707
 20
60.9
 40
0.2
100
AcDbArc
 50
180.0
 51
210.0
  0
ARC
  5
582
100
AcDbEntity
  8
0
100
AcDbCircle
 62
7
  6
CONTINUOUS
 10
96.0166118707
 20
114.9397929133
 40
0.2
100
AcDbArc
 50
180.0
 51
267.0
  0
ARC
  5
583
100
AcDbEntity
  8
0
100
AcDbCircle
 62
7
  6
CONTINUOUS
 10
96.0166118707
 20
120.5602070867
 40
0.2
100
AcDbArc
 50
93.0
 51
180.0
  0
ARC
  5
584
100
AcDbEntity
  8
0
100
AcDbCircle
 62
7
  6
CONTINUOUS
 10
96.0166118707
 20
92.4397929133
 40
0.2
100
AcDbArc
 50
180.0
 51
267.0
  0
ARC
  5
585
100
AcDbEntity
  8
0
100
AcDbCircle
 62
7
  6
CONTINUOUS
 10
96.0166118707
 20
98.0602070867
 40
0.2
100
AcDbArc
 50
93.0
 51
180.0
  0
ARC
  5
586
100
AcDbEntity
  8
RACCORDO
100
AcDbCircle
 62
7
  6
CONTINUOUS
 10
105.5166118707
 20
-9.5070277244
 40
0.3
100
AcDbArc
 50
0.0
 51
89.0
  0
ARC
  5
587
100
AcDbEntity
  8
RACCORDO
100
AcDbCircle
 62
7
  6
CONTINUOUS
 10
105.5166118707
 20
-61.4929722756
 40
0.3
100
AcDbArc
 50
271.0
 51
360.0
  0
ARC
  5
588
100
AcDbEntity
  8
RACCORDO
100
AcDbCircle
 62
7
  6
CONTINUOUS
 10
105.5166118707
 20
-80.5070277244
 40
0.3
100
AcDbArc
 50
0.0
 51
89.0
  0
ARC
  5
589
100
AcDbEntity
  8
RACCORDO
100
AcDbCircle
 62
7
  6
CONTINUOUS
 10
105.5166118707
 20
-132.4929722756
 40
0.3
100
AcDbArc
 50
271.0
 51
360.0
  0
ARC
  5
58A
100
AcDbEntity
  8
RACCORDO
100
AcDbCircle
 62
7
  6
CONTINUOUS
 10
105.5166118707
 20
61.4929722756
 40
0.3
100
AcDbArc
 50
0.0
 51
89.0
  0
ARC
  5
58B
100
AcDbEntity
  8
RACCORDO
100
AcDbCircle
 62
7
  6
CONTINUOUS
 10
105.5166118707
 20
9.5070277244
 40
0.3
100
AcDbArc
 50
271.0
 51
360.0
  0
ARC
  5
58C
100
AcDbEntity
  8
RACCORDO
100
AcDbCircle
 62
7
  6
CONTINUOUS
 10
105.5166118707
 20
132.4929722756
 40
0.3
100
AcDbArc
 50
0.0
 51
89.0
  0
ARC
  5
58D
100
AcDbEntity
  8
RACCORDO
100
AcDbCircle
 62
7
  6
CONTINUOUS
 10
105.5166118707
 20
80.5070277244
 40
0.3
100
AcDbArc
 50
271.0
 51
360.0
  0
SPLINE
  5
58E
100
AcDbEntity
  8
RACCORDO
100
AcDbSpline
 62
253
  6
CONTINUOUS
 70
0
 71
3
 72
9
 73
5
 74
3
 42
0.0000001
 43
0.0000001
 44
0.0000000001
 12
0.0423976482
 22
0.0021313418
 32
0.0
 13
0.0197976219
 23
0.037552062
 33
0.0
 40
0.0
 40
0.0
 40
0.0
 40
0.0
 40
0.3847352126
 40
1.0
 40
1.0
 40
1.0
 40
1.0
 10
22.3160589024
 20
-12.9020340896
 30
0.0
 10
22.3214961918
 20
-12.9017607555
 30
0.0
 10
22.3342584906
 20
-12.8926940185
 30
0.0
 10
22.3412129949
 20
-12.8805155707
 30
0.0
 10
22.3452732547
 20
-12.8728140836
 30
0.0
 11
22.3160589024
 21
-12.9020340896
 31
0.0
 11
22.3304567267
 21
-12.8943235704
 31
0.0
 11
22.3452732547
 21
-12.8728140836
 31
0.0
  0
SPLINE
  5
58F
100
AcDbEntity
  8
RACCORDO
100
AcDbSpline
 62
253
  6
CONTINUOUS
 70
0
 71
3
 72
9
 73
5
 74
3
 42
0.0000001
 43
0.0000001
 44
0.0000000001
 12
0.0021270596
 22
0.0423943008
 32
0.0
 13
0.0375491867
 23
0.0197954465
 33
0.0
 40
0.0
 40
0.0
 40
0.0
 40
0.0
 40
0.3847717293
 40
1.0
 40
1.0
 40
1.0
 40
1.0
 10
22.5979665987
 20
-13.1839410573
 30
0.0
 10
22.5982394095
 20
-13.1785036811
 30
0.0
 10
22.6073025503
 20
-13.1657405717
 30
0.0
 10
22.619480477
 20
-13.1587863185
 30
0.0
 10
22.6271809174
 20
-13.1547267457
 30
0.0
 11
22.5979665987
 21
-13.1839410573
 31
0.0
 11
22.605675032
 21
-13.1695419108
 31
0.0
 11
22.6271809174
 21
-13.1547267457
 31
0.0
  0
SPLINE
  5
590
100
AcDbEntity
  8
RACCORDO
100
AcDbSpline
 62
253
  6
CONTINUOUS
 70
0
 71
3
 72
9
 73
5
 74
3
 42
0.0000001
 43
0.0000001
 44
0.0000000001
 12
0.0021313418
 22
-0.0423976482
 32
0.0
 13
0.037552062
 23
-0.0197976219
 33
0.0
 40
0.0
 40
0.0
 40
0.0
 40
0.0
 40
0.3847352126
 40
1.0
 40
1.0
 40
1.0
 40
1.0
 10
22.5979659104
 20
-57.8160589024
 30
0.0
 10
22.5982392445
 20
-57.8214961918
 30
0.0
 10
22.6073059815
 20
-57.8342584906
 30
0.0
 10
22.6194844293
 20
-57.8412129949
 30
0.0
 10
22.6271859164
 20
-57.8452732547
 30
0.0
 11
22.5979659104
 21
-57.8160589024
 31
0.0
 11
22.6056764296
 21
-57.8304567267
 31
0.0
 11
22.6271859164
 21
-57.8452732547
 31
0.0
  0
SPLINE
  5
591
100
AcDbEntity
  8
RACCORDO
100
AcDbSpline
 62
253
  6
CONTINUOUS
 70
0
 71
3
 72
9
 73
5
 74
3
 42
0.0000001
 43
0.0000001
 44
0.0000000001
 12
0.0423943008
 22
-0.0021270596
 32
0.0
 13
0.0197954465
 23
-0.0375491867
 33
0.0
 40
0.0
 40
0.0
 40
0.0
 40
0.0
 40
0.3847717293
 40
1.0
 40
1.0
 40
1.0
 40
1.0
 10
22.3160589427
 20
-58.0979665987
 30
0.0
 10
22.3214963189
 20
-58.0982394095
 30
0.0
 10
22.3342594283
 20
-58.1073025503
 30
0.0
 10
22.3412136815
 20
-58.119480477
 30
0.0
 10
22.3452732543
 20
-58.1271809174
 30
0.0
 11
22.3160589427
 21
-58.0979665987
 31
0.0
 11
22.3304580892
 21
-58.105675032
 31
0.0
 11
22.3452732543
 21
-58.1271809174
 31
0.0
  0
SPLINE
  5
592
100
AcDbEntity
  8
RACCORDO
100
AcDbSpline
 62
253
  6
CONTINUOUS
 70
0
 71
3
 72
9
 73
5
 74
3
 42
0.0000001
 43
0.0000001
 44
0.0000000001
 12
-0.0423976482
 22
-0.0021313418
 32
0.0
 13
-0.0197976219
 23
-0.037552062
 33
0.0
 40
0.0
 40
0.0
 40
0.0
 40
0.0
 40
0.3847352126
 40
1.0
 40
1.0
 40
1.0
 40
1.0
 10
-22.3160589024
 20
-58.0979659104
 30
0.0
 10
-22.3214961918
 20
-58.0982392445
 30
0.0
 10
-22.3342584906
 20
-58.1073059815
 30
0.0
 10
-22.3412129949
 20
-58.1194844293
 30
0.0
 10
-22.3452732547
 20
-58.1271859164
 30
0.0
 11
-22.3160589024
 21
-58.0979659104
 31
0.0
 11
-22.3304567267
 21
-58.1056764296
 31
0.0
 11
-22.3452732547
 21
-58.1271859164
 31
0.0
  0
SPLINE
  5
593
100
AcDbEntity
  8
RACCORDO
100
AcDbSpline
 62
253
  6
CONTINUOUS
 70
0
 71
3
 72
9
 73
5
 74
3
 42
0.0000001
 43
0.0000001
 44
0.0000000001
 12
-0.0021270596
 22
-0.0423943008
 32
0.0
 13
-0.0375491867
 23
-0.0197954465
 33
0.0
 40
0.0
 40
0.0
 40
0.0
 40
0.0
 40
0.3847717293
 40
1.0
 40
1.0
 40
1.0
 40
1.0
 10
-22.5979665987
 20
-57.8160589427
 30
0.0
 10
-22.5982394095
 20
-57.8214963189
 30
0.0
 10
-22.6073025503
 20
-57.8342594283
 30
0.0
 10
-22.619480477
 20
-57.8412136815
 30
0.0
 10
-22.6271809174
 20
-57.8452732543
 30
0.0
 11
-22.5979665987
 21
-57.8160589427
 31
0.0
 11
-22.605675032
 21
-57.8304580892
 31
0.0
 11
-22.6271809174
 21
-57.8452732543
 31
0.0
  0
SPLINE
  5
594
100
AcDbEntity
  8
RACCORDO
100
AcDbSpline
 62
253
  6
CONTINUOUS
 70
0
 71
3
 72
9
 73
5
 74
3
 42
0.0000001
 43
0.0000001
 44
0.0000000001
 12
-0.0021276964
 22
0.0423951815
 32
0.0
 13
-0.0375503771
 23
0.019795143
 33
0.0
 40
0.0
 40
0.0
 40
0.0
 40
0.0
 40
0.3847699139
 40
1.0
 40
1.0
 40
1.0
 40
1.0
 10
-22.5979665783
 20
-13.1839410585
 30
0.0
 10
-22.5982394695
 20
-13.178503595
 30
0.0
 10
-22.607303136
 20
-13.1657404049
 30
0.0
 10
-22.6194814463
 20
-13.1587862678
 30
0.0
 10
-22.6271821536
 20
-13.1547267452
 30
0.0
 11
-22.5979665783
 21
-13.1839410585
 31
0.0
 11
-22.6056754383
 21
-13.1695418299
 31
0.0
 11
-22.6271821536
 21
-13.1547267452
 31
0.0
  0
SPLINE
  5
595
100
AcDbEntity
  8
RACCORDO
100
AcDbSpline
 62
253
  6
CONTINUOUS
 70
0
 71
3
 72
9
 73
5
 74
3
 42
0.0000001
 43
0.0000001
 44
0.0000000001
 12
-0.0423952029
 22
0.002125971
 32
0.0
 13
-0.0197954014
 23
0.0375501673
 33
0.0
 40
0.0
 40
0.0
 40
0.0
 40
0.0
 40
0.384766998
 40
1.0
 40
1.0
 40
1.0
 40
1.0
 10
-22.3160586523
 20
-12.9020383978
 30
0.0
 10
-22.3214960773
 20
-12.9017657299
 30
0.0
 10
-22.3342595021
 20
-12.8927022499
 30
0.0
 10
-22.3412136612
 20
-12.8805239949
 30
0.0
 10
-22.3452732559
 20
-12.8728232942
 30
0.0
 11
-22.3160586523
 21
-12.9020383978
 31
0.0
 11
-22.3304579301
 21
-12.894329945
 31
0.0
 11
-22.3452732559
 21
-12.8728232942
 31
0.0
  0
SPLINE
  5
596
100
AcDbEntity
  8
RACCORDO
100
AcDbSpline
 62
253
  6
CONTINUOUS
 70
0
 71
3
 72
11
 73
7
 74
5
 42
0.0000001
 43
0.0000001
 44
0.0000000001
 12
0.4580212004
 22
0.043317967
 32
0.0
 13
-0.0434492328
 23
-0.4580087668
 33
0.0
 40
0.0
 40
0.0
 40
0.0
 40
0.0
 40
0.2481655321
 40
0.4999968063
 40
0.7518254935
 40
1.0
 40
1.0
 40
1.0
 40
1.0
 10
22.8650075502
 20
-12.3530953432
 30
0.0
 10
22.9028959085
 20
-12.3495120011
 30
0.0
 10
22.9814890065
 20
-12.3543398881
 30
0.0
 10
23.0865679023
 20
-12.4134395254
 30
0.0
 10
23.1456431893
 20
-12.5185221388
 30
0.0
 10
23.150498114
 20
-12.5971165319
 30
0.0
 10
23.1469037834
 20
-12.6350052318
 30
0.0
 11
22.8650075502
 21
-12.3530953432
 31
0.0
 11
22.9787668542
 21
-12.3627975634
 31
0.0
 11
23.0788634277
 21
-12.4211407812
 31
0.0
 11
23.1371958447
 21
-12.5212422718
 31
0.0
 11
23.1469037834
 21
-12.6350052318
 31
0.0
  0
SPLINE
  5
597
100
AcDbEntity
  8
RACCORDO
100
AcDbSpline
 62
253
  6
CONTINUOUS
 70
0
 71
3
 72
11
 73
7
 74
5
 42
0.0000001
 43
0.0000001
 44
0.0000000001
 12
0.0082756578
 22
0.445261122
 32
0.0
 13
-0.4452533212
 23
-0.0086852307
 33
0.0
 40
0.0
 40
0.0
 40
0.0
 40
0.0
 40
0.2501115952
 40
0.4999997138
 40
0.7498866439
 40
1.0
 40
1.0
 40
1.0
 40
1.0
 10
22.6271810694
 20
-13.1546933317
 30
0.0
 10
22.6278710154
 20
-13.1175716752
 30
0.0
 10
22.616235605
 20
-13.0421678083
 30
0.0
 10
22.5547871486
 20
-12.9451852391
 30
0.0
 10
22.4577998135
 20
-12.8837756545
 30
0.0
 10
22.3823945226
 20
-12.8720948621
 30
0.0
 10
22.3452732551
 20
-12.8728189595
 30
0.0
 11
22.6271810694
 21
-13.1546933317
 31
0.0
 11
22.608889748
 21
-13.0448212778
 31
0.0
 11
22.5488656844
 21
-12.9511121968
 31
0.0
 11
22.4551471771
 21
-12.8911038337
 31
0.0
 11
22.3452732551
 21
-12.8728189595
 31
0.0
  0
SPLINE
  5
598
100
AcDbEntity
  8
RACCORDO
100
AcDbSpline
 62
253
  6
CONTINUOUS
 70
0
 71
3
 72
11
 73
7
 74
5
 42
0.0000001
 43
0.0000001
 44
0.0000000001
 12
-0.0285988121
 22
0.4317179711
 32
0.0
 13
-0.4317195567
 23
0.0285748665
 33
0.0
 40
0.0
 40
0.0
 40
0.0
 40
0.0
 40
0.2444838109
 40
0.499998308
 40
0.755509181
 40
1.0
 40
1.0
 40
1.0
 40
1.0
 10
22.597966737
 20
-13.1839410492
 30
0.0
 10
22.5956360882
 20
-13.1487583643
 30
0.0
 10
22.5778052196
 20
-13.0770636689
 30
0.0
 10
22.5146028749
 20
-12.9853986241
 30
0.0
 10
22.4229382297
 20
-12.9221948954
 30
0.0
 10
22.3512427734
 20
-12.9043620272
 30
0.0
 10
22.3160589508
 20
-12.902033263
 30
0.0
 11
22.597966737
 21
-13.1839410492
 31
0.0
 11
22.5724612152
 21
-13.081282647
 31
0.0
 11
22.509789682
 21
-12.9902111505
 31
0.0
 11
22.4187203731
 21
-12.9275392045
 31
0.0
 11
22.3160589508
 21
-12.902033263
 31
0.0
  0
SPLINE
  5
599
100
AcDbEntity
  8
RACCORDO
100
AcDbSpline
 62
253
  6
CONTINUOUS
 70
0
 71
3
 72
11
 73
7
 74
5
 42
0.0000001
 43
0.0000001
 44
0.0000000001
 12
-0.0000498599
 22
-0.6210287275
 32
0.0
 13
-0.6210287244
 23
-0.0000791702
 33
0.0
 40
0.0
 40
0.0
 40
0.0
 40
0.0
 40
0.2500058224
 40
0.5000008131
 40
0.7499857999
 40
1.0
 40
1.0
 40
1.0
 40
1.0
 10
25.9929722756
 20
-61.0930331976
 30
0.0
 10
25.9929681205
 20
-61.1447867968
 30
0.0
 10
25.9723791901
 20
-61.2493959599
 30
0.0
 10
25.8842594741
 20
-61.3819688706
 30
0.0
 10
25.7524601032
 20
-61.4708800259
 30
0.0
 10
25.6480176665
 20
-61.4929656777
 30
0.0
 10
25.5962623332
 20
-61.4929722756
 30
0.0
 11
25.9929722756
 21
-61.0930331976
 31
0.0
 11
25.9628386421
 21
-61.245341699
 31
0.0
 11
25.8769784639
 21
-61.3746933766
 31
0.0
 11
25.7483218086
 21
-61.4615804452
 31
0.0
 11
25.5962623332
 21
-61.4929722756
 31
0.0
  0
SPLINE
  5
59A
100
AcDbEntity
  8
RACCORDO
100
AcDbSpline
 62
253
  6
CONTINUOUS
 70
0
 71
3
 72
11
 73
7
 74
5
 42
0.0000001
 43
0.0000001
 44
0.0000000001
 12
0.043317967
 22
-0.4580212004
 32
0.0
 13
-0.4580087668
 23
0.0434492328
 33
0.0
 40
0.0
 40
0.0
 40
0.0
 40
0.0
 40
0.2481655321
 40
0.4999968063
 40
0.7518254935
 40
1.0
 40
1.0
 40
1.0
 40
1.0
 10
23.1469046568
 20
-58.3650075502
 30
0.0
 10
23.1504879989
 20
-58.4028959085
 30
0.0
 10
23.1456601119
 20
-58.4814890065
 30
0.0
 10
23.0865604746
 20
-58.5865679023
 30
0.0
 10
22.9814778612
 20
-58.6456431893
 30
0.0
 10
22.9028834681
 20
-58.650498114
 30
0.0
 10
22.8649947682
 20
-58.6469037834
 30
0.0
 11
23.1469046568
 21
-58.3650075502
 31
0.0
 11
23.1372024366
 21
-58.4787668542
 31
0.0
 11
23.0788592188
 21
-58.5788634277
 31
0.0
 11
22.9787577282
 21
-58.6371958447
 31
0.0
 11
22.8649947682
 21
-58.6469037834
 31
0.0
  0
SPLINE
  5
59B
100
AcDbEntity
  8
RACCORDO
100
AcDbSpline
 62
253
  6
CONTINUOUS
 70
0
 71
3
 72
11
 73
7
 74
5
 42
0.0000001
 43
0.0000001
 44
0.0000000001
 12
0.445261122
 22
-0.0082756578
 32
0.0
 13
-0.0086852307
 23
0.4452533212
 33
0.0
 40
0.0
 40
0.0
 40
0.0
 40
0.0
 40
0.2501115952
 40
0.4999997138
 40
0.7498866439
 40
1.0
 40
1.0
 40
1.0
 40
1.0
 10
22.3453066683
 20
-58.1271810694
 30
0.0
 10
22.3824283248
 20
-58.1278710154
 30
0.0
 10
22.4578321917
 20
-58.116235605
 30
0.0
 10
22.5548147609
 20
-58.0547871486
 30
0.0
 10
22.6162243455
 20
-57.9577998135
 30
0.0
 10
22.6279051379
 20
-57.8823945226
 30
0.0
 10
22.6271810405
 20
-57.8452732551
 30
0.0
 11
22.3453066683
 21
-58.1271810694
 31
0.0
 11
22.4551787222
 21
-58.108889748
 31
0.0
 11
22.5488878032
 21
-58.0488656844
 31
0.0
 11
22.6088961663
 21
-57.9551471771
 31
0.0
 11
22.6271810405
 21
-57.8452732551
 31
0.0
  0
SPLINE
  5
59C
100
AcDbEntity
  8
RACCORDO
100
AcDbSpline
 62
253
  6
CONTINUOUS
 70
0
 71
3
 72
11
 73
7
 74
5
 42
0.0000001
 43
0.0000001
 44
0.0000000001
 12
0.4317179711
 22
0.0285988121
 32
0.0
 13
0.0285748665
 23
0.4317195567
 33
0.0
 40
0.0
 40
0.0
 40
0.0
 40
0.0
 40
0.2444838109
 40
0.499998308
 40
0.755509181
 40
1.0
 40
1.0
 40
1.0
 40
1.0
 10
22.3160589508
 20
-58.097966737
 30
0.0
 10
22.3512416357
 20
-58.0956360882
 30
0.0
 10
22.4229363311
 20
-58.0778052196
 30
0.0
 10
22.5146013759
 20
-58.0146028749
 30
0.0
 10
22.5778051046
 20
-57.9229382297
 30
0.0
 10
22.5956379728
 20
-57.8512427734
 30
0.0
 10
22.597966737
 20
-57.8160589508
 30
0.0
 11
22.3160589508
 21
-58.097966737
 31
0.0
 11
22.418717353
 21
-58.0724612152
 31
0.0
 11
22.5097888495
 21
-58.009789682
 31
0.0
 11
22.5724607955
 21
-57.9187203731
 31
0.0
 11
22.597966737
 21
-57.8160589508
 31
0.0
  0
SPLINE
  5
59D
100
AcDbEntity
  8
RACCORDO
100
AcDbSpline
 62
253
  6
CONTINUOUS
 70
0
 71
3
 72
11
 73
7
 74
5
 42
0.0000001
 43
0.0000001
 44
0.0000000001
 12
-0.431719563
 22
-0.0285747494
 32
0.0
 13
-0.0285985182
 23
-0.4317179891
 33
0.0
 40
0.0
 40
0.0
 40
0.0
 40
0.0
 40
0.2444907312
 40
0.5000016615
 40
0.7555160952
 40
1.0
 40
1.0
 40
1.0
 40
1.0
 10
-22.3160589508
 20
-12.902033263
 30
0.0
 10
-22.3512427613
 20
-12.9043620168
 30
0.0
 10
-22.4229382061
 20
-12.9221949093
 30
0.0
 10
-22.5146028582
 20
-12.9853986
 30
0.0
 10
-22.5778052094
 20
-13.0770636503
 30
0.0
 10
-22.5956361112
 20
-13.1487583493
 30
0.0
 10
-22.597966737
 20
-13.1839410492
 30
0.0
 11
-22.3160589508
 21
-12.902033263
 31
0.0
 11
-22.4187203351
 21
-12.9275391981
 31
0.0
 11
-22.5097896745
 21
-12.990211143
 31
0.0
 11
-22.5724612039
 21
-13.0812826083
 31
0.0
 11
-22.597966737
 21
-13.1839410492
 31
0.0
  0
SPLINE
  5
59E
100
AcDbEntity
  8
RACCORDO
100
AcDbSpline
 62
253
  6
CONTINUOUS
 70
0
 71
3
 72
11
 73
7
 74
5
 42
0.0000001
 43
0.0000001
 44
0.0000000001
 12
-0.6210287368
 22
0.0000498599
 32
0.0
 13
-0.0000791702
 23
0.6210287338
 33
0.0
 40
0.0
 40
0.0
 40
0.0
 40
0.0
 40
0.2500058224
 40
0.5000008131
 40
0.7499857999
 40
1.0
 40
1.0
 40
1.0
 40
1.0
 10
-25.5930331976
 20
-61.4929722756
 30
0.0
 10
-25.6447867976
 20
-61.4929681205
 30
0.0
 10
-25.7493959624
 20
-61.4723791895
 30
0.0
 10
-25.8819688741
 20
-61.3842594708
 30
0.0
 10
-25.9708800297
 20
-61.2524600966
 30
0.0
 10
-25.9929656777
 20
-61.1480176577
 30
0.0
 10
-25.9929722756
 20
-61.0962623237
 30
0.0
 11
-25.5930331976
 21
-61.4929722756
 31
0.0
 11
-25.7453417012
 21
-61.4628386412
 31
0.0
 11
-25.87469338
 21
-61.3769784606
 31
0.0
 11
-25.961580448
 21
-61.248321802
 31
0.0
 11
-25.9929722756
 21
-61.0962623237
 31
0.0
  0
SPLINE
  5
59F
100
AcDbEntity
  8
RACCORDO
100
AcDbSpline
 62
253
  6
CONTINUOUS
 70
0
 71
3
 72
11
 73
7
 74
5
 42
0.0000001
 43
0.0000001
 44
0.0000000001
 12
-0.0434494719
 22
0.4580087334
 32
0.0
 13
0.4580211454
 23
-0.0433184355
 33
0.0
 40
0.0
 40
0.0
 40
0.0
 40
0.0
 40
0.248174496
 40
0.5000031929
 40
0.7518344432
 40
1.0
 40
1.0
 40
1.0
 40
1.0
 10
-23.1469037748
 20
-12.6350053575
 30
0.0
 10
-23.1504981251
 20
-12.597116662
 30
0.0
 10
-23.1456432288
 20
-12.5185222727
 30
0.0
 10
-23.0865680095
 20
-12.4134396185
 30
0.0
 10
-22.9814891423
 20
-12.3543399727
 30
0.0
 10
-22.9028960419
 20
-12.3495119528
 30
0.0
 10
-22.8650076844
 20
-12.353095334
 30
0.0
 11
-23.1469037748
 21
-12.6350053575
 31
0.0
 11
-23.1371958886
 21
-12.5212424006
 31
0.0
 11
-23.0788635255
 21
-12.4211408765
 31
0.0
 11
-22.9787669917
 21
-12.3627976177
 31
0.0
 11
-22.8650076844
 21
-12.353095334
 31
0.0
  0
SPLINE
  5
5A0
100
AcDbEntity
  8
RACCORDO
100
AcDbSpline
 62
253
  6
CONTINUOUS
 70
0
 71
3
 72
11
 73
7
 74
5
 42
0.0000001
 43
0.0000001
 44
0.0000000001
 12
-0.4452532521
 22
0.0086830778
 32
0.0
 13
0.0082773346
 23
-0.4452609797
 33
0.0
 40
0.0
 40
0.0
 40
0.0
 40
0.0
 40
0.2501133591
 40
0.5000002957
 40
0.749888392
 40
1.0
 40
1.0
 40
1.0
 40
1.0
 10
-22.345273254
 20
-12.8728189595
 30
0.0
 10
-22.3823945162
 20
-12.8720950416
 30
0.0
 10
-22.4577997806
 20
-12.8837755475
 30
0.0
 10
-22.5547871256
 20
-12.9451852212
 30
0.0
 10
-22.6162354615
 20
-13.0421677324
 30
0.0
 10
-22.6278711553
 20
-13.1175715773
 30
0.0
 10
-22.6271810695
 20
-13.1546932239
 30
0.0
 11
-22.345273254
 21
-12.8728189595
 31
0.0
 11
-22.4551471526
 21
-12.8911038133
 31
0.0
 11
-22.5488656427
 21
-12.9511121571
 31
0.0
 11
-22.6088896937
 21
-13.0448212014
 31
0.0
 11
-22.6271810695
 21
-13.1546932239
 31
0.0
  0
SPLINE
  5
5A1
100
AcDbEntity
  8
RACCORDO
100
AcDbSpline
 62
253
  6
CONTINUOUS
 70
0
 71
3
 72
11
 73
7
 74
5
 42
0.0000001
 43
0.0000001
 44
0.0000000001
 12
-0.4580212004
 22
-0.043317967
 32
0.0
 13
0.0434492328
 23
0.4580087668
 33
0.0
 40
0.0
 40
0.0
 40
0.0
 40
0.0
 40
0.2481655321
 40
0.4999968063
 40
0.7518254935
 40
1.0
 40
1.0
 40
1.0
 40
1.0
 10
-22.8650075502
 20
-58.6469046568
 30
0.0
 10
-22.9028959085
 20
-58.6504879989
 30
0.0
 10
-22.9814890065
 20
-58.6456601119
 30
0.0
 10
-23.0865679023
 20
-58.5865604746
 30
0.0
 10
-23.1456431893
 20
-58.4814778612
 30
0.0
 10
-23.150498114
 20
-58.4028834681
 30
0.0
 10
-23.1469037834
 20
-58.3649947682
 30
0.0
 11
-22.8650075502
 21
-58.6469046568
 31
0.0
 11
-22.9787668542
 21
-58.6372024366
 31
0.0
 11
-23.0788634277
 21
-58.5788592188
 31
0.0
 11
-23.1371958447
 21
-58.4787577282
 31
0.0
 11
-23.1469037834
 21
-58.3649947682
 31
0.0
  0
SPLINE
  5
5A2
100
AcDbEntity
  8
RACCORDO
100
AcDbSpline
 62
253
  6
CONTINUOUS
 70
0
 71
3
 72
11
 73
7
 74
5
 42
0.0000001
 43
0.0000001
 44
0.0000000001
 12
-0.0082756578
 22
-0.445261122
 32
0.0
 13
0.4452533212
 23
0.0086852307
 33
0.0
 40
0.0
 40
0.0
 40
0.0
 40
0.0
 40
0.2501115952
 40
0.4999997138
 40
0.7498866439
 40
1.0
 40
1.0
 40
1.0
 40
1.0
 10
-22.6271810694
 20
-57.8453066683
 30
0.0
 10
-22.6278710154
 20
-57.8824283248
 30
0.0
 10
-22.616235605
 20
-57.9578321917
 30
0.0
 10
-22.5547871486
 20
-58.0548147609
 30
0.0
 10
-22.4577998135
 20
-58.1162243455
 30
0.0
 10
-22.3823945226
 20
-58.1279051379
 30
0.0
 10
-22.3452732551
 20
-58.1271810405
 30
0.0
 11
-22.6271810694
 21
-57.8453066683
 31
0.0
 11
-22.608889748
 21
-57.9551787222
 31
0.0
 11
-22.5488656844
 21
-58.0488878032
 31
0.0
 11
-22.4551471771
 21
-58.1088961663
 31
0.0
 11
-22.3452732551
 21
-58.1271810405
 31
0.0
  0
SPLINE
  5
5A3
100
AcDbEntity
  8
RACCORDO
100
AcDbSpline
 62
253
  6
CONTINUOUS
 70
0
 71
3
 72
11
 73
7
 74
5
 42
0.0000001
 43
0.0000001
 44
0.0000000001
 12
0.0285988121
 22
-0.4317179711
 32
0.0
 13
0.4317195567
 23
-0.0285748665
 33
0.0
 40
0.0
 40
0.0
 40
0.0
 40
0.0
 40
0.2444838109
 40
0.499998308
 40
0.755509181
 40
1.0
 40
1.0
 40
1.0
 40
1.0
 10
-22.597966737
 20
-57.8160589508
 30
0.0
 10
-22.5956360882
 20
-57.8512416357
 30
0.0
 10
-22.5778052196
 20
-57.9229363311
 30
0.0
 10
-22.5146028749
 20
-58.0146013759
 30
0.0
 10
-22.4229382297
 20
-58.0778051046
 30
0.0
 10
-22.3512427734
 20
-58.0956379728
 30
0.0
 10
-22.3160589508
 20
-58.097966737
 30
0.0
 11
-22.597966737
 21
-57.8160589508
 31
0.0
 11
-22.5724612152
 21
-57.918717353
 31
0.0
 11
-22.509789682
 21
-58.0097888495
 31
0.0
 11
-22.4187203731
 21
-58.0724607955
 31
0.0
 11
-22.3160589508
 21
-58.097966737
 31
0.0
  0
SPLINE
  5
5A4
100
AcDbEntity
  8
RACCORDO
100
AcDbSpline
 62
253
  6
CONTINUOUS
 70
0
 71
3
 72
11
 73
7
 74
5
 42
0.0000001
 43
0.0000001
 44
0.0000000001
 12
0.0000157207
 22
-0.8843607793
 32
0.0
 13
-0.8843607788
 23
0.0000318597
 33
0.0
 40
0.0
 40
0.0
 40
0.0
 40
0.0
 40
0.2501538446
 40
0.5000000678
 40
0.7498449811
 40
1.0
 40
1.0
 40
1.0
 40
1.0
 10
23.4288116597
 20
-58.3649960872
 30
0.0
 10
23.4288129706
 20
-58.4387381702
 30
0.0
 10
23.4023630661
 20
-58.5878906947
 30
0.0
 10
23.278634984
 20
-58.7786325166
 30
0.0
 10
23.087882494
 20
-58.9023202085
 30
0.0
 10
22.9387385164
 20
-58.9288143163
 30
0.0
 10
22.8649960872
 20
-58.9288116597
 30
0.0
 11
23.4288116597
 21
-58.3649960872
 31
0.0
 11
23.3883164079
 21
-58.5824844497
 31
0.0
 11
23.267468617
 21
-58.7674616652
 31
0.0
 11
23.0824807916
 21
-58.888291096
 31
0.0
 11
22.8649960872
 21
-58.9288116597
 31
0.0
  0
SPLINE
  5
5A5
100
AcDbEntity
  8
RACCORDO
100
AcDbSpline
 62
253
  6
CONTINUOUS
 70
0
 71
3
 72
11
 73
7
 74
5
 42
0.0000001
 43
0.0000001
 44
0.0000000001
 12
0.8843607793
 22
0.0000157207
 32
0.0
 13
-0.0000318597
 23
-0.8843607788
 33
0.0
 40
0.0
 40
0.0
 40
0.0
 40
0.0
 40
0.2501538446
 40
0.5000000678
 40
0.7498449811
 40
1.0
 40
1.0
 40
1.0
 40
1.0
 10
22.8649960872
 20
-12.0711883403
 30
0.0
 10
22.9387381702
 20
-12.0711870294
 30
0.0
 10
23.0878906947
 20
-12.0976369339
 30
0.0
 10
23.2786325166
 20
-12.221365016
 30
0.0
 10
23.4023202085
 20
-12.412117506
 30
0.0
 10
23.4288143163
 20
-12.5612614836
 30
0.0
 10
23.4288116597
 20
-12.6350039128
 30
0.0
 11
22.8649960872
 21
-12.0711883403
 31
0.0
 11
23.0824844497
 21
-12.1116835921
 31
0.0
 11
23.2674616652
 21
-12.232531383
 31
0.0
 11
23.388291096
 21
-12.4175192084
 31
0.0
 11
23.4288116597
 21
-12.6350039128
 31
0.0
  0
SPLINE
  5
5A6
100
AcDbEntity
  8
RACCORDO
100
AcDbSpline
 62
253
  6
CONTINUOUS
 70
0
 71
3
 72
11
 73
7
 74
5
 42
0.0000001
 43
0.0000001
 44
0.0000000001
 12
-0.0000310851
 22
0.8843607931
 32
0.0
 13
0.8843607935
 23
-0.0000166958
 33
0.0
 40
0.0
 40
0.0
 40
0.0
 40
0.0
 40
0.2501550041
 40
0.4999999352
 40
0.7498461618
 40
1.0
 40
1.0
 40
1.0
 40
1.0
 10
-23.4288116597
 20
-12.6350039128
 30
0.0
 10
-23.4288142517
 20
-12.5612614868
 30
0.0
 10
-23.402320283
 20
-12.4121175
 30
0.0
 10
-23.278632518
 20
-12.221365001
 30
0.0
 10
-23.0878906963
 20
-12.0976369798
 30
0.0
 10
-22.9387381695
 20
-12.0711869481
 30
0.0
 10
-22.8649960872
 20
-12.0711883403
 30
0.0
 11
-23.4288116597
 21
-12.6350039128
 31
0.0
 11
-23.3882911272
 21
-12.4175192123
 31
0.0
 11
-23.2674616758
 21
-12.2325313773
 31
0.0
 11
-23.0824844471
 21
-12.1116835945
 31
0.0
 11
-22.8649960872
 21
-12.0711883403
 31
0.0
  0
SPLINE
  5
5A7
100
AcDbEntity
  8
RACCORDO
100
AcDbSpline
 62
253
  6
CONTINUOUS
 70
0
 71
3
 72
11
 73
7
 74
5
 42
0.0000001
 43
0.0000001
 44
0.0000000001
 12
-0.8843607793
 22
-0.0000157207
 32
0.0
 13
0.0000318597
 23
0.8843607788
 33
0.0
 40
0.0
 40
0.0
 40
0.0
 40
0.0
 40
0.2501538446
 40
0.5000000678
 40
0.7498449811
 40
1.0
 40
1.0
 40
1.0
 40
1.0
 10
-22.8649960872
 20
-58.9288116597
 30
0.0
 10
-22.9387381702
 20
-58.9288129706
 30
0.0
 10
-23.0878906947
 20
-58.9023630661
 30
0.0
 10
-23.2786325166
 20
-58.778634984
 30
0.0
 10
-23.4023202085
 20
-58.587882494
 30
0.0
 10
-23.4288143163
 20
-58.4387385164
 30
0.0
 10
-23.4288116597
 20
-58.3649960872
 30
0.0
 11
-22.8649960872
 21
-58.9288116597
 31
0.0
 11
-23.0824844497
 21
-58.8883164079
 31
0.0
 11
-23.2674616652
 21
-58.767468617
 31
0.0
 11
-23.388291096
 21
-58.5824807916
 31
0.0
 11
-23.4288116597
 21
-58.3649960872
 31
0.0
  0
SPLINE
  5
5A8
100
AcDbEntity
  8
RACCORDO
100
AcDbSpline
 62
253
  6
CONTINUOUS
 70
0
 71
3
 72
11
 73
7
 74
5
 42
0.0000001
 43
0.0000001
 44
0.0000000001
 12
0.0000498599
 22
0.6210287382
 32
0.0
 13
0.6210287352
 23
0.0000791702
 33
0.0
 40
0.0
 40
0.0
 40
0.0
 40
0.0
 40
0.2500058224
 40
0.5000008131
 40
0.7499857999
 40
1.0
 40
1.0
 40
1.0
 40
1.0
 10
-25.9929722756
 20
-9.9069668024
 30
0.0
 10
-25.9929681205
 20
-9.8552132023
 30
0.0
 10
-25.9723791894
 20
-9.7506040373
 30
0.0
 10
-25.8842594704
 20
-9.6180311254
 30
0.0
 10
-25.7524600956
 20
-9.5291199697
 30
0.0
 10
-25.6480176564
 20
-9.5070343223
 30
0.0
 10
-25.5962623223
 20
-9.5070277244
 30
0.0
 11
-25.9929722756
 21
-9.9069668024
 31
0.0
 11
-25.962838641
 21
-9.7546582985
 31
0.0
 11
-25.8769784601
 21
-9.6253066195
 31
0.0
 11
-25.7483218011
 21
-9.5384195516
 31
0.0
 11
-25.5962623223
 21
-9.5070277244
 31
0.0
  0
SPLINE
  5
5A9
100
AcDbEntity
  8
RACCORDO
100
AcDbSpline
 62
253
  6
CONTINUOUS
 70
0
 71
3
 72
11
 73
7
 74
5
 42
0.0000001
 43
0.0000001
 44
0.0000000001
 12
0.6210287337
 22
-0.0000498599
 32
0.0
 13
0.0000791702
 23
-0.6210287307
 33
0.0
 40
0.0
 40
0.0
 40
0.0
 40
0.0
 40
0.2500058224
 40
0.5000008131
 40
0.7499857999
 40
1.0
 40
1.0
 40
1.0
 40
1.0
 10
25.5930331976
 20
-9.5070277244
 30
0.0
 10
25.6447867973
 20
-9.5070318795
 30
0.0
 10
25.7493959615
 20
-9.5276208103
 30
0.0
 10
25.8819688729
 20
-9.6157405281
 30
0.0
 10
25.9708800284
 20
-9.7475399012
 30
0.0
 10
25.9929656777
 20
-9.8519823394
 30
0.0
 10
25.9929722756
 20
-9.9037376732
 30
0.0
 11
25.5930331976
 21
-9.5070277244
 31
0.0
 11
25.7453417004
 21
-9.5371613585
 31
0.0
 11
25.8746933789
 21
-9.6230215383
 31
0.0
 11
25.9615804471
 21
-9.7516781958
 31
0.0
 11
25.9929722756
 21
-9.9037376732
 31
0.0
  0
SPLINE
  5
5AA
100
AcDbEntity
  8
RACCORDO
100
AcDbSpline
 62
253
  6
CONTINUOUS
 70
0
 71
3
 72
9
 73
5
 74
3
 42
0.0000001
 43
0.0000001
 44
0.0000000001
 12
0.0423976482
 22
0.0021313418
 32
0.0
 13
0.0197976219
 23
0.037552062
 33
0.0
 40
0.0
 40
0.0
 40
0.0
 40
0.0
 40
0.3847352126
 40
1.0
 40
1.0
 40
1.0
 40
1.0
 10
22.3160589024
 20
58.0979659104
 30
0.0
 10
22.3214961918
 20
58.0982392445
 30
0.0
 10
22.3342584906
 20
58.1073059815
 30
0.0
 10
22.3412129949
 20
58.1194844293
 30
0.0
 10
22.3452732547
 20
58.1271859164
 30
0.0
 11
22.3160589024
 21
58.0979659104
 31
0.0
 11
22.3304567267
 21
58.1056764296
 31
0.0
 11
22.3452732547
 21
58.1271859164
 31
0.0
  0
SPLINE
  5
5AB
100
AcDbEntity
  8
RACCORDO
100
AcDbSpline
 62
253
  6
CONTINUOUS
 70
0
 71
3
 72
9
 73
5
 74
3
 42
0.0000001
 43
0.0000001
 44
0.0000000001
 12
0.0021270596
 22
0.0423943008
 32
0.0
 13
0.0375491867
 23
0.0197954465
 33
0.0
 40
0.0
 40
0.0
 40
0.0
 40
0.0
 40
0.3847717293
 40
1.0
 40
1.0
 40
1.0
 40
1.0
 10
22.5979665987
 20
57.8160589427
 30
0.0
 10
22.5982394095
 20
57.8214963189
 30
0.0
 10
22.6073025503
 20
57.8342594283
 30
0.0
 10
22.619480477
 20
57.8412136815
 30
0.0
 10
22.6271809174
 20
57.8452732543
 30
0.0
 11
22.5979665987
 21
57.8160589427
 31
0.0
 11
22.605675032
 21
57.8304580892
 31
0.0
 11
22.6271809174
 21
57.8452732543
 31
0.0
  0
SPLINE
  5
5AC
100
AcDbEntity
  8
RACCORDO
100
AcDbSpline
 62
253
  6
CONTINUOUS
 70
0
 71
3
 72
9
 73
5
 74
3
 42
0.0000001
 43
0.0000001
 44
0.0000000001
 12
0.0021313418
 22
-0.0423976482
 32
0.0
 13
0.037552062
 23
-0.0197976219
 33
0.0
 40
0.0
 40
0.0
 40
0.0
 40
0.0
 40
0.3847352126
 40
1.0
 40
1.0
 40
1.0
 40
1.0
 10
22.5979659104
 20
13.1839410976
 30
0.0
 10
22.5982392445
 20
13.1785038082
 30
0.0
 10
22.6073059815
 20
13.1657415094
 30
0.0
 10
22.6194844293
 20
13.1587870051
 30
0.0
 10
22.6271859164
 20
13.1547267453
 30
0.0
 11
22.5979659104
 21
13.1839410976
 31
0.0
 11
22.6056764296
 21
13.1695432733
 31
0.0
 11
22.6271859164
 21
13.1547267453
 31
0.0
  0
SPLINE
  5
5AD
100
AcDbEntity
  8
RACCORDO
100
AcDbSpline
 62
253
  6
CONTINUOUS
 70
0
 71
3
 72
9
 73
5
 74
3
 42
0.0000001
 43
0.0000001
 44
0.0000000001
 12
0.0423943008
 22
-0.0021270596
 32
0.0
 13
0.0197954465
 23
-0.0375491867
 33
0.0
 40
0.0
 40
0.0
 40
0.0
 40
0.0
 40
0.3847717293
 40
1.0
 40
1.0
 40
1.0
 40
1.0
 10
22.3160589427
 20
12.9020334013
 30
0.0
 10
22.3214963189
 20
12.9017605905
 30
0.0
 10
22.3342594283
 20
12.8926974497
 30
0.0
 10
22.3412136815
 20
12.880519523
 30
0.0
 10
22.3452732543
 20
12.8728190826
 30
0.0
 11
22.3160589427
 21
12.9020334013
 31
0.0
 11
22.3304580892
 21
12.894324968
 31
0.0
 11
22.3452732543
 21
12.8728190826
 31
0.0
  0
SPLINE
  5
5AE
100
AcDbEntity
  8
RACCORDO
100
AcDbSpline
 62
253
  6
CONTINUOUS
 70
0
 71
3
 72
9
 73
5
 74
3
 42
0.0000001
 43
0.0000001
 44
0.0000000001
 12
-0.0423976482
 22
-0.0021313418
 32
0.0
 13
-0.0197976219
 23
-0.037552062
 33
0.0
 40
0.0
 40
0.0
 40
0.0
 40
0.0
 40
0.3847352126
 40
1.0
 40
1.0
 40
1.0
 40
1.0
 10
-22.3160589024
 20
12.9020340896
 30
0.0
 10
-22.3214961918
 20
12.9017607555
 30
0.0
 10
-22.3342584906
 20
12.8926940185
 30
0.0
 10
-22.3412129949
 20
12.8805155707
 30
0.0
 10
-22.3452732547
 20
12.8728140836
 30
0.0
 11
-22.3160589024
 21
12.9020340896
 31
0.0
 11
-22.3304567267
 21
12.8943235704
 31
0.0
 11
-22.3452732547
 21
12.8728140836
 31
0.0
  0
SPLINE
  5
5AF
100
AcDbEntity
  8
RACCORDO
100
AcDbSpline
 62
253
  6
CONTINUOUS
 70
0
 71
3
 72
9
 73
5
 74
3
 42
0.0000001
 43
0.0000001
 44
0.0000000001
 12
-0.0021270596
 22
-0.0423943008
 32
0.0
 13
-0.0375491867
 23
-0.0197954465
 33
0.0
 40
0.0
 40
0.0
 40
0.0
 40
0.0
 40
0.3847717293
 40
1.0
 40
1.0
 40
1.0
 40
1.0
 10
-22.5979665987
 20
13.1839410573
 30
0.0
 10
-22.5982394095
 20
13.1785036811
 30
0.0
 10
-22.6073025503
 20
13.1657405717
 30
0.0
 10
-22.619480477
 20
13.1587863185
 30
0.0
 10
-22.6271809174
 20
13.1547267457
 30
0.0
 11
-22.5979665987
 21
13.1839410573
 31
0.0
 11
-22.605675032
 21
13.1695419108
 31
0.0
 11
-22.6271809174
 21
13.1547267457
 31
0.0
  0
SPLINE
  5
5B0
100
AcDbEntity
  8
RACCORDO
100
AcDbSpline
 62
253
  6
CONTINUOUS
 70
0
 71
3
 72
9
 73
5
 74
3
 42
0.0000001
 43
0.0000001
 44
0.0000000001
 12
-0.0021276964
 22
0.0423951815
 32
0.0
 13
-0.0375503771
 23
0.019795143
 33
0.0
 40
0.0
 40
0.0
 40
0.0
 40
0.0
 40
0.3847699139
 40
1.0
 40
1.0
 40
1.0
 40
1.0
 10
-22.5979665783
 20
57.8160589415
 30
0.0
 10
-22.5982394695
 20
57.821496405
 30
0.0
 10
-22.607303136
 20
57.8342595951
 30
0.0
 10
-22.6194814463
 20
57.8412137322
 30
0.0
 10
-22.6271821536
 20
57.8452732548
 30
0.0
 11
-22.5979665783
 21
57.8160589415
 31
0.0
 11
-22.6056754383
 21
57.8304581701
 31
0.0
 11
-22.6271821536
 21
57.8452732548
 31
0.0
  0
SPLINE
  5
5B1
100
AcDbEntity
  8
RACCORDO
100
AcDbSpline
 62
253
  6
CONTINUOUS
 70
0
 71
3
 72
9
 73
5
 74
3
 42
0.0000001
 43
0.0000001
 44
0.0000000001
 12
-0.0423952029
 22
0.002125971
 32
0.0
 13
-0.0197954014
 23
0.0375501673
 33
0.0
 40
0.0
 40
0.0
 40
0.0
 40
0.0
 40
0.384766998
 40
1.0
 40
1.0
 40
1.0
 40
1.0
 10
-22.3160586523
 20
58.0979616022
 30
0.0
 10
-22.3214960773
 20
58.0982342701
 30
0.0
 10
-22.3342595021
 20
58.1072977501
 30
0.0
 10
-22.3412136612
 20
58.1194760051
 30
0.0
 10
-22.3452732559
 20
58.1271767058
 30
0.0
 11
-22.3160586523
 21
58.0979616022
 31
0.0
 11
-22.3304579301
 21
58.105670055
 31
0.0
 11
-22.3452732559
 21
58.1271767058
 31
0.0
  0
SPLINE
  5
5B2
100
AcDbEntity
  8
RACCORDO
100
AcDbSpline
 62
253
  6
CONTINUOUS
 70
0
 71
3
 72
11
 73
7
 74
5
 42
0.0000001
 43
0.0000001
 44
0.0000000001
 12
0.4580212004
 22
0.043317967
 32
0.0
 13
-0.0434492328
 23
-0.4580087668
 33
0.0
 40
0.0
 40
0.0
 40
0.0
 40
0.0
 40
0.2481655321
 40
0.4999968063
 40
0.7518254935
 40
1.0
 40
1.0
 40
1.0
 40
1.0
 10
22.8650075502
 20
58.6469046568
 30
0.0
 10
22.9028959085
 20
58.6504879989
 30
0.0
 10
22.9814890065
 20
58.6456601119
 30
0.0
 10
23.0865679023
 20
58.5865604746
 30
0.0
 10
23.1456431893
 20
58.4814778612
 30
0.0
 10
23.150498114
 20
58.4028834681
 30
0.0
 10
23.1469037834
 20
58.3649947682
 30
0.0
 11
22.8650075502
 21
58.6469046568
 31
0.0
 11
22.9787668542
 21
58.6372024366
 31
0.0
 11
23.0788634277
 21
58.5788592188
 31
0.0
 11
23.1371958447
 21
58.4787577282
 31
0.0
 11
23.1469037834
 21
58.3649947682
 31
0.0
  0
SPLINE
  5
5B3
100
AcDbEntity
  8
RACCORDO
100
AcDbSpline
 62
253
  6
CONTINUOUS
 70
0
 71
3
 72
11
 73
7
 74
5
 42
0.0000001
 43
0.0000001
 44
0.0000000001
 12
0.0082756578
 22
0.445261122
 32
0.0
 13
-0.4452533212
 23
-0.0086852307
 33
0.0
 40
0.0
 40
0.0
 40
0.0
 40
0.0
 40
0.2501115952
 40
0.4999997138
 40
0.7498866439
 40
1.0
 40
1.0
 40
1.0
 40
1.0
 10
22.6271810694
 20
57.8453066683
 30
0.0
 10
22.6278710154
 20
57.8824283248
 30
0.0
 10
22.616235605
 20
57.9578321917
 30
0.0
 10
22.5547871486
 20
58.0548147609
 30
0.0
 10
22.4577998135
 20
58.1162243455
 30
0.0
 10
22.3823945226
 20
58.1279051379
 30
0.0
 10
22.3452732551
 20
58.1271810405
 30
0.0
 11
22.6271810694
 21
57.8453066683
 31
0.0
 11
22.608889748
 21
57.9551787222
 31
0.0
 11
22.5488656844
 21
58.0488878032
 31
0.0
 11
22.4551471771
 21
58.1088961663
 31
0.0
 11
22.3452732551
 21
58.1271810405
 31
0.0
  0
SPLINE
  5
5B4
100
AcDbEntity
  8
RACCORDO
100
AcDbSpline
 62
253
  6
CONTINUOUS
 70
0
 71
3
 72
11
 73
7
 74
5
 42
0.0000001
 43
0.0000001
 44
0.0000000001
 12
-0.0285988121
 22
0.4317179711
 32
0.0
 13
-0.4317195567
 23
0.0285748665
 33
0.0
 40
0.0
 40
0.0
 40
0.0
 40
0.0
 40
0.2444838109
 40
0.499998308
 40
0.755509181
 40
1.0
 40
1.0
 40
1.0
 40
1.0
 10
22.597966737
 20
57.8160589508
 30
0.0
 10
22.5956360882
 20
57.8512416357
 30
0.0
 10
22.5778052196
 20
57.9229363311
 30
0.0
 10
22.5146028749
 20
58.0146013759
 30
0.0
 10
22.4229382297
 20
58.0778051046
 30
0.0
 10
22.3512427734
 20
58.0956379728
 30
0.0
 10
22.3160589508
 20
58.097966737
 30
0.0
 11
22.597966737
 21
57.8160589508
 31
0.0
 11
22.5724612152
 21
57.918717353
 31
0.0
 11
22.509789682
 21
58.0097888495
 31
0.0
 11
22.4187203731
 21
58.0724607955
 31
0.0
 11
22.3160589508
 21
58.097966737
 31
0.0
  0
SPLINE
  5
5B5
100
AcDbEntity
  8
RACCORDO
100
AcDbSpline
 62
253
  6
CONTINUOUS
 70
0
 71
3
 72
11
 73
7
 74
5
 42
0.0000001
 43
0.0000001
 44
0.0000000001
 12
-0.0000498599
 22
-0.6210287275
 32
0.0
 13
-0.6210287244
 23
-0.0000791702
 33
0.0
 40
0.0
 40
0.0
 40
0.0
 40
0.0
 40
0.2500058224
 40
0.5000008131
 40
0.7499857999
 40
1.0
 40
1.0
 40
1.0
 40
1.0
 10
25.9929722756
 20
9.9069668024
 30
0.0
 10
25.9929681205
 20
9.8552132032
 30
0.0
 10
25.9723791901
 20
9.7506040401
 30
0.0
 10
25.8842594741
 20
9.6180311294
 30
0.0
 10
25.7524601032
 20
9.5291199741
 30
0.0
 10
25.6480176665
 20
9.5070343223
 30
0.0
 10
25.5962623332
 20
9.5070277244
 30
0.0
 11
25.9929722756
 21
9.9069668024
 31
0.0
 11
25.9628386421
 21
9.754658301
 31
0.0
 11
25.8769784639
 21
9.6253066234
 31
0.0
 11
25.7483218086
 21
9.5384195548
 31
0.0
 11
25.5962623332
 21
9.5070277244
 31
0.0
  0
SPLINE
  5
5B6
100
AcDbEntity
  8
RACCORDO
100
AcDbSpline
 62
253
  6
CONTINUOUS
 70
0
 71
3
 72
11
 73
7
 74
5
 42
0.0000001
 43
0.0000001
 44
0.0000000001
 12
0.043317967
 22
-0.4580212004
 32
0.0
 13
-0.4580087668
 23
0.0434492328
 33
0.0
 40
0.0
 40
0.0
 40
0.0
 40
0.0
 40
0.2481655321
 40
0.4999968063
 40
0.7518254935
 40
1.0
 40
1.0
 40
1.0
 40
1.0
 10
23.1469046568
 20
12.6349924498
 30
0.0
 10
23.1504879989
 20
12.5971040915
 30
0.0
 10
23.1456601119
 20
12.5185109935
 30
0.0
 10
23.0865604746
 20
12.4134320977
 30
0.0
 10
22.9814778612
 20
12.3543568107
 30
0.0
 10
22.9028834681
 20
12.349501886
 30
0.0
 10
22.8649947682
 20
12.3530962166
 30
0.0
 11
23.1469046568
 21
12.6349924498
 31
0.0
 11
23.1372024366
 21
12.5212331458
 31
0.0
 11
23.0788592188
 21
12.4211365723
 31
0.0
 11
22.9787577282
 21
12.3628041553
 31
0.0
 11
22.8649947682
 21
12.3530962166
 31
0.0
  0
SPLINE
  5
5B7
100
AcDbEntity
  8
RACCORDO
100
AcDbSpline
 62
253
  6
CONTINUOUS
 70
0
 71
3
 72
11
 73
7
 74
5
 42
0.0000001
 43
0.0000001
 44
0.0000000001
 12
0.445261122
 22
-0.0082756578
 32
0.0
 13
-0.0086852307
 23
0.4452533212
 33
0.0
 40
0.0
 40
0.0
 40
0.0
 40
0.0
 40
0.2501115952
 40
0.4999997138
 40
0.7498866439
 40
1.0
 40
1.0
 40
1.0
 40
1.0
 10
22.3453066683
 20
12.8728189306
 30
0.0
 10
22.3824283248
 20
12.8721289846
 30
0.0
 10
22.4578321917
 20
12.883764395
 30
0.0
 10
22.5548147609
 20
12.9452128514
 30
0.0
 10
22.6162243455
 20
13.0422001865
 30
0.0
 10
22.6279051379
 20
13.1176054774
 30
0.0
 10
22.6271810405
 20
13.1547267449
 30
0.0
 11
22.3453066683
 21
12.8728189306
 31
0.0
 11
22.4551787222
 21
12.891110252
 31
0.0
 11
22.5488878032
 21
12.9511343156
 31
0.0
 11
22.6088961663
 21
13.0448528229
 31
0.0
 11
22.6271810405
 21
13.1547267449
 31
0.0
  0
SPLINE
  5
5B8
100
AcDbEntity
  8
RACCORDO
100
AcDbSpline
 62
253
  6
CONTINUOUS
 70
0
 71
3
 72
11
 73
7
 74
5
 42
0.0000001
 43
0.0000001
 44
0.0000000001
 12
0.4317179711
 22
0.0285988121
 32
0.0
 13
0.0285748665
 23
0.4317195567
 33
0.0
 40
0.0
 40
0.0
 40
0.0
 40
0.0
 40
0.2444838109
 40
0.499998308
 40
0.755509181
 40
1.0
 40
1.0
 40
1.0
 40
1.0
 10
22.3160589508
 20
12.902033263
 30
0.0
 10
22.3512416357
 20
12.9043639118
 30
0.0
 10
22.4229363311
 20
12.9221947804
 30
0.0
 10
22.5146013759
 20
12.9853971251
 30
0.0
 10
22.5778051046
 20
13.0770617703
 30
0.0
 10
22.5956379728
 20
13.1487572266
 30
0.0
 10
22.597966737
 20
13.1839410492
 30
0.0
 11
22.3160589508
 21
12.902033263
 31
0.0
 11
22.418717353
 21
12.9275387848
 31
0.0
 11
22.5097888495
 21
12.990210318
 31
0.0
 11
22.5724607955
 21
13.0812796269
 31
0.0
 11
22.597966737
 21
13.1839410492
 31
0.0
  0
SPLINE
  5
5B9
100
AcDbEntity
  8
RACCORDO
100
AcDbSpline
 62
253
  6
CONTINUOUS
 70
0
 71
3
 72
11
 73
7
 74
5
 42
0.0000001
 43
0.0000001
 44
0.0000000001
 12
-0.431719563
 22
-0.0285747494
 32
0.0
 13
-0.0285985182
 23
-0.4317179891
 33
0.0
 40
0.0
 40
0.0
 40
0.0
 40
0.0
 40
0.2444907312
 40
0.5000016615
 40
0.7555160952
 40
1.0
 40
1.0
 40
1.0
 40
1.0
 10
-22.3160589508
 20
58.097966737
 30
0.0
 10
-22.3512427613
 20
58.0956379832
 30
0.0
 10
-22.4229382061
 20
58.0778050907
 30
0.0
 10
-22.5146028582
 20
58.0146014
 30
0.0
 10
-22.5778052094
 20
57.9229363497
 30
0.0
 10
-22.5956361112
 20
57.8512416507
 30
0.0
 10
-22.597966737
 20
57.8160589508
 30
0.0
 11
-22.3160589508
 21
58.097966737
 31
0.0
 11
-22.4187203351
 21
58.0724608019
 31
0.0
 11
-22.5097896745
 21
58.009788857
 31
0.0
 11
-22.5724612039
 21
57.9187173917
 31
0.0
 11
-22.597966737
 21
57.8160589508
 31
0.0
  0
SPLINE
  5
5BA
100
AcDbEntity
  8
RACCORDO
100
AcDbSpline
 62
253
  6
CONTINUOUS
 70
0
 71
3
 72
11
 73
7
 74
5
 42
0.0000001
 43
0.0000001
 44
0.0000000001
 12
-0.6210287368
 22
0.0000498599
 32
0.0
 13
-0.0000791702
 23
0.6210287338
 33
0.0
 40
0.0
 40
0.0
 40
0.0
 40
0.0
 40
0.2500058224
 40
0.5000008131
 40
0.7499857999
 40
1.0
 40
1.0
 40
1.0
 40
1.0
 10
-25.5930331976
 20
9.5070277244
 30
0.0
 10
-25.6447867976
 20
9.5070318795
 30
0.0
 10
-25.7493959624
 20
9.5276208105
 30
0.0
 10
-25.8819688741
 20
9.6157405292
 30
0.0
 10
-25.9708800297
 20
9.7475399034
 30
0.0
 10
-25.9929656777
 20
9.8519823423
 30
0.0
 10
-25.9929722756
 20
9.9037376763
 30
0.0
 11
-25.5930331976
 21
9.5070277244
 31
0.0
 11
-25.7453417012
 21
9.5371613588
 31
0.0
 11
-25.87469338
 21
9.6230215394
 31
0.0
 11
-25.961580448
 21
9.751678198
 31
0.0
 11
-25.9929722756
 21
9.9037376763
 31
0.0
  0
SPLINE
  5
5BB
100
AcDbEntity
  8
RACCORDO
100
AcDbSpline
 62
253
  6
CONTINUOUS
 70
0
 71
3
 72
11
 73
7
 74
5
 42
0.0000001
 43
0.0000001
 44
0.0000000001
 12
-0.0434494719
 22
0.4580087334
 32
0.0
 13
0.4580211454
 23
-0.0433184355
 33
0.0
 40
0.0
 40
0.0
 40
0.0
 40
0.0
 40
0.248174496
 40
0.5000031929
 40
0.7518344432
 40
1.0
 40
1.0
 40
1.0
 40
1.0
 10
-23.1469037748
 20
58.3649946425
 30
0.0
 10
-23.1504981251
 20
58.402883338
 30
0.0
 10
-23.1456432288
 20
58.4814777273
 30
0.0
 10
-23.0865680095
 20
58.5865603815
 30
0.0
 10
-22.9814891423
 20
58.6456600273
 30
0.0
 10
-22.9028960419
 20
58.6504880472
 30
0.0
 10
-22.8650076844
 20
58.646904666
 30
0.0
 11
-23.1469037748
 21
58.3649946425
 31
0.0
 11
-23.1371958886
 21
58.4787575994
 31
0.0
 11
-23.0788635255
 21
58.5788591235
 31
0.0
 11
-22.9787669917
 21
58.6372023823
 31
0.0
 11
-22.8650076844
 21
58.646904666
 31
0.0
  0
SPLINE
  5
5BC
100
AcDbEntity
  8
RACCORDO
100
AcDbSpline
 62
253
  6
CONTINUOUS
 70
0
 71
3
 72
11
 73
7
 74
5
 42
0.0000001
 43
0.0000001
 44
0.0000000001
 12
-0.4452532521
 22
0.0086830778
 32
0.0
 13
0.0082773346
 23
-0.4452609797
 33
0.0
 40
0.0
 40
0.0
 40
0.0
 40
0.0
 40
0.2501133591
 40
0.5000002957
 40
0.749888392
 40
1.0
 40
1.0
 40
1.0
 40
1.0
 10
-22.345273254
 20
58.1271810405
 30
0.0
 10
-22.3823945162
 20
58.1279049584
 30
0.0
 10
-22.4577997806
 20
58.1162244525
 30
0.0
 10
-22.5547871256
 20
58.0548147788
 30
0.0
 10
-22.6162354615
 20
57.9578322676
 30
0.0
 10
-22.6278711553
 20
57.8824284227
 30
0.0
 10
-22.6271810695
 20
57.8453067761
 30
0.0
 11
-22.345273254
 21
58.1271810405
 31
0.0
 11
-22.4551471526
 21
58.1088961867
 31
0.0
 11
-22.5488656427
 21
58.0488878429
 31
0.0
 11
-22.6088896937
 21
57.9551787986
 31
0.0
 11
-22.6271810695
 21
57.8453067761
 31
0.0
  0
SPLINE
  5
5BD
100
AcDbEntity
  8
RACCORDO
100
AcDbSpline
 62
253
  6
CONTINUOUS
 70
0
 71
3
 72
11
 73
7
 74
5
 42
0.0000001
 43
0.0000001
 44
0.0000000001
 12
-0.4580212004
 22
-0.043317967
 32
0.0
 13
0.0434492328
 23
0.4580087668
 33
0.0
 40
0.0
 40
0.0
 40
0.0
 40
0.0
 40
0.2481655321
 40
0.4999968063
 40
0.7518254935
 40
1.0
 40
1.0
 40
1.0
 40
1.0
 10
-22.8650075502
 20
12.3530953432
 30
0.0
 10
-22.9028959085
 20
12.3495120011
 30
0.0
 10
-22.9814890065
 20
12.3543398881
 30
0.0
 10
-23.0865679023
 20
12.4134395254
 30
0.0
 10
-23.1456431893
 20
12.5185221388
 30
0.0
 10
-23.150498114
 20
12.5971165319
 30
0.0
 10
-23.1469037834
 20
12.6350052318
 30
0.0
 11
-22.8650075502
 21
12.3530953432
 31
0.0
 11
-22.9787668542
 21
12.3627975634
 31
0.0
 11
-23.0788634277
 21
12.4211407812
 31
0.0
 11
-23.1371958447
 21
12.5212422718
 31
0.0
 11
-23.1469037834
 21
12.6350052318
 31
0.0
  0
SPLINE
  5
5BE
100
AcDbEntity
  8
RACCORDO
100
AcDbSpline
 62
253
  6
CONTINUOUS
 70
0
 71
3
 72
11
 73
7
 74
5
 42
0.0000001
 43
0.0000001
 44
0.0000000001
 12
-0.0082756578
 22
-0.445261122
 32
0.0
 13
0.4452533212
 23
0.0086852307
 33
0.0
 40
0.0
 40
0.0
 40
0.0
 40
0.0
 40
0.2501115952
 40
0.4999997138
 40
0.7498866439
 40
1.0
 40
1.0
 40
1.0
 40
1.0
 10
-22.6271810694
 20
13.1546933317
 30
0.0
 10
-22.6278710154
 20
13.1175716752
 30
0.0
 10
-22.616235605
 20
13.0421678083
 30
0.0
 10
-22.5547871486
 20
12.9451852391
 30
0.0
 10
-22.4577998135
 20
12.8837756545
 30
0.0
 10
-22.3823945226
 20
12.8720948621
 30
0.0
 10
-22.3452732551
 20
12.8728189595
 30
0.0
 11
-22.6271810694
 21
13.1546933317
 31
0.0
 11
-22.608889748
 21
13.0448212778
 31
0.0
 11
-22.5488656844
 21
12.9511121968
 31
0.0
 11
-22.4551471771
 21
12.8911038337
 31
0.0
 11
-22.3452732551
 21
12.8728189595
 31
0.0
  0
SPLINE
  5
5BF
100
AcDbEntity
  8
RACCORDO
100
AcDbSpline
 62
253
  6
CONTINUOUS
 70
0
 71
3
 72
11
 73
7
 74
5
 42
0.0000001
 43
0.0000001
 44
0.0000000001
 12
0.0285988121
 22
-0.4317179711
 32
0.0
 13
0.4317195567
 23
-0.0285748665
 33
0.0
 40
0.0
 40
0.0
 40
0.0
 40
0.0
 40
0.2444838109
 40
0.499998308
 40
0.755509181
 40
1.0
 40
1.0
 40
1.0
 40
1.0
 10
-22.597966737
 20
13.1839410492
 30
0.0
 10
-22.5956360882
 20
13.1487583643
 30
0.0
 10
-22.5778052196
 20
13.0770636689
 30
0.0
 10
-22.5146028749
 20
12.9853986241
 30
0.0
 10
-22.4229382297
 20
12.9221948954
 30
0.0
 10
-22.3512427734
 20
12.9043620272
 30
0.0
 10
-22.3160589508
 20
12.902033263
 30
0.0
 11
-22.597966737
 21
13.1839410492
 31
0.0
 11
-22.5724612152
 21
13.081282647
 31
0.0
 11
-22.509789682
 21
12.9902111505
 31
0.0
 11
-22.4187203731
 21
12.9275392045
 31
0.0
 11
-22.3160589508
 21
12.902033263
 31
0.0
  0
SPLINE
  5
5C0
100
AcDbEntity
  8
RACCORDO
100
AcDbSpline
 62
253
  6
CONTINUOUS
 70
0
 71
3
 72
11
 73
7
 74
5
 42
0.0000001
 43
0.0000001
 44
0.0000000001
 12
0.0000157207
 22
-0.8843607793
 32
0.0
 13
-0.8843607788
 23
0.0000318597
 33
0.0
 40
0.0
 40
0.0
 40
0.0
 40
0.0
 40
0.2501538446
 40
0.5000000678
 40
0.7498449811
 40
1.0
 40
1.0
 40
1.0
 40
1.0
 10
23.4288116597
 20
12.6350039128
 30
0.0
 10
23.4288129706
 20
12.5612618298
 30
0.0
 10
23.4023630661
 20
12.4121093053
 30
0.0
 10
23.278634984
 20
12.2213674834
 30
0.0
 10
23.087882494
 20
12.0976797915
 30
0.0
 10
22.9387385164
 20
12.0711856837
 30
0.0
 10
22.8649960872
 20
12.0711883403
 30
0.0
 11
23.4288116597
 21
12.6350039128
 31
0.0
 11
23.3883164079
 21
12.4175155503
 31
0.0
 11
23.267468617
 21
12.2325383348
 31
0.0
 11
23.0824807916
 21
12.111708904
 31
0.0
 11
22.8649960872
 21
12.0711883403
 31
0.0
  0
SPLINE
  5
5C1
100
AcDbEntity
  8
RACCORDO
100
AcDbSpline
 62
253
  6
CONTINUOUS
 70
0
 71
3
 72
11
 73
7
 74
5
 42
0.0000001
 43
0.0000001
 44
0.0000000001
 12
0.8843607793
 22
0.0000157207
 32
0.0
 13
-0.0000318597
 23
-0.8843607788
 33
0.0
 40
0.0
 40
0.0
 40
0.0
 40
0.0
 40
0.2501538446
 40
0.5000000678
 40
0.7498449811
 40
1.0
 40
1.0
 40
1.0
 40
1.0
 10
22.8649960872
 20
58.9288116597
 30
0.0
 10
22.9387381702
 20
58.9288129706
 30
0.0
 10
23.0878906947
 20
58.9023630661
 30
0.0
 10
23.2786325166
 20
58.778634984
 30
0.0
 10
23.4023202085
 20
58.587882494
 30
0.0
 10
23.4288143163
 20
58.4387385164
 30
0.0
 10
23.4288116597
 20
58.3649960872
 30
0.0
 11
22.8649960872
 21
58.9288116597
 31
0.0
 11
23.0824844497
 21
58.8883164079
 31
0.0
 11
23.2674616652
 21
58.767468617
 31
0.0
 11
23.388291096
 21
58.5824807916
 31
0.0
 11
23.4288116597
 21
58.3649960872
 31
0.0
  0
SPLINE
  5
5C2
100
AcDbEntity
  8
RACCORDO
100
AcDbSpline
 62
253
  6
CONTINUOUS
 70
0
 71
3
 72
11
 73
7
 74
5
 42
0.0000001
 43
0.0000001
 44
0.0000000001
 12
-0.0000310851
 22
0.8843607931
 32
0.0
 13
0.8843607935
 23
-0.0000166958
 33
0.0
 40
0.0
 40
0.0
 40
0.0
 40
0.0
 40
0.2501550041
 40
0.4999999352
 40
0.7498461618
 40
1.0
 40
1.0
 40
1.0
 40
1.0
 10
-23.4288116597
 20
58.3649960872
 30
0.0
 10
-23.4288142517
 20
58.4387385132
 30
0.0
 10
-23.402320283
 20
58.5878825
 30
0.0
 10
-23.278632518
 20
58.778634999
 30
0.0
 10
-23.0878906963
 20
58.9023630202
 30
0.0
 10
-22.9387381695
 20
58.9288130519
 30
0.0
 10
-22.8649960872
 20
58.9288116597
 30
0.0
 11
-23.4288116597
 21
58.3649960872
 31
0.0
 11
-23.3882911272
 21
58.5824807877
 31
0.0
 11
-23.2674616758
 21
58.7674686227
 31
0.0
 11
-23.0824844471
 21
58.8883164055
 31
0.0
 11
-22.8649960872
 21
58.9288116597
 31
0.0
  0
SPLINE
  5
5C3
100
AcDbEntity
  8
RACCORDO
100
AcDbSpline
 62
253
  6
CONTINUOUS
 70
0
 71
3
 72
11
 73
7
 74
5
 42
0.0000001
 43
0.0000001
 44
0.0000000001
 12
-0.8843607793
 22
-0.0000157207
 32
0.0
 13
0.0000318597
 23
0.8843607788
 33
0.0
 40
0.0
 40
0.0
 40
0.0
 40
0.0
 40
0.2501538446
 40
0.5000000678
 40
0.7498449811
 40
1.0
 40
1.0
 40
1.0
 40
1.0
 10
-22.8649960872
 20
12.0711883403
 30
0.0
 10
-22.9387381702
 20
12.0711870294
 30
0.0
 10
-23.0878906947
 20
12.0976369339
 30
0.0
 10
-23.2786325166
 20
12.221365016
 30
0.0
 10
-23.4023202085
 20
12.412117506
 30
0.0
 10
-23.4288143163
 20
12.5612614836
 30
0.0
 10
-23.4288116597
 20
12.6350039128
 30
0.0
 11
-22.8649960872
 21
12.0711883403
 31
0.0
 11
-23.0824844497
 21
12.1116835921
 31
0.0
 11
-23.2674616652
 21
12.232531383
 31
0.0
 11
-23.388291096
 21
12.4175192084
 31
0.0
 11
-23.4288116597
 21
12.6350039128
 31
0.0
  0
SPLINE
  5
5C4
100
AcDbEntity
  8
RACCORDO
100
AcDbSpline
 62
253
  6
CONTINUOUS
 70
0
 71
3
 72
11
 73
7
 74
5
 42
0.0000001
 43
0.0000001
 44
0.0000000001
 12
0.0000498599
 22
0.6210287382
 32
0.0
 13
0.6210287352
 23
0.0000791702
 33
0.0
 40
0.0
 40
0.0
 40
0.0
 40
0.0
 40
0.2500058224
 40
0.5000008131
 40
0.7499857999
 40
1.0
 40
1.0
 40
1.0
 40
1.0
 10
-25.9929722756
 20
61.0930331976
 30
0.0
 10
-25.9929681205
 20
61.1447867977
 30
0.0
 10
-25.9723791894
 20
61.2493959627
 30
0.0
 10
-25.8842594704
 20
61.3819688746
 30
0.0
 10
-25.7524600956
 20
61.4708800303
 30
0.0
 10
-25.6480176564
 20
61.4929656777
 30
0.0
 10
-25.5962623223
 20
61.4929722756
 30
0.0
 11
-25.9929722756
 21
61.0930331976
 31
0.0
 11
-25.962838641
 21
61.2453417015
 31
0.0
 11
-25.8769784601
 21
61.3746933805
 31
0.0
 11
-25.7483218011
 21
61.4615804484
 31
0.0
 11
-25.5962623223
 21
61.4929722756
 31
0.0
  0
SPLINE
  5
5C5
100
AcDbEntity
  8
RACCORDO
100
AcDbSpline
 62
253
  6
CONTINUOUS
 70
0
 71
3
 72
11
 73
7
 74
5
 42
0.0000001
 43
0.0000001
 44
0.0000000001
 12
0.6210287337
 22
-0.0000498599
 32
0.0
 13
0.0000791702
 23
-0.6210287307
 33
0.0
 40
0.0
 40
0.0
 40
0.0
 40
0.0
 40
0.2500058224
 40
0.5000008131
 40
0.7499857999
 40
1.0
 40
1.0
 40
1.0
 40
1.0
 10
25.5930331976
 20
61.4929722756
 30
0.0
 10
25.6447867973
 20
61.4929681205
 30
0.0
 10
25.7493959615
 20
61.4723791897
 30
0.0
 10
25.8819688729
 20
61.3842594719
 30
0.0
 10
25.9708800284
 20
61.2524600988
 30
0.0
 10
25.9929656777
 20
61.1480176606
 30
0.0
 10
25.9929722756
 20
61.0962623268
 30
0.0
 11
25.5930331976
 21
61.4929722756
 31
0.0
 11
25.7453417004
 21
61.4628386415
 31
0.0
 11
25.8746933789
 21
61.3769784617
 31
0.0
 11
25.9615804471
 21
61.2483218042
 31
0.0
 11
25.9929722756
 21
61.0962623268
 31
0.0
  0
SPLINE
  5
5C6
100
AcDbEntity
  8
RACCORDO
100
AcDbSpline
 62
253
  6
CONTINUOUS
 70
0
 71
3
 72
9
 73
5
 74
3
 42
0.0000001
 43
0.0000001
 44
0.0000000001
 12
0.0423976482
 22
0.0021313418
 32
0.0
 13
0.0197976219
 23
0.037552062
 33
0.0
 40
0.0
 40
0.0
 40
0.0
 40
0.0
 40
0.3847352126
 40
1.0
 40
1.0
 40
1.0
 40
1.0
 10
22.3160589024
 20
129.0979659104
 30
0.0
 10
22.3214961918
 20
129.0982392445
 30
0.0
 10
22.3342584906
 20
129.1073059815
 30
0.0
 10
22.3412129949
 20
129.1194844293
 30
0.0
 10
22.3452732547
 20
129.1271859164
 30
0.0
 11
22.3160589024
 21
129.0979659104
 31
0.0
 11
22.3304567267
 21
129.1056764296
 31
0.0
 11
22.3452732547
 21
129.1271859164
 31
0.0
  0
SPLINE
  5
5C7
100
AcDbEntity
  8
RACCORDO
100
AcDbSpline
 62
253
  6
CONTINUOUS
 70
0
 71
3
 72
9
 73
5
 74
3
 42
0.0000001
 43
0.0000001
 44
0.0000000001
 12
0.0021270596
 22
0.0423943008
 32
0.0
 13
0.0375491867
 23
0.0197954465
 33
0.0
 40
0.0
 40
0.0
 40
0.0
 40
0.0
 40
0.3847717293
 40
1.0
 40
1.0
 40
1.0
 40
1.0
 10
22.5979665987
 20
128.8160589427
 30
0.0
 10
22.5982394095
 20
128.8214963189
 30
0.0
 10
22.6073025503
 20
128.8342594283
 30
0.0
 10
22.619480477
 20
128.8412136815
 30
0.0
 10
22.6271809174
 20
128.8452732543
 30
0.0
 11
22.5979665987
 21
128.8160589427
 31
0.0
 11
22.605675032
 21
128.8304580892
 31
0.0
 11
22.6271809174
 21
128.8452732543
 31
0.0
  0
SPLINE
  5
5C8
100
AcDbEntity
  8
RACCORDO
100
AcDbSpline
 62
253
  6
CONTINUOUS
 70
0
 71
3
 72
9
 73
5
 74
3
 42
0.0000001
 43
0.0000001
 44
0.0000000001
 12
0.0021313418
 22
-0.0423976482
 32
0.0
 13
0.037552062
 23
-0.0197976219
 33
0.0
 40
0.0
 40
0.0
 40
0.0
 40
0.0
 40
0.3847352126
 40
1.0
 40
1.0
 40
1.0
 40
1.0
 10
22.5979659104
 20
84.1839410976
 30
0.0
 10
22.5982392445
 20
84.1785038082
 30
0.0
 10
22.6073059815
 20
84.1657415094
 30
0.0
 10
22.6194844293
 20
84.1587870051
 30
0.0
 10
22.6271859164
 20
84.1547267453
 30
0.0
 11
22.5979659104
 21
84.1839410976
 31
0.0
 11
22.6056764296
 21
84.1695432733
 31
0.0
 11
22.6271859164
 21
84.1547267453
 31
0.0
  0
SPLINE
  5
5C9
100
AcDbEntity
  8
RACCORDO
100
AcDbSpline
 62
253
  6
CONTINUOUS
 70
0
 71
3
 72
9
 73
5
 74
3
 42
0.0000001
 43
0.0000001
 44
0.0000000001
 12
0.0423943008
 22
-0.0021270596
 32
0.0
 13
0.0197954465
 23
-0.0375491867
 33
0.0
 40
0.0
 40
0.0
 40
0.0
 40
0.0
 40
0.3847717293
 40
1.0
 40
1.0
 40
1.0
 40
1.0
 10
22.3160589427
 20
83.9020334013
 30
0.0
 10
22.3214963189
 20
83.9017605905
 30
0.0
 10
22.3342594283
 20
83.8926974497
 30
0.0
 10
22.3412136815
 20
83.880519523
 30
0.0
 10
22.3452732543
 20
83.8728190826
 30
0.0
 11
22.3160589427
 21
83.9020334013
 31
0.0
 11
22.3304580892
 21
83.894324968
 31
0.0
 11
22.3452732543
 21
83.8728190826
 31
0.0
  0
SPLINE
  5
5CA
100
AcDbEntity
  8
RACCORDO
100
AcDbSpline
 62
253
  6
CONTINUOUS
 70
0
 71
3
 72
9
 73
5
 74
3
 42
0.0000001
 43
0.0000001
 44
0.0000000001
 12
-0.0423976482
 22
-0.0021313418
 32
0.0
 13
-0.0197976219
 23
-0.037552062
 33
0.0
 40
0.0
 40
0.0
 40
0.0
 40
0.0
 40
0.3847352126
 40
1.0
 40
1.0
 40
1.0
 40
1.0
 10
-22.3160589024
 20
83.9020340896
 30
0.0
 10
-22.3214961918
 20
83.9017607555
 30
0.0
 10
-22.3342584906
 20
83.8926940185
 30
0.0
 10
-22.3412129949
 20
83.8805155707
 30
0.0
 10
-22.3452732547
 20
83.8728140836
 30
0.0
 11
-22.3160589024
 21
83.9020340896
 31
0.0
 11
-22.3304567267
 21
83.8943235704
 31
0.0
 11
-22.3452732547
 21
83.8728140836
 31
0.0
  0
SPLINE
  5
5CB
100
AcDbEntity
  8
RACCORDO
100
AcDbSpline
 62
253
  6
CONTINUOUS
 70
0
 71
3
 72
9
 73
5
 74
3
 42
0.0000001
 43
0.0000001
 44
0.0000000001
 12
-0.0021270596
 22
-0.0423943008
 32
0.0
 13
-0.0375491867
 23
-0.0197954465
 33
0.0
 40
0.0
 40
0.0
 40
0.0
 40
0.0
 40
0.3847717293
 40
1.0
 40
1.0
 40
1.0
 40
1.0
 10
-22.5979665987
 20
84.1839410573
 30
0.0
 10
-22.5982394095
 20
84.1785036811
 30
0.0
 10
-22.6073025503
 20
84.1657405717
 30
0.0
 10
-22.619480477
 20
84.1587863185
 30
0.0
 10
-22.6271809174
 20
84.1547267457
 30
0.0
 11
-22.5979665987
 21
84.1839410573
 31
0.0
 11
-22.605675032
 21
84.1695419108
 31
0.0
 11
-22.6271809174
 21
84.1547267457
 31
0.0
  0
SPLINE
  5
5CC
100
AcDbEntity
  8
RACCORDO
100
AcDbSpline
 62
253
  6
CONTINUOUS
 70
0
 71
3
 72
9
 73
5
 74
3
 42
0.0000001
 43
0.0000001
 44
0.0000000001
 12
-0.0021276964
 22
0.0423951815
 32
0.0
 13
-0.0375503771
 23
0.019795143
 33
0.0
 40
0.0
 40
0.0
 40
0.0
 40
0.0
 40
0.3847699139
 40
1.0
 40
1.0
 40
1.0
 40
1.0
 10
-22.5979665783
 20
128.8160589415
 30
0.0
 10
-22.5982394695
 20
128.821496405
 30
0.0
 10
-22.607303136
 20
128.8342595951
 30
0.0
 10
-22.6194814463
 20
128.8412137322
 30
0.0
 10
-22.6271821536
 20
128.8452732548
 30
0.0
 11
-22.5979665783
 21
128.8160589415
 31
0.0
 11
-22.6056754383
 21
128.8304581701
 31
0.0
 11
-22.6271821536
 21
128.8452732548
 31
0.0
  0
SPLINE
  5
5CD
100
AcDbEntity
  8
RACCORDO
100
AcDbSpline
 62
253
  6
CONTINUOUS
 70
0
 71
3
 72
9
 73
5
 74
3
 42
0.0000001
 43
0.0000001
 44
0.0000000001
 12
-0.0423952029
 22
0.002125971
 32
0.0
 13
-0.0197954014
 23
0.0375501673
 33
0.0
 40
0.0
 40
0.0
 40
0.0
 40
0.0
 40
0.384766998
 40
1.0
 40
1.0
 40
1.0
 40
1.0
 10
-22.3160586523
 20
129.0979616022
 30
0.0
 10
-22.3214960773
 20
129.0982342701
 30
0.0
 10
-22.3342595021
 20
129.1072977501
 30
0.0
 10
-22.3412136612
 20
129.1194760051
 30
0.0
 10
-22.3452732559
 20
129.1271767058
 30
0.0
 11
-22.3160586523
 21
129.0979616022
 31
0.0
 11
-22.3304579301
 21
129.105670055
 31
0.0
 11
-22.3452732559
 21
129.1271767058
 31
0.0
  0
SPLINE
  5
5CE
100
AcDbEntity
  8
RACCORDO
100
AcDbSpline
 62
253
  6
CONTINUOUS
 70
0
 71
3
 72
11
 73
7
 74
5
 42
0.0000001
 43
0.0000001
 44
0.0000000001
 12
0.4580212004
 22
0.043317967
 32
0.0
 13
-0.0434492328
 23
-0.4580087668
 33
0.0
 40
0.0
 40
0.0
 40
0.0
 40
0.0
 40
0.2481655321
 40
0.4999968063
 40
0.7518254935
 40
1.0
 40
1.0
 40
1.0
 40
1.0
 10
22.8650075502
 20
129.6469046568
 30
0.0
 10
22.9028959085
 20
129.6504879989
 30
0.0
 10
22.9814890065
 20
129.6456601119
 30
0.0
 10
23.0865679023
 20
129.5865604746
 30
0.0
 10
23.1456431893
 20
129.4814778612
 30
0.0
 10
23.150498114
 20
129.4028834681
 30
0.0
 10
23.1469037834
 20
129.3649947682
 30
0.0
 11
22.8650075502
 21
129.6469046568
 31
0.0
 11
22.9787668542
 21
129.6372024366
 31
0.0
 11
23.0788634277
 21
129.5788592188
 31
0.0
 11
23.1371958447
 21
129.4787577282
 31
0.0
 11
23.1469037834
 21
129.3649947682
 31
0.0
  0
SPLINE
  5
5CF
100
AcDbEntity
  8
RACCORDO
100
AcDbSpline
 62
253
  6
CONTINUOUS
 70
0
 71
3
 72
11
 73
7
 74
5
 42
0.0000001
 43
0.0000001
 44
0.0000000001
 12
0.0082756578
 22
0.445261122
 32
0.0
 13
-0.4452533212
 23
-0.0086852307
 33
0.0
 40
0.0
 40
0.0
 40
0.0
 40
0.0
 40
0.2501115952
 40
0.4999997138
 40
0.7498866439
 40
1.0
 40
1.0
 40
1.0
 40
1.0
 10
22.6271810694
 20
128.8453066683
 30
0.0
 10
22.6278710154
 20
128.8824283248
 30
0.0
 10
22.616235605
 20
128.9578321917
 30
0.0
 10
22.5547871486
 20
129.0548147609
 30
0.0
 10
22.4577998135
 20
129.1162243455
 30
0.0
 10
22.3823945226
 20
129.1279051379
 30
0.0
 10
22.3452732551
 20
129.1271810405
 30
0.0
 11
22.6271810694
 21
128.8453066683
 31
0.0
 11
22.608889748
 21
128.9551787222
 31
0.0
 11
22.5488656844
 21
129.0488878032
 31
0.0
 11
22.4551471771
 21
129.1088961663
 31
0.0
 11
22.3452732551
 21
129.1271810405
 31
0.0
  0
SPLINE
  5
5D0
100
AcDbEntity
  8
RACCORDO
100
AcDbSpline
 62
253
  6
CONTINUOUS
 70
0
 71
3
 72
11
 73
7
 74
5
 42
0.0000001
 43
0.0000001
 44
0.0000000001
 12
-0.0285988121
 22
0.4317179711
 32
0.0
 13
-0.4317195567
 23
0.0285748665
 33
0.0
 40
0.0
 40
0.0
 40
0.0
 40
0.0
 40
0.2444838109
 40
0.499998308
 40
0.755509181
 40
1.0
 40
1.0
 40
1.0
 40
1.0
 10
22.597966737
 20
128.8160589508
 30
0.0
 10
22.5956360882
 20
128.8512416357
 30
0.0
 10
22.5778052196
 20
128.9229363311
 30
0.0
 10
22.5146028749
 20
129.0146013759
 30
0.0
 10
22.4229382297
 20
129.0778051046
 30
0.0
 10
22.3512427734
 20
129.0956379728
 30
0.0
 10
22.3160589508
 20
129.097966737
 30
0.0
 11
22.597966737
 21
128.8160589508
 31
0.0
 11
22.5724612152
 21
128.918717353
 31
0.0
 11
22.509789682
 21
129.0097888495
 31
0.0
 11
22.4187203731
 21
129.0724607955
 31
0.0
 11
22.3160589508
 21
129.097966737
 31
0.0
  0
SPLINE
  5
5D1
100
AcDbEntity
  8
RACCORDO
100
AcDbSpline
 62
253
  6
CONTINUOUS
 70
0
 71
3
 72
11
 73
7
 74
5
 42
0.0000001
 43
0.0000001
 44
0.0000000001
 12
-0.0000498599
 22
-0.6210287275
 32
0.0
 13
-0.6210287244
 23
-0.0000791702
 33
0.0
 40
0.0
 40
0.0
 40
0.0
 40
0.0
 40
0.2500058224
 40
0.5000008131
 40
0.7499857999
 40
1.0
 40
1.0
 40
1.0
 40
1.0
 10
25.9929722756
 20
80.9069668024
 30
0.0
 10
25.9929681205
 20
80.8552132032
 30
0.0
 10
25.9723791901
 20
80.7506040401
 30
0.0
 10
25.8842594741
 20
80.6180311294
 30
0.0
 10
25.7524601032
 20
80.5291199741
 30
0.0
 10
25.6480176665
 20
80.5070343223
 30
0.0
 10
25.5962623332
 20
80.5070277244
 30
0.0
 11
25.9929722756
 21
80.9069668024
 31
0.0
 11
25.9628386421
 21
80.754658301
 31
0.0
 11
25.8769784639
 21
80.6253066234
 31
0.0
 11
25.7483218086
 21
80.5384195548
 31
0.0
 11
25.5962623332
 21
80.5070277244
 31
0.0
  0
SPLINE
  5
5D2
100
AcDbEntity
  8
RACCORDO
100
AcDbSpline
 62
253
  6
CONTINUOUS
 70
0
 71
3
 72
11
 73
7
 74
5
 42
0.0000001
 43
0.0000001
 44
0.0000000001
 12
0.043317967
 22
-0.4580212004
 32
0.0
 13
-0.4580087668
 23
0.0434492328
 33
0.0
 40
0.0
 40
0.0
 40
0.0
 40
0.0
 40
0.2481655321
 40
0.4999968063
 40
0.7518254935
 40
1.0
 40
1.0
 40
1.0
 40
1.0
 10
23.1469046568
 20
83.6349924498
 30
0.0
 10
23.1504879989
 20
83.5971040915
 30
0.0
 10
23.1456601119
 20
83.5185109935
 30
0.0
 10
23.0865604746
 20
83.4134320977
 30
0.0
 10
22.9814778612
 20
83.3543568107
 30
0.0
 10
22.9028834681
 20
83.349501886
 30
0.0
 10
22.8649947682
 20
83.3530962166
 30
0.0
 11
23.1469046568
 21
83.6349924498
 31
0.0
 11
23.1372024366
 21
83.5212331458
 31
0.0
 11
23.0788592188
 21
83.4211365723
 31
0.0
 11
22.9787577282
 21
83.3628041553
 31
0.0
 11
22.8649947682
 21
83.3530962166
 31
0.0
  0
SPLINE
  5
5D3
100
AcDbEntity
  8
RACCORDO
100
AcDbSpline
 62
253
  6
CONTINUOUS
 70
0
 71
3
 72
11
 73
7
 74
5
 42
0.0000001
 43
0.0000001
 44
0.0000000001
 12
0.445261122
 22
-0.0082756578
 32
0.0
 13
-0.0086852307
 23
0.4452533212
 33
0.0
 40
0.0
 40
0.0
 40
0.0
 40
0.0
 40
0.2501115952
 40
0.4999997138
 40
0.7498866439
 40
1.0
 40
1.0
 40
1.0
 40
1.0
 10
22.3453066683
 20
83.8728189306
 30
0.0
 10
22.3824283248
 20
83.8721289846
 30
0.0
 10
22.4578321917
 20
83.883764395
 30
0.0
 10
22.5548147609
 20
83.9452128514
 30
0.0
 10
22.6162243455
 20
84.0422001865
 30
0.0
 10
22.6279051379
 20
84.1176054774
 30
0.0
 10
22.6271810405
 20
84.1547267449
 30
0.0
 11
22.3453066683
 21
83.8728189306
 31
0.0
 11
22.4551787222
 21
83.891110252
 31
0.0
 11
22.5488878032
 21
83.9511343156
 31
0.0
 11
22.6088961663
 21
84.0448528229
 31
0.0
 11
22.6271810405
 21
84.1547267449
 31
0.0
  0
SPLINE
  5
5D4
100
AcDbEntity
  8
RACCORDO
100
AcDbSpline
 62
253
  6
CONTINUOUS
 70
0
 71
3
 72
11
 73
7
 74
5
 42
0.0000001
 43
0.0000001
 44
0.0000000001
 12
0.4317179711
 22
0.0285988121
 32
0.0
 13
0.0285748665
 23
0.4317195567
 33
0.0
 40
0.0
 40
0.0
 40
0.0
 40
0.0
 40
0.2444838109
 40
0.499998308
 40
0.755509181
 40
1.0
 40
1.0
 40
1.0
 40
1.0
 10
22.3160589508
 20
83.902033263
 30
0.0
 10
22.3512416357
 20
83.9043639118
 30
0.0
 10
22.4229363311
 20
83.9221947804
 30
0.0
 10
22.5146013759
 20
83.9853971251
 30
0.0
 10
22.5778051046
 20
84.0770617703
 30
0.0
 10
22.5956379728
 20
84.1487572266
 30
0.0
 10
22.597966737
 20
84.1839410492
 30
0.0
 11
22.3160589508
 21
83.902033263
 31
0.0
 11
22.418717353
 21
83.9275387848
 31
0.0
 11
22.5097888495
 21
83.990210318
 31
0.0
 11
22.5724607955
 21
84.0812796269
 31
0.0
 11
22.597966737
 21
84.1839410492
 31
0.0
  0
SPLINE
  5
5D5
100
AcDbEntity
  8
RACCORDO
100
AcDbSpline
 62
253
  6
CONTINUOUS
 70
0
 71
3
 72
11
 73
7
 74
5
 42
0.0000001
 43
0.0000001
 44
0.0000000001
 12
-0.431719563
 22
-0.0285747494
 32
0.0
 13
-0.0285985182
 23
-0.4317179891
 33
0.0
 40
0.0
 40
0.0
 40
0.0
 40
0.0
 40
0.2444907312
 40
0.5000016615
 40
0.7555160952
 40
1.0
 40
1.0
 40
1.0
 40
1.0
 10
-22.3160589508
 20
129.097966737
 30
0.0
 10
-22.3512427613
 20
129.0956379832
 30
0.0
 10
-22.4229382061
 20
129.0778050907
 30
0.0
 10
-22.5146028582
 20
129.0146014
 30
0.0
 10
-22.5778052094
 20
128.9229363497
 30
0.0
 10
-22.5956361112
 20
128.8512416507
 30
0.0
 10
-22.597966737
 20
128.8160589508
 30
0.0
 11
-22.3160589508
 21
129.097966737
 31
0.0
 11
-22.4187203351
 21
129.0724608019
 31
0.0
 11
-22.5097896745
 21
129.009788857
 31
0.0
 11
-22.5724612039
 21
128.9187173917
 31
0.0
 11
-22.597966737
 21
128.8160589508
 31
0.0
  0
SPLINE
  5
5D6
100
AcDbEntity
  8
RACCORDO
100
AcDbSpline
 62
253
  6
CONTINUOUS
 70
0
 71
3
 72
11
 73
7
 74
5
 42
0.0000001
 43
0.0000001
 44
0.0000000001
 12
-0.6210287368
 22
0.0000498599
 32
0.0
 13
-0.0000791702
 23
0.6210287338
 33
0.0
 40
0.0
 40
0.0
 40
0.0
 40
0.0
 40
0.2500058224
 40
0.5000008131
 40
0.7499857999
 40
1.0
 40
1.0
 40
1.0
 40
1.0
 10
-25.5930331976
 20
80.5070277244
 30
0.0
 10
-25.6447867976
 20
80.5070318795
 30
0.0
 10
-25.7493959624
 20
80.5276208105
 30
0.0
 10
-25.8819688741
 20
80.6157405292
 30
0.0
 10
-25.9708800297
 20
80.7475399034
 30
0.0
 10
-25.9929656777
 20
80.8519823423
 30
0.0
 10
-25.9929722756
 20
80.9037376763
 30
0.0
 11
-25.5930331976
 21
80.5070277244
 31
0.0
 11
-25.7453417012
 21
80.5371613588
 31
0.0
 11
-25.87469338
 21
80.6230215394
 31
0.0
 11
-25.961580448
 21
80.751678198
 31
0.0
 11
-25.9929722756
 21
80.9037376763
 31
0.0
  0
SPLINE
  5
5D7
100
AcDbEntity
  8
RACCORDO
100
AcDbSpline
 62
253
  6
CONTINUOUS
 70
0
 71
3
 72
11
 73
7
 74
5
 42
0.0000001
 43
0.0000001
 44
0.0000000001
 12
-0.0434494719
 22
0.4580087334
 32
0.0
 13
0.4580211454
 23
-0.0433184355
 33
0.0
 40
0.0
 40
0.0
 40
0.0
 40
0.0
 40
0.248174496
 40
0.5000031929
 40
0.7518344432
 40
1.0
 40
1.0
 40
1.0
 40
1.0
 10
-23.1469037748
 20
129.3649946425
 30
0.0
 10
-23.1504981251
 20
129.402883338
 30
0.0
 10
-23.1456432288
 20
129.4814777273
 30
0.0
 10
-23.0865680095
 20
129.5865603815
 30
0.0
 10
-22.9814891423
 20
129.6456600273
 30
0.0
 10
-22.9028960419
 20
129.6504880472
 30
0.0
 10
-22.8650076844
 20
129.646904666
 30
0.0
 11
-23.1469037748
 21
129.3649946425
 31
0.0
 11
-23.1371958886
 21
129.4787575994
 31
0.0
 11
-23.0788635255
 21
129.5788591235
 31
0.0
 11
-22.9787669917
 21
129.6372023823
 31
0.0
 11
-22.8650076844
 21
129.646904666
 31
0.0
  0
SPLINE
  5
5D8
100
AcDbEntity
  8
RACCORDO
100
AcDbSpline
 62
253
  6
CONTINUOUS
 70
0
 71
3
 72
11
 73
7
 74
5
 42
0.0000001
 43
0.0000001
 44
0.0000000001
 12
-0.4452532521
 22
0.0086830778
 32
0.0
 13
0.0082773346
 23
-0.4452609797
 33
0.0
 40
0.0
 40
0.0
 40
0.0
 40
0.0
 40
0.2501133591
 40
0.5000002957
 40
0.749888392
 40
1.0
 40
1.0
 40
1.0
 40
1.0
 10
-22.345273254
 20
129.1271810405
 30
0.0
 10
-22.3823945162
 20
129.1279049584
 30
0.0
 10
-22.4577997806
 20
129.1162244525
 30
0.0
 10
-22.5547871256
 20
129.0548147788
 30
0.0
 10
-22.6162354615
 20
128.9578322676
 30
0.0
 10
-22.6278711553
 20
128.8824284227
 30
0.0
 10
-22.6271810695
 20
128.8453067761
 30
0.0
 11
-22.345273254
 21
129.1271810405
 31
0.0
 11
-22.4551471526
 21
129.1088961867
 31
0.0
 11
-22.5488656427
 21
129.0488878429
 31
0.0
 11
-22.6088896937
 21
128.9551787986
 31
0.0
 11
-22.6271810695
 21
128.8453067761
 31
0.0
  0
SPLINE
  5
5D9
100
AcDbEntity
  8
RACCORDO
100
AcDbSpline
 62
253
  6
CONTINUOUS
 70
0
 71
3
 72
11
 73
7
 74
5
 42
0.0000001
 43
0.0000001
 44
0.0000000001
 12
-0.4580212004
 22
-0.043317967
 32
0.0
 13
0.0434492328
 23
0.4580087668
 33
0.0
 40
0.0
 40
0.0
 40
0.0
 40
0.0
 40
0.2481655321
 40
0.4999968063
 40
0.7518254935
 40
1.0
 40
1.0
 40
1.0
 40
1.0
 10
-22.8650075502
 20
83.3530953432
 30
0.0
 10
-22.9028959085
 20
83.3495120011
 30
0.0
 10
-22.9814890065
 20
83.3543398881
 30
0.0
 10
-23.0865679023
 20
83.4134395254
 30
0.0
 10
-23.1456431893
 20
83.5185221388
 30
0.0
 10
-23.150498114
 20
83.5971165319
 30
0.0
 10
-23.1469037834
 20
83.6350052318
 30
0.0
 11
-22.8650075502
 21
83.3530953432
 31
0.0
 11
-22.9787668542
 21
83.3627975634
 31
0.0
 11
-23.0788634277
 21
83.4211407812
 31
0.0
 11
-23.1371958447
 21
83.5212422718
 31
0.0
 11
-23.1469037834
 21
83.6350052318
 31
0.0
  0
SPLINE
  5
5DA
100
AcDbEntity
  8
RACCORDO
100
AcDbSpline
 62
253
  6
CONTINUOUS
 70
0
 71
3
 72
11
 73
7
 74
5
 42
0.0000001
 43
0.0000001
 44
0.0000000001
 12
-0.0082756578
 22
-0.445261122
 32
0.0
 13
0.4452533212
 23
0.0086852307
 33
0.0
 40
0.0
 40
0.0
 40
0.0
 40
0.0
 40
0.2501115952
 40
0.4999997138
 40
0.7498866439
 40
1.0
 40
1.0
 40
1.0
 40
1.0
 10
-22.6271810694
 20
84.1546933317
 30
0.0
 10
-22.6278710154
 20
84.1175716752
 30
0.0
 10
-22.616235605
 20
84.0421678083
 30
0.0
 10
-22.5547871486
 20
83.9451852391
 30
0.0
 10
-22.4577998135
 20
83.8837756545
 30
0.0
 10
-22.3823945226
 20
83.8720948621
 30
0.0
 10
-22.3452732551
 20
83.8728189595
 30
0.0
 11
-22.6271810694
 21
84.1546933317
 31
0.0
 11
-22.608889748
 21
84.0448212778
 31
0.0
 11
-22.5488656844
 21
83.9511121968
 31
0.0
 11
-22.4551471771
 21
83.8911038337
 31
0.0
 11
-22.3452732551
 21
83.8728189595
 31
0.0
  0
SPLINE
  5
5DB
100
AcDbEntity
  8
RACCORDO
100
AcDbSpline
 62
253
  6
CONTINUOUS
 70
0
 71
3
 72
11
 73
7
 74
5
 42
0.0000001
 43
0.0000001
 44
0.0000000001
 12
0.0285988121
 22
-0.4317179711
 32
0.0
 13
0.4317195567
 23
-0.0285748665
 33
0.0
 40
0.0
 40
0.0
 40
0.0
 40
0.0
 40
0.2444838109
 40
0.499998308
 40
0.755509181
 40
1.0
 40
1.0
 40
1.0
 40
1.0
 10
-22.597966737
 20
84.1839410492
 30
0.0
 10
-22.5956360882
 20
84.1487583643
 30
0.0
 10
-22.5778052196
 20
84.0770636689
 30
0.0
 10
-22.5146028749
 20
83.9853986241
 30
0.0
 10
-22.4229382297
 20
83.9221948954
 30
0.0
 10
-22.3512427734
 20
83.9043620272
 30
0.0
 10
-22.3160589508
 20
83.902033263
 30
0.0
 11
-22.597966737
 21
84.1839410492
 31
0.0
 11
-22.5724612152
 21
84.081282647
 31
0.0
 11
-22.509789682
 21
83.9902111505
 31
0.0
 11
-22.4187203731
 21
83.9275392045
 31
0.0
 11
-22.3160589508
 21
83.902033263
 31
0.0
  0
SPLINE
  5
5DC
100
AcDbEntity
  8
RACCORDO
100
AcDbSpline
 62
253
  6
CONTINUOUS
 70
0
 71
3
 72
11
 73
7
 74
5
 42
0.0000001
 43
0.0000001
 44
0.0000000001
 12
0.0000157207
 22
-0.8843607793
 32
0.0
 13
-0.8843607788
 23
0.0000318597
 33
0.0
 40
0.0
 40
0.0
 40
0.0
 40
0.0
 40
0.2501538446
 40
0.5000000678
 40
0.7498449811
 40
1.0
 40
1.0
 40
1.0
 40
1.0
 10
23.4288116597
 20
83.6350039128
 30
0.0
 10
23.4288129706
 20
83.5612618298
 30
0.0
 10
23.4023630661
 20
83.4121093053
 30
0.0
 10
23.278634984
 20
83.2213674834
 30
0.0
 10
23.087882494
 20
83.0976797915
 30
0.0
 10
22.9387385164
 20
83.0711856837
 30
0.0
 10
22.8649960872
 20
83.0711883403
 30
0.0
 11
23.4288116597
 21
83.6350039128
 31
0.0
 11
23.3883164079
 21
83.4175155503
 31
0.0
 11
23.267468617
 21
83.2325383348
 31
0.0
 11
23.0824807916
 21
83.111708904
 31
0.0
 11
22.8649960872
 21
83.0711883403
 31
0.0
  0
SPLINE
  5
5DD
100
AcDbEntity
  8
RACCORDO
100
AcDbSpline
 62
253
  6
CONTINUOUS
 70
0
 71
3
 72
11
 73
7
 74
5
 42
0.0000001
 43
0.0000001
 44
0.0000000001
 12
0.8843607793
 22
0.0000157207
 32
0.0
 13
-0.0000318597
 23
-0.8843607788
 33
0.0
 40
0.0
 40
0.0
 40
0.0
 40
0.0
 40
0.2501538446
 40
0.5000000678
 40
0.7498449811
 40
1.0
 40
1.0
 40
1.0
 40
1.0
 10
22.8649960872
 20
129.9288116597
 30
0.0
 10
22.9387381702
 20
129.9288129706
 30
0.0
 10
23.0878906947
 20
129.9023630661
 30
0.0
 10
23.2786325166
 20
129.778634984
 30
0.0
 10
23.4023202085
 20
129.587882494
 30
0.0
 10
23.4288143163
 20
129.4387385164
 30
0.0
 10
23.4288116597
 20
129.3649960872
 30
0.0
 11
22.8649960872
 21
129.9288116597
 31
0.0
 11
23.0824844497
 21
129.8883164079
 31
0.0
 11
23.2674616652
 21
129.767468617
 31
0.0
 11
23.388291096
 21
129.5824807916
 31
0.0
 11
23.4288116597
 21
129.3649960872
 31
0.0
  0
SPLINE
  5
5DE
100
AcDbEntity
  8
RACCORDO
100
AcDbSpline
 62
253
  6
CONTINUOUS
 70
0
 71
3
 72
11
 73
7
 74
5
 42
0.0000001
 43
0.0000001
 44
0.0000000001
 12
-0.0000310851
 22
0.8843607931
 32
0.0
 13
0.8843607935
 23
-0.0000166958
 33
0.0
 40
0.0
 40
0.0
 40
0.0
 40
0.0
 40
0.2501550041
 40
0.4999999352
 40
0.7498461618
 40
1.0
 40
1.0
 40
1.0
 40
1.0
 10
-23.4288116597
 20
129.3649960872
 30
0.0
 10
-23.4288142517
 20
129.4387385132
 30
0.0
 10
-23.402320283
 20
129.5878825
 30
0.0
 10
-23.278632518
 20
129.778634999
 30
0.0
 10
-23.0878906963
 20
129.9023630202
 30
0.0
 10
-22.9387381695
 20
129.9288130519
 30
0.0
 10
-22.8649960872
 20
129.9288116597
 30
0.0
 11
-23.4288116597
 21
129.3649960872
 31
0.0
 11
-23.3882911272
 21
129.5824807877
 31
0.0
 11
-23.2674616758
 21
129.7674686227
 31
0.0
 11
-23.0824844471
 21
129.8883164055
 31
0.0
 11
-22.8649960872
 21
129.9288116597
 31
0.0
  0
SPLINE
  5
5DF
100
AcDbEntity
  8
RACCORDO
100
AcDbSpline
 62
253
  6
CONTINUOUS
 70
0
 71
3
 72
11
 73
7
 74
5
 42
0.0000001
 43
0.0000001
 44
0.0000000001
 12
-0.8843607793
 22
-0.0000157207
 32
0.0
 13
0.0000318597
 23
0.8843607788
 33
0.0
 40
0.0
 40
0.0
 40
0.0
 40
0.0
 40
0.2501538446
 40
0.5000000678
 40
0.7498449811
 40
1.0
 40
1.0
 40
1.0
 40
1.0
 10
-22.8649960872
 20
83.0711883403
 30
0.0
 10
-22.9387381702
 20
83.0711870294
 30
0.0
 10
-23.0878906947
 20
83.0976369339
 30
0.0
 10
-23.2786325166
 20
83.221365016
 30
0.0
 10
-23.4023202085
 20
83.412117506
 30
0.0
 10
-23.4288143163
 20
83.5612614836
 30
0.0
 10
-23.4288116597
 20
83.6350039128
 30
0.0
 11
-22.8649960872
 21
83.0711883403
 31
0.0
 11
-23.0824844497
 21
83.1116835921
 31
0.0
 11
-23.2674616652
 21
83.232531383
 31
0.0
 11
-23.388291096
 21
83.4175192084
 31
0.0
 11
-23.4288116597
 21
83.6350039128
 31
0.0
  0
SPLINE
  5
5E0
100
AcDbEntity
  8
RACCORDO
100
AcDbSpline
 62
253
  6
CONTINUOUS
 70
0
 71
3
 72
11
 73
7
 74
5
 42
0.0000001
 43
0.0000001
 44
0.0000000001
 12
0.0000498599
 22
0.6210287382
 32
0.0
 13
0.6210287352
 23
0.0000791702
 33
0.0
 40
0.0
 40
0.0
 40
0.0
 40
0.0
 40
0.2500058224
 40
0.5000008131
 40
0.7499857999
 40
1.0
 40
1.0
 40
1.0
 40
1.0
 10
-25.9929722756
 20
132.0930331976
 30
0.0
 10
-25.9929681205
 20
132.1447867977
 30
0.0
 10
-25.9723791894
 20
132.2493959627
 30
0.0
 10
-25.8842594704
 20
132.3819688746
 30
0.0
 10
-25.7524600956
 20
132.4708800303
 30
0.0
 10
-25.6480176564
 20
132.4929656777
 30
0.0
 10
-25.5962623223
 20
132.4929722756
 30
0.0
 11
-25.9929722756
 21
132.0930331976
 31
0.0
 11
-25.962838641
 21
132.2453417015
 31
0.0
 11
-25.8769784601
 21
132.3746933805
 31
0.0
 11
-25.7483218011
 21
132.4615804484
 31
0.0
 11
-25.5962623223
 21
132.4929722756
 31
0.0
  0
SPLINE
  5
5E1
100
AcDbEntity
  8
RACCORDO
100
AcDbSpline
 62
253
  6
CONTINUOUS
 70
0
 71
3
 72
11
 73
7
 74
5
 42
0.0000001
 43
0.0000001
 44
0.0000000001
 12
0.6210287337
 22
-0.0000498599
 32
0.0
 13
0.0000791702
 23
-0.6210287307
 33
0.0
 40
0.0
 40
0.0
 40
0.0
 40
0.0
 40
0.2500058224
 40
0.5000008131
 40
0.7499857999
 40
1.0
 40
1.0
 40
1.0
 40
1.0
 10
25.5930331976
 20
132.4929722756
 30
0.0
 10
25.6447867973
 20
132.4929681205
 30
0.0
 10
25.7493959615
 20
132.4723791897
 30
0.0
 10
25.8819688729
 20
132.3842594719
 30
0.0
 10
25.9708800284
 20
132.2524600988
 30
0.0
 10
25.9929656777
 20
132.1480176606
 30
0.0
 10
25.9929722756
 20
132.0962623268
 30
0.0
 11
25.5930331976
 21
132.4929722756
 31
0.0
 11
25.7453417004
 21
132.4628386415
 31
0.0
 11
25.8746933789
 21
132.3769784617
 31
0.0
 11
25.9615804471
 21
132.2483218042
 31
0.0
 11
25.9929722756
 21
132.0962623268
 31
0.0
  0
SPLINE
  5
5E2
100
AcDbEntity
  8
RACCORDO
100
AcDbSpline
 62
253
  6
CONTINUOUS
 70
0
 71
3
 72
9
 73
5
 74
3
 42
0.0000001
 43
0.0000001
 44
0.0000000001
 12
0.0423976482
 22
0.0021313418
 32
0.0
 13
0.0197976219
 23
0.037552062
 33
0.0
 40
0.0
 40
0.0
 40
0.0
 40
0.0
 40
0.3847352126
 40
1.0
 40
1.0
 40
1.0
 40
1.0
 10
22.3160589024
 20
-83.9020340896
 30
0.0
 10
22.3214961918
 20
-83.9017607555
 30
0.0
 10
22.3342584906
 20
-83.8926940185
 30
0.0
 10
22.3412129949
 20
-83.8805155707
 30
0.0
 10
22.3452732547
 20
-83.8728140836
 30
0.0
 11
22.3160589024
 21
-83.9020340896
 31
0.0
 11
22.3304567267
 21
-83.8943235704
 31
0.0
 11
22.3452732547
 21
-83.8728140836
 31
0.0
  0
SPLINE
  5
5E3
100
AcDbEntity
  8
RACCORDO
100
AcDbSpline
 62
253
  6
CONTINUOUS
 70
0
 71
3
 72
9
 73
5
 74
3
 42
0.0000001
 43
0.0000001
 44
0.0000000001
 12
0.0021270596
 22
0.0423943008
 32
0.0
 13
0.0375491867
 23
0.0197954465
 33
0.0
 40
0.0
 40
0.0
 40
0.0
 40
0.0
 40
0.3847717293
 40
1.0
 40
1.0
 40
1.0
 40
1.0
 10
22.5979665987
 20
-84.1839410573
 30
0.0
 10
22.5982394095
 20
-84.1785036811
 30
0.0
 10
22.6073025503
 20
-84.1657405717
 30
0.0
 10
22.619480477
 20
-84.1587863185
 30
0.0
 10
22.6271809174
 20
-84.1547267457
 30
0.0
 11
22.5979665987
 21
-84.1839410573
 31
0.0
 11
22.605675032
 21
-84.1695419108
 31
0.0
 11
22.6271809174
 21
-84.1547267457
 31
0.0
  0
SPLINE
  5
5E4
100
AcDbEntity
  8
RACCORDO
100
AcDbSpline
 62
253
  6
CONTINUOUS
 70
0
 71
3
 72
9
 73
5
 74
3
 42
0.0000001
 43
0.0000001
 44
0.0000000001
 12
0.0021313418
 22
-0.0423976482
 32
0.0
 13
0.037552062
 23
-0.0197976219
 33
0.0
 40
0.0
 40
0.0
 40
0.0
 40
0.0
 40
0.3847352126
 40
1.0
 40
1.0
 40
1.0
 40
1.0
 10
22.5979659104
 20
-128.8160589024
 30
0.0
 10
22.5982392445
 20
-128.8214961918
 30
0.0
 10
22.6073059815
 20
-128.8342584906
 30
0.0
 10
22.6194844293
 20
-128.8412129949
 30
0.0
 10
22.6271859164
 20
-128.8452732547
 30
0.0
 11
22.5979659104
 21
-128.8160589024
 31
0.0
 11
22.6056764296
 21
-128.8304567267
 31
0.0
 11
22.6271859164
 21
-128.8452732547
 31
0.0
  0
SPLINE
  5
5E5
100
AcDbEntity
  8
RACCORDO
100
AcDbSpline
 62
253
  6
CONTINUOUS
 70
0
 71
3
 72
9
 73
5
 74
3
 42
0.0000001
 43
0.0000001
 44
0.0000000001
 12
0.0423943008
 22
-0.0021270596
 32
0.0
 13
0.0197954465
 23
-0.0375491867
 33
0.0
 40
0.0
 40
0.0
 40
0.0
 40
0.0
 40
0.3847717293
 40
1.0
 40
1.0
 40
1.0
 40
1.0
 10
22.3160589427
 20
-129.0979665987
 30
0.0
 10
22.3214963189
 20
-129.0982394095
 30
0.0
 10
22.3342594283
 20
-129.1073025503
 30
0.0
 10
22.3412136815
 20
-129.119480477
 30
0.0
 10
22.3452732543
 20
-129.1271809174
 30
0.0
 11
22.3160589427
 21
-129.0979665987
 31
0.0
 11
22.3304580892
 21
-129.105675032
 31
0.0
 11
22.3452732543
 21
-129.1271809174
 31
0.0
  0
SPLINE
  5
5E6
100
AcDbEntity
  8
RACCORDO
100
AcDbSpline
 62
253
  6
CONTINUOUS
 70
0
 71
3
 72
9
 73
5
 74
3
 42
0.0000001
 43
0.0000001
 44
0.0000000001
 12
-0.0423976482
 22
-0.0021313418
 32
0.0
 13
-0.0197976219
 23
-0.037552062
 33
0.0
 40
0.0
 40
0.0
 40
0.0
 40
0.0
 40
0.3847352126
 40
1.0
 40
1.0
 40
1.0
 40
1.0
 10
-22.3160589024
 20
-129.0979659104
 30
0.0
 10
-22.3214961918
 20
-129.0982392445
 30
0.0
 10
-22.3342584906
 20
-129.1073059815
 30
0.0
 10
-22.3412129949
 20
-129.1194844293
 30
0.0
 10
-22.3452732547
 20
-129.1271859164
 30
0.0
 11
-22.3160589024
 21
-129.0979659104
 31
0.0
 11
-22.3304567267
 21
-129.1056764296
 31
0.0
 11
-22.3452732547
 21
-129.1271859164
 31
0.0
  0
SPLINE
  5
5E7
100
AcDbEntity
  8
RACCORDO
100
AcDbSpline
 62
253
  6
CONTINUOUS
 70
0
 71
3
 72
9
 73
5
 74
3
 42
0.0000001
 43
0.0000001
 44
0.0000000001
 12
-0.0021270596
 22
-0.0423943008
 32
0.0
 13
-0.0375491867
 23
-0.0197954465
 33
0.0
 40
0.0
 40
0.0
 40
0.0
 40
0.0
 40
0.3847717293
 40
1.0
 40
1.0
 40
1.0
 40
1.0
 10
-22.5979665987
 20
-128.8160589427
 30
0.0
 10
-22.5982394095
 20
-128.8214963189
 30
0.0
 10
-22.6073025503
 20
-128.8342594283
 30
0.0
 10
-22.619480477
 20
-128.8412136815
 30
0.0
 10
-22.6271809174
 20
-128.8452732543
 30
0.0
 11
-22.5979665987
 21
-128.8160589427
 31
0.0
 11
-22.605675032
 21
-128.8304580892
 31
0.0
 11
-22.6271809174
 21
-128.8452732543
 31
0.0
  0
SPLINE
  5
5E8
100
AcDbEntity
  8
RACCORDO
100
AcDbSpline
 62
253
  6
CONTINUOUS
 70
0
 71
3
 72
9
 73
5
 74
3
 42
0.0000001
 43
0.0000001
 44
0.0000000001
 12
-0.0021276964
 22
0.0423951815
 32
0.0
 13
-0.0375503771
 23
0.019795143
 33
0.0
 40
0.0
 40
0.0
 40
0.0
 40
0.0
 40
0.3847699139
 40
1.0
 40
1.0
 40
1.0
 40
1.0
 10
-22.5979665783
 20
-84.1839410585
 30
0.0
 10
-22.5982394695
 20
-84.178503595
 30
0.0
 10
-22.607303136
 20
-84.1657404049
 30
0.0
 10
-22.6194814463
 20
-84.1587862678
 30
0.0
 10
-22.6271821536
 20
-84.1547267452
 30
0.0
 11
-22.5979665783
 21
-84.1839410585
 31
0.0
 11
-22.6056754383
 21
-84.1695418299
 31
0.0
 11
-22.6271821536
 21
-84.1547267452
 31
0.0
  0
SPLINE
  5
5E9
100
AcDbEntity
  8
RACCORDO
100
AcDbSpline
 62
253
  6
CONTINUOUS
 70
0
 71
3
 72
9
 73
5
 74
3
 42
0.0000001
 43
0.0000001
 44
0.0000000001
 12
-0.0423952029
 22
0.002125971
 32
0.0
 13
-0.0197954014
 23
0.0375501673
 33
0.0
 40
0.0
 40
0.0
 40
0.0
 40
0.0
 40
0.384766998
 40
1.0
 40
1.0
 40
1.0
 40
1.0
 10
-22.3160586523
 20
-83.9020383978
 30
0.0
 10
-22.3214960773
 20
-83.9017657299
 30
0.0
 10
-22.3342595021
 20
-83.8927022499
 30
0.0
 10
-22.3412136612
 20
-83.8805239949
 30
0.0
 10
-22.3452732559
 20
-83.8728232942
 30
0.0
 11
-22.3160586523
 21
-83.9020383978
 31
0.0
 11
-22.3304579301
 21
-83.894329945
 31
0.0
 11
-22.3452732559
 21
-83.8728232942
 31
0.0
  0
SPLINE
  5
5EA
100
AcDbEntity
  8
RACCORDO
100
AcDbSpline
 62
253
  6
CONTINUOUS
 70
0
 71
3
 72
11
 73
7
 74
5
 42
0.0000001
 43
0.0000001
 44
0.0000000001
 12
0.4580212004
 22
0.043317967
 32
0.0
 13
-0.0434492328
 23
-0.4580087668
 33
0.0
 40
0.0
 40
0.0
 40
0.0
 40
0.0
 40
0.2481655321
 40
0.4999968063
 40
0.7518254935
 40
1.0
 40
1.0
 40
1.0
 40
1.0
 10
22.8650075502
 20
-83.3530953432
 30
0.0
 10
22.9028959085
 20
-83.3495120011
 30
0.0
 10
22.9814890065
 20
-83.3543398881
 30
0.0
 10
23.0865679023
 20
-83.4134395254
 30
0.0
 10
23.1456431893
 20
-83.5185221388
 30
0.0
 10
23.150498114
 20
-83.5971165319
 30
0.0
 10
23.1469037834
 20
-83.6350052318
 30
0.0
 11
22.8650075502
 21
-83.3530953432
 31
0.0
 11
22.9787668542
 21
-83.3627975634
 31
0.0
 11
23.0788634277
 21
-83.4211407812
 31
0.0
 11
23.1371958447
 21
-83.5212422718
 31
0.0
 11
23.1469037834
 21
-83.6350052318
 31
0.0
  0
SPLINE
  5
5EB
100
AcDbEntity
  8
RACCORDO
100
AcDbSpline
 62
253
  6
CONTINUOUS
 70
0
 71
3
 72
11
 73
7
 74
5
 42
0.0000001
 43
0.0000001
 44
0.0000000001
 12
0.0082756578
 22
0.445261122
 32
0.0
 13
-0.4452533212
 23
-0.0086852307
 33
0.0
 40
0.0
 40
0.0
 40
0.0
 40
0.0
 40
0.2501115952
 40
0.4999997138
 40
0.7498866439
 40
1.0
 40
1.0
 40
1.0
 40
1.0
 10
22.6271810694
 20
-84.1546933317
 30
0.0
 10
22.6278710154
 20
-84.1175716752
 30
0.0
 10
22.616235605
 20
-84.0421678083
 30
0.0
 10
22.5547871486
 20
-83.9451852391
 30
0.0
 10
22.4577998135
 20
-83.8837756545
 30
0.0
 10
22.3823945226
 20
-83.8720948621
 30
0.0
 10
22.3452732551
 20
-83.8728189595
 30
0.0
 11
22.6271810694
 21
-84.1546933317
 31
0.0
 11
22.608889748
 21
-84.0448212778
 31
0.0
 11
22.5488656844
 21
-83.9511121968
 31
0.0
 11
22.4551471771
 21
-83.8911038337
 31
0.0
 11
22.3452732551
 21
-83.8728189595
 31
0.0
  0
SPLINE
  5
5EC
100
AcDbEntity
  8
RACCORDO
100
AcDbSpline
 62
253
  6
CONTINUOUS
 70
0
 71
3
 72
11
 73
7
 74
5
 42
0.0000001
 43
0.0000001
 44
0.0000000001
 12
-0.0285988121
 22
0.4317179711
 32
0.0
 13
-0.4317195567
 23
0.0285748665
 33
0.0
 40
0.0
 40
0.0
 40
0.0
 40
0.0
 40
0.2444838109
 40
0.499998308
 40
0.755509181
 40
1.0
 40
1.0
 40
1.0
 40
1.0
 10
22.597966737
 20
-84.1839410492
 30
0.0
 10
22.5956360882
 20
-84.1487583643
 30
0.0
 10
22.5778052196
 20
-84.0770636689
 30
0.0
 10
22.5146028749
 20
-83.9853986241
 30
0.0
 10
22.4229382297
 20
-83.9221948954
 30
0.0
 10
22.3512427734
 20
-83.9043620272
 30
0.0
 10
22.3160589508
 20
-83.902033263
 30
0.0
 11
22.597966737
 21
-84.1839410492
 31
0.0
 11
22.5724612152
 21
-84.081282647
 31
0.0
 11
22.509789682
 21
-83.9902111505
 31
0.0
 11
22.4187203731
 21
-83.9275392045
 31
0.0
 11
22.3160589508
 21
-83.902033263
 31
0.0
  0
SPLINE
  5
5ED
100
AcDbEntity
  8
RACCORDO
100
AcDbSpline
 62
253
  6
CONTINUOUS
 70
0
 71
3
 72
11
 73
7
 74
5
 42
0.0000001
 43
0.0000001
 44
0.0000000001
 12
-0.0000498599
 22
-0.6210287275
 32
0.0
 13
-0.6210287244
 23
-0.0000791702
 33
0.0
 40
0.0
 40
0.0
 40
0.0
 40
0.0
 40
0.2500058224
 40
0.5000008131
 40
0.7499857999
 40
1.0
 40
1.0
 40
1.0
 40
1.0
 10
25.9929722756
 20
-132.0930331976
 30
0.0
 10
25.9929681205
 20
-132.1447867968
 30
0.0
 10
25.9723791901
 20
-132.2493959599
 30
0.0
 10
25.8842594741
 20
-132.3819688706
 30
0.0
 10
25.7524601032
 20
-132.4708800259
 30
0.0
 10
25.6480176665
 20
-132.4929656777
 30
0.0
 10
25.5962623332
 20
-132.4929722756
 30
0.0
 11
25.9929722756
 21
-132.0930331976
 31
0.0
 11
25.9628386421
 21
-132.245341699
 31
0.0
 11
25.8769784639
 21
-132.3746933766
 31
0.0
 11
25.7483218086
 21
-132.4615804452
 31
0.0
 11
25.5962623332
 21
-132.4929722756
 31
0.0
  0
SPLINE
  5
5EE
100
AcDbEntity
  8
RACCORDO
100
AcDbSpline
 62
253
  6
CONTINUOUS
 70
0
 71
3
 72
11
 73
7
 74
5
 42
0.0000001
 43
0.0000001
 44
0.0000000001
 12
0.043317967
 22
-0.4580212004
 32
0.0
 13
-0.4580087668
 23
0.0434492328
 33
0.0
 40
0.0
 40
0.0
 40
0.0
 40
0.0
 40
0.2481655321
 40
0.4999968063
 40
0.7518254935
 40
1.0
 40
1.0
 40
1.0
 40
1.0
 10
23.1469046568
 20
-129.3650075502
 30
0.0
 10
23.1504879989
 20
-129.4028959085
 30
0.0
 10
23.1456601119
 20
-129.4814890065
 30
0.0
 10
23.0865604746
 20
-129.5865679023
 30
0.0
 10
22.9814778612
 20
-129.6456431893
 30
0.0
 10
22.9028834681
 20
-129.650498114
 30
0.0
 10
22.8649947682
 20
-129.6469037834
 30
0.0
 11
23.1469046568
 21
-129.3650075502
 31
0.0
 11
23.1372024366
 21
-129.4787668542
 31
0.0
 11
23.0788592188
 21
-129.5788634277
 31
0.0
 11
22.9787577282
 21
-129.6371958447
 31
0.0
 11
22.8649947682
 21
-129.6469037834
 31
0.0
  0
SPLINE
  5
5EF
100
AcDbEntity
  8
RACCORDO
100
AcDbSpline
 62
253
  6
CONTINUOUS
 70
0
 71
3
 72
11
 73
7
 74
5
 42
0.0000001
 43
0.0000001
 44
0.0000000001
 12
0.445261122
 22
-0.0082756578
 32
0.0
 13
-0.0086852307
 23
0.4452533212
 33
0.0
 40
0.0
 40
0.0
 40
0.0
 40
0.0
 40
0.2501115952
 40
0.4999997138
 40
0.7498866439
 40
1.0
 40
1.0
 40
1.0
 40
1.0
 10
22.3453066683
 20
-129.1271810694
 30
0.0
 10
22.3824283248
 20
-129.1278710154
 30
0.0
 10
22.4578321917
 20
-129.116235605
 30
0.0
 10
22.5548147609
 20
-129.0547871486
 30
0.0
 10
22.6162243455
 20
-128.9577998135
 30
0.0
 10
22.6279051379
 20
-128.8823945226
 30
0.0
 10
22.6271810405
 20
-128.8452732551
 30
0.0
 11
22.3453066683
 21
-129.1271810694
 31
0.0
 11
22.4551787222
 21
-129.108889748
 31
0.0
 11
22.5488878032
 21
-129.0488656844
 31
0.0
 11
22.6088961663
 21
-128.9551471771
 31
0.0
 11
22.6271810405
 21
-128.8452732551
 31
0.0
  0
SPLINE
  5
5F0
100
AcDbEntity
  8
RACCORDO
100
AcDbSpline
 62
253
  6
CONTINUOUS
 70
0
 71
3
 72
11
 73
7
 74
5
 42
0.0000001
 43
0.0000001
 44
0.0000000001
 12
0.4317179711
 22
0.0285988121
 32
0.0
 13
0.0285748665
 23
0.4317195567
 33
0.0
 40
0.0
 40
0.0
 40
0.0
 40
0.0
 40
0.2444838109
 40
0.499998308
 40
0.755509181
 40
1.0
 40
1.0
 40
1.0
 40
1.0
 10
22.3160589508
 20
-129.097966737
 30
0.0
 10
22.3512416357
 20
-129.0956360882
 30
0.0
 10
22.4229363311
 20
-129.0778052196
 30
0.0
 10
22.5146013759
 20
-129.0146028749
 30
0.0
 10
22.5778051046
 20
-128.9229382297
 30
0.0
 10
22.5956379728
 20
-128.8512427734
 30
0.0
 10
22.597966737
 20
-128.8160589508
 30
0.0
 11
22.3160589508
 21
-129.097966737
 31
0.0
 11
22.418717353
 21
-129.0724612152
 31
0.0
 11
22.5097888495
 21
-129.009789682
 31
0.0
 11
22.5724607955
 21
-128.9187203731
 31
0.0
 11
22.597966737
 21
-128.8160589508
 31
0.0
  0
SPLINE
  5
5F1
100
AcDbEntity
  8
RACCORDO
100
AcDbSpline
 62
253
  6
CONTINUOUS
 70
0
 71
3
 72
11
 73
7
 74
5
 42
0.0000001
 43
0.0000001
 44
0.0000000001
 12
-0.431719563
 22
-0.0285747494
 32
0.0
 13
-0.0285985182
 23
-0.4317179891
 33
0.0
 40
0.0
 40
0.0
 40
0.0
 40
0.0
 40
0.2444907312
 40
0.5000016615
 40
0.7555160952
 40
1.0
 40
1.0
 40
1.0
 40
1.0
 10
-22.3160589508
 20
-83.902033263
 30
0.0
 10
-22.3512427613
 20
-83.9043620168
 30
0.0
 10
-22.4229382061
 20
-83.9221949093
 30
0.0
 10
-22.5146028582
 20
-83.9853986
 30
0.0
 10
-22.5778052094
 20
-84.0770636503
 30
0.0
 10
-22.5956361112
 20
-84.1487583493
 30
0.0
 10
-22.597966737
 20
-84.1839410492
 30
0.0
 11
-22.3160589508
 21
-83.902033263
 31
0.0
 11
-22.4187203351
 21
-83.9275391981
 31
0.0
 11
-22.5097896745
 21
-83.990211143
 31
0.0
 11
-22.5724612039
 21
-84.0812826083
 31
0.0
 11
-22.597966737
 21
-84.1839410492
 31
0.0
  0
SPLINE
  5
5F2
100
AcDbEntity
  8
RACCORDO
100
AcDbSpline
 62
253
  6
CONTINUOUS
 70
0
 71
3
 72
11
 73
7
 74
5
 42
0.0000001
 43
0.0000001
 44
0.0000000001
 12
-0.6210287368
 22
0.0000498599
 32
0.0
 13
-0.0000791702
 23
0.6210287338
 33
0.0
 40
0.0
 40
0.0
 40
0.0
 40
0.0
 40
0.2500058224
 40
0.5000008131
 40
0.7499857999
 40
1.0
 40
1.0
 40
1.0
 40
1.0
 10
-25.5930331976
 20
-132.4929722756
 30
0.0
 10
-25.6447867976
 20
-132.4929681205
 30
0.0
 10
-25.7493959624
 20
-132.4723791895
 30
0.0
 10
-25.8819688741
 20
-132.3842594708
 30
0.0
 10
-25.9708800297
 20
-132.2524600966
 30
0.0
 10
-25.9929656777
 20
-132.1480176577
 30
0.0
 10
-25.9929722756
 20
-132.0962623237
 30
0.0
 11
-25.5930331976
 21
-132.4929722756
 31
0.0
 11
-25.7453417012
 21
-132.4628386412
 31
0.0
 11
-25.87469338
 21
-132.3769784606
 31
0.0
 11
-25.961580448
 21
-132.248321802
 31
0.0
 11
-25.9929722756
 21
-132.0962623237
 31
0.0
  0
SPLINE
  5
5F3
100
AcDbEntity
  8
RACCORDO
100
AcDbSpline
 62
253
  6
CONTINUOUS
 70
0
 71
3
 72
11
 73
7
 74
5
 42
0.0000001
 43
0.0000001
 44
0.0000000001
 12
-0.0434494719
 22
0.4580087334
 32
0.0
 13
0.4580211454
 23
-0.0433184355
 33
0.0
 40
0.0
 40
0.0
 40
0.0
 40
0.0
 40
0.248174496
 40
0.5000031929
 40
0.7518344432
 40
1.0
 40
1.0
 40
1.0
 40
1.0
 10
-23.1469037748
 20
-83.6350053575
 30
0.0
 10
-23.1504981251
 20
-83.597116662
 30
0.0
 10
-23.1456432288
 20
-83.5185222727
 30
0.0
 10
-23.0865680095
 20
-83.4134396185
 30
0.0
 10
-22.9814891423
 20
-83.3543399727
 30
0.0
 10
-22.9028960419
 20
-83.3495119528
 30
0.0
 10
-22.8650076844
 20
-83.353095334
 30
0.0
 11
-23.1469037748
 21
-83.6350053575
 31
0.0
 11
-23.1371958886
 21
-83.5212424006
 31
0.0
 11
-23.0788635255
 21
-83.4211408765
 31
0.0
 11
-22.9787669917
 21
-83.3627976177
 31
0.0
 11
-22.8650076844
 21
-83.353095334
 31
0.0
  0
SPLINE
  5
5F4
100
AcDbEntity
  8
RACCORDO
100
AcDbSpline
 62
253
  6
CONTINUOUS
 70
0
 71
3
 72
11
 73
7
 74
5
 42
0.0000001
 43
0.0000001
 44
0.0000000001
 12
-0.4452532521
 22
0.0086830778
 32
0.0
 13
0.0082773346
 23
-0.4452609797
 33
0.0
 40
0.0
 40
0.0
 40
0.0
 40
0.0
 40
0.2501133591
 40
0.5000002957
 40
0.749888392
 40
1.0
 40
1.0
 40
1.0
 40
1.0
 10
-22.345273254
 20
-83.8728189595
 30
0.0
 10
-22.3823945162
 20
-83.8720950416
 30
0.0
 10
-22.4577997806
 20
-83.8837755475
 30
0.0
 10
-22.5547871256
 20
-83.9451852212
 30
0.0
 10
-22.6162354615
 20
-84.0421677324
 30
0.0
 10
-22.6278711553
 20
-84.1175715773
 30
0.0
 10
-22.6271810695
 20
-84.1546932239
 30
0.0
 11
-22.345273254
 21
-83.8728189595
 31
0.0
 11
-22.4551471526
 21
-83.8911038133
 31
0.0
 11
-22.5488656427
 21
-83.9511121571
 31
0.0
 11
-22.6088896937
 21
-84.0448212014
 31
0.0
 11
-22.6271810695
 21
-84.1546932239
 31
0.0
  0
SPLINE
  5
5F5
100
AcDbEntity
  8
RACCORDO
100
AcDbSpline
 62
253
  6
CONTINUOUS
 70
0
 71
3
 72
11
 73
7
 74
5
 42
0.0000001
 43
0.0000001
 44
0.0000000001
 12
-0.4580212004
 22
-0.043317967
 32
0.0
 13
0.0434492328
 23
0.4580087668
 33
0.0
 40
0.0
 40
0.0
 40
0.0
 40
0.0
 40
0.2481655321
 40
0.4999968063
 40
0.7518254935
 40
1.0
 40
1.0
 40
1.0
 40
1.0
 10
-22.8650075502
 20
-129.6469046568
 30
0.0
 10
-22.9028959085
 20
-129.6504879989
 30
0.0
 10
-22.9814890065
 20
-129.6456601119
 30
0.0
 10
-23.0865679023
 20
-129.5865604746
 30
0.0
 10
-23.1456431893
 20
-129.4814778612
 30
0.0
 10
-23.150498114
 20
-129.4028834681
 30
0.0
 10
-23.1469037834
 20
-129.3649947682
 30
0.0
 11
-22.8650075502
 21
-129.6469046568
 31
0.0
 11
-22.9787668542
 21
-129.6372024366
 31
0.0
 11
-23.0788634277
 21
-129.5788592188
 31
0.0
 11
-23.1371958447
 21
-129.4787577282
 31
0.0
 11
-23.1469037834
 21
-129.3649947682
 31
0.0
  0
SPLINE
  5
5F6
100
AcDbEntity
  8
RACCORDO
100
AcDbSpline
 62
253
  6
CONTINUOUS
 70
0
 71
3
 72
11
 73
7
 74
5
 42
0.0000001
 43
0.0000001
 44
0.0000000001
 12
-0.0082756578
 22
-0.445261122
 32
0.0
 13
0.4452533212
 23
0.0086852307
 33
0.0
 40
0.0
 40
0.0
 40
0.0
 40
0.0
 40
0.2501115952
 40
0.4999997138
 40
0.7498866439
 40
1.0
 40
1.0
 40
1.0
 40
1.0
 10
-22.6271810694
 20
-128.8453066683
 30
0.0
 10
-22.6278710154
 20
-128.8824283248
 30
0.0
 10
-22.616235605
 20
-128.9578321917
 30
0.0
 10
-22.5547871486
 20
-129.0548147609
 30
0.0
 10
-22.4577998135
 20
-129.1162243455
 30
0.0
 10
-22.3823945226
 20
-129.1279051379
 30
0.0
 10
-22.3452732551
 20
-129.1271810405
 30
0.0
 11
-22.6271810694
 21
-128.8453066683
 31
0.0
 11
-22.608889748
 21
-128.9551787222
 31
0.0
 11
-22.5488656844
 21
-129.0488878032
 31
0.0
 11
-22.4551471771
 21
-129.1088961663
 31
0.0
 11
-22.3452732551
 21
-129.1271810405
 31
0.0
  0
SPLINE
  5
5F7
100
AcDbEntity
  8
RACCORDO
100
AcDbSpline
 62
253
  6
CONTINUOUS
 70
0
 71
3
 72
11
 73
7
 74
5
 42
0.0000001
 43
0.0000001
 44
0.0000000001
 12
0.0285988121
 22
-0.4317179711
 32
0.0
 13
0.4317195567
 23
-0.0285748665
 33
0.0
 40
0.0
 40
0.0
 40
0.0
 40
0.0
 40
0.2444838109
 40
0.499998308
 40
0.755509181
 40
1.0
 40
1.0
 40
1.0
 40
1.0
 10
-22.597966737
 20
-128.8160589508
 30
0.0
 10
-22.5956360882
 20
-128.8512416357
 30
0.0
 10
-22.5778052196
 20
-128.9229363311
 30
0.0
 10
-22.5146028749
 20
-129.0146013759
 30
0.0
 10
-22.4229382297
 20
-129.0778051046
 30
0.0
 10
-22.3512427734
 20
-129.0956379728
 30
0.0
 10
-22.3160589508
 20
-129.097966737
 30
0.0
 11
-22.597966737
 21
-128.8160589508
 31
0.0
 11
-22.5724612152
 21
-128.918717353
 31
0.0
 11
-22.509789682
 21
-129.0097888495
 31
0.0
 11
-22.4187203731
 21
-129.0724607955
 31
0.0
 11
-22.3160589508
 21
-129.097966737
 31
0.0
  0
SPLINE
  5
5F8
100
AcDbEntity
  8
RACCORDO
100
AcDbSpline
 62
253
  6
CONTINUOUS
 70
0
 71
3
 72
11
 73
7
 74
5
 42
0.0000001
 43
0.0000001
 44
0.0000000001
 12
0.0000157207
 22
-0.8843607793
 32
0.0
 13
-0.8843607788
 23
0.0000318597
 33
0.0
 40
0.0
 40
0.0
 40
0.0
 40
0.0
 40
0.2501538446
 40
0.5000000678
 40
0.7498449811
 40
1.0
 40
1.0
 40
1.0
 40
1.0
 10
23.4288116597
 20
-129.3649960872
 30
0.0
 10
23.4288129706
 20
-129.4387381702
 30
0.0
 10
23.4023630661
 20
-129.5878906947
 30
0.0
 10
23.278634984
 20
-129.7786325166
 30
0.0
 10
23.087882494
 20
-129.9023202085
 30
0.0
 10
22.9387385164
 20
-129.9288143163
 30
0.0
 10
22.8649960872
 20
-129.9288116597
 30
0.0
 11
23.4288116597
 21
-129.3649960872
 31
0.0
 11
23.3883164079
 21
-129.5824844497
 31
0.0
 11
23.267468617
 21
-129.7674616652
 31
0.0
 11
23.0824807916
 21
-129.888291096
 31
0.0
 11
22.8649960872
 21
-129.9288116597
 31
0.0
  0
SPLINE
  5
5F9
100
AcDbEntity
  8
RACCORDO
100
AcDbSpline
 62
253
  6
CONTINUOUS
 70
0
 71
3
 72
11
 73
7
 74
5
 42
0.0000001
 43
0.0000001
 44
0.0000000001
 12
0.8843607793
 22
0.0000157207
 32
0.0
 13
-0.0000318597
 23
-0.8843607788
 33
0.0
 40
0.0
 40
0.0
 40
0.0
 40
0.0
 40
0.2501538446
 40
0.5000000678
 40
0.7498449811
 40
1.0
 40
1.0
 40
1.0
 40
1.0
 10
22.8649960872
 20
-83.0711883403
 30
0.0
 10
22.9387381702
 20
-83.0711870294
 30
0.0
 10
23.0878906947
 20
-83.0976369339
 30
0.0
 10
23.2786325166
 20
-83.221365016
 30
0.0
 10
23.4023202085
 20
-83.412117506
 30
0.0
 10
23.4288143163
 20
-83.5612614836
 30
0.0
 10
23.4288116597
 20
-83.6350039128
 30
0.0
 11
22.8649960872
 21
-83.0711883403
 31
0.0
 11
23.0824844497
 21
-83.1116835921
 31
0.0
 11
23.2674616652
 21
-83.232531383
 31
0.0
 11
23.388291096
 21
-83.4175192084
 31
0.0
 11
23.4288116597
 21
-83.6350039128
 31
0.0
  0
SPLINE
  5
5FA
100
AcDbEntity
  8
RACCORDO
100
AcDbSpline
 62
253
  6
CONTINUOUS
 70
0
 71
3
 72
11
 73
7
 74
5
 42
0.0000001
 43
0.0000001
 44
0.0000000001
 12
-0.0000310851
 22
0.8843607931
 32
0.0
 13
0.8843607935
 23
-0.0000166958
 33
0.0
 40
0.0
 40
0.0
 40
0.0
 40
0.0
 40
0.2501550041
 40
0.4999999352
 40
0.7498461618
 40
1.0
 40
1.0
 40
1.0
 40
1.0
 10
-23.4288116597
 20
-83.6350039128
 30
0.0
 10
-23.4288142517
 20
-83.5612614868
 30
0.0
 10
-23.402320283
 20
-83.4121175
 30
0.0
 10
-23.278632518
 20
-83.221365001
 30
0.0
 10
-23.0878906963
 20
-83.0976369798
 30
0.0
 10
-22.9387381695
 20
-83.0711869481
 30
0.0
 10
-22.8649960872
 20
-83.0711883403
 30
0.0
 11
-23.4288116597
 21
-83.6350039128
 31
0.0
 11
-23.3882911272
 21
-83.4175192123
 31
0.0
 11
-23.2674616758
 21
-83.2325313773
 31
0.0
 11
-23.0824844471
 21
-83.1116835945
 31
0.0
 11
-22.8649960872
 21
-83.0711883403
 31
0.0
  0
SPLINE
  5
5FB
100
AcDbEntity
  8
RACCORDO
100
AcDbSpline
 62
253
  6
CONTINUOUS
 70
0
 71
3
 72
11
 73
7
 74
5
 42
0.0000001
 43
0.0000001
 44
0.0000000001
 12
-0.8843607793
 22
-0.0000157207
 32
0.0
 13
0.0000318597
 23
0.8843607788
 33
0.0
 40
0.0
 40
0.0
 40
0.0
 40
0.0
 40
0.2501538446
 40
0.5000000678
 40
0.7498449811
 40
1.0
 40
1.0
 40
1.0
 40
1.0
 10
-22.8649960872
 20
-129.9288116597
 30
0.0
 10
-22.9387381702
 20
-129.9288129706
 30
0.0
 10
-23.0878906947
 20
-129.9023630661
 30
0.0
 10
-23.2786325166
 20
-129.778634984
 30
0.0
 10
-23.4023202085
 20
-129.587882494
 30
0.0
 10
-23.4288143163
 20
-129.4387385164
 30
0.0
 10
-23.4288116597
 20
-129.3649960872
 30
0.0
 11
-22.8649960872
 21
-129.9288116597
 31
0.0
 11
-23.0824844497
 21
-129.8883164079
 31
0.0
 11
-23.2674616652
 21
-129.767468617
 31
0.0
 11
-23.388291096
 21
-129.5824807916
 31
0.0
 11
-23.4288116597
 21
-129.3649960872
 31
0.0
  0
SPLINE
  5
5FC
100
AcDbEntity
  8
RACCORDO
100
AcDbSpline
 62
253
  6
CONTINUOUS
 70
0
 71
3
 72
11
 73
7
 74
5
 42
0.0000001
 43
0.0000001
 44
0.0000000001
 12
0.0000498599
 22
0.6210287382
 32
0.0
 13
0.6210287352
 23
0.0000791702
 33
0.0
 40
0.0
 40
0.0
 40
0.0
 40
0.0
 40
0.2500058224
 40
0.5000008131
 40
0.7499857999
 40
1.0
 40
1.0
 40
1.0
 40
1.0
 10
-25.9929722756
 20
-80.9069668024
 30
0.0
 10
-25.9929681205
 20
-80.8552132023
 30
0.0
 10
-25.9723791894
 20
-80.7506040373
 30
0.0
 10
-25.8842594704
 20
-80.6180311254
 30
0.0
 10
-25.7524600956
 20
-80.5291199697
 30
0.0
 10
-25.6480176564
 20
-80.5070343223
 30
0.0
 10
-25.5962623223
 20
-80.5070277244
 30
0.0
 11
-25.9929722756
 21
-80.9069668024
 31
0.0
 11
-25.962838641
 21
-80.7546582985
 31
0.0
 11
-25.8769784601
 21
-80.6253066195
 31
0.0
 11
-25.7483218011
 21
-80.5384195516
 31
0.0
 11
-25.5962623223
 21
-80.5070277244
 31
0.0
  0
SPLINE
  5
5FD
100
AcDbEntity
  8
RACCORDO
100
AcDbSpline
 62
253
  6
CONTINUOUS
 70
0
 71
3
 72
11
 73
7
 74
5
 42
0.0000001
 43
0.0000001
 44
0.0000000001
 12
0.6210287337
 22
-0.0000498599
 32
0.0
 13
0.0000791702
 23
-0.6210287307
 33
0.0
 40
0.0
 40
0.0
 40
0.0
 40
0.0
 40
0.2500058224
 40
0.5000008131
 40
0.7499857999
 40
1.0
 40
1.0
 40
1.0
 40
1.0
 10
25.5930331976
 20
-80.5070277244
 30
0.0
 10
25.6447867973
 20
-80.5070318795
 30
0.0
 10
25.7493959615
 20
-80.5276208103
 30
0.0
 10
25.8819688729
 20
-80.6157405281
 30
0.0
 10
25.9708800284
 20
-80.7475399012
 30
0.0
 10
25.9929656777
 20
-80.8519823394
 30
0.0
 10
25.9929722756
 20
-80.9037376732
 30
0.0
 11
25.5930331976
 21
-80.5070277244
 31
0.0
 11
25.7453417004
 21
-80.5371613585
 31
0.0
 11
25.8746933789
 21
-80.6230215383
 31
0.0
 11
25.9615804471
 21
-80.7516781958
 31
0.0
 11
25.9929722756
 21
-80.9037376732
 31
0.0
  0
SPLINE
  5
5FE
100
AcDbEntity
  8
RACCORDO
100
AcDbSpline
 62
253
  6
CONTINUOUS
 70
0
 71
3
 72
23
 73
19
 74
17
 42
0.0000001
 43
0.0000001
 44
0.0000000001
 12
0.0052250696
 22
-0.6999442616
 32
0.0
 13
-0.6997738237
 23
-0.0163054114
 33
0.0
 40
0.0
 40
0.0
 40
0.0
 40
0.0
 40
0.1950458747
 40
0.3826397505
 40
0.555484779
 40
0.6343043597
 40
0.7070050217
 40
0.7729042947
 40
0.831352309
 40
0.8818043226
 40
0.9237617168
 40
0.9568261729
 40
0.969925046
 40
0.9806839856
 40
0.989079053
 40
0.9950984995
 40
0.9987336937
 40
1.0
 40
1.0
 40
1.0
 40
1.0
 10
105.5218475926
 20
9.9069668024
 30
0.0
 10
105.522187302
 20
9.8614597222
 30
0.0
 10
105.5227909849
 20
9.77218374
 30
0.0
 10
105.5234724541
 20
9.6425790721
 30
0.0
 10
105.5238389146
 20
9.5400913353
 30
0.0
 10
105.5239883892
 20
9.4644101235
 30
0.0
 10
105.5240266414
 20
9.4136816146
 30
0.0
 10
105.523995444
 20
9.3677058544
 30
0.0
 10
105.5238941141
 20
9.3269224224
 30
0.0
 10
105.5237276871
 20
9.2917219597
 30
0.0
 10
105.5234911176
 20
9.2624543916
 30
0.0
 10
105.5232420224
 20
9.2418784931
 30
0.0
 10
105.5229756845
 20
9.2286257485
 30
0.0
 10
105.5228148725
 20
9.221047657
 30
0.0
 10
105.5225426049
 20
9.2153203723
 30
0.0
 10
105.5225000745
 20
9.2107887365
 30
0.0
 10
105.5220089615
 20
9.2088242735
 30
0.0
 10
105.5221429686
 20
9.2070802984
 30
0.0
 10
105.5218475926
 20
9.2070734158
 30
0.0
 11
105.5218475926
 21
9.9069668024
 31
0.0
 11
105.5227678567
 21
9.7704448595
 31
0.0
 11
105.5234522233
 21
9.6391377275
 31
0.0
 11
105.5238730247
 21
9.5181532026
 31
0.0
 11
105.5239795283
 21
9.462982455
 31
0.0
 11
105.5240150913
 21
9.4120946385
 31
0.0
 11
105.5239795484
 21
9.365967549
 31
0.0
 11
105.5238730563
 21
9.3250561955
 31
0.0
 11
105.5236967701
 21
9.2897420542
 31
0.0
 11
105.5234522618
 21
9.2603744164
 31
0.0
 11
105.5231417195
 21
9.2372325788
 31
0.0
 11
105.5229625281
 21
9.2280655935
 31
0.0
 11
105.5227678553
 21
9.2205372422
 31
0.0
 11
105.5225582716
 21
9.2146647379
 31
0.0
 11
105.5223345285
 21
9.2104572884
 31
0.0
 11
105.5220973832
 21
9.2079238591
 31
0.0
 11
105.5218475926
 21
9.2070734158
 31
0.0
  0
SPLINE
  5
5FF
100
AcDbEntity
  8
RACCORDO
100
AcDbSpline
 62
253
  6
CONTINUOUS
 70
0
 71
3
 72
23
 73
19
 74
17
 42
0.0000001
 43
0.0000001
 44
0.0000000001
 12
0.699723268
 22
-0.0183467323
 32
0.0
 13
-0.0052239514
 23
-0.6999442583
 33
0.0
 40
0.0
 40
0.0
 40
0.0
 40
0.0
 40
0.0012669938
 40
0.0049023045
 40
0.010921506
 40
0.0193161922
 40
0.0300748356
 40
0.0431735956
 40
0.0762381591
 40
0.1181957108
 40
0.1686477238
 40
0.2270956894
 40
0.2929949544
 40
0.3656956318
 40
0.4445152214
 40
0.6173602503
 40
0.8049541264
 40
1.0
 40
1.0
 40
1.0
 40
1.0
 10
105.5218475926
 20
61.7929265842
 30
0.0
 10
105.5221431076
 20
61.7929188358
 30
0.0
 10
105.5220088737
 20
61.7911765041
 30
0.0
 10
105.5225001599
 20
61.789210021
 30
0.0
 10
105.5225426059
 20
61.784679607
 30
0.0
 10
105.522814881
 20
61.77895205
 30
0.0
 10
105.5229756605
 20
61.7713743294
 30
0.0
 10
105.5232419888
 20
61.7581215675
 30
0.0
 10
105.5234910767
 20
61.7375456905
 30
0.0
 10
105.5237276513
 20
61.7082780369
 30
0.0
 10
105.5238940815
 20
61.6730775582
 30
0.0
 10
105.5239954233
 20
61.6322941374
 30
0.0
 10
105.5240266425
 20
61.5863183885
 30
0.0
 10
105.5239884119
 20
61.5355898764
 30
0.0
 10
105.5238389505
 20
61.4599086601
 30
0.0
 10
105.5234724993
 20
61.3574209227
 30
0.0
 10
105.5227909988
 20
61.2278162572
 30
0.0
 10
105.5221872293
 20
61.1385402773
 30
0.0
 10
105.5218475926
 20
61.0930331976
 30
0.0
 11
105.5218475926
 21
61.7929265842
 31
0.0
 11
105.5220974186
 21
61.7920756498
 31
0.0
 11
105.5223345684
 21
61.7895421391
 31
0.0
 11
105.5225582963
 21
61.7853348605
 31
0.0
 11
105.5227678567
 21
61.7794626225
 31
0.0
 11
105.522962509
 21
61.7719344782
 31
0.0
 11
105.5231416881
 21
61.762767572
 31
0.0
 11
105.5234522233
 21
61.7396256594
 31
0.0
 11
105.5236967339
 21
61.710257912
 31
0.0
 11
105.5238730247
 21
61.6749437717
 31
0.0
 11
105.5239795283
 21
61.634032453
 31
0.0
 11
105.5240150913
 21
61.5879053699
 31
0.0
 11
105.5239795484
 21
61.5370175434
 31
0.0
 11
105.5238730563
 21
61.4818467905
 31
0.0
 11
105.5234522618
 21
61.3608622673
 31
0.0
 11
105.5227678553
 21
61.2295551375
 31
0.0
 11
105.5218475926
 21
61.0930331976
 31
0.0
  0
SPLINE
  5
600
100
AcDbEntity
  8
RACCORDO
100
AcDbSpline
 62
253
  6
CONTINUOUS
 70
0
 71
3
 72
23
 73
19
 74
17
 42
0.0000001
 43
0.0000001
 44
0.0000000001
 12
0.0052250696
 22
-0.6999442616
 32
0.0
 13
-0.6997738237
 23
-0.0163054114
 33
0.0
 40
0.0
 40
0.0
 40
0.0
 40
0.0
 40
0.1950458747
 40
0.3826397505
 40
0.555484779
 40
0.6343043597
 40
0.7070050217
 40
0.7729042947
 40
0.831352309
 40
0.8818043226
 40
0.9237617168
 40
0.9568261729
 40
0.969925046
 40
0.9806839856
 40
0.989079053
 40
0.9950984995
 40
0.9987336937
 40
1.0
 40
1.0
 40
1.0
 40
1.0
 10
105.5218475926
 20
80.9069668024
 30
0.0
 10
105.522187302
 20
80.8614597222
 30
0.0
 10
105.5227909849
 20
80.77218374
 30
0.0
 10
105.5234724541
 20
80.6425790721
 30
0.0
 10
105.5238389146
 20
80.5400913353
 30
0.0
 10
105.5239883892
 20
80.4644101235
 30
0.0
 10
105.5240266414
 20
80.4136816146
 30
0.0
 10
105.523995444
 20
80.3677058544
 30
0.0
 10
105.5238941141
 20
80.3269224224
 30
0.0
 10
105.5237276871
 20
80.2917219597
 30
0.0
 10
105.5234911176
 20
80.2624543916
 30
0.0
 10
105.5232420224
 20
80.2418784931
 30
0.0
 10
105.5229756845
 20
80.2286257485
 30
0.0
 10
105.5228148725
 20
80.221047657
 30
0.0
 10
105.5225426049
 20
80.2153203723
 30
0.0
 10
105.5225000745
 20
80.2107887365
 30
0.0
 10
105.5220089615
 20
80.2088242735
 30
0.0
 10
105.5221429686
 20
80.2070802984
 30
0.0
 10
105.5218475926
 20
80.2070734158
 30
0.0
 11
105.5218475926
 21
80.9069668024
 31
0.0
 11
105.5227678567
 21
80.7704448595
 31
0.0
 11
105.5234522233
 21
80.6391377275
 31
0.0
 11
105.5238730247
 21
80.5181532026
 31
0.0
 11
105.5239795283
 21
80.462982455
 31
0.0
 11
105.5240150913
 21
80.4120946385
 31
0.0
 11
105.5239795484
 21
80.365967549
 31
0.0
 11
105.5238730563
 21
80.3250561955
 31
0.0
 11
105.5236967701
 21
80.2897420542
 31
0.0
 11
105.5234522618
 21
80.2603744164
 31
0.0
 11
105.5231417195
 21
80.2372325788
 31
0.0
 11
105.5229625281
 21
80.2280655935
 31
0.0
 11
105.5227678553
 21
80.2205372422
 31
0.0
 11
105.5225582716
 21
80.2146647379
 31
0.0
 11
105.5223345285
 21
80.2104572884
 31
0.0
 11
105.5220973832
 21
80.2079238591
 31
0.0
 11
105.5218475926
 21
80.2070734158
 31
0.0
  0
SPLINE
  5
601
100
AcDbEntity
  8
RACCORDO
100
AcDbSpline
 62
253
  6
CONTINUOUS
 70
0
 71
3
 72
23
 73
19
 74
17
 42
0.0000001
 43
0.0000001
 44
0.0000000001
 12
0.699723268
 22
-0.0183467323
 32
0.0
 13
-0.0052239514
 23
-0.6999442583
 33
0.0
 40
0.0
 40
0.0
 40
0.0
 40
0.0
 40
0.0012669938
 40
0.0049023045
 40
0.010921506
 40
0.0193161922
 40
0.0300748356
 40
0.0431735956
 40
0.0762381591
 40
0.1181957108
 40
0.1686477238
 40
0.2270956894
 40
0.2929949544
 40
0.3656956318
 40
0.4445152214
 40
0.6173602503
 40
0.8049541264
 40
1.0
 40
1.0
 40
1.0
 40
1.0
 10
105.5218475926
 20
132.7929265842
 30
0.0
 10
105.5221431076
 20
132.7929188358
 30
0.0
 10
105.5220088737
 20
132.7911765041
 30
0.0
 10
105.5225001599
 20
132.789210021
 30
0.0
 10
105.5225426059
 20
132.784679607
 30
0.0
 10
105.522814881
 20
132.77895205
 30
0.0
 10
105.5229756605
 20
132.7713743294
 30
0.0
 10
105.5232419888
 20
132.7581215675
 30
0.0
 10
105.5234910767
 20
132.7375456905
 30
0.0
 10
105.5237276513
 20
132.7082780369
 30
0.0
 10
105.5238940815
 20
132.6730775582
 30
0.0
 10
105.5239954233
 20
132.6322941374
 30
0.0
 10
105.5240266425
 20
132.5863183885
 30
0.0
 10
105.5239884119
 20
132.5355898764
 30
0.0
 10
105.5238389505
 20
132.4599086601
 30
0.0
 10
105.5234724993
 20
132.3574209227
 30
0.0
 10
105.5227909988
 20
132.2278162572
 30
0.0
 10
105.5221872293
 20
132.1385402773
 30
0.0
 10
105.5218475926
 20
132.0930331976
 30
0.0
 11
105.5218475926
 21
132.7929265842
 31
0.0
 11
105.5220974186
 21
132.7920756498
 31
0.0
 11
105.5223345684
 21
132.7895421391
 31
0.0
 11
105.5225582963
 21
132.7853348605
 31
0.0
 11
105.5227678567
 21
132.7794626225
 31
0.0
 11
105.522962509
 21
132.7719344782
 31
0.0
 11
105.5231416881
 21
132.762767572
 31
0.0
 11
105.5234522233
 21
132.7396256594
 31
0.0
 11
105.5236967339
 21
132.710257912
 31
0.0
 11
105.5238730247
 21
132.6749437717
 31
0.0
 11
105.5239795283
 21
132.634032453
 31
0.0
 11
105.5240150913
 21
132.5879053699
 31
0.0
 11
105.5239795484
 21
132.5370175434
 31
0.0
 11
105.5238730563
 21
132.4818467905
 31
0.0
 11
105.5234522618
 21
132.3608622673
 31
0.0
 11
105.5227678553
 21
132.2295551375
 31
0.0
 11
105.5218475926
 21
132.0930331976
 31
0.0
  0
SPLINE
  5
602
100
AcDbEntity
  8
RACCORDO
100
AcDbSpline
 62
253
  6
CONTINUOUS
 70
0
 71
3
 72
23
 73
19
 74
17
 42
0.0000001
 43
0.0000001
 44
0.0000000001
 12
0.0052250696
 22
-0.6999442616
 32
0.0
 13
-0.6997738236
 23
-0.0163054114
 33
0.0
 40
0.0
 40
0.0
 40
0.0
 40
0.0
 40
0.1950458747
 40
0.3826397505
 40
0.555484779
 40
0.6343043597
 40
0.7070050217
 40
0.7729042947
 40
0.831352309
 40
0.8818043226
 40
0.9237617168
 40
0.9568261729
 40
0.969925046
 40
0.9806839856
 40
0.989079053
 40
0.9950984995
 40
0.9987336937
 40
1.0
 40
1.0
 40
1.0
 40
1.0
 10
105.5218475926
 20
-61.0930331976
 30
0.0
 10
105.522187302
 20
-61.1385402778
 30
0.0
 10
105.5227909849
 20
-61.22781626
 30
0.0
 10
105.5234724541
 20
-61.3574209279
 30
0.0
 10
105.5238389146
 20
-61.4599086647
 30
0.0
 10
105.5239883892
 20
-61.5355898765
 30
0.0
 10
105.5240266414
 20
-61.5863183854
 30
0.0
 10
105.523995444
 20
-61.6322941456
 30
0.0
 10
105.5238941141
 20
-61.6730775776
 30
0.0
 10
105.5237276871
 20
-61.7082780403
 30
0.0
 10
105.5234911176
 20
-61.7375456084
 30
0.0
 10
105.5232420224
 20
-61.7581215069
 30
0.0
 10
105.5229756845
 20
-61.7713742515
 30
0.0
 10
105.5228148725
 20
-61.778952343
 30
0.0
 10
105.5225426049
 20
-61.7846796277
 30
0.0
 10
105.5225000745
 20
-61.7892112635
 30
0.0
 10
105.5220089615
 20
-61.7911757265
 30
0.0
 10
105.5221429686
 20
-61.7929197016
 30
0.0
 10
105.5218475926
 20
-61.7929265842
 30
0.0
 11
105.5218475926
 21
-61.0930331976
 31
0.0
 11
105.5227678567
 21
-61.2295551405
 31
0.0
 11
105.5234522233
 21
-61.3608622725
 31
0.0
 11
105.5238730247
 21
-61.4818467974
 31
0.0
 11
105.5239795283
 21
-61.537017545
 31
0.0
 11
105.5240150913
 21
-61.5879053615
 31
0.0
 11
105.5239795484
 21
-61.634032451
 31
0.0
 11
105.5238730563
 21
-61.6749438045
 31
0.0
 11
105.5236967701
 21
-61.7102579458
 31
0.0
 11
105.5234522618
 21
-61.7396255836
 31
0.0
 11
105.5231417195
 21
-61.7627674212
 31
0.0
 11
105.5229625281
 21
-61.7719344065
 31
0.0
 11
105.5227678553
 21
-61.7794627578
 31
0.0
 11
105.5225582716
 21
-61.7853352621
 31
0.0
 11
105.5223345285
 21
-61.7895427116
 31
0.0
 11
105.5220973832
 21
-61.7920761409
 31
0.0
 11
105.5218475926
 21
-61.7929265842
 31
0.0
  0
SPLINE
  5
603
100
AcDbEntity
  8
RACCORDO
100
AcDbSpline
 62
253
  6
CONTINUOUS
 70
0
 71
3
 72
23
 73
19
 74
17
 42
0.0000001
 43
0.0000001
 44
0.0000000001
 12
0.699723268
 22
-0.0183467323
 32
0.0
 13
-0.0052239514
 23
-0.6999442583
 33
0.0
 40
0.0
 40
0.0
 40
0.0
 40
0.0
 40
0.0012669938
 40
0.0049023045
 40
0.010921506
 40
0.0193161922
 40
0.0300748356
 40
0.0431735956
 40
0.0762381591
 40
0.1181957108
 40
0.1686477238
 40
0.2270956894
 40
0.2929949544
 40
0.3656956318
 40
0.4445152214
 40
0.6173602503
 40
0.8049541264
 40
1.0
 40
1.0
 40
1.0
 40
1.0
 10
105.5218475926
 20
-9.2070734158
 30
0.0
 10
105.5221431076
 20
-9.2070811642
 30
0.0
 10
105.5220088737
 20
-9.2088234959
 30
0.0
 10
105.5225001599
 20
-9.210789979
 30
0.0
 10
105.5225426059
 20
-9.215320393
 30
0.0
 10
105.522814881
 20
-9.22104795
 30
0.0
 10
105.5229756605
 20
-9.2286256706
 30
0.0
 10
105.5232419888
 20
-9.2418784325
 30
0.0
 10
105.5234910767
 20
-9.2624543095
 30
0.0
 10
105.5237276513
 20
-9.2917219631
 30
0.0
 10
105.5238940815
 20
-9.3269224418
 30
0.0
 10
105.5239954233
 20
-9.3677058626
 30
0.0
 10
105.5240266425
 20
-9.4136816115
 30
0.0
 10
105.5239884119
 20
-9.4644101236
 30
0.0
 10
105.5238389505
 20
-9.5400913399
 30
0.0
 10
105.5234724993
 20
-9.6425790773
 30
0.0
 10
105.5227909988
 20
-9.7721837428
 30
0.0
 10
105.5221872293
 20
-9.8614597227
 30
0.0
 10
105.5218475926
 20
-9.9069668024
 30
0.0
 11
105.5218475926
 21
-9.2070734158
 31
0.0
 11
105.5220974186
 21
-9.2079243502
 31
0.0
 11
105.5223345684
 21
-9.2104578609
 31
0.0
 11
105.5225582963
 21
-9.2146651395
 31
0.0
 11
105.5227678567
 21
-9.2205373775
 31
0.0
 11
105.522962509
 21
-9.2280655218
 31
0.0
 11
105.5231416881
 21
-9.237232428
 31
0.0
 11
105.5234522233
 21
-9.2603743406
 31
0.0
 11
105.5236967339
 21
-9.289742088
 31
0.0
 11
105.5238730247
 21
-9.3250562283
 31
0.0
 11
105.5239795283
 21
-9.365967547
 31
0.0
 11
105.5240150913
 21
-9.4120946301
 31
0.0
 11
105.5239795484
 21
-9.4629824566
 31
0.0
 11
105.5238730563
 21
-9.5181532095
 31
0.0
 11
105.5234522618
 21
-9.6391377327
 31
0.0
 11
105.5227678553
 21
-9.7704448625
 31
0.0
 11
105.5218475926
 21
-9.9069668024
 31
0.0
  0
SPLINE
  5
604
100
AcDbEntity
  8
RACCORDO
100
AcDbSpline
 62
253
  6
CONTINUOUS
 70
0
 71
3
 72
23
 73
19
 74
17
 42
0.0000001
 43
0.0000001
 44
0.0000000001
 12
0.0052250696
 22
-0.6999442616
 32
0.0
 13
-0.6997738236
 23
-0.0163054114
 33
0.0
 40
0.0
 40
0.0
 40
0.0
 40
0.0
 40
0.1950458747
 40
0.3826397505
 40
0.555484779
 40
0.6343043597
 40
0.7070050217
 40
0.7729042947
 40
0.831352309
 40
0.8818043226
 40
0.9237617168
 40
0.9568261729
 40
0.969925046
 40
0.9806839856
 40
0.989079053
 40
0.9950984995
 40
0.9987336937
 40
1.0
 40
1.0
 40
1.0
 40
1.0
 10
105.5218475926
 20
-132.0930331976
 30
0.0
 10
105.522187302
 20
-132.1385402778
 30
0.0
 10
105.5227909849
 20
-132.22781626
 30
0.0
 10
105.5234724541
 20
-132.3574209279
 30
0.0
 10
105.5238389146
 20
-132.4599086647
 30
0.0
 10
105.5239883892
 20
-132.5355898765
 30
0.0
 10
105.5240266414
 20
-132.5863183854
 30
0.0
 10
105.523995444
 20
-132.6322941456
 30
0.0
 10
105.5238941141
 20
-132.6730775776
 30
0.0
 10
105.5237276871
 20
-132.7082780403
 30
0.0
 10
105.5234911176
 20
-132.7375456084
 30
0.0
 10
105.5232420224
 20
-132.7581215069
 30
0.0
 10
105.5229756845
 20
-132.7713742515
 30
0.0
 10
105.5228148725
 20
-132.778952343
 30
0.0
 10
105.5225426049
 20
-132.7846796277
 30
0.0
 10
105.5225000745
 20
-132.7892112635
 30
0.0
 10
105.5220089615
 20
-132.7911757265
 30
0.0
 10
105.5221429686
 20
-132.7929197016
 30
0.0
 10
105.5218475926
 20
-132.7929265842
 30
0.0
 11
105.5218475926
 21
-132.0930331976
 31
0.0
 11
105.5227678567
 21
-132.2295551405
 31
0.0
 11
105.5234522233
 21
-132.3608622725
 31
0.0
 11
105.5238730247
 21
-132.4818467974
 31
0.0
 11
105.5239795283
 21
-132.537017545
 31
0.0
 11
105.5240150913
 21
-132.5879053615
 31
0.0
 11
105.5239795484
 21
-132.634032451
 31
0.0
 11
105.5238730563
 21
-132.6749438045
 31
0.0
 11
105.5236967701
 21
-132.7102579458
 31
0.0
 11
105.5234522618
 21
-132.7396255836
 31
0.0
 11
105.5231417195
 21
-132.7627674212
 31
0.0
 11
105.5229625281
 21
-132.7719344065
 31
0.0
 11
105.5227678553
 21
-132.7794627578
 31
0.0
 11
105.5225582716
 21
-132.7853352621
 31
0.0
 11
105.5223345285
 21
-132.7895427116
 31
0.0
 11
105.5220973832
 21
-132.7920761409
 31
0.0
 11
105.5218475926
 21
-132.7929265842
 31
0.0
  0
SPLINE
  5
605
100
AcDbEntity
  8
RACCORDO
100
AcDbSpline
 62
253
  6
CONTINUOUS
 70
0
 71
3
 72
23
 73
19
 74
17
 42
0.0000001
 43
0.0000001
 44
0.0000000001
 12
0.6997232681
 22
-0.0183467323
 32
0.0
 13
-0.0052239514
 23
-0.6999442583
 33
0.0
 40
0.0
 40
0.0
 40
0.0
 40
0.0
 40
0.0012669938
 40
0.0049023045
 40
0.010921506
 40
0.0193161922
 40
0.0300748356
 40
0.0431735956
 40
0.0762381591
 40
0.1181957108
 40
0.1686477238
 40
0.2270956894
 40
0.2929949544
 40
0.3656956318
 40
0.4445152214
 40
0.6173602503
 40
0.8049541264
 40
1.0
 40
1.0
 40
1.0
 40
1.0
 10
105.5218475926
 20
-80.2070734158
 30
0.0
 10
105.5221431076
 20
-80.2070811642
 30
0.0
 10
105.5220088737
 20
-80.2088234959
 30
0.0
 10
105.5225001599
 20
-80.210789979
 30
0.0
 10
105.5225426059
 20
-80.215320393
 30
0.0
 10
105.522814881
 20
-80.22104795
 30
0.0
 10
105.5229756605
 20
-80.2286256706
 30
0.0
 10
105.5232419888
 20
-80.2418784325
 30
0.0
 10
105.5234910767
 20
-80.2624543095
 30
0.0
 10
105.5237276513
 20
-80.2917219631
 30
0.0
 10
105.5238940815
 20
-80.3269224418
 30
0.0
 10
105.5239954233
 20
-80.3677058626
 30
0.0
 10
105.5240266425
 20
-80.4136816115
 30
0.0
 10
105.5239884119
 20
-80.4644101236
 30
0.0
 10
105.5238389505
 20
-80.5400913399
 30
0.0
 10
105.5234724993
 20
-80.6425790773
 30
0.0
 10
105.5227909988
 20
-80.7721837428
 30
0.0
 10
105.5221872293
 20
-80.8614597227
 30
0.0
 10
105.5218475926
 20
-80.9069668024
 30
0.0
 11
105.5218475926
 21
-80.2070734158
 31
0.0
 11
105.5220974186
 21
-80.2079243502
 31
0.0
 11
105.5223345684
 21
-80.2104578609
 31
0.0
 11
105.5225582963
 21
-80.2146651395
 31
0.0
 11
105.5227678567
 21
-80.2205373775
 31
0.0
 11
105.522962509
 21
-80.2280655218
 31
0.0
 11
105.5231416881
 21
-80.237232428
 31
0.0
 11
105.5234522233
 21
-80.2603743406
 31
0.0
 11
105.5236967339
 21
-80.289742088
 31
0.0
 11
105.5238730247
 21
-80.3250562283
 31
0.0
 11
105.5239795283
 21
-80.365967547
 31
0.0
 11
105.5240150913
 21
-80.4120946301
 31
0.0
 11
105.5239795484
 21
-80.4629824566
 31
0.0
 11
105.5238730563
 21
-80.5181532095
 31
0.0
 11
105.5234522618
 21
-80.6391377327
 31
0.0
 11
105.5227678553
 21
-80.7704448625
 31
0.0
 11
105.5218475926
 21
-80.9069668024
 31
0.0
  0
LINE
  5
606
100
AcDbEntity
  8
RACCORDO
100
AcDbLine
 62
7
  6
CONTINUOUS
 10
101.0666118707
 20
-106.8559698331
 11
101.116611871
 21
-106.8556018787
  0
LINE
  5
607
100
AcDbEntity
  8
RACCORDO
100
AcDbLine
 62
7
  6
CONTINUOUS
 10
101.0666118707
 20
-106.1440301669
 11
101.116611871
 21
-106.1443981213
  0
LINE
  5
608
100
AcDbEntity
  8
RACCORDO
100
AcDbLine
 62
7
  6
CONTINUOUS
 10
101.0666118707
 20
-35.1440301669
 11
101.116611871
 21
-35.1443981213
  0
LINE
  5
609
100
AcDbEntity
  8
RACCORDO
100
AcDbLine
 62
7
  6
CONTINUOUS
 10
101.0666118707
 20
-35.8559698331
 11
101.116611871
 21
-35.8556018787
  0
LINE
  5
60A
100
AcDbEntity
  8
RACCORDO
100
AcDbLine
 62
7
  6
CONTINUOUS
 10
101.0666118707
 20
35.8559698331
 11
101.116611871
 21
35.8556018787
  0
LINE
  5
60B
100
AcDbEntity
  8
RACCORDO
100
AcDbLine
 62
7
  6
CONTINUOUS
 10
101.0666118707
 20
35.1440301669
 11
101.116611871
 21
35.1443981213
  0
LINE
  5
60C
100
AcDbEntity
  8
RACCORDO
100
AcDbLine
 62
7
  6
CONTINUOUS
 10
101.0666118707
 20
106.1440301669
 11
101.116611871
 21
106.1443981213
  0
LINE
  5
60D
100
AcDbEntity
  8
RACCORDO
100
AcDbLine
 62
7
  6
CONTINUOUS
 10
101.0666118707
 20
106.8559698331
 11
101.116611871
 21
106.8556018787
  0
ELLIPSE
  5
60E
100
AcDbEntity
  8
RACCORDO
100
AcDbEllipse
 62
7
  6
CONTINUOUS
 10
22.2912267691
 20
-13.2087732309
 30
0.0
 11
-0.2121966568
 21
-0.2121966568
 31
0.0
 40
0.9996954599
 41
2.3563467834
 42
3.9268385237
  0
ELLIPSE
  5
60F
100
AcDbEntity
  8
RACCORDO
100
AcDbEllipse
 62
7
  6
CONTINUOUS
 10
22.2912267691
 20
-57.7912267691
 30
0.0
 11
-0.2121966568
 21
0.2121966568
 31
0.0
 40
0.9996954599
 41
2.3563467834
 42
3.9268385237
  0
ELLIPSE
  5
610
100
AcDbEntity
  8
RACCORDO
100
AcDbEllipse
 62
7
  6
CONTINUOUS
 10
-22.2912267691
 20
-13.2087732309
 30
0.0
 11
-0.2121966568
 21
0.2121966568
 31
0.0
 40
0.9996954599
 41
-0.7852458701
 42
0.7852458701
  0
ELLIPSE
  5
611
100
AcDbEntity
  8
RACCORDO
100
AcDbEllipse
 62
7
  6
CONTINUOUS
 10
-22.2912267691
 20
-57.7912267691
 30
0.0
 11
0.2121966568
 21
0.2121966568
 31
0.0
 40
0.9996954599
 41
2.3563467834
 42
3.9268385237
  0
ELLIPSE
  5
612
100
AcDbEntity
  8
RACCORDO
100
AcDbEllipse
 62
7
  6
CONTINUOUS
 10
25.5998933704
 20
-9.9001066296
 30
0.0
 11
0.4951255324
 21
0.4951255324
 31
0.0
 40
0.9996954599
 41
-0.7852458702
 42
0.7852458701
  0
ELLIPSE
  5
613
100
AcDbEntity
  8
RACCORDO
100
AcDbEllipse
 62
7
  6
CONTINUOUS
 10
25.5998933704
 20
-61.0998933704
 30
0.0
 11
-0.4951255324
 21
0.4951255324
 31
0.0
 40
0.9996954599
 41
-3.9268385237
 42
-2.3563467834
  0
ELLIPSE
  5
614
100
AcDbEntity
  8
RACCORDO
100
AcDbEllipse
 62
7
  6
CONTINUOUS
 10
-25.5998933704
 20
-61.0998933704
 30
0.0
 11
0.4951255324
 21
0.4951255324
 31
0.0
 40
0.9996954599
 41
-3.9268385237
 42
-2.3563467834
  0
ELLIPSE
  5
615
100
AcDbEntity
  8
RACCORDO
100
AcDbEllipse
 62
7
  6
CONTINUOUS
 10
-25.5998933704
 20
-9.9001066296
 30
0.0
 11
0.4951255324
 21
-0.4951255324
 31
0.0
 40
0.9996954599
 41
2.3563467834
 42
3.9268385237
  0
ELLIPSE
  5
616
100
AcDbEntity
  8
RACCORDO
100
AcDbEllipse
 62
7
  6
CONTINUOUS
 10
22.2912267691
 20
57.7912267691
 30
0.0
 11
-0.2121966568
 21
-0.2121966568
 31
0.0
 40
0.9996954599
 41
2.3563467834
 42
3.9268385237
  0
ELLIPSE
  5
617
100
AcDbEntity
  8
RACCORDO
100
AcDbEllipse
 62
7
  6
CONTINUOUS
 10
22.2912267691
 20
13.2087732309
 30
0.0
 11
-0.2121966568
 21
0.2121966568
 31
0.0
 40
0.9996954599
 41
2.3563467834
 42
3.9268385237
  0
ELLIPSE
  5
618
100
AcDbEntity
  8
RACCORDO
100
AcDbEllipse
 62
7
  6
CONTINUOUS
 10
-22.2912267691
 20
57.7912267691
 30
0.0
 11
-0.2121966568
 21
0.2121966568
 31
0.0
 40
0.9996954599
 41
-0.7852458701
 42
0.7852458701
  0
ELLIPSE
  5
619
100
AcDbEntity
  8
RACCORDO
100
AcDbEllipse
 62
7
  6
CONTINUOUS
 10
-22.2912267691
 20
13.2087732309
 30
0.0
 11
0.2121966568
 21
0.2121966568
 31
0.0
 40
0.9996954599
 41
2.3563467834
 42
3.9268385237
  0
ELLIPSE
  5
61A
100
AcDbEntity
  8
RACCORDO
100
AcDbEllipse
 62
7
  6
CONTINUOUS
 10
25.5998933704
 20
61.0998933704
 30
0.0
 11
0.4951255324
 21
0.4951255324
 31
0.0
 40
0.9996954599
 41
-0.7852458702
 42
0.7852458701
  0
ELLIPSE
  5
61B
100
AcDbEntity
  8
RACCORDO
100
AcDbEllipse
 62
7
  6
CONTINUOUS
 10
25.5998933704
 20
9.9001066296
 30
0.0
 11
0.4951255324
 21
-0.4951255324
 31
0.0
 40
0.9996954599
 41
-0.7852458701
 42
0.7852458702
  0
ELLIPSE
  5
61C
100
AcDbEntity
  8
RACCORDO
100
AcDbEllipse
 62
7
  6
CONTINUOUS
 10
-25.5998933704
 20
9.9001066296
 30
0.0
 11
0.4951255324
 21
0.4951255324
 31
0.0
 40
0.9996954599
 41
-3.9268385237
 42
-2.3563467834
  0
ELLIPSE
  5
61D
100
AcDbEntity
  8
RACCORDO
100
AcDbEllipse
 62
7
  6
CONTINUOUS
 10
-25.5998933704
 20
61.0998933704
 30
0.0
 11
0.4951255324
 21
-0.4951255324
 31
0.0
 40
0.9996954599
 41
2.3563467834
 42
3.9268385237
  0
ELLIPSE
  5
61E
100
AcDbEntity
  8
RACCORDO
100
AcDbEllipse
 62
7
  6
CONTINUOUS
 10
22.2912267691
 20
128.7912267691
 30
0.0
 11
-0.2121966568
 21
-0.2121966568
 31
0.0
 40
0.9996954599
 41
2.3563467834
 42
3.9268385237
  0
ELLIPSE
  5
61F
100
AcDbEntity
  8
RACCORDO
100
AcDbEllipse
 62
7
  6
CONTINUOUS
 10
22.2912267691
 20
84.2087732309
 30
0.0
 11
-0.2121966568
 21
0.2121966568
 31
0.0
 40
0.9996954599
 41
2.3563467834
 42
3.9268385237
  0
ELLIPSE
  5
620
100
AcDbEntity
  8
RACCORDO
100
AcDbEllipse
 62
7
  6
CONTINUOUS
 10
-22.2912267691
 20
128.7912267691
 30
0.0
 11
-0.2121966568
 21
0.2121966568
 31
0.0
 40
0.9996954599
 41
-0.7852458701
 42
0.7852458701
  0
ELLIPSE
  5
621
100
AcDbEntity
  8
RACCORDO
100
AcDbEllipse
 62
7
  6
CONTINUOUS
 10
-22.2912267691
 20
84.2087732309
 30
0.0
 11
0.2121966568
 21
0.2121966568
 31
0.0
 40
0.9996954599
 41
2.3563467834
 42
3.9268385237
  0
ELLIPSE
  5
622
100
AcDbEntity
  8
RACCORDO
100
AcDbEllipse
 62
7
  6
CONTINUOUS
 10
25.5998933704
 20
132.0998933704
 30
0.0
 11
0.4951255324
 21
0.4951255324
 31
0.0
 40
0.9996954599
 41
-0.7852458702
 42
0.7852458701
  0
ELLIPSE
  5
623
100
AcDbEntity
  8
RACCORDO
100
AcDbEllipse
 62
7
  6
CONTINUOUS
 10
25.5998933704
 20
80.9001066296
 30
0.0
 11
0.4951255324
 21
-0.4951255324
 31
0.0
 40
0.9996954599
 41
-0.7852458702
 42
0.7852458701
  0
ELLIPSE
  5
624
100
AcDbEntity
  8
RACCORDO
100
AcDbEllipse
 62
7
  6
CONTINUOUS
 10
-25.5998933704
 20
80.9001066296
 30
0.0
 11
0.4951255324
 21
0.4951255324
 31
0.0
 40
0.9996954599
 41
2.3563467834
 42
3.9268385237
  0
ELLIPSE
  5
625
100
AcDbEntity
  8
RACCORDO
100
AcDbEllipse
 62
7
  6
CONTINUOUS
 10
-25.5998933704
 20
132.0998933704
 30
0.0
 11
-0.4951255324
 21
0.4951255324
 31
0.0
 40
0.9996954599
 41
-0.7852458701
 42
0.7852458702
  0
ELLIPSE
  5
626
100
AcDbEntity
  8
RACCORDO
100
AcDbEllipse
 62
7
  6
CONTINUOUS
 10
22.2912267691
 20
-84.2087732309
 30
0.0
 11
-0.2121966568
 21
-0.2121966568
 31
0.0
 40
0.9996954599
 41
2.3563467834
 42
3.9268385237
  0
ELLIPSE
  5
627
100
AcDbEntity
  8
RACCORDO
100
AcDbEllipse
 62
7
  6
CONTINUOUS
 10
22.2912267691
 20
-128.7912267691
 30
0.0
 11
-0.2121966568
 21
0.2121966568
 31
0.0
 40
0.9996954599
 41
2.3563467834
 42
3.9268385237
  0
ELLIPSE
  5
628
100
AcDbEntity
  8
RACCORDO
100
AcDbEllipse
 62
7
  6
CONTINUOUS
 10
-22.2912267691
 20
-84.2087732309
 30
0.0
 11
-0.2121966568
 21
0.2121966568
 31
0.0
 40
0.9996954599
 41
-0.7852458701
 42
0.7852458701
  0
ELLIPSE
  5
629
100
AcDbEntity
  8
RACCORDO
100
AcDbEllipse
 62
7
  6
CONTINUOUS
 10
-22.2912267691
 20
-128.7912267691
 30
0.0
 11
0.2121966568
 21
0.2121966568
 31
0.0
 40
0.9996954599
 41
2.3563467834
 42
3.9268385237
  0
ELLIPSE
  5
62A
100
AcDbEntity
  8
RACCORDO
100
AcDbEllipse
 62
7
  6
CONTINUOUS
 10
25.5998933704
 20
-80.9001066296
 30
0.0
 11
0.4951255324
 21
0.4951255324
 31
0.0
 40
0.9996954599
 41
-0.7852458702
 42
0.7852458701
  0
ELLIPSE
  5
62B
100
AcDbEntity
  8
RACCORDO
100
AcDbEllipse
 62
7
  6
CONTINUOUS
 10
25.5998933704
 20
-132.0998933704
 30
0.0
 11
0.4951255324
 21
-0.4951255324
 31
0.0
 40
0.9996954599
 41
-0.7852458702
 42
0.7852458701
  0
ELLIPSE
  5
62C
100
AcDbEntity
  8
RACCORDO
100
AcDbEllipse
 62
7
  6
CONTINUOUS
 10
-25.5998933704
 20
-132.0998933704
 30
0.0
 11
0.4951255324
 21
0.4951255324
 31
0.0
 40
0.9996954599
 41
2.3563467835
 42
3.9268385238
  0
ELLIPSE
  5
62D
100
AcDbEntity
  8
RACCORDO
100
AcDbEllipse
 62
7
  6
CONTINUOUS
 10
-25.5998933704
 20
-80.9001066296
 30
0.0
 11
0.4951255324
 21
-0.4951255324
 31
0.0
 40
0.9996954599
 41
2.3563467835
 42
3.9268385238
  0
ELLIPSE
  5
62E
100
AcDbEntity
  8
0
100
AcDbEllipse
 62
7
  6
CONTINUOUS
 10
96.0171360808
 20
-97.0
 30
0.0
 11
0.3003499811
 21
-0.0
 31
0.0
 40
0.9999984769
 41
-1.310683181
 42
1.3106831811
  0
ELLIPSE
  5
62F
100
AcDbEntity
  8
0
100
AcDbEllipse
 62
7
  6
CONTINUOUS
 10
96.0171360808
 20
-93.5
 30
0.0
 11
0.3003499811
 21
-0.0
 31
0.0
 40
0.9999984769
 41
-1.310683181
 42
1.3106831811
  0
ELLIPSE
  5
630
100
AcDbEntity
  8
0
100
AcDbEllipse
 62
7
  6
CONTINUOUS
 10
96.0171360808
 20
93.5
 30
0.0
 11
0.3003499811
 21
0.0
 31
0.0
 40
0.9999984769
 41
-1.3106831811
 42
1.310683181
  0
ELLIPSE
  5
631
100
AcDbEntity
  8
0
100
AcDbEllipse
 62
7
  6
CONTINUOUS
 10
96.0171360808
 20
97.0
 30
0.0
 11
0.3003499811
 21
0.0
 31
0.0
 40
0.9999984769
 41
-1.3106831811
 42
1.310683181
  0
ELLIPSE
  5
632
100
AcDbEntity
  8
0
100
AcDbEllipse
 62
7
  6
CONTINUOUS
 10
96.0171360808
 20
-119.5
 30
0.0
 11
0.3003499811
 21
-0.0
 31
0.0
 40
0.9999984769
 41
-1.310683181
 42
1.3106831811
  0
ELLIPSE
  5
633
100
AcDbEntity
  8
0
100
AcDbEllipse
 62
7
  6
CONTINUOUS
 10
96.0171360808
 20
-116.0
 30
0.0
 11
0.3003499811
 21
-0.0
 31
0.0
 40
0.9999984769
 41
-1.310683181
 42
1.3106831811
  0
ELLIPSE
  5
634
100
AcDbEntity
  8
0
100
AcDbEllipse
 62
7
  6
CONTINUOUS
 10
96.0171360808
 20
26.0
 30
0.0
 11
0.3003499811
 21
-0.0
 31
0.0
 40
0.9999984769
 41
-1.310683181
 42
1.3106831811
  0
ELLIPSE
  5
635
100
AcDbEntity
  8
0
100
AcDbEllipse
 62
7
  6
CONTINUOUS
 10
96.0171360808
 20
22.5
 30
0.0
 11
0.3003499811
 21
0.0
 31
0.0
 40
0.9999984769
 41
-1.3106831811
 42
1.310683181
  0
ELLIPSE
  5
636
100
AcDbEntity
  8
0
100
AcDbEllipse
 62
7
  6
CONTINUOUS
 10
96.0171360808
 20
48.5
 30
0.0
 11
0.3003499811
 21
0.0
 31
0.0
 40
0.9999984769
 41
-1.3106831811
 42
1.310683181
  0
ELLIPSE
  5
637
100
AcDbEntity
  8
0
100
AcDbEllipse
 62
7
  6
CONTINUOUS
 10
96.0171360808
 20
45.0
 30
0.0
 11
0.3003499811
 21
0.0
 31
0.0
 40
0.9999984769
 41
-1.3106831811
 42
1.310683181
  0
ELLIPSE
  5
638
100
AcDbEntity
  8
0
100
AcDbEllipse
 62
7
  6
CONTINUOUS
 10
96.0171360808
 20
-45.0
 30
0.0
 11
0.3003499811
 21
0.0
 31
0.0
 40
0.9999984769
 41
-1.3106831811
 42
1.310683181
  0
ELLIPSE
  5
639
100
AcDbEntity
  8
0
100
AcDbEllipse
 62
7
  6
CONTINUOUS
 10
96.0171360808
 20
-48.5
 30
0.0
 11
0.3003499811
 21
0.0
 31
0.0
 40
0.9999984769
 41
-1.3106831811
 42
1.310683181
  0
ELLIPSE
  5
63A
100
AcDbEntity
  8
0
100
AcDbEllipse
 62
7
  6
CONTINUOUS
 10
96.0171360808
 20
-22.5
 30
0.0
 11
0.3003499811
 21
-0.0000000001
 31
0.0
 40
0.9999984769
 41
-1.3106831808
 42
1.3106831813
  0
ELLIPSE
  5
63B
100
AcDbEntity
  8
0
100
AcDbEllipse
 62
7
  6
CONTINUOUS
 10
96.0171360808
 20
-26.0
 30
0.0
 11
0.3003499811
 21
0.0
 31
0.0
 40
0.9999984769
 41
-1.3106831811
 42
1.310683181
  0
ELLIPSE
  5
63C
100
AcDbEntity
  8
0
100
AcDbEllipse
 62
7
  6
CONTINUOUS
 10
96.0166118707
 20
-9.5085615559
 30
0.0
 11
0.1417119467
 21
0.1422961243
 31
0.0
 40
0.9918061237
 41
-3.9249339151
 42
-2.4064974659
  0
ELLIPSE
  5
63D
100
AcDbEntity
  8
0
100
AcDbEllipse
 62
7
  6
CONTINUOUS
 10
96.0166118707
 20
9.5085615559
 30
0.0
 11
-0.1417119467
 21
0.1422961243
 31
0.0
 40
0.9918061237
 41
-0.7350951877
 42
0.7833412615
  0
ELLIPSE
  5
63E
100
AcDbEntity
  8
ASSI
100
AcDbEllipse
 62
7
  6
CONTINUOUS
 10
96.0166118707
 20
80.5085615559
 30
0.0
 11
-0.1417119467
 21
0.1422961243
 31
0.0
 40
0.9918061237
 41
-0.7350951877
 42
0.7833412615
  0
ELLIPSE
  5
63F
100
AcDbEntity
  8
ASSI
100
AcDbEllipse
 62
7
  6
CONTINUOUS
 10
96.0166118707
 20
132.4914384441
 30
0.0
 11
0.1417119467
 21
0.1422961243
 31
0.0
 40
0.9918061237
 41
-3.9249339151
 42
-2.4064974659
  0
ELLIPSE
  5
640
100
AcDbEntity
  8
0
100
AcDbEllipse
 62
7
  6
CONTINUOUS
 10
96.0166118707
 20
61.4914384441
 30
0.0
 11
0.1417119467
 21
0.1422961243
 31
0.0
 40
0.9918061237
 41
-3.9249339151
 42
-2.4064974659
  0
ELLIPSE
  5
641
100
AcDbEntity
  8
0
100
AcDbEllipse
 62
7
  6
CONTINUOUS
 10
96.0171360808
 20
116.0
 30
0.0
 11
0.3003499811
 21
0.0
 31
0.0
 40
0.9999984769
 41
-1.3106831811
 42
1.310683181
  0
ELLIPSE
  5
642
100
AcDbEntity
  8
0
100
AcDbEllipse
 62
7
  6
CONTINUOUS
 10
96.0171360808
 20
119.5
 30
0.0
 11
0.3003499811
 21
0.0
 31
0.0
 40
0.9999984769
 41
-1.3106831811
 42
1.310683181
  0
ELLIPSE
  5
643
100
AcDbEntity
  8
0
100
AcDbEllipse
 62
7
  6
CONTINUOUS
 10
96.0166118707
 20
-80.5085615559
 30
0.0
 11
0.1417119467
 21
0.1422961243
 31
0.0
 40
0.9918061237
 41
-3.9249339151
 42
-2.4064974659
  0
ELLIPSE
  5
644
100
AcDbEntity
  8
0
100
AcDbEllipse
 62
7
  6
CONTINUOUS
 10
96.0166118707
 20
-61.4914384441
 30
0.0
 11
-0.1417119467
 21
0.1422961243
 31
0.0
 40
0.9918061237
 41
-0.7350951877
 42
0.7833412615
  0
ELLIPSE
  5
645
100
AcDbEntity
  8
0
100
AcDbEllipse
 62
7
  6
CONTINUOUS
 10
96.0166118707
 20
-132.4914384441
 30
0.0
 11
-0.1417119467
 21
0.1422961243
 31
0.0
 40
0.9918061237
 41
-0.7350951877
 42
0.7833412615
  0
ENDSEC
  0
SECTION
  2
OBJECTS
  0
DICTIONARY
  5
C
100
AcDbDictionary
280
0
281
1
  3
ACAD_GROUP
350
D
  3
ACAD_MLINESTYLE
350
17
  3
ACAD_LAYOUT
350
1A
  3
ACAD_PLOTSETTINGS
350
19
  3
ACAD_PLOTSTYLENAME
350
E
  0
DICTIONARY
  5
D
102
{ACAD_REACTORS
330
C
102
}
100
AcDbDictionary
280
0
281
1
  0
ACDBDICTIONARYWDFLT
  5
E
102
{ACAD_REACTORS
330
C
102
}
100
AcDbDictionary
281
1
  3
Normal
350
F
100
AcDbDictionaryWithDefault
340
F
  0
DICTIONARY
  5
17
102
{ACAD_REACTORS
330
C
102
}
100
AcDbDictionary
280
0
281
1
  3
Standard
350
18
  0
DICTIONARY
  5
19
102
{ACAD_REACTORS
330
C
102
}
100
AcDbDictionary
281
1
  0
DICTIONARY
  5
1A
102
{ACAD_REACTORS
330
C
102
}
100
AcDbDictionary
281
1
  3
Model
350
646
  3
Layout1
350
647
  0
ACDBPLACEHOLDER
  5
F
102
{ACAD_REACTORS
330
E
102
}
  0
MLINESTYLE
  5
18
102
{ACAD_REACTORS
330
17
102
}
100
AcDbMlineStyle
  2
STANDARD
 70
0
  3

 62
256
 51
90.0
 52
90.0
 71
2
 49
0.5
 62
256
  6
BYLAYER
 49
-0.5
 62
256
  6
BYLAYER
  0
LAYOUT
  5
646
102
{ACAD_REACTORS
330
1A
102
}
100
AcDbPlotSettings
  1

  2
none_device
  4
ISO_A4_(297.00_x_210.00_MM)
  6

 40
0.0
 41
0.0
 42
0.0
 43
0.0
 44
297.0
 45
210.0
 46
0.0
 47
0.0
 48
0.0
 49
0.0
140
0.0
141
0.0
142
1.0
143
1.0
 70
1024
 72
1
 73
0
 74
0
  7

 75
0
147
1.0
148
0.0
149
0.0
100
AcDbLayout
  1
Model
 70
0
 71
0
 10
0.0
 20
0.0
 11
297.0
 21
210.0
 12
0.0
 22
0.0
 32
0.0
 14
0.0
 24
0.0
 34
0.0
 15
0.0
 25
0.0
 35
0.0
146
0.0
 13
0.0
 23
0.0
 33
0.0
 16
1.0
 26
0.0
 36
0.0
 17
0.0
 27
1.0
 37
0.0
 76
0
330
215
345
0
346
0
  0
LAYOUT
  5
647
102
{ACAD_REACTORS
330
1A
102
}
100
AcDbPlotSettings
  1

  2
none_device
  4
ISO_A4_(297.00_x_210.00_MM)
  6

 40
0.0
 41
0.0
 42
0.0
 43
0.0
 44
297.0
 45
210.0
 46
0.0
 47
0.0
 48
0.0
 49
0.0
140
0.0
141
0.0
142
1.0
143
1.0
 70
0
 72
1
 73
0
 74
0
  7

 75
0
147
1.0
148
0.0
149
0.0
100
AcDbLayout
  1
Layout1
 70
0
 71
1
 10
0.0
 20
0.0
 11
297.0
 21
210.0
 12
0.0
 22
0.0
 32
0.0
 14
0.0
 24
0.0
 34
0.0
 15
0.0
 25
0.0
 35
0.0
146
0.0
 13
0.0
 23
0.0
 33
0.0
 16
1.0
 26
0.0
 36
0.0
 17
0.0
 27
1.0
 37
0.0
 76
0
330
216
345
0
346
0
  0
ENDSEC
  0
EOF
