  0
SECTION
  2
HEADER
  9
$ACADVER
  1
AC1024
  9
$DWGCODEPAGE
  3
ANSI_1252
  9
$EXTMAX
 10
297.0
 20
210.0
 30
0.0
  9
$EXTMIN
 10
0.0
 20
0.0
 30
0.0
  9
$LIMMIN
 10
0.0
 20
0.0
  9
$LIMMAX
 10
297.0
 20
210.0
  9
$VIEWCTR
 10
148.5
 20
105.0
  9
$VIEWSIZE
 40
210.0
  9
$CLAYER
  8
0
  9
$LTSCALE
 40
16.335
  9
$CELTYPE
  6
BYLAYER
  9
$DIMSCALE
 40
1.0
  9
$DIMASZ
 40
3.0
  9
$DIMEXO
 40
0.5
  9
$DIMDLI
 40
11.286
  9
$DIMEXE
 40
1.5
  9
$DIMCEN
 40
2.673
  9
$DIMLFAC
 40
1.0
  9
$DIMBLK
  1
_FILLED
  9
$DIMALT
 70
0
  9
$DIMALTF
 40
0.0393700787
  9
$DIMTXT
 40
3.0
  9
$DIMTOL
 70
1
  9
$DIMLIM
 70
0
  9
$DIMTFAC
 40
1.0
  9
$DIMTP
 40
0.01
  9
$DIMTM
 40
0.01
  9
$DIMGAP
 40
0.625
  9
$DIMDSEP
 70
44
  9
$AUNITS
 70
0
  9
$PDMODE
 70
3
  9
$PDSIZE
 40
3.0
  9
$HANDSEED
  5
450
  9
$TILEMODE
 70
1
  9
$MEASUREMENT
 70
1
  9
$INSUNITS
 70
4
  0
ENDSEC
  0
SECTION
  2
CLASSES
  0
CLASS
  1
ACDBDICTIONARYWDFLT
  2
AcDbDictionaryWithDefault
  3
AutoCAD 2000
 90
0
 91
1
280
0
281
0
  0
CLASS
  1
ACDBPLACEHOLDER
  2
AcDbPlaceHolder
  3
AutoCAD 2000
 90
0
 91
1
280
0
281
0
  0
CLASS
  1
LAYOUT
  2
AcDbLayout
  3
AutoCAD 2000
 90
0
 91
0
280
0
281
0
  0
ENDSEC
  0
SECTION
  2
TABLES
  0
TABLE
  2
VPORT
  5
8
100
AcDbSymbolTable
 70
2
  0
VPORT
  5
1F4
100
AcDbSymbolTableRecord
100
AcDbViewportTableRecord
  2
*ACTIVE
 70
0
 10
0.0
 20
0.0
 11
1.0
 21
1.0
 12
148.5
 22
105.0
 13
0.0
 23
0.0
 14
1.0
 24
1.0
 15
0.0
 25
0.0
 16
0.0
 26
0.0
 36
1.0
 17
0.0
 27
0.0
 37
0.0
 40
210.0
 41
1.4142857143
 42
50.0
 43
0.0
 44
0.0
 50
0.0
 51
0.0
 71
0
 72
100
 73
1
 74
1
 75
0
 76
0
 77
0
 78
0
  0
ENDTAB
  0
TABLE
  2
LTYPE
  5
5
100
AcDbSymbolTable
 70
6
  0
LTYPE
  5
14
100
AcDbSymbolTableRecord
100
AcDbLinetypeTableRecord
  2
BYBLOCK
 70
0
  3

 72
65
 73
0
 40
0.0
  0
LTYPE
  5
15
100
AcDbSymbolTableRecord
100
AcDbLinetypeTableRecord
  2
BYLAYER
 70
0
  3

 72
65
 73
0
 40
0.0
  0
LTYPE
  5
16
100
AcDbSymbolTableRecord
100
AcDbLinetypeTableRecord
  2
CONTINUOUS
 70
64
  3
Solid line
 72
65
 73
0
 40
0.0
  0
LTYPE
  5
1F5
100
AcDbSymbolTableRecord
100
AcDbLinetypeTableRecord
  2
CENTER
 70
64
  3
____ _ ____ _ ____ _ ____ _ ____ _ ____ _ ____
 72
65
 73
4
 40
0.6
 49
0.375
 74
0
 49
-0.075
 74
0
 49
0.075
 74
0
 49
-0.075
 74
0
  0
LTYPE
  5
1F6
100
AcDbSymbolTableRecord
100
AcDbLinetypeTableRecord
  2
HIDDEN
 70
64
  3
- - - - - - - - - - - - - - - - - - - -
 72
65
 73
2
 40
0.2
 49
0.1
 74
0
 49
-0.1
 74
0
  0
LTYPE
  5
1F7
100
AcDbSymbolTableRecord
100
AcDbLinetypeTableRecord
  2
PHANTOM
 70
64
  3
_____ _ _ _____ _ _ _____ _ _ _____
 72
65
 73
6
 40
0.8
 49
0.45
 74
0
 49
-0.05
 74
0
 49
0.1
 74
0
 49
-0.05
 74
0
 49
0.1
 74
0
 49
-0.05
 74
0
  0
LTYPE
  5
1F8
100
AcDbSymbolTableRecord
100
AcDbLinetypeTableRecord
  2
DOT
 70
64
  3
. . . . . . . . . . . . . . . . . . . .
 72
65
 73
2
 40
0.2
 49
0.1
 74
0
 49
-0.1
 74
0
  0
LTYPE
  5
1F9
100
AcDbSymbolTableRecord
100
AcDbLinetypeTableRecord
  2
DASHED
 70
64
  3
- - - - - - - - - - - - - - - - - - - -
 72
65
 73
2
 40
0.2
 49
0.1
 74
0
 49
-0.1
 74
0
  0
ENDTAB
  0
TABLE
  2
LAYER
  5
2
100
AcDbSymbolTable
 70
36
  0
LAYER
  5
10
100
AcDbSymbolTableRecord
100
AcDbLayerTableRecord
  2
0
 70
0
 62
7
  6
CONTINUOUS
370
-3
390
F
  0
LAYER
  5
1FA
100
AcDbSymbolTableRecord
100
AcDbLayerTableRecord
  2
DEFAULT_1
 70
0
 62
7
  6
CENTER
370
-3
390
F
  0
LAYER
  5
1FB
100
AcDbSymbolTableRecord
100
AcDbLayerTableRecord
  2
DEFAULT_2
 70
0
 62
7
  6
HIDDEN
370
-3
390
F
  0
LAYER
  5
1FC
100
AcDbSymbolTableRecord
100
AcDbLayerTableRecord
  2
DEFAULT_3
 70
0
 62
7
  6
PHANTOM
370
-3
390
F
  0
LAYER
  5
1FD
100
AcDbSymbolTableRecord
100
AcDbLayerTableRecord
  2
ASSI
 70
0
 62
7
  6
CONTINUOUS
370
-3
390
F
  0
LAYER
  5
1FE
100
AcDbSymbolTableRecord
100
AcDbLayerTableRecord
  2
COORDINATE
 70
0
 62
7
  6
CONTINUOUS
370
-3
390
F
  0
LAYER
  5
1FF
100
AcDbSymbolTableRecord
100
AcDbLayerTableRecord
  2
COORD_ORIGINE
 70
0
 62
7
  6
CONTINUOUS
370
-3
390
F
  0
LAYER
  5
200
100
AcDbSymbolTableRecord
100
AcDbLayerTableRecord
  2
COPY_PUBLISH
 70
0
 62
7
  6
CONTINUOUS
370
-3
390
F
  0
LAYER
  5
201
100
AcDbSymbolTableRecord
100
AcDbLayerTableRecord
  2
COSMETIC
 70
0
 62
7
  6
CONTINUOUS
370
-3
390
F
  0
LAYER
  5
202
100
AcDbSymbolTableRecord
100
AcDbLayerTableRecord
  2
COSMETICI
 70
0
 62
7
  6
CONTINUOUS
370
-3
390
F
  0
LAYER
  5
203
100
AcDbSymbolTableRecord
100
AcDbLayerTableRecord
  2
CURVE
 70
0
 62
7
  6
CONTINUOUS
370
-3
390
F
  0
LAYER
  5
204
100
AcDbSymbolTableRecord
100
AcDbLayerTableRecord
  2
CURVE_TASSELLI
 70
0
 62
7
  6
CONTINUOUS
370
-3
390
F
  0
LAYER
  5
205
100
AcDbSymbolTableRecord
100
AcDbLayerTableRecord
  2
DRAFT
 70
0
 62
7
  6
CONTINUOUS
370
-3
390
F
  0
LAYER
  5
206
100
AcDbSymbolTableRecord
100
AcDbLayerTableRecord
  2
IMPORT_IGES
 70
0
 62
7
  6
CONTINUOUS
370
-3
390
F
  0
LAYER
  5
207
100
AcDbSymbolTableRecord
100
AcDbLayerTableRecord
  2
INTFCLR_2
 70
0
 62
7
  6
CONTINUOUS
370
-3
390
F
  0
LAYER
  5
208
100
AcDbSymbolTableRecord
100
AcDbLayerTableRecord
  2
INTF_1
 70
0
 62
7
  6
CONTINUOUS
370
-3
390
F
  0
LAYER
  5
209
100
AcDbSymbolTableRecord
100
AcDbLayerTableRecord
  2
INTF_21
 70
0
 62
7
  6
CONTINUOUS
370
-3
390
F
  0
LAYER
  5
20A
100
AcDbSymbolTableRecord
100
AcDbLayerTableRecord
  2
INTF_6
 70
0
 62
7
  6
CONTINUOUS
370
-3
390
F
  0
LAYER
  5
20B
100
AcDbSymbolTableRecord
100
AcDbLayerTableRecord
  2
INTF_7
 70
0
 62
7
  6
CONTINUOUS
370
-3
390
F
  0
LAYER
  5
20C
100
AcDbSymbolTableRecord
100
AcDbLayerTableRecord
  2
INTF_CYAN
 70
0
 62
7
  6
CONTINUOUS
370
-3
390
F
  0
LAYER
  5
20D
100
AcDbSymbolTableRecord
100
AcDbLayerTableRecord
  2
LIVELLO_1
 70
0
 62
7
  6
CONTINUOUS
370
-3
390
F
  0
LAYER
  5
20E
100
AcDbSymbolTableRecord
100
AcDbLayerTableRecord
  2
NOTE
 70
0
 62
7
  6
CONTINUOUS
370
-3
390
F
  0
LAYER
  5
20F
100
AcDbSymbolTableRecord
100
AcDbLayerTableRecord
  2
PIANI
 70
0
 62
7
  6
CONTINUOUS
370
-3
390
F
  0
LAYER
  5
210
100
AcDbSymbolTableRecord
100
AcDbLayerTableRecord
  2
PIANI_ORIGINE
 70
0
 62
7
  6
CONTINUOUS
370
-3
390
F
  0
LAYER
  5
211
100
AcDbSymbolTableRecord
100
AcDbLayerTableRecord
  2
PIANI_RIFERIMENTO
 70
0
 62
7
  6
CONTINUOUS
370
-3
390
F
  0
LAYER
  5
212
100
AcDbSymbolTableRecord
100
AcDbLayerTableRecord
  2
PUNTI
 70
0
 62
7
  6
CONTINUOUS
370
-3
390
F
  0
LAYER
  5
213
100
AcDbSymbolTableRecord
100
AcDbLayerTableRecord
  2
RACCORDO
 70
0
 62
7
  6
CONTINUOUS
370
-3
390
F
  0
LAYER
  5
214
100
AcDbSymbolTableRecord
100
AcDbLayerTableRecord
  2
RGB__255__255__255__
 70
0
 62
7
  6
CONTINUOUS
370
-3
390
F
  0
LAYER
  5
215
100
AcDbSymbolTableRecord
100
AcDbLayerTableRecord
  2
RGB____0____0____0__
 70
0
 62
7
  6
CONTINUOUS
370
-3
390
F
  0
LAYER
  5
216
100
AcDbSymbolTableRecord
100
AcDbLayerTableRecord
  2
SIMBOLI
 70
0
 62
7
  6
CONTINUOUS
370
-3
390
F
  0
LAYER
  5
217
100
AcDbSymbolTableRecord
100
AcDbLayerTableRecord
  2
SMUSSO
 70
0
 62
7
  6
CONTINUOUS
370
-3
390
F
  0
LAYER
  5
218
100
AcDbSymbolTableRecord
100
AcDbLayerTableRecord
  2
SNAPLINE
 70
0
 62
7
  6
CONTINUOUS
370
-3
390
F
  0
LAYER
  5
219
100
AcDbSymbolTableRecord
100
AcDbLayerTableRecord
  2
SUPERFICI
 70
0
 62
7
  6
CONTINUOUS
370
-3
390
F
  0
LAYER
  5
21A
100
AcDbSymbolTableRecord
100
AcDbLayerTableRecord
  2
TRASH
 70
0
 62
7
  6
CONTINUOUS
370
-3
390
F
  0
LAYER
  5
21B
100
AcDbSymbolTableRecord
100
AcDbLayerTableRecord
  2
WHITE
 70
0
 62
7
  6
CONTINUOUS
370
-3
390
F
  0
LAYER
  5
21C
100
AcDbSymbolTableRecord
100
AcDbLayerTableRecord
  2
XSEC_DATUMS
 70
0
 62
7
  6
CONTINUOUS
370
-3
390
F
  0
ENDTAB
  0
TABLE
  2
STYLE
  5
3
100
AcDbSymbolTable
 70
1
  0
STYLE
  5
11
100
AcDbSymbolTableRecord
100
AcDbTextStyleTableRecord
  2
STANDARD
 70
0
 40
0.0
 41
0.8
 50
0.0
 71
0
 42
0.2
  3
txt
  4

  0
STYLE
  5
21D
100
AcDbSymbolTableRecord
100
AcDbTextStyleTableRecord
  2
TEXTSTYLE_1
 70
0
 40
0.0
 41
0.8
 50
0.0
 71
0
 42
0.2
  3
gdt
  4

  0
ENDTAB
  0
TABLE
  2
VIEW
  5
6
100
AcDbSymbolTable
 70
0
  0
ENDTAB
  0
TABLE
  2
UCS
  5
7
100
AcDbSymbolTable
 70
0
  0
ENDTAB
  0
TABLE
  2
APPID
  5
9
100
AcDbSymbolTable
 70
1
  0
APPID
  5
21E
100
AcDbSymbolTableRecord
100
AcDbRegAppTableRecord
  2
ACAD
 70
0
  0
ENDTAB
  0
TABLE
  2
BLOCK_RECORD
  5
1
100
AcDbSymbolTable
 70
0
  0
BLOCK_RECORD
  5
21F
100
AcDbSymbolTableRecord
100
AcDbBlockTableRecord
  2
*Model_Space
  0
BLOCK_RECORD
  5
220
100
AcDbSymbolTableRecord
100
AcDbBlockTableRecord
  2
*Paper_Space
  0
BLOCK_RECORD
  5
221
100
AcDbSymbolTableRecord
100
AcDbBlockTableRecord
  2
_FILLED
  0
BLOCK_RECORD
  5
222
100
AcDbSymbolTableRecord
100
AcDbBlockTableRecord
  2
*D0
  0
BLOCK_RECORD
  5
223
100
AcDbSymbolTableRecord
100
AcDbBlockTableRecord
  2
*D1
  0
BLOCK_RECORD
  5
224
100
AcDbSymbolTableRecord
100
AcDbBlockTableRecord
  2
*D2
  0
BLOCK_RECORD
  5
225
100
AcDbSymbolTableRecord
100
AcDbBlockTableRecord
  2
*D3
  0
ENDTAB
  0
TABLE
  2
DIMSTYLE
  5
A
100
AcDbSymbolTable
 70
1
100
AcDbDimStyleTable
 71
0
  0
DIMSTYLE
105
226
100
AcDbSymbolTableRecord
100
AcDbDimStyleTableRecord
  2
STANDARD
 70
0
  3

  4

 40
1.0
 41
3.0
 42
0.5
 43
0.38
 44
1.5
 45
0.0
 46
0.0
 47
0.01
 48
0.01
140
3.0
141
0.09
142
0.0
143
25.4
144
1.0
145
0.0
146
1.0
147
0.625
 71
1
 72
0
 73
0
 74
0
 75
0
 76
0
 77
1
 78
8
 79
2
170
0
171
1
172
0
173
0
174
0
175
0
176
0
177
0
178
0
270
2
179
2
271
2
272
2
273
2
274
2
275
0
280
0
281
0
282
0
283
1
284
8
285
0
286
0
287
3
288
0
340
11
278
44
341
221
342
221
343
221
344
221
  0
DIMSTYLE
105
227
100
AcDbSymbolTableRecord
100
AcDbDimStyleTableRecord
  2
DIMSTYLE_1
 70
0
  3

  4

 40
1.0
 41
3.0
 42
0.5
 43
0.38
 44
1.5
 45
0.0
 46
0.0
 47
0.0
 48
0.0
140
3.0
141
0.09
142
0.0
143
25.4
144
1.0
145
0.0
146
1.0
147
0.75
 71
0
 72
0
 73
0
 74
0
 75
0
 76
0
 77
1
 78
8
 79
2
170
0
171
1
172
0
173
0
174
0
175
0
176
0
177
0
178
0
270
2
179
2
271
2
272
2
273
2
274
2
275
0
280
0
281
0
282
0
283
1
284
8
285
0
286
0
287
3
288
0
340
11
278
44
341
221
342
221
343
221
344
221
  0
ENDTAB
  0
ENDSEC
  0
SECTION
  2
BLOCKS
  0
BLOCK
  5
20
100
AcDbEntity
  8
0
100
AcDbBlockBegin
  2
*Model_Space
 70
0
 10
0.0
 20
0.0
 30
0.0
  3
*Model_Space
  1

  0
ENDBLK
  5
21
100
AcDbEntity
  8
0
100
AcDbBlockEnd
  0
BLOCK
  5
1C
100
AcDbEntity
  8
0
100
AcDbBlockBegin
  2
*Paper_Space
 70
0
 10
0.0
 20
0.0
 30
0.0
  3
*Paper_Space
  1

  0
ENDBLK
  5
1D
100
AcDbEntity
  8
0
100
AcDbBlockEnd
  0
BLOCK
  5
228
100
AcDbEntity
  8
0
100
AcDbBlockBegin
  2
_FILLED
 70
64
 10
0.0
 20
0.0
  3
_FILLED
  1

  0
SOLID
  5
229
100
AcDbEntity
  8
0
  6
BYBLOCK
 62
0
100
AcDbTrace
 10
0.0
 20
0.0
 11
-1.0
 21
0.3166666667
 12
-1.0
 22
-0.3166666667
 13
-1.0
 23
-0.3166666667
  0
ENDBLK
  5
22A
100
AcDbEntity
  8
0
  6
BYBLOCK
 62
0
100
AcDbBlockEnd
  0
BLOCK
  5
22B
100
AcDbEntity
  8
0
100
AcDbBlockBegin
 62
7
  6
CONTINUOUS
  2
*D0
 70
65
 10
0.0
 20
0.0
  3
*D0
  1

  0
LINE
  5
22C
100
AcDbEntity
  8
0
100
AcDbLine
 62
7
  6
CONTINUOUS
 10
126.9931640625
 20
143.6458755729
 11
126.9931640625
 21
163.646484375
  0
LINE
  5
22D
100
AcDbEntity
  8
0
100
AcDbLine
 62
7
  6
CONTINUOUS
 10
216.9931640625
 20
143.6458755729
 11
216.9931640625
 21
163.646484375
  0
LINE
  5
22E
100
AcDbEntity
  8
0
100
AcDbLine
 62
7
  6
CONTINUOUS
 10
126.9931640625
 20
162.146484375
 11
171.9931640625
 21
162.146484375
  0
LINE
  5
22F
100
AcDbEntity
  8
0
100
AcDbLine
 62
7
  6
CONTINUOUS
 10
216.9931640625
 20
162.146484375
 11
171.9931640625
 21
162.146484375
  0
INSERT
  5
230
100
AcDbEntity
  8
0
100
AcDbBlockReference
 62
7
  6
CONTINUOUS
  2
_FILLED
 10
126.9931640625
 20
162.146484375
 41
3.0
 42
3.0
 43
3.0
 50
180.0
  0
INSERT
  5
231
100
AcDbEntity
  8
0
100
AcDbBlockReference
 62
7
  6
CONTINUOUS
  2
_FILLED
 10
216.9931640625
 20
162.146484375
 41
3.0
 42
3.0
 43
3.0
  0
ENDBLK
  5
232
100
AcDbEntity
  8
0
  6
BYBLOCK
 62
0
100
AcDbBlockEnd
  0
BLOCK
  5
233
100
AcDbEntity
  8
0
100
AcDbBlockBegin
 62
7
  6
CONTINUOUS
  2
*D1
 70
65
 10
0.0
 20
0.0
  3
*D1
  1

  0
LINE
  5
234
100
AcDbEntity
  8
0
100
AcDbLine
 62
7
  6
CONTINUOUS
 10
216.4925552604
 20
54.146484375
 11
236.4931640625
 21
54.146484375
  0
LINE
  5
235
100
AcDbEntity
  8
0
100
AcDbLine
 62
7
  6
CONTINUOUS
 10
216.4925552604
 20
144.146484375
 11
236.4931640625
 21
144.146484375
  0
LINE
  5
236
100
AcDbEntity
  8
0
100
AcDbLine
 62
7
  6
CONTINUOUS
 10
234.9931640625
 20
54.146484375
 11
234.9931640625
 21
99.146484375
  0
LINE
  5
237
100
AcDbEntity
  8
0
100
AcDbLine
 62
7
  6
CONTINUOUS
 10
234.9931640625
 20
144.146484375
 11
234.9931640625
 21
99.146484375
  0
INSERT
  5
238
100
AcDbEntity
  8
0
100
AcDbBlockReference
 62
7
  6
CONTINUOUS
  2
_FILLED
 10
234.9931640625
 20
54.146484375
 41
3.0
 42
3.0
 43
3.0
 50
270.0
  0
INSERT
  5
239
100
AcDbEntity
  8
0
100
AcDbBlockReference
 62
7
  6
CONTINUOUS
  2
_FILLED
 10
234.9931640625
 20
144.146484375
 41
3.0
 42
3.0
 43
3.0
 50
90.0
  0
ENDBLK
  5
23A
100
AcDbEntity
  8
0
  6
BYBLOCK
 62
0
100
AcDbBlockEnd
  0
BLOCK
  5
23B
100
AcDbEntity
  8
0
100
AcDbBlockBegin
 62
7
  6
CONTINUOUS
  2
*D2
 70
65
 10
0.0
 20
0.0
  3
*D2
  1

  0
LINE
  5
23C
100
AcDbEntity
  8
0
100
AcDbLine
 62
7
  6
CONTINUOUS
 10
89.7852696753
 20
143.0232217852
 11
89.7852696753
 21
153.646484375
  0
LINE
  5
23D
100
AcDbEntity
  8
0
100
AcDbLine
 62
7
  6
CONTINUOUS
 10
96.9352696753
 20
140.8503818946
 11
96.9352696753
 21
153.646484375
  0
LINE
  5
23E
100
AcDbEntity
  8
0
100
AcDbLine
 62
7
  6
CONTINUOUS
 10
89.7852696753
 20
152.146484375
 11
75.8687935754
 21
152.146484375
  0
LINE
  5
23F
100
AcDbEntity
  8
0
100
AcDbLine
 62
7
  6
CONTINUOUS
 10
75.8687935754
 20
152.146484375
 11
93.3602696753
 21
152.146484375
  0
LINE
  5
240
100
AcDbEntity
  8
0
100
AcDbLine
 62
7
  6
CONTINUOUS
 10
96.9352696753
 20
152.146484375
 11
100.9352696753
 21
152.146484375
  0
LINE
  5
241
100
AcDbEntity
  8
0
100
AcDbLine
 62
7
  6
CONTINUOUS
 10
100.9352696753
 20
152.146484375
 11
93.3602696753
 21
152.146484375
  0
INSERT
  5
242
100
AcDbEntity
  8
0
100
AcDbBlockReference
 62
7
  6
CONTINUOUS
  2
_FILLED
 10
89.7852696753
 20
152.146484375
 41
3.0
 42
3.0
 43
3.0
  0
INSERT
  5
243
100
AcDbEntity
  8
0
100
AcDbBlockReference
 62
7
  6
CONTINUOUS
  2
_FILLED
 10
96.9352696753
 20
152.146484375
 41
3.0
 42
3.0
 43
3.0
 50
180.0
  0
ENDBLK
  5
244
100
AcDbEntity
  8
0
  6
BYBLOCK
 62
0
100
AcDbBlockEnd
  0
BLOCK
  5
245
100
AcDbEntity
  8
0
100
AcDbBlockBegin
 62
7
  6
CONTINUOUS
  2
*D3
 70
65
 10
0.0
 20
0.0
  3
*D3
  1

  0
LINE
  5
246
100
AcDbEntity
  8
0
100
AcDbLine
 62
7
  6
CONTINUOUS
 10
89.7852696753
 20
143.0232217852
 11
89.7852696753
 21
163.646484375
  0
LINE
  5
247
100
AcDbEntity
  8
0
100
AcDbLine
 62
7
  6
CONTINUOUS
 10
99.9352696753
 20
125.6368104079
 11
99.9352696753
 21
163.646484375
  0
LINE
  5
248
100
AcDbEntity
  8
0
100
AcDbLine
 62
7
  6
CONTINUOUS
 10
89.7852696753
 20
162.146484375
 11
75.5777788235
 21
162.146484375
  0
LINE
  5
249
100
AcDbEntity
  8
0
100
AcDbLine
 62
7
  6
CONTINUOUS
 10
75.5777788235
 20
162.146484375
 11
94.8602696753
 21
162.146484375
  0
LINE
  5
24A
100
AcDbEntity
  8
0
100
AcDbLine
 62
7
  6
CONTINUOUS
 10
99.9352696753
 20
162.146484375
 11
103.9352696753
 21
162.146484375
  0
LINE
  5
24B
100
AcDbEntity
  8
0
100
AcDbLine
 62
7
  6
CONTINUOUS
 10
103.9352696753
 20
162.146484375
 11
94.8602696753
 21
162.146484375
  0
INSERT
  5
24C
100
AcDbEntity
  8
0
100
AcDbBlockReference
 62
7
  6
CONTINUOUS
  2
_FILLED
 10
89.7852696753
 20
162.146484375
 41
3.0
 42
3.0
 43
3.0
  0
INSERT
  5
24D
100
AcDbEntity
  8
0
100
AcDbBlockReference
 62
7
  6
CONTINUOUS
  2
_FILLED
 10
99.9352696753
 20
162.146484375
 41
3.0
 42
3.0
 43
3.0
 50
180.0
  0
ENDBLK
  5
24E
100
AcDbEntity
  8
0
  6
BYBLOCK
 62
0
100
AcDbBlockEnd
  0
ENDSEC
  0
SECTION
  2
ENTITIES
  0
DIMENSION
  5
24F
100
AcDbEntity
  8
0
100
AcDbDimension
 62
7
  6
CONTINUOUS
  2
*D0
 10
216.9931640625
 20
162.146484375
 11
169.6360212054
 21
162.146484375
 70
160
 71
2
 72
2
 41
0.9
 42
90.0
  3
DIMSTYLE_1
100
AcDbAlignedDimension
 13
126.9931640625
 23
143.1458755729
 14
216.9931640625
 24
143.1458755729
100
AcDbRotatedDimension
  0
DIMENSION
  5
250
100
AcDbEntity
  8
0
100
AcDbDimension
 62
7
  6
CONTINUOUS
  2
*D1
 10
234.9931640625
 20
144.146484375
 11
234.9931640625
 21
96.7893415179
 70
160
 71
2
 72
2
 41
0.9
 42
90.0
  3
DIMSTYLE_1
100
AcDbAlignedDimension
 13
215.9925552604
 23
54.146484375
 14
215.9925552604
 24
144.146484375
 50
90.0
100
AcDbRotatedDimension
  0
DIMENSION
  5
251
100
AcDbEntity
  8
0
100
AcDbDimension
 62
7
  6
CONTINUOUS
  2
*D2
 10
96.9352696753
 20
152.146484375
 11
75.8687935754
 21
152.146484375
 70
160
 71
3
 72
2
 41
0.9
 42
7.15
  3
DIMSTYLE_1
100
AcDbAlignedDimension
 13
89.7852696753
 23
142.5232217852
 14
96.9352696753
 24
140.3503818946
100
AcDbRotatedDimension
  0
DIMENSION
  5
252
100
AcDbEntity
  8
0
100
AcDbDimension
 62
7
  6
CONTINUOUS
  2
*D3
 10
99.9352696753
 20
162.146484375
 11
75.5777788235
 21
162.146484375
 70
160
 71
3
 72
2
 41
0.9
 42
10.15
  3
DIMSTYLE_1
100
AcDbAlignedDimension
 13
89.7852696753
 23
142.5232217852
 14
99.9352696753
 24
125.1368104079
100
AcDbRotatedDimension
  0
LINE
  5
253
100
AcDbEntity
  8
0
100
AcDbLine
 62
7
  6
CONTINUOUS
 10
128.1731785926
 20
143.9371836973
 11
128.1876044081
 21
143.9526528315
  0
LINE
  5
254
100
AcDbEntity
  8
0
100
AcDbLine
 62
7
  6
CONTINUOUS
 10
126.9931640625
 20
143.1458755729
 11
127.9937728646
 21
144.146484375
  0
LINE
  5
255
100
AcDbEntity
  8
0
100
AcDbLine
 62
7
  6
CONTINUOUS
 10
128.1731785926
 20
143.9371836973
 11
127.2024647402
 21
142.9664698449
  0
LINE
  5
256
100
AcDbEntity
  8
0
100
AcDbLine
 62
7
  6
CONTINUOUS
 10
128.6164266523
 20
142.9177533348
 11
128.2218951027
 21
142.5232217852
  0
LINE
  5
257
100
AcDbEntity
  8
0
100
AcDbLine
 62
7
  6
CONTINUOUS
 10
127.186995606
 20
142.9520440294
 11
127.2024647402
 21
142.9664698449
  0
LINE
  5
258
100
AcDbEntity
  8
0
100
AcDbLine
 62
7
  6
CONTINUOUS
 10
127.2024647402
 20
55.3264989051
 11
127.186995606
 21
55.3409247206
  0
LINE
  5
259
100
AcDbEntity
  8
0
100
AcDbLine
 62
7
  6
CONTINUOUS
 10
127.9937728646
 20
54.146484375
 11
126.9931640625
 21
55.1470931771
  0
LINE
  5
25A
100
AcDbEntity
  8
0
100
AcDbLine
 62
7
  6
CONTINUOUS
 10
127.2024647402
 20
55.3264989051
 11
128.1731785926
 21
54.3557850527
  0
LINE
  5
25B
100
AcDbEntity
  8
0
100
AcDbLine
 62
7
  6
CONTINUOUS
 10
128.2218951027
 20
55.7697469648
 11
128.6164266523
 21
55.3752154152
  0
LINE
  5
25C
100
AcDbEntity
  8
0
100
AcDbLine
 62
7
  6
CONTINUOUS
 10
128.1876044081
 20
54.3403159185
 11
128.1731785926
 21
54.3557850527
  0
LWPOLYLINE
  5
25D
100
AcDbEntity
  8
0
100
AcDbPolyline
 62
7
  6
CONTINUOUS
 90
10
 70
0
 43
0.3500000006
 10
170.0645855713
 20
162.8964918823
 10
170.9217416382
 20
163.7536298218
 10
171.136026123
 20
164.6107677612
 10
171.136026123
 20
165.4679057007
 10
170.7074571533
 20
165.8964927979
 10
170.0645855713
 20
165.8964927979
 10
169.6360166016
 20
165.4679057007
 10
169.6360166016
 20
164.6107677612
 10
170.0645855713
 20
164.1821987915
 10
170.9931637573
 20
164.1821987915
  0
LINE
  5
25E
100
AcDbEntity
  8
0
100
AcDbLine
 62
7
  6
CONTINUOUS
 10
126.9931640625
 20
143.1458755729
 11
126.9931640625
 21
55.1470931771
  0
LINE
  5
25F
100
AcDbEntity
  8
0
100
AcDbLine
 62
7
  6
CONTINUOUS
 10
127.186995606
 20
142.9520440294
 11
127.186995606
 21
55.3409247206
  0
LINE
  5
260
100
AcDbEntity
  8
0
100
AcDbLine
 62
7
  6
CONTINUOUS
 10
128.2218951027
 20
142.5232217852
 11
128.2218951027
 21
55.7697469648
  0
LINE
  5
261
100
AcDbEntity
  8
0
100
AcDbLine
 62
7
  6
CONTINUOUS
 10
127.9937728646
 20
54.146484375
 11
215.9925552604
 21
54.146484375
  0
LINE
  5
262
100
AcDbEntity
  8
0
100
AcDbLine
 62
7
  6
CONTINUOUS
 10
128.1876044081
 20
54.3403159185
 11
215.7987237169
 21
54.3403159185
  0
LINE
  5
263
100
AcDbEntity
  8
0
100
AcDbLine
 62
7
  6
CONTINUOUS
 10
128.6164266523
 20
55.3752154152
 11
215.3699014727
 21
55.3752154152
  0
LINE
  5
264
100
AcDbEntity
  8
CURVE
100
AcDbLine
 62
250
  6
CONTINUOUS
 10
216.8532952795
 20
62.889086375
 11
216.9405400078
 21
62.889086375
  0
LINE
  5
265
100
AcDbEntity
  8
CURVE
100
AcDbLine
 62
250
  6
CONTINUOUS
 10
216.9405400078
 20
63.410879375
 11
216.8532952795
 21
63.410879375
  0
LWPOLYLINE
  5
266
100
AcDbEntity
  8
CURVE
100
AcDbPolyline
 62
250
  6
CONTINUOUS
 90
21
 70
0
 10
216.8785545745
 20
69.7238487301
 10
216.8789333548
 20
69.7238774138
 10
216.8793150641
 20
69.7236298881
 10
216.8796991797
 20
69.7231060308
 10
216.8800851788
 20
69.7223057197
 10
216.8804725386
 20
69.7212288326
 10
216.8808607364
 20
69.7198752471
 10
216.8812492493
 20
69.7182448411
 10
216.8816375546
 20
69.7163374923
 10
216.8820251294
 20
69.7141530786
 10
216.882411451
 20
69.7116914775
 10
216.8827959966
 20
69.708952567
 10
216.8831782434
 20
69.7059362248
 10
216.8835576686
 20
69.7026423286
 10
216.8839337494
 20
69.6990707562
 10
216.8843059631
 20
69.6952213853
 10
216.8846737867
 20
69.6910940938
 10
216.8850366977
 20
69.6866887594
 10
216.8853941731
 20
69.6820052598
 10
216.8857456901
 20
69.6770434729
 10
216.886090726
 20
69.6718032763
  0
LINE
  5
267
100
AcDbEntity
  8
CURVE
100
AcDbLine
 62
250
  6
CONTINUOUS
 10
216.8543197419
 20
68.5179292362
 11
216.9405400083
 21
68.5179292362
  0
LINE
  5
268
100
AcDbEntity
  8
CURVE
100
AcDbLine
 62
250
  6
CONTINUOUS
 10
216.8921115576
 20
69.020320711
 11
216.8681626103
 21
69.020320711
  0
LINE
  5
269
100
AcDbEntity
  8
CURVE
100
AcDbLine
 62
250
  6
CONTINUOUS
 10
216.9405400083
 20
69.0376225778
 11
216.9063992819
 21
69.0376225778
  0
LINE
  5
26A
100
AcDbEntity
  8
CURVE
100
AcDbLine
 62
250
  6
CONTINUOUS
 10
216.8998173774
 20
69.8594331314
 11
216.8993018679
 21
69.8594331314
  0
LINE
  5
26B
100
AcDbEntity
  8
0
100
AcDbLine
 62
7
  6
CONTINUOUS
 10
128.6164266523
 20
55.3752154152
 11
128.1731785926
 21
54.3557850527
  0
LINE
  5
26C
100
AcDbEntity
  8
0
100
AcDbLine
 62
7
  6
CONTINUOUS
 10
215.7644330223
 20
142.5232217852
 11
216.7838633848
 21
142.9664698449
  0
LINE
  5
26D
100
AcDbEntity
  8
0
100
AcDbLine
 62
7
  6
CONTINUOUS
 10
215.7644330223
 20
55.7697469648
 11
216.7838633848
 21
55.3264989051
  0
LINE
  5
26E
100
AcDbEntity
  8
0
100
AcDbLine
 62
7
  6
CONTINUOUS
 10
128.6164266523
 20
142.9177533348
 11
128.1731785926
 21
143.9371836973
  0
LWPOLYLINE
  5
26F
100
AcDbEntity
  8
0
100
AcDbPolyline
 62
7
  6
CONTINUOUS
 90
13
 70
0
 43
0.3500000006
 10
171.9931640625
 20
163.7536298218
 10
171.9931640625
 20
165.039336731
 10
172.2074485474
 20
165.4679057007
 10
172.6360175171
 20
165.8964927979
 10
172.850302002
 20
165.8964927979
 10
173.2788709717
 20
165.4679057007
 10
173.4931554565
 20
165.039336731
 10
173.4931554565
 20
163.7536298218
 10
173.2788709717
 20
163.3250608521
 10
172.850302002
 20
162.8964918823
 10
172.6360175171
 20
162.8964918823
 10
172.2074485474
 20
163.3250608521
 10
171.9931640625
 20
163.7536298218
  0
LINE
  5
270
100
AcDbEntity
  8
0
100
AcDbLine
 62
7
  6
CONTINUOUS
 10
127.186995606
 20
55.3409247206
 11
126.9931640625
 21
55.1470931771
  0
LINE
  5
271
100
AcDbEntity
  8
0
100
AcDbLine
 62
7
  6
CONTINUOUS
 10
215.7987237169
 20
143.9526528315
 11
215.9925552604
 21
144.146484375
  0
LWPOLYLINE
  5
272
100
AcDbEntity
  8
0
100
AcDbPolyline
 62
7
  6
CONTINUOUS
 90
13
 70
0
 43
0.3500000006
 10
233.3860224609
 20
99.1464860229
 10
232.1003155518
 20
99.1464860229
 10
231.6717284546
 20
99.3607705078
 10
231.2431594849
 20
99.7893394775
 10
231.2431594849
 20
100.0036239624
 10
231.6717284546
 20
100.4322019958
 10
232.1003155518
 20
100.6464864807
 10
233.3860224609
 20
100.6464864807
 10
233.8145914307
 20
100.4322019958
 10
234.2431604004
 20
100.0036239624
 10
234.2431604004
 20
99.7893394775
 10
233.8145914307
 20
99.3607705078
 10
233.3860224609
 20
99.1464860229
  0
LINE
  5
273
100
AcDbEntity
  8
0
100
AcDbLine
 62
7
  6
CONTINUOUS
 10
127.186995606
 20
142.9520440294
 11
126.9931640625
 21
143.1458755729
  0
LINE
  5
274
100
AcDbEntity
  8
0
100
AcDbLine
 62
7
  6
CONTINUOUS
 10
215.7987237169
 20
54.3403159185
 11
215.9925552604
 21
54.146484375
  0
LINE
  5
275
100
AcDbEntity
  8
0
100
AcDbLine
 62
7
  6
CONTINUOUS
 10
128.1876044081
 20
54.3403159185
 11
127.9937728646
 21
54.146484375
  0
LINE
  5
276
100
AcDbEntity
  8
0
100
AcDbLine
 62
7
  6
CONTINUOUS
 10
216.799332519
 20
142.9520440294
 11
216.9931640625
 21
143.1458755729
  0
LINE
  5
277
100
AcDbEntity
  8
0
100
AcDbLine
 62
7
  6
CONTINUOUS
 10
128.1876044081
 20
143.9526528315
 11
127.9937728646
 21
144.146484375
  0
LINE
  5
278
100
AcDbEntity
  8
0
100
AcDbLine
 62
7
  6
CONTINUOUS
 10
216.799332519
 20
55.3409247206
 11
216.9931640625
 21
55.1470931771
  0
LINE
  5
279
100
AcDbEntity
  8
0
100
AcDbLine
 62
7
  6
CONTINUOUS
 10
215.3699014727
 20
142.9177533348
 11
215.8131495324
 21
143.9371836973
  0
LINE
  5
27A
100
AcDbEntity
  8
0
100
AcDbLine
 62
7
  6
CONTINUOUS
 10
128.2218951027
 20
55.7697469648
 11
127.2024647402
 21
55.3264989051
  0
LINE
  5
27B
100
AcDbEntity
  8
0
100
AcDbLine
 62
7
  6
CONTINUOUS
 10
128.2218951027
 20
142.5232217852
 11
127.2024647402
 21
142.9664698449
  0
LINE
  5
27C
100
AcDbEntity
  8
CURVE
100
AcDbLine
 62
250
  6
CONTINUOUS
 10
216.8835742573
 20
64.303565375
 11
216.9405400078
 21
64.190962375
  0
LINE
  5
27D
100
AcDbEntity
  8
0
100
AcDbLine
 62
7
  6
CONTINUOUS
 10
215.3699014727
 20
55.3752154152
 11
215.8131495324
 21
54.3557850527
  0
LINE
  5
27E
100
AcDbEntity
  8
CURVE
100
AcDbLine
 62
250
  6
CONTINUOUS
 10
216.9405400078
 20
63.691776375
 11
216.8533004795
 21
63.917488375
  0
LINE
  5
27F
100
AcDbEntity
  8
CURVE
100
AcDbLine
 62
250
  6
CONTINUOUS
 10
216.8533004795
 20
62.695447375
 11
216.9405400078
 21
61.891932375
  0
LINE
  5
280
100
AcDbEntity
  8
CURVE
100
AcDbLine
 62
250
  6
CONTINUOUS
 10
216.9017361299
 20
64.955131375
 11
216.8533004795
 21
65.476924375
  0
LINE
  5
281
100
AcDbEntity
  8
CURVE
100
AcDbLine
 62
250
  6
CONTINUOUS
 10
216.8838117135
 20
65.609284375
 11
216.9405400078
 21
64.988873375
  0
LWPOLYLINE
  5
282
100
AcDbEntity
  8
0
100
AcDbPolyline
 62
7
  6
CONTINUOUS
 90
10
 70
0
 43
0.3500000006
 10
234.2431604004
 20
97.2179165955
 10
233.3860224609
 20
98.0750545349
 10
232.5288845215
 20
98.2893390198
 10
231.6717284546
 20
98.2893390198
 10
231.2431594849
 20
97.86077005
 10
231.2431594849
 20
97.2179165955
 10
231.6717284546
 20
96.789338562
 10
232.5288845215
 20
96.789338562
 10
232.9574534912
 20
97.2179165955
 10
232.9574534912
 20
98.1464857178
  0
LINE
  5
283
100
AcDbEntity
  8
CURVE
100
AcDbLine
 62
250
  6
CONTINUOUS
 10
216.8772716874
 20
67.335534375
 11
216.9096473921
 21
67.075725375
  0
LINE
  5
284
100
AcDbEntity
  8
CURVE
100
AcDbLine
 62
250
  6
CONTINUOUS
 10
216.9133501589
 20
61.682960375
 11
216.8533004795
 21
62.174011375
  0
LINE
  5
285
100
AcDbEntity
  8
CURVE
100
AcDbLine
 62
250
  6
CONTINUOUS
 10
216.9231239025
 20
66.968990375
 11
216.9405400078
 21
66.825007375
  0
LINE
  5
286
100
AcDbEntity
  8
CURVE
100
AcDbLine
 62
250
  6
CONTINUOUS
 10
216.9405400078
 20
66.308876375
 11
216.8533004795
 21
67.092952375
  0
LWPOLYLINE
  5
287
100
AcDbEntity
  8
CURVE
100
AcDbPolyline
 62
250
  6
CONTINUOUS
 90
36
 70
0
 10
216.8915606078
 20
70.1033206631
 10
216.8908505241
 20
70.1157227576
 10
216.8901232778
 20
70.1274118471
 10
216.8893806474
 20
70.1383768212
 10
216.8886244115
 20
70.1486065699
 10
216.8878563487
 20
70.1580899829
 10
216.8870782378
 20
70.1668159498
 10
216.8862918572
 20
70.1747733607
 10
216.8854994845
 20
70.181948492
 10
216.8847010896
 20
70.1883553543
 10
216.8838971299
 20
70.1940039378
 10
216.8830880626
 20
70.1989042327
 10
216.8822743448
 20
70.2030662293
 10
216.8814564338
 20
70.2064999178
 10
216.8805169365
 20
70.2095461201
 10
216.8795737495
 20
70.2116697592
 10
216.8786280658
 20
70.2128870383
 10
216.8776810782
 20
70.2132141608
 10
216.8767339798
 20
70.21266733
 10
216.8757879635
 20
70.2112627493
 10
216.8748677245
 20
70.209075323
 10
216.8739507662
 20
70.2060582918
 10
216.8730382061
 20
70.2021821434
 10
216.8721311619
 20
70.1974173651
 10
216.8712307512
 20
70.1917344446
 10
216.8704279773
 20
70.1858207108
 10
216.8696324422
 20
70.1791355377
 10
216.8688451215
 20
70.1716732215
 10
216.8680669908
 20
70.1634280582
 10
216.8672990256
 20
70.1543943438
 10
216.8664757232
 20
70.1436619649
 10
216.8656669935
 20
70.1320110388
 10
216.8648742064
 20
70.1194642782
 10
216.8640987313
 20
70.1060443963
 10
216.863341938
 20
70.0917741059
 10
216.861889875
 20
70.0607731516
  0
LINE
  5
288
100
AcDbEntity
  8
CURVE
100
AcDbLine
 62
250
  6
CONTINUOUS
 10
216.886090726
 20
69.6718032763
 11
216.8867592634
 21
69.6604871654
  0
LINE
  5
289
100
AcDbEntity
  8
CURVE
100
AcDbLine
 62
250
  6
CONTINUOUS
 10
216.8867592634
 20
69.6604871654
 11
216.8873956028
 21
69.6480559491
  0
LINE
  5
28A
100
AcDbEntity
  8
CURVE
100
AcDbLine
 62
250
  6
CONTINUOUS
 10
216.8929221724
 20
70.0764218999
 11
216.8915606078
 21
70.1033206631
  0
LINE
  5
28B
100
AcDbEntity
  8
CURVE
100
AcDbLine
 62
250
  6
CONTINUOUS
 10
216.8873956028
 20
69.6480559491
 11
216.8879955619
 21
69.6345086496
  0
LINE
  5
28C
100
AcDbEntity
  8
CURVE
100
AcDbLine
 62
250
  6
CONTINUOUS
 10
216.8941490661
 20
70.0479515448
 11
216.8929221724
 21
70.0764218999
  0
LINE
  5
28D
100
AcDbEntity
  8
CURVE
100
AcDbLine
 62
250
  6
CONTINUOUS
 10
216.8879955619
 20
69.6345086496
 11
216.8885549585
 21
69.6198442889
  0
LINE
  5
28E
100
AcDbEntity
  8
CURVE
100
AcDbLine
 62
250
  6
CONTINUOUS
 10
216.8952548846
 20
70.0183302696
 11
216.8941490661
 21
70.0479515448
  0
LINE
  5
28F
100
AcDbEntity
  8
CURVE
100
AcDbLine
 62
250
  6
CONTINUOUS
 10
216.8885549585
 20
69.6198442889
 11
216.8890696102
 21
69.6040618893
  0
LINE
  5
290
100
AcDbEntity
  8
CURVE
100
AcDbLine
 62
250
  6
CONTINUOUS
 10
216.8973302493
 20
69.9531998118
 11
216.8952548846
 21
70.0183302696
  0
LINE
  5
291
100
AcDbEntity
  8
CURVE
100
AcDbLine
 62
250
  6
CONTINUOUS
 10
216.8984226656
 20
69.9145079688
 11
216.8973302493
 21
69.9531998118
  0
LINE
  5
292
100
AcDbEntity
  8
CURVE
100
AcDbLine
 62
250
  6
CONTINUOUS
 10
216.8890696102
 20
69.6040618893
 11
216.8897436065
 21
69.5787112924
  0
LINE
  5
293
100
AcDbEntity
  8
CURVE
100
AcDbLine
 62
250
  6
CONTINUOUS
 10
216.8987707901
 20
69.8997098553
 11
216.8984226656
 21
69.9145079688
  0
LINE
  5
294
100
AcDbEntity
  8
CURVE
100
AcDbLine
 62
250
  6
CONTINUOUS
 10
216.8897436065
 20
69.5787112924
 11
216.8903173112
 21
69.5512562771
  0
LINE
  5
295
100
AcDbEntity
  8
CURVE
100
AcDbLine
 62
250
  6
CONTINUOUS
 10
216.8990542797
 20
69.8842453751
 11
216.8987707901
 21
69.8997098553
  0
LINE
  5
296
100
AcDbEntity
  8
CURVE
100
AcDbLine
 62
250
  6
CONTINUOUS
 10
216.8903173112
 20
69.5512562771
 11
216.8909380877
 21
69.5119742748
  0
LINE
  5
297
100
AcDbEntity
  8
CURVE
100
AcDbLine
 62
250
  6
CONTINUOUS
 10
216.8909380877
 20
69.5119742748
 11
216.8915052143
 21
69.4597258763
  0
LWPOLYLINE
  5
298
100
AcDbEntity
  8
CURVE
100
AcDbPolyline
 62
250
  6
CONTINUOUS
 90
3
 70
0
 10
216.8993018679
 20
69.8594331314
 10
216.8992473261
 20
69.8679471746
 10
216.8990542797
 20
69.8842453751
  0
LINE
  5
299
100
AcDbEntity
  8
CURVE
100
AcDbLine
 62
250
  6
CONTINUOUS
 10
216.8915052143
 20
69.4597258763
 11
216.8919662117
 21
69.383577257
  0
LINE
  5
29A
100
AcDbEntity
  8
CURVE
100
AcDbLine
 62
250
  6
CONTINUOUS
 10
216.8681626103
 20
69.020320711
 11
216.8673947573
 21
69.2096737998
  0
LINE
  5
29B
100
AcDbEntity
  8
CURVE
100
AcDbLine
 62
250
  6
CONTINUOUS
 10
216.8522949083
 20
69.1408091035
 11
216.8543197419
 21
68.5179292362
  0
LINE
  5
29C
100
AcDbEntity
  8
0
100
AcDbLine
 62
7
  6
CONTINUOUS
 10
215.7644330223
 20
55.7697469648
 11
215.7644330223
 21
142.5232217852
  0
LINE
  5
29D
100
AcDbEntity
  8
0
100
AcDbLine
 62
7
  6
CONTINUOUS
 10
216.799332519
 20
55.3409247206
 11
216.799332519
 21
142.9520440294
  0
LINE
  5
29E
100
AcDbEntity
  8
CURVE
100
AcDbLine
 62
250
  6
CONTINUOUS
 10
216.8532952795
 20
63.410879375
 11
216.8532952795
 21
62.889086375
  0
LINE
  5
29F
100
AcDbEntity
  8
CURVE
100
AcDbLine
 62
250
  6
CONTINUOUS
 10
216.8533004795
 20
60.639637375
 11
216.8533004795
 21
61.206465375
  0
LINE
  5
2A0
100
AcDbEntity
  8
CURVE
100
AcDbLine
 62
250
  6
CONTINUOUS
 10
216.8533004795
 20
62.174011375
 11
216.8533004795
 21
62.695447375
  0
LINE
  5
2A1
100
AcDbEntity
  8
CURVE
100
AcDbLine
 62
250
  6
CONTINUOUS
 10
216.8533004795
 20
63.917488375
 11
216.8533004795
 21
64.438849375
  0
LINE
  5
2A2
100
AcDbEntity
  8
CURVE
100
AcDbLine
 62
250
  6
CONTINUOUS
 10
216.8533004795
 20
65.476924375
 11
216.8533004795
 21
65.993187375
  0
LINE
  5
2A3
100
AcDbEntity
  8
CURVE
100
AcDbLine
 62
250
  6
CONTINUOUS
 10
216.8533004795
 20
67.092952375
 11
216.8533004795
 21
67.597724375
  0
LINE
  5
2A4
100
AcDbEntity
  8
CURVE
100
AcDbLine
 62
250
  6
CONTINUOUS
 10
216.8919662117
 20
69.383577257
 11
216.8921115576
 21
69.020320711
  0
LINE
  5
2A5
100
AcDbEntity
  8
CURVE
100
AcDbLine
 62
250
  6
CONTINUOUS
 10
216.9096473921
 20
67.075725375
 11
216.9096473921
 21
67.575305375
  0
LINE
  5
2A6
100
AcDbEntity
  8
CURVE
100
AcDbLine
 62
250
  6
CONTINUOUS
 10
216.9231239025
 20
67.679585375
 11
216.9231239025
 21
66.968990375
  0
LINE
  5
2A7
100
AcDbEntity
  8
CURVE
100
AcDbLine
 62
250
  6
CONTINUOUS
 10
216.9405400078
 20
68.364705375
 11
216.9405400078
 21
67.814757375
  0
LINE
  5
2A8
100
AcDbEntity
  8
CURVE
100
AcDbLine
 62
250
  6
CONTINUOUS
 10
216.9405400078
 20
66.825007375
 11
216.9405400078
 21
66.308876375
  0
LINE
  5
2A9
100
AcDbEntity
  8
CURVE
100
AcDbLine
 62
250
  6
CONTINUOUS
 10
216.9405400078
 20
66.226940375
 11
216.9405400078
 21
65.716488375
  0
LINE
  5
2AA
100
AcDbEntity
  8
CURVE
100
AcDbLine
 62
250
  6
CONTINUOUS
 10
216.9405400078
 20
64.988873375
 11
216.9405400078
 21
64.915691375
  0
LINE
  5
2AB
100
AcDbEntity
  8
CURVE
100
AcDbLine
 62
250
  6
CONTINUOUS
 10
216.9405400078
 20
64.190962375
 11
216.9405400078
 21
63.691776375
  0
LINE
  5
2AC
100
AcDbEntity
  8
CURVE
100
AcDbLine
 62
250
  6
CONTINUOUS
 10
216.9405400078
 20
61.891932375
 11
216.9405400078
 21
61.432102375
  0
LINE
  5
2AD
100
AcDbEntity
  8
CURVE
100
AcDbLine
 62
250
  6
CONTINUOUS
 10
216.9405400078
 20
62.889086375
 11
216.9405400078
 21
63.410879375
  0
LINE
  5
2AE
100
AcDbEntity
  8
CURVE
100
AcDbLine
 62
250
  6
CONTINUOUS
 10
216.9405400083
 20
68.5179292362
 11
216.9405400083
 21
69.0376225778
  0
LINE
  5
2AF
100
AcDbEntity
  8
CURVE
100
AcDbLine
 62
250
  6
CONTINUOUS
 10
216.9405400083
 20
69.8366763965
 11
216.9405400083
 21
70.3385804948
  0
LINE
  5
2B0
100
AcDbEntity
  8
0
100
AcDbLine
 62
7
  6
CONTINUOUS
 10
216.9931640625
 20
55.1470931771
 11
216.9931640625
 21
143.1458755729
  0
LINE
  5
2B1
100
AcDbEntity
  8
CURVE
100
AcDbLine
 62
250
  6
CONTINUOUS
 10
216.8673947573
 20
69.2096737998
 11
216.8675093963
 21
69.3893996136
  0
LINE
  5
2B2
100
AcDbEntity
  8
CURVE
100
AcDbLine
 62
250
  6
CONTINUOUS
 10
216.8528324113
 20
69.4936125298
 11
216.8522949083
 21
69.1408091035
  0
LINE
  5
2B3
100
AcDbEntity
  8
CURVE
100
AcDbLine
 62
250
  6
CONTINUOUS
 10
216.9063992819
 20
69.0376225778
 11
216.9064892506
 21
69.3576258686
  0
LINE
  5
2B4
100
AcDbEntity
  8
CURVE
100
AcDbLine
 62
250
  6
CONTINUOUS
 10
216.8675093963
 20
69.3893996136
 11
216.8678760992
 21
69.4673128921
  0
LINE
  5
2B5
100
AcDbEntity
  8
CURVE
100
AcDbLine
 62
250
  6
CONTINUOUS
 10
216.8539681685
 20
69.6831785074
 11
216.8528324113
 21
69.4936125298
  0
LINE
  5
2B6
100
AcDbEntity
  8
CURVE
100
AcDbLine
 62
250
  6
CONTINUOUS
 10
216.9064892506
 20
69.3576258686
 11
216.9067640108
 21
69.3973860281
  0
LINE
  5
2B7
100
AcDbEntity
  8
CURVE
100
AcDbLine
 62
250
  6
CONTINUOUS
 10
216.8552382384
 20
69.8056342607
 11
216.8539681685
 21
69.6831785074
  0
LINE
  5
2B8
100
AcDbEntity
  8
CURVE
100
AcDbLine
 62
250
  6
CONTINUOUS
 10
216.8678760992
 20
69.4673128921
 11
216.8683609767
 21
69.5143056803
  0
LINE
  5
2B9
100
AcDbEntity
  8
CURVE
100
AcDbLine
 62
250
  6
CONTINUOUS
 10
216.9067640108
 20
69.3973860281
 11
216.9071217615
 21
69.4281609934
  0
LINE
  5
2BA
100
AcDbEntity
  8
CURVE
100
AcDbLine
 62
250
  6
CONTINUOUS
 10
216.8559808359
 20
69.8545800856
 11
216.8552382384
 21
69.8056342607
  0
LINE
  5
2BB
100
AcDbEntity
  8
CURVE
100
AcDbLine
 62
250
  6
CONTINUOUS
 10
216.8683609767
 20
69.5143056803
 11
216.8689077667
 21
69.5504580567
  0
LINE
  5
2BC
100
AcDbEntity
  8
CURVE
100
AcDbLine
 62
250
  6
CONTINUOUS
 10
216.9003033033
 20
69.8891868901
 11
216.8998173774
 21
69.8594331314
  0
LINE
  5
2BD
100
AcDbEntity
  8
CURVE
100
AcDbLine
 62
250
  6
CONTINUOUS
 10
216.9071217615
 20
69.4281609934
 11
216.907609611
 21
69.4576260895
  0
LINE
  5
2BE
100
AcDbEntity
  8
CURVE
100
AcDbLine
 62
250
  6
CONTINUOUS
 10
216.8569107255
 20
69.9010295067
 11
216.8559808359
 21
69.8545800856
  0
LINE
  5
2BF
100
AcDbEntity
  8
CURVE
100
AcDbLine
 62
250
  6
CONTINUOUS
 10
216.8689077667
 20
69.5504580567
 11
216.8695940319
 21
69.5845984787
  0
LINE
  5
2C0
100
AcDbEntity
  8
CURVE
100
AcDbLine
 62
250
  6
CONTINUOUS
 10
216.900899542
 20
69.9170703567
 11
216.9003033033
 21
69.8891868901
  0
LINE
  5
2C1
100
AcDbEntity
  8
CURVE
100
AcDbLine
 62
250
  6
CONTINUOUS
 10
216.907609611
 20
69.4576260895
 11
216.9080678908
 21
69.4788654849
  0
LINE
  5
2C2
100
AcDbEntity
  8
CURVE
100
AcDbLine
 62
250
  6
CONTINUOUS
 10
216.8582626628
 20
69.9554948454
 11
216.8569107255
 21
69.9010295067
  0
LINE
  5
2C3
100
AcDbEntity
  8
CURVE
100
AcDbLine
 62
250
  6
CONTINUOUS
 10
216.8695940319
 20
69.5845984787
 11
216.8701992852
 21
69.6084779197
  0
LINE
  5
2C4
100
AcDbEntity
  8
CURVE
100
AcDbLine
 62
250
  6
CONTINUOUS
 10
216.9080678908
 20
69.4788654849
 11
216.9085932404
 21
69.4989252462
  0
LINE
  5
2C5
100
AcDbEntity
  8
CURVE
100
AcDbLine
 62
250
  6
CONTINUOUS
 10
216.9015958583
 20
69.9431451386
 11
216.900899542
 21
69.9170703567
  0
LINE
  5
2C6
100
AcDbEntity
  8
CURVE
100
AcDbLine
 62
250
  6
CONTINUOUS
 10
216.8593679119
 20
69.9927798592
 11
216.8582626628
 21
69.9554948454
  0
LINE
  5
2C7
100
AcDbEntity
  8
CURVE
100
AcDbLine
 62
250
  6
CONTINUOUS
 10
216.9085932404
 20
69.4989252462
 11
216.9091785322
 21
69.5177585028
  0
LINE
  5
2C8
100
AcDbEntity
  8
CURVE
100
AcDbLine
 62
250
  6
CONTINUOUS
 10
216.8701992852
 20
69.6084779197
 11
216.8708813955
 21
69.6305620408
  0
LINE
  5
2C9
100
AcDbEntity
  8
CURVE
100
AcDbLine
 62
250
  6
CONTINUOUS
 10
216.9023820172
 20
69.9674728433
 11
216.9015958583
 21
69.9431451386
  0
LINE
  5
2CA
100
AcDbEntity
  8
CURVE
100
AcDbLine
 62
250
  6
CONTINUOUS
 10
216.8605653207
 20
70.0276319667
 11
216.8593679119
 21
69.9927798592
  0
LINE
  5
2CB
100
AcDbEntity
  8
CURVE
100
AcDbLine
 62
250
  6
CONTINUOUS
 10
216.8708813955
 20
69.6305620408
 11
216.8713770495
 21
69.6441128768
  0
LINE
  5
2CC
100
AcDbEntity
  8
CURVE
100
AcDbLine
 62
250
  6
CONTINUOUS
 10
216.9091785322
 20
69.5177585028
 11
216.9098166388
 21
69.5353183838
  0
LINE
  5
2CD
100
AcDbEntity
  8
CURVE
100
AcDbLine
 62
250
  6
CONTINUOUS
 10
216.9032477838
 20
69.9901150783
 11
216.9023820172
 21
69.9674728433
  0
LINE
  5
2CE
100
AcDbEntity
  8
CURVE
100
AcDbLine
 62
250
  6
CONTINUOUS
 10
216.861889875
 20
70.0607731516
 11
216.8605653207
 21
70.0276319667
  0
LINE
  5
2CF
100
AcDbEntity
  8
CURVE
100
AcDbLine
 62
250
  6
CONTINUOUS
 10
216.8713770495
 20
69.6441128768
 11
216.8719031607
 21
69.6566588801
  0
LINE
  5
2D0
100
AcDbEntity
  8
CURVE
100
AcDbLine
 62
250
  6
CONTINUOUS
 10
216.9098166388
 20
69.5353183838
 11
216.9105004325
 21
69.5515580185
  0
LINE
  5
2D1
100
AcDbEntity
  8
CURVE
100
AcDbLine
 62
250
  6
CONTINUOUS
 10
216.9041829228
 20
70.0111334509
 11
216.9032477838
 21
69.9901150783
  0
LINE
  5
2D2
100
AcDbEntity
  8
CURVE
100
AcDbLine
 62
250
  6
CONTINUOUS
 10
216.9105004325
 20
69.5515580185
 11
216.9109781569
 21
69.5616278255
  0
LINE
  5
2D3
100
AcDbEntity
  8
CURVE
100
AcDbLine
 62
250
  6
CONTINUOUS
 10
216.8719031607
 20
69.6566588801
 11
216.8724579309
 21
69.6682125071
  0
LINE
  5
2D4
100
AcDbEntity
  8
CURVE
100
AcDbLine
 62
250
  6
CONTINUOUS
 10
216.9048398349
 20
70.024273977
 11
216.9041829228
 21
70.0111334509
  0
LINE
  5
2D5
100
AcDbEntity
  8
CURVE
100
AcDbLine
 62
250
  6
CONTINUOUS
 10
216.9109781569
 20
69.5616278255
 11
216.9114709072
 21
69.5710761372
  0
LINE
  5
2D6
100
AcDbEntity
  8
CURVE
100
AcDbLine
 62
250
  6
CONTINUOUS
 10
216.9055199976
 20
70.0367384217
 11
216.9048398349
 21
70.024273977
  0
LWPOLYLINE
  5
2D7
100
AcDbEntity
  8
CURVE
100
AcDbPolyline
 62
250
  6
CONTINUOUS
 90
19
 70
0
 10
216.8724579309
 20
69.6682125071
 10
216.8730382057
 20
69.678749549
 10
216.8733369217
 20
69.6836292851
 10
216.8736408311
 20
69.6882457964
 10
216.8739495396
 20
69.692596057
 10
216.8742626529
 20
69.6966770405
 10
216.8745797768
 20
69.7004857209
 10
216.874900517
 20
69.7040190721
 10
216.8752244792
 20
69.7072740679
 10
216.8755512692
 20
69.7102476821
 10
216.8758804927
 20
69.7129368888
 10
216.8762117554
 20
69.7153386616
 10
216.8765446631
 20
69.7174499745
 10
216.8768788215
 20
69.7192678013
 10
216.8772138363
 20
69.720789116
 10
216.8775493133
 20
69.7220108923
 10
216.8778848582
 20
69.7229301042
 10
216.8782200767
 20
69.7235437255
 10
216.8785545745
 20
69.7238487301
  0
LINE
  5
2D8
100
AcDbEntity
  8
CURVE
100
AcDbLine
 62
250
  6
CONTINUOUS
 10
216.9114709072
 20
69.5710761372
 11
216.9119765713
 21
69.579889066
  0
LINE
  5
2D9
100
AcDbEntity
  8
CURVE
100
AcDbLine
 62
250
  6
CONTINUOUS
 10
216.9062203785
 20
70.048545039
 11
216.9055199976
 21
70.0367384217
  0
LINE
  5
2DA
100
AcDbEntity
  8
CURVE
100
AcDbLine
 62
250
  6
CONTINUOUS
 10
216.9119765713
 20
69.579889066
 11
216.9124930375
 21
69.5880527244
  0
LINE
  5
2DB
100
AcDbEntity
  8
CURVE
100
AcDbLine
 62
250
  6
CONTINUOUS
 10
216.9069379449
 20
70.059712083
 11
216.9062203785
 21
70.048545039
  0
LINE
  5
2DC
100
AcDbEntity
  8
CURVE
100
AcDbLine
 62
250
  6
CONTINUOUS
 10
216.9076696642
 20
70.0702578077
 11
216.9069379449
 21
70.059712083
  0
LINE
  5
2DD
100
AcDbEntity
  8
CURVE
100
AcDbLine
 62
250
  6
CONTINUOUS
 10
216.9124930375
 20
69.5880527244
 11
216.9130181939
 21
69.5955532246
  0
LINE
  5
2DE
100
AcDbEntity
  8
CURVE
100
AcDbLine
 62
250
  6
CONTINUOUS
 10
216.9084125039
 20
70.0802004673
 11
216.9076696642
 21
70.0702578077
  0
LWPOLYLINE
  5
2DF
100
AcDbEntity
  8
CURVE
100
AcDbPolyline
 62
250
  6
CONTINUOUS
 90
4
 70
0
 10
216.9130181939
 20
69.5955532246
 10
216.9135499286
 20
69.602376679
 10
216.9138176029
 20
69.6055301742
 10
216.9140861299
 20
69.6085092001
  0
LWPOLYLINE
  5
2E0
100
AcDbEntity
  8
CURVE
100
AcDbPolyline
 62
250
  6
CONTINUOUS
 90
3
 70
0
 10
216.9095409802
 20
70.0940236402
 10
216.9091634313
 20
70.0895583157
 10
216.9084125039
 20
70.0802004673
  0
LINE
  5
2E1
100
AcDbEntity
  8
0
100
AcDbLine
 62
7
  6
CONTINUOUS
 10
215.3699014727
 20
142.9177533348
 11
128.6164266523
 21
142.9177533348
  0
LINE
  5
2E2
100
AcDbEntity
  8
0
100
AcDbLine
 62
7
  6
CONTINUOUS
 10
215.7987237169
 20
143.9526528315
 11
128.1876044081
 21
143.9526528315
  0
LINE
  5
2E3
100
AcDbEntity
  8
0
100
AcDbLine
 62
7
  6
CONTINUOUS
 10
215.9925552604
 20
144.146484375
 11
127.9937728646
 21
144.146484375
  0
LINE
  5
2E4
100
AcDbEntity
  8
CURVE
100
AcDbLine
 62
250
  6
CONTINUOUS
 10
216.910298353
 20
70.1025384983
 11
216.9095409802
 21
70.0940236402
  0
LINE
  5
2E5
100
AcDbEntity
  8
CURVE
100
AcDbLine
 62
250
  6
CONTINUOUS
 10
216.9405400078
 20
64.915691375
 11
216.8835742573
 21
64.303565375
  0
LINE
  5
2E6
100
AcDbEntity
  8
CURVE
100
AcDbLine
 62
250
  6
CONTINUOUS
 10
216.8533004795
 20
64.438849375
 11
216.9017361299
 21
64.955131375
  0
LINE
  5
2E7
100
AcDbEntity
  8
CURVE
100
AcDbLine
 62
250
  6
CONTINUOUS
 10
216.9140861299
 20
69.6085092001
 11
216.9152934056
 21
69.6211921274
  0
LINE
  5
2E8
100
AcDbEntity
  8
CURVE
100
AcDbLine
 62
250
  6
CONTINUOUS
 10
216.9110562321
 20
70.1105141804
 11
216.910298353
 21
70.1025384983
  0
LINE
  5
2E9
100
AcDbEntity
  8
CURVE
100
AcDbLine
 62
250
  6
CONTINUOUS
 10
216.9152934056
 20
69.6211921274
 11
216.9177259219
 21
69.6450632567
  0
LINE
  5
2EA
100
AcDbEntity
  8
CURVE
100
AcDbLine
 62
250
  6
CONTINUOUS
 10
216.9405400078
 20
61.432102375
 11
216.8533004795
 21
60.639637375
  0
LINE
  5
2EB
100
AcDbEntity
  8
CURVE
100
AcDbLine
 62
250
  6
CONTINUOUS
 10
216.9177259219
 20
69.6450632567
 11
216.9201778103
 21
69.6673161664
  0
LINE
  5
2EC
100
AcDbEntity
  8
CURVE
100
AcDbLine
 62
250
  6
CONTINUOUS
 10
216.8533004795
 20
67.597724375
 11
216.9405400078
 21
68.364705375
  0
LWPOLYLINE
  5
2ED
100
AcDbEntity
  8
CURVE
100
AcDbPolyline
 62
250
  6
CONTINUOUS
 90
5
 70
0
 10
216.9135504119
 20
70.1335065621
 10
216.9128711517
 20
70.1276759738
 10
216.912187366
 20
70.1215066794
 10
216.9118115847
 20
70.1179689406
 10
216.9110562321
 20
70.1105141804
  0
LINE
  5
2EE
100
AcDbEntity
  8
CURVE
100
AcDbLine
 62
250
  6
CONTINUOUS
 10
216.9201778103
 20
69.6673161664
 11
216.9226435738
 21
69.6884005537
  0
LINE
  5
2EF
100
AcDbEntity
  8
CURVE
100
AcDbLine
 62
250
  6
CONTINUOUS
 10
216.9226435738
 20
69.6884005537
 11
216.9405400083
 21
69.8366763965
  0
LINE
  5
2F0
100
AcDbEntity
  8
CURVE
100
AcDbLine
 62
250
  6
CONTINUOUS
 10
216.9149009725
 20
70.1444512518
 11
216.9135504119
 21
70.1335065621
  0
LINE
  5
2F1
100
AcDbEntity
  8
CURVE
100
AcDbLine
 62
250
  6
CONTINUOUS
 10
216.8533004795
 20
61.206465375
 11
216.9133501589
 21
61.682960375
  0
LINE
  5
2F2
100
AcDbEntity
  8
CURVE
100
AcDbLine
 62
250
  6
CONTINUOUS
 10
216.9405400078
 20
67.814757375
 11
216.9231239025
 21
67.679585375
  0
LINE
  5
2F3
100
AcDbEntity
  8
CURVE
100
AcDbLine
 62
250
  6
CONTINUOUS
 10
216.9263905363
 20
70.2323361285
 11
216.9149009725
 21
70.1444512518
  0
LINE
  5
2F4
100
AcDbEntity
  8
CURVE
100
AcDbLine
 62
250
  6
CONTINUOUS
 10
216.9405400083
 20
70.3385804948
 11
216.9263905363
 21
70.2323361285
  0
LINE
  5
2F5
100
AcDbEntity
  8
CURVE
100
AcDbLine
 62
250
  6
CONTINUOUS
 10
216.9096473921
 20
67.575305375
 11
216.8772716874
 21
67.335534375
  0
LINE
  5
2F6
100
AcDbEntity
  8
CURVE
100
AcDbLine
 62
250
  6
CONTINUOUS
 10
216.8533004795
 20
65.993187375
 11
216.9405400078
 21
66.226940375
  0
LINE
  5
2F7
100
AcDbEntity
  8
CURVE
100
AcDbLine
 62
250
  6
CONTINUOUS
 10
216.9405400078
 20
65.716488375
 11
216.8838117135
 21
65.609284375
  0
LINE
  5
2F8
100
AcDbEntity
  8
CURVE
100
AcDbLine
 62
7
  6
CONTINUOUS
 10
216.9334871472
 20
70.285308075
 11
216.9405400083
 21
70.2923609361
  0
LINE
  5
2F9
100
AcDbEntity
  8
CURVE
100
AcDbLine
 62
7
  6
CONTINUOUS
 10
216.9061992144
 20
70.0480094281
 11
216.9405400083
 21
70.0823502221
  0
LINE
  5
2FA
100
AcDbEntity
  8
CURVE
100
AcDbLine
 62
7
  6
CONTINUOUS
 10
216.8596583239
 20
70.0014685376
 11
216.8945684789
 21
70.0363786926
  0
LINE
  5
2FB
100
AcDbEntity
  8
CURVE
100
AcDbLine
 62
7
  6
CONTINUOUS
 10
216.8550334224
 20
69.7868329221
 11
216.9405400083
 21
69.872339508
  0
LINE
  5
2FC
100
AcDbEntity
  8
CURVE
100
AcDbLine
 62
7
  6
CONTINUOUS
 10
216.8888465722
 20
69.6106353579
 11
216.917112341
 21
69.6389011267
  0
LINE
  5
2FD
100
AcDbEntity
  8
CURVE
100
AcDbLine
 62
7
  6
CONTINUOUS
 10
216.8532451608
 20
69.5750339465
 11
216.8697607465
 21
69.5915495322
  0
LINE
  5
2FE
100
AcDbEntity
  8
CURVE
100
AcDbLine
 62
7
  6
CONTINUOUS
 10
216.852483476
 20
69.3642615477
 11
216.8674869403
 21
69.3792650119
  0
LINE
  5
2FF
100
AcDbEntity
  8
CURVE
100
AcDbLine
 62
7
  6
CONTINUOUS
 10
216.8918707053
 20
69.403648777
 11
216.9070067606
 21
69.4187848323
  0
LINE
  5
300
100
AcDbEntity
  8
CURVE
100
AcDbLine
 62
7
  6
CONTINUOUS
 10
216.8921115576
 20
69.1938789153
 11
216.9063992819
 21
69.2081666395
  0
LINE
  5
301
100
AcDbEntity
  8
CURVE
100
AcDbLine
 62
7
  6
CONTINUOUS
 10
216.8523079307
 20
69.1540752884
 11
216.8674953503
 21
69.169262708
  0
LINE
  5
302
100
AcDbEntity
  8
CURVE
100
AcDbLine
 62
7
  6
CONTINUOUS
 10
216.8526264774
 20
68.944383121
 11
216.9405400083
 21
69.032296652
  0
LINE
  5
303
100
AcDbEntity
  8
CURVE
100
AcDbLine
 62
7
  6
CONTINUOUS
 10
216.853328641
 20
68.7350745707
 11
216.9405400083
 21
68.822285938
  0
LINE
  5
304
100
AcDbEntity
  8
CURVE
100
AcDbLine
 62
7
  6
CONTINUOUS
 10
216.8542808154
 20
68.526016031
 11
216.9405400083
 21
68.612275224
  0
LINE
  5
305
100
AcDbEntity
  8
CURVE
100
AcDbLine
 62
7
  6
CONTINUOUS
 10
216.9184071895
 20
68.1701209771
 11
216.9405400078
 21
68.1922537954
  0
LINE
  5
306
100
AcDbEntity
  8
CURVE
100
AcDbLine
 62
7
  6
CONTINUOUS
 10
216.8914539486
 20
67.9331570222
 11
216.9405400078
 21
67.9822430814
  0
LINE
  5
307
100
AcDbEntity
  8
CURVE
100
AcDbLine
 62
7
  6
CONTINUOUS
 10
216.8645007077
 20
67.6961930673
 11
216.9342505561
 21
67.7659429157
  0
LINE
  5
308
100
AcDbEntity
  8
CURVE
100
AcDbLine
 62
7
  6
CONTINUOUS
 10
216.9096473921
 20
67.5313290376
 11
216.9231239025
 21
67.5448055481
  0
LINE
  5
309
100
AcDbEntity
  8
CURVE
100
AcDbLine
 62
7
  6
CONTINUOUS
 10
216.8533004795
 20
67.474982125
 11
216.9027824104
 21
67.5244640559
  0
LINE
  5
30A
100
AcDbEntity
  8
CURVE
100
AcDbLine
 62
7
  6
CONTINUOUS
 10
216.8533004795
 20
67.264971411
 11
216.8824343154
 21
67.2941052469
  0
LINE
  5
30B
100
AcDbEntity
  8
CURVE
100
AcDbLine
 62
7
  6
CONTINUOUS
 10
216.9096473921
 20
67.3213183236
 11
216.9231239025
 21
67.3347948341
  0
LINE
  5
30C
100
AcDbEntity
  8
CURVE
100
AcDbLine
 62
7
  6
CONTINUOUS
 10
216.9096473921
 20
67.1113076096
 11
216.9231239025
 21
67.1247841201
  0
LINE
  5
30D
100
AcDbEntity
  8
CURVE
100
AcDbLine
 62
7
  6
CONTINUOUS
 10
216.8571043553
 20
67.0587645728
 11
216.9057046808
 21
67.1073648984
  0
LINE
  5
30E
100
AcDbEntity
  8
CURVE
100
AcDbLine
 62
7
  6
CONTINUOUS
 10
216.8781314517
 20
66.8697809552
 11
216.928974297
 21
66.9206238006
  0
LINE
  5
30F
100
AcDbEntity
  8
CURVE
100
AcDbLine
 62
7
  6
CONTINUOUS
 10
216.8991585481
 20
66.6807973377
 11
216.9405400078
 21
66.7221787973
  0
LINE
  5
310
100
AcDbEntity
  8
CURVE
100
AcDbLine
 62
7
  6
CONTINUOUS
 10
216.9201856446
 20
66.4918137201
 11
216.9405400078
 21
66.5121680833
  0
LINE
  5
311
100
AcDbEntity
  8
CURVE
100
AcDbLine
 62
7
  6
CONTINUOUS
 10
216.8602788523
 20
66.0118854998
 11
216.9405400078
 21
66.0921466552
  0
LINE
  5
312
100
AcDbEntity
  8
CURVE
100
AcDbLine
 62
7
  6
CONTINUOUS
 10
216.8533004795
 20
65.7948964129
 11
216.9405400078
 21
65.8821359412
  0
LINE
  5
313
100
AcDbEntity
  8
CURVE
100
AcDbLine
 62
7
  6
CONTINUOUS
 10
216.8533004795
 20
65.5848856989
 11
216.8906814537
 21
65.6222666731
  0
LINE
  5
314
100
AcDbEntity
  8
CURVE
100
AcDbLine
 62
7
  6
CONTINUOUS
 10
216.8619686314
 20
65.3835431369
 11
216.9008935675
 21
65.422468073
  0
LINE
  5
315
100
AcDbEntity
  8
0
100
AcDbLine
 62
7
  6
CONTINUOUS
 10
215.8131495324
 20
54.3557850527
 11
215.7987237169
 21
54.3403159185
  0
LINE
  5
316
100
AcDbEntity
  8
CURVE
100
AcDbLine
 62
7
  6
CONTINUOUS
 10
216.8798070994
 20
65.1913708908
 11
216.9184875097
 21
65.2300513011
  0
LINE
  5
317
100
AcDbEntity
  8
CURVE
100
AcDbLine
 62
7
  6
CONTINUOUS
 10
216.8976455674
 20
64.9991986448
 11
216.9360814519
 21
65.0376345293
  0
LINE
  5
318
100
AcDbEntity
  8
CURVE
100
AcDbLine
 62
7
  6
CONTINUOUS
 10
216.8849796678
 20
64.7765220312
 11
216.9319607738
 21
64.8235031372
  0
LINE
  5
319
100
AcDbEntity
  8
CURVE
100
AcDbLine
 62
7
  6
CONTINUOUS
 10
216.8632374751
 20
64.5447691245
 11
216.910411288
 21
64.5919429374
  0
LINE
  5
31A
100
AcDbEntity
  8
CURVE
100
AcDbLine
 62
7
  6
CONTINUOUS
 10
216.8533004795
 20
64.3248214149
 11
216.8888618022
 21
64.3603827376
  0
LINE
  5
31B
100
AcDbEntity
  8
CURVE
100
AcDbLine
 62
7
  6
CONTINUOUS
 10
216.8533004795
 20
64.1148107008
 11
216.9368151001
 21
64.1983253215
  0
LINE
  5
31C
100
AcDbEntity
  8
CURVE
100
AcDbLine
 62
7
  6
CONTINUOUS
 10
216.8568375416
 20
63.908337049
 11
216.9405400078
 21
63.9920395151
  0
LINE
  5
31D
100
AcDbEntity
  8
CURVE
100
AcDbLine
 62
7
  6
CONTINUOUS
 10
216.9153809069
 20
63.7568697002
 11
216.9405400078
 21
63.7820288011
  0
LINE
  5
31E
100
AcDbEntity
  8
CURVE
100
AcDbLine
 62
7
  6
CONTINUOUS
 10
216.8532952795
 20
63.2747626448
 11
216.9405400078
 21
63.3620073731
  0
LINE
  5
31F
100
AcDbEntity
  8
CURVE
100
AcDbLine
 62
7
  6
CONTINUOUS
 10
216.8532952795
 20
63.0647519308
 11
216.9405400078
 21
63.1519966591
  0
LINE
  5
320
100
AcDbEntity
  8
CURVE
100
AcDbLine
 62
7
  6
CONTINUOUS
 10
216.8876404377
 20
62.889086375
 11
216.9405400078
 21
62.9419859451
  0
LINE
  5
321
100
AcDbEntity
  8
CURVE
100
AcDbLine
 62
7
  6
CONTINUOUS
 10
216.8533004795
 20
62.6447357028
 11
216.8582671254
 21
62.6497023487
  0
LINE
  5
322
100
AcDbEntity
  8
CURVE
100
AcDbLine
 62
7
  6
CONTINUOUS
 10
216.8533004795
 20
62.4347249887
 11
216.878835346
 21
62.4602598553
  0
LINE
  5
323
100
AcDbEntity
  8
CURVE
100
AcDbLine
 62
7
  6
CONTINUOUS
 10
216.8533004795
 20
62.2247142747
 11
216.8994035666
 21
62.2708173619
  0
LINE
  5
324
100
AcDbEntity
  8
CURVE
100
AcDbLine
 62
7
  6
CONTINUOUS
 10
216.8706591646
 20
62.0320622459
 11
216.9199717872
 21
62.0813748684
  0
LINE
  5
325
100
AcDbEntity
  8
CURVE
100
AcDbLine
 62
7
  6
CONTINUOUS
 10
216.8935425987
 20
61.8449349659
 11
216.9405400078
 21
61.891932375
  0
LINE
  5
326
100
AcDbEntity
  8
CURVE
100
AcDbLine
 62
7
  6
CONTINUOUS
 10
216.9092797178
 20
61.650661371
 11
216.9405400078
 21
61.681921661
  0
LINE
  5
327
100
AcDbEntity
  8
CURVE
100
AcDbLine
 62
7
  6
CONTINUOUS
 10
216.8789970482
 20
61.4103679874
 11
216.9405400078
 21
61.471910947
  0
LINE
  5
328
100
AcDbEntity
  8
CURVE
100
AcDbLine
 62
7
  6
CONTINUOUS
 10
216.8533004795
 20
61.1746607047
 11
216.9194852456
 21
61.2408454708
  0
LINE
  5
329
100
AcDbEntity
  8
CURVE
100
AcDbLine
 62
7
  6
CONTINUOUS
 10
216.8533004795
 20
60.9646499907
 11
216.893505986
 21
61.0048554971
  0
LINE
  5
32A
100
AcDbEntity
  8
CURVE
100
AcDbLine
 62
7
  6
CONTINUOUS
 10
216.8533004795
 20
60.7546392766
 11
216.8675267263
 21
60.7688655235
  0
LINE
  5
32B
100
AcDbEntity
  8
0
100
AcDbLine
 62
7
  6
CONTINUOUS
 10
215.3699014727
 20
55.3752154152
 11
215.7644330223
 21
55.7697469648
  0
LINE
  5
32C
100
AcDbEntity
  8
0
100
AcDbLine
 62
7
  6
CONTINUOUS
 10
215.8131495324
 20
54.3557850527
 11
216.7838633848
 21
55.3264989051
  0
LINE
  5
32D
100
AcDbEntity
  8
0
100
AcDbLine
 62
7
  6
CONTINUOUS
 10
216.9931640625
 20
55.1470931771
 11
215.9925552604
 21
54.146484375
  0
LINE
  5
32E
100
AcDbEntity
  8
0
100
AcDbLine
 62
7
  6
CONTINUOUS
 10
216.799332519
 20
55.3409247206
 11
216.7838633848
 21
55.3264989051
  0
LINE
  5
32F
100
AcDbEntity
  8
0
100
AcDbLine
 62
7
  6
CONTINUOUS
 10
216.7838633848
 20
142.9664698449
 11
216.799332519
 21
142.9520440294
  0
LINE
  5
330
100
AcDbEntity
  8
0
100
AcDbLine
 62
7
  6
CONTINUOUS
 10
215.7644330223
 20
142.5232217852
 11
215.3699014727
 21
142.9177533348
  0
LINE
  5
331
100
AcDbEntity
  8
0
100
AcDbLine
 62
7
  6
CONTINUOUS
 10
216.7838633848
 20
142.9664698449
 11
215.8131495324
 21
143.9371836973
  0
LINE
  5
332
100
AcDbEntity
  8
0
100
AcDbLine
 62
7
  6
CONTINUOUS
 10
215.9925552604
 20
144.146484375
 11
216.9931640625
 21
143.1458755729
  0
LINE
  5
333
100
AcDbEntity
  8
0
100
AcDbLine
 62
7
  6
CONTINUOUS
 10
215.7987237169
 20
143.9526528315
 11
215.8131495324
 21
143.9371836973
  0
LWPOLYLINE
  5
334
100
AcDbEntity
  8
0
100
AcDbPolyline
 62
7
  6
CONTINUOUS
 90
3
 70
0
 43
0.3500000006
 10
75.5777807007
 20
165.039336731
 10
76.4349186401
 20
165.8964927979
 10
76.4349186401
 20
162.8964918823
  0
LWPOLYLINE
  5
335
100
AcDbEntity
  8
0
100
AcDbPolyline
 62
7
  6
CONTINUOUS
 90
3
 70
0
 43
0.3500000006
 10
81.3634889832
 20
165.039336731
 10
82.2206359863
 20
165.8964927979
 10
82.2206359863
 20
162.8964918823
  0
LWPOLYLINE
  5
336
100
AcDbEntity
  8
0
100
AcDbPolyline
 62
7
  6
CONTINUOUS
 90
3
 70
0
 43
0.3500000006
 10
79.9402219849
 20
155.0393336792
 10
80.797368988
 20
155.8964897461
 10
80.797368988
 20
152.8964888306
  0
LINE
  5
337
100
AcDbEntity
  8
0
100
AcDbLine
 62
7
  6
CONTINUOUS
 10
90.7846605023
 20
54.3403159185
 11
96.3352696753
 21
54.146484375
  0
LINE
  5
338
100
AcDbEntity
  8
0
100
AcDbLine
 62
7
  6
CONTINUOUS
 10
90.7846605023
 20
55.3409247206
 11
96.3352696753
 21
55.1470931771
  0
LINE
  5
339
100
AcDbEntity
  8
0
100
AcDbLine
 62
7
  6
CONTINUOUS
 10
96.3352696753
 20
56.3884404622
 11
96.9352696753
 21
56.346484375
  0
LINE
  5
33A
100
AcDbEntity
  8
0
100
AcDbLine
 62
7
  6
CONTINUOUS
 10
89.7852696753
 20
142.5232217852
 11
90.7697221331
 21
142.9664698449
  0
LINE
  5
33B
100
AcDbEntity
  8
0
100
AcDbLine
 62
250
  6
CONTINUOUS
 10
96.3352696753
 20
57.9845429426
 11
96.9352696753
 21
57.9425868554
  0
LINE
  5
33C
100
AcDbEntity
  8
0
100
AcDbLine
 62
7
  6
CONTINUOUS
 10
89.7852696753
 20
55.7697469648
 11
90.7697221331
 21
55.3264989051
  0
LINE
  5
33D
100
AcDbEntity
  8
CURVE
100
AcDbLine
 62
250
  6
CONTINUOUS
 10
92.3301006868
 20
61.206465375
 11
94.0496985157
 21
61.682960375
  0
LINE
  5
33E
100
AcDbEntity
  8
CURVE
100
AcDbLine
 62
250
  6
CONTINUOUS
 10
92.3299517776
 20
62.889086375
 11
94.8283139152
 21
62.889086375
  0
LINE
  5
33F
100
AcDbEntity
  8
CURVE
100
AcDbLine
 62
250
  6
CONTINUOUS
 10
94.0496985157
 20
61.682960375
 11
92.3301006868
 21
62.174011375
  0
LWPOLYLINE
  5
340
100
AcDbEntity
  8
0
100
AcDbPolyline
 62
7
  6
CONTINUOUS
 90
3
 70
0
 43
0.3500000006
 10
80.363488678
 20
163.1821984863
 10
80.2920665588
 20
162.9679140015
 10
80.1492041931
 20
162.6822073975
  0
LINE
  5
341
100
AcDbEntity
  8
0
100
AcDbLine
 62
7
  6
CONTINUOUS
 10
89.7852696753
 20
142.9177533348
 11
90.7846605023
 21
143.9526528315
  0
LINE
  5
342
100
AcDbEntity
  8
CURVE
100
AcDbLine
 62
250
  6
CONTINUOUS
 10
94.8283139152
 20
65.716488375
 11
93.2038281112
 21
65.609284375
  0
LINE
  5
343
100
AcDbEntity
  8
CURVE
100
AcDbLine
 62
250
  6
CONTINUOUS
 10
94.8283139152
 20
63.410879375
 11
92.3299517776
 21
63.410879375
  0
LINE
  5
344
100
AcDbEntity
  8
CURVE
100
AcDbLine
 62
250
  6
CONTINUOUS
 10
93.197028256
 20
64.303565375
 11
94.8283139152
 21
64.190962375
  0
LINE
  5
345
100
AcDbEntity
  8
CURVE
100
AcDbLine
 62
250
  6
CONTINUOUS
 10
94.8283139152
 20
63.691776375
 11
92.3301006868
 21
63.917488375
  0
LINE
  5
346
100
AcDbEntity
  8
CURVE
100
AcDbLine
 62
250
  6
CONTINUOUS
 10
92.3301006868
 20
62.695447375
 11
94.8283139152
 21
61.891932375
  0
LINE
  5
347
100
AcDbEntity
  8
0
100
AcDbLine
 62
7
  6
CONTINUOUS
 10
89.7852696753
 20
55.3752154152
 11
90.7846605023
 21
54.3403159185
  0
LWPOLYLINE
  5
348
100
AcDbEntity
  8
0
100
AcDbPolyline
 62
7
  6
CONTINUOUS
 90
3
 70
0
 43
0.3500000006
 10
78.9402216797
 20
153.1821954346
 10
78.8687904968
 20
152.9679109497
 10
78.7259371948
 20
152.6822043457
  0
LINE
  5
349
100
AcDbEntity
  8
CURVE
100
AcDbLine
 62
250
  6
CONTINUOUS
 10
94.8283139152
 20
67.814757375
 11
94.3295819144
 21
67.679585375
  0
LINE
  5
34A
100
AcDbEntity
  8
CURVE
100
AcDbLine
 62
250
  6
CONTINUOUS
 10
93.9436651478
 20
67.575305375
 11
93.0165462678
 21
67.335534375
  0
LINE
  5
34B
100
AcDbEntity
  8
CURVE
100
AcDbLine
 62
250
  6
CONTINUOUS
 10
92.3301006868
 20
65.993187375
 11
94.8283139152
 21
66.226940375
  0
LINE
  5
34C
100
AcDbEntity
  8
CURVE
100
AcDbLine
 62
250
  6
CONTINUOUS
 10
92.3592885429
 20
68.5179292362
 11
94.8283139316
 21
68.5179292362
  0
LINE
  5
34D
100
AcDbEntity
  8
CURVE
100
AcDbLine
 62
250
  6
CONTINUOUS
 10
93.44150455
 20
69.020320711
 11
92.7556964281
 21
69.020320711
  0
LINE
  5
34E
100
AcDbEntity
  8
CURVE
100
AcDbLine
 62
250
  6
CONTINUOUS
 10
94.8283139316
 20
69.0376225778
 11
93.8506514409
 21
69.0376225778
  0
LINE
  5
34F
100
AcDbEntity
  8
CURVE
100
AcDbLine
 62
250
  6
CONTINUOUS
 10
93.0165462678
 20
67.335534375
 11
93.9436651478
 21
67.075725375
  0
LINE
  5
350
100
AcDbEntity
  8
CURVE
100
AcDbLine
 62
250
  6
CONTINUOUS
 10
94.3295819144
 20
66.968990375
 11
94.8283139152
 21
66.825007375
  0
LINE
  5
351
100
AcDbEntity
  8
CURVE
100
AcDbLine
 62
250
  6
CONTINUOUS
 10
94.8283139152
 20
66.308876375
 11
92.3301006868
 21
67.092952375
  0
LINE
  5
352
100
AcDbEntity
  8
CURVE
100
AcDbLine
 62
250
  6
CONTINUOUS
 10
93.7171162394
 20
64.955131375
 11
92.3301006868
 21
65.476924375
  0
LINE
  5
353
100
AcDbEntity
  8
CURVE
100
AcDbLine
 62
250
  6
CONTINUOUS
 10
93.2038281112
 20
65.609284375
 11
94.8283139152
 21
64.988873375
  0
LWPOLYLINE
  5
354
100
AcDbEntity
  8
CURVE
100
AcDbPolyline
 62
250
  6
CONTINUOUS
 90
4
 70
0
 10
94.3866772435
 20
69.7087661156
 10
94.4576098889
 20
69.7288625491
 10
94.4930579576
 20
69.738950373
 10
94.8283139316
 20
69.8366763965
  0
LWPOLYLINE
  5
355
100
AcDbEntity
  8
CURVE
100
AcDbPolyline
 62
250
  6
CONTINUOUS
 90
45
 70
0
 10
94.094108006
 20
70.1444512518
 10
94.0747950984
 20
70.1390733522
 10
94.0554330133
 20
70.1335065621
 10
94.0359815438
 20
70.1276759738
 10
94.0164004832
 20
70.1215066794
 10
94.0056395164
 20
70.1179689406
 10
93.9948387524
 20
70.1143055349
 10
93.9840090466
 20
70.1105141804
 10
93.9731612541
 20
70.1065925954
 10
93.9623062303
 20
70.1025384983
 10
93.9514548306
 20
70.0983496071
 10
93.9406179101
 20
70.0940236402
 10
93.9298063242
 20
70.0895583157
 10
93.9190309282
 20
70.084951352
 10
93.9083025775
 20
70.0802004673
 10
93.8976321272
 20
70.0753033798
 10
93.8870304327
 20
70.0702578077
 10
93.8765083493
 20
70.0650614694
 10
93.8660767323
 20
70.059712083
 10
93.855746437
 20
70.0542073668
 10
93.8455283187
 20
70.048545039
 10
93.8354332326
 20
70.0427228179
 10
93.8254720342
 20
70.0367384217
 10
93.8156555787
 20
70.0305895686
 10
93.8059947214
 20
70.024273977
 10
93.7965003175
 20
70.017789365
 10
93.7871832225
 20
70.0111334509
 10
93.7780542915
 20
70.0043039529
 10
93.76912438
 20
69.9972985893
 10
93.7604043431
 20
69.9901150783
 10
93.7519050362
 20
69.9827511381
 10
93.7436373147
 20
69.975204487
 10
93.7356120337
 20
69.9674728433
 10
93.7278400486
 20
69.9595539252
 10
93.7203322147
 20
69.9514454509
 10
93.7130993873
 20
69.9431451386
 10
93.7061524216
 20
69.9346507067
 10
93.6995021731
 20
69.9259598733
 10
93.693159497
 20
69.9170703567
 10
93.6871352485
 20
69.9079798751
 10
93.6814402831
 20
69.8986861469
 10
93.6760854559
 20
69.8891868901
 10
93.6710816223
 20
69.8794798231
 10
93.6664396377
 20
69.8695626641
 10
93.6621703572
 20
69.8594331314
  0
LINE
  5
356
100
AcDbEntity
  8
CURVE
100
AcDbLine
 62
250
  6
CONTINUOUS
 10
94.2423908025
 20
70.1845712331
 11
94.094108006
 21
70.1444512518
  0
LINE
  5
357
100
AcDbEntity
  8
CURVE
100
AcDbLine
 62
250
  6
CONTINUOUS
 10
94.8283139316
 20
70.3385804948
 11
94.739123205
 21
70.3147740178
  0
LINE
  5
358
100
AcDbEntity
  8
CURVE
100
AcDbLine
 62
250
  6
CONTINUOUS
 10
94.4231260659
 20
70.2323361285
 11
94.2423908025
 21
70.1845712331
  0
LINE
  5
359
100
AcDbEntity
  8
CURVE
100
AcDbLine
 62
250
  6
CONTINUOUS
 10
94.739123205
 20
70.3147740178
 11
94.4231260659
 21
70.2323361285
  0
LWPOLYLINE
  5
35A
100
AcDbEntity
  8
CURVE
100
AcDbPolyline
 62
250
  6
CONTINUOUS
 90
59
 70
0
 10
93.0532833494
 20
69.7238487301
 10
93.0641301957
 20
69.7238774138
 10
93.0750609202
 20
69.7236298881
 10
93.086060552
 20
69.7231060308
 10
93.0971141206
 20
69.7223057197
 10
93.1082066551
 20
69.7212288326
 10
93.1193231849
 20
69.7198752471
 10
93.1304487391
 20
69.7182448411
 10
93.1415683472
 20
69.7163374923
 10
93.1526670383
 20
69.7141530786
 10
93.1637298417
 20
69.7116914775
 10
93.1747417867
 20
69.708952567
 10
93.1856879026
 20
69.7059362248
 10
93.1965532185
 20
69.7026423286
 10
93.2073227639
 20
69.6990707562
 10
93.217981568
 20
69.6952213853
 10
93.22851466
 20
69.6910940938
 10
93.2389070692
 20
69.6866887594
 10
93.2491438249
 20
69.6820052598
 10
93.2592099563
 20
69.6770434729
 10
93.2690904928
 20
69.6718032763
 10
93.2787704635
 20
69.6662845479
 10
93.2882348978
 20
69.6604871654
 10
93.297468825
 20
69.6544110065
 10
93.3064572742
 20
69.6480559491
 10
93.3151852748
 20
69.6414218708
 10
93.3236378561
 20
69.6345086496
 10
93.3318000472
 20
69.627316163
 10
93.3396568776
 20
69.6198442889
 10
93.3471933764
 20
69.6120929051
 10
93.3543945729
 20
69.6040618893
 10
93.3611593739
 20
69.5958668797
 10
93.3675905275
 20
69.5874124077
 10
93.373695303
 20
69.5787112924
 10
93.3794809699
 20
69.5697763528
 10
93.3849547973
 20
69.560620408
 10
93.3901240546
 20
69.5512562771
 10
93.3949960111
 20
69.5416967793
 10
93.3995779361
 20
69.5319547335
 10
93.4038770988
 20
69.522042959
 10
93.4079007687
 20
69.5119742748
 10
93.411656215
 20
69.5017614999
 10
93.415150707
 20
69.4914174536
 10
93.418391514
 20
69.4809549548
 10
93.4213859054
 20
69.4703868227
 10
93.4241411504
 20
69.4597258763
 10
93.4266645183
 20
69.4489849348
 10
93.4289632785
 20
69.4381768173
 10
93.4310447002
 20
69.4273143428
 10
93.4329160528
 20
69.4164103304
 10
93.4345846056
 20
69.4054775993
 10
93.4360576278
 20
69.3945289685
 10
93.4373423888
 20
69.383577257
 10
93.4384461578
 20
69.3726352841
 10
93.4393762043
 20
69.3617158689
 10
93.4401397974
 20
69.3508318302
 10
93.4407442065
 20
69.3399959874
 10
93.441196701
 20
69.3292211595
 10
93.44150455
 20
69.3185201655
  0
LINE
  5
35B
100
AcDbEntity
  8
0
100
AcDbLine
 62
7
  6
CONTINUOUS
 10
97.8611068263
 20
71.9963549363
 11
96.9352696753
 21
71.994739044
  0
LINE
  5
35C
100
AcDbEntity
  8
0
100
AcDbLine
 62
250
  6
CONTINUOUS
 10
97.8610422591
 20
72.2188051311
 11
96.9352696753
 21
72.2183869366
  0
LINE
  5
35D
100
AcDbEntity
  8
CURVE
100
AcDbLine
 62
250
  6
CONTINUOUS
 10
93.6621703572
 20
69.8594331314
 11
93.6474080976
 21
69.8594331314
  0
LWPOLYLINE
  5
35E
100
AcDbEntity
  8
0
100
AcDbPolyline
 62
250
  6
CONTINUOUS
 90
5
 70
0
 10
98.9804713975
 20
72.6428308957
 10
98.9602709105
 20
72.6410437444
 10
98.9393669933
 20
72.6396420012
 10
98.9176642202
 20
72.6385864323
 10
98.8951625912
 20
72.6378769269
  0
LINE
  5
35F
100
AcDbEntity
  8
0
100
AcDbLine
 62
7
  6
CONTINUOUS
 10
96.9352696753
 20
73.3120134754
 11
97.9371495951
 21
73.3464013199
  0
LWPOLYLINE
  5
360
100
AcDbEntity
  8
0
100
AcDbPolyline
 62
7
  6
CONTINUOUS
 90
15
 70
0
 10
98.8952598966
 20
72.6178630392
 10
98.919369175
 20
72.6185261995
 10
98.947972108
 20
72.6199067164
 10
98.9760614432
 20
72.6218872857
 10
99.0035042601
 20
72.6244324481
 10
99.0303843034
 20
72.6275513605
 10
99.056635664
 20
72.6312434042
 10
99.0819663688
 20
72.635488932
 10
99.1064121148
 20
72.6403237453
 10
99.1300604542
 20
72.6458147808
 10
99.152912568
 20
72.6520696885
 10
99.1754769245
 20
72.6593591195
 10
99.1976415034
 20
72.6679365035
 10
99.2186073088
 20
72.6777387168
 10
99.2226834342
 20
72.6798666866
  0
LINE
  5
361
100
AcDbEntity
  8
0
100
AcDbLine
 62
7
  6
CONTINUOUS
 10
96.9352696753
 20
72.5826982249
 11
98.8952600132
 21
72.6178630375
  0
LINE
  5
362
100
AcDbEntity
  8
0
100
AcDbLine
 62
250
  6
CONTINUOUS
 10
98.8951625912
 20
72.6378769269
 11
96.9352696753
 21
72.6026835666
  0
LINE
  5
363
100
AcDbEntity
  8
0
100
AcDbLine
 62
7
  6
CONTINUOUS
 10
97.8853940542
 20
73.946484375
 11
96.9352696753
 21
73.946484375
  0
LINE
  5
364
100
AcDbEntity
  8
0
100
AcDbLine
 62
7
  6
CONTINUOUS
 10
96.9352696753
 20
74.096484375
 11
97.0852696753
 21
74.096484375
  0
LINE
  5
365
100
AcDbEntity
  8
0
100
AcDbLine
 62
7
  6
CONTINUOUS
 10
97.3852696753
 20
74.096484375
 11
97.5852696753
 21
74.096484375
  0
LWPOLYLINE
  5
366
100
AcDbEntity
  8
0
100
AcDbPolyline
 62
7
  6
CONTINUOUS
 90
25
 70
0
 10
99.7457368666
 20
73.3302605511
 10
99.7590664121
 20
73.3298853811
 10
99.7722477958
 20
73.329043755
 10
99.7852236937
 20
73.327735673
 10
99.7979555884
 20
73.3259404462
 10
99.8103722374
 20
73.3236787633
 10
99.8223739479
 20
73.3210126905
 10
99.8339078523
 20
73.3179360858
 10
99.8449431016
 20
73.3144550911
 10
99.8554246312
 20
73.3106501985
 10
99.8653118716
 20
73.3065237903
 10
99.8745910949
 20
73.3020734843
 10
99.8832536711
 20
73.297372626
 10
99.8912709581
 20
73.2924293383
 10
99.8986362437
 20
73.2872354984
 10
99.9053680495
 20
73.2818400828
 10
99.9114460175
 20
73.2762479277
 10
99.9168558893
 20
73.2704541971
 10
99.9216095152
 20
73.264493359
 10
99.925683495
 20
73.2583682496
 10
99.9290593089
 20
73.2520760328
 10
99.9317343155
 20
73.2456426682
 10
99.9336822313
 20
73.2390768091
 10
99.9348690008
 20
73.2323698023
 10
99.9352696753
 20
73.2255216477
  0
LINE
  5
367
100
AcDbEntity
  8
0
100
AcDbLine
 62
7
  6
CONTINUOUS
 10
96.9352696753
 20
73.3906645005
 11
97.9371495951
 21
73.3464013199
  0
LINE
  5
368
100
AcDbEntity
  8
0
100
AcDbLine
 62
7
  6
CONTINUOUS
 10
97.9848977732
 20
73.9415215652
 11
99.9352696753
 21
73.746484375
  0
LWPOLYLINE
  5
369
100
AcDbEntity
  8
0
100
AcDbPolyline
 62
7
  6
CONTINUOUS
 90
4
 70
0
 43
0.3500000006
 10
75.8687941132
 20
155.2536362915
 10
75.8687941132
 20
155.8964897461
 10
77.3687900391
 20
155.8964897461
 10
76.5116520996
 20
152.8964888306
  0
LWPOLYLINE
  5
36A
100
AcDbEntity
  8
0
100
AcDbPolyline
 62
7
  6
CONTINUOUS
 90
13
 70
0
 43
0.3500000006
 10
77.2920656433
 20
163.7536298218
 10
77.2920656433
 20
165.039336731
 10
77.5063501282
 20
165.4679057007
 10
77.9349190979
 20
165.8964927979
 10
78.1492035828
 20
165.8964927979
 10
78.5777816162
 20
165.4679057007
 10
78.7920661011
 20
165.039336731
 10
78.7920661011
 20
163.7536298218
 10
78.5777816162
 20
163.3250608521
 10
78.1492035828
 20
162.8964918823
 10
77.9349190979
 20
162.8964918823
 10
77.5063501282
 20
163.3250608521
 10
77.2920656433
 20
163.7536298218
  0
LINE
  5
36B
100
AcDbEntity
  8
0
100
AcDbLine
 62
7
  6
CONTINUOUS
 10
97.0852696753
 20
124.196484375
 11
97.2352696753
 21
124.346484375
  0
LINE
  5
36C
100
AcDbEntity
  8
0
100
AcDbLine
 62
7
  6
CONTINUOUS
 10
97.5852696753
 20
124.196484375
 11
97.7352696753
 21
124.346484375
  0
LINE
  5
36D
100
AcDbEntity
  8
0
100
AcDbLine
 62
7
  6
CONTINUOUS
 10
97.0852696753
 20
74.096484375
 11
97.2352696753
 21
73.946484375
  0
LINE
  5
36E
100
AcDbEntity
  8
0
100
AcDbLine
 62
7
  6
CONTINUOUS
 10
97.5852696753
 20
74.096484375
 11
97.7352696753
 21
73.946484375
  0
LWPOLYLINE
  5
36F
100
AcDbEntity
  8
0
100
AcDbPolyline
 62
250
  6
CONTINUOUS
 90
9
 70
0
 10
97.9552023751
 20
72.0718843502
 10
97.962463066
 20
72.0626891442
 10
97.9695089745
 20
72.0542903979
 10
97.9762559104
 20
72.0468600974
 10
97.9825785578
 20
72.0406125765
 10
97.988353209
 20
72.035750592
 10
97.9934585439
 20
72.0324740538
 10
97.997774724
 20
72.0309815328
 10
98.001175909
 20
72.0314685789
  0
LWPOLYLINE
  5
370
100
AcDbEntity
  8
0
100
AcDbPolyline
 62
250
  6
CONTINUOUS
 90
19
 70
0
 10
97.8610422591
 20
126.0741636189
 10
97.8690001172
 20
126.0879786913
 10
97.8773109503
 20
126.1021766148
 10
97.8859412852
 20
126.1166642574
 10
97.8948584738
 20
126.1313536576
 10
97.9040025125
 20
126.1461003277
 10
97.9132874976
 20
126.1607103567
 10
97.9226406504
 20
126.1750241616
 10
97.9319914864
 20
126.1888960391
 10
97.9412467065
 20
126.2021419236
 10
97.9503424059
 20
126.2146190748
 10
97.9591426317
 20
126.2260852308
 10
97.9674536203
 20
126.2362404273
 10
97.9751997528
 20
126.2449445979
 10
97.9822622086
 20
126.2520194697
 10
97.9884417742
 20
126.2572483884
 10
97.9936610305
 20
126.2605738964
 10
97.9979173811
 20
126.2619971423
 10
98.001175909
 20
126.2615001711
  0
LWPOLYLINE
  5
371
100
AcDbEntity
  8
0
100
AcDbPolyline
 62
250
  6
CONTINUOUS
 90
14
 70
0
 10
97.8610422591
 20
72.2188051311
 10
97.8678154166
 20
72.2070117546
 10
97.8746953472
 20
72.1951964055
 10
97.8816650657
 20
72.1833979991
 10
97.8886684216
 20
72.1717174484
 10
97.8957232425
 20
72.1601363551
 10
97.9029172523
 20
72.1485337266
 10
97.9102359258
 20
72.1369565622
 10
97.9176310392
 20
72.1255005841
 10
97.9251262642
 20
72.1141549418
 10
97.9326829261
 20
72.1030093959
 10
97.9402399997
 20
72.092187265
 10
97.9477710949
 20
72.0817639403
 10
97.9552023751
 20
72.0718843502
  0
LWPOLYLINE
  5
372
100
AcDbEntity
  8
CURVE
100
AcDbPolyline
 62
250
  6
CONTINUOUS
 90
73
 70
0
 10
93.6474080976
 20
69.8594331314
 10
93.6458462241
 20
69.8679471746
 10
93.6434520972
 20
69.8762109495
 10
93.6403180991
 20
69.8842453751
 10
93.636536612
 20
69.8920713706
 10
93.6322000181
 20
69.8997098553
 10
93.6274006996
 20
69.9071817483
 10
93.6222310387
 20
69.9145079688
 10
93.6167834176
 20
69.9217094359
 10
93.6111502186
 20
69.9288070689
 10
93.6054238237
 20
69.935821787
 10
93.590948326
 20
69.9531998118
 10
93.5763938146
 20
69.9701621703
 10
93.5616864354
 20
69.9866863646
 10
93.5467523342
 20
70.002749897
 10
93.5315176571
 20
70.0183302696
 10
93.5159085498
 20
70.0334049848
 10
93.4998511583
 20
70.0479515448
 10
93.4832716285
 20
70.0619474516
 10
93.4647175199
 20
70.0764218999
 10
93.4455191363
 20
70.0902166738
 10
93.4257274107
 20
70.1033206631
 10
93.4053932762
 20
70.1157227576
 10
93.3845676659
 20
70.1274118471
 10
93.363301513
 20
70.1383768212
 10
93.3416457505
 20
70.1486065699
 10
93.3196513116
 20
70.1580899829
 10
93.2973691293
 20
70.1668159498
 10
93.2748501368
 20
70.1747733607
 10
93.2521595488
 20
70.181948492
 10
93.2292965117
 20
70.1883553543
 10
93.2062741182
 20
70.1940039378
 10
93.1831054609
 20
70.1989042327
 10
93.1598036323
 20
70.2030662293
 10
93.1363817252
 20
70.2064999178
 10
93.1094780423
 20
70.2095461201
 10
93.0824687011
 20
70.2116697592
 10
93.0553878625
 20
70.2128870383
 10
93.0282696877
 20
70.2132141608
 10
93.0011483378
 20
70.21266733
 10
92.9740579739
 20
70.2112627493
 10
92.9477057791
 20
70.209075323
 10
92.9214475278
 20
70.2060582918
 10
92.8953152255
 20
70.2021821434
 10
92.8693408778
 20
70.1974173651
 10
92.8435564902
 20
70.1917344446
 10
92.8205680537
 20
70.1858207108
 10
92.7977869093
 20
70.1791355377
 10
92.7752409941
 20
70.1716732215
 10
92.752958245
 20
70.1634280582
 10
92.730966599
 20
70.1543943438
 10
92.7073903019
 20
70.1436619649
 10
92.6842313158
 20
70.1320110388
 10
92.661528862
 20
70.1194642782
 10
92.6393221615
 20
70.1060443963
 10
92.6176504357
 20
70.0917741059
 10
92.5965529058
 20
70.07667612
 10
92.5760687931
 20
70.0607731516
 10
92.5562373188
 20
70.0440879137
 10
92.5381385189
 20
70.0276319667
 10
92.5206710839
 20
70.0105215797
 10
92.5038492195
 20
69.9927798592
 10
92.4876871316
 20
69.9744299122
 10
92.4721990258
 20
69.9554948454
 10
92.4573991078
 20
69.9359977654
 10
92.4433015834
 20
69.9159617792
 10
92.4334846072
 20
69.9010295067
 10
92.4241021607
 20
69.8858223558
 10
92.4152080429
 20
69.8703394931
 10
92.4068560531
 20
69.8545800856
 10
92.3990999904
 20
69.8385432998
 10
92.391993654
 20
69.8222283026
 10
92.3855908431
 20
69.8056342607
  0
LWPOLYLINE
  5
373
100
AcDbEntity
  8
CURVE
100
AcDbPolyline
 62
250
  6
CONTINUOUS
 90
22
 70
0
 10
92.7556964281
 20
69.020320711
 10
92.7526523312
 20
69.03854018
 10
92.749746098
 20
69.0567818044
 10
92.7470010169
 20
69.0750487489
 10
92.7444403763
 20
69.0933441784
 10
92.7420874648
 20
69.1116712575
 10
92.7399655708
 20
69.130033151
 10
92.7379565664
 20
69.1498924382
 10
92.7362439049
 20
69.1697897725
 10
92.7348276826
 20
69.1897189582
 10
92.733707996
 20
69.2096737998
 10
92.7328849416
 20
69.2296481017
 10
92.7323586156
 20
69.2496356682
 10
92.7321291145
 20
69.2696303038
 10
92.7321965347
 20
69.2896258129
 10
92.7325609725
 20
69.3096159997
 10
92.7332225245
 20
69.3295946689
 10
92.734181287
 20
69.3495556246
 10
92.7354373564
 20
69.3694926714
 10
92.7369908291
 20
69.3893996136
 10
92.7388418015
 20
69.4092702556
 10
92.74099037
 20
69.4290984018
  0
LINE
  5
374
100
AcDbEntity
  8
0
100
AcDbLine
 62
7
  6
CONTINUOUS
 10
89.7852696753
 20
55.3752154152
 11
89.7852696753
 21
142.9177533348
  0
LINE
  5
375
100
AcDbEntity
  8
0
100
AcDbLine
 62
7
  6
CONTINUOUS
 10
90.7697221331
 20
54.3557850527
 11
90.7697221331
 21
55.3264989051
  0
LINE
  5
376
100
AcDbEntity
  8
0
100
AcDbLine
 62
7
  6
CONTINUOUS
 10
90.7697221331
 20
142.9664698449
 11
90.7697221331
 21
143.9371836973
  0
LINE
  5
377
100
AcDbEntity
  8
0
100
AcDbLine
 62
7
  6
CONTINUOUS
 10
90.7846605023
 20
55.3409247206
 11
90.7846605023
 21
142.9520440294
  0
LINE
  5
378
100
AcDbEntity
  8
CURVE
100
AcDbLine
 62
250
  6
CONTINUOUS
 10
92.3299517776
 20
63.410879375
 11
92.3299517776
 21
62.889086375
  0
LINE
  5
379
100
AcDbEntity
  8
CURVE
100
AcDbLine
 62
250
  6
CONTINUOUS
 10
92.3301006868
 20
60.639637375
 11
92.3301006868
 21
61.206465375
  0
LINE
  5
37A
100
AcDbEntity
  8
CURVE
100
AcDbLine
 62
250
  6
CONTINUOUS
 10
92.3301006868
 20
62.174011375
 11
92.3301006868
 21
62.695447375
  0
LINE
  5
37B
100
AcDbEntity
  8
CURVE
100
AcDbLine
 62
250
  6
CONTINUOUS
 10
92.3301006868
 20
63.917488375
 11
92.3301006868
 21
64.438849375
  0
LINE
  5
37C
100
AcDbEntity
  8
CURVE
100
AcDbLine
 62
250
  6
CONTINUOUS
 10
92.3301006868
 20
65.476924375
 11
92.3301006868
 21
65.993187375
  0
LINE
  5
37D
100
AcDbEntity
  8
CURVE
100
AcDbLine
 62
250
  6
CONTINUOUS
 10
92.3301006868
 20
67.092952375
 11
92.3301006868
 21
67.597724375
  0
LINE
  5
37E
100
AcDbEntity
  8
CURVE
100
AcDbLine
 62
250
  6
CONTINUOUS
 10
93.44150455
 20
69.3185201655
 11
93.44150455
 21
69.020320711
  0
LINE
  5
37F
100
AcDbEntity
  8
CURVE
100
AcDbLine
 62
250
  6
CONTINUOUS
 10
93.8506514409
 20
69.0376225778
 11
93.8506514409
 21
69.3173954505
  0
LINE
  5
380
100
AcDbEntity
  8
CURVE
100
AcDbLine
 62
250
  6
CONTINUOUS
 10
93.9436651478
 20
67.075725375
 11
93.9436651478
 21
67.575305375
  0
LINE
  5
381
100
AcDbEntity
  8
CURVE
100
AcDbLine
 62
250
  6
CONTINUOUS
 10
94.3295819144
 20
67.679585375
 11
94.3295819144
 21
66.968990375
  0
LINE
  5
382
100
AcDbEntity
  8
CURVE
100
AcDbLine
 62
250
  6
CONTINUOUS
 10
94.8283139152
 20
68.364705375
 11
94.8283139152
 21
67.814757375
  0
LINE
  5
383
100
AcDbEntity
  8
CURVE
100
AcDbLine
 62
250
  6
CONTINUOUS
 10
94.8283139152
 20
66.825007375
 11
94.8283139152
 21
66.308876375
  0
LINE
  5
384
100
AcDbEntity
  8
CURVE
100
AcDbLine
 62
250
  6
CONTINUOUS
 10
94.8283139152
 20
66.226940375
 11
94.8283139152
 21
65.716488375
  0
LINE
  5
385
100
AcDbEntity
  8
CURVE
100
AcDbLine
 62
250
  6
CONTINUOUS
 10
94.8283139152
 20
64.988873375
 11
94.8283139152
 21
64.915691375
  0
LINE
  5
386
100
AcDbEntity
  8
CURVE
100
AcDbLine
 62
250
  6
CONTINUOUS
 10
94.8283139152
 20
64.190962375
 11
94.8283139152
 21
63.691776375
  0
LINE
  5
387
100
AcDbEntity
  8
CURVE
100
AcDbLine
 62
250
  6
CONTINUOUS
 10
94.8283139152
 20
61.891932375
 11
94.8283139152
 21
61.432102375
  0
LINE
  5
388
100
AcDbEntity
  8
CURVE
100
AcDbLine
 62
250
  6
CONTINUOUS
 10
94.8283139152
 20
62.889086375
 11
94.8283139152
 21
63.410879375
  0
LINE
  5
389
100
AcDbEntity
  8
CURVE
100
AcDbLine
 62
250
  6
CONTINUOUS
 10
94.8283139316
 20
68.5179292362
 11
94.8283139316
 21
69.0376225778
  0
LINE
  5
38A
100
AcDbEntity
  8
CURVE
100
AcDbLine
 62
250
  6
CONTINUOUS
 10
94.8283139316
 20
69.8366763965
 11
94.8283139316
 21
70.3385804948
  0
LWPOLYLINE
  5
38B
100
AcDbEntity
  8
CURVE
100
AcDbPolyline
 62
250
  6
CONTINUOUS
 90
48
 70
0
 10
93.8506514409
 20
69.3173954505
 10
93.8507533837
 20
69.3254295422
 10
93.851060324
 20
69.3334778986
 10
93.8515739298
 20
69.341532251
 10
93.852295869
 20
69.3495843306
 10
93.8532278096
 20
69.3576258686
 10
93.8543714195
 20
69.3656485962
 10
93.8557283668
 20
69.3736442447
 10
93.8573003193
 20
69.3816045454
 10
93.8590889451
 20
69.3895212295
 10
93.8610959121
 20
69.3973860281
 10
93.8633228882
 20
69.4051906726
 10
93.8657715414
 20
69.4129268941
 10
93.8684435397
 20
69.420586424
 10
93.871340551
 20
69.4281609934
 10
93.8744642433
 20
69.4356423336
 10
93.8778162846
 20
69.4430221758
 10
93.8813983427
 20
69.4502922513
 10
93.885310732
 20
69.4576260895
 10
93.8894592027
 20
69.4648340652
 10
93.8938361951
 20
69.4719144423
 10
93.89843415
 20
69.4788654849
 10
93.9032455077
 20
69.485685457
 10
93.9082627089
 20
69.4923726228
 10
93.9134781941
 20
69.4989252462
 10
93.9188844038
 20
69.5053415913
 10
93.9244737786
 20
69.5116199222
 10
93.9302387589
 20
69.5177585028
 10
93.9361717854
 20
69.5237555972
 10
93.9422652986
 20
69.5296094696
 10
93.9485117389
 20
69.5353183838
 10
93.954903547
 20
69.540880604
 10
93.9614331634
 20
69.5462943943
 10
93.9680930286
 20
69.5515580185
 10
93.9748755831
 20
69.5566697409
 10
93.9817732675
 20
69.5616278255
 10
93.9887785224
 20
69.5664305362
 10
93.9958837882
 20
69.5710761372
 10
94.0030815055
 20
69.5755628924
 10
94.0103641148
 20
69.579889066
 10
94.0177240567
 20
69.584052922
 10
94.0251537717
 20
69.5880527244
 10
94.0326457003
 20
69.5918867372
 10
94.0401922832
 20
69.5955532246
 10
94.0477859607
 20
69.5990504505
 10
94.0554191735
 20
69.602376679
 10
94.0630843621
 20
69.6055301742
 10
94.070773967
 20
69.6085092001
  0
LINE
  5
38C
100
AcDbEntity
  8
0
100
AcDbLine
 62
7
  6
CONTINUOUS
 10
96.3352696753
 20
54.146484375
 11
96.3352696753
 21
144.146484375
  0
LINE
  5
38D
100
AcDbEntity
  8
0
100
AcDbLine
 62
7
  6
CONTINUOUS
 10
96.9352696753
 20
56.346484375
 11
96.9352696753
 21
141.946484375
  0
LINE
  5
38E
100
AcDbEntity
  8
0
100
AcDbLine
 62
250
  6
CONTINUOUS
 10
97.861107034
 20
71.9967066631
 11
97.8610422591
 21
72.2188051311
  0
LINE
  5
38F
100
AcDbEntity
  8
0
100
AcDbLine
 62
250
  6
CONTINUOUS
 10
97.8610422591
 20
126.0741636189
 11
97.8611068813
 21
126.2962604202
  0
LWPOLYLINE
  5
390
100
AcDbEntity
  8
0
100
AcDbPolyline
 62
250
  6
CONTINUOUS
 90
4
 70
0
 10
98.8122136592
 20
125.7173984428
 10
98.8121811617
 20
125.7164198968
 10
98.81214107
 20
125.7127384034
 10
98.8120579685
 20
125.6974047432
  0
LWPOLYLINE
  5
391
100
AcDbEntity
  8
0
100
AcDbPolyline
 62
7
  6
CONTINUOUS
 90
16
 70
0
 10
99.9352696753
 20
125.1368104079
 10
99.9344051933
 20
125.1266900241
 10
99.9318267592
 20
125.1168268236
 10
99.9275677742
 20
125.1072208063
 10
99.9216547728
 20
125.0977745245
 10
99.9141599011
 20
125.0885854259
 10
99.9052489647
 20
125.0799458539
 10
99.8950892521
 20
125.071914452
 10
99.8837795407
 20
125.0644325767
 10
99.8714276573
 20
125.0576166404
 10
99.8581677354
 20
125.0514855248
 10
99.8441265158
 20
125.0460203482
 10
99.8293881708
 20
125.0412808777
 10
99.8140606691
 20
125.0372870356
 10
99.798283537
 20
125.0340188997
 10
99.7821804069
 20
125.0314764699
  0
LWPOLYLINE
  5
392
100
AcDbEntity
  8
CURVE
100
AcDbPolyline
 62
250
  6
CONTINUOUS
 90
49
 70
0
 10
92.74099037
 20
69.4290984018
 10
92.7422289449
 20
69.4386615796
 10
92.7437258633
 20
69.4482254095
 10
92.7454803987
 20
69.4577793581
 10
92.747491825
 20
69.4673128921
 10
92.7497594159
 20
69.4768154784
 10
92.752282445
 20
69.4862765836
 10
92.7550601862
 20
69.4956856745
 10
92.7580919132
 20
69.5050322178
 10
92.7613768997
 20
69.5143056803
 10
92.7649144194
 20
69.5234955287
 10
92.7687037462
 20
69.5325912297
 10
92.7727441536
 20
69.5415822501
 10
92.7770349155
 20
69.5504580567
 10
92.7815753056
 20
69.559208116
 10
92.7863645976
 20
69.567821895
 10
92.7914020652
 20
69.5762888603
 10
92.7966869823
 20
69.5845984787
 10
92.8022186225
 20
69.5927402169
 10
92.8079962595
 20
69.6007035416
 10
92.8140191671
 20
69.6084779197
 10
92.8202866191
 20
69.6160528177
 10
92.8267978892
 20
69.6234177025
 10
92.833552251
 20
69.6305620408
 10
92.8405489784
 20
69.6374752994
 10
92.8477459242
 20
69.6441128768
 10
92.8551706214
 20
69.6505084124
 10
92.8628117794
 20
69.6566588801
 10
92.8706581079
 20
69.6625612537
 10
92.8786983167
 20
69.6682125071
 10
92.8869211153
 20
69.6736096143
 10
92.8953152134
 20
69.678749549
 10
92.9038693207
 20
69.6836292851
 10
92.9125721467
 20
69.6882457964
 10
92.9214124012
 20
69.692596057
 10
92.9303787937
 20
69.6966770405
 10
92.9394600339
 20
69.7004857209
 10
92.9486448315
 20
69.7040190721
 10
92.9579218961
 20
69.7072740679
 10
92.9672799374
 20
69.7102476821
 10
92.976707665
 20
69.7129368888
 10
92.9861937884
 20
69.7153386616
 10
92.9957270175
 20
69.7174499745
 10
93.0052960618
 20
69.7192678013
 10
93.014889631
 20
69.720789116
 10
93.0244964347
 20
69.7220108923
 10
93.0341051826
 20
69.7229301042
 10
93.0437045843
 20
69.7235437255
 10
93.0532833494
 20
69.7238487301
  0
LINE
  5
393
100
AcDbEntity
  8
0
100
AcDbLine
 62
250
  6
CONTINUOUS
 10
99.7457368666
 20
125.0264710427
 11
99.7457368666
 21
124.5275310941
  0
LINE
  5
394
100
AcDbEntity
  8
0
100
AcDbLine
 62
250
  6
CONTINUOUS
 10
99.7457368666
 20
73.7654376559
 11
99.7457368666
 21
73.3302741831
  0
LINE
  5
395
100
AcDbEntity
  8
0
100
AcDbLine
 62
7
  6
CONTINUOUS
 10
99.9352696753
 20
125.2348487154
 11
99.9352696753
 21
124.546484375
  0
LINE
  5
396
100
AcDbEntity
  8
0
100
AcDbLine
 62
7
  6
CONTINUOUS
 10
99.9352696753
 20
73.746484375
 11
99.9352696753
 21
73.0581200346
  0
LWPOLYLINE
  5
397
100
AcDbEntity
  8
0
100
AcDbPolyline
 62
250
  6
CONTINUOUS
 90
4
 70
0
 10
98.8952600132
 20
72.6178630375
 10
98.895301776
 20
72.6188458906
 10
98.8953051363
 20
72.6225326378
 10
98.8951625912
 20
72.6378769269
  0
LWPOLYLINE
  5
398
100
AcDbEntity
  8
CURVE
100
AcDbPolyline
 62
250
  6
CONTINUOUS
 90
32
 70
0
 10
92.3855908431
 20
69.8056342607
 10
92.3752017771
 20
69.7754296923
 10
92.3657059692
 20
69.7449351361
 10
92.3570600873
 20
69.7141762039
 10
92.3492207998
 20
69.6831785074
 10
92.3421447745
 20
69.6519676581
 10
92.3357886798
 20
69.6205692678
 10
92.3301091836
 20
69.5890089481
 10
92.325062954
 20
69.5573123108
 10
92.3206066593
 20
69.5255049675
 10
92.3166969675
 20
69.4936125298
 10
92.3132905467
 20
69.4616606095
 10
92.3103440651
 20
69.4296748183
 10
92.3067016146
 20
69.3815471806
 10
92.3039638183
 20
69.3334060132
 10
92.3020929622
 20
69.285256469
 10
92.3010513324
 20
69.2371037007
 10
92.3008012148
 20
69.1889528613
 10
92.3013048956
 20
69.1408091035
 10
92.3025246607
 20
69.0926775803
 10
92.3044227963
 20
69.0445634445
 10
92.3069615883
 20
68.9964718489
 10
92.3101033228
 20
68.9484079465
 10
92.3138102858
 20
68.90037689
 10
92.3180447635
 20
68.8523838324
 10
92.3227690417
 20
68.8044339265
 10
92.3279454067
 20
68.7565323251
 10
92.3335361443
 20
68.7086841811
 10
92.3395035407
 20
68.6608946473
 10
92.3458098819
 20
68.6131688767
 10
92.352417454
 20
68.565512022
 10
92.3592885429
 20
68.5179292362
  0
LWPOLYLINE
  5
399
100
AcDbEntity
  8
0
100
AcDbPolyline
 62
7
  6
CONTINUOUS
 90
10
 70
0
 43
0.3500000006
 10
78.8687904968
 20
153.3964799194
 10
78.9402216797
 20
153.2536356812
 10
78.9402216797
 20
153.1821954346
 10
78.7973683777
 20
153.0393330688
 10
78.7259371948
 20
153.0393330688
 10
78.654506012
 20
153.1107733154
 10
78.654506012
 20
153.1821954346
 10
78.7259371948
 20
153.3250578003
 10
78.7973683777
 20
153.3964799194
 10
78.8687904968
 20
153.3964799194
  0
LWPOLYLINE
  5
39A
100
AcDbEntity
  8
0
100
AcDbPolyline
 62
7
  6
CONTINUOUS
 90
10
 70
0
 43
0.3500000006
 10
80.2920665588
 20
163.3964829712
 10
80.363488678
 20
163.2536206055
 10
80.363488678
 20
163.1821984863
 10
80.220635376
 20
163.0393361206
 10
80.1492041931
 20
163.0393361206
 10
80.077782074
 20
163.1107763672
 10
80.077782074
 20
163.1821984863
 10
80.1492041931
 20
163.3250608521
 10
80.220635376
 20
163.3964829712
 10
80.2920665588
 20
163.3964829712
  0
LINE
  5
39B
100
AcDbEntity
  8
CURVE
100
AcDbLine
 62
7
  6
CONTINUOUS
 10
92.3561859266
 20
69.7103293731
 11
92.8352199752
 21
70.1893634216
  0
LINE
  5
39C
100
AcDbEntity
  8
CURVE
100
AcDbLine
 62
7
  6
CONTINUOUS
 10
92.3133187048
 20
69.4574514373
 11
93.0677772845
 21
70.211910017
  0
LINE
  5
39D
100
AcDbEntity
  8
CURVE
100
AcDbLine
 62
7
  6
CONTINUOUS
 10
92.3018007447
 20
69.2359227631
 11
93.2481412415
 21
70.1822632599
  0
LINE
  5
39E
100
AcDbEntity
  8
CURVE
100
AcDbLine
 62
7
  6
CONTINUOUS
 10
92.305880428
 20
69.0299917324
 11
92.7491838998
 21
69.4732952042
  0
LINE
  5
39F
100
AcDbEntity
  8
CURVE
100
AcDbLine
 62
7
  6
CONTINUOUS
 10
92.9925289855
 20
69.7166402899
 11
93.3962928882
 21
70.1204041926
  0
LINE
  5
3A0
100
AcDbEntity
  8
0
100
AcDbLine
 62
7
  6
CONTINUOUS
 10
97.2352696753
 20
73.946484375
 11
97.3852696753
 21
74.096484375
  0
LINE
  5
3A1
100
AcDbEntity
  8
CURVE
100
AcDbLine
 62
7
  6
CONTINUOUS
 10
92.3200001978
 20
68.8341007882
 11
92.7324843317
 21
69.2465849221
  0
LINE
  5
3A2
100
AcDbEntity
  8
CURVE
100
AcDbLine
 62
7
  6
CONTINUOUS
 10
93.1903040313
 20
69.7044046217
 11
93.5173603739
 21
70.0314609643
  0
LINE
  5
3A3
100
AcDbEntity
  8
CURVE
100
AcDbLine
 62
7
  6
CONTINUOUS
 10
92.341668209
 20
68.6457580854
 11
92.7502856602
 21
69.0543755365
  0
LINE
  5
3A4
100
AcDbEntity
  8
CURVE
100
AcDbLine
 62
7
  6
CONTINUOUS
 10
93.3270849691
 20
69.6311748454
 11
93.6170948676
 21
69.921184744
  0
LINE
  5
3A5
100
AcDbEntity
  8
CURVE
100
AcDbLine
 62
7
  6
CONTINUOUS
 10
92.4238500738
 20
68.5179292362
 11
92.9262415486
 21
69.020320711
  0
LINE
  5
3A6
100
AcDbEntity
  8
CURVE
100
AcDbLine
 62
7
  6
CONTINUOUS
 10
93.4103384279
 20
69.5044175903
 11
94.0322693625
 21
70.1263485249
  0
LINE
  5
3A7
100
AcDbEntity
  8
CURVE
100
AcDbLine
 62
7
  6
CONTINUOUS
 10
92.6338607878
 20
68.5179292362
 11
93.1362522626
 21
69.020320711
  0
LINE
  5
3A8
100
AcDbEntity
  8
CURVE
100
AcDbLine
 62
7
  6
CONTINUOUS
 10
93.4412137249
 20
69.3252821732
 11
94.3211100292
 21
70.2051784776
  0
LINE
  5
3A9
100
AcDbEntity
  8
CURVE
100
AcDbLine
 62
7
  6
CONTINUOUS
 10
92.8438715018
 20
68.5179292362
 11
93.3462629766
 21
69.020320711
  0
LINE
  5
3AA
100
AcDbEntity
  8
CURVE
100
AcDbLine
 62
7
  6
CONTINUOUS
 10
93.44150455
 20
69.1155622844
 11
94.6059280316
 21
70.279985766
  0
LINE
  5
3AB
100
AcDbEntity
  8
CURVE
100
AcDbLine
 62
7
  6
CONTINUOUS
 10
93.0538822159
 20
68.5179292362
 11
93.8506514409
 21
69.3146984613
  0
LINE
  5
3AC
100
AcDbEntity
  8
CURVE
100
AcDbLine
 62
7
  6
CONTINUOUS
 10
94.1837431933
 20
69.6477902136
 11
94.8283139316
 21
70.292360952
  0
LINE
  5
3AD
100
AcDbEntity
  8
CURVE
100
AcDbLine
 62
7
  6
CONTINUOUS
 10
92.3301006868
 20
67.5841369931
 11
92.349707633
 21
67.6037439393
  0
LINE
  5
3AE
100
AcDbEntity
  8
CURVE
100
AcDbLine
 62
7
  6
CONTINUOUS
 10
93.2638929299
 20
68.5179292362
 11
93.8506514409
 21
69.1046877473
  0
LINE
  5
3AF
100
AcDbEntity
  8
CURVE
100
AcDbLine
 62
7
  6
CONTINUOUS
 10
94.4816879679
 20
69.7357242742
 11
94.8283139316
 21
70.082350238
  0
LINE
  5
3B0
100
AcDbEntity
  8
CURVE
100
AcDbLine
 62
7
  6
CONTINUOUS
 10
92.3301006868
 20
67.3741262791
 11
92.652758567
 21
67.6967841593
  0
LINE
  5
3B1
100
AcDbEntity
  8
CURVE
100
AcDbLine
 62
7
  6
CONTINUOUS
 10
93.4739036439
 20
68.5179292362
 11
93.9935969854
 21
69.0376225778
  0
LINE
  5
3B2
100
AcDbEntity
  8
CURVE
100
AcDbLine
 62
7
  6
CONTINUOUS
 10
94.777945834
 20
69.8219714263
 11
94.8283139316
 21
69.872339524
  0
LINE
  5
3B3
100
AcDbEntity
  8
CURVE
100
AcDbLine
 62
7
  6
CONTINUOUS
 10
92.3301006868
 20
67.1641155651
 11
92.9558095011
 21
67.7898243794
  0
LINE
  5
3B4
100
AcDbEntity
  8
CURVE
100
AcDbLine
 62
7
  6
CONTINUOUS
 10
93.6839143579
 20
68.5179292362
 11
94.2036076995
 21
69.0376225778
  0
LINE
  5
3B5
100
AcDbEntity
  8
CURVE
100
AcDbLine
 62
7
  6
CONTINUOUS
 10
92.4357801979
 20
67.0597843622
 11
93.2588604351
 21
67.8828645994
  0
LINE
  5
3B6
100
AcDbEntity
  8
CURVE
100
AcDbLine
 62
7
  6
CONTINUOUS
 10
93.8939250719
 20
68.5179292362
 11
94.4136184135
 21
69.0376225778
  0
LINE
  5
3B7
100
AcDbEntity
  8
CURVE
100
AcDbLine
 62
7
  6
CONTINUOUS
 10
92.5956233767
 20
67.0096168269
 11
93.5619113691
 21
67.9759048194
  0
LINE
  5
3B8
100
AcDbEntity
  8
CURVE
100
AcDbLine
 62
7
  6
CONTINUOUS
 10
94.1039357859
 20
68.5179292362
 11
94.6236291275
 21
69.0376225778
  0
LINE
  5
3B9
100
AcDbEntity
  8
CURVE
100
AcDbLine
 62
7
  6
CONTINUOUS
 10
92.7554665554
 20
66.9594492917
 11
93.1063778848
 21
67.310360621
  0
LINE
  5
3BA
100
AcDbEntity
  8
CURVE
100
AcDbLine
 62
7
  6
CONTINUOUS
 10
93.1716695377
 20
67.375652274
 11
93.8649623032
 21
68.0689450394
  0
LINE
  5
3BB
100
AcDbEntity
  8
CURVE
100
AcDbLine
 62
7
  6
CONTINUOUS
 10
94.3139464999
 20
68.5179292362
 11
94.8283139316
 21
69.0322966679
  0
LINE
  5
3BC
100
AcDbEntity
  8
CURVE
100
AcDbLine
 62
7
  6
CONTINUOUS
 10
92.9153097342
 20
66.9092817564
 11
93.2704189367
 21
67.2643909589
  0
LINE
  5
3BD
100
AcDbEntity
  8
CURVE
100
AcDbLine
 62
7
  6
CONTINUOUS
 10
93.4549393398
 20
67.4489113621
 11
94.1680132372
 21
68.1619852595
  0
LINE
  5
3BE
100
AcDbEntity
  8
CURVE
100
AcDbLine
 62
7
  6
CONTINUOUS
 10
94.5239572139
 20
68.5179292362
 11
94.8283139316
 21
68.8222859539
  0
LINE
  5
3BF
100
AcDbEntity
  8
0
100
AcDbLine
 62
7
  6
CONTINUOUS
 10
97.2352696753
 20
124.346484375
 11
97.3852696753
 21
124.196484375
  0
LINE
  5
3C0
100
AcDbEntity
  8
CURVE
100
AcDbLine
 62
7
  6
CONTINUOUS
 10
93.0751529129
 20
66.8591142211
 11
93.4344599886
 21
67.2184212968
  0
LINE
  5
3C1
100
AcDbEntity
  8
CURVE
100
AcDbLine
 62
7
  6
CONTINUOUS
 10
93.738209142
 20
67.5221704502
 11
94.4710641713
 21
68.2550254795
  0
LINE
  5
3C2
100
AcDbEntity
  8
CURVE
100
AcDbLine
 62
7
  6
CONTINUOUS
 10
94.733967928
 20
68.5179292362
 11
94.8283139316
 21
68.6122752399
  0
LINE
  5
3C3
100
AcDbEntity
  8
CURVE
100
AcDbLine
 62
7
  6
CONTINUOUS
 10
92.3301006868
 20
65.904051281
 11
92.4284380152
 21
66.0023886094
  0
LINE
  5
3C4
100
AcDbEntity
  8
CURVE
100
AcDbLine
 62
7
  6
CONTINUOUS
 10
93.2349960917
 20
66.8089466859
 11
93.5985010405
 21
67.1724516347
  0
LINE
  5
3C5
100
AcDbEntity
  8
CURVE
100
AcDbLine
 62
7
  6
CONTINUOUS
 10
93.9436651478
 20
67.517615742
 11
94.7741151053
 21
68.3480656995
  0
LINE
  5
3C6
100
AcDbEntity
  8
CURVE
100
AcDbLine
 62
7
  6
CONTINUOUS
 10
92.3301006868
 20
65.694040567
 11
92.6601274647
 21
66.024067345
  0
LINE
  5
3C7
100
AcDbEntity
  8
CURVE
100
AcDbLine
 62
7
  6
CONTINUOUS
 10
93.3948392704
 20
66.7587791506
 11
93.7625420924
 21
67.1264819726
  0
LINE
  5
3C8
100
AcDbEntity
  8
CURVE
100
AcDbLine
 62
7
  6
CONTINUOUS
 10
93.9436651478
 20
67.307605028
 11
94.8283139152
 21
68.1922537954
  0
LINE
  5
3C9
100
AcDbEntity
  8
CURVE
100
AcDbLine
 62
7
  6
CONTINUOUS
 10
92.3301006868
 20
65.484029853
 11
92.8918169143
 21
66.0457460805
  0
LINE
  5
3CA
100
AcDbEntity
  8
CURVE
100
AcDbLine
 62
7
  6
CONTINUOUS
 10
93.5546824492
 20
66.7086116154
 11
93.9265831443
 21
67.0805123105
  0
LINE
  5
3CB
100
AcDbEntity
  8
CURVE
100
AcDbLine
 62
7
  6
CONTINUOUS
 10
93.9436651478
 20
67.097594314
 11
94.3295819144
 21
67.4835110806
  0
LINE
  5
3CC
100
AcDbEntity
  8
CURVE
100
AcDbLine
 62
7
  6
CONTINUOUS
 10
94.5985568427
 20
67.7524860089
 11
94.8283139152
 21
67.9822430814
  0
LINE
  5
3CD
100
AcDbEntity
  8
CURVE
100
AcDbLine
 62
7
  6
CONTINUOUS
 10
92.4775396312
 20
65.4214580834
 11
93.1235063638
 21
66.067424816
  0
LINE
  5
3CE
100
AcDbEntity
  8
CURVE
100
AcDbLine
 62
7
  6
CONTINUOUS
 10
93.7145256279
 20
66.6584440801
 11
94.3295819144
 21
67.2735003666
  0
LINE
  5
3CF
100
AcDbEntity
  8
CURVE
100
AcDbLine
 62
7
  6
CONTINUOUS
 10
92.6301416961
 20
65.3640494342
 11
93.3551958134
 21
66.0891035516
  0
LINE
  5
3D0
100
AcDbEntity
  8
CURVE
100
AcDbLine
 62
7
  6
CONTINUOUS
 10
93.8743688067
 20
66.6082765448
 11
94.3295819144
 21
67.0634896526
  0
LINE
  5
3D1
100
AcDbEntity
  8
CURVE
100
AcDbLine
 62
7
  6
CONTINUOUS
 10
92.7827437609
 20
65.3066407851
 11
93.5868852629
 21
66.1107822871
  0
LINE
  5
3D2
100
AcDbEntity
  8
CURVE
100
AcDbLine
 62
7
  6
CONTINUOUS
 10
94.0342119854
 20
66.5581090096
 11
94.419216122
 21
66.9431131462
  0
LINE
  5
3D3
100
AcDbEntity
  8
CURVE
100
AcDbLine
 62
7
  6
CONTINUOUS
 10
92.9353458258
 20
65.2492321359
 11
93.2700913307
 21
65.5839776409
  0
LINE
  5
3D4
100
AcDbEntity
  8
CURVE
100
AcDbLine
 62
7
  6
CONTINUOUS
 10
93.3018679673
 20
65.6157542775
 11
93.8185747125
 21
66.1324610227
  0
LINE
  5
3D5
100
AcDbEntity
  8
CURVE
100
AcDbLine
 62
7
  6
CONTINUOUS
 10
94.1940551642
 20
66.5079414743
 11
94.5821795871
 21
66.8960658972
  0
LINE
  5
3D6
100
AcDbEntity
  8
CURVE
100
AcDbLine
 62
7
  6
CONTINUOUS
 10
92.3301006868
 20
64.4339762829
 11
92.3378631699
 21
64.441738766
  0
LINE
  5
3D7
100
AcDbEntity
  8
CURVE
100
AcDbLine
 62
7
  6
CONTINUOUS
 10
93.0879478906
 20
65.1918234868
 11
93.4220624249
 21
65.5259380211
  0
LINE
  5
3D8
100
AcDbEntity
  8
CURVE
100
AcDbLine
 62
7
  6
CONTINUOUS
 10
93.5267170512
 20
65.6305926473
 11
94.0502641621
 21
66.1541397582
  0
LINE
  5
3D9
100
AcDbEntity
  8
CURVE
100
AcDbLine
 62
7
  6
CONTINUOUS
 10
94.3538983429
 20
66.4577739391
 11
94.7451430521
 21
66.8490186483
  0
LINE
  5
3DA
100
AcDbEntity
  8
CURVE
100
AcDbLine
 62
7
  6
CONTINUOUS
 10
92.3301006868
 20
64.2239655689
 11
92.6723950433
 21
64.5662599254
  0
LINE
  5
3DB
100
AcDbEntity
  8
CURVE
100
AcDbLine
 62
7
  6
CONTINUOUS
 10
93.2405499555
 20
65.1344148376
 11
93.5740335191
 21
65.4678984012
  0
LINE
  5
3DC
100
AcDbEntity
  8
CURVE
100
AcDbLine
 62
7
  6
CONTINUOUS
 10
93.7515661351
 20
65.6454310172
 11
94.2819536116
 21
66.1758184937
  0
LINE
  5
3DD
100
AcDbEntity
  8
CURVE
100
AcDbLine
 62
7
  6
CONTINUOUS
 10
94.5137415217
 20
66.4076064038
 11
94.8283139152
 21
66.7221787973
  0
LINE
  5
3DE
100
AcDbEntity
  8
CURVE
100
AcDbLine
 62
7
  6
CONTINUOUS
 10
92.3301006868
 20
64.0139548549
 11
93.0069269166
 21
64.6907810847
  0
LINE
  5
3DF
100
AcDbEntity
  8
CURVE
100
AcDbLine
 62
7
  6
CONTINUOUS
 10
93.3931520203
 20
65.0770061885
 11
93.7260046133
 21
65.4098587814
  0
LINE
  5
3E0
100
AcDbEntity
  8
CURVE
100
AcDbLine
 62
7
  6
CONTINUOUS
 10
93.9764152189
 20
65.6602693871
 11
94.5136430612
 21
66.1974972293
  0
LINE
  5
3E1
100
AcDbEntity
  8
CURVE
100
AcDbLine
 62
7
  6
CONTINUOUS
 10
94.6735847004
 20
66.3574388685
 11
94.8283139152
 21
66.5121680833
  0
LINE
  5
3E2
100
AcDbEntity
  8
CURVE
100
AcDbLine
 62
7
  6
CONTINUOUS
 10
92.4342363307
 20
63.9080797848
 11
93.34145879
 21
64.8153022441
  0
LINE
  5
3E3
100
AcDbEntity
  8
CURVE
100
AcDbLine
 62
7
  6
CONTINUOUS
 10
93.5457540852
 20
65.0195975393
 11
93.8779757074
 21
65.3518191615
  0
LINE
  5
3E4
100
AcDbEntity
  8
CURVE
100
AcDbLine
 62
7
  6
CONTINUOUS
 10
94.2012643028
 20
65.6751077569
 11
94.7453325107
 21
66.2191759648
  0
LINE
  5
3E5
100
AcDbEntity
  8
CURVE
100
AcDbLine
 62
7
  6
CONTINUOUS
 10
92.6268449744
 20
63.8906777145
 11
93.6759906633
 21
64.9398234034
  0
LINE
  5
3E6
100
AcDbEntity
  8
CURVE
100
AcDbLine
 62
7
  6
CONTINUOUS
 10
93.6983561501
 20
64.9621888902
 11
94.0299468016
 21
65.2937795417
  0
LINE
  5
3E7
100
AcDbEntity
  8
CURVE
100
AcDbLine
 62
7
  6
CONTINUOUS
 10
94.4261133867
 20
65.6899461268
 11
94.8283139152
 21
66.0921466552
  0
LINE
  5
3E8
100
AcDbEntity
  8
CURVE
100
AcDbLine
 62
7
  6
CONTINUOUS
 10
92.3299517776
 20
63.3837738036
 11
92.3570573489
 21
63.410879375
  0
LINE
  5
3E9
100
AcDbEntity
  8
CURVE
100
AcDbLine
 62
7
  6
CONTINUOUS
 10
92.8194536182
 20
63.8732756442
 11
93.2463395321
 21
64.3001615581
  0
LINE
  5
3EA
100
AcDbEntity
  8
CURVE
100
AcDbLine
 62
7
  6
CONTINUOUS
 10
93.2814050014
 20
64.3352270275
 11
94.1819178958
 21
65.2357399218
  0
LINE
  5
3EB
100
AcDbEntity
  8
CURVE
100
AcDbLine
 62
7
  6
CONTINUOUS
 10
94.6509624705
 20
65.7047844966
 11
94.8283139152
 21
65.8821359412
  0
LINE
  5
3EC
100
AcDbEntity
  8
CURVE
100
AcDbLine
 62
7
  6
CONTINUOUS
 10
92.3299517776
 20
63.1737630896
 11
92.5670680629
 21
63.410879375
  0
LINE
  5
3ED
100
AcDbEntity
  8
CURVE
100
AcDbLine
 62
7
  6
CONTINUOUS
 10
93.0120622619
 20
63.855873574
 11
93.4427898411
 21
64.2866011532
  0
LINE
  5
3EE
100
AcDbEntity
  8
CURVE
100
AcDbLine
 62
7
  6
CONTINUOUS
 10
93.6175520054
 20
64.4613633175
 11
94.3338889899
 21
65.177700302
  0
LINE
  5
3EF
100
AcDbEntity
  8
CURVE
100
AcDbLine
 62
7
  6
CONTINUOUS
 10
92.3299517776
 20
62.9637523756
 11
92.7770787769
 21
63.410879375
  0
LINE
  5
3F0
100
AcDbEntity
  8
CURVE
100
AcDbLine
 62
7
  6
CONTINUOUS
 10
93.2046709056
 20
63.8384715037
 11
93.6392401502
 21
64.2730407482
  0
LINE
  5
3F1
100
AcDbEntity
  8
CURVE
100
AcDbLine
 62
7
  6
CONTINUOUS
 10
93.9536990094
 20
64.5874996075
 11
94.4858600841
 21
65.1196606821
  0
LINE
  5
3F2
100
AcDbEntity
  8
CURVE
100
AcDbLine
 62
7
  6
CONTINUOUS
 10
92.465296491
 20
62.889086375
 11
92.987089491
 21
63.410879375
  0
LINE
  5
3F3
100
AcDbEntity
  8
CURVE
100
AcDbLine
 62
7
  6
CONTINUOUS
 10
93.3972795493
 20
63.8210694334
 11
93.8356904592
 21
64.2594803433
  0
LINE
  5
3F4
100
AcDbEntity
  8
CURVE
100
AcDbLine
 62
7
  6
CONTINUOUS
 10
94.2898460135
 20
64.7136358975
 11
94.6378311783
 21
65.0616210623
  0
LINE
  5
3F5
100
AcDbEntity
  8
CURVE
100
AcDbLine
 62
7
  6
CONTINUOUS
 10
92.3301006868
 20
62.5438798568
 11
92.4447824391
 21
62.6585616091
  0
LINE
  5
3F6
100
AcDbEntity
  8
CURVE
100
AcDbLine
 62
7
  6
CONTINUOUS
 10
92.675307205
 20
62.889086375
 11
93.197100205
 21
63.410879375
  0
LINE
  5
3F7
100
AcDbEntity
  8
CURVE
100
AcDbLine
 62
7
  6
CONTINUOUS
 10
93.5898881931
 20
63.8036673631
 11
94.0321407683
 21
64.2459199383
  0
LINE
  5
3F8
100
AcDbEntity
  8
CURVE
100
AcDbLine
 62
7
  6
CONTINUOUS
 10
94.6259930175
 20
64.8397721875
 11
94.7898022724
 21
65.0035814425
  0
LINE
  5
3F9
100
AcDbEntity
  8
CURVE
100
AcDbLine
 62
7
  6
CONTINUOUS
 10
92.3301006868
 20
62.3338691428
 11
92.6036845375
 21
62.6074529935
  0
LINE
  5
3FA
100
AcDbEntity
  8
CURVE
100
AcDbLine
 62
7
  6
CONTINUOUS
 10
92.885317919
 20
62.889086375
 11
93.407110919
 21
63.410879375
  0
LINE
  5
3FB
100
AcDbEntity
  8
CURVE
100
AcDbLine
 62
7
  6
CONTINUOUS
 10
93.7824968368
 20
63.7862652928
 11
94.2285910773
 21
64.2323595333
  0
LINE
  5
3FC
100
AcDbEntity
  8
CURVE
100
AcDbLine
 62
7
  6
CONTINUOUS
 10
92.3691131687
 20
62.1628709107
 11
92.7625866359
 21
62.5563443779
  0
LINE
  5
3FD
100
AcDbEntity
  8
CURVE
100
AcDbLine
 62
7
  6
CONTINUOUS
 10
93.095328633
 20
62.889086375
 11
93.617121633
 21
63.410879375
  0
LINE
  5
3FE
100
AcDbEntity
  8
CURVE
100
AcDbLine
 62
7
  6
CONTINUOUS
 10
93.9751054805
 20
63.7688632225
 11
94.4250413864
 21
64.2187991284
  0
LINE
  5
3FF
100
AcDbEntity
  8
CURVE
100
AcDbLine
 62
7
  6
CONTINUOUS
 10
92.5324742431
 20
62.1162212711
 11
92.9214887343
 21
62.5052357623
  0
LINE
  5
400
100
AcDbEntity
  8
CURVE
100
AcDbLine
 62
7
  6
CONTINUOUS
 10
93.305339347
 20
62.889086375
 11
93.827132347
 21
63.410879375
  0
LINE
  5
401
100
AcDbEntity
  8
CURVE
100
AcDbLine
 62
7
  6
CONTINUOUS
 10
94.1677141242
 20
63.7514611522
 11
94.6214916954
 21
64.2052387234
  0
LINE
  5
402
100
AcDbEntity
  8
CURVE
100
AcDbLine
 62
7
  6
CONTINUOUS
 10
92.6958353175
 20
62.0695716315
 11
93.0803908327
 21
62.4541271467
  0
LINE
  5
403
100
AcDbEntity
  8
CURVE
100
AcDbLine
 62
7
  6
CONTINUOUS
 10
93.515350061
 20
62.889086375
 11
94.037143061
 21
63.410879375
  0
LINE
  5
404
100
AcDbEntity
  8
CURVE
100
AcDbLine
 62
7
  6
CONTINUOUS
 10
94.360322768
 20
63.7340590819
 11
94.8179420045
 21
64.1916783184
  0
LINE
  5
405
100
AcDbEntity
  8
CURVE
100
AcDbLine
 62
7
  6
CONTINUOUS
 10
92.859196392
 20
62.0229219919
 11
93.2392929311
 21
62.4030185311
  0
LINE
  5
406
100
AcDbEntity
  8
CURVE
100
AcDbLine
 62
7
  6
CONTINUOUS
 10
93.725360775
 20
62.889086375
 11
94.247153775
 21
63.410879375
  0
LINE
  5
407
100
AcDbEntity
  8
CURVE
100
AcDbLine
 62
7
  6
CONTINUOUS
 10
94.5529314117
 20
63.7166570117
 11
94.8283139152
 21
63.9920395151
  0
LINE
  5
408
100
AcDbEntity
  8
CURVE
100
AcDbLine
 62
7
  6
CONTINUOUS
 10
93.0225574664
 20
61.9762723523
 11
93.3981950295
 21
62.3519099155
  0
LINE
  5
409
100
AcDbEntity
  8
CURVE
100
AcDbLine
 62
7
  6
CONTINUOUS
 10
93.935371489
 20
62.889086375
 11
94.457164489
 21
63.410879375
  0
LINE
  5
40A
100
AcDbEntity
  8
CURVE
100
AcDbLine
 62
7
  6
CONTINUOUS
 10
94.7455400554
 20
63.6992549414
 11
94.8283139152
 21
63.7820288011
  0
LINE
  5
40B
100
AcDbEntity
  8
CURVE
100
AcDbLine
 62
7
  6
CONTINUOUS
 10
92.3301006868
 20
61.0738048587
 11
92.5136114394
 21
61.2573156114
  0
LINE
  5
40C
100
AcDbEntity
  8
CURVE
100
AcDbLine
 62
7
  6
CONTINUOUS
 10
93.1859185408
 20
61.9296227127
 11
93.5570971279
 21
62.3008012999
  0
LINE
  5
40D
100
AcDbEntity
  8
CURVE
100
AcDbLine
 62
7
  6
CONTINUOUS
 10
94.1453822031
 20
62.889086375
 11
94.6671752031
 21
63.410879375
  0
LINE
  5
40E
100
AcDbEntity
  8
CURVE
100
AcDbLine
 62
7
  6
CONTINUOUS
 10
92.3301006868
 20
60.8637941447
 11
92.8041215722
 21
61.3378150301
  0
LINE
  5
40F
100
AcDbEntity
  8
CURVE
100
AcDbLine
 62
7
  6
CONTINUOUS
 10
93.3492796152
 20
61.8829730732
 11
93.7159992263
 21
62.2496926843
  0
LINE
  5
410
100
AcDbEntity
  8
CURVE
100
AcDbLine
 62
7
  6
CONTINUOUS
 10
94.3553929171
 20
62.889086375
 11
94.8283139152
 21
63.3620073731
  0
LINE
  5
411
100
AcDbEntity
  8
CURVE
100
AcDbLine
 62
7
  6
CONTINUOUS
 10
92.3301006868
 20
60.6537834307
 11
93.094631705
 21
61.4183144489
  0
LINE
  5
412
100
AcDbEntity
  8
CURVE
100
AcDbLine
 62
7
  6
CONTINUOUS
 10
93.5126406897
 20
61.8363234336
 11
93.8749013247
 21
62.1985840687
  0
LINE
  5
413
100
AcDbEntity
  8
CURVE
100
AcDbLine
 62
7
  6
CONTINUOUS
 10
94.5654036311
 20
62.889086375
 11
94.8283139152
 21
63.1519966591
  0
LINE
  5
414
100
AcDbEntity
  8
CURVE
100
AcDbLine
 62
7
  6
CONTINUOUS
 10
92.6169611227
 20
60.7306331526
 11
93.3851418377
 21
61.4988138676
  0
LINE
  5
415
100
AcDbEntity
  8
CURVE
100
AcDbLine
 62
7
  6
CONTINUOUS
 10
93.6760017641
 20
61.789673794
 11
94.0338034231
 21
62.147475453
  0
LINE
  5
416
100
AcDbEntity
  8
CURVE
100
AcDbLine
 62
7
  6
CONTINUOUS
 10
94.7754143451
 20
62.889086375
 11
94.8283139152
 21
62.9419859451
  0
LINE
  5
417
100
AcDbEntity
  8
CURVE
100
AcDbLine
 62
7
  6
CONTINUOUS
 10
92.9245396593
 20
60.8282009752
 11
93.6756519705
 21
61.5793132864
  0
LINE
  5
418
100
AcDbEntity
  8
CURVE
100
AcDbLine
 62
7
  6
CONTINUOUS
 10
93.8393628385
 20
61.7430241544
 11
94.1927055215
 21
62.0963668374
  0
LINE
  5
419
100
AcDbEntity
  8
CURVE
100
AcDbLine
 62
7
  6
CONTINUOUS
 10
93.2321181959
 20
60.9257687977
 11
93.9661621032
 21
61.6598127051
  0
LINE
  5
41A
100
AcDbEntity
  8
CURVE
100
AcDbLine
 62
7
  6
CONTINUOUS
 10
94.0027239129
 20
61.6963745148
 11
94.3516076199
 21
62.0452582218
  0
LINE
  5
41B
100
AcDbEntity
  8
CURVE
100
AcDbLine
 62
7
  6
CONTINUOUS
 10
93.5396967324
 20
61.0233366203
 11
94.5105097184
 21
61.9941496062
  0
LINE
  5
41C
100
AcDbEntity
  8
CURVE
100
AcDbLine
 62
7
  6
CONTINUOUS
 10
93.847275269
 20
61.1209044429
 11
94.6694118168
 21
61.9430409906
  0
LINE
  5
41D
100
AcDbEntity
  8
CURVE
100
AcDbLine
 62
7
  6
CONTINUOUS
 10
94.1548538056
 20
61.2184722654
 11
94.8283139152
 21
61.891932375
  0
LINE
  5
41E
100
AcDbEntity
  8
CURVE
100
AcDbLine
 62
7
  6
CONTINUOUS
 10
94.4624323421
 20
61.316040088
 11
94.8283139152
 21
61.681921661
  0
LINE
  5
41F
100
AcDbEntity
  8
CURVE
100
AcDbLine
 62
7
  6
CONTINUOUS
 10
94.7700108787
 20
61.4136079105
 11
94.8283139152
 21
61.471910947
  0
LINE
  5
420
100
AcDbEntity
  8
0
100
AcDbLine
 62
250
  6
CONTINUOUS
 10
99.9352696748
 20
73.1058112044
 11
99.1321850647
 21
72.6766902615
  0
LINE
  5
421
100
AcDbEntity
  8
0
100
AcDbLine
 62
250
  6
CONTINUOUS
 10
97.8610422591
 20
72.2188051311
 11
98.6029414642
 21
72.6126184571
  0
LINE
  5
422
100
AcDbEntity
  8
0
100
AcDbLine
 62
7
  6
CONTINUOUS
 10
99.9352696753
 20
73.0581200346
 11
98.0002816371
 21
72.0309938834
  0
LWPOLYLINE
  5
423
100
AcDbEntity
  8
0
100
AcDbPolyline
 62
250
  6
CONTINUOUS
 90
12
 70
0
 10
99.1321850647
 20
72.6766902615
 10
99.123894299
 20
72.6727606561
 10
99.1145302983
 20
72.6690027225
 10
99.1040930629
 20
72.6654161361
 10
99.092610081
 20
72.6620061873
 10
99.0800538643
 20
72.6587669839
 10
99.066341947
 20
72.6556814752
 10
99.0514233182
 20
72.6527181108
 10
99.035348989
 20
72.6499080079
 10
99.0181895268
 20
72.64732807
 10
98.9998730286
 20
72.6449646522
 10
98.9804713975
 20
72.6428308957
  0
LINE
  5
424
100
AcDbEntity
  8
0
100
AcDbLine
 62
250
  6
CONTINUOUS
 10
99.222466083
 20
72.6797511787
 11
99.2186073088
 21
72.6777387168
  0
LWPOLYLINE
  5
425
100
AcDbEntity
  8
CURVE
100
AcDbPolyline
 62
250
  6
CONTINUOUS
 90
8
 70
0
 10
94.070773967
 20
69.6085092001
 10
94.1053458217
 20
69.6211921274
 10
94.1400957163
 20
69.6333580755
 10
94.1750039741
 20
69.6450632567
 10
94.2100509181
 20
69.6563638829
 10
94.2452168716
 20
69.6673161664
 10
94.2804821576
 20
69.6779763193
 10
94.3158270996
 20
69.6884005537
  0
LWPOLYLINE
  5
426
100
AcDbEntity
  8
0
100
AcDbPolyline
 62
250
  6
CONTINUOUS
 90
9
 70
0
 10
99.2136970689
 20
72.6756693553
 10
99.2044979828
 20
72.6725021957
 10
99.1949153656
 20
72.6702657249
 10
99.184997678
 20
72.6689712472
 10
99.1747951201
 20
72.6686253225
 10
99.1643593622
 20
72.6692297232
 10
99.1537432046
 20
72.6707813865
 10
99.1430003259
 20
72.6732724386
 10
99.1321850647
 20
72.6766902615
  0
LINE
  5
427
100
AcDbEntity
  8
0
100
AcDbLine
 62
7
  6
CONTINUOUS
 10
97.9848977732
 20
124.3514471848
 11
99.9352696753
 21
124.546484375
  0
LINE
  5
428
100
AcDbEntity
  8
0
100
AcDbLine
 62
7
  6
CONTINUOUS
 10
96.9352696753
 20
124.9023042495
 11
99.7457368666
 21
125.0264710427
  0
LINE
  5
429
100
AcDbEntity
  8
0
100
AcDbLine
 62
7
  6
CONTINUOUS
 10
96.9352696753
 20
124.196484375
 11
97.0852696753
 21
124.196484375
  0
LINE
  5
42A
100
AcDbEntity
  8
0
100
AcDbLine
 62
7
  6
CONTINUOUS
 10
97.3852696753
 20
124.196484375
 11
97.5852696753
 21
124.196484375
  0
LINE
  5
42B
100
AcDbEntity
  8
0
100
AcDbLine
 62
7
  6
CONTINUOUS
 10
96.9352696753
 20
124.346484375
 11
97.8853940542
 21
124.346484375
  0
LINE
  5
42C
100
AcDbEntity
  8
0
100
AcDbLine
 62
250
  6
CONTINUOUS
 10
97.8610422591
 20
126.0741636189
 11
96.9352696753
 21
126.0745818134
  0
LINE
  5
42D
100
AcDbEntity
  8
0
100
AcDbLine
 62
250
  6
CONTINUOUS
 10
96.9352696753
 20
125.6988679501
 11
98.8120579685
 21
125.6974047432
  0
LINE
  5
42E
100
AcDbEntity
  8
0
100
AcDbLine
 62
7
  6
CONTINUOUS
 10
98.8122136552
 20
125.7173984428
 11
96.9352696753
 21
125.7188518502
  0
LINE
  5
42F
100
AcDbEntity
  8
0
100
AcDbLine
 62
7
  6
CONTINUOUS
 10
97.8611068263
 20
126.2966138137
 11
96.9352696753
 21
126.298229706
  0
LWPOLYLINE
  5
430
100
AcDbEntity
  8
0
100
AcDbPolyline
 62
250
  6
CONTINUOUS
 90
3
 70
0
 10
98.8120579685
 20
125.6974047432
 10
98.8298732234
 20
125.697187632
 10
98.8471526932
 20
125.696722936
  0
LWPOLYLINE
  5
431
100
AcDbEntity
  8
0
100
AcDbPolyline
 62
250
  6
CONTINUOUS
 90
5
 70
0
 10
98.8471526932
 20
125.696722936
 10
98.8638963778
 20
125.6960105999
 10
98.8801855987
 20
125.6950223916
 10
98.8959390345
 20
125.6937863328
 10
98.9109127208
 20
125.6923867534
  0
LWPOLYLINE
  5
432
100
AcDbEntity
  8
0
100
AcDbPolyline
 62
250
  6
CONTINUOUS
 90
13
 70
0
 10
98.9109127208
 20
125.6923867534
 10
98.9249878603
 20
125.690839719
 10
98.9382832503
 20
125.6891289404
 10
98.9509113177
 20
125.6872902759
 10
98.9628069861
 20
125.6853585497
 10
98.9740353319
 20
125.683298728
 10
98.9849040114
 20
125.6810418318
 10
98.9955830224
 20
125.6785837801
 10
99.005902367
 20
125.6759282077
 10
99.0156597081
 20
125.6730175404
 10
99.0247875998
 20
125.6698323075
 10
99.0333534879
 20
125.666391222
 10
99.0413573725
 20
125.6626938673
  0
LWPOLYLINE
  5
433
100
AcDbEntity
  8
0
100
AcDbPolyline
 62
250
  6
CONTINUOUS
 90
10
 70
0
 10
99.1351288731
 20
125.6595777195
 10
99.125997923
 20
125.6638278611
 10
99.116420855
 20
125.6671244963
 10
99.1064481479
 20
125.66945025
 10
99.0961323655
 20
125.6707928643
 10
99.08552788
 20
125.6711452631
 10
99.0746905848
 20
125.6705055897
 10
99.0636776006
 20
125.668877216
 10
99.0525469743
 20
125.6662687255
 10
99.0413573725
 20
125.6626938673
  0
LWPOLYLINE
  5
434
100
AcDbEntity
  8
0
100
AcDbPolyline
 62
7
  6
CONTINUOUS
 90
15
 70
0
 10
99.135013549
 20
125.6596385867
 10
99.1273590136
 20
125.6635570097
 10
99.1064518143
 20
125.6729549884
 10
99.0844180016
 20
125.6811193399
 10
99.0620068537
 20
125.6880250646
 10
99.0392766561
 20
125.6938952135
 10
99.0157539259
 20
125.698993972
 10
98.9914521612
 20
125.7034099287
 10
98.9662933904
 20
125.7072091555
 10
98.9402324251
 20
125.71042472
 10
98.913549006
 20
125.7130390688
 10
98.8863064786
 20
125.7150549736
 10
98.858429932
 20
125.716469825
 10
98.8300671862
 20
125.717250538
 10
98.8122137158
 20
125.7173984397
  0
LINE
  5
435
100
AcDbEntity
  8
0
100
AcDbLine
 62
250
  6
CONTINUOUS
 10
98.5327393003
 20
125.7176148532
 11
97.8610422591
 21
126.0741636189
  0
LINE
  5
436
100
AcDbEntity
  8
0
100
AcDbLine
 62
7
  6
CONTINUOUS
 10
98.0002816371
 20
126.2619748666
 11
99.9352696753
 21
125.2348487154
  0
LINE
  5
437
100
AcDbEntity
  8
0
100
AcDbLine
 62
250
  6
CONTINUOUS
 10
99.0413573725
 20
125.6626938673
 11
99.9352696753
 21
125.1849503395
  0
LINE
  5
438
100
AcDbEntity
  8
0
100
AcDbLine
 62
7
  6
CONTINUOUS
 10
90.7846605023
 20
55.3409247206
 11
90.7697221331
 21
55.3264989051
  0
LINE
  5
439
100
AcDbEntity
  8
CURVE
100
AcDbLine
 62
250
  6
CONTINUOUS
 10
92.3301006868
 20
67.597724375
 11
94.8283139152
 21
68.364705375
  0
LINE
  5
43A
100
AcDbEntity
  8
CURVE
100
AcDbLine
 62
250
  6
CONTINUOUS
 10
94.3158270996
 20
69.6884005537
 11
94.3866772435
 21
69.7087661156
  0
LINE
  5
43B
100
AcDbEntity
  8
0
100
AcDbLine
 62
7
  6
CONTINUOUS
 10
90.7697221331
 20
142.9664698449
 11
90.7846605023
 21
142.9520440294
  0
LINE
  5
43C
100
AcDbEntity
  8
CURVE
100
AcDbLine
 62
250
  6
CONTINUOUS
 10
94.8283139152
 20
64.915691375
 11
93.197028256
 21
64.303565375
  0
LINE
  5
43D
100
AcDbEntity
  8
CURVE
100
AcDbLine
 62
250
  6
CONTINUOUS
 10
92.3301006868
 20
64.438849375
 11
93.7171162394
 21
64.955131375
  0
LINE
  5
43E
100
AcDbEntity
  8
CURVE
100
AcDbLine
 62
250
  6
CONTINUOUS
 10
94.8283139152
 20
61.432102375
 11
92.3301006868
 21
60.639637375
  0
LINE
  5
43F
100
AcDbEntity
  8
0
100
AcDbLine
 62
250
  6
CONTINUOUS
 10
96.3352696753
 20
140.3084258074
 11
96.9352696753
 21
140.3503818946
  0
LINE
  5
440
100
AcDbEntity
  8
0
100
AcDbLine
 62
7
  6
CONTINUOUS
 10
96.3352696753
 20
141.9045282878
 11
96.9352696753
 21
141.946484375
  0
LINE
  5
441
100
AcDbEntity
  8
0
100
AcDbLine
 62
7
  6
CONTINUOUS
 10
90.7846605023
 20
142.9520440294
 11
96.3352696753
 21
143.1458755729
  0
LINE
  5
442
100
AcDbEntity
  8
0
100
AcDbLine
 62
7
  6
CONTINUOUS
 10
90.7846605023
 20
143.9526528315
 11
96.3352696753
 21
144.146484375
  0
LWPOLYLINE
  5
443
100
AcDbEntity
  8
0
100
AcDbPolyline
 62
7
  6
CONTINUOUS
 90
8
 70
0
 43
0.3500000006
 10
81.6545069275
 20
152.8964888306
 10
82.5116539307
 20
152.8964888306
 10
82.9402229004
 20
153.3250578003
 10
82.9402229004
 20
154.1821957397
 10
82.5116539307
 20
154.6107647095
 10
81.6545069275
 20
154.6107647095
 10
81.6545069275
 20
155.8964897461
 10
82.9402229004
 20
155.8964897461
  0
LWPOLYLINE
  5
444
100
AcDbEntity
  8
0
100
AcDbPolyline
 62
7
  6
CONTINUOUS
 90
8
 70
0
 43
0.3500000006
 10
83.0777829895
 20
162.8964918823
 10
83.934920929
 20
162.8964918823
 10
84.3634898987
 20
163.3250608521
 10
84.3634898987
 20
164.1821987915
 10
83.934920929
 20
164.6107677612
 10
83.0777829895
 20
164.6107677612
 10
83.0777829895
 20
165.8964927979
 10
84.3634898987
 20
165.8964927979
  0
CIRCLE
  5
445
100
AcDbEntity
  8
0
100
AcDbCircle
 62
250
  6
CONTINUOUS
 10
171.9931640625
 20
99.146484375
 40
20.95
  0
CIRCLE
  5
446
100
AcDbEntity
  8
0
100
AcDbCircle
 62
7
  6
CONTINUOUS
 10
171.9931640625
 20
99.146484375
 40
20.75
  0
ARC
  5
447
100
AcDbEntity
  8
0
100
AcDbCircle
 62
7
  6
CONTINUOUS
 10
97.8853940542
 20
125.346484375
 40
1.0
100
AcDbArc
 50
270.0
 51
275.7105931375
  0
ARC
  5
448
100
AcDbEntity
  8
0
100
AcDbCircle
 62
7
  6
CONTINUOUS
 10
97.8853940542
 20
72.946484375
 40
1.0
100
AcDbArc
 50
84.2894068625
 51
90.0
  0
ARC
  5
449
100
AcDbEntity
  8
0
100
AcDbCircle
 62
7
  6
CONTINUOUS
 10
97.8605830002
 20
72.296484879
 40
0.3
100
AcDbArc
 50
270.1000001427
 51
297.9489629825
  0
ARC
  5
44A
100
AcDbEntity
  8
0
100
AcDbCircle
 62
7
  6
CONTINUOUS
 10
97.8605830002
 20
125.996483871
 40
0.3
100
AcDbArc
 50
62.0510370175
 51
89.8999998573
  0
ELLIPSE
  5
44B
100
AcDbEntity
  8
0
100
AcDbEllipse
 62
7
  6
CONTINUOUS
 10
4965.6655929642
 20
99.146484375
 30
0.0
 11
5070.6192780382
 21
-20.8600030618
 31
0.0
 40
0.0041137573
 41
2.856472503
 42
2.8584753448
  0
ELLIPSE
  5
44C
100
AcDbEntity
  8
0
100
AcDbEllipse
 62
7
  6
CONTINUOUS
 10
193.0840617403
 20
99.146484375
 30
0.0
 11
530.7034459343
 21
0.0
 31
0.0
 40
0.0494155445
 41
-1.7510554651
 42
-1.7475925186
  0
ELLIPSE
  5
44D
100
AcDbEntity
  8
0
100
AcDbEllipse
 62
7
  6
CONTINUOUS
 10
99.7352696753
 20
125.22628307
 30
0.0
 11
-0.1417119467
 21
0.1422961243
 31
0.0
 40
0.9918061237
 41
-3.8766878413
 42
-3.6922883273
  0
ENDSEC
  0
SECTION
  2
OBJECTS
  0
DICTIONARY
  5
C
100
AcDbDictionary
280
0
281
1
  3
ACAD_GROUP
350
D
  3
ACAD_MLINESTYLE
350
17
  3
ACAD_LAYOUT
350
1A
  3
ACAD_PLOTSETTINGS
350
19
  3
ACAD_PLOTSTYLENAME
350
E
  0
DICTIONARY
  5
D
102
{ACAD_REACTORS
330
C
102
}
100
AcDbDictionary
280
0
281
1
  0
ACDBDICTIONARYWDFLT
  5
E
102
{ACAD_REACTORS
330
C
102
}
100
AcDbDictionary
281
1
  3
Normal
350
F
100
AcDbDictionaryWithDefault
340
F
  0
DICTIONARY
  5
17
102
{ACAD_REACTORS
330
C
102
}
100
AcDbDictionary
280
0
281
1
  3
Standard
350
18
  0
DICTIONARY
  5
19
102
{ACAD_REACTORS
330
C
102
}
100
AcDbDictionary
281
1
  0
DICTIONARY
  5
1A
102
{ACAD_REACTORS
330
C
102
}
100
AcDbDictionary
281
1
  3
Model
350
44E
  3
Layout1
350
44F
  0
ACDBPLACEHOLDER
  5
F
102
{ACAD_REACTORS
330
E
102
}
  0
MLINESTYLE
  5
18
102
{ACAD_REACTORS
330
17
102
}
100
AcDbMlineStyle
  2
STANDARD
 70
0
  3

 62
256
 51
90.0
 52
90.0
 71
2
 49
0.5
 62
256
  6
BYLAYER
 49
-0.5
 62
256
  6
BYLAYER
  0
LAYOUT
  5
44E
102
{ACAD_REACTORS
330
1A
102
}
100
AcDbPlotSettings
  1

  2
none_device
  4
ISO_A4_(297.00_x_210.00_MM)
  6

 40
0.0
 41
0.0
 42
0.0
 43
0.0
 44
297.0
 45
210.0
 46
0.0
 47
0.0
 48
0.0
 49
0.0
140
0.0
141
0.0
142
1.0
143
1.0
 70
1024
 72
1
 73
0
 74
0
  7

 75
0
147
1.0
148
0.0
149
0.0
100
AcDbLayout
  1
Model
 70
0
 71
0
 10
0.0
 20
0.0
 11
297.0
 21
210.0
 12
0.0
 22
0.0
 32
0.0
 14
0.0
 24
0.0
 34
0.0
 15
0.0
 25
0.0
 35
0.0
146
0.0
 13
0.0
 23
0.0
 33
0.0
 16
1.0
 26
0.0
 36
0.0
 17
0.0
 27
1.0
 37
0.0
 76
0
330
21F
345
0
346
0
  0
LAYOUT
  5
44F
102
{ACAD_REACTORS
330
1A
102
}
100
AcDbPlotSettings
  1

  2
none_device
  4
ISO_A4_(297.00_x_210.00_MM)
  6

 40
0.0
 41
0.0
 42
0.0
 43
0.0
 44
297.0
 45
210.0
 46
0.0
 47
0.0
 48
0.0
 49
0.0
140
0.0
141
0.0
142
1.0
143
1.0
 70
0
 72
1
 73
0
 74
0
  7

 75
0
147
1.0
148
0.0
149
0.0
100
AcDbLayout
  1
Layout1
 70
0
 71
1
 10
0.0
 20
0.0
 11
297.0
 21
210.0
 12
0.0
 22
0.0
 32
0.0
 14
0.0
 24
0.0
 34
0.0
 15
0.0
 25
0.0
 35
0.0
146
0.0
 13
0.0
 23
0.0
 33
0.0
 16
1.0
 26
0.0
 36
0.0
 17
0.0
 27
1.0
 37
0.0
 76
0
330
220
345
0
346
0
  0
ENDSEC
  0
EOF
