  0
SECTION
  2
HEADER
  9
$ACADVER
  1
AC1024
  9
$DWGCODEPAGE
  3
ANSI_1252
  9
$EXTMAX
 10
297.0
 20
210.0
 30
0.0
  9
$EXTMIN
 10
0.0
 20
0.0
 30
0.0
  9
$LIMMIN
 10
0.0
 20
0.0
  9
$LIMMAX
 10
297.0
 20
210.0
  9
$VIEWCTR
 10
148.5
 20
105.0
  9
$VIEWSIZE
 40
210.0
  9
$CLAYER
  8
0
  9
$LTSCALE
 40
16.335
  9
$CELTYPE
  6
BYLAYER
  9
$DIMSCALE
 40
1.0
  9
$DIMASZ
 40
3.0
  9
$DIMEXO
 40
0.5
  9
$DIMDLI
 40
11.286
  9
$DIMEXE
 40
1.5
  9
$DIMCEN
 40
2.673
  9
$DIMLFAC
 40
1.0
  9
$DIMBLK
  1
_FILLED
  9
$DIMALT
 70
0
  9
$DIMALTF
 40
0.0393700787
  9
$DIMTXT
 40
3.0
  9
$DIMTOL
 70
1
  9
$DIMLIM
 70
0
  9
$DIMTFAC
 40
1.0
  9
$DIMTP
 40
0.01
  9
$DIMTM
 40
0.01
  9
$DIMGAP
 40
0.625
  9
$DIMDSEP
 70
44
  9
$AUNITS
 70
0
  9
$PDMODE
 70
3
  9
$PDSIZE
 40
3.0
  9
$HANDSEED
  5
37E
  9
$TILEMODE
 70
1
  9
$MEASUREMENT
 70
1
  9
$INSUNITS
 70
4
  0
ENDSEC
  0
SECTION
  2
CLASSES
  0
CLASS
  1
ACDBDICTIONARYWDFLT
  2
AcDbDictionaryWithDefault
  3
AutoCAD 2000
 90
0
 91
1
280
0
281
0
  0
CLASS
  1
ACDBPLACEHOLDER
  2
AcDbPlaceHolder
  3
AutoCAD 2000
 90
0
 91
1
280
0
281
0
  0
CLASS
  1
LAYOUT
  2
AcDbLayout
  3
AutoCAD 2000
 90
0
 91
0
280
0
281
0
  0
ENDSEC
  0
SECTION
  2
TABLES
  0
TABLE
  2
VPORT
  5
8
100
AcDbSymbolTable
 70
2
  0
VPORT
  5
1F4
100
AcDbSymbolTableRecord
100
AcDbViewportTableRecord
  2
*ACTIVE
 70
0
 10
0.0
 20
0.0
 11
1.0
 21
1.0
 12
148.5
 22
105.0
 13
0.0
 23
0.0
 14
1.0
 24
1.0
 15
0.0
 25
0.0
 16
0.0
 26
0.0
 36
1.0
 17
0.0
 27
0.0
 37
0.0
 40
210.0
 41
1.4142857143
 42
50.0
 43
0.0
 44
0.0
 50
0.0
 51
0.0
 71
0
 72
100
 73
1
 74
1
 75
0
 76
0
 77
0
 78
0
  0
ENDTAB
  0
TABLE
  2
LTYPE
  5
5
100
AcDbSymbolTable
 70
6
  0
LTYPE
  5
14
100
AcDbSymbolTableRecord
100
AcDbLinetypeTableRecord
  2
BYBLOCK
 70
0
  3

 72
65
 73
0
 40
0.0
  0
LTYPE
  5
15
100
AcDbSymbolTableRecord
100
AcDbLinetypeTableRecord
  2
BYLAYER
 70
0
  3

 72
65
 73
0
 40
0.0
  0
LTYPE
  5
16
100
AcDbSymbolTableRecord
100
AcDbLinetypeTableRecord
  2
CONTINUOUS
 70
64
  3
Solid line
 72
65
 73
0
 40
0.0
  0
LTYPE
  5
1F5
100
AcDbSymbolTableRecord
100
AcDbLinetypeTableRecord
  2
CENTER
 70
64
  3
____ _ ____ _ ____ _ ____ _ ____ _ ____ _ ____
 72
65
 73
4
 40
0.6
 49
0.375
 74
0
 49
-0.075
 74
0
 49
0.075
 74
0
 49
-0.075
 74
0
  0
LTYPE
  5
1F6
100
AcDbSymbolTableRecord
100
AcDbLinetypeTableRecord
  2
HIDDEN
 70
64
  3
- - - - - - - - - - - - - - - - - - - -
 72
65
 73
2
 40
0.2
 49
0.1
 74
0
 49
-0.1
 74
0
  0
LTYPE
  5
1F7
100
AcDbSymbolTableRecord
100
AcDbLinetypeTableRecord
  2
PHANTOM
 70
64
  3
_____ _ _ _____ _ _ _____ _ _ _____
 72
65
 73
6
 40
0.8
 49
0.45
 74
0
 49
-0.05
 74
0
 49
0.1
 74
0
 49
-0.05
 74
0
 49
0.1
 74
0
 49
-0.05
 74
0
  0
LTYPE
  5
1F8
100
AcDbSymbolTableRecord
100
AcDbLinetypeTableRecord
  2
DOT
 70
64
  3
. . . . . . . . . . . . . . . . . . . .
 72
65
 73
2
 40
0.2
 49
0.1
 74
0
 49
-0.1
 74
0
  0
LTYPE
  5
1F9
100
AcDbSymbolTableRecord
100
AcDbLinetypeTableRecord
  2
DASHED
 70
64
  3
- - - - - - - - - - - - - - - - - - - -
 72
65
 73
2
 40
0.2
 49
0.1
 74
0
 49
-0.1
 74
0
  0
ENDTAB
  0
TABLE
  2
LAYER
  5
2
100
AcDbSymbolTable
 70
36
  0
LAYER
  5
10
100
AcDbSymbolTableRecord
100
AcDbLayerTableRecord
  2
0
 70
0
 62
7
  6
CONTINUOUS
370
-3
390
F
  0
LAYER
  5
1FA
100
AcDbSymbolTableRecord
100
AcDbLayerTableRecord
  2
DEFAULT_1
 70
0
 62
7
  6
CENTER
370
-3
390
F
  0
LAYER
  5
1FB
100
AcDbSymbolTableRecord
100
AcDbLayerTableRecord
  2
DEFAULT_2
 70
0
 62
7
  6
HIDDEN
370
-3
390
F
  0
LAYER
  5
1FC
100
AcDbSymbolTableRecord
100
AcDbLayerTableRecord
  2
DEFAULT_3
 70
0
 62
7
  6
PHANTOM
370
-3
390
F
  0
LAYER
  5
1FD
100
AcDbSymbolTableRecord
100
AcDbLayerTableRecord
  2
ASSI
 70
0
 62
7
  6
CONTINUOUS
370
-3
390
F
  0
LAYER
  5
1FE
100
AcDbSymbolTableRecord
100
AcDbLayerTableRecord
  2
COORDINATE
 70
0
 62
7
  6
CONTINUOUS
370
-3
390
F
  0
LAYER
  5
1FF
100
AcDbSymbolTableRecord
100
AcDbLayerTableRecord
  2
COORD_ORIGINE
 70
0
 62
7
  6
CONTINUOUS
370
-3
390
F
  0
LAYER
  5
200
100
AcDbSymbolTableRecord
100
AcDbLayerTableRecord
  2
COPY_PUBLISH
 70
0
 62
7
  6
CONTINUOUS
370
-3
390
F
  0
LAYER
  5
201
100
AcDbSymbolTableRecord
100
AcDbLayerTableRecord
  2
COSMETIC
 70
0
 62
7
  6
CONTINUOUS
370
-3
390
F
  0
LAYER
  5
202
100
AcDbSymbolTableRecord
100
AcDbLayerTableRecord
  2
COSMETICI
 70
0
 62
7
  6
CONTINUOUS
370
-3
390
F
  0
LAYER
  5
203
100
AcDbSymbolTableRecord
100
AcDbLayerTableRecord
  2
CURVE
 70
0
 62
7
  6
CONTINUOUS
370
-3
390
F
  0
LAYER
  5
204
100
AcDbSymbolTableRecord
100
AcDbLayerTableRecord
  2
CURVE_TASSELLI
 70
0
 62
7
  6
CONTINUOUS
370
-3
390
F
  0
LAYER
  5
205
100
AcDbSymbolTableRecord
100
AcDbLayerTableRecord
  2
DRAFT
 70
0
 62
7
  6
CONTINUOUS
370
-3
390
F
  0
LAYER
  5
206
100
AcDbSymbolTableRecord
100
AcDbLayerTableRecord
  2
IMPORT_IGES
 70
0
 62
7
  6
CONTINUOUS
370
-3
390
F
  0
LAYER
  5
207
100
AcDbSymbolTableRecord
100
AcDbLayerTableRecord
  2
INTFCLR_2
 70
0
 62
7
  6
CONTINUOUS
370
-3
390
F
  0
LAYER
  5
208
100
AcDbSymbolTableRecord
100
AcDbLayerTableRecord
  2
INTFCLR_3
 70
0
 62
7
  6
CONTINUOUS
370
-3
390
F
  0
LAYER
  5
209
100
AcDbSymbolTableRecord
100
AcDbLayerTableRecord
  2
INTF_1
 70
0
 62
7
  6
CONTINUOUS
370
-3
390
F
  0
LAYER
  5
20A
100
AcDbSymbolTableRecord
100
AcDbLayerTableRecord
  2
INTF_14
 70
0
 62
7
  6
CONTINUOUS
370
-3
390
F
  0
LAYER
  5
20B
100
AcDbSymbolTableRecord
100
AcDbLayerTableRecord
  2
INTF_15
 70
0
 62
7
  6
CONTINUOUS
370
-3
390
F
  0
LAYER
  5
20C
100
AcDbSymbolTableRecord
100
AcDbLayerTableRecord
  2
INTF_18
 70
0
 62
7
  6
CONTINUOUS
370
-3
390
F
  0
LAYER
  5
20D
100
AcDbSymbolTableRecord
100
AcDbLayerTableRecord
  2
INTF_19
 70
0
 62
7
  6
CONTINUOUS
370
-3
390
F
  0
LAYER
  5
20E
100
AcDbSymbolTableRecord
100
AcDbLayerTableRecord
  2
INTF_2
 70
0
 62
7
  6
CONTINUOUS
370
-3
390
F
  0
LAYER
  5
20F
100
AcDbSymbolTableRecord
100
AcDbLayerTableRecord
  2
INTF_7
 70
0
 62
7
  6
CONTINUOUS
370
-3
390
F
  0
LAYER
  5
210
100
AcDbSymbolTableRecord
100
AcDbLayerTableRecord
  2
INTF_CYAN
 70
0
 62
7
  6
CONTINUOUS
370
-3
390
F
  0
LAYER
  5
211
100
AcDbSymbolTableRecord
100
AcDbLayerTableRecord
  2
INTF_YELLOW
 70
0
 62
7
  6
CONTINUOUS
370
-3
390
F
  0
LAYER
  5
212
100
AcDbSymbolTableRecord
100
AcDbLayerTableRecord
  2
LIVELLO_1
 70
0
 62
7
  6
CONTINUOUS
370
-3
390
F
  0
LAYER
  5
213
100
AcDbSymbolTableRecord
100
AcDbLayerTableRecord
  2
NOTE
 70
0
 62
7
  6
CONTINUOUS
370
-3
390
F
  0
LAYER
  5
214
100
AcDbSymbolTableRecord
100
AcDbLayerTableRecord
  2
PIANI
 70
0
 62
7
  6
CONTINUOUS
370
-3
390
F
  0
LAYER
  5
215
100
AcDbSymbolTableRecord
100
AcDbLayerTableRecord
  2
PIANI_ORIGINE
 70
0
 62
7
  6
CONTINUOUS
370
-3
390
F
  0
LAYER
  5
216
100
AcDbSymbolTableRecord
100
AcDbLayerTableRecord
  2
PIANI_RIFERIMENTO
 70
0
 62
7
  6
CONTINUOUS
370
-3
390
F
  0
LAYER
  5
217
100
AcDbSymbolTableRecord
100
AcDbLayerTableRecord
  2
PUNTI
 70
0
 62
7
  6
CONTINUOUS
370
-3
390
F
  0
LAYER
  5
218
100
AcDbSymbolTableRecord
100
AcDbLayerTableRecord
  2
RACCORDO
 70
0
 62
7
  6
CONTINUOUS
370
-3
390
F
  0
LAYER
  5
219
100
AcDbSymbolTableRecord
100
AcDbLayerTableRecord
  2
RGB__255__255__255__
 70
0
 62
7
  6
CONTINUOUS
370
-3
390
F
  0
LAYER
  5
21A
100
AcDbSymbolTableRecord
100
AcDbLayerTableRecord
  2
RGB____0____0____0__
 70
0
 62
7
  6
CONTINUOUS
370
-3
390
F
  0
LAYER
  5
21B
100
AcDbSymbolTableRecord
100
AcDbLayerTableRecord
  2
SIMBOLI
 70
0
 62
7
  6
CONTINUOUS
370
-3
390
F
  0
LAYER
  5
21C
100
AcDbSymbolTableRecord
100
AcDbLayerTableRecord
  2
SMUSSO
 70
0
 62
7
  6
CONTINUOUS
370
-3
390
F
  0
LAYER
  5
21D
100
AcDbSymbolTableRecord
100
AcDbLayerTableRecord
  2
SNAPLINE
 70
0
 62
7
  6
CONTINUOUS
370
-3
390
F
  0
LAYER
  5
21E
100
AcDbSymbolTableRecord
100
AcDbLayerTableRecord
  2
SUPERFICI
 70
0
 62
7
  6
CONTINUOUS
370
-3
390
F
  0
LAYER
  5
21F
100
AcDbSymbolTableRecord
100
AcDbLayerTableRecord
  2
TRASH
 70
0
 62
7
  6
CONTINUOUS
370
-3
390
F
  0
LAYER
  5
220
100
AcDbSymbolTableRecord
100
AcDbLayerTableRecord
  2
WHITE
 70
0
 62
7
  6
CONTINUOUS
370
-3
390
F
  0
LAYER
  5
221
100
AcDbSymbolTableRecord
100
AcDbLayerTableRecord
  2
XSEC_DATUMS
 70
0
 62
7
  6
CONTINUOUS
370
-3
390
F
  0
ENDTAB
  0
TABLE
  2
STYLE
  5
3
100
AcDbSymbolTable
 70
1
  0
STYLE
  5
11
100
AcDbSymbolTableRecord
100
AcDbTextStyleTableRecord
  2
STANDARD
 70
0
 40
0.0
 41
0.8
 50
0.0
 71
0
 42
0.2
  3
txt
  4

  0
STYLE
  5
222
100
AcDbSymbolTableRecord
100
AcDbTextStyleTableRecord
  2
TEXTSTYLE_1
 70
0
 40
0.0
 41
0.8
 50
0.0
 71
0
 42
0.2
  3
gdt
  4

  0
ENDTAB
  0
TABLE
  2
VIEW
  5
6
100
AcDbSymbolTable
 70
0
  0
ENDTAB
  0
TABLE
  2
UCS
  5
7
100
AcDbSymbolTable
 70
0
  0
ENDTAB
  0
TABLE
  2
APPID
  5
9
100
AcDbSymbolTable
 70
1
  0
APPID
  5
223
100
AcDbSymbolTableRecord
100
AcDbRegAppTableRecord
  2
ACAD
 70
0
  0
ENDTAB
  0
TABLE
  2
BLOCK_RECORD
  5
1
100
AcDbSymbolTable
 70
0
  0
BLOCK_RECORD
  5
224
100
AcDbSymbolTableRecord
100
AcDbBlockTableRecord
  2
*Model_Space
  0
BLOCK_RECORD
  5
225
100
AcDbSymbolTableRecord
100
AcDbBlockTableRecord
  2
*Paper_Space
  0
BLOCK_RECORD
  5
226
100
AcDbSymbolTableRecord
100
AcDbBlockTableRecord
  2
_FILLED
  0
BLOCK_RECORD
  5
227
100
AcDbSymbolTableRecord
100
AcDbBlockTableRecord
  2
*D0
  0
BLOCK_RECORD
  5
228
100
AcDbSymbolTableRecord
100
AcDbBlockTableRecord
  2
*D1
  0
BLOCK_RECORD
  5
229
100
AcDbSymbolTableRecord
100
AcDbBlockTableRecord
  2
*D2
  0
BLOCK_RECORD
  5
22A
100
AcDbSymbolTableRecord
100
AcDbBlockTableRecord
  2
*D3
  0
ENDTAB
  0
TABLE
  2
DIMSTYLE
  5
A
100
AcDbSymbolTable
 70
1
100
AcDbDimStyleTable
 71
0
  0
DIMSTYLE
105
22B
100
AcDbSymbolTableRecord
100
AcDbDimStyleTableRecord
  2
STANDARD
 70
0
  3

  4

 40
1.0
 41
3.0
 42
0.5
 43
0.38
 44
1.5
 45
0.0
 46
0.0
 47
0.01
 48
0.01
140
3.0
141
0.09
142
0.0
143
25.4
144
1.0
145
0.0
146
1.0
147
0.625
 71
1
 72
0
 73
0
 74
0
 75
0
 76
0
 77
1
 78
8
 79
2
170
0
171
1
172
0
173
0
174
0
175
0
176
0
177
0
178
0
270
2
179
2
271
2
272
2
273
2
274
2
275
0
280
0
281
0
282
0
283
1
284
8
285
0
286
0
287
3
288
0
340
11
278
44
341
226
342
226
343
226
344
226
  0
DIMSTYLE
105
22C
100
AcDbSymbolTableRecord
100
AcDbDimStyleTableRecord
  2
DIMSTYLE_1
 70
0
  3

  4

 40
1.0
 41
3.0
 42
0.5
 43
0.38
 44
1.5
 45
0.0
 46
0.0
 47
0.0
 48
0.0
140
3.0
141
0.09
142
0.0
143
25.4
144
1.0
145
0.0
146
1.0
147
0.75
 71
0
 72
0
 73
0
 74
0
 75
0
 76
0
 77
1
 78
8
 79
2
170
0
171
1
172
0
173
0
174
0
175
0
176
0
177
0
178
0
270
2
179
2
271
2
272
2
273
2
274
2
275
0
280
0
281
0
282
0
283
1
284
8
285
0
286
0
287
3
288
0
340
11
278
44
341
226
342
226
343
226
344
226
  0
ENDTAB
  0
ENDSEC
  0
SECTION
  2
BLOCKS
  0
BLOCK
  5
20
100
AcDbEntity
  8
0
100
AcDbBlockBegin
  2
*Model_Space
 70
0
 10
0.0
 20
0.0
 30
0.0
  3
*Model_Space
  1

  0
ENDBLK
  5
21
100
AcDbEntity
  8
0
100
AcDbBlockEnd
  0
BLOCK
  5
1C
100
AcDbEntity
  8
0
100
AcDbBlockBegin
  2
*Paper_Space
 70
0
 10
0.0
 20
0.0
 30
0.0
  3
*Paper_Space
  1

  0
ENDBLK
  5
1D
100
AcDbEntity
  8
0
100
AcDbBlockEnd
  0
BLOCK
  5
22D
100
AcDbEntity
  8
0
100
AcDbBlockBegin
  2
_FILLED
 70
64
 10
0.0
 20
0.0
  3
_FILLED
  1

  0
SOLID
  5
22E
100
AcDbEntity
  8
0
  6
BYBLOCK
 62
0
100
AcDbTrace
 10
0.0
 20
0.0
 11
-1.0
 21
0.3166666667
 12
-1.0
 22
-0.3166666667
 13
-1.0
 23
-0.3166666667
  0
ENDBLK
  5
22F
100
AcDbEntity
  8
0
  6
BYBLOCK
 62
0
100
AcDbBlockEnd
  0
BLOCK
  5
230
100
AcDbEntity
  8
0
100
AcDbBlockBegin
 62
7
  6
CONTINUOUS
  2
*D0
 70
65
 10
0.0
 20
0.0
  3
*D0
  1

  0
MTEXT
  5
231
100
AcDbEntity
  8
0
100
AcDbMText
 62
7
  6
CONTINUOUS
  7
STANDARD
 71
2
 72
1
 10
-0.05
 20
56.75
 30
0.0
 11
1.0
 21
0.0
 31
0.0
 73
2
 44
0.9
  1
{\ftxt;\W0.0001;\H0.0001;\~}{\ftxt;\W1.5714285714;\H3.0; }{\ftxt;\W0.0001;\H0.0001;\~}
 40
3.0
 41
7.0714285714
  0
LINE
  5
232
100
AcDbEntity
  8
0
100
AcDbLine
 62
7
  6
CONTINUOUS
 10
-45.05
 20
44.5
 11
-45.05
 21
54.5
  0
LINE
  5
233
100
AcDbEntity
  8
0
100
AcDbLine
 62
7
  6
CONTINUOUS
 10
44.95
 20
44.5
 11
44.95
 21
54.5
  0
LINE
  5
234
100
AcDbEntity
  8
0
100
AcDbLine
 62
7
  6
CONTINUOUS
 10
-45.05
 20
53.0
 11
-0.05
 21
53.0
  0
LINE
  5
235
100
AcDbEntity
  8
0
100
AcDbLine
 62
7
  6
CONTINUOUS
 10
44.95
 20
53.0
 11
-0.05
 21
53.0
  0
INSERT
  5
236
100
AcDbEntity
  8
0
100
AcDbBlockReference
 62
7
  6
CONTINUOUS
  2
_FILLED
 10
-45.05
 20
53.0
 41
3.0
 42
3.0
 43
3.0
 50
180.0
  0
INSERT
  5
237
100
AcDbEntity
  8
0
100
AcDbBlockReference
 62
7
  6
CONTINUOUS
  2
_FILLED
 10
44.95
 20
53.0
 41
3.0
 42
3.0
 43
3.0
  0
ENDBLK
  5
238
100
AcDbEntity
  8
0
  6
BYBLOCK
 62
0
100
AcDbBlockEnd
  0
BLOCK
  5
239
100
AcDbEntity
  8
0
100
AcDbBlockBegin
 62
7
  6
CONTINUOUS
  2
*D1
 70
65
 10
0.0
 20
0.0
  3
*D1
  1

  0
MTEXT
  5
23A
100
AcDbEntity
  8
0
100
AcDbMText
 62
7
  6
CONTINUOUS
  7
STANDARD
 71
2
 72
1
 10
49.3
 20
0.0
 30
0.0
 11
0.0
 21
1.0
 31
0.0
 73
2
 44
0.9
  1
{\ftxt;\W0.0001;\H0.0001;\~}{\ftxt;\W1.5714285714;\H3.0; }{\ftxt;\W0.0001;\H0.0001;\~}
 40
3.0
 41
7.0714285714
  0
LINE
  5
23B
100
AcDbEntity
  8
0
100
AcDbLine
 62
7
  6
CONTINUOUS
 10
44.45
 20
45.0
 11
54.55
 21
45.0
  0
LINE
  5
23C
100
AcDbEntity
  8
0
100
AcDbLine
 62
7
  6
CONTINUOUS
 10
44.45
 20
-45.0
 11
54.55
 21
-45.0
  0
LINE
  5
23D
100
AcDbEntity
  8
0
100
AcDbLine
 62
7
  6
CONTINUOUS
 10
53.05
 20
45.0
 11
53.05
 21
0.0
  0
LINE
  5
23E
100
AcDbEntity
  8
0
100
AcDbLine
 62
7
  6
CONTINUOUS
 10
53.05
 20
-45.0
 11
53.05
 21
0.0
  0
INSERT
  5
23F
100
AcDbEntity
  8
0
100
AcDbBlockReference
 62
7
  6
CONTINUOUS
  2
_FILLED
 10
53.05
 20
45.0
 41
3.0
 42
3.0
 43
3.0
 50
90.0
  0
INSERT
  5
240
100
AcDbEntity
  8
0
100
AcDbBlockReference
 62
7
  6
CONTINUOUS
  2
_FILLED
 10
53.05
 20
-45.0
 41
3.0
 42
3.0
 43
3.0
 50
270.0
  0
ENDBLK
  5
241
100
AcDbEntity
  8
0
  6
BYBLOCK
 62
0
100
AcDbBlockEnd
  0
BLOCK
  5
242
100
AcDbEntity
  8
0
100
AcDbBlockBegin
 62
7
  6
CONTINUOUS
  2
*D2
 70
65
 10
0.0
 20
0.0
  3
*D2
  1

  0
MTEXT
  5
243
100
AcDbEntity
  8
0
100
AcDbMText
 62
7
  6
CONTINUOUS
  7
STANDARD
 71
3
 72
1
 10
-78.1066938379
 20
66.75
 30
0.0
 11
1.0
 21
0.0
 31
0.0
 73
2
 44
0.9
  1
{\ftxt;\W0.0001;\H0.0001;\~}{\ftxt;\W3.1428571429;\H3.0; }{\ftxt;\W0.0001;\H0.0001;\~}
 40
3.0
 41
14.1428571429
  0
LINE
  5
244
100
AcDbEntity
  8
0
100
AcDbLine
 62
7
  6
CONTINUOUS
 10
-76.4794787258
 20
44.5
 11
-76.4794787258
 21
64.5
  0
LINE
  5
245
100
AcDbEntity
  8
0
100
AcDbLine
 62
7
  6
CONTINUOUS
 10
-64.9294787258
 20
26.4903260329
 11
-64.9294787258
 21
64.5
  0
LINE
  5
246
100
AcDbEntity
  8
0
100
AcDbLine
 62
7
  6
CONTINUOUS
 10
-76.4794787258
 20
63.0
 11
-70.7044787258
 21
63.0
  0
LINE
  5
247
100
AcDbEntity
  8
0
100
AcDbLine
 62
7
  6
CONTINUOUS
 10
-70.7044787258
 20
63.0
 11
-87.5352652665
 21
63.0
  0
LINE
  5
248
100
AcDbEntity
  8
0
100
AcDbLine
 62
7
  6
CONTINUOUS
 10
-64.9294787258
 20
63.0
 11
-70.7044787258
 21
63.0
  0
INSERT
  5
249
100
AcDbEntity
  8
0
100
AcDbBlockReference
 62
7
  6
CONTINUOUS
  2
_FILLED
 10
-76.4794787258
 20
63.0
 41
3.0
 42
3.0
 43
3.0
 50
180.0
  0
INSERT
  5
24A
100
AcDbEntity
  8
0
100
AcDbBlockReference
 62
7
  6
CONTINUOUS
  2
_FILLED
 10
-64.9294787258
 20
63.0
 41
3.0
 42
3.0
 43
3.0
  0
ENDBLK
  5
24B
100
AcDbEntity
  8
0
  6
BYBLOCK
 62
0
100
AcDbBlockEnd
  0
BLOCK
  5
24C
100
AcDbEntity
  8
0
100
AcDbBlockBegin
 62
7
  6
CONTINUOUS
  2
*D3
 70
65
 10
0.0
 20
0.0
  3
*D3
  1

  0
MTEXT
  5
24D
100
AcDbEntity
  8
0
100
AcDbMText
 62
7
  6
CONTINUOUS
  7
STANDARD
 71
3
 72
1
 10
-77.8757847711
 20
56.75
 30
0.0
 11
1.0
 21
0.0
 31
0.0
 73
2
 44
0.9
  1
{\ftxt;\W0.0001;\H0.0001;\~}{\ftxt;\W2.7857142857;\H3.0; }{\ftxt;\W0.0001;\H0.0001;\~}
 40
3.0
 41
12.5357142857
  0
LINE
  5
24E
100
AcDbEntity
  8
0
100
AcDbLine
 62
7
  6
CONTINUOUS
 10
-67.9294787258
 20
43.5383103281
 11
-67.9294787258
 21
54.5
  0
LINE
  5
24F
100
AcDbEntity
  8
0
100
AcDbLine
 62
7
  6
CONTINUOUS
 10
-76.4794787258
 20
44.5
 11
-76.4794787258
 21
54.5
  0
LINE
  5
250
100
AcDbEntity
  8
0
100
AcDbLine
 62
7
  6
CONTINUOUS
 10
-67.9294787258
 20
53.0
 11
-72.2044787258
 21
53.0
  0
LINE
  5
251
100
AcDbEntity
  8
0
100
AcDbLine
 62
7
  6
CONTINUOUS
 10
-76.4794787258
 20
53.0
 11
-72.2044787258
 21
53.0
  0
LINE
  5
252
100
AcDbEntity
  8
0
100
AcDbLine
 62
7
  6
CONTINUOUS
 10
-72.2044787258
 20
53.0
 11
-86.2329276282
 21
53.0
  0
INSERT
  5
253
100
AcDbEntity
  8
0
100
AcDbBlockReference
 62
7
  6
CONTINUOUS
  2
_FILLED
 10
-67.9294787258
 20
53.0
 41
3.0
 42
3.0
 43
3.0
  0
INSERT
  5
254
100
AcDbEntity
  8
0
100
AcDbBlockReference
 62
7
  6
CONTINUOUS
  2
_FILLED
 10
-76.4794787258
 20
53.0
 41
3.0
 42
3.0
 43
3.0
 50
180.0
  0
ENDBLK
  5
255
100
AcDbEntity
  8
0
  6
BYBLOCK
 62
0
100
AcDbBlockEnd
  0
ENDSEC
  0
SECTION
  2
ENTITIES
  0
DIMENSION
  5
256
100
AcDbEntity
  8
0
100
AcDbDimension
 62
7
  6
CONTINUOUS
  2
*D0
 10
44.95
 20
53.0
 11
-0.4785714633
 21
53.0
 70
160
 71
2
 72
2
 41
0.9
 42
90.0
  1
{\ftxt;\W0.0001;\H0.0001;\~}{\ftxt;\W1.5714285714;\H3.0; }{\ftxt;\W0.0001;\H0.0001;\~}
  3
DIMSTYLE_1
100
AcDbAlignedDimension
 13
-45.05
 23
44.0
 14
44.95
 24
44.0
100
AcDbRotatedDimension
  0
DIMENSION
  5
257
100
AcDbEntity
  8
0
100
AcDbDimension
 62
7
  6
CONTINUOUS
  2
*D1
 10
53.05
 20
-45.0
 11
53.05
 21
-0.4285733305
 70
160
 71
2
 72
2
 41
0.9
 42
90.0
  1
{\ftxt;\W0.0001;\H0.0001;\~}{\ftxt;\W1.5714285714;\H3.0; }{\ftxt;\W0.0001;\H0.0001;\~}
  3
DIMSTYLE_1
100
AcDbAlignedDimension
 13
43.95
 23
45.0
 14
43.95
 24
-45.0
 50
270.0
100
AcDbRotatedDimension
  0
DIMENSION
  5
258
100
AcDbEntity
  8
0
100
AcDbDimension
 62
7
  6
CONTINUOUS
  2
*D2
 10
-64.9294787258
 20
63.0
 11
-83.2495495605
 21
63.0
 70
160
 71
3
 72
2
 41
0.9
 42
11.55
  1
{\ftxt;\W0.0001;\H0.0001;\~}{\ftxt;\W3.1428571429;\H3.0; }{\ftxt;\W0.0001;\H0.0001;\~}
  3
DIMSTYLE_1
100
AcDbAlignedDimension
 13
-76.4794787258
 23
44.0
 14
-64.9294787258
 24
25.9903260329
100
AcDbRotatedDimension
  0
DIMENSION
  5
259
100
AcDbEntity
  8
0
100
AcDbDimension
 62
7
  6
CONTINUOUS
  2
*D3
 10
-76.4794787258
 20
53.0
 11
-82.4829264679
 21
53.0
 70
160
 71
3
 72
2
 41
0.9
 42
8.55
  1
{\ftxt;\W0.0001;\H0.0001;\~}{\ftxt;\W2.7857142857;\H3.0; }{\ftxt;\W0.0001;\H0.0001;\~}
  3
DIMSTYLE_1
100
AcDbAlignedDimension
 13
-67.9294787258
 23
43.0383103281
 14
-76.4794787258
 24
44.0
 50
180.0
100
AcDbRotatedDimension
  0
LINE
  5
25A
100
AcDbEntity
  8
SMUSSO
100
AcDbLine
 62
7
  6
CONTINUOUS
 10
-45.05
 20
44.0
 11
-44.05
 21
45.0
  0
LINE
  5
25B
100
AcDbEntity
  8
SMUSSO
100
AcDbLine
 62
7
  6
CONTINUOUS
 10
-44.05
 20
-45.0
 11
-45.05
 21
-44.0
  0
LINE
  5
25C
100
AcDbEntity
  8
SMUSSO
100
AcDbLine
 62
7
  6
CONTINUOUS
 10
-45.05
 20
44.0
 11
-45.05
 21
-44.0
  0
LINE
  5
25D
100
AcDbEntity
  8
SMUSSO
100
AcDbLine
 62
7
  6
CONTINUOUS
 10
-44.05
 20
44.0
 11
-44.05
 21
-44.0
  0
LINE
  5
25E
100
AcDbEntity
  8
SMUSSO
100
AcDbLine
 62
7
  6
CONTINUOUS
 10
-44.05
 20
-45.0
 11
43.95
 21
-45.0
  0
LINE
  5
25F
100
AcDbEntity
  8
SMUSSO
100
AcDbLine
 62
7
  6
CONTINUOUS
 10
-44.05
 20
-44.0
 11
43.95
 21
-44.0
  0
LWPOLYLINE
  5
260
100
AcDbEntity
  8
0
100
AcDbPolyline
 62
7
  6
CONTINUOUS
 90
10
 70
0
 43
0.3500000006
 10
-1.9785714254
 20
53.7499979553
 10
-1.1214286001
 20
54.6071449585
 10
-0.9071428406
 20
55.4642874298
 10
-0.9071428406
 20
56.3214299011
 10
-1.3357142887
 20
56.7499988708
 10
-1.9785714254
 20
56.7499988708
 10
-2.4071429443
 20
56.3214299011
 10
-2.4071429443
 20
55.4642874298
 10
-1.9785714254
 20
55.0357139282
 10
-1.0499999664
 20
55.0357139282
  0
LINE
  5
261
100
AcDbEntity
  8
0
100
AcDbLine
 62
7
  6
CONTINUOUS
 10
-23.15
 20
-21.4
 11
-23.15
 21
21.4
  0
LINE
  5
262
100
AcDbEntity
  8
0
100
AcDbLine
 62
7
  6
CONTINUOUS
 10
-22.65
 20
-21.4
 11
-22.65
 21
21.4
  0
LINE
  5
263
100
AcDbEntity
  8
0
100
AcDbLine
 62
250
  6
CONTINUOUS
 10
-21.45
 20
23.1
 11
-21.45
 21
22.6
  0
LINE
  5
264
100
AcDbEntity
  8
0
100
AcDbLine
 62
250
  6
CONTINUOUS
 10
-21.45
 20
-23.1
 11
-21.45
 21
-22.6
  0
LINE
  5
265
100
AcDbEntity
  8
0
100
AcDbLine
 62
7
  6
CONTINUOUS
 10
21.35
 20
-23.1
 11
-21.45
 21
-23.1
  0
LINE
  5
266
100
AcDbEntity
  8
0
100
AcDbLine
 62
7
  6
CONTINUOUS
 10
21.35
 20
-22.6
 11
-21.45
 21
-22.6
  0
LINE
  5
267
100
AcDbEntity
  8
0
100
AcDbLine
 62
250
  6
CONTINUOUS
 10
-23.15
 20
-21.4
 11
-22.65
 21
-21.4
  0
LINE
  5
268
100
AcDbEntity
  8
0
100
AcDbLine
 62
250
  6
CONTINUOUS
 10
23.05
 20
-21.4
 11
22.55
 21
-21.4
  0
LWPOLYLINE
  5
269
100
AcDbEntity
  8
0
100
AcDbPolyline
 62
7
  6
CONTINUOUS
 90
13
 70
0
 43
0.3500000006
 10
-0.050000002
 20
54.6071449585
 10
-0.050000002
 20
55.8928609314
 10
0.1642857088
 20
56.3214299011
 10
0.5928571569
 20
56.7499988708
 10
0.8071428809
 20
56.7499988708
 10
1.2357142582
 20
56.3214299011
 10
1.4500000176
 20
55.8928609314
 10
1.4500000176
 20
54.6071449585
 10
1.2357142582
 20
54.1785714569
 10
0.8071428809
 20
53.7499979553
 10
0.5928571569
 20
53.7499979553
 10
0.1642857088
 20
54.1785714569
 10
-0.050000002
 20
54.6071449585
  0
LINE
  5
26A
100
AcDbEntity
  8
SMUSSO
100
AcDbLine
 62
7
  6
CONTINUOUS
 10
44.45
 20
44.5
 11
43.95
 21
44.0
  0
LINE
  5
26B
100
AcDbEntity
  8
SMUSSO
100
AcDbLine
 62
7
  6
CONTINUOUS
 10
-44.05
 20
-44.0
 11
-44.55
 21
-44.5
  0
LWPOLYLINE
  5
26C
100
AcDbEntity
  8
0
100
AcDbPolyline
 62
7
  6
CONTINUOUS
 90
13
 70
0
 43
0.3500000006
 10
51.4428553619
 20
-0.0000003204
 10
50.1571439209
 20
-0.0000003204
 10
49.7285704193
 20
0.2142864304
 10
49.3000014496
 20
0.642857666
 10
49.3000014496
 20
0.8571421509
 10
49.7285704193
 20
1.2857133865
 10
50.1571439209
 20
1.5000001373
 10
51.4428553619
 20
1.5000001373
 10
51.8714288635
 20
1.2857133865
 10
52.2999978333
 20
0.8571421509
 10
52.2999978333
 20
0.642857666
 10
51.8714288635
 20
0.2142864304
 10
51.4428553619
 20
-0.0000003204
  0
LINE
  5
26D
100
AcDbEntity
  8
SMUSSO
100
AcDbLine
 62
7
  6
CONTINUOUS
 10
-44.55
 20
44.5
 11
-44.05
 21
44.0
  0
LINE
  5
26E
100
AcDbEntity
  8
SMUSSO
100
AcDbLine
 62
7
  6
CONTINUOUS
 10
44.45
 20
-44.5
 11
43.95
 21
-44.0
  0
LINE
  5
26F
100
AcDbEntity
  8
0
100
AcDbLine
 62
250
  6
CONTINUOUS
 10
21.35
 20
23.1
 11
21.35
 21
22.6
  0
LINE
  5
270
100
AcDbEntity
  8
0
100
AcDbLine
 62
250
  6
CONTINUOUS
 10
21.35
 20
-23.1
 11
21.35
 21
-22.6
  0
LINE
  5
271
100
AcDbEntity
  8
0
100
AcDbLine
 62
250
  6
CONTINUOUS
 10
-23.15
 20
21.4
 11
-22.65
 21
21.4
  0
LINE
  5
272
100
AcDbEntity
  8
0
100
AcDbLine
 62
250
  6
CONTINUOUS
 10
23.05
 20
21.4
 11
22.55
 21
21.4
  0
LINE
  5
273
100
AcDbEntity
  8
0
100
AcDbLine
 62
7
  6
CONTINUOUS
 10
22.55
 20
21.4
 11
22.55
 21
-21.4
  0
LINE
  5
274
100
AcDbEntity
  8
0
100
AcDbLine
 62
7
  6
CONTINUOUS
 10
23.05
 20
21.4
 11
23.05
 21
-21.4
  0
LINE
  5
275
100
AcDbEntity
  8
0
100
AcDbLine
 62
7
  6
CONTINUOUS
 10
-21.45
 20
22.6
 11
21.35
 21
22.6
  0
LINE
  5
276
100
AcDbEntity
  8
0
100
AcDbLine
 62
7
  6
CONTINUOUS
 10
-21.45
 20
23.1
 11
21.35
 21
23.1
  0
LWPOLYLINE
  5
277
100
AcDbEntity
  8
0
100
AcDbPolyline
 62
7
  6
CONTINUOUS
 90
10
 70
0
 43
0.3500000006
 10
52.2999978333
 20
-1.9285708809
 10
51.4428553619
 20
-1.0714295425
 10
50.5857128906
 20
-0.8571427917
 10
49.7285704193
 20
-0.8571427917
 10
49.3000014496
 20
-1.2857140274
 10
49.3000014496
 20
-1.9285708809
 10
49.7285704193
 20
-2.3571432495
 10
50.5857128906
 20
-2.3571432495
 10
51.0142863922
 20
-1.9285708809
 10
51.0142863922
 20
-1.0000006256
  0
LINE
  5
278
100
AcDbEntity
  8
SMUSSO
100
AcDbLine
 62
7
  6
CONTINUOUS
 10
43.95
 20
-44.0
 11
43.95
 21
44.0
  0
LINE
  5
279
100
AcDbEntity
  8
SMUSSO
100
AcDbLine
 62
7
  6
CONTINUOUS
 10
44.95
 20
-44.0
 11
44.95
 21
44.0
  0
LINE
  5
27A
100
AcDbEntity
  8
SMUSSO
100
AcDbLine
 62
7
  6
CONTINUOUS
 10
43.95
 20
44.0
 11
-44.05
 21
44.0
  0
LINE
  5
27B
100
AcDbEntity
  8
SMUSSO
100
AcDbLine
 62
7
  6
CONTINUOUS
 10
43.95
 20
45.0
 11
-44.05
 21
45.0
  0
LINE
  5
27C
100
AcDbEntity
  8
SMUSSO
100
AcDbLine
 62
7
  6
CONTINUOUS
 10
44.95
 20
-44.0
 11
43.95
 21
-45.0
  0
LINE
  5
27D
100
AcDbEntity
  8
SMUSSO
100
AcDbLine
 62
7
  6
CONTINUOUS
 10
43.95
 20
45.0
 11
44.95
 21
44.0
  0
LWPOLYLINE
  5
27E
100
AcDbEntity
  8
0
100
AcDbPolyline
 62
7
  6
CONTINUOUS
 90
3
 70
0
 43
0.3500000006
 10
-87.535266449
 20
65.8928549194
 10
-86.6781194458
 20
66.7500019226
 10
-86.6781194458
 20
63.7500010071
  0
LWPOLYLINE
  5
27F
100
AcDbEntity
  8
0
100
AcDbPolyline
 62
7
  6
CONTINUOUS
 90
3
 70
0
 43
0.3500000006
 10
-85.8209815063
 20
65.8928549194
 10
-84.9638345032
 20
66.7500019226
 10
-84.9638345032
 20
63.7500010071
  0
LINE
  5
280
100
AcDbEntity
  8
SMUSSO
100
AcDbLine
 62
7
  6
CONTINUOUS
 10
-75.4794787258
 20
-45.0
 11
-72.9794787258
 21
-45.0
  0
LINE
  5
281
100
AcDbEntity
  8
0
100
AcDbLine
 62
250
  6
CONTINUOUS
 10
-69.4284350805
 20
-43.3404067067
 11
-67.9294787258
 21
-43.0383103281
  0
LINE
  5
282
100
AcDbEntity
  8
ASSI
100
AcDbLine
 62
250
  6
CONTINUOUS
 10
-69.4284350805
 20
-43.3404067067
 11
-67.9294787258
 21
-43.0383103281
  0
LINE
  5
283
100
AcDbEntity
  8
0
100
AcDbLine
 62
7
  6
CONTINUOUS
 10
-72.3294787258
 20
-44.3506196883
 11
-69.4294787258
 21
-44.3
  0
LINE
  5
284
100
AcDbEntity
  8
ASSI
100
AcDbLine
 62
7
  6
CONTINUOUS
 10
-72.3294787258
 20
-44.3506196883
 11
-69.4294787258
 21
-44.3
  0
LINE
  5
285
100
AcDbEntity
  8
SMUSSO
100
AcDbLine
 62
7
  6
CONTINUOUS
 10
-75.4794787258
 20
-44.0
 11
-72.9794787258
 21
-44.0
  0
LINE
  5
286
100
AcDbEntity
  8
0
100
AcDbLine
 62
250
  6
CONTINUOUS
 10
-72.3294787258
 20
-43.3
 11
-69.4294787258
 21
-43.3
  0
LINE
  5
287
100
AcDbEntity
  8
ASSI
100
AcDbLine
 62
250
  6
CONTINUOUS
 10
-72.3294787258
 20
-43.3
 11
-69.4294787258
 21
-43.3
  0
LINE
  5
288
100
AcDbEntity
  8
RACCORDO
100
AcDbLine
 62
7
  6
CONTINUOUS
 10
-72.3294787258
 20
-40.0
 11
-72.4794787258
 21
-40.0
  0
LINE
  5
289
100
AcDbEntity
  8
RACCORDO
100
AcDbLine
 62
250
  6
CONTINUOUS
 10
-72.3294787258
 20
-38.0
 11
-72.4794787258
 21
-38.0
  0
LINE
  5
28A
100
AcDbEntity
  8
0
100
AcDbLine
 62
250
  6
CONTINUOUS
 10
-69.9109847258
 20
-36.161141
 11
-71.8109447258
 21
-36.161141
  0
LINE
  5
28B
100
AcDbEntity
  8
SMUSSO
100
AcDbLine
 62
7
  6
CONTINUOUS
 10
-75.4794787258
 20
45.0
 11
-76.4794787258
 21
44.0
  0
LINE
  5
28C
100
AcDbEntity
  8
0
100
AcDbLine
 62
250
  6
CONTINUOUS
 10
-70.5031077258
 20
-37.077819
 11
-71.8108307258
 21
-37.439964
  0
LINE
  5
28D
100
AcDbEntity
  8
0
100
AcDbLine
 62
250
  6
CONTINUOUS
 10
-69.9109847258
 20
-33.624309
 11
-71.8108307258
 21
-33.801966
  0
LINE
  5
28E
100
AcDbEntity
  8
0
100
AcDbLine
 62
250
  6
CONTINUOUS
 10
-71.1463767258
 20
-34.093739
 11
-69.9109847258
 21
-34.012262
  0
LINE
  5
28F
100
AcDbEntity
  8
0
100
AcDbLine
 62
250
  6
CONTINUOUS
 10
-71.8109447258
 20
-35.764569
 11
-69.9109847258
 21
-35.764569
  0
LINE
  5
290
100
AcDbEntity
  8
0
100
AcDbLine
 62
250
  6
CONTINUOUS
 10
-69.9109847258
 20
-35.171691
 11
-71.1515487258
 21
-35.08611
  0
LINE
  5
291
100
AcDbEntity
  8
0
100
AcDbLine
 62
250
  6
CONTINUOUS
 10
-71.8108307258
 20
-35.379536
 11
-69.9109847258
 21
-35.551081
  0
LINE
  5
292
100
AcDbEntity
  8
0
100
AcDbLine
 62
250
  6
CONTINUOUS
 10
-71.8108307258
 20
-36.704611
 11
-70.5031077258
 21
-37.077819
  0
LINE
  5
293
100
AcDbEntity
  8
0
100
AcDbLine
 62
250
  6
CONTINUOUS
 10
-69.9109847258
 20
-36.918996
 11
-71.8108307258
 21
-36.30831
  0
LINE
  5
294
100
AcDbEntity
  8
SMUSSO
100
AcDbLine
 62
7
  6
CONTINUOUS
 10
-75.4794787258
 20
-45.0
 11
-76.4794787258
 21
-44.0
  0
LWPOLYLINE
  5
295
100
AcDbEntity
  8
0
100
AcDbPolyline
 62
7
  6
CONTINUOUS
 90
3
 70
0
 43
0.3500000006
 10
-83.3924119263
 20
64.0357166748
 10
-83.4638340454
 20
63.8214321899
 10
-83.6066964111
 20
63.5357165222
  0
LINE
  5
296
100
AcDbEntity
  8
SMUSSO
100
AcDbLine
 62
7
  6
CONTINUOUS
 10
-72.9794787258
 20
44.0
 11
-72.4794787258
 21
44.5
  0
LINE
  5
297
100
AcDbEntity
  8
0
100
AcDbLine
 62
250
  6
CONTINUOUS
 10
-70.2902617258
 20
-32.520272
 11
-69.9109847258
 21
-32.417539
  0
LINE
  5
298
100
AcDbEntity
  8
0
100
AcDbLine
 62
250
  6
CONTINUOUS
 10
-71.2888017258
 20
-32.781757
 11
-70.5837447258
 21
-32.599527
  0
LINE
  5
299
100
AcDbEntity
  8
0
100
AcDbLine
 62
250
  6
CONTINUOUS
 10
-69.9109849798
 20
-31.8831153973
 11
-71.7886341845
 21
-31.8831153973
  0
LINE
  5
29A
100
AcDbEntity
  8
0
100
AcDbLine
 62
250
  6
CONTINUOUS
 10
-71.487173149
 20
-31.5012884969
 11
-70.9656284616
 21
-31.5012884969
  0
LINE
  5
29B
100
AcDbEntity
  8
0
100
AcDbLine
 62
250
  6
CONTINUOUS
 10
-70.6544796423
 20
-31.4881387551
 11
-69.9109849798
 21
-31.4881387551
  0
LINE
  5
29C
100
AcDbEntity
  8
0
100
AcDbLine
 62
250
  6
CONTINUOUS
 10
-70.8090425333
 20
-30.8635473914
 11
-70.7978161016
 21
-30.8635473914
  0
LINE
  5
29D
100
AcDbEntity
  8
0
100
AcDbLine
 62
250
  6
CONTINUOUS
 10
-70.5837447258
 20
-32.979217
 11
-71.2888017258
 21
-32.781757
  0
LINE
  5
29E
100
AcDbEntity
  8
0
100
AcDbLine
 62
250
  6
CONTINUOUS
 10
-69.9109847258
 20
-33.169767
 11
-70.2902617258
 21
-33.060338
  0
LINE
  5
29F
100
AcDbEntity
  8
0
100
AcDbLine
 62
250
  6
CONTINUOUS
 10
-71.8108307258
 20
-32.966124
 11
-69.9109847258
 21
-33.562037
  0
LINE
  5
2A0
100
AcDbEntity
  8
0
100
AcDbLine
 62
250
  6
CONTINUOUS
 10
-71.8108307258
 20
-34.194336
 11
-70.7560307258
 21
-34.590908
  0
LINE
  5
2A1
100
AcDbEntity
  8
0
100
AcDbLine
 62
250
  6
CONTINUOUS
 10
-69.9109847258
 20
-34.565264
 11
-71.1463767258
 21
-34.093739
  0
LINE
  5
2A2
100
AcDbEntity
  8
SMUSSO
100
AcDbLine
 62
7
  6
CONTINUOUS
 10
-72.4794787258
 20
-44.5
 11
-72.9794787258
 21
-44.0
  0
LWPOLYLINE
  5
2A3
100
AcDbEntity
  8
0
100
AcDbPolyline
 62
7
  6
CONTINUOUS
 90
3
 70
0
 43
0.3500000006
 10
-83.1614955139
 20
54.035713623
 10
-83.2329266968
 20
53.8214291382
 10
-83.3757890625
 20
53.5357134705
  0
LINE
  5
2A4
100
AcDbEntity
  8
0
100
AcDbLine
 62
7
  6
CONTINUOUS
 10
-67.003641528
 20
-27.1501294386
 11
-67.9294787258
 21
-27.151745331
  0
LINE
  5
2A5
100
AcDbEntity
  8
ASSI
100
AcDbLine
 62
7
  6
CONTINUOUS
 10
-67.003641528
 20
-27.1501294386
 11
-67.9294787258
 21
-27.151745331
  0
LINE
  5
2A6
100
AcDbEntity
  8
0
100
AcDbLine
 62
250
  6
CONTINUOUS
 10
-67.0037061421
 20
-26.9276792439
 11
-67.9294787258
 21
-26.9280974384
  0
LINE
  5
2A7
100
AcDbEntity
  8
ASSI
100
AcDbLine
 62
250
  6
CONTINUOUS
 10
-67.0037061421
 20
-26.9276792439
 11
-67.9294787258
 21
-26.9280974384
  0
LWPOLYLINE
  5
2A8
100
AcDbEntity
  8
0
100
AcDbPolyline
 62
7
  6
CONTINUOUS
 90
15
 70
0
 10
-65.9694885043
 20
-26.5286213358
 10
-65.9453789418
 20
-26.5279581567
 10
-65.9167753364
 20
-26.5265775764
 10
-65.8886848445
 20
-26.5245969308
 10
-65.8612406382
 20
-26.5220515959
 10
-65.834359392
 20
-26.5189324224
 10
-65.8081070882
 20
-26.5152401003
 10
-65.7827754876
 20
-26.5109942597
 10
-65.7583284577
 20
-26.5061589295
 10
-65.7346785783
 20
-26.50066737
 10
-65.7118256918
 20
-26.4944117681
 10
-65.6892616152
 20
-26.4871213878
 10
-65.6670968335
 20
-26.4785433663
 10
-65.6461304162
 20
-26.468740188
 10
-65.6420666973
 20
-26.4666186077
  0
LWPOLYLINE
  5
2A9
100
AcDbEntity
  8
ASSI
100
AcDbPolyline
 62
7
  6
CONTINUOUS
 90
15
 70
0
 10
-65.9694885043
 20
-26.5286213358
 10
-65.9453789414
 20
-26.5279581566
 10
-65.9167753352
 20
-26.5265775763
 10
-65.8886848417
 20
-26.5245969306
 10
-65.8612406335
 20
-26.5220515955
 10
-65.8343593858
 20
-26.5189324216
 10
-65.8081070807
 20
-26.5152400991
 10
-65.7827754789
 20
-26.5109942582
 10
-65.7583284473
 20
-26.5061589272
 10
-65.7346785659
 20
-26.500667367
 10
-65.7118256784
 20
-26.4944117642
 10
-65.6892616021
 20
-26.4871213827
 10
-65.6670968201
 20
-26.4785433603
 10
-65.6461304021
 20
-26.4687401807
 10
-65.6420666996
 20
-26.4666186089
  0
LINE
  5
2AA
100
AcDbEntity
  8
0
100
AcDbLine
 62
7
  6
CONTINUOUS
 10
-67.9294787258
 20
-26.5637861501
 11
-65.9694883879
 21
-26.5286213375
  0
LINE
  5
2AB
100
AcDbEntity
  8
ASSI
100
AcDbLine
 62
7
  6
CONTINUOUS
 10
-67.9294787258
 20
-26.5637861501
 11
-65.9694883879
 21
-26.5286213375
  0
LINE
  5
2AC
100
AcDbEntity
  8
0
100
AcDbLine
 62
7
  6
CONTINUOUS
 10
-66.9793543469
 20
-25.2
 11
-67.9294787258
 21
-25.2
  0
LINE
  5
2AD
100
AcDbEntity
  8
ASSI
100
AcDbLine
 62
7
  6
CONTINUOUS
 10
-66.9793543469
 20
-25.2
 11
-67.9294787258
 21
-25.2
  0
LINE
  5
2AE
100
AcDbEntity
  8
0
100
AcDbLine
 62
7
  6
CONTINUOUS
 10
-67.9294787258
 20
-25.05
 11
-67.7794787258
 21
-25.05
  0
LINE
  5
2AF
100
AcDbEntity
  8
ASSI
100
AcDbLine
 62
7
  6
CONTINUOUS
 10
-67.9294787258
 20
-25.05
 11
-67.7794787258
 21
-25.05
  0
LINE
  5
2B0
100
AcDbEntity
  8
0
100
AcDbLine
 62
7
  6
CONTINUOUS
 10
-67.4794787258
 20
-25.05
 11
-67.2794787258
 21
-25.05
  0
LINE
  5
2B1
100
AcDbEntity
  8
ASSI
100
AcDbLine
 62
7
  6
CONTINUOUS
 10
-67.4794787258
 20
-25.05
 11
-67.2794787258
 21
-25.05
  0
LINE
  5
2B2
100
AcDbEntity
  8
0
100
AcDbLine
 62
7
  6
CONTINUOUS
 10
-67.9294787258
 20
-25.7558198745
 11
-66.927598806
 21
-25.8000830551
  0
LINE
  5
2B3
100
AcDbEntity
  8
ASSI
100
AcDbLine
 62
7
  6
CONTINUOUS
 10
-67.9294787258
 20
-25.7558198745
 11
-66.927598806
 21
-25.8000830551
  0
LINE
  5
2B4
100
AcDbEntity
  8
0
100
AcDbLine
 62
7
  6
CONTINUOUS
 10
-64.9294787258
 20
-25.4
 11
-66.8798506279
 21
-25.2049628098
  0
LINE
  5
2B5
100
AcDbEntity
  8
ASSI
100
AcDbLine
 62
7
  6
CONTINUOUS
 10
-64.9294787258
 20
-25.4
 11
-66.8798506279
 21
-25.2049628098
  0
LWPOLYLINE
  5
2B6
100
AcDbEntity
  8
0
100
AcDbPolyline
 62
7
  6
CONTINUOUS
 90
4
 70
0
 43
0.3500000006
 10
-86.2329276123
 20
54.1785714569
 10
-86.2329276123
 20
55.0357139282
 10
-85.8043586426
 20
55.4642874298
 10
-85.1614961243
 20
55.4642874298
  0
LINE
  5
2B7
100
AcDbEntity
  8
0
100
AcDbLine
 62
7
  6
CONTINUOUS
 10
-67.7794787258
 20
25.05
 11
-67.6294787258
 21
25.2
  0
LINE
  5
2B8
100
AcDbEntity
  8
ASSI
100
AcDbLine
 62
7
  6
CONTINUOUS
 10
-67.7794787258
 20
25.05
 11
-67.6294787258
 21
25.2
  0
LINE
  5
2B9
100
AcDbEntity
  8
0
100
AcDbLine
 62
7
  6
CONTINUOUS
 10
-67.2794787258
 20
25.05
 11
-67.1294787258
 21
25.2
  0
LINE
  5
2BA
100
AcDbEntity
  8
ASSI
100
AcDbLine
 62
7
  6
CONTINUOUS
 10
-67.2794787258
 20
25.05
 11
-67.1294787258
 21
25.2
  0
LINE
  5
2BB
100
AcDbEntity
  8
0
100
AcDbLine
 62
7
  6
CONTINUOUS
 10
-67.7794787258
 20
-25.05
 11
-67.6294787258
 21
-25.2
  0
LINE
  5
2BC
100
AcDbEntity
  8
ASSI
100
AcDbLine
 62
7
  6
CONTINUOUS
 10
-67.7794787258
 20
-25.05
 11
-67.6294787258
 21
-25.2
  0
LINE
  5
2BD
100
AcDbEntity
  8
0
100
AcDbLine
 62
7
  6
CONTINUOUS
 10
-67.2794787258
 20
-25.05
 11
-67.1294787258
 21
-25.2
  0
LINE
  5
2BE
100
AcDbEntity
  8
ASSI
100
AcDbLine
 62
7
  6
CONTINUOUS
 10
-67.2794787258
 20
-25.05
 11
-67.1294787258
 21
-25.2
  0
LINE
  5
2BF
100
AcDbEntity
  8
SMUSSO
100
AcDbLine
 62
7
  6
CONTINUOUS
 10
-76.4794787258
 20
-44.0
 11
-76.4794787258
 21
44.0
  0
LINE
  5
2C0
100
AcDbEntity
  8
SMUSSO
100
AcDbLine
 62
7
  6
CONTINUOUS
 10
-75.4794787258
 20
-44.0
 11
-75.4794787258
 21
44.0
  0
LINE
  5
2C1
100
AcDbEntity
  8
SMUSSO
100
AcDbLine
 62
7
  6
CONTINUOUS
 10
-72.9794787258
 20
44.0
 11
-72.9794787258
 21
-44.0
  0
LINE
  5
2C2
100
AcDbEntity
  8
SMUSSO
100
AcDbLine
 62
7
  6
CONTINUOUS
 10
-72.4794787258
 20
44.5
 11
-72.4794787258
 21
-44.5
  0
LINE
  5
2C3
100
AcDbEntity
  8
ASSI
100
AcDbLine
 62
7
  6
CONTINUOUS
 10
-72.3794787258
 20
25.5714910262
 11
-72.3794787258
 21
27.0
  0
LINE
  5
2C4
100
AcDbEntity
  8
0
100
AcDbLine
 62
7
  6
CONTINUOUS
 10
-72.3294787258
 20
-44.3506196883
 11
-72.3294787258
 21
44.3506196883
  0
LINE
  5
2C5
100
AcDbEntity
  8
ASSI
100
AcDbLine
 62
7
  6
CONTINUOUS
 10
-72.3294787258
 20
-44.3506196883
 11
-72.3294787258
 21
44.3506196883
  0
LINE
  5
2C6
100
AcDbEntity
  8
0
100
AcDbLine
 62
250
  6
CONTINUOUS
 10
-71.8109447258
 20
-36.161141
 11
-71.8109447258
 21
-35.764569
  0
LINE
  5
2C7
100
AcDbEntity
  8
0
100
AcDbLine
 62
250
  6
CONTINUOUS
 10
-71.8108307258
 20
-32.582488
 11
-71.8108307258
 21
-32.966124
  0
LINE
  5
2C8
100
AcDbEntity
  8
0
100
AcDbLine
 62
250
  6
CONTINUOUS
 10
-71.8108307258
 20
-33.801966
 11
-71.8108307258
 21
-34.194336
  0
LINE
  5
2C9
100
AcDbEntity
  8
0
100
AcDbLine
 62
250
  6
CONTINUOUS
 10
-71.8108307258
 20
-34.983292
 11
-71.8108307258
 21
-35.379536
  0
LINE
  5
2CA
100
AcDbEntity
  8
0
100
AcDbLine
 62
250
  6
CONTINUOUS
 10
-71.8108307258
 20
-36.30831
 11
-71.8108307258
 21
-36.704611
  0
LINE
  5
2CB
100
AcDbEntity
  8
0
100
AcDbLine
 62
250
  6
CONTINUOUS
 10
-71.8108307258
 20
-37.439964
 11
-71.8108307258
 21
-37.870764
  0
LINE
  5
2CC
100
AcDbEntity
  8
0
100
AcDbLine
 62
250
  6
CONTINUOUS
 10
-70.9656284616
 20
-31.5012884969
 11
-70.9656284616
 21
-31.2746513441
  0
LINE
  5
2CD
100
AcDbEntity
  8
0
100
AcDbLine
 62
250
  6
CONTINUOUS
 10
-70.6544796423
 20
-31.2755061485
 11
-70.6544796423
 21
-31.4881387551
  0
LINE
  5
2CE
100
AcDbEntity
  8
0
100
AcDbLine
 62
250
  6
CONTINUOUS
 10
-70.5837447258
 20
-32.599527
 11
-70.5837447258
 21
-32.979217
  0
LINE
  5
2CF
100
AcDbEntity
  8
0
100
AcDbLine
 62
250
  6
CONTINUOUS
 10
-70.2902617258
 20
-33.060338
 11
-70.2902617258
 21
-32.520272
  0
LINE
  5
2D0
100
AcDbEntity
  8
0
100
AcDbLine
 62
250
  6
CONTINUOUS
 10
-69.9109849798
 20
-30.4993864496
 11
-69.9109849798
 21
-30.8808429347
  0
LINE
  5
2D1
100
AcDbEntity
  8
0
100
AcDbLine
 62
250
  6
CONTINUOUS
 10
-69.9109849798
 20
-31.4881387551
 11
-69.9109849798
 21
-31.8831153973
  0
LINE
  5
2D2
100
AcDbEntity
  8
0
100
AcDbLine
 62
250
  6
CONTINUOUS
 10
-69.9109847258
 20
-37.268476
 11
-69.9109847258
 21
-36.918996
  0
LINE
  5
2D3
100
AcDbEntity
  8
0
100
AcDbLine
 62
250
  6
CONTINUOUS
 10
-69.9109847258
 20
-35.551081
 11
-69.9109847258
 21
-35.171691
  0
LINE
  5
2D4
100
AcDbEntity
  8
0
100
AcDbLine
 62
250
  6
CONTINUOUS
 10
-69.9109847258
 20
-34.620883
 11
-69.9109847258
 21
-34.565264
  0
LINE
  5
2D5
100
AcDbEntity
  8
0
100
AcDbLine
 62
250
  6
CONTINUOUS
 10
-69.9109847258
 20
-34.012262
 11
-69.9109847258
 21
-33.624309
  0
LINE
  5
2D6
100
AcDbEntity
  8
0
100
AcDbLine
 62
250
  6
CONTINUOUS
 10
-69.9109847258
 20
-33.562037
 11
-69.9109847258
 21
-33.169767
  0
LINE
  5
2D7
100
AcDbEntity
  8
0
100
AcDbLine
 62
250
  6
CONTINUOUS
 10
-69.9109847258
 20
-32.417539
 11
-69.9109847258
 21
-31.999568
  0
LINE
  5
2D8
100
AcDbEntity
  8
0
100
AcDbLine
 62
250
  6
CONTINUOUS
 10
-69.9109847258
 20
-35.764569
 11
-69.9109847258
 21
-36.161141
  0
LINE
  5
2D9
100
AcDbEntity
  8
0
100
AcDbLine
 62
7
  6
CONTINUOUS
 10
-69.4294787258
 20
43.3
 11
-69.4294787258
 21
-43.3
  0
LINE
  5
2DA
100
AcDbEntity
  8
ASSI
100
AcDbLine
 62
7
  6
CONTINUOUS
 10
-69.4294787258
 20
43.3
 11
-69.4294787258
 21
-43.3
  0
LINE
  5
2DB
100
AcDbEntity
  8
0
100
AcDbLine
 62
7
  6
CONTINUOUS
 10
-67.9294787258
 20
43.1
 11
-67.9294787258
 21
-43.1
  0
LINE
  5
2DC
100
AcDbEntity
  8
ASSI
100
AcDbLine
 62
7
  6
CONTINUOUS
 10
-67.9294787258
 20
43.1
 11
-67.9294787258
 21
-43.1
  0
LINE
  5
2DD
100
AcDbEntity
  8
0
100
AcDbLine
 62
250
  6
CONTINUOUS
 10
-67.003641642
 20
-27.1500750552
 11
-67.0037061421
 21
-26.9276792439
  0
LINE
  5
2DE
100
AcDbEntity
  8
ASSI
100
AcDbLine
 62
250
  6
CONTINUOUS
 10
-67.003641642
 20
-27.1500750552
 11
-67.0037061421
 21
-26.9276792439
  0
LINE
  5
2DF
100
AcDbEntity
  8
0
100
AcDbLine
 62
250
  6
CONTINUOUS
 10
-65.1190115345
 20
25.8799866677
 11
-65.1190115345
 21
25.3810467191
  0
LINE
  5
2E0
100
AcDbEntity
  8
ASSI
100
AcDbLine
 62
250
  6
CONTINUOUS
 10
-65.1190115345
 20
25.8799866677
 11
-65.1190115345
 21
25.3810467191
  0
LINE
  5
2E1
100
AcDbEntity
  8
0
100
AcDbLine
 62
250
  6
CONTINUOUS
 10
-65.1190115345
 20
-25.3810467191
 11
-65.1190115345
 21
-25.8162101919
  0
LINE
  5
2E2
100
AcDbEntity
  8
ASSI
100
AcDbLine
 62
250
  6
CONTINUOUS
 10
-65.1190115345
 20
-25.3810467191
 11
-65.1190115345
 21
-25.8162101919
  0
LINE
  5
2E3
100
AcDbEntity
  8
0
100
AcDbLine
 62
7
  6
CONTINUOUS
 10
-64.9294787258
 20
26.0883643404
 11
-64.9294787258
 21
25.4
  0
LINE
  5
2E4
100
AcDbEntity
  8
ASSI
100
AcDbLine
 62
7
  6
CONTINUOUS
 10
-64.9294787258
 20
26.0883643404
 11
-64.9294787258
 21
25.4
  0
LINE
  5
2E5
100
AcDbEntity
  8
0
100
AcDbLine
 62
7
  6
CONTINUOUS
 10
-64.9294787258
 20
-25.4
 11
-64.9294787258
 21
-26.0883643404
  0
LINE
  5
2E6
100
AcDbEntity
  8
ASSI
100
AcDbLine
 62
7
  6
CONTINUOUS
 10
-64.9294787258
 20
-25.4
 11
-64.9294787258
 21
-26.0883643404
  0
LINE
  5
2E7
100
AcDbEntity
  8
0
100
AcDbLine
 62
250
  6
CONTINUOUS
 10
-67.0037061421
 20
26.9276792439
 11
-67.0036416875
 21
27.1500742117
  0
LINE
  5
2E8
100
AcDbEntity
  8
ASSI
100
AcDbLine
 62
250
  6
CONTINUOUS
 10
-67.0037061421
 20
26.9276792439
 11
-67.0036416875
 21
27.1500742117
  0
LWPOLYLINE
  5
2E9
100
AcDbEntity
  8
0
100
AcDbPolyline
 62
7
  6
CONTINUOUS
 90
10
 70
0
 43
0.3500000006
 10
-83.2329266968
 20
54.2499981079
 10
-83.1614955139
 20
54.1071448059
 10
-83.1614955139
 20
54.035713623
 10
-83.3043578796
 20
53.8928557892
 10
-83.3757890625
 20
53.8928557892
 10
-83.4472111816
 20
53.964286972
 10
-83.4472111816
 20
54.035713623
 10
-83.3757890625
 20
54.1785714569
 10
-83.3043578796
 20
54.2499981079
 10
-83.2329266968
 20
54.2499981079
  0
LWPOLYLINE
  5
2EA
100
AcDbEntity
  8
0
100
AcDbPolyline
 62
7
  6
CONTINUOUS
 90
10
 70
0
 43
0.3500000006
 10
-83.4638340454
 20
64.2500011597
 10
-83.3924119263
 20
64.1071387939
 10
-83.3924119263
 20
64.0357166748
 10
-83.5352652283
 20
63.8928543091
 10
-83.6066964111
 20
63.8928543091
 10
-83.6781185303
 20
63.9642854919
 10
-83.6781185303
 20
64.0357166748
 10
-83.6066964111
 20
64.1785699768
 10
-83.5352652283
 20
64.2500011597
 10
-83.4638340454
 20
64.2500011597
  0
LINE
  5
2EB
100
AcDbEntity
  8
0
100
AcDbLine
 62
7
  6
CONTINUOUS
 10
-67.6294787258
 20
-25.2
 11
-67.4794787258
 21
-25.05
  0
LINE
  5
2EC
100
AcDbEntity
  8
ASSI
100
AcDbLine
 62
7
  6
CONTINUOUS
 10
-67.6294787258
 20
-25.2
 11
-67.4794787258
 21
-25.05
  0
LINE
  5
2ED
100
AcDbEntity
  8
RACCORDO
100
AcDbLine
 62
250
  6
CONTINUOUS
 10
-72.3294787258
 20
21.0
 11
-72.4794787258
 21
21.0
  0
LINE
  5
2EE
100
AcDbEntity
  8
0
100
AcDbLine
 62
7
  6
CONTINUOUS
 10
-67.6294787258
 20
25.2
 11
-67.4794787258
 21
25.05
  0
LINE
  5
2EF
100
AcDbEntity
  8
ASSI
100
AcDbLine
 62
7
  6
CONTINUOUS
 10
-67.6294787258
 20
25.2
 11
-67.4794787258
 21
25.05
  0
LINE
  5
2F0
100
AcDbEntity
  8
RACCORDO
100
AcDbLine
 62
7
  6
CONTINUOUS
 10
-72.3294787258
 20
23.0
 11
-72.4794787258
 21
23.0
  0
LINE
  5
2F1
100
AcDbEntity
  8
0
100
AcDbLine
 62
250
  6
CONTINUOUS
 10
-64.9294787264
 20
-26.0406731707
 11
-65.7325633364
 21
-26.4697941135
  0
LINE
  5
2F2
100
AcDbEntity
  8
ASSI
100
AcDbLine
 62
250
  6
CONTINUOUS
 10
-64.9294787263
 20
-26.0406731707
 11
-65.7325633364
 21
-26.4697941135
  0
LINE
  5
2F3
100
AcDbEntity
  8
0
100
AcDbLine
 62
250
  6
CONTINUOUS
 10
-67.0037061421
 20
-26.9276792439
 11
-66.261806937
 21
-26.5338659179
  0
LINE
  5
2F4
100
AcDbEntity
  8
ASSI
100
AcDbLine
 62
250
  6
CONTINUOUS
 10
-67.0037061421
 20
-26.9276792439
 11
-66.261806937
 21
-26.5338659179
  0
LINE
  5
2F5
100
AcDbEntity
  8
0
100
AcDbLine
 62
7
  6
CONTINUOUS
 10
-64.9294787258
 20
-26.0883643404
 11
-66.8644667641
 21
-27.1154904916
  0
LINE
  5
2F6
100
AcDbEntity
  8
ASSI
100
AcDbLine
 62
7
  6
CONTINUOUS
 10
-64.9294787258
 20
-26.0883643404
 11
-66.8644667641
 21
-27.1154904916
  0
LINE
  5
2F7
100
AcDbEntity
  8
0
100
AcDbLine
 62
7
  6
CONTINUOUS
 10
-64.9294787258
 20
25.4
 11
-66.8798506279
 21
25.2049628098
  0
LINE
  5
2F8
100
AcDbEntity
  8
ASSI
100
AcDbLine
 62
7
  6
CONTINUOUS
 10
-64.9294787258
 20
25.4
 11
-66.8798506279
 21
25.2049628098
  0
LINE
  5
2F9
100
AcDbEntity
  8
0
100
AcDbLine
 62
7
  6
CONTINUOUS
 10
-67.9294787258
 20
25.7558198745
 11
-65.1190115345
 21
25.8799866677
  0
LINE
  5
2FA
100
AcDbEntity
  8
ASSI
100
AcDbLine
 62
7
  6
CONTINUOUS
 10
-67.9294787258
 20
25.7558198745
 11
-65.1190115345
 21
25.8799866677
  0
LINE
  5
2FB
100
AcDbEntity
  8
0
100
AcDbLine
 62
7
  6
CONTINUOUS
 10
-67.9294787258
 20
25.05
 11
-67.7794787258
 21
25.05
  0
LINE
  5
2FC
100
AcDbEntity
  8
ASSI
100
AcDbLine
 62
7
  6
CONTINUOUS
 10
-67.9294787258
 20
25.05
 11
-67.7794787258
 21
25.05
  0
LINE
  5
2FD
100
AcDbEntity
  8
0
100
AcDbLine
 62
7
  6
CONTINUOUS
 10
-67.4794787258
 20
25.05
 11
-67.2794787258
 21
25.05
  0
LINE
  5
2FE
100
AcDbEntity
  8
ASSI
100
AcDbLine
 62
7
  6
CONTINUOUS
 10
-67.4794787258
 20
25.05
 11
-67.2794787258
 21
25.05
  0
LINE
  5
2FF
100
AcDbEntity
  8
0
100
AcDbLine
 62
7
  6
CONTINUOUS
 10
-67.9294787258
 20
25.2
 11
-66.9793543469
 21
25.2
  0
LINE
  5
300
100
AcDbEntity
  8
ASSI
100
AcDbLine
 62
7
  6
CONTINUOUS
 10
-67.9294787258
 20
25.2
 11
-66.9793543469
 21
25.2
  0
LINE
  5
301
100
AcDbEntity
  8
RACCORDO
100
AcDbLine
 62
250
  6
CONTINUOUS
 10
-72.4794787258
 20
26.0
 11
-72.3794787258
 21
26.0
  0
LINE
  5
302
100
AcDbEntity
  8
RACCORDO
100
AcDbLine
 62
7
  6
CONTINUOUS
 10
-72.3294787258
 20
27.0
 11
-72.4794787258
 21
27.0
  0
LINE
  5
303
100
AcDbEntity
  8
0
100
AcDbLine
 62
250
  6
CONTINUOUS
 10
-67.0037061421
 20
26.9276792439
 11
-67.9294787258
 21
26.9280974384
  0
LINE
  5
304
100
AcDbEntity
  8
ASSI
100
AcDbLine
 62
250
  6
CONTINUOUS
 10
-67.0037061421
 20
26.9276792439
 11
-67.9294787258
 21
26.9280974384
  0
LINE
  5
305
100
AcDbEntity
  8
0
100
AcDbLine
 62
250
  6
CONTINUOUS
 10
-67.9294787258
 20
26.5523835751
 11
-66.0526904326
 21
26.5509203682
  0
LINE
  5
306
100
AcDbEntity
  8
ASSI
100
AcDbLine
 62
250
  6
CONTINUOUS
 10
-67.9294787258
 20
26.5523835751
 11
-66.0526904326
 21
26.5509203682
  0
LINE
  5
307
100
AcDbEntity
  8
0
100
AcDbLine
 62
7
  6
CONTINUOUS
 10
-66.0525347608
 20
26.5709140678
 11
-67.9294787258
 21
26.5723674752
  0
LINE
  5
308
100
AcDbEntity
  8
ASSI
100
AcDbLine
 62
7
  6
CONTINUOUS
 10
-66.0525347609
 20
26.5709140678
 11
-67.9294787258
 21
26.5723674752
  0
LINE
  5
309
100
AcDbEntity
  8
0
100
AcDbLine
 62
7
  6
CONTINUOUS
 10
-67.003641528
 20
27.1501294386
 11
-67.9294787258
 21
27.151745331
  0
LINE
  5
30A
100
AcDbEntity
  8
ASSI
100
AcDbLine
 62
7
  6
CONTINUOUS
 10
-67.003641528
 20
27.1501294386
 11
-67.9294787258
 21
27.151745331
  0
LWPOLYLINE
  5
30B
100
AcDbEntity
  8
0
100
AcDbPolyline
 62
7
  6
CONTINUOUS
 90
15
 70
0
 10
-65.7297346612
 20
26.5131541112
 10
-65.737380446
 20
26.5170681959
 10
-65.7582880643
 20
26.5264668944
 10
-65.7803216776
 20
26.5346317599
 10
-65.8027322969
 20
26.541538204
 10
-65.8254632435
 20
26.5474088499
 10
-65.8489871077
 20
26.5525081332
 10
-65.8732896867
 20
26.5569244576
 10
-65.8984490556
 20
26.5607239741
 10
-65.9245106508
 20
26.5639397526
 10
-65.9511947031
 20
26.5665542965
 10
-65.9784378625
 20
26.5685703427
 10
-66.0063150829
 20
26.5699853215
 10
-66.0346785771
 20
26.5707661229
 10
-66.0525347002
 20
26.5709140647
  0
LWPOLYLINE
  5
30C
100
AcDbEntity
  8
ASSI
100
AcDbPolyline
 62
7
  6
CONTINUOUS
 90
15
 70
0
 10
-65.7297346609
 20
26.513154111
 10
-65.737380434
 20
26.5170681899
 10
-65.7582880528
 20
26.5264668893
 10
-65.7803216658
 20
26.5346317556
 10
-65.8027322845
 20
26.5415382007
 10
-65.8254632322
 20
26.5474088472
 10
-65.8489870979
 20
26.5525081312
 10
-65.873289678
 20
26.5569244561
 10
-65.8984490478
 20
26.5607239731
 10
-65.9245106439
 20
26.5639397518
 10
-65.9511946971
 20
26.566554296
 10
-65.9784378574
 20
26.5685703424
 10
-66.0063150788
 20
26.5699853213
 10
-66.034678574
 20
26.5707661228
 10
-66.0525347003
 20
26.5709140647
  0
LINE
  5
30D
100
AcDbEntity
  8
0
100
AcDbLine
 62
250
  6
CONTINUOUS
 10
-66.3320091008
 20
26.5711304782
 11
-67.0037061421
 21
26.9276792439
  0
LINE
  5
30E
100
AcDbEntity
  8
ASSI
100
AcDbLine
 62
250
  6
CONTINUOUS
 10
-66.3320091008
 20
26.5711304782
 11
-67.0037061421
 21
26.9276792439
  0
LINE
  5
30F
100
AcDbEntity
  8
0
100
AcDbLine
 62
7
  6
CONTINUOUS
 10
-66.8644667641
 20
27.1154904916
 11
-64.9294787258
 21
26.0883643404
  0
LINE
  5
310
100
AcDbEntity
  8
ASSI
100
AcDbLine
 62
7
  6
CONTINUOUS
 10
-66.8644667641
 20
27.1154904916
 11
-64.9294787258
 21
26.0883643404
  0
LINE
  5
311
100
AcDbEntity
  8
0
100
AcDbLine
 62
250
  6
CONTINUOUS
 10
-65.8233910286
 20
26.5162094923
 11
-64.9294787258
 21
26.0384659645
  0
LINE
  5
312
100
AcDbEntity
  8
ASSI
100
AcDbLine
 62
250
  6
CONTINUOUS
 10
-65.8233910286
 20
26.5162094923
 11
-64.9294787258
 21
26.0384659645
  0
LINE
  5
313
100
AcDbEntity
  8
SMUSSO
100
AcDbLine
 62
7
  6
CONTINUOUS
 10
-75.4794787258
 20
-44.0
 11
-75.9794787258
 21
-44.5
  0
LINE
  5
314
100
AcDbEntity
  8
SMUSSO
100
AcDbLine
 62
7
  6
CONTINUOUS
 10
-72.9794787258
 20
-45.0
 11
-72.4794787258
 21
-44.5
  0
LINE
  5
315
100
AcDbEntity
  8
RACCORDO
100
AcDbLine
 62
250
  6
CONTINUOUS
 10
-72.3294787258
 20
29.0
 11
-72.4794787258
 21
29.0
  0
LINE
  5
316
100
AcDbEntity
  8
SMUSSO
100
AcDbLine
 62
7
  6
CONTINUOUS
 10
-75.9794787258
 20
44.5
 11
-75.4794787258
 21
44.0
  0
LINE
  5
317
100
AcDbEntity
  8
SMUSSO
100
AcDbLine
 62
7
  6
CONTINUOUS
 10
-72.4794787258
 20
44.5
 11
-72.9794787258
 21
45.0
  0
LINE
  5
318
100
AcDbEntity
  8
0
100
AcDbLine
 62
250
  6
CONTINUOUS
 10
-71.1515487258
 20
-35.08611
 11
-69.9109847258
 21
-34.620883
  0
LINE
  5
319
100
AcDbEntity
  8
0
100
AcDbLine
 62
250
  6
CONTINUOUS
 10
-70.7560307258
 20
-34.590908
 11
-71.8108307258
 21
-34.983292
  0
LINE
  5
31A
100
AcDbEntity
  8
0
100
AcDbLine
 62
250
  6
CONTINUOUS
 10
-69.9109847258
 20
-31.999568
 11
-71.8108307258
 21
-32.582488
  0
LINE
  5
31B
100
AcDbEntity
  8
0
100
AcDbLine
 62
7
  6
CONTINUOUS
 10
-69.4284350805
 20
-44.2991650838
 11
-67.9294787258
 21
-43.1
  0
LINE
  5
31C
100
AcDbEntity
  8
ASSI
100
AcDbLine
 62
7
  6
CONTINUOUS
 10
-69.4284350805
 20
-44.2991650838
 11
-67.9294787258
 21
-43.1
  0
LINE
  5
31D
100
AcDbEntity
  8
0
100
AcDbLine
 62
250
  6
CONTINUOUS
 10
-71.8108307258
 20
-37.870764
 11
-69.9109847258
 21
-37.268476
  0
LWPOLYLINE
  5
31E
100
AcDbEntity
  8
0
100
AcDbPolyline
 62
7
  6
CONTINUOUS
 90
13
 70
0
 43
0.3500000006
 10
-85.8043586426
 20
55.4642874298
 10
-86.0900743103
 20
55.6785719147
 10
-86.0900743103
 20
56.3214299011
 10
-85.8043586426
 20
56.7499988708
 10
-85.1614961243
 20
56.7499988708
 10
-84.8757804565
 20
56.3214299011
 10
-84.8757804565
 20
55.6785719147
 10
-85.1614961243
 20
55.4642874298
 10
-84.7329271545
 20
55.0357139282
 10
-84.7329271545
 20
54.1785714569
 10
-85.1614961243
 20
53.7499979553
 10
-85.8043586426
 20
53.7499979553
 10
-86.2329276123
 20
54.1785714569
  0
LINE
  5
31F
100
AcDbEntity
  8
0
100
AcDbLine
 62
7
  6
CONTINUOUS
 10
-69.4284350805
 20
44.2991650838
 11
-67.9294787258
 21
43.1
  0
LINE
  5
320
100
AcDbEntity
  8
ASSI
100
AcDbLine
 62
7
  6
CONTINUOUS
 10
-69.4284350805
 20
44.2991650838
 11
-67.9294787258
 21
43.1
  0
LINE
  5
321
100
AcDbEntity
  8
RACCORDO
100
AcDbLine
 62
250
  6
CONTINUOUS
 10
-72.3294787258
 20
38.0
 11
-72.4794787258
 21
38.0
  0
LINE
  5
322
100
AcDbEntity
  8
RACCORDO
100
AcDbLine
 62
7
  6
CONTINUOUS
 10
-72.3294787258
 20
40.0
 11
-72.4794787258
 21
40.0
  0
LINE
  5
323
100
AcDbEntity
  8
0
100
AcDbLine
 62
250
  6
CONTINUOUS
 10
-72.3294787258
 20
43.3
 11
-69.4294787258
 21
43.3
  0
LINE
  5
324
100
AcDbEntity
  8
ASSI
100
AcDbLine
 62
250
  6
CONTINUOUS
 10
-72.3294787258
 20
43.3
 11
-69.4294787258
 21
43.3
  0
LINE
  5
325
100
AcDbEntity
  8
SMUSSO
100
AcDbLine
 62
7
  6
CONTINUOUS
 10
-75.4794787258
 20
44.0
 11
-72.9794787258
 21
44.0
  0
LINE
  5
326
100
AcDbEntity
  8
SMUSSO
100
AcDbLine
 62
7
  6
CONTINUOUS
 10
-75.4794787258
 20
45.0
 11
-72.9794787258
 21
45.0
  0
LWPOLYLINE
  5
327
100
AcDbEntity
  8
0
100
AcDbPolyline
 62
7
  6
CONTINUOUS
 90
8
 70
0
 43
0.3500000006
 10
-82.1614952087
 20
53.7499979553
 10
-81.3043572693
 20
53.7499979553
 10
-80.8757882996
 20
54.1785714569
 10
-80.8757882996
 20
55.0357139282
 10
-81.3043572693
 20
55.4642874298
 10
-82.1614952087
 20
55.4642874298
 10
-82.1614952087
 20
56.7499988708
 10
-80.8757882996
 20
56.7499988708
  0
LWPOLYLINE
  5
328
100
AcDbEntity
  8
0
100
AcDbPolyline
 62
7
  6
CONTINUOUS
 90
8
 70
0
 43
0.3500000006
 10
-80.0186412964
 20
53.7499979553
 10
-79.1615033569
 20
53.7499979553
 10
-78.7329253235
 20
54.1785714569
 10
-78.7329253235
 20
55.0357139282
 10
-79.1615033569
 20
55.4642874298
 10
-80.0186412964
 20
55.4642874298
 10
-80.0186412964
 20
56.7499988708
 10
-78.7329253235
 20
56.7499988708
  0
LWPOLYLINE
  5
329
100
AcDbEntity
  8
0
100
AcDbPolyline
 62
7
  6
CONTINUOUS
 90
8
 70
0
 43
0.3500000006
 10
-82.3924116211
 20
63.7500010071
 10
-81.5352646179
 20
63.7500010071
 10
-81.1066956482
 20
64.1785699768
 10
-81.1066956482
 20
65.03571698
 10
-81.5352646179
 20
65.4642859497
 10
-82.3924116211
 20
65.4642859497
 10
-82.3924116211
 20
66.7500019226
 10
-81.1066956482
 20
66.7500019226
  0
LWPOLYLINE
  5
32A
100
AcDbEntity
  8
0
100
AcDbPolyline
 62
7
  6
CONTINUOUS
 90
8
 70
0
 43
0.3500000006
 10
-80.249548645
 20
63.7500010071
 10
-79.3924107056
 20
63.7500010071
 10
-78.9638326721
 20
64.1785699768
 10
-78.9638326721
 20
65.03571698
 10
-79.3924107056
 20
65.4642859497
 10
-80.249548645
 20
65.4642859497
 10
-80.249548645
 20
66.7500019226
 10
-78.9638326721
 20
66.7500019226
  0
LINE
  5
32B
100
AcDbEntity
  8
0
100
AcDbLine
 62
7
  6
CONTINUOUS
 10
-72.3294787258
 20
44.3506196883
 11
-69.4294787258
 21
44.3
  0
LINE
  5
32C
100
AcDbEntity
  8
ASSI
100
AcDbLine
 62
7
  6
CONTINUOUS
 10
-72.3294787258
 20
44.3506196883
 11
-69.4294787258
 21
44.3
  0
LINE
  5
32D
100
AcDbEntity
  8
0
100
AcDbLine
 62
250
  6
CONTINUOUS
 10
-69.4284350805
 20
43.3404067067
 11
-67.9294787258
 21
43.0383103281
  0
LINE
  5
32E
100
AcDbEntity
  8
ASSI
100
AcDbLine
 62
250
  6
CONTINUOUS
 10
-69.4284350805
 20
43.3404067067
 11
-67.9294787258
 21
43.0383103281
  0
ARC
  5
32F
100
AcDbEntity
  8
0
100
AcDbCircle
 62
7
  6
CONTINUOUS
 10
21.35
 20
21.4
 40
1.7
100
AcDbArc
 50
0.0
 51
90.0
  0
ARC
  5
330
100
AcDbEntity
  8
0
100
AcDbCircle
 62
7
  6
CONTINUOUS
 10
-21.45
 20
21.4
 40
1.7
100
AcDbArc
 50
90.0
 51
180.0
  0
ARC
  5
331
100
AcDbEntity
  8
0
100
AcDbCircle
 62
7
  6
CONTINUOUS
 10
-21.45
 20
-21.4
 40
1.7
100
AcDbArc
 50
180.0
 51
270.0
  0
ARC
  5
332
100
AcDbEntity
  8
0
100
AcDbCircle
 62
7
  6
CONTINUOUS
 10
21.35
 20
-21.4
 40
1.7
100
AcDbArc
 50
270.0
 51
360.0
  0
ARC
  5
333
100
AcDbEntity
  8
0
100
AcDbCircle
 62
7
  6
CONTINUOUS
 10
-21.45
 20
-21.4
 40
1.2
100
AcDbArc
 50
180.0
 51
270.0
  0
ARC
  5
334
100
AcDbEntity
  8
0
100
AcDbCircle
 62
7
  6
CONTINUOUS
 10
21.35
 20
-21.4
 40
1.2
100
AcDbArc
 50
270.0
 51
360.0
  0
ARC
  5
335
100
AcDbEntity
  8
0
100
AcDbCircle
 62
7
  6
CONTINUOUS
 10
21.35
 20
21.4
 40
1.2
100
AcDbArc
 50
0.0
 51
90.0
  0
ARC
  5
336
100
AcDbEntity
  8
0
100
AcDbCircle
 62
7
  6
CONTINUOUS
 10
-21.45
 20
21.4
 40
1.2
100
AcDbArc
 50
90.0
 51
180.0
  0
ARC
  5
337
100
AcDbEntity
  8
ASSI
100
AcDbCircle
 62
250
  6
CONTINUOUS
 10
-65.9885056298
 20
-25.4476465147
 40
1.0611296159
100
AcDbArc
 50
271.0216313408
 51
275.6307801934
  0
ARC
  5
338
100
AcDbEntity
  8
0
100
AcDbCircle
 62
250
  6
CONTINUOUS
 10
-65.9885056244
 20
-25.4476466225
 40
1.061129508
100
AcDbArc
 50
271.0216311531
 51
275.6307883959
  0
ARC
  5
339
100
AcDbEntity
  8
0
100
AcDbCircle
 62
7
  6
CONTINUOUS
 10
-66.9793543469
 20
26.2
 40
1.0
100
AcDbArc
 50
270.0
 51
275.7105931375
  0
ARC
  5
33A
100
AcDbEntity
  8
0
100
AcDbCircle
 62
7
  6
CONTINUOUS
 10
-66.9793543469
 20
-26.2
 40
1.0
100
AcDbArc
 50
84.2894068625
 51
90.0
  0
ARC
  5
33B
100
AcDbEntity
  8
ASSI
100
AcDbCircle
 62
7
  6
CONTINUOUS
 10
-66.9793543469
 20
26.2
 40
1.0
100
AcDbArc
 50
270.0
 51
275.7105931375
  0
ARC
  5
33C
100
AcDbEntity
  8
ASSI
100
AcDbCircle
 62
7
  6
CONTINUOUS
 10
-66.9793543469
 20
-26.2
 40
1.0
100
AcDbArc
 50
84.2894068625
 51
90.0
  0
ARC
  5
33D
100
AcDbEntity
  8
ASSI
100
AcDbCircle
 62
250
  6
CONTINUOUS
 10
-66.0535642707
 20
25.5563724634
 40
0.9945482887
100
AcDbArc
 50
87.9244499757
 51
89.9496583084
  0
ARC
  5
33E
100
AcDbEntity
  8
0
100
AcDbCircle
 62
250
  6
CONTINUOUS
 10
-66.0535642707
 20
25.5563724686
 40
0.9945482835
100
AcDbArc
 50
87.9244509539
 51
89.9496583088
  0
ARC
  5
33F
100
AcDbEntity
  8
0
100
AcDbCircle
 62
250
  6
CONTINUOUS
 10
-66.0517901969
 20
25.583541025
 40
0.967333621
100
AcDbArc
 50
84.1829674686
 51
87.9711803526
  0
ARC
  5
340
100
AcDbEntity
  8
ASSI
100
AcDbCircle
 62
250
  6
CONTINUOUS
 10
-66.0517901904
 20
25.5835411297
 40
0.9673335161
100
AcDbArc
 50
84.1829633134
 51
87.9711795065
  0
ARC
  5
341
100
AcDbEntity
  8
0
100
AcDbCircle
 62
7
  6
CONTINUOUS
 10
-67.0041653541
 20
-26.8499994712
 40
0.3
100
AcDbArc
 50
270.0999999936
 51
297.9489527925
  0
ARC
  5
342
100
AcDbEntity
  8
0
100
AcDbCircle
 62
7
  6
CONTINUOUS
 10
-67.0041653541
 20
26.8499994712
 40
0.3
100
AcDbArc
 50
62.0510472075
 51
89.9000000064
  0
ARC
  5
343
100
AcDbEntity
  8
ASSI
100
AcDbCircle
 62
7
  6
CONTINUOUS
 10
-67.0041653541
 20
-26.8499994712
 40
0.3
100
AcDbArc
 50
270.0999999936
 51
297.9489527924
  0
ARC
  5
344
100
AcDbEntity
  8
ASSI
100
AcDbCircle
 62
7
  6
CONTINUOUS
 10
-67.0041653541
 20
26.8499994712
 40
0.3
100
AcDbArc
 50
62.0510472076
 51
89.9000000064
  0
ARC
  5
345
100
AcDbEntity
  8
ASSI
100
AcDbCircle
 62
7
  6
CONTINUOUS
 10
-72.2294787258
 20
25.5715715316
 40
0.15
100
AcDbArc
 50
180.0
 51
228.1817391826
  0
SPLINE
  5
346
100
AcDbEntity
  8
0
100
AcDbSpline
 62
7
  6
CONTINUOUS
 70
0
 71
3
 72
9
 73
5
 74
0
 42
0.0000001
 43
0.0000001
 44
0.0000000001
 40
0.0
 40
0.0
 40
0.0
 40
0.0
 40
0.4692870949
 40
1.0
 40
1.0
 40
1.0
 40
1.0
 10
-64.9294787258
 20
25.9903260329
 30
0.0
 10
-64.9294787258
 20
25.9819432627
 30
0.0
 10
-64.9336116932
 20
25.9639497085
 30
0.0
 10
-64.9441553971
 20
25.9490693595
 30
0.0
 10
-64.9505873591
 20
25.9421051385
 30
0.0
  0
SPLINE
  5
347
100
AcDbEntity
  8
0
100
AcDbSpline
 62
7
  6
CONTINUOUS
 70
0
 71
3
 72
9
 73
5
 74
0
 42
0.0000001
 43
0.0000001
 44
0.0000000001
 40
0.0
 40
0.0
 40
0.0
 40
0.0
 40
0.4358841832
 40
1.0
 40
1.0
 40
1.0
 40
1.0
 10
-64.9505873591
 20
25.9421051385
 30
0.0
 10
-64.9649575491
 20
25.9265457833
 30
0.0
 10
-65.0077539498
 20
25.9003671075
 30
0.0
 10
-65.0553923613
 20
25.8885764593
 30
0.0
 10
-65.0825679942
 20
25.8849920949
 30
0.0
  0
SPLINE
  5
348
100
AcDbEntity
  8
0
100
AcDbSpline
 62
250
  6
CONTINUOUS
 70
0
 71
3
 72
9
 73
5
 74
0
 42
0.0000001
 43
0.0000001
 44
0.0000000001
 40
0.0
 40
0.0
 40
0.0
 40
0.0
 40
0.5590804231
 40
1.0
 40
1.0
 40
1.0
 40
1.0
 10
-67.0037061421
 20
-26.9276792439
 30
0.0
 10
-66.987534391
 20
-26.9561130931
 30
0.0
 10
-66.9574798246
 20
-27.0063206771
 30
0.0
 10
-66.9247461171
 20
-27.0549241762
 30
0.0
 10
-66.9089758466
 20
-27.0753401851
 30
0.0
  0
SPLINE
  5
349
100
AcDbEntity
  8
0
100
AcDbSpline
 62
250
  6
CONTINUOUS
 70
0
 71
3
 72
10
 73
6
 74
0
 42
0.0000001
 43
0.0000001
 44
0.0000000001
 40
0.0
 40
0.0
 40
0.0
 40
0.0
 40
0.6950723395
 40
0.8909534262
 40
1.0
 40
1.0
 40
1.0
 40
1.0
 10
-66.9089758466
 20
-27.0753401851
 30
0.0
 10
-66.9001886743
 20
-27.0867159563
 30
0.0
 10
-66.8881203111
 20
-27.1011662714
 30
0.0
 10
-66.872624601
 20
-27.1142235644
 30
0.0
 10
-66.8655665153
 20
-27.1160691085
 30
0.0
 10
-66.8635724921
 20
-27.1150157961
 30
0.0
  0
SPLINE
  5
34A
100
AcDbEntity
  8
0
100
AcDbSpline
 62
250
  6
CONTINUOUS
 70
0
 71
3
 72
9
 73
5
 74
0
 42
0.0000001
 43
0.0000001
 44
0.0000000001
 40
0.0
 40
0.0
 40
0.0
 40
0.0
 40
0.5637833407
 40
1.0
 40
1.0
 40
1.0
 40
1.0
 10
-67.0037061421
 20
26.9276792439
 30
0.0
 10
-66.9868845776
 20
26.9572424762
 30
0.0
 10
-66.9558122529
 20
27.0089599819
 30
0.0
 10
-66.9219040273
 20
27.0589978819
 30
0.0
 10
-66.9055769486
 20
27.0796387557
 30
0.0
  0
SPLINE
  5
34B
100
AcDbEntity
  8
0
100
AcDbSpline
 62
250
  6
CONTINUOUS
 70
0
 71
3
 72
10
 73
6
 74
0
 42
0.0000001
 43
0.0000001
 44
0.0000000001
 40
0.0
 40
0.0
 40
0.0
 40
0.0
 40
0.6924464512
 40
0.8884019262
 40
1.0
 40
1.0
 40
1.0
 40
1.0
 10
-66.9055769486
 20
27.0796387557
 30
0.0
 10
-66.8974755798
 20
27.0898805958
 30
0.0
 10
-66.8863564419
 20
27.1028525422
 30
0.0
 10
-66.8719311996
 20
27.1145298939
 30
0.0
 10
-66.8654296214
 20
27.1160059342
 30
0.0
 10
-66.8635724921
 20
27.1150157961
 30
0.0
  0
SPLINE
  5
34C
100
AcDbEntity
  8
0
100
AcDbSpline
 62
7
  6
CONTINUOUS
 70
0
 71
3
 72
18
 73
14
 74
0
 42
0.0000001
 43
0.0000001
 44
0.0000000001
 40
0.0
 40
0.0
 40
0.0
 40
0.0
 40
0.009729988
 40
0.0276396801
 40
0.0540707176
 40
0.0889210475
 40
0.1319532851
 40
0.182833336
 40
0.3063610902
 40
0.455316722
 40
0.6245434425
 40
0.8082498577
 40
1.0
 40
1.0
 40
1.0
 40
1.0
 10
-69.4284350805
 20
-44.2991650838
 30
0.0
 10
-69.4260004151
 20
-44.2972173514
 30
0.0
 10
-69.4227158155
 20
-44.2883198423
 30
0.0
 10
-69.4189579777
 20
-44.2717891158
 30
0.0
 10
-69.4156772752
 20
-44.2464101679
 30
0.0
 10
-69.4128290147
 20
-44.2131804704
 30
0.0
 10
-69.410573925
 20
-44.1719467979
 30
0.0
 10
-69.4082389075
 20
-44.1023189317
 30
0.0
 10
-69.4073328269
 20
-43.9986819533
 30
0.0
 10
-69.4088754225
 20
-43.8571465465
 30
0.0
 10
-69.4130192944
 20
-43.6963675871
 30
0.0
 10
-69.4195663527
 20
-43.5219485619
 30
0.0
 10
-69.425263905
 20
-43.4017695437
 30
0.0
 10
-69.4284350805
 20
-43.3404067067
 30
0.0
  0
SPLINE
  5
34D
100
AcDbEntity
  8
0
100
AcDbSpline
 62
7
  6
CONTINUOUS
 70
0
 71
3
 72
18
 73
14
 74
0
 42
0.0000001
 43
0.0000001
 44
0.0000000001
 40
0.0
 40
0.0
 40
0.0
 40
0.0
 40
0.1917501427
 40
0.3754565595
 40
0.5446832798
 40
0.6936389099
 40
0.817166663
 40
0.8680467139
 40
0.9110789516
 40
0.945929282
 40
0.9723603198
 40
0.990270012
 40
1.0
 40
1.0
 40
1.0
 40
1.0
 10
-69.4284350805
 20
43.3404067067
 30
0.0
 10
-69.425263905
 20
43.4017695438
 30
0.0
 10
-69.4195663527
 20
43.5219485627
 30
0.0
 10
-69.4130192943
 20
43.6963675885
 30
0.0
 10
-69.4088754225
 20
43.8571465477
 30
0.0
 10
-69.4073328269
 20
43.9986819536
 30
0.0
 10
-69.4082389076
 20
44.102318931
 30
0.0
 10
-69.4105739249
 20
44.1719467969
 30
0.0
 10
-69.4128290147
 20
44.2131804697
 30
0.0
 10
-69.4156772751
 20
44.2464101674
 30
0.0
 10
-69.4189579776
 20
44.2717891156
 30
0.0
 10
-69.4227158155
 20
44.2883198423
 30
0.0
 10
-69.4260004151
 20
44.2972173514
 30
0.0
 10
-69.4284350805
 20
44.2991650838
 30
0.0
  0
LINE
  5
34E
100
AcDbEntity
  8
0
100
AcDbLine
 62
250
  6
CONTINUOUS
 10
-65.9694883534
 20
-26.5286232592
 11
-65.9695858099
 21
-26.5086074481
  0
SPLINE
  5
34F
100
AcDbEntity
  8
0
100
AcDbSpline
 62
250
  6
CONTINUOUS
 70
0
 71
3
 72
9
 73
5
 74
0
 42
0.0000001
 43
0.0000001
 44
0.0000000001
 40
0.0
 40
0.0
 40
0.0
 40
0.0
 40
0.476686861
 40
1.0
 40
1.0
 40
1.0
 40
1.0
 10
-65.7296195279
 20
26.5130933445
 30
0.0
 10
-65.7430863279
 20
26.520241762
 30
0.0
 10
-65.7754121848
 20
26.5282395694
 30
0.0
 10
-65.8076518241
 20
26.5219042505
 30
0.0
 10
-65.8233910286
 20
26.5162094923
 30
0.0
  0
SPLINE
  5
350
100
AcDbEntity
  8
0
100
AcDbSpline
 62
7
  6
CONTINUOUS
 70
0
 71
3
 72
12
 73
8
 74
0
 42
0.0000001
 43
0.0000001
 44
0.0000000001
 40
0.0
 40
0.0
 40
0.0
 40
0.0
 40
0.3323811173
 40
0.6132720389
 40
0.729370181
 40
0.8302823252
 40
1.0
 40
1.0
 40
1.0
 40
1.0
 10
-65.1190115345
 20
-25.816223812
 30
0.0
 10
-65.0930171318
 20
-25.816453308
 30
0.0
 10
-65.044951574
 20
-25.8219084891
 30
0.0
 10
-64.9905505881
 20
-25.8417429016
 30
0.0
 10
-64.9584791197
 20
-25.8642955347
 30
0.0
 10
-64.9376429499
 20
-25.8863427221
 30
0.0
 10
-64.9294787258
 20
-25.9076891648
 30
0.0
 10
-64.9294787258
 20
-25.9209627273
 30
0.0
  0
LINE
  5
351
100
AcDbEntity
  8
0
100
AcDbLine
 62
250
  6
CONTINUOUS
 10
-66.0525347562
 20
26.5709159928
 11
-66.0526904326
 21
26.5509203682
  0
LINE
  5
352
100
AcDbEntity
  8
0
100
AcDbLine
 62
250
  6
CONTINUOUS
 10
-65.9695858099
 20
-26.5086074481
 11
-67.9294787255
 21
-26.5438008307
  0
SPLINE
  5
353
100
AcDbEntity
  8
0
100
AcDbSpline
 62
250
  6
CONTINUOUS
 70
0
 71
3
 72
10
 73
6
 74
0
 42
0.0000001
 43
0.0000001
 44
0.0000000001
 40
0.0
 40
0.0
 40
0.0
 40
0.0
 40
0.2229784577
 40
0.4717426798
 40
1.0
 40
1.0
 40
1.0
 40
1.0
 10
-65.7325633364
 20
-26.4697941135
 30
0.0
 10
-65.7428027182
 20
-26.4752645657
 30
0.0
 10
-65.7661944624
 20
-26.4834034281
 30
0.0
 10
-65.8168047186
 20
-26.4954864735
 30
0.0
 10
-65.8570202018
 20
-26.5009527662
 30
0.0
 10
-65.884390059
 20
-26.5036559889
 30
0.0
  0
LINE
  5
354
100
AcDbEntity
  8
0
100
AcDbLine
 62
7
  6
CONTINUOUS
 10
-67.9294787028
 20
-25.8344712818
 11
-66.927598806
 21
-25.8000830551
  0
SPLINE
  5
355
100
AcDbEntity
  8
0
100
AcDbSpline
 62
250
  6
CONTINUOUS
 70
0
 71
3
 72
10
 73
6
 74
0
 42
0.0000001
 43
0.0000001
 44
0.0000000001
 40
0.0
 40
0.0
 40
0.0
 40
0.0
 40
0.5303899715
 40
0.7783703901
 40
1.0
 40
1.0
 40
1.0
 40
1.0
 10
-65.9537489566
 20
26.5458934809
 30
0.0
 10
-65.9301384352
 20
26.5434702036
 30
0.0
 10
-65.8955298282
 20
26.5386543608
 30
0.0
 10
-65.8520748199
 20
26.5280279376
 30
0.0
 10
-65.8321383056
 20
26.5208835783
 30
0.0
 10
-65.8233910286
 20
26.5162094923
 30
0.0
  0
SPLINE
  5
356
100
AcDbEntity
  8
0
100
AcDbSpline
 62
250
  6
CONTINUOUS
 70
0
 71
3
 72
9
 73
5
 74
0
 42
0.0000001
 43
0.0000001
 44
0.0000000001
 40
0.0
 40
0.0
 40
0.0
 40
0.0
 40
0.4758746172
 40
1.0
 40
1.0
 40
1.0
 40
1.0
 10
-65.642282318
 20
-26.4667331963
 30
0.0
 10
-65.6552236569
 20
-26.4736026893
 30
0.0
 10
-65.6863411203
 20
-26.4812898676
 30
0.0
 10
-65.7173693557
 20
-26.4752301185
 30
0.0
 10
-65.7325633364
 20
-26.4697941135
 30
0.0
  0
SPLINE
  5
357
100
AcDbEntity
  8
ASSI
100
AcDbSpline
 62
250
  6
CONTINUOUS
 70
0
 71
3
 72
9
 73
5
 74
0
 42
0.0000001
 43
0.0000001
 44
0.0000000001
 40
0.0
 40
0.0
 40
0.0
 40
0.0
 40
0.4758746182
 40
1.0
 40
1.0
 40
1.0
 40
1.0
 10
-65.642282318
 20
-26.4667331963
 30
0.0
 10
-65.6552236569
 20
-26.4736026893
 30
0.0
 10
-65.6863411203
 20
-26.4812898676
 30
0.0
 10
-65.7173693557
 20
-26.4752301186
 30
0.0
 10
-65.7325633364
 20
-26.4697941135
 30
0.0
  0
SPLINE
  5
358
100
AcDbEntity
  8
ASSI
100
AcDbSpline
 62
7
  6
CONTINUOUS
 70
0
 71
3
 72
8
 73
4
 74
0
 42
0.0000001
 43
0.0000001
 44
0.0000000001
 40
0.0
 40
0.0
 40
0.0
 40
0.0
 40
1.0
 40
1.0
 40
1.0
 40
1.0
 10
-72.367138216
 20
26.9999610605
 30
0.0
 10
-72.3595202011
 20
26.9748568381
 30
0.0
 10
-72.3474990524
 20
26.9499574473
 30
0.0
 10
-72.3295776137
 20
26.9307981632
 30
0.0
  0
SPLINE
  5
359
100
AcDbEntity
  8
ASSI
100
AcDbSpline
 62
250
  6
CONTINUOUS
 70
0
 71
3
 72
9
 73
5
 74
0
 42
0.0000001
 43
0.0000001
 44
0.0000000001
 40
0.0
 40
0.0
 40
0.0
 40
0.0
 40
0.5590804491
 40
1.0
 40
1.0
 40
1.0
 40
1.0
 10
-67.0037061421
 20
-26.9276792439
 30
0.0
 10
-66.9875343873
 20
-26.9561130996
 30
0.0
 10
-66.9574798151
 20
-27.0063206927
 30
0.0
 10
-66.9247461007
 20
-27.0549242002
 30
0.0
 10
-66.9089758269
 20
-27.0753402106
 30
0.0
  0
SPLINE
  5
35A
100
AcDbEntity
  8
ASSI
100
AcDbSpline
 62
250
  6
CONTINUOUS
 70
0
 71
3
 72
10
 73
6
 74
0
 42
0.0000001
 43
0.0000001
 44
0.0000000001
 40
0.0
 40
0.0
 40
0.0
 40
0.0
 40
0.6950723239
 40
0.8909534108
 40
1.0
 40
1.0
 40
1.0
 40
1.0
 10
-66.9089758269
 20
-27.0753402106
 30
0.0
 10
-66.9001886586
 20
-27.0867159751
 30
0.0
 10
-66.8881203011
 20
-27.1011662815
 30
0.0
 10
-66.872624597
 20
-27.1142235664
 30
0.0
 10
-66.8655665145
 20
-27.1160691081
 30
0.0
 10
-66.8635724921
 20
-27.1150157961
 30
0.0
  0
SPLINE
  5
35B
100
AcDbEntity
  8
ASSI
100
AcDbSpline
 62
250
  6
CONTINUOUS
 70
0
 71
3
 72
9
 73
5
 74
0
 42
0.0000001
 43
0.0000001
 44
0.0000000001
 40
0.0
 40
0.0
 40
0.0
 40
0.0
 40
0.5637833815
 40
1.0
 40
1.0
 40
1.0
 40
1.0
 10
-67.0037061421
 20
26.9276792439
 30
0.0
 10
-66.986884572
 20
26.9572424859
 30
0.0
 10
-66.9558122391
 20
27.0089600045
 30
0.0
 10
-66.9219040034
 20
27.0589979166
 30
0.0
 10
-66.9055769199
 20
27.079638792
 30
0.0
  0
SPLINE
  5
35C
100
AcDbEntity
  8
ASSI
100
AcDbSpline
 62
250
  6
CONTINUOUS
 70
0
 71
3
 72
10
 73
6
 74
0
 42
0.0000001
 43
0.0000001
 44
0.0000000001
 40
0.0
 40
0.0
 40
0.0
 40
0.0
 40
0.6924464256
 40
0.8884019017
 40
1.0
 40
1.0
 40
1.0
 40
1.0
 10
-66.9055769199
 20
27.079638792
 30
0.0
 10
-66.897475557
 20
27.0898806225
 30
0.0
 10
-66.8863564273
 20
27.1028525566
 30
0.0
 10
-66.8719311938
 20
27.1145298965
 30
0.0
 10
-66.8654296203
 20
27.1160059336
 30
0.0
 10
-66.8635724921
 20
27.1150157961
 30
0.0
  0
SPLINE
  5
35D
100
AcDbEntity
  8
ASSI
100
AcDbSpline
 62
7
  6
CONTINUOUS
 70
0
 71
3
 72
12
 73
8
 74
0
 42
0.0000001
 43
0.0000001
 44
0.0000000001
 40
0.0
 40
0.0
 40
0.0
 40
0.0
 40
0.3323811173
 40
0.6132720389
 40
0.729370181
 40
0.8302823252
 40
1.0
 40
1.0
 40
1.0
 40
1.0
 10
-65.1190115345
 20
-25.816223812
 30
0.0
 10
-65.0930171318
 20
-25.816453308
 30
0.0
 10
-65.044951574
 20
-25.8219084891
 30
0.0
 10
-64.9905505881
 20
-25.8417429016
 30
0.0
 10
-64.9584791196
 20
-25.8642955347
 30
0.0
 10
-64.9376429499
 20
-25.8863427221
 30
0.0
 10
-64.9294787258
 20
-25.9076891648
 30
0.0
 10
-64.9294787258
 20
-25.9209627273
 30
0.0
  0
SPLINE
  5
35E
100
AcDbEntity
  8
ASSI
100
AcDbSpline
 62
7
  6
CONTINUOUS
 70
0
 71
3
 72
18
 73
14
 74
0
 42
0.0000001
 43
0.0000001
 44
0.0000000001
 40
0.0
 40
0.0
 40
0.0
 40
0.0
 40
0.009729988
 40
0.0276396801
 40
0.0540707176
 40
0.0889210475
 40
0.1319532851
 40
0.182833336
 40
0.3063610902
 40
0.455316722
 40
0.6245434425
 40
0.8082498577
 40
1.0
 40
1.0
 40
1.0
 40
1.0
 10
-69.4284350805
 20
-44.2991650838
 30
0.0
 10
-69.4260004151
 20
-44.2972173514
 30
0.0
 10
-69.4227158155
 20
-44.2883198423
 30
0.0
 10
-69.4189579777
 20
-44.2717891158
 30
0.0
 10
-69.4156772752
 20
-44.2464101679
 30
0.0
 10
-69.4128290147
 20
-44.2131804704
 30
0.0
 10
-69.410573925
 20
-44.1719467979
 30
0.0
 10
-69.4082389075
 20
-44.1023189317
 30
0.0
 10
-69.4073328269
 20
-43.9986819533
 30
0.0
 10
-69.4088754225
 20
-43.8571465465
 30
0.0
 10
-69.4130192944
 20
-43.6963675871
 30
0.0
 10
-69.4195663527
 20
-43.5219485619
 30
0.0
 10
-69.425263905
 20
-43.4017695437
 30
0.0
 10
-69.4284350805
 20
-43.3404067067
 30
0.0
  0
SPLINE
  5
35F
100
AcDbEntity
  8
ASSI
100
AcDbSpline
 62
7
  6
CONTINUOUS
 70
0
 71
3
 72
18
 73
14
 74
0
 42
0.0000001
 43
0.0000001
 44
0.0000000001
 40
0.0
 40
0.0
 40
0.0
 40
0.0
 40
0.1917501427
 40
0.3754565595
 40
0.5446832798
 40
0.6936389099
 40
0.817166663
 40
0.8680467139
 40
0.9110789516
 40
0.945929282
 40
0.9723603198
 40
0.990270012
 40
1.0
 40
1.0
 40
1.0
 40
1.0
 10
-69.4284350805
 20
43.3404067067
 30
0.0
 10
-69.425263905
 20
43.4017695438
 30
0.0
 10
-69.4195663527
 20
43.5219485627
 30
0.0
 10
-69.4130192943
 20
43.6963675885
 30
0.0
 10
-69.4088754225
 20
43.8571465477
 30
0.0
 10
-69.4073328269
 20
43.9986819536
 30
0.0
 10
-69.4082389076
 20
44.102318931
 30
0.0
 10
-69.4105739249
 20
44.1719467969
 30
0.0
 10
-69.4128290147
 20
44.2131804697
 30
0.0
 10
-69.4156772751
 20
44.2464101674
 30
0.0
 10
-69.4189579776
 20
44.2717891156
 30
0.0
 10
-69.4227158155
 20
44.2883198423
 30
0.0
 10
-69.4260004151
 20
44.2972173514
 30
0.0
 10
-69.4284350805
 20
44.2991650838
 30
0.0
  0
SPLINE
  5
360
100
AcDbEntity
  8
ASSI
100
AcDbSpline
 62
7
  6
CONTINUOUS
 70
0
 71
3
 72
9
 73
5
 74
0
 42
0.0000001
 43
0.0000001
 44
0.0000000001
 40
0.0
 40
0.0
 40
0.0
 40
0.0
 40
0.4692870949
 40
1.0
 40
1.0
 40
1.0
 40
1.0
 10
-64.9294787258
 20
25.9903260329
 30
0.0
 10
-64.9294787258
 20
25.9819432627
 30
0.0
 10
-64.9336116932
 20
25.9639497085
 30
0.0
 10
-64.9441553971
 20
25.9490693595
 30
0.0
 10
-64.9505873591
 20
25.9421051385
 30
0.0
  0
SPLINE
  5
361
100
AcDbEntity
  8
ASSI
100
AcDbSpline
 62
7
  6
CONTINUOUS
 70
0
 71
3
 72
9
 73
5
 74
0
 42
0.0000001
 43
0.0000001
 44
0.0000000001
 40
0.0
 40
0.0
 40
0.0
 40
0.0
 40
0.4358841832
 40
1.0
 40
1.0
 40
1.0
 40
1.0
 10
-64.9505873591
 20
25.9421051385
 30
0.0
 10
-64.9649575491
 20
25.9265457833
 30
0.0
 10
-65.0077539498
 20
25.9003671075
 30
0.0
 10
-65.0553923613
 20
25.8885764593
 30
0.0
 10
-65.0825679942
 20
25.8849920949
 30
0.0
  0
SPLINE
  5
362
100
AcDbEntity
  8
ASSI
100
AcDbSpline
 62
250
  6
CONTINUOUS
 70
0
 71
3
 72
10
 73
6
 74
0
 42
0.0000001
 43
0.0000001
 44
0.0000000001
 40
0.0
 40
0.0
 40
0.0
 40
0.0
 40
0.530389975
 40
0.7783703925
 40
1.0
 40
1.0
 40
1.0
 40
1.0
 10
-65.9537488909
 20
26.5458934742
 30
0.0
 10
-65.9301383811
 20
26.5434701963
 30
0.0
 10
-65.8955297914
 20
26.5386543535
 30
0.0
 10
-65.852074805
 20
26.5280279328
 30
0.0
 10
-65.8321383012
 20
26.5208835759
 30
0.0
 10
-65.8233910286
 20
26.5162094923
 30
0.0
  0
LINE
  5
363
100
AcDbEntity
  8
ASSI
100
AcDbLine
 62
250
  6
CONTINUOUS
 10
-65.9695858099
 20
-26.5086074481
 11
-67.9294787255
 21
-26.5438008307
  0
SPLINE
  5
364
100
AcDbEntity
  8
ASSI
100
AcDbSpline
 62
250
  6
CONTINUOUS
 70
0
 71
3
 72
10
 73
6
 74
0
 42
0.0000001
 43
0.0000001
 44
0.0000000001
 40
0.0
 40
0.0
 40
0.0
 40
0.0
 40
0.2229784515
 40
0.4717426786
 40
1.0
 40
1.0
 40
1.0
 40
1.0
 10
-65.7325633364
 20
-26.4697941135
 30
0.0
 10
-65.7428027275
 20
-26.4752645707
 30
0.0
 10
-65.7661944946
 20
-26.4834034384
 30
0.0
 10
-65.8168047996
 20
-26.4954864892
 30
0.0
 10
-65.8570203216
 20
-26.5009527821
 30
0.0
 10
-65.884390205
 20
-26.5036560033
 30
0.0
  0
LINE
  5
365
100
AcDbEntity
  8
ASSI
100
AcDbLine
 62
7
  6
CONTINUOUS
 10
-67.9294787028
 20
-25.8344712818
 11
-66.927598806
 21
-25.8000830551
  0
LINE
  5
366
100
AcDbEntity
  8
ASSI
100
AcDbLine
 62
250
  6
CONTINUOUS
 10
-65.9694883534
 20
-26.5286232592
 11
-65.9695858099
 21
-26.5086074481
  0
LINE
  5
367
100
AcDbEntity
  8
ASSI
100
AcDbLine
 62
250
  6
CONTINUOUS
 10
-66.0525347562
 20
26.5709159928
 11
-66.0526904326
 21
26.5509203682
  0
SPLINE
  5
368
100
AcDbEntity
  8
ASSI
100
AcDbSpline
 62
250
  6
CONTINUOUS
 70
0
 71
3
 72
9
 73
5
 74
0
 42
0.0000001
 43
0.0000001
 44
0.0000000001
 40
0.0
 40
0.0
 40
0.0
 40
0.0
 40
0.476686861
 40
1.0
 40
1.0
 40
1.0
 40
1.0
 10
-65.7296195279
 20
26.5130933445
 30
0.0
 10
-65.7430863279
 20
26.520241762
 30
0.0
 10
-65.7754121848
 20
26.5282395694
 30
0.0
 10
-65.8076518241
 20
26.5219042505
 30
0.0
 10
-65.8233910286
 20
26.5162094923
 30
0.0
  0
SPLINE
  5
369
100
AcDbEntity
  8
0
100
AcDbSpline
 62
250
  6
CONTINUOUS
 70
0
 71
3
 72
16
 73
12
 74
0
 42
0.0000001
 43
0.0000001
 44
0.0000000001
 40
0.0
 40
0.0
 40
0.0
 40
0.0
 40
0.125
 40
0.25
 40
0.3125
 40
0.375
 40
0.5
 40
0.625
 40
0.75
 40
0.875
 40
1.0
 40
1.0
 40
1.0
 40
1.0
 10
-70.4872797127
 20
-31.0543291296
 30
0.0
 10
-70.5000208807
 20
-31.0591210119
 30
0.0
 10
-70.5237333429
 20
-31.0699213512
 30
0.0
 10
-70.5513530103
 20
-31.0869312726
 30
0.0
 10
-70.5715756717
 20
-31.1023486402
 30
0.0
 10
-70.5905769477
 20
-31.1190369749
 30
0.0
 10
-70.6114138822
 20
-31.1418315855
 30
0.0
 10
-70.6314903826
 20
-31.1727376034
 30
0.0
 10
-70.6451465699
 20
-31.2063880694
 30
0.0
 10
-70.6527884897
 20
-31.2407288936
 30
0.0
 10
-70.6544796423
 20
-31.2635934599
 30
0.0
 10
-70.6544796423
 20
-31.2755061485
 30
0.0
  0
SPLINE
  5
36A
100
AcDbEntity
  8
0
100
AcDbSpline
 62
250
  6
CONTINUOUS
 70
0
 71
3
 72
12
 73
8
 74
0
 42
0.0000001
 43
0.0000001
 44
0.0000000001
 40
0.0
 40
0.0
 40
0.0
 40
0.0
 40
0.1666666667
 40
0.3333333333
 40
0.5
 40
0.6666666667
 40
1.0
 40
1.0
 40
1.0
 40
1.0
 10
-69.9109849798
 20
-30.8808429347
 30
0.0
 10
-69.9457207837
 20
-30.8908296178
 30
0.0
 10
-70.0142437246
 20
-30.9108910567
 30
0.0
 10
-70.1143460615
 20
-30.9403977646
 30
0.0
 10
-70.212140069
 20
-30.9682804155
 30
0.0
 10
-70.3391556479
 20
-31.0040962796
 30
0.0
 10
-70.4296957049
 20
-31.0326890541
 30
0.0
 10
-70.4872398519
 20
-31.0543141626
 30
0.0
  0
SPLINE
  5
36B
100
AcDbEntity
  8
0
100
AcDbSpline
 62
250
  6
CONTINUOUS
 70
0
 71
3
 72
10
 73
6
 74
0
 42
0.0000001
 43
0.0000001
 44
0.0000000001
 40
0.0
 40
0.0
 40
0.0
 40
0.0
 40
0.3333333333
 40
0.6666666667
 40
1.0
 40
1.0
 40
1.0
 40
1.0
 10
-70.425151946
 20
-30.6349473604
 30
0.0
 10
-70.3662105648
 20
-30.6188892843
 30
0.0
 10
-70.249407922
 20
-30.5879128407
 30
0.0
 10
-70.077946005
 20
-30.5433507257
 30
0.0
 10
-69.9661017623
 20
-30.5143560116
 30
0.0
 10
-69.9109849798
 20
-30.4993864496
 30
0.0
  0
SPLINE
  5
36C
100
AcDbEntity
  8
0
100
AcDbSpline
 62
250
  6
CONTINUOUS
 70
0
 71
3
 72
16
 73
12
 74
0
 42
0.0000001
 43
0.0000001
 44
0.0000000001
 40
0.0
 40
0.0
 40
0.0
 40
0.0
 40
0.1111111111
 40
0.2222222222
 40
0.3333333333
 40
0.4444444444
 40
0.5555555556
 40
0.6666666667
 40
0.7777777778
 40
0.8888888889
 40
1.0
 40
1.0
 40
1.0
 40
1.0
 10
-70.7978161016
 20
-30.8635473914
 30
0.0
 10
-70.7918044003
 20
-30.8484710244
 30
0.0
 10
-70.7766076975
 20
-30.8202676989
 30
0.0
 10
-70.7449023351
 20
-30.7824716047
 30
0.0
 10
-70.7080569196
 20
-30.7509354801
 30
0.0
 10
-70.6675837777
 20
-30.7242523063
 30
0.0
 10
-70.6257454051
 20
-30.7021340776
 30
0.0
 10
-70.5816142275
 20
-30.6829086688
 30
0.0
 10
-70.5344390937
 20
-30.665816528
 30
0.0
 10
-70.4830523804
 20
-30.6504289666
 30
0.0
 10
-70.4449511556
 20
-30.6403414863
 30
0.0
 10
-70.4251519459
 20
-30.6349473606
 30
0.0
  0
SPLINE
  5
36D
100
AcDbEntity
  8
0
100
AcDbSpline
 62
250
  6
CONTINUOUS
 70
0
 71
3
 72
34
 73
30
 74
0
 42
0.0000001
 43
0.0000001
 44
0.0000000001
 40
0.0
 40
0.0
 40
0.0
 40
0.0
 40
0.0277777778
 40
0.0555555556
 40
0.0833333333
 40
0.1111111111
 40
0.1388888889
 40
0.1666666667
 40
0.1944444444
 40
0.2222222222
 40
0.25
 40
0.2777777778
 40
0.3333333333
 40
0.3888888889
 40
0.4444444444
 40
0.5
 40
0.5555555556
 40
0.6111111111
 40
0.6666666667
 40
0.7222222222
 40
0.7777777778
 40
0.8055555556
 40
0.8333333333
 40
0.8611111111
 40
0.8888888889
 40
0.9166666667
 40
0.9444444444
 40
0.9722222222
 40
1.0
 40
1.0
 40
1.0
 40
1.0
 10
-71.7686317604
 20
-30.9044355375
 30
0.0
 10
-71.7635686577
 20
-30.89040074
 30
0.0
 10
-71.7512466938
 20
-30.862801042
 30
0.0
 10
-71.7263904816
 20
-30.8215469777
 30
0.0
 10
-71.6949657434
 20
-30.7794171649
 30
0.0
 10
-71.6581444691
 20
-30.7396146471
 30
0.0
 10
-71.6165859914
 20
-30.7035432518
 30
0.0
 10
-71.5710254756
 20
-30.672051233
 30
0.0
 10
-71.5224258255
 20
-30.6457121669
 30
0.0
 10
-71.4723169807
 20
-30.6253109736
 30
0.0
 10
-71.4238628017
 20
-30.6110732384
 30
0.0
 10
-71.36055999
 20
-30.5985754265
 30
0.0
 10
-71.2876239227
 20
-30.5930443992
 30
0.0
 10
-71.2094269038
 20
-30.59677842
 30
0.0
 10
-71.1394428406
 20
-30.6090560197
 30
0.0
 10
-71.0782314656
 20
-30.6276213393
 30
0.0
 10
-71.0250146657
 20
-30.650516474
 30
0.0
 10
-70.97921194
 20
-30.6761890763
 30
0.0
 10
-70.9402801201
 20
-30.7035287319
 30
0.0
 10
-70.907586119
 20
-30.7319426296
 30
0.0
 10
-70.8846403819
 20
-30.7553453907
 30
0.0
 10
-70.8681707366
 20
-30.7734817029
 30
0.0
 10
-70.8566052549
 20
-30.7867670438
 30
0.0
 10
-70.8458283125
 20
-30.7995878951
 30
0.0
 10
-70.8355535007
 20
-30.8119992423
 30
0.0
 10
-70.825767076
 20
-30.8246563097
 30
0.0
 10
-70.8176439754
 20
-30.8374015134
 30
0.0
 10
-70.8117728411
 20
-30.8502632867
 30
0.0
 10
-70.8096163892
 20
-30.8591000083
 30
0.0
 10
-70.8090425333
 20
-30.8635473914
 30
0.0
  0
SPLINE
  5
36E
100
AcDbEntity
  8
0
100
AcDbSpline
 62
250
  6
CONTINUOUS
 70
0
 71
3
 72
15
 73
11
 74
0
 42
0.0000001
 43
0.0000001
 44
0.0000000001
 40
0.0
 40
0.0
 40
0.0
 40
0.0
 40
0.125
 40
0.25
 40
0.375
 40
0.5
 40
0.625
 40
0.75
 40
0.875
 40
1.0
 40
1.0
 40
1.0
 40
1.0
 10
-71.7886341845
 20
-31.8831153973
 30
0.0
 10
-71.7958301442
 20
-31.8342022309
 30
0.0
 10
-71.8091646143
 20
-31.7396969606
 30
0.0
 10
-71.8242456423
 20
-31.6090216921
 30
0.0
 10
-71.8340062494
 20
-31.485230772
 30
0.0
 10
-71.8378342603
 20
-31.3660956155
 30
0.0
 10
-71.8348485663
 20
-31.2485933023
 30
0.0
 10
-71.8237351239
 20
-31.1321277246
 30
0.0
 10
-71.8029873431
 20
-31.01699369
 30
0.0
 10
-71.7820186008
 20
-30.9414897522
 30
0.0
 10
-71.7686317604
 20
-30.9044355375
 30
0.0
  0
SPLINE
  5
36F
100
AcDbEntity
  8
0
100
AcDbSpline
 62
250
  6
CONTINUOUS
 70
0
 71
3
 72
19
 73
15
 74
0
 42
0.0000001
 43
0.0000001
 44
0.0000000001
 40
0.0
 40
0.0
 40
0.0
 40
0.0
 40
0.1
 40
0.2
 40
0.25
 40
0.3
 40
0.4
 40
0.5
 40
0.6
 40
0.7
 40
0.75
 40
0.8
 40
0.9
 40
1.0
 40
1.0
 40
1.0
 40
1.0
 10
-71.2607593724
 20
-30.9665924606
 30
0.0
 10
-71.272247079
 20
-30.966766778
 30
0.0
 10
-71.2945086995
 20
-30.9688109122
 30
0.0
 10
-71.3222495779
 20
-30.9752826387
 30
0.0
 10
-71.3439167706
 20
-30.9827594339
 30
0.0
 10
-71.3652585306
 20
-30.9918119131
 30
0.0
 10
-71.3907052367
 20
-31.0058816404
 30
0.0
 10
-71.4192548531
 20
-31.0277121019
 30
0.0
 10
-71.4439950385
 20
-31.0542504686
 30
0.0
 10
-71.4609260212
 20
-31.07924674
 30
0.0
 10
-71.4724443012
 20
-31.100925426
 30
0.0
 10
-71.482449406
 20
-31.1233891894
 30
0.0
 10
-71.4921957393
 20
-31.1530209697
 30
0.0
 10
-71.4968556849
 20
-31.1776757759
 30
0.0
 10
-71.4983580095
 20
-31.1906198896
 30
0.0
  0
SPLINE
  5
370
100
AcDbEntity
  8
0
100
AcDbSpline
 62
250
  6
CONTINUOUS
 70
0
 71
3
 72
12
 73
8
 74
0
 42
0.0000001
 43
0.0000001
 44
0.0000000001
 40
0.0
 40
0.0
 40
0.0
 40
0.0
 40
0.3333333333
 40
0.5
 40
0.6666666667
 40
0.8333333333
 40
1.0
 40
1.0
 40
1.0
 40
1.0
 10
-71.4983580093
 20
-31.1906198897
 30
0.0
 10
-71.5023137973
 20
-31.2247031826
 30
0.0
 10
-71.5056217852
 20
-31.2760350976
 30
0.0
 10
-71.5048646886
 20
-31.3446468952
 30
0.0
 10
-71.5017107002
 20
-31.3963465207
 30
0.0
 10
-71.4957333474
 20
-31.4486332421
 30
0.0
 10
-71.4901834046
 20
-31.4836469494
 30
0.0
 10
-71.487173149
 20
-31.5012884969
 30
0.0
  0
SPLINE
  5
371
100
AcDbEntity
  8
0
100
AcDbSpline
 62
250
  6
CONTINUOUS
 70
0
 71
3
 72
15
 73
11
 74
0
 42
0.0000001
 43
0.0000001
 44
0.0000000001
 40
0.0
 40
0.0
 40
0.0
 40
0.0
 40
0.1666666667
 40
0.3333333333
 40
0.5
 40
0.5833333333
 40
0.6666666667
 40
0.75
 40
0.8333333333
 40
1.0
 40
1.0
 40
1.0
 40
1.0
 10
-70.9656284616
 20
-31.2746513441
 30
0.0
 10
-70.9663257357
 20
-31.2434334621
 30
0.0
 10
-70.9722534691
 20
-31.1854780501
 30
0.0
 10
-70.9935736146
 20
-31.1135922281
 30
0.0
 10
-71.0246729977
 20
-31.0622122593
 30
0.0
 10
-71.0612038367
 20
-31.0283093567
 30
0.0
 10
-71.0935619429
 20
-31.0068690873
 30
0.0
 10
-71.1293232945
 20
-30.9898520004
 30
0.0
 10
-71.1825181407
 20
-30.9724933482
 30
0.0
 10
-71.2279401556
 20
-30.9660914134
 30
0.0
 10
-71.2608115212
 20
-30.9665932672
 30
0.0
  0
ELLIPSE
  5
372
100
AcDbEntity
  8
0
100
AcDbEllipse
 62
7
  6
CONTINUOUS
 10
-68.2061698946
 20
43.3
 30
0.0
 11
1.2233088312
 21
-0.0
 31
0.0
 40
0.7998095528
 41
3.1002827401
 42
3.1415926536
  0
ELLIPSE
  5
373
100
AcDbEntity
  8
0
100
AcDbEllipse
 62
7
  6
CONTINUOUS
 10
-68.2061698946
 20
-43.3
 30
0.0
 11
1.2233088312
 21
0.0
 31
0.0
 40
0.7998095528
 41
-3.1415926536
 42
-3.1002827401
  0
ELLIPSE
  5
374
100
AcDbEntity
  8
0
100
AcDbEllipse
 62
7
  6
CONTINUOUS
 10
28.2193133392
 20
0.0
 30
0.0
 11
530.7034459343
 21
0.0
 31
0.0
 40
0.0494155445
 41
-1.7510554651
 42
-1.7475925186
  0
ELLIPSE
  5
375
100
AcDbEntity
  8
0
100
AcDbEllipse
 62
7
  6
CONTINUOUS
 10
4800.8008445631
 20
0.0
 30
0.0
 11
5070.6192780382
 21
-20.8600030618
 31
0.0
 40
0.0041137573
 41
2.856472503
 42
2.8584753448
  0
ELLIPSE
  5
376
100
AcDbEntity
  8
0
100
AcDbEllipse
 62
7
  6
CONTINUOUS
 10
-65.1294787258
 20
26.079798695
 30
0.0
 11
-0.1417119467
 21
0.1422961243
 31
0.0
 40
0.9918061237
 41
-3.8766878413
 42
-3.6922883273
  0
ELLIPSE
  5
377
100
AcDbEntity
  8
ASSI
100
AcDbEllipse
 62
7
  6
CONTINUOUS
 10
-65.1294787258
 20
26.079798695
 30
0.0
 11
-0.1417119467
 21
0.1422961243
 31
0.0
 40
0.9918061237
 41
-3.8766878413
 42
-3.6922883273
  0
ELLIPSE
  5
378
100
AcDbEntity
  8
ASSI
100
AcDbEllipse
 62
7
  6
CONTINUOUS
 10
-68.2061698946
 20
43.3
 30
0.0
 11
1.2233088312
 21
0.0
 31
0.0
 40
0.7998095528
 41
3.1002827401
 42
3.1415926536
  0
ELLIPSE
  5
379
100
AcDbEntity
  8
ASSI
100
AcDbEllipse
 62
7
  6
CONTINUOUS
 10
-68.2061698946
 20
-43.3
 30
0.0
 11
1.2233088312
 21
-0.0
 31
0.0
 40
0.7998095528
 41
-3.1415926536
 42
-3.1002827401
  0
ELLIPSE
  5
37A
100
AcDbEntity
  8
ASSI
100
AcDbEllipse
 62
7
  6
CONTINUOUS
 10
4800.8008445631
 20
0.0
 30
0.0
 11
5070.6192780382
 21
-20.8600030618
 31
0.0
 40
0.0041137573
 41
2.856472503
 42
2.8584753448
  0
ELLIPSE
  5
37B
100
AcDbEntity
  8
ASSI
100
AcDbEllipse
 62
7
  6
CONTINUOUS
 10
28.2193133392
 20
0.0
 30
0.0
 11
530.7034459343
 21
0.0
 31
0.0
 40
0.0494155445
 41
-1.7510554651
 42
-1.7475925186
  0
ENDSEC
  0
SECTION
  2
OBJECTS
  0
DICTIONARY
  5
C
100
AcDbDictionary
280
0
281
1
  3
ACAD_GROUP
350
D
  3
ACAD_MLINESTYLE
350
17
  3
ACAD_LAYOUT
350
1A
  3
ACAD_PLOTSETTINGS
350
19
  3
ACAD_PLOTSTYLENAME
350
E
  0
DICTIONARY
  5
D
102
{ACAD_REACTORS
330
C
102
}
100
AcDbDictionary
280
0
281
1
  0
ACDBDICTIONARYWDFLT
  5
E
102
{ACAD_REACTORS
330
C
102
}
100
AcDbDictionary
281
1
  3
Normal
350
F
100
AcDbDictionaryWithDefault
340
F
  0
DICTIONARY
  5
17
102
{ACAD_REACTORS
330
C
102
}
100
AcDbDictionary
280
0
281
1
  3
Standard
350
18
  0
DICTIONARY
  5
19
102
{ACAD_REACTORS
330
C
102
}
100
AcDbDictionary
281
1
  0
DICTIONARY
  5
1A
102
{ACAD_REACTORS
330
C
102
}
100
AcDbDictionary
281
1
  3
Model
350
37C
  3
Layout1
350
37D
  0
ACDBPLACEHOLDER
  5
F
102
{ACAD_REACTORS
330
E
102
}
  0
MLINESTYLE
  5
18
102
{ACAD_REACTORS
330
17
102
}
100
AcDbMlineStyle
  2
STANDARD
 70
0
  3

 62
256
 51
90.0
 52
90.0
 71
2
 49
0.5
 62
256
  6
BYLAYER
 49
-0.5
 62
256
  6
BYLAYER
  0
LAYOUT
  5
37C
102
{ACAD_REACTORS
330
1A
102
}
100
AcDbPlotSettings
  1

  2
none_device
  4
ISO_A4_(297.00_x_210.00_MM)
  6

 40
0.0
 41
0.0
 42
0.0
 43
0.0
 44
297.0
 45
210.0
 46
0.0
 47
0.0
 48
0.0
 49
0.0
140
0.0
141
0.0
142
1.0
143
1.0
 70
1024
 72
1
 73
0
 74
0
  7

 75
0
147
1.0
148
0.0
149
0.0
100
AcDbLayout
  1
Model
 70
0
 71
0
 10
0.0
 20
0.0
 11
297.0
 21
210.0
 12
0.0
 22
0.0
 32
0.0
 14
0.0
 24
0.0
 34
0.0
 15
0.0
 25
0.0
 35
0.0
146
0.0
 13
0.0
 23
0.0
 33
0.0
 16
1.0
 26
0.0
 36
0.0
 17
0.0
 27
1.0
 37
0.0
 76
0
330
224
345
0
346
0
  0
LAYOUT
  5
37D
102
{ACAD_REACTORS
330
1A
102
}
100
AcDbPlotSettings
  1

  2
none_device
  4
ISO_A4_(297.00_x_210.00_MM)
  6

 40
0.0
 41
0.0
 42
0.0
 43
0.0
 44
297.0
 45
210.0
 46
0.0
 47
0.0
 48
0.0
 49
0.0
140
0.0
141
0.0
142
1.0
143
1.0
 70
0
 72
1
 73
0
 74
0
  7

 75
0
147
1.0
148
0.0
149
0.0
100
AcDbLayout
  1
Layout1
 70
0
 71
1
 10
0.0
 20
0.0
 11
297.0
 21
210.0
 12
0.0
 22
0.0
 32
0.0
 14
0.0
 24
0.0
 34
0.0
 15
0.0
 25
0.0
 35
0.0
146
0.0
 13
0.0
 23
0.0
 33
0.0
 16
1.0
 26
0.0
 36
0.0
 17
0.0
 27
1.0
 37
0.0
 76
0
330
225
345
0
346
0
  0
ENDSEC
  0
EOF
