  0
SECTION
  2
HEADER
  9
$ACADVER
  1
AC1024
  9
$DWGCODEPAGE
  3
ANSI_1252
  9
$EXTMAX
 10
297.0
 20
210.0
 30
0.0
  9
$EXTMIN
 10
0.0
 20
0.0
 30
0.0
  9
$LIMMIN
 10
0.0
 20
0.0
  9
$LIMMAX
 10
297.0
 20
210.0
  9
$VIEWCTR
 10
148.5
 20
105.0
  9
$VIEWSIZE
 40
210.0
  9
$CLAYER
  8
0
  9
$LTSCALE
 40
16.335
  9
$CELTYPE
  6
BYLAYER
  9
$DIMSCALE
 40
1.0
  9
$DIMASZ
 40
3.0
  9
$DIMEXO
 40
0.5
  9
$DIMDLI
 40
11.286
  9
$DIMEXE
 40
1.5
  9
$DIMCEN
 40
2.673
  9
$DIMLFAC
 40
1.0
  9
$DIMBLK
  1
_FILLED
  9
$DIMALT
 70
0
  9
$DIMALTF
 40
0.0393700787
  9
$DIMTXT
 40
3.0
  9
$DIMTOL
 70
1
  9
$DIMLIM
 70
0
  9
$DIMTFAC
 40
1.0
  9
$DIMTP
 40
0.01
  9
$DIMTM
 40
0.01
  9
$DIMGAP
 40
0.625
  9
$DIMDSEP
 70
44
  9
$AUNITS
 70
0
  9
$PDMODE
 70
3
  9
$PDSIZE
 40
3.0
  9
$HANDSEED
  5
36D
  9
$TILEMODE
 70
1
  9
$MEASUREMENT
 70
1
  9
$INSUNITS
 70
4
  0
ENDSEC
  0
SECTION
  2
CLASSES
  0
CLASS
  1
ACDBDICTIONARYWDFLT
  2
AcDbDictionaryWithDefault
  3
AutoCAD 2000
 90
0
 91
1
280
0
281
0
  0
CLASS
  1
ACDBPLACEHOLDER
  2
AcDbPlaceHolder
  3
AutoCAD 2000
 90
0
 91
1
280
0
281
0
  0
CLASS
  1
LAYOUT
  2
AcDbLayout
  3
AutoCAD 2000
 90
0
 91
0
280
0
281
0
  0
ENDSEC
  0
SECTION
  2
TABLES
  0
TABLE
  2
VPORT
  5
8
100
AcDbSymbolTable
 70
2
  0
VPORT
  5
1F4
100
AcDbSymbolTableRecord
100
AcDbViewportTableRecord
  2
*ACTIVE
 70
0
 10
0.0
 20
0.0
 11
1.0
 21
1.0
 12
148.5
 22
105.0
 13
0.0
 23
0.0
 14
1.0
 24
1.0
 15
0.0
 25
0.0
 16
0.0
 26
0.0
 36
1.0
 17
0.0
 27
0.0
 37
0.0
 40
210.0
 41
1.4142857143
 42
50.0
 43
0.0
 44
0.0
 50
0.0
 51
0.0
 71
0
 72
100
 73
1
 74
1
 75
0
 76
0
 77
0
 78
0
  0
ENDTAB
  0
TABLE
  2
LTYPE
  5
5
100
AcDbSymbolTable
 70
6
  0
LTYPE
  5
14
100
AcDbSymbolTableRecord
100
AcDbLinetypeTableRecord
  2
BYBLOCK
 70
0
  3

 72
65
 73
0
 40
0.0
  0
LTYPE
  5
15
100
AcDbSymbolTableRecord
100
AcDbLinetypeTableRecord
  2
BYLAYER
 70
0
  3

 72
65
 73
0
 40
0.0
  0
LTYPE
  5
16
100
AcDbSymbolTableRecord
100
AcDbLinetypeTableRecord
  2
CONTINUOUS
 70
64
  3
Solid line
 72
65
 73
0
 40
0.0
  0
LTYPE
  5
1F5
100
AcDbSymbolTableRecord
100
AcDbLinetypeTableRecord
  2
CENTER
 70
64
  3
____ _ ____ _ ____ _ ____ _ ____ _ ____ _ ____
 72
65
 73
4
 40
0.6
 49
0.375
 74
0
 49
-0.075
 74
0
 49
0.075
 74
0
 49
-0.075
 74
0
  0
LTYPE
  5
1F6
100
AcDbSymbolTableRecord
100
AcDbLinetypeTableRecord
  2
HIDDEN
 70
64
  3
- - - - - - - - - - - - - - - - - - - -
 72
65
 73
2
 40
0.2
 49
0.1
 74
0
 49
-0.1
 74
0
  0
LTYPE
  5
1F7
100
AcDbSymbolTableRecord
100
AcDbLinetypeTableRecord
  2
PHANTOM
 70
64
  3
_____ _ _ _____ _ _ _____ _ _ _____
 72
65
 73
6
 40
0.8
 49
0.45
 74
0
 49
-0.05
 74
0
 49
0.1
 74
0
 49
-0.05
 74
0
 49
0.1
 74
0
 49
-0.05
 74
0
  0
LTYPE
  5
1F8
100
AcDbSymbolTableRecord
100
AcDbLinetypeTableRecord
  2
DOT
 70
64
  3
. . . . . . . . . . . . . . . . . . . .
 72
65
 73
2
 40
0.2
 49
0.1
 74
0
 49
-0.1
 74
0
  0
LTYPE
  5
1F9
100
AcDbSymbolTableRecord
100
AcDbLinetypeTableRecord
  2
DASHED
 70
64
  3
- - - - - - - - - - - - - - - - - - - -
 72
65
 73
2
 40
0.2
 49
0.1
 74
0
 49
-0.1
 74
0
  0
ENDTAB
  0
TABLE
  2
LAYER
  5
2
100
AcDbSymbolTable
 70
36
  0
LAYER
  5
10
100
AcDbSymbolTableRecord
100
AcDbLayerTableRecord
  2
0
 70
0
 62
7
  6
CONTINUOUS
370
-3
390
F
  0
LAYER
  5
1FA
100
AcDbSymbolTableRecord
100
AcDbLayerTableRecord
  2
DEFAULT_1
 70
0
 62
7
  6
CENTER
370
-3
390
F
  0
LAYER
  5
1FB
100
AcDbSymbolTableRecord
100
AcDbLayerTableRecord
  2
DEFAULT_2
 70
0
 62
7
  6
HIDDEN
370
-3
390
F
  0
LAYER
  5
1FC
100
AcDbSymbolTableRecord
100
AcDbLayerTableRecord
  2
DEFAULT_3
 70
0
 62
7
  6
PHANTOM
370
-3
390
F
  0
LAYER
  5
1FD
100
AcDbSymbolTableRecord
100
AcDbLayerTableRecord
  2
ASSI
 70
0
 62
7
  6
CONTINUOUS
370
-3
390
F
  0
LAYER
  5
1FE
100
AcDbSymbolTableRecord
100
AcDbLayerTableRecord
  2
COORDINATE
 70
0
 62
7
  6
CONTINUOUS
370
-3
390
F
  0
LAYER
  5
1FF
100
AcDbSymbolTableRecord
100
AcDbLayerTableRecord
  2
COORD_ORIGINE
 70
0
 62
7
  6
CONTINUOUS
370
-3
390
F
  0
LAYER
  5
200
100
AcDbSymbolTableRecord
100
AcDbLayerTableRecord
  2
COPY_PUBLISH
 70
0
 62
7
  6
CONTINUOUS
370
-3
390
F
  0
LAYER
  5
201
100
AcDbSymbolTableRecord
100
AcDbLayerTableRecord
  2
COSMETIC
 70
0
 62
7
  6
CONTINUOUS
370
-3
390
F
  0
LAYER
  5
202
100
AcDbSymbolTableRecord
100
AcDbLayerTableRecord
  2
COSMETICI
 70
0
 62
7
  6
CONTINUOUS
370
-3
390
F
  0
LAYER
  5
203
100
AcDbSymbolTableRecord
100
AcDbLayerTableRecord
  2
CURVE
 70
0
 62
7
  6
CONTINUOUS
370
-3
390
F
  0
LAYER
  5
204
100
AcDbSymbolTableRecord
100
AcDbLayerTableRecord
  2
CURVE_TASSELLI
 70
0
 62
7
  6
CONTINUOUS
370
-3
390
F
  0
LAYER
  5
205
100
AcDbSymbolTableRecord
100
AcDbLayerTableRecord
  2
DRAFT
 70
0
 62
7
  6
CONTINUOUS
370
-3
390
F
  0
LAYER
  5
206
100
AcDbSymbolTableRecord
100
AcDbLayerTableRecord
  2
IMPORT_IGES
 70
0
 62
7
  6
CONTINUOUS
370
-3
390
F
  0
LAYER
  5
207
100
AcDbSymbolTableRecord
100
AcDbLayerTableRecord
  2
INTFCLR_2
 70
0
 62
7
  6
CONTINUOUS
370
-3
390
F
  0
LAYER
  5
208
100
AcDbSymbolTableRecord
100
AcDbLayerTableRecord
  2
INTFCLR_3
 70
0
 62
7
  6
CONTINUOUS
370
-3
390
F
  0
LAYER
  5
209
100
AcDbSymbolTableRecord
100
AcDbLayerTableRecord
  2
INTF_1
 70
0
 62
7
  6
CONTINUOUS
370
-3
390
F
  0
LAYER
  5
20A
100
AcDbSymbolTableRecord
100
AcDbLayerTableRecord
  2
INTF_14
 70
0
 62
7
  6
CONTINUOUS
370
-3
390
F
  0
LAYER
  5
20B
100
AcDbSymbolTableRecord
100
AcDbLayerTableRecord
  2
INTF_15
 70
0
 62
7
  6
CONTINUOUS
370
-3
390
F
  0
LAYER
  5
20C
100
AcDbSymbolTableRecord
100
AcDbLayerTableRecord
  2
INTF_18
 70
0
 62
7
  6
CONTINUOUS
370
-3
390
F
  0
LAYER
  5
20D
100
AcDbSymbolTableRecord
100
AcDbLayerTableRecord
  2
INTF_19
 70
0
 62
7
  6
CONTINUOUS
370
-3
390
F
  0
LAYER
  5
20E
100
AcDbSymbolTableRecord
100
AcDbLayerTableRecord
  2
INTF_2
 70
0
 62
7
  6
CONTINUOUS
370
-3
390
F
  0
LAYER
  5
20F
100
AcDbSymbolTableRecord
100
AcDbLayerTableRecord
  2
INTF_7
 70
0
 62
7
  6
CONTINUOUS
370
-3
390
F
  0
LAYER
  5
210
100
AcDbSymbolTableRecord
100
AcDbLayerTableRecord
  2
INTF_CYAN
 70
0
 62
7
  6
CONTINUOUS
370
-3
390
F
  0
LAYER
  5
211
100
AcDbSymbolTableRecord
100
AcDbLayerTableRecord
  2
INTF_YELLOW
 70
0
 62
7
  6
CONTINUOUS
370
-3
390
F
  0
LAYER
  5
212
100
AcDbSymbolTableRecord
100
AcDbLayerTableRecord
  2
LIVELLO_1
 70
0
 62
7
  6
CONTINUOUS
370
-3
390
F
  0
LAYER
  5
213
100
AcDbSymbolTableRecord
100
AcDbLayerTableRecord
  2
NOTE
 70
0
 62
7
  6
CONTINUOUS
370
-3
390
F
  0
LAYER
  5
214
100
AcDbSymbolTableRecord
100
AcDbLayerTableRecord
  2
PIANI
 70
0
 62
7
  6
CONTINUOUS
370
-3
390
F
  0
LAYER
  5
215
100
AcDbSymbolTableRecord
100
AcDbLayerTableRecord
  2
PIANI_ORIGINE
 70
0
 62
7
  6
CONTINUOUS
370
-3
390
F
  0
LAYER
  5
216
100
AcDbSymbolTableRecord
100
AcDbLayerTableRecord
  2
PIANI_RIFERIMENTO
 70
0
 62
7
  6
CONTINUOUS
370
-3
390
F
  0
LAYER
  5
217
100
AcDbSymbolTableRecord
100
AcDbLayerTableRecord
  2
PUNTI
 70
0
 62
7
  6
CONTINUOUS
370
-3
390
F
  0
LAYER
  5
218
100
AcDbSymbolTableRecord
100
AcDbLayerTableRecord
  2
RACCORDO
 70
0
 62
7
  6
CONTINUOUS
370
-3
390
F
  0
LAYER
  5
219
100
AcDbSymbolTableRecord
100
AcDbLayerTableRecord
  2
RGB__255__255__255__
 70
0
 62
7
  6
CONTINUOUS
370
-3
390
F
  0
LAYER
  5
21A
100
AcDbSymbolTableRecord
100
AcDbLayerTableRecord
  2
RGB____0____0____0__
 70
0
 62
7
  6
CONTINUOUS
370
-3
390
F
  0
LAYER
  5
21B
100
AcDbSymbolTableRecord
100
AcDbLayerTableRecord
  2
SIMBOLI
 70
0
 62
7
  6
CONTINUOUS
370
-3
390
F
  0
LAYER
  5
21C
100
AcDbSymbolTableRecord
100
AcDbLayerTableRecord
  2
SMUSSO
 70
0
 62
7
  6
CONTINUOUS
370
-3
390
F
  0
LAYER
  5
21D
100
AcDbSymbolTableRecord
100
AcDbLayerTableRecord
  2
SNAPLINE
 70
0
 62
7
  6
CONTINUOUS
370
-3
390
F
  0
LAYER
  5
21E
100
AcDbSymbolTableRecord
100
AcDbLayerTableRecord
  2
SUPERFICI
 70
0
 62
7
  6
CONTINUOUS
370
-3
390
F
  0
LAYER
  5
21F
100
AcDbSymbolTableRecord
100
AcDbLayerTableRecord
  2
TRASH
 70
0
 62
7
  6
CONTINUOUS
370
-3
390
F
  0
LAYER
  5
220
100
AcDbSymbolTableRecord
100
AcDbLayerTableRecord
  2
WHITE
 70
0
 62
7
  6
CONTINUOUS
370
-3
390
F
  0
LAYER
  5
221
100
AcDbSymbolTableRecord
100
AcDbLayerTableRecord
  2
XSEC_DATUMS
 70
0
 62
7
  6
CONTINUOUS
370
-3
390
F
  0
ENDTAB
  0
TABLE
  2
STYLE
  5
3
100
AcDbSymbolTable
 70
1
  0
STYLE
  5
11
100
AcDbSymbolTableRecord
100
AcDbTextStyleTableRecord
  2
STANDARD
 70
0
 40
0.0
 41
0.8
 50
0.0
 71
0
 42
0.2
  3
txt
  4

  0
STYLE
  5
222
100
AcDbSymbolTableRecord
100
AcDbTextStyleTableRecord
  2
TEXTSTYLE_1
 70
0
 40
0.0
 41
0.8
 50
0.0
 71
0
 42
0.2
  3
gdt
  4

  0
ENDTAB
  0
TABLE
  2
VIEW
  5
6
100
AcDbSymbolTable
 70
0
  0
ENDTAB
  0
TABLE
  2
UCS
  5
7
100
AcDbSymbolTable
 70
0
  0
ENDTAB
  0
TABLE
  2
APPID
  5
9
100
AcDbSymbolTable
 70
1
  0
APPID
  5
223
100
AcDbSymbolTableRecord
100
AcDbRegAppTableRecord
  2
ACAD
 70
0
  0
ENDTAB
  0
TABLE
  2
BLOCK_RECORD
  5
1
100
AcDbSymbolTable
 70
0
  0
BLOCK_RECORD
  5
224
100
AcDbSymbolTableRecord
100
AcDbBlockTableRecord
  2
*Model_Space
  0
BLOCK_RECORD
  5
225
100
AcDbSymbolTableRecord
100
AcDbBlockTableRecord
  2
*Paper_Space
  0
BLOCK_RECORD
  5
226
100
AcDbSymbolTableRecord
100
AcDbBlockTableRecord
  2
_FILLED
  0
BLOCK_RECORD
  5
227
100
AcDbSymbolTableRecord
100
AcDbBlockTableRecord
  2
*D0
  0
BLOCK_RECORD
  5
228
100
AcDbSymbolTableRecord
100
AcDbBlockTableRecord
  2
*D1
  0
BLOCK_RECORD
  5
229
100
AcDbSymbolTableRecord
100
AcDbBlockTableRecord
  2
*D2
  0
BLOCK_RECORD
  5
22A
100
AcDbSymbolTableRecord
100
AcDbBlockTableRecord
  2
*D3
  0
ENDTAB
  0
TABLE
  2
DIMSTYLE
  5
A
100
AcDbSymbolTable
 70
1
100
AcDbDimStyleTable
 71
0
  0
DIMSTYLE
105
22B
100
AcDbSymbolTableRecord
100
AcDbDimStyleTableRecord
  2
STANDARD
 70
0
  3

  4

 40
1.0
 41
3.0
 42
0.5
 43
0.38
 44
1.5
 45
0.0
 46
0.0
 47
0.01
 48
0.01
140
3.0
141
0.09
142
0.0
143
25.4
144
1.0
145
0.0
146
1.0
147
0.625
 71
1
 72
0
 73
0
 74
0
 75
0
 76
0
 77
1
 78
8
 79
2
170
0
171
1
172
0
173
0
174
0
175
0
176
0
177
0
178
0
270
2
179
2
271
2
272
2
273
2
274
2
275
0
280
0
281
0
282
0
283
1
284
8
285
0
286
0
287
3
288
0
340
11
278
44
341
226
342
226
343
226
344
226
  0
DIMSTYLE
105
22C
100
AcDbSymbolTableRecord
100
AcDbDimStyleTableRecord
  2
DIMSTYLE_1
 70
0
  3

  4

 40
1.0
 41
3.0
 42
0.5
 43
0.38
 44
1.5
 45
0.0
 46
0.0
 47
0.0
 48
0.0
140
3.0
141
0.09
142
0.0
143
25.4
144
1.0
145
0.0
146
1.0
147
0.75
 71
0
 72
0
 73
0
 74
0
 75
0
 76
0
 77
1
 78
8
 79
2
170
0
171
1
172
0
173
0
174
0
175
0
176
0
177
0
178
0
270
2
179
2
271
2
272
2
273
2
274
2
275
0
280
0
281
0
282
0
283
1
284
8
285
0
286
0
287
3
288
0
340
11
278
44
341
226
342
226
343
226
344
226
  0
ENDTAB
  0
ENDSEC
  0
SECTION
  2
BLOCKS
  0
BLOCK
  5
20
100
AcDbEntity
  8
0
100
AcDbBlockBegin
  2
*Model_Space
 70
0
 10
0.0
 20
0.0
 30
0.0
  3
*Model_Space
  1

  0
ENDBLK
  5
21
100
AcDbEntity
  8
0
100
AcDbBlockEnd
  0
BLOCK
  5
1C
100
AcDbEntity
  8
0
100
AcDbBlockBegin
  2
*Paper_Space
 70
0
 10
0.0
 20
0.0
 30
0.0
  3
*Paper_Space
  1

  0
ENDBLK
  5
1D
100
AcDbEntity
  8
0
100
AcDbBlockEnd
  0
BLOCK
  5
22D
100
AcDbEntity
  8
0
100
AcDbBlockBegin
  2
_FILLED
 70
64
 10
0.0
 20
0.0
  3
_FILLED
  1

  0
SOLID
  5
22E
100
AcDbEntity
  8
0
  6
BYBLOCK
 62
0
100
AcDbTrace
 10
0.0
 20
0.0
 11
-1.0
 21
0.3166666667
 12
-1.0
 22
-0.3166666667
 13
-1.0
 23
-0.3166666667
  0
ENDBLK
  5
22F
100
AcDbEntity
  8
0
  6
BYBLOCK
 62
0
100
AcDbBlockEnd
  0
BLOCK
  5
230
100
AcDbEntity
  8
0
100
AcDbBlockBegin
 62
7
  6
CONTINUOUS
  2
*D0
 70
65
 10
0.0
 20
0.0
  3
*D0
  1

  0
MTEXT
  5
231
100
AcDbEntity
  8
0
100
AcDbMText
 62
7
  6
CONTINUOUS
  7
STANDARD
 71
2
 72
1
 10
49.2999999996
 20
-0.0000000004
 30
0.0
 11
0.0
 21
1.0
 31
0.0
 73
2
 44
0.9
  1
{\ftxt;\W0.0001;\H0.0001;\~}{\ftxt;\W1.5714285714;\H3.0; }{\ftxt;\W0.0001;\H0.0001;\~}
 40
3.0
 41
7.0714285714
  0
LINE
  5
232
100
AcDbEntity
  8
0
100
AcDbLine
 62
7
  6
CONTINUOUS
 10
44.4499999996
 20
-45.0000000004
 11
54.5499999996
 21
-45.0000000004
  0
LINE
  5
233
100
AcDbEntity
  8
0
100
AcDbLine
 62
7
  6
CONTINUOUS
 10
44.4499999996
 20
44.9999999996
 11
54.5499999996
 21
44.9999999996
  0
LINE
  5
234
100
AcDbEntity
  8
0
100
AcDbLine
 62
7
  6
CONTINUOUS
 10
53.0499999996
 20
-45.0000000004
 11
53.0499999996
 21
-0.0000000004
  0
LINE
  5
235
100
AcDbEntity
  8
0
100
AcDbLine
 62
7
  6
CONTINUOUS
 10
53.0499999996
 20
44.9999999996
 11
53.0499999996
 21
-0.0000000004
  0
INSERT
  5
236
100
AcDbEntity
  8
0
100
AcDbBlockReference
 62
7
  6
CONTINUOUS
  2
_FILLED
 10
53.0499999996
 20
-45.0000000004
 41
3.0
 42
3.0
 43
3.0
 50
270.0
  0
INSERT
  5
237
100
AcDbEntity
  8
0
100
AcDbBlockReference
 62
7
  6
CONTINUOUS
  2
_FILLED
 10
53.0499999996
 20
44.9999999996
 41
3.0
 42
3.0
 43
3.0
 50
90.0
  0
ENDBLK
  5
238
100
AcDbEntity
  8
0
  6
BYBLOCK
 62
0
100
AcDbBlockEnd
  0
BLOCK
  5
239
100
AcDbEntity
  8
0
100
AcDbBlockBegin
 62
7
  6
CONTINUOUS
  2
*D1
 70
65
 10
0.0
 20
0.0
  3
*D1
  1

  0
MTEXT
  5
23A
100
AcDbEntity
  8
0
100
AcDbMText
 62
7
  6
CONTINUOUS
  7
STANDARD
 71
2
 72
1
 10
-0.0500000004
 20
56.7499999996
 30
0.0
 11
1.0
 21
0.0
 31
0.0
 73
2
 44
0.9
  1
{\ftxt;\W0.0001;\H0.0001;\~}{\ftxt;\W1.5714285714;\H3.0; }{\ftxt;\W0.0001;\H0.0001;\~}
 40
3.0
 41
7.0714285714
  0
LINE
  5
23B
100
AcDbEntity
  8
0
100
AcDbLine
 62
7
  6
CONTINUOUS
 10
-45.0500000004
 20
44.4999999996
 11
-45.0500000004
 21
54.4999999996
  0
LINE
  5
23C
100
AcDbEntity
  8
0
100
AcDbLine
 62
7
  6
CONTINUOUS
 10
44.9499999996
 20
44.4999999996
 11
44.9499999996
 21
54.4999999996
  0
LINE
  5
23D
100
AcDbEntity
  8
0
100
AcDbLine
 62
7
  6
CONTINUOUS
 10
-45.0500000004
 20
52.9999999996
 11
-0.0500000004
 21
52.9999999996
  0
LINE
  5
23E
100
AcDbEntity
  8
0
100
AcDbLine
 62
7
  6
CONTINUOUS
 10
44.9499999996
 20
52.9999999996
 11
-0.0500000004
 21
52.9999999996
  0
INSERT
  5
23F
100
AcDbEntity
  8
0
100
AcDbBlockReference
 62
7
  6
CONTINUOUS
  2
_FILLED
 10
-45.0500000004
 20
52.9999999996
 41
3.0
 42
3.0
 43
3.0
 50
180.0
  0
INSERT
  5
240
100
AcDbEntity
  8
0
100
AcDbBlockReference
 62
7
  6
CONTINUOUS
  2
_FILLED
 10
44.9499999996
 20
52.9999999996
 41
3.0
 42
3.0
 43
3.0
  0
ENDBLK
  5
241
100
AcDbEntity
  8
0
  6
BYBLOCK
 62
0
100
AcDbBlockEnd
  0
BLOCK
  5
242
100
AcDbEntity
  8
0
100
AcDbBlockBegin
 62
7
  6
CONTINUOUS
  2
*D2
 70
65
 10
0.0
 20
0.0
  3
*D2
  1

  0
MTEXT
  5
243
100
AcDbEntity
  8
0
100
AcDbMText
 62
7
  6
CONTINUOUS
  7
STANDARD
 71
1
 72
1
 10
-66.9930953004
 20
66.7499999996
 30
0.0
 11
1.0
 21
0.0
 31
0.0
 73
2
 44
0.9
  1
{\ftxt;\W0.0001;\H0.0001;\~}{\ftxt;\W3.3571428571;\H3.0; }{\ftxt;\W0.0001;\H0.0001;\~}
 40
3.0
 41
15.1071428571
  0
LINE
  5
244
100
AcDbEntity
  8
0
100
AcDbLine
 62
7
  6
CONTINUOUS
 10
-78.4530656004
 20
44.4999999996
 11
-78.4530656004
 21
64.4999999996
  0
LINE
  5
245
100
AcDbEntity
  8
0
100
AcDbLine
 62
7
  6
CONTINUOUS
 10
-67.9030656004
 20
26.4903260325
 11
-67.9030656004
 21
64.4999999996
  0
LINE
  5
246
100
AcDbEntity
  8
0
100
AcDbLine
 62
7
  6
CONTINUOUS
 10
-78.4530656004
 20
62.9999999996
 11
-73.1780656004
 21
62.9999999996
  0
LINE
  5
247
100
AcDbEntity
  8
0
100
AcDbLine
 62
7
  6
CONTINUOUS
 10
-67.9030656004
 20
62.9999999996
 11
-73.1780656004
 21
62.9999999996
  0
LINE
  5
248
100
AcDbEntity
  8
0
100
AcDbLine
 62
7
  6
CONTINUOUS
 10
-73.1780656004
 20
62.9999999996
 11
-56.921666729
 21
62.9999999996
  0
INSERT
  5
249
100
AcDbEntity
  8
0
100
AcDbBlockReference
 62
7
  6
CONTINUOUS
  2
_FILLED
 10
-78.4530656004
 20
62.9999999996
 41
3.0
 42
3.0
 43
3.0
 50
180.0
  0
INSERT
  5
24A
100
AcDbEntity
  8
0
100
AcDbBlockReference
 62
7
  6
CONTINUOUS
  2
_FILLED
 10
-67.9030656004
 20
62.9999999996
 41
3.0
 42
3.0
 43
3.0
  0
ENDBLK
  5
24B
100
AcDbEntity
  8
0
  6
BYBLOCK
 62
0
100
AcDbBlockEnd
  0
BLOCK
  5
24C
100
AcDbEntity
  8
0
100
AcDbBlockBegin
 62
7
  6
CONTINUOUS
  2
*D3
 70
65
 10
0.0
 20
0.0
  3
*D3
  1

  0
MTEXT
  5
24D
100
AcDbEntity
  8
0
100
AcDbMText
 62
7
  6
CONTINUOUS
  7
STANDARD
 71
1
 72
1
 10
-66.8317719004
 20
56.7499999996
 30
0.0
 11
1.0
 21
0.0
 31
0.0
 73
2
 44
0.9
  1
{\ftxt;\W0.0001;\H0.0001;\~}{\ftxt;\W2.7857142857;\H3.0; }{\ftxt;\W0.0001;\H0.0001;\~}
 40
3.0
 41
12.5357142857
  0
LINE
  5
24E
100
AcDbEntity
  8
0
100
AcDbLine
 62
7
  6
CONTINUOUS
 10
-70.9030656004
 20
43.5383103277
 11
-70.9030656004
 21
54.4999999996
  0
LINE
  5
24F
100
AcDbEntity
  8
0
100
AcDbLine
 62
7
  6
CONTINUOUS
 10
-78.4530656004
 20
44.4999999996
 11
-78.4530656004
 21
54.4999999996
  0
LINE
  5
250
100
AcDbEntity
  8
0
100
AcDbLine
 62
7
  6
CONTINUOUS
 10
-70.9030656004
 20
52.9999999996
 11
-74.6780656004
 21
52.9999999996
  0
LINE
  5
251
100
AcDbEntity
  8
0
100
AcDbLine
 62
7
  6
CONTINUOUS
 10
-74.6780656004
 20
52.9999999996
 11
-58.4746290433
 21
52.9999999996
  0
LINE
  5
252
100
AcDbEntity
  8
0
100
AcDbLine
 62
7
  6
CONTINUOUS
 10
-78.4530656004
 20
52.9999999996
 11
-74.6780656004
 21
52.9999999996
  0
INSERT
  5
253
100
AcDbEntity
  8
0
100
AcDbBlockReference
 62
7
  6
CONTINUOUS
  2
_FILLED
 10
-70.9030656004
 20
52.9999999996
 41
3.0
 42
3.0
 43
3.0
  0
INSERT
  5
254
100
AcDbEntity
  8
0
100
AcDbBlockReference
 62
7
  6
CONTINUOUS
  2
_FILLED
 10
-78.4530656004
 20
52.9999999996
 41
3.0
 42
3.0
 43
3.0
 50
180.0
  0
ENDBLK
  5
255
100
AcDbEntity
  8
0
  6
BYBLOCK
 62
0
100
AcDbBlockEnd
  0
ENDSEC
  0
SECTION
  2
ENTITIES
  0
DIMENSION
  5
256
100
AcDbEntity
  8
0
100
AcDbDimension
 62
7
  6
CONTINUOUS
  2
*D0
 10
53.0499999996
 20
44.9999999996
 11
53.0499999996
 21
-0.4285733305
 70
160
 71
2
 72
2
 41
0.9
 42
90.0
  1
{\ftxt;\W0.0001;\H0.0001;\~}{\ftxt;\W1.5714285714;\H3.0; }{\ftxt;\W0.0001;\H0.0001;\~}
  3
DIMSTYLE_1
100
AcDbAlignedDimension
 13
43.9499999996
 23
-45.0000000004
 14
43.9499999996
 24
44.9999999996
 50
90.0
100
AcDbRotatedDimension
  0
DIMENSION
  5
257
100
AcDbEntity
  8
0
100
AcDbDimension
 62
7
  6
CONTINUOUS
  2
*D1
 10
44.9499999996
 20
52.9999999996
 11
-0.4785714633
 21
52.9999999996
 70
160
 71
2
 72
2
 41
0.9
 42
90.0
  1
{\ftxt;\W0.0001;\H0.0001;\~}{\ftxt;\W1.5714285714;\H3.0; }{\ftxt;\W0.0001;\H0.0001;\~}
  3
DIMSTYLE_1
100
AcDbAlignedDimension
 13
-45.0500000004
 23
43.9999999996
 14
44.9499999996
 24
43.9999999996
100
AcDbRotatedDimension
  0
DIMENSION
  5
258
100
AcDbEntity
  8
0
100
AcDbDimension
 62
7
  6
CONTINUOUS
  2
*D2
 10
-67.9030656004
 20
62.9999999996
 11
-62.3859521484
 21
62.9999999996
 70
160
 71
1
 72
2
 41
0.9
 42
10.55
  1
{\ftxt;\W0.0001;\H0.0001;\~}{\ftxt;\W3.3571428571;\H3.0; }{\ftxt;\W0.0001;\H0.0001;\~}
  3
DIMSTYLE_1
100
AcDbAlignedDimension
 13
-78.4530656004
 23
43.9999999996
 14
-67.9030656004
 24
25.9903260325
100
AcDbRotatedDimension
  0
DIMENSION
  5
259
100
AcDbEntity
  8
0
100
AcDbDimension
 62
7
  6
CONTINUOUS
  2
*D3
 10
-78.4530656004
 20
52.9999999996
 11
-63.0817717209
 21
52.9999999996
 70
160
 71
1
 72
2
 41
0.9
 42
7.55
  1
{\ftxt;\W0.0001;\H0.0001;\~}{\ftxt;\W2.7857142857;\H3.0; }{\ftxt;\W0.0001;\H0.0001;\~}
  3
DIMSTYLE_1
100
AcDbAlignedDimension
 13
-70.9030656004
 23
43.0383103277
 14
-78.4530656004
 24
43.9999999996
 50
180.0
100
AcDbRotatedDimension
  0
LINE
  5
25A
100
AcDbEntity
  8
SMUSSO
100
AcDbLine
 62
7
  6
CONTINUOUS
 10
-45.0500000004
 20
43.9999999996
 11
-45.0500000004
 21
-44.0000000004
  0
LINE
  5
25B
100
AcDbEntity
  8
SMUSSO
100
AcDbLine
 62
7
  6
CONTINUOUS
 10
-44.0500000004
 20
43.9999999996
 11
-44.0500000004
 21
-44.0000000004
  0
LINE
  5
25C
100
AcDbEntity
  8
SMUSSO
100
AcDbLine
 62
250
  6
CONTINUOUS
 10
-44.0500000004
 20
-44.0000000004
 11
-44.0500000004
 21
-45.0000000004
  0
LINE
  5
25D
100
AcDbEntity
  8
SMUSSO
100
AcDbLine
 62
250
  6
CONTINUOUS
 10
-44.0500000004
 20
43.9999999996
 11
-44.0500000004
 21
44.9999999996
  0
LINE
  5
25E
100
AcDbEntity
  8
SMUSSO
100
AcDbLine
 62
7
  6
CONTINUOUS
 10
-44.0500000004
 20
-45.0000000004
 11
43.9499999996
 21
-45.0000000004
  0
LINE
  5
25F
100
AcDbEntity
  8
SMUSSO
100
AcDbLine
 62
7
  6
CONTINUOUS
 10
-44.0500000004
 20
-44.0000000004
 11
43.9499999996
 21
-44.0000000004
  0
LINE
  5
260
100
AcDbEntity
  8
SMUSSO
100
AcDbLine
 62
250
  6
CONTINUOUS
 10
43.9499999996
 20
-44.0000000004
 11
44.9499999996
 21
-44.0000000004
  0
LINE
  5
261
100
AcDbEntity
  8
SMUSSO
100
AcDbLine
 62
250
  6
CONTINUOUS
 10
-44.0500000004
 20
-44.0000000004
 11
-45.0500000004
 21
-44.0000000004
  0
LWPOLYLINE
  5
262
100
AcDbEntity
  8
0
100
AcDbPolyline
 62
7
  6
CONTINUOUS
 90
10
 70
0
 43
0.3500000006
 10
-1.9785714254
 20
53.7499979553
 10
-1.1214286001
 20
54.6071449585
 10
-0.9071428406
 20
55.4642874298
 10
-0.9071428406
 20
56.3214299011
 10
-1.3357142887
 20
56.7499988708
 10
-1.9785714254
 20
56.7499988708
 10
-2.4071429443
 20
56.3214299011
 10
-2.4071429443
 20
55.4642874298
 10
-1.9785714254
 20
55.0357139282
 10
-1.0499999664
 20
55.0357139282
  0
LINE
  5
263
100
AcDbEntity
  8
RACCORDO
100
AcDbLine
 62
7
  6
CONTINUOUS
 10
-22.8000000004
 20
21.5499999996
 11
-22.8000000004
 21
-21.5500000004
  0
LINE
  5
264
100
AcDbEntity
  8
RACCORDO
100
AcDbLine
 62
7
  6
CONTINUOUS
 10
-21.6000000004
 20
-22.7500000004
 11
21.4999999996
 21
-22.7500000004
  0
LWPOLYLINE
  5
265
100
AcDbEntity
  8
0
100
AcDbPolyline
 62
7
  6
CONTINUOUS
 90
13
 70
0
 43
0.3500000006
 10
-0.050000002
 20
54.6071449585
 10
-0.050000002
 20
55.8928609314
 10
0.1642857088
 20
56.3214299011
 10
0.5928571569
 20
56.7499988708
 10
0.8071428809
 20
56.7499988708
 10
1.2357142582
 20
56.3214299011
 10
1.4500000176
 20
55.8928609314
 10
1.4500000176
 20
54.6071449585
 10
1.2357142582
 20
54.1785714569
 10
0.8071428809
 20
53.7499979553
 10
0.5928571569
 20
53.7499979553
 10
0.1642857088
 20
54.1785714569
 10
-0.050000002
 20
54.6071449585
  0
LWPOLYLINE
  5
266
100
AcDbEntity
  8
0
100
AcDbPolyline
 62
7
  6
CONTINUOUS
 90
13
 70
0
 43
0.3500000006
 10
51.4428553619
 20
-0.0000003204
 10
50.1571439209
 20
-0.0000003204
 10
49.7285704193
 20
0.2142864304
 10
49.3000014496
 20
0.642857666
 10
49.3000014496
 20
0.8571421509
 10
49.7285704193
 20
1.2857133865
 10
50.1571439209
 20
1.5000001373
 10
51.4428553619
 20
1.5000001373
 10
51.8714288635
 20
1.2857133865
 10
52.2999978333
 20
0.8571421509
 10
52.2999978333
 20
0.642857666
 10
51.8714288635
 20
0.2142864304
 10
51.4428553619
 20
-0.0000003204
  0
LINE
  5
267
100
AcDbEntity
  8
RACCORDO
100
AcDbLine
 62
7
  6
CONTINUOUS
 10
22.6999999996
 20
-21.5500000004
 11
22.6999999996
 21
21.5499999996
  0
LINE
  5
268
100
AcDbEntity
  8
RACCORDO
100
AcDbLine
 62
7
  6
CONTINUOUS
 10
21.4999999996
 20
22.7499999996
 11
-21.6000000004
 21
22.7499999996
  0
LWPOLYLINE
  5
269
100
AcDbEntity
  8
0
100
AcDbPolyline
 62
7
  6
CONTINUOUS
 90
10
 70
0
 43
0.3500000006
 10
52.2999978333
 20
-1.9285708809
 10
51.4428553619
 20
-1.0714295425
 10
50.5857128906
 20
-0.8571427917
 10
49.7285704193
 20
-0.8571427917
 10
49.3000014496
 20
-1.2857140274
 10
49.3000014496
 20
-1.9285708809
 10
49.7285704193
 20
-2.3571432495
 10
50.5857128906
 20
-2.3571432495
 10
51.0142863922
 20
-1.9285708809
 10
51.0142863922
 20
-1.0000006256
  0
LINE
  5
26A
100
AcDbEntity
  8
SMUSSO
100
AcDbLine
 62
250
  6
CONTINUOUS
 10
43.9499999996
 20
-44.0000000004
 11
43.9499999996
 21
-45.0000000004
  0
LINE
  5
26B
100
AcDbEntity
  8
SMUSSO
100
AcDbLine
 62
7
  6
CONTINUOUS
 10
43.9499999996
 20
-44.0000000004
 11
43.9499999996
 21
43.9999999996
  0
LINE
  5
26C
100
AcDbEntity
  8
SMUSSO
100
AcDbLine
 62
250
  6
CONTINUOUS
 10
43.9499999996
 20
43.9999999996
 11
43.9499999996
 21
44.9999999996
  0
LINE
  5
26D
100
AcDbEntity
  8
SMUSSO
100
AcDbLine
 62
7
  6
CONTINUOUS
 10
44.9499999996
 20
-44.0000000004
 11
44.9499999996
 21
43.9999999996
  0
LINE
  5
26E
100
AcDbEntity
  8
SMUSSO
100
AcDbLine
 62
250
  6
CONTINUOUS
 10
43.9499999996
 20
43.9999999996
 11
44.9499999996
 21
43.9999999996
  0
LINE
  5
26F
100
AcDbEntity
  8
SMUSSO
100
AcDbLine
 62
7
  6
CONTINUOUS
 10
43.9499999996
 20
43.9999999996
 11
-44.0500000004
 21
43.9999999996
  0
LINE
  5
270
100
AcDbEntity
  8
SMUSSO
100
AcDbLine
 62
250
  6
CONTINUOUS
 10
-44.0500000004
 20
43.9999999996
 11
-45.0500000004
 21
43.9999999996
  0
LINE
  5
271
100
AcDbEntity
  8
SMUSSO
100
AcDbLine
 62
7
  6
CONTINUOUS
 10
43.9499999996
 20
44.9999999996
 11
-44.0500000004
 21
44.9999999996
  0
LINE
  5
272
100
AcDbEntity
  8
SMUSSO
100
AcDbLine
 62
7
  6
CONTINUOUS
 10
-77.4530656004
 20
-45.0000000004
 11
-75.9530656004
 21
-45.0000000004
  0
LWPOLYLINE
  5
273
100
AcDbEntity
  8
0
100
AcDbPolyline
 62
7
  6
CONTINUOUS
 90
3
 70
0
 43
0.3500000006
 10
-66.9930957642
 20
65.8928549194
 10
-66.1359532928
 20
66.7500019226
 10
-66.1359532928
 20
63.7500010071
  0
LINE
  5
274
100
AcDbEntity
  8
0
100
AcDbLine
 62
250
  6
CONTINUOUS
 10
-72.4020219551
 20
-43.3404067072
 11
-70.9030656004
 21
-43.0383103286
  0
LINE
  5
275
100
AcDbEntity
  8
ASSI
100
AcDbLine
 62
250
  6
CONTINUOUS
 10
-72.4020219551
 20
-43.3404067072
 11
-70.9030656004
 21
-43.0383103286
  0
LINE
  5
276
100
AcDbEntity
  8
0
100
AcDbLine
 62
7
  6
CONTINUOUS
 10
-75.3030656004
 20
-44.3506196887
 11
-72.4030656004
 21
-44.3000000004
  0
LINE
  5
277
100
AcDbEntity
  8
ASSI
100
AcDbLine
 62
7
  6
CONTINUOUS
 10
-75.3030656004
 20
-44.3506196887
 11
-72.4030656004
 21
-44.3000000004
  0
LINE
  5
278
100
AcDbEntity
  8
SMUSSO
100
AcDbLine
 62
250
  6
CONTINUOUS
 10
-75.4530656004
 20
-44.0000000004
 11
-78.4530656004
 21
-44.0000000004
  0
LINE
  5
279
100
AcDbEntity
  8
0
100
AcDbLine
 62
250
  6
CONTINUOUS
 10
-75.3030656004
 20
-43.3000000004
 11
-72.4030656004
 21
-43.3000000004
  0
LINE
  5
27A
100
AcDbEntity
  8
ASSI
100
AcDbLine
 62
250
  6
CONTINUOUS
 10
-75.3030656004
 20
-43.3000000004
 11
-72.4030656004
 21
-43.3000000004
  0
LINE
  5
27B
100
AcDbEntity
  8
RACCORDO
100
AcDbLine
 62
7
  6
CONTINUOUS
 10
-75.3030656004
 20
-40.0000000004
 11
-75.4530656004
 21
-40.0000000004
  0
LINE
  5
27C
100
AcDbEntity
  8
RACCORDO
100
AcDbLine
 62
250
  6
CONTINUOUS
 10
-75.3030656004
 20
-38.0000000004
 11
-75.4530656004
 21
-38.0000000004
  0
LINE
  5
27D
100
AcDbEntity
  8
0
100
AcDbLine
 62
250
  6
CONTINUOUS
 10
-72.8845716004
 20
-36.1611410004
 11
-74.7845316004
 21
-36.1611410004
  0
LINE
  5
27E
100
AcDbEntity
  8
SMUSSO
100
AcDbLine
 62
7
  6
CONTINUOUS
 10
-78.4530656004
 20
43.9999999996
 11
-77.4530656004
 21
44.9999999996
  0
LINE
  5
27F
100
AcDbEntity
  8
0
100
AcDbLine
 62
250
  6
CONTINUOUS
 10
-73.4766946004
 20
-37.0778190004
 11
-74.7844176004
 21
-37.4399640004
  0
LINE
  5
280
100
AcDbEntity
  8
0
100
AcDbLine
 62
250
  6
CONTINUOUS
 10
-72.8845716004
 20
-33.6243090004
 11
-74.7844176004
 21
-33.8019660004
  0
LINE
  5
281
100
AcDbEntity
  8
0
100
AcDbLine
 62
250
  6
CONTINUOUS
 10
-74.1199636004
 20
-34.0937390004
 11
-72.8845716004
 21
-34.0122620004
  0
LINE
  5
282
100
AcDbEntity
  8
0
100
AcDbLine
 62
250
  6
CONTINUOUS
 10
-74.7845316004
 20
-35.7645690004
 11
-72.8845716004
 21
-35.7645690004
  0
LINE
  5
283
100
AcDbEntity
  8
0
100
AcDbLine
 62
250
  6
CONTINUOUS
 10
-72.8845716004
 20
-35.1716910004
 11
-74.1251356004
 21
-35.0861100004
  0
LINE
  5
284
100
AcDbEntity
  8
0
100
AcDbLine
 62
250
  6
CONTINUOUS
 10
-74.7844176004
 20
-35.3795360004
 11
-72.8845716004
 21
-35.5510810004
  0
LINE
  5
285
100
AcDbEntity
  8
0
100
AcDbLine
 62
250
  6
CONTINUOUS
 10
-74.7844176004
 20
-36.7046110004
 11
-73.4766946004
 21
-37.0778190004
  0
LINE
  5
286
100
AcDbEntity
  8
0
100
AcDbLine
 62
250
  6
CONTINUOUS
 10
-72.8845716004
 20
-36.9189960004
 11
-74.7844176004
 21
-36.3083100004
  0
LINE
  5
287
100
AcDbEntity
  8
SMUSSO
100
AcDbLine
 62
7
  6
CONTINUOUS
 10
-78.4530656004
 20
-44.0000000004
 11
-77.4530656004
 21
-45.0000000004
  0
LINE
  5
288
100
AcDbEntity
  8
0
100
AcDbLine
 62
250
  6
CONTINUOUS
 10
-73.2638486004
 20
-32.5202720004
 11
-72.8845716004
 21
-32.4175390004
  0
LINE
  5
289
100
AcDbEntity
  8
0
100
AcDbLine
 62
250
  6
CONTINUOUS
 10
-74.2623886004
 20
-32.7817570004
 11
-73.5573316004
 21
-32.5995270004
  0
LINE
  5
28A
100
AcDbEntity
  8
0
100
AcDbLine
 62
250
  6
CONTINUOUS
 10
-72.8845718544
 20
-31.8831153977
 11
-74.7622210591
 21
-31.8831153977
  0
LINE
  5
28B
100
AcDbEntity
  8
0
100
AcDbLine
 62
250
  6
CONTINUOUS
 10
-74.4607600237
 20
-31.5012884973
 11
-73.9392153362
 21
-31.5012884973
  0
LINE
  5
28C
100
AcDbEntity
  8
0
100
AcDbLine
 62
250
  6
CONTINUOUS
 10
-73.6280665169
 20
-31.4881387556
 11
-72.8845718544
 21
-31.4881387556
  0
LINE
  5
28D
100
AcDbEntity
  8
0
100
AcDbLine
 62
250
  6
CONTINUOUS
 10
-73.782629408
 20
-30.8635473918
 11
-73.7714029762
 21
-30.8635473918
  0
LINE
  5
28E
100
AcDbEntity
  8
0
100
AcDbLine
 62
250
  6
CONTINUOUS
 10
-73.5573316004
 20
-32.9792170004
 11
-74.2623886004
 21
-32.7817570004
  0
LINE
  5
28F
100
AcDbEntity
  8
0
100
AcDbLine
 62
250
  6
CONTINUOUS
 10
-72.8845716004
 20
-33.1697670004
 11
-73.2638486004
 21
-33.0603380004
  0
LINE
  5
290
100
AcDbEntity
  8
0
100
AcDbLine
 62
250
  6
CONTINUOUS
 10
-74.7844176004
 20
-32.9661240004
 11
-72.8845716004
 21
-33.5620370004
  0
LINE
  5
291
100
AcDbEntity
  8
0
100
AcDbLine
 62
250
  6
CONTINUOUS
 10
-74.7844176004
 20
-34.1943360004
 11
-73.7296176004
 21
-34.5909080004
  0
LINE
  5
292
100
AcDbEntity
  8
0
100
AcDbLine
 62
250
  6
CONTINUOUS
 10
-72.8845716004
 20
-34.5652640004
 11
-74.1199636004
 21
-34.0937390004
  0
LINE
  5
293
100
AcDbEntity
  8
0
100
AcDbLine
 62
7
  6
CONTINUOUS
 10
-69.9772284026
 20
-27.1501294391
 11
-70.9030656004
 21
-27.1517453315
  0
LINE
  5
294
100
AcDbEntity
  8
ASSI
100
AcDbLine
 62
7
  6
CONTINUOUS
 10
-69.9772284026
 20
-27.1501294391
 11
-70.9030656004
 21
-27.1517453315
  0
LINE
  5
295
100
AcDbEntity
  8
0
100
AcDbLine
 62
250
  6
CONTINUOUS
 10
-69.9772930167
 20
-26.9276792444
 11
-70.9030656004
 21
-26.9280974389
  0
LINE
  5
296
100
AcDbEntity
  8
ASSI
100
AcDbLine
 62
250
  6
CONTINUOUS
 10
-69.9772930167
 20
-26.9276792444
 11
-70.9030656004
 21
-26.9280974389
  0
LWPOLYLINE
  5
297
100
AcDbEntity
  8
0
100
AcDbPolyline
 62
7
  6
CONTINUOUS
 90
15
 70
0
 10
-68.9430753789
 20
-26.5286213362
 10
-68.9189658164
 20
-26.5279581571
 10
-68.890362211
 20
-26.5265775768
 10
-68.8622717192
 20
-26.5245969313
 10
-68.8348275128
 20
-26.5220515964
 10
-68.8079462666
 20
-26.5189324229
 10
-68.7816939628
 20
-26.5152401007
 10
-68.7563623622
 20
-26.5109942602
 10
-68.7319153323
 20
-26.5061589299
 10
-68.7082654529
 20
-26.5006673704
 10
-68.6854125664
 20
-26.4944117686
 10
-68.6628484898
 20
-26.4871213882
 10
-68.6406837081
 20
-26.4785433667
 10
-68.6197172908
 20
-26.4687401884
 10
-68.6156535719
 20
-26.4666186081
  0
LWPOLYLINE
  5
298
100
AcDbEntity
  8
ASSI
100
AcDbPolyline
 62
7
  6
CONTINUOUS
 90
15
 70
0
 10
-68.9430753789
 20
-26.5286213362
 10
-68.918965816
 20
-26.5279581571
 10
-68.8903622098
 20
-26.5265775767
 10
-68.8622717164
 20
-26.5245969311
 10
-68.8348275082
 20
-26.5220515959
 10
-68.8079462604
 20
-26.5189324221
 10
-68.7816939553
 20
-26.5152400996
 10
-68.7563623535
 20
-26.5109942586
 10
-68.731915322
 20
-26.5061589277
 10
-68.7082654405
 20
-26.5006673675
 10
-68.685412553
 20
-26.4944117647
 10
-68.6628484768
 20
-26.4871213831
 10
-68.6406836947
 20
-26.4785433607
 10
-68.6197172767
 20
-26.4687401812
 10
-68.6156535742
 20
-26.4666186093
  0
LINE
  5
299
100
AcDbEntity
  8
0
100
AcDbLine
 62
7
  6
CONTINUOUS
 10
-70.9030656004
 20
-26.5637861505
 11
-68.9430752625
 21
-26.5286213379
  0
LINE
  5
29A
100
AcDbEntity
  8
ASSI
100
AcDbLine
 62
7
  6
CONTINUOUS
 10
-70.9030656004
 20
-26.5637861505
 11
-68.9430752625
 21
-26.5286213379
  0
LINE
  5
29B
100
AcDbEntity
  8
0
100
AcDbLine
 62
7
  6
CONTINUOUS
 10
-69.9529412215
 20
-25.2000000004
 11
-70.9030656004
 21
-25.2000000004
  0
LINE
  5
29C
100
AcDbEntity
  8
ASSI
100
AcDbLine
 62
7
  6
CONTINUOUS
 10
-69.9529412215
 20
-25.2000000004
 11
-70.9030656004
 21
-25.2000000004
  0
LINE
  5
29D
100
AcDbEntity
  8
0
100
AcDbLine
 62
7
  6
CONTINUOUS
 10
-70.9030656004
 20
-25.0500000004
 11
-70.7530656004
 21
-25.0500000004
  0
LINE
  5
29E
100
AcDbEntity
  8
ASSI
100
AcDbLine
 62
7
  6
CONTINUOUS
 10
-70.9030656004
 20
-25.0500000004
 11
-70.7530656004
 21
-25.0500000004
  0
LINE
  5
29F
100
AcDbEntity
  8
0
100
AcDbLine
 62
7
  6
CONTINUOUS
 10
-70.4530656004
 20
-25.0500000004
 11
-70.2530656004
 21
-25.0500000004
  0
LINE
  5
2A0
100
AcDbEntity
  8
ASSI
100
AcDbLine
 62
7
  6
CONTINUOUS
 10
-70.4530656004
 20
-25.0500000004
 11
-70.2530656004
 21
-25.0500000004
  0
LINE
  5
2A1
100
AcDbEntity
  8
0
100
AcDbLine
 62
7
  6
CONTINUOUS
 10
-70.9030656004
 20
-25.755819875
 11
-69.9011856806
 21
-25.8000830555
  0
LINE
  5
2A2
100
AcDbEntity
  8
ASSI
100
AcDbLine
 62
7
  6
CONTINUOUS
 10
-70.9030656004
 20
-25.755819875
 11
-69.9011856806
 21
-25.8000830555
  0
LINE
  5
2A3
100
AcDbEntity
  8
0
100
AcDbLine
 62
7
  6
CONTINUOUS
 10
-67.9030656004
 20
-25.4000000004
 11
-69.8534375025
 21
-25.2049628102
  0
LINE
  5
2A4
100
AcDbEntity
  8
ASSI
100
AcDbLine
 62
7
  6
CONTINUOUS
 10
-67.9030656004
 20
-25.4000000004
 11
-69.8534375025
 21
-25.2049628102
  0
LINE
  5
2A5
100
AcDbEntity
  8
0
100
AcDbLine
 62
7
  6
CONTINUOUS
 10
-70.7530656004
 20
25.0499999996
 11
-70.6030656004
 21
25.1999999996
  0
LINE
  5
2A6
100
AcDbEntity
  8
ASSI
100
AcDbLine
 62
7
  6
CONTINUOUS
 10
-70.7530656004
 20
25.0499999996
 11
-70.6030656004
 21
25.1999999996
  0
LINE
  5
2A7
100
AcDbEntity
  8
0
100
AcDbLine
 62
7
  6
CONTINUOUS
 10
-70.2530656004
 20
25.0499999996
 11
-70.1030656004
 21
25.1999999996
  0
LINE
  5
2A8
100
AcDbEntity
  8
ASSI
100
AcDbLine
 62
7
  6
CONTINUOUS
 10
-70.2530656004
 20
25.0499999996
 11
-70.1030656004
 21
25.1999999996
  0
LINE
  5
2A9
100
AcDbEntity
  8
0
100
AcDbLine
 62
7
  6
CONTINUOUS
 10
-70.7530656004
 20
-25.0500000004
 11
-70.6030656004
 21
-25.2000000004
  0
LINE
  5
2AA
100
AcDbEntity
  8
ASSI
100
AcDbLine
 62
7
  6
CONTINUOUS
 10
-70.7530656004
 20
-25.0500000004
 11
-70.6030656004
 21
-25.2000000004
  0
LINE
  5
2AB
100
AcDbEntity
  8
0
100
AcDbLine
 62
7
  6
CONTINUOUS
 10
-70.2530656004
 20
-25.0500000004
 11
-70.1030656004
 21
-25.2000000004
  0
LINE
  5
2AC
100
AcDbEntity
  8
ASSI
100
AcDbLine
 62
7
  6
CONTINUOUS
 10
-70.2530656004
 20
-25.0500000004
 11
-70.1030656004
 21
-25.2000000004
  0
LWPOLYLINE
  5
2AD
100
AcDbEntity
  8
0
100
AcDbPolyline
 62
7
  6
CONTINUOUS
 90
3
 70
0
 43
0.3500000006
 10
-62.207383255
 20
64.0357166748
 10
-62.278809906
 20
63.8214321899
 10
-62.4216677399
 20
63.5357165222
  0
LWPOLYLINE
  5
2AE
100
AcDbEntity
  8
0
100
AcDbPolyline
 62
7
  6
CONTINUOUS
 90
3
 70
0
 43
0.3500000006
 10
-63.7603430328
 20
54.035713623
 10
-63.8317696838
 20
53.8214291382
 10
-63.9746275177
 20
53.5357134705
  0
LINE
  5
2AF
100
AcDbEntity
  8
SMUSSO
100
AcDbLine
 62
7
  6
CONTINUOUS
 10
-78.4530656004
 20
-44.0000000004
 11
-78.4530656004
 21
43.9999999996
  0
LINE
  5
2B0
100
AcDbEntity
  8
SMUSSO
100
AcDbLine
 62
7
  6
CONTINUOUS
 10
-77.4530656004
 20
-45.0000000004
 11
-77.4530656004
 21
44.9999999996
  0
LINE
  5
2B1
100
AcDbEntity
  8
SMUSSO
100
AcDbLine
 62
7
  6
CONTINUOUS
 10
-75.9530656004
 20
44.9999999996
 11
-75.9530656004
 21
-45.0000000004
  0
LINE
  5
2B2
100
AcDbEntity
  8
SMUSSO
100
AcDbLine
 62
7
  6
CONTINUOUS
 10
-75.4530656004
 20
44.4999999996
 11
-75.4530656004
 21
-44.5000000004
  0
LINE
  5
2B3
100
AcDbEntity
  8
ASSI
100
AcDbLine
 62
7
  6
CONTINUOUS
 10
-75.3530656004
 20
25.5714910258
 11
-75.3530656004
 21
26.9999999996
  0
LINE
  5
2B4
100
AcDbEntity
  8
0
100
AcDbLine
 62
7
  6
CONTINUOUS
 10
-75.3030656004
 20
-44.3506196887
 11
-75.3030656004
 21
44.3506196878
  0
LINE
  5
2B5
100
AcDbEntity
  8
ASSI
100
AcDbLine
 62
7
  6
CONTINUOUS
 10
-75.3030656004
 20
-44.3506196887
 11
-75.3030656004
 21
44.3506196878
  0
LINE
  5
2B6
100
AcDbEntity
  8
0
100
AcDbLine
 62
250
  6
CONTINUOUS
 10
-74.7845316004
 20
-36.1611410004
 11
-74.7845316004
 21
-35.7645690004
  0
LINE
  5
2B7
100
AcDbEntity
  8
0
100
AcDbLine
 62
250
  6
CONTINUOUS
 10
-74.7844176004
 20
-32.5824880004
 11
-74.7844176004
 21
-32.9661240004
  0
LINE
  5
2B8
100
AcDbEntity
  8
0
100
AcDbLine
 62
250
  6
CONTINUOUS
 10
-74.7844176004
 20
-33.8019660004
 11
-74.7844176004
 21
-34.1943360004
  0
LINE
  5
2B9
100
AcDbEntity
  8
0
100
AcDbLine
 62
250
  6
CONTINUOUS
 10
-74.7844176004
 20
-34.9832920004
 11
-74.7844176004
 21
-35.3795360004
  0
LINE
  5
2BA
100
AcDbEntity
  8
0
100
AcDbLine
 62
250
  6
CONTINUOUS
 10
-74.7844176004
 20
-36.3083100004
 11
-74.7844176004
 21
-36.7046110004
  0
LINE
  5
2BB
100
AcDbEntity
  8
0
100
AcDbLine
 62
250
  6
CONTINUOUS
 10
-74.7844176004
 20
-37.4399640004
 11
-74.7844176004
 21
-37.8707640004
  0
LINE
  5
2BC
100
AcDbEntity
  8
0
100
AcDbLine
 62
250
  6
CONTINUOUS
 10
-73.9392153362
 20
-31.5012884973
 11
-73.9392153362
 21
-31.2746513445
  0
LINE
  5
2BD
100
AcDbEntity
  8
0
100
AcDbLine
 62
250
  6
CONTINUOUS
 10
-73.6280665169
 20
-31.275506149
 11
-73.6280665169
 21
-31.4881387556
  0
LINE
  5
2BE
100
AcDbEntity
  8
0
100
AcDbLine
 62
250
  6
CONTINUOUS
 10
-73.5573316004
 20
-32.5995270004
 11
-73.5573316004
 21
-32.9792170004
  0
LINE
  5
2BF
100
AcDbEntity
  8
0
100
AcDbLine
 62
250
  6
CONTINUOUS
 10
-73.2638486004
 20
-33.0603380004
 11
-73.2638486004
 21
-32.5202720004
  0
LINE
  5
2C0
100
AcDbEntity
  8
0
100
AcDbLine
 62
250
  6
CONTINUOUS
 10
-72.8845718544
 20
-30.49938645
 11
-72.8845718544
 21
-30.8808429351
  0
LINE
  5
2C1
100
AcDbEntity
  8
0
100
AcDbLine
 62
250
  6
CONTINUOUS
 10
-72.8845718544
 20
-31.4881387556
 11
-72.8845718544
 21
-31.8831153977
  0
LINE
  5
2C2
100
AcDbEntity
  8
0
100
AcDbLine
 62
250
  6
CONTINUOUS
 10
-72.8845716004
 20
-37.2684760004
 11
-72.8845716004
 21
-36.9189960004
  0
LINE
  5
2C3
100
AcDbEntity
  8
0
100
AcDbLine
 62
250
  6
CONTINUOUS
 10
-72.8845716004
 20
-35.5510810004
 11
-72.8845716004
 21
-35.1716910004
  0
LINE
  5
2C4
100
AcDbEntity
  8
0
100
AcDbLine
 62
250
  6
CONTINUOUS
 10
-72.8845716004
 20
-34.6208830004
 11
-72.8845716004
 21
-34.5652640004
  0
LINE
  5
2C5
100
AcDbEntity
  8
0
100
AcDbLine
 62
250
  6
CONTINUOUS
 10
-72.8845716004
 20
-34.0122620004
 11
-72.8845716004
 21
-33.6243090004
  0
LINE
  5
2C6
100
AcDbEntity
  8
0
100
AcDbLine
 62
250
  6
CONTINUOUS
 10
-72.8845716004
 20
-33.5620370004
 11
-72.8845716004
 21
-33.1697670004
  0
LINE
  5
2C7
100
AcDbEntity
  8
0
100
AcDbLine
 62
250
  6
CONTINUOUS
 10
-72.8845716004
 20
-32.4175390004
 11
-72.8845716004
 21
-31.9995680004
  0
LINE
  5
2C8
100
AcDbEntity
  8
0
100
AcDbLine
 62
250
  6
CONTINUOUS
 10
-72.8845716004
 20
-35.7645690004
 11
-72.8845716004
 21
-36.1611410004
  0
LINE
  5
2C9
100
AcDbEntity
  8
0
100
AcDbLine
 62
250
  6
CONTINUOUS
 10
-69.9772285166
 20
-27.1500750557
 11
-69.9772930167
 21
-26.9276792444
  0
LINE
  5
2CA
100
AcDbEntity
  8
ASSI
100
AcDbLine
 62
250
  6
CONTINUOUS
 10
-69.9772285166
 20
-27.1500750557
 11
-69.9772930167
 21
-26.9276792444
  0
LINE
  5
2CB
100
AcDbEntity
  8
0
100
AcDbLine
 62
7
  6
CONTINUOUS
 10
-72.4030656004
 20
43.2999999996
 11
-72.4030656004
 21
-43.3000000004
  0
LINE
  5
2CC
100
AcDbEntity
  8
ASSI
100
AcDbLine
 62
7
  6
CONTINUOUS
 10
-72.4030656004
 20
43.2999999996
 11
-72.4030656004
 21
-43.3000000004
  0
LINE
  5
2CD
100
AcDbEntity
  8
0
100
AcDbLine
 62
7
  6
CONTINUOUS
 10
-70.9030656004
 20
43.0999999996
 11
-70.9030656004
 21
-43.1000000004
  0
LINE
  5
2CE
100
AcDbEntity
  8
ASSI
100
AcDbLine
 62
7
  6
CONTINUOUS
 10
-70.9030656004
 20
43.0999999996
 11
-70.9030656004
 21
-43.1000000004
  0
LINE
  5
2CF
100
AcDbEntity
  8
0
100
AcDbLine
 62
250
  6
CONTINUOUS
 10
-69.9772930167
 20
26.9276792435
 11
-69.9772285621
 21
27.1500742112
  0
LINE
  5
2D0
100
AcDbEntity
  8
ASSI
100
AcDbLine
 62
250
  6
CONTINUOUS
 10
-69.9772930167
 20
26.9276792435
 11
-69.9772285621
 21
27.1500742112
  0
LINE
  5
2D1
100
AcDbEntity
  8
0
100
AcDbLine
 62
250
  6
CONTINUOUS
 10
-68.0925984092
 20
25.8799866672
 11
-68.0925984092
 21
25.3810467187
  0
LINE
  5
2D2
100
AcDbEntity
  8
ASSI
100
AcDbLine
 62
250
  6
CONTINUOUS
 10
-68.0925984092
 20
25.8799866672
 11
-68.0925984092
 21
25.3810467187
  0
LINE
  5
2D3
100
AcDbEntity
  8
0
100
AcDbLine
 62
250
  6
CONTINUOUS
 10
-68.0925984092
 20
-25.3810467196
 11
-68.0925984092
 21
-25.8162101924
  0
LINE
  5
2D4
100
AcDbEntity
  8
ASSI
100
AcDbLine
 62
250
  6
CONTINUOUS
 10
-68.0925984092
 20
-25.3810467196
 11
-68.0925984092
 21
-25.8162101924
  0
LINE
  5
2D5
100
AcDbEntity
  8
0
100
AcDbLine
 62
7
  6
CONTINUOUS
 10
-67.9030656004
 20
26.0883643399
 11
-67.9030656004
 21
25.3999999996
  0
LINE
  5
2D6
100
AcDbEntity
  8
ASSI
100
AcDbLine
 62
7
  6
CONTINUOUS
 10
-67.9030656004
 20
26.0883643399
 11
-67.9030656004
 21
25.3999999996
  0
LINE
  5
2D7
100
AcDbEntity
  8
0
100
AcDbLine
 62
7
  6
CONTINUOUS
 10
-67.9030656004
 20
-25.4000000004
 11
-67.9030656004
 21
-26.0883643408
  0
LINE
  5
2D8
100
AcDbEntity
  8
ASSI
100
AcDbLine
 62
7
  6
CONTINUOUS
 10
-67.9030656004
 20
-25.4000000004
 11
-67.9030656004
 21
-26.0883643408
  0
LWPOLYLINE
  5
2D9
100
AcDbEntity
  8
0
100
AcDbPolyline
 62
7
  6
CONTINUOUS
 90
4
 70
0
 43
0.3500000006
 10
-66.8317705994
 20
56.1071454163
 10
-66.8317705994
 20
56.7499988708
 10
-65.3317701416
 20
56.7499988708
 10
-66.1889126129
 20
53.7499979553
  0
LWPOLYLINE
  5
2DA
100
AcDbEntity
  8
0
100
AcDbPolyline
 62
7
  6
CONTINUOUS
 90
13
 70
0
 43
0.3500000006
 10
-65.2788108215
 20
64.6071389465
 10
-65.2788108215
 20
65.8928549194
 10
-65.0645218048
 20
66.3214329529
 10
-64.6359528351
 20
66.7500019226
 10
-64.4216683502
 20
66.7500019226
 10
-63.9930948486
 20
66.3214329529
 10
-63.7788103638
 20
65.8928549194
 10
-63.7788103638
 20
64.6071389465
 10
-63.9930948486
 20
64.1785699768
 10
-64.4216683502
 20
63.7500010071
 10
-64.6359528351
 20
63.7500010071
 10
-65.0645218048
 20
64.1785699768
 10
-65.2788108215
 20
64.6071389465
  0
LINE
  5
2DB
100
AcDbEntity
  8
0
100
AcDbLine
 62
7
  6
CONTINUOUS
 10
-70.6030656004
 20
-25.2000000004
 11
-70.4530656004
 21
-25.0500000004
  0
LINE
  5
2DC
100
AcDbEntity
  8
ASSI
100
AcDbLine
 62
7
  6
CONTINUOUS
 10
-70.6030656004
 20
-25.2000000004
 11
-70.4530656004
 21
-25.0500000004
  0
LINE
  5
2DD
100
AcDbEntity
  8
RACCORDO
100
AcDbLine
 62
250
  6
CONTINUOUS
 10
-75.3030656004
 20
20.9999999996
 11
-75.4530656004
 21
20.9999999996
  0
LINE
  5
2DE
100
AcDbEntity
  8
0
100
AcDbLine
 62
7
  6
CONTINUOUS
 10
-70.6030656004
 20
25.1999999996
 11
-70.4530656004
 21
25.0499999996
  0
LINE
  5
2DF
100
AcDbEntity
  8
ASSI
100
AcDbLine
 62
7
  6
CONTINUOUS
 10
-70.6030656004
 20
25.1999999996
 11
-70.4530656004
 21
25.0499999996
  0
LINE
  5
2E0
100
AcDbEntity
  8
RACCORDO
100
AcDbLine
 62
7
  6
CONTINUOUS
 10
-75.3030656004
 20
22.9999999996
 11
-75.4530656004
 21
22.9999999996
  0
LINE
  5
2E1
100
AcDbEntity
  8
0
100
AcDbLine
 62
250
  6
CONTINUOUS
 10
-67.903065601
 20
-26.0406731712
 11
-68.7061502111
 21
-26.469794114
  0
LINE
  5
2E2
100
AcDbEntity
  8
ASSI
100
AcDbLine
 62
250
  6
CONTINUOUS
 10
-67.9030656009
 20
-26.0406731711
 11
-68.7061502111
 21
-26.469794114
  0
LINE
  5
2E3
100
AcDbEntity
  8
0
100
AcDbLine
 62
250
  6
CONTINUOUS
 10
-69.9772930167
 20
-26.9276792444
 11
-69.2353938116
 21
-26.5338659184
  0
LINE
  5
2E4
100
AcDbEntity
  8
ASSI
100
AcDbLine
 62
250
  6
CONTINUOUS
 10
-69.9772930167
 20
-26.9276792444
 11
-69.2353938116
 21
-26.5338659184
  0
LINE
  5
2E5
100
AcDbEntity
  8
0
100
AcDbLine
 62
7
  6
CONTINUOUS
 10
-67.9030656004
 20
-26.0883643408
 11
-69.8380536387
 21
-27.115490492
  0
LINE
  5
2E6
100
AcDbEntity
  8
ASSI
100
AcDbLine
 62
7
  6
CONTINUOUS
 10
-67.9030656004
 20
-26.0883643408
 11
-69.8380536387
 21
-27.115490492
  0
LINE
  5
2E7
100
AcDbEntity
  8
0
100
AcDbLine
 62
7
  6
CONTINUOUS
 10
-67.9030656004
 20
25.3999999996
 11
-69.8534375025
 21
25.2049628093
  0
LINE
  5
2E8
100
AcDbEntity
  8
ASSI
100
AcDbLine
 62
7
  6
CONTINUOUS
 10
-67.9030656004
 20
25.3999999996
 11
-69.8534375025
 21
25.2049628093
  0
LINE
  5
2E9
100
AcDbEntity
  8
0
100
AcDbLine
 62
7
  6
CONTINUOUS
 10
-70.9030656004
 20
25.7558198741
 11
-68.0925984092
 21
25.8799866672
  0
LINE
  5
2EA
100
AcDbEntity
  8
ASSI
100
AcDbLine
 62
7
  6
CONTINUOUS
 10
-70.9030656004
 20
25.7558198741
 11
-68.0925984092
 21
25.8799866672
  0
LINE
  5
2EB
100
AcDbEntity
  8
0
100
AcDbLine
 62
7
  6
CONTINUOUS
 10
-70.9030656004
 20
25.0499999996
 11
-70.7530656004
 21
25.0499999996
  0
LINE
  5
2EC
100
AcDbEntity
  8
ASSI
100
AcDbLine
 62
7
  6
CONTINUOUS
 10
-70.9030656004
 20
25.0499999996
 11
-70.7530656004
 21
25.0499999996
  0
LINE
  5
2ED
100
AcDbEntity
  8
0
100
AcDbLine
 62
7
  6
CONTINUOUS
 10
-70.4530656004
 20
25.0499999996
 11
-70.2530656004
 21
25.0499999996
  0
LINE
  5
2EE
100
AcDbEntity
  8
ASSI
100
AcDbLine
 62
7
  6
CONTINUOUS
 10
-70.4530656004
 20
25.0499999996
 11
-70.2530656004
 21
25.0499999996
  0
LINE
  5
2EF
100
AcDbEntity
  8
0
100
AcDbLine
 62
7
  6
CONTINUOUS
 10
-70.9030656004
 20
25.1999999996
 11
-69.9529412215
 21
25.1999999996
  0
LINE
  5
2F0
100
AcDbEntity
  8
ASSI
100
AcDbLine
 62
7
  6
CONTINUOUS
 10
-70.9030656004
 20
25.1999999996
 11
-69.9529412215
 21
25.1999999996
  0
LINE
  5
2F1
100
AcDbEntity
  8
RACCORDO
100
AcDbLine
 62
250
  6
CONTINUOUS
 10
-75.4530656004
 20
25.9999999996
 11
-75.3530656004
 21
25.9999999996
  0
LINE
  5
2F2
100
AcDbEntity
  8
RACCORDO
100
AcDbLine
 62
7
  6
CONTINUOUS
 10
-75.3030656004
 20
26.9999999996
 11
-75.4530656004
 21
26.9999999996
  0
LINE
  5
2F3
100
AcDbEntity
  8
0
100
AcDbLine
 62
250
  6
CONTINUOUS
 10
-69.9772930167
 20
26.9276792435
 11
-70.9030656004
 21
26.928097438
  0
LINE
  5
2F4
100
AcDbEntity
  8
ASSI
100
AcDbLine
 62
250
  6
CONTINUOUS
 10
-69.9772930167
 20
26.9276792435
 11
-70.9030656004
 21
26.928097438
  0
LINE
  5
2F5
100
AcDbEntity
  8
0
100
AcDbLine
 62
250
  6
CONTINUOUS
 10
-70.9030656004
 20
26.5523835747
 11
-69.0262773072
 21
26.5509203678
  0
LINE
  5
2F6
100
AcDbEntity
  8
ASSI
100
AcDbLine
 62
250
  6
CONTINUOUS
 10
-70.9030656004
 20
26.5523835747
 11
-69.0262773072
 21
26.5509203678
  0
LINE
  5
2F7
100
AcDbEntity
  8
0
100
AcDbLine
 62
7
  6
CONTINUOUS
 10
-69.0261216354
 20
26.5709140674
 11
-70.9030656004
 21
26.5723674747
  0
LINE
  5
2F8
100
AcDbEntity
  8
ASSI
100
AcDbLine
 62
7
  6
CONTINUOUS
 10
-69.0261216355
 20
26.5709140674
 11
-70.9030656004
 21
26.5723674747
  0
LINE
  5
2F9
100
AcDbEntity
  8
0
100
AcDbLine
 62
7
  6
CONTINUOUS
 10
-69.9772284026
 20
27.1501294382
 11
-70.9030656004
 21
27.1517453306
  0
LINE
  5
2FA
100
AcDbEntity
  8
ASSI
100
AcDbLine
 62
7
  6
CONTINUOUS
 10
-69.9772284026
 20
27.1501294382
 11
-70.9030656004
 21
27.1517453306
  0
LWPOLYLINE
  5
2FB
100
AcDbEntity
  8
0
100
AcDbPolyline
 62
7
  6
CONTINUOUS
 90
15
 70
0
 10
-68.7033215358
 20
26.5131541107
 10
-68.7109673206
 20
26.5170681954
 10
-68.731874939
 20
26.5264668939
 10
-68.7539085522
 20
26.5346317595
 10
-68.7763191715
 20
26.5415382036
 10
-68.7990501181
 20
26.5474088494
 10
-68.8225739823
 20
26.5525081327
 10
-68.8468765613
 20
26.5569244571
 10
-68.8720359302
 20
26.5607239737
 10
-68.8980975254
 20
26.5639397522
 10
-68.9247815777
 20
26.566554296
 10
-68.9520247371
 20
26.5685703422
 10
-68.9799019575
 20
26.569985321
 10
-69.0082654517
 20
26.5707661224
 10
-69.0261215749
 20
26.5709140642
  0
LWPOLYLINE
  5
2FC
100
AcDbEntity
  8
ASSI
100
AcDbPolyline
 62
7
  6
CONTINUOUS
 90
15
 70
0
 10
-68.7033215356
 20
26.5131541106
 10
-68.7109673086
 20
26.5170681895
 10
-68.7318749275
 20
26.5264668889
 10
-68.7539085404
 20
26.5346317551
 10
-68.7763191591
 20
26.5415382002
 10
-68.7990501068
 20
26.5474088468
 10
-68.8225739725
 20
26.5525081308
 10
-68.8468765527
 20
26.5569244557
 10
-68.8720359224
 20
26.5607239726
 10
-68.8980975185
 20
26.5639397514
 10
-68.9247815717
 20
26.5665542955
 10
-68.952024732
 20
26.5685703419
 10
-68.9799019535
 20
26.5699853209
 10
-69.0082654486
 20
26.5707661224
 10
-69.0261215749
 20
26.5709140642
  0
LINE
  5
2FD
100
AcDbEntity
  8
0
100
AcDbLine
 62
250
  6
CONTINUOUS
 10
-69.3055959754
 20
26.5711304777
 11
-69.9772930167
 21
26.9276792435
  0
LINE
  5
2FE
100
AcDbEntity
  8
ASSI
100
AcDbLine
 62
250
  6
CONTINUOUS
 10
-69.3055959754
 20
26.5711304777
 11
-69.9772930167
 21
26.9276792435
  0
LINE
  5
2FF
100
AcDbEntity
  8
0
100
AcDbLine
 62
7
  6
CONTINUOUS
 10
-69.8380536387
 20
27.1154904911
 11
-67.9030656004
 21
26.0883643399
  0
LINE
  5
300
100
AcDbEntity
  8
ASSI
100
AcDbLine
 62
7
  6
CONTINUOUS
 10
-69.8380536387
 20
27.1154904911
 11
-67.9030656004
 21
26.0883643399
  0
LINE
  5
301
100
AcDbEntity
  8
0
100
AcDbLine
 62
250
  6
CONTINUOUS
 10
-68.7969779032
 20
26.5162094918
 11
-67.9030656004
 21
26.038465964
  0
LINE
  5
302
100
AcDbEntity
  8
ASSI
100
AcDbLine
 62
250
  6
CONTINUOUS
 10
-68.7969779032
 20
26.5162094918
 11
-67.9030656004
 21
26.038465964
  0
LINE
  5
303
100
AcDbEntity
  8
SMUSSO
100
AcDbLine
 62
7
  6
CONTINUOUS
 10
-75.4530656004
 20
-44.5000000004
 11
-75.9530656004
 21
-45.0000000004
  0
LINE
  5
304
100
AcDbEntity
  8
RACCORDO
100
AcDbLine
 62
250
  6
CONTINUOUS
 10
-75.3030656004
 20
28.9999999996
 11
-75.4530656004
 21
28.9999999996
  0
LINE
  5
305
100
AcDbEntity
  8
SMUSSO
100
AcDbLine
 62
7
  6
CONTINUOUS
 10
-75.4530656004
 20
44.4999999996
 11
-75.9530656004
 21
44.9999999996
  0
LINE
  5
306
100
AcDbEntity
  8
0
100
AcDbLine
 62
250
  6
CONTINUOUS
 10
-74.1251356004
 20
-35.0861100004
 11
-72.8845716004
 21
-34.6208830004
  0
LINE
  5
307
100
AcDbEntity
  8
0
100
AcDbLine
 62
250
  6
CONTINUOUS
 10
-73.7296176004
 20
-34.5909080004
 11
-74.7844176004
 21
-34.9832920004
  0
LINE
  5
308
100
AcDbEntity
  8
0
100
AcDbLine
 62
250
  6
CONTINUOUS
 10
-72.8845716004
 20
-31.9995680004
 11
-74.7844176004
 21
-32.5824880004
  0
LWPOLYLINE
  5
309
100
AcDbEntity
  8
0
100
AcDbPolyline
 62
7
  6
CONTINUOUS
 90
10
 70
0
 43
0.3500000006
 10
-63.8317696838
 20
54.2499981079
 10
-63.7603430328
 20
54.1071448059
 10
-63.7603430328
 20
54.035713623
 10
-63.9032008667
 20
53.8928557892
 10
-63.9746275177
 20
53.8928557892
 10
-64.0460587006
 20
53.964286972
 10
-64.0460587006
 20
54.035713623
 10
-63.9746275177
 20
54.1785714569
 10
-63.9032008667
 20
54.2499981079
 10
-63.8317696838
 20
54.2499981079
  0
LINE
  5
30A
100
AcDbEntity
  8
0
100
AcDbLine
 62
7
  6
CONTINUOUS
 10
-72.4020219551
 20
-44.2991650842
 11
-70.9030656004
 21
-43.1000000004
  0
LINE
  5
30B
100
AcDbEntity
  8
ASSI
100
AcDbLine
 62
7
  6
CONTINUOUS
 10
-72.4020219551
 20
-44.2991650842
 11
-70.9030656004
 21
-43.1000000004
  0
LINE
  5
30C
100
AcDbEntity
  8
0
100
AcDbLine
 62
250
  6
CONTINUOUS
 10
-74.7844176004
 20
-37.8707640004
 11
-72.8845716004
 21
-37.2684760004
  0
LINE
  5
30D
100
AcDbEntity
  8
0
100
AcDbLine
 62
7
  6
CONTINUOUS
 10
-72.4020219551
 20
44.2991650833
 11
-70.9030656004
 21
43.0999999996
  0
LINE
  5
30E
100
AcDbEntity
  8
ASSI
100
AcDbLine
 62
7
  6
CONTINUOUS
 10
-72.4020219551
 20
44.2991650833
 11
-70.9030656004
 21
43.0999999996
  0
LINE
  5
30F
100
AcDbEntity
  8
RACCORDO
100
AcDbLine
 62
250
  6
CONTINUOUS
 10
-75.3030656004
 20
37.9999999996
 11
-75.4530656004
 21
37.9999999996
  0
LWPOLYLINE
  5
310
100
AcDbEntity
  8
0
100
AcDbPolyline
 62
7
  6
CONTINUOUS
 90
10
 70
0
 43
0.3500000006
 10
-62.278809906
 20
64.2500011597
 10
-62.207383255
 20
64.1071387939
 10
-62.207383255
 20
64.0357166748
 10
-62.350236557
 20
63.8928543091
 10
-62.4216677399
 20
63.8928543091
 10
-62.4930943909
 20
63.9642854919
 10
-62.4930943909
 20
64.0357166748
 10
-62.4216677399
 20
64.1785699768
 10
-62.350236557
 20
64.2500011597
 10
-62.278809906
 20
64.2500011597
  0
LINE
  5
311
100
AcDbEntity
  8
RACCORDO
100
AcDbLine
 62
7
  6
CONTINUOUS
 10
-75.3030656004
 20
39.9999999996
 11
-75.4530656004
 21
39.9999999996
  0
LINE
  5
312
100
AcDbEntity
  8
0
100
AcDbLine
 62
250
  6
CONTINUOUS
 10
-75.3030656004
 20
43.2999999996
 11
-72.4030656004
 21
43.2999999996
  0
LINE
  5
313
100
AcDbEntity
  8
ASSI
100
AcDbLine
 62
250
  6
CONTINUOUS
 10
-75.3030656004
 20
43.2999999996
 11
-72.4030656004
 21
43.2999999996
  0
LINE
  5
314
100
AcDbEntity
  8
SMUSSO
100
AcDbLine
 62
250
  6
CONTINUOUS
 10
-75.4530656004
 20
43.9999999996
 11
-78.4530656004
 21
43.9999999996
  0
LINE
  5
315
100
AcDbEntity
  8
SMUSSO
100
AcDbLine
 62
7
  6
CONTINUOUS
 10
-77.4530656004
 20
44.9999999996
 11
-75.9530656004
 21
44.9999999996
  0
LWPOLYLINE
  5
316
100
AcDbEntity
  8
0
100
AcDbPolyline
 62
7
  6
CONTINUOUS
 90
8
 70
0
 43
0.3500000006
 10
-62.7603427277
 20
53.7499979553
 10
-61.9032002563
 20
53.7499979553
 10
-61.4746312866
 20
54.1785714569
 10
-61.4746312866
 20
55.0357139282
 10
-61.9032002563
 20
55.4642874298
 10
-62.7603427277
 20
55.4642874298
 10
-62.7603427277
 20
56.7499988708
 10
-61.4746312866
 20
56.7499988708
  0
LWPOLYLINE
  5
317
100
AcDbEntity
  8
0
100
AcDbPolyline
 62
7
  6
CONTINUOUS
 90
8
 70
0
 43
0.3500000006
 10
-60.6174842834
 20
53.7499979553
 10
-59.7603418121
 20
53.7499979553
 10
-59.3317728424
 20
54.1785714569
 10
-59.3317728424
 20
55.0357139282
 10
-59.7603418121
 20
55.4642874298
 10
-60.6174842834
 20
55.4642874298
 10
-60.6174842834
 20
56.7499988708
 10
-59.3317728424
 20
56.7499988708
  0
LWPOLYLINE
  5
318
100
AcDbEntity
  8
0
100
AcDbPolyline
 62
7
  6
CONTINUOUS
 90
8
 70
0
 43
0.3500000006
 10
-61.2073829498
 20
63.7500010071
 10
-60.3502359467
 20
63.7500010071
 10
-59.9216669769
 20
64.1785699768
 10
-59.9216669769
 20
65.03571698
 10
-60.3502359467
 20
65.4642859497
 10
-61.2073829498
 20
65.4642859497
 10
-61.2073829498
 20
66.7500019226
 10
-59.9216669769
 20
66.7500019226
  0
LWPOLYLINE
  5
319
100
AcDbEntity
  8
0
100
AcDbPolyline
 62
7
  6
CONTINUOUS
 90
8
 70
0
 43
0.3500000006
 10
-59.0645245056
 20
63.7500010071
 10
-58.2073820343
 20
63.7500010071
 10
-57.7788085327
 20
64.1785699768
 10
-57.7788085327
 20
65.03571698
 10
-58.2073820343
 20
65.4642859497
 10
-59.0645245056
 20
65.4642859497
 10
-59.0645245056
 20
66.7500019226
 10
-57.7788085327
 20
66.7500019226
  0
LINE
  5
31A
100
AcDbEntity
  8
0
100
AcDbLine
 62
7
  6
CONTINUOUS
 10
-75.3030656004
 20
44.3506196878
 11
-72.4030656004
 21
44.2999999996
  0
LINE
  5
31B
100
AcDbEntity
  8
ASSI
100
AcDbLine
 62
7
  6
CONTINUOUS
 10
-75.3030656004
 20
44.3506196878
 11
-72.4030656004
 21
44.2999999996
  0
LINE
  5
31C
100
AcDbEntity
  8
0
100
AcDbLine
 62
250
  6
CONTINUOUS
 10
-72.4020219551
 20
43.3404067063
 11
-70.9030656004
 21
43.0383103277
  0
LINE
  5
31D
100
AcDbEntity
  8
ASSI
100
AcDbLine
 62
250
  6
CONTINUOUS
 10
-72.4020219551
 20
43.3404067063
 11
-70.9030656004
 21
43.0383103277
  0
ARC
  5
31E
100
AcDbEntity
  8
RACCORDO
100
AcDbCircle
 62
7
  6
CONTINUOUS
 10
-21.6000000004
 20
-21.5500000004
 40
1.2
100
AcDbArc
 50
180.0
 51
270.0
  0
ARC
  5
31F
100
AcDbEntity
  8
RACCORDO
100
AcDbCircle
 62
7
  6
CONTINUOUS
 10
21.4999999996
 20
-21.5500000004
 40
1.2
100
AcDbArc
 50
270.0
 51
360.0
  0
ARC
  5
320
100
AcDbEntity
  8
RACCORDO
100
AcDbCircle
 62
7
  6
CONTINUOUS
 10
21.4999999996
 20
21.5499999996
 40
1.2
100
AcDbArc
 50
0.0
 51
90.0
  0
ARC
  5
321
100
AcDbEntity
  8
RACCORDO
100
AcDbCircle
 62
7
  6
CONTINUOUS
 10
-21.6000000004
 20
21.5499999996
 40
1.2
100
AcDbArc
 50
90.0
 51
180.0
  0
ARC
  5
322
100
AcDbEntity
  8
SMUSSO
100
AcDbCircle
 62
7
  6
CONTINUOUS
 10
-44.0500000004
 20
43.9999999996
 40
1.0
100
AcDbArc
 50
90.0
 51
180.0
  0
ARC
  5
323
100
AcDbEntity
  8
SMUSSO
100
AcDbCircle
 62
7
  6
CONTINUOUS
 10
-44.0500000004
 20
-44.0000000004
 40
1.0
100
AcDbArc
 50
180.0
 51
270.0
  0
ARC
  5
324
100
AcDbEntity
  8
SMUSSO
100
AcDbCircle
 62
7
  6
CONTINUOUS
 10
43.9499999996
 20
-44.0000000004
 40
1.0
100
AcDbArc
 50
270.0
 51
360.0
  0
ARC
  5
325
100
AcDbEntity
  8
SMUSSO
100
AcDbCircle
 62
7
  6
CONTINUOUS
 10
43.9499999996
 20
43.9999999996
 40
1.0
100
AcDbArc
 50
0.0
 51
90.0
  0
ARC
  5
326
100
AcDbEntity
  8
ASSI
100
AcDbCircle
 62
250
  6
CONTINUOUS
 10
-68.9620925044
 20
-25.4476465152
 40
1.0611296159
100
AcDbArc
 50
271.0216313408
 51
275.6307801934
  0
ARC
  5
327
100
AcDbEntity
  8
0
100
AcDbCircle
 62
250
  6
CONTINUOUS
 10
-68.962092499
 20
-25.447646623
 40
1.061129508
100
AcDbArc
 50
271.0216311531
 51
275.6307883959
  0
ARC
  5
328
100
AcDbEntity
  8
0
100
AcDbCircle
 62
7
  6
CONTINUOUS
 10
-69.9529412215
 20
26.1999999996
 40
1.0
100
AcDbArc
 50
270.0
 51
275.7105931375
  0
ARC
  5
329
100
AcDbEntity
  8
0
100
AcDbCircle
 62
7
  6
CONTINUOUS
 10
-69.9529412215
 20
-26.2000000004
 40
1.0
100
AcDbArc
 50
84.2894068625
 51
90.0
  0
ARC
  5
32A
100
AcDbEntity
  8
ASSI
100
AcDbCircle
 62
7
  6
CONTINUOUS
 10
-69.9529412215
 20
26.1999999996
 40
1.0
100
AcDbArc
 50
270.0
 51
275.7105931375
  0
ARC
  5
32B
100
AcDbEntity
  8
ASSI
100
AcDbCircle
 62
7
  6
CONTINUOUS
 10
-69.9529412215
 20
-26.2000000004
 40
1.0
100
AcDbArc
 50
84.2894068625
 51
90.0
  0
ARC
  5
32C
100
AcDbEntity
  8
ASSI
100
AcDbCircle
 62
250
  6
CONTINUOUS
 10
-69.0271511453
 20
25.5563724629
 40
0.9945482887
100
AcDbArc
 50
87.9244499756
 51
89.9496583084
  0
ARC
  5
32D
100
AcDbEntity
  8
0
100
AcDbCircle
 62
250
  6
CONTINUOUS
 10
-69.0271511453
 20
25.5563724681
 40
0.9945482835
100
AcDbArc
 50
87.9244509539
 51
89.9496583088
  0
ARC
  5
32E
100
AcDbEntity
  8
0
100
AcDbCircle
 62
250
  6
CONTINUOUS
 10
-69.0253770716
 20
25.5835410245
 40
0.967333621
100
AcDbArc
 50
84.1829674686
 51
87.9711803526
  0
ARC
  5
32F
100
AcDbEntity
  8
ASSI
100
AcDbCircle
 62
250
  6
CONTINUOUS
 10
-69.025377065
 20
25.5835411292
 40
0.9673335161
100
AcDbArc
 50
84.1829633134
 51
87.9711795065
  0
ARC
  5
330
100
AcDbEntity
  8
0
100
AcDbCircle
 62
7
  6
CONTINUOUS
 10
-69.9777522287
 20
-26.8499994716
 40
0.3
100
AcDbArc
 50
270.0999999936
 51
297.9489527925
  0
ARC
  5
331
100
AcDbEntity
  8
0
100
AcDbCircle
 62
7
  6
CONTINUOUS
 10
-69.9777522287
 20
26.8499994707
 40
0.3
100
AcDbArc
 50
62.0510472075
 51
89.9000000064
  0
ARC
  5
332
100
AcDbEntity
  8
ASSI
100
AcDbCircle
 62
7
  6
CONTINUOUS
 10
-69.9777522287
 20
-26.8499994716
 40
0.3
100
AcDbArc
 50
270.0999999936
 51
297.9489527924
  0
ARC
  5
333
100
AcDbEntity
  8
ASSI
100
AcDbCircle
 62
7
  6
CONTINUOUS
 10
-69.9777522287
 20
26.8499994707
 40
0.3
100
AcDbArc
 50
62.0510472076
 51
89.9000000064
  0
ARC
  5
334
100
AcDbEntity
  8
ASSI
100
AcDbCircle
 62
7
  6
CONTINUOUS
 10
-75.2030656004
 20
25.5715715311
 40
0.15
100
AcDbArc
 50
180.0
 51
228.1817391826
  0
SPLINE
  5
335
100
AcDbEntity
  8
0
100
AcDbSpline
 62
7
  6
CONTINUOUS
 70
0
 71
3
 72
9
 73
5
 74
0
 42
0.0000001
 43
0.0000001
 44
0.0000000001
 40
0.0
 40
0.0
 40
0.0
 40
0.0
 40
0.4692870949
 40
1.0
 40
1.0
 40
1.0
 40
1.0
 10
-67.9030656004
 20
25.9903260325
 30
0.0
 10
-67.9030656004
 20
25.9819432622
 30
0.0
 10
-67.9071985678
 20
25.963949708
 30
0.0
 10
-67.9177422718
 20
25.9490693591
 30
0.0
 10
-67.9241742337
 20
25.942105138
 30
0.0
  0
SPLINE
  5
336
100
AcDbEntity
  8
0
100
AcDbSpline
 62
7
  6
CONTINUOUS
 70
0
 71
3
 72
9
 73
5
 74
0
 42
0.0000001
 43
0.0000001
 44
0.0000000001
 40
0.0
 40
0.0
 40
0.0
 40
0.0
 40
0.4358841832
 40
1.0
 40
1.0
 40
1.0
 40
1.0
 10
-67.9241742337
 20
25.942105138
 30
0.0
 10
-67.9385444237
 20
25.9265457829
 30
0.0
 10
-67.9813408244
 20
25.900367107
 30
0.0
 10
-68.0289792359
 20
25.8885764588
 30
0.0
 10
-68.0561548689
 20
25.8849920944
 30
0.0
  0
SPLINE
  5
337
100
AcDbEntity
  8
0
100
AcDbSpline
 62
250
  6
CONTINUOUS
 70
0
 71
3
 72
9
 73
5
 74
0
 42
0.0000001
 43
0.0000001
 44
0.0000000001
 40
0.0
 40
0.0
 40
0.0
 40
0.0
 40
0.5590804231
 40
1.0
 40
1.0
 40
1.0
 40
1.0
 10
-69.9772930167
 20
-26.9276792444
 30
0.0
 10
-69.9611212657
 20
-26.9561130935
 30
0.0
 10
-69.9310666992
 20
-27.0063206775
 30
0.0
 10
-69.8983329917
 20
-27.0549241767
 30
0.0
 10
-69.8825627212
 20
-27.0753401855
 30
0.0
  0
SPLINE
  5
338
100
AcDbEntity
  8
0
100
AcDbSpline
 62
250
  6
CONTINUOUS
 70
0
 71
3
 72
10
 73
6
 74
0
 42
0.0000001
 43
0.0000001
 44
0.0000000001
 40
0.0
 40
0.0
 40
0.0
 40
0.0
 40
0.6950723395
 40
0.8909534262
 40
1.0
 40
1.0
 40
1.0
 40
1.0
 10
-69.8825627212
 20
-27.0753401855
 30
0.0
 10
-69.8737755489
 20
-27.0867159567
 30
0.0
 10
-69.8617071857
 20
-27.1011662718
 30
0.0
 10
-69.8462114756
 20
-27.1142235649
 30
0.0
 10
-69.8391533899
 20
-27.1160691089
 30
0.0
 10
-69.8371593667
 20
-27.1150157965
 30
0.0
  0
SPLINE
  5
339
100
AcDbEntity
  8
0
100
AcDbSpline
 62
250
  6
CONTINUOUS
 70
0
 71
3
 72
9
 73
5
 74
0
 42
0.0000001
 43
0.0000001
 44
0.0000000001
 40
0.0
 40
0.0
 40
0.0
 40
0.0
 40
0.5637833407
 40
1.0
 40
1.0
 40
1.0
 40
1.0
 10
-69.9772930167
 20
26.9276792435
 30
0.0
 10
-69.9604714522
 20
26.9572424758
 30
0.0
 10
-69.9293991275
 20
27.0089599814
 30
0.0
 10
-69.8954909019
 20
27.0589978815
 30
0.0
 10
-69.8791638232
 20
27.0796387553
 30
0.0
  0
SPLINE
  5
33A
100
AcDbEntity
  8
0
100
AcDbSpline
 62
250
  6
CONTINUOUS
 70
0
 71
3
 72
10
 73
6
 74
0
 42
0.0000001
 43
0.0000001
 44
0.0000000001
 40
0.0
 40
0.0
 40
0.0
 40
0.0
 40
0.6924464512
 40
0.8884019262
 40
1.0
 40
1.0
 40
1.0
 40
1.0
 10
-69.8791638232
 20
27.0796387553
 30
0.0
 10
-69.8710624544
 20
27.0898805954
 30
0.0
 10
-69.8599433166
 20
27.1028525418
 30
0.0
 10
-69.8455180742
 20
27.1145298935
 30
0.0
 10
-69.839016496
 20
27.1160059338
 30
0.0
 10
-69.8371593667
 20
27.1150157956
 30
0.0
  0
SPLINE
  5
33B
100
AcDbEntity
  8
0
100
AcDbSpline
 62
7
  6
CONTINUOUS
 70
0
 71
3
 72
18
 73
14
 74
0
 42
0.0000001
 43
0.0000001
 44
0.0000000001
 40
0.0
 40
0.0
 40
0.0
 40
0.0
 40
0.009729988
 40
0.0276396801
 40
0.0540707176
 40
0.0889210475
 40
0.1319532851
 40
0.182833336
 40
0.3063610902
 40
0.455316722
 40
0.6245434425
 40
0.8082498577
 40
1.0
 40
1.0
 40
1.0
 40
1.0
 10
-72.4020219551
 20
-44.2991650842
 30
0.0
 10
-72.3995872897
 20
-44.2972173519
 30
0.0
 10
-72.3963026901
 20
-44.2883198428
 30
0.0
 10
-72.3925448523
 20
-44.2717891162
 30
0.0
 10
-72.3892641498
 20
-44.2464101683
 30
0.0
 10
-72.3864158893
 20
-44.2131804709
 30
0.0
 10
-72.3841607996
 20
-44.1719467983
 30
0.0
 10
-72.3818257822
 20
-44.1023189321
 30
0.0
 10
-72.3809197015
 20
-43.9986819538
 30
0.0
 10
-72.3824622971
 20
-43.8571465469
 30
0.0
 10
-72.386606169
 20
-43.6963675876
 30
0.0
 10
-72.3931532273
 20
-43.5219485624
 30
0.0
 10
-72.3988507797
 20
-43.4017695441
 30
0.0
 10
-72.4020219551
 20
-43.3404067072
 30
0.0
  0
SPLINE
  5
33C
100
AcDbEntity
  8
0
100
AcDbSpline
 62
7
  6
CONTINUOUS
 70
0
 71
3
 72
18
 73
14
 74
0
 42
0.0000001
 43
0.0000001
 44
0.0000000001
 40
0.0
 40
0.0
 40
0.0
 40
0.0
 40
0.1917501427
 40
0.3754565595
 40
0.5446832798
 40
0.6936389099
 40
0.817166663
 40
0.8680467139
 40
0.9110789516
 40
0.945929282
 40
0.9723603198
 40
0.990270012
 40
1.0
 40
1.0
 40
1.0
 40
1.0
 10
-72.4020219551
 20
43.3404067063
 30
0.0
 10
-72.3988507797
 20
43.4017695433
 30
0.0
 10
-72.3931532273
 20
43.5219485622
 30
0.0
 10
-72.386606169
 20
43.696367588
 30
0.0
 10
-72.3824622971
 20
43.8571465473
 30
0.0
 10
-72.3809197015
 20
43.9986819531
 30
0.0
 10
-72.3818257822
 20
44.1023189306
 30
0.0
 10
-72.3841607995
 20
44.1719467965
 30
0.0
 10
-72.3864158893
 20
44.2131804693
 30
0.0
 10
-72.3892641497
 20
44.246410167
 30
0.0
 10
-72.3925448522
 20
44.2717891152
 30
0.0
 10
-72.3963026901
 20
44.2883198419
 30
0.0
 10
-72.3995872897
 20
44.297217351
 30
0.0
 10
-72.4020219551
 20
44.2991650833
 30
0.0
  0
LINE
  5
33D
100
AcDbEntity
  8
0
100
AcDbLine
 62
250
  6
CONTINUOUS
 10
-68.943075228
 20
-26.5286232597
 11
-68.9431726845
 21
-26.5086074485
  0
SPLINE
  5
33E
100
AcDbEntity
  8
0
100
AcDbSpline
 62
250
  6
CONTINUOUS
 70
0
 71
3
 72
9
 73
5
 74
0
 42
0.0000001
 43
0.0000001
 44
0.0000000001
 40
0.0
 40
0.0
 40
0.0
 40
0.0
 40
0.476686861
 40
1.0
 40
1.0
 40
1.0
 40
1.0
 10
-68.7032064025
 20
26.513093344
 30
0.0
 10
-68.7166732025
 20
26.5202417616
 30
0.0
 10
-68.7489990594
 20
26.5282395689
 30
0.0
 10
-68.7812386987
 20
26.5219042501
 30
0.0
 10
-68.7969779032
 20
26.5162094918
 30
0.0
  0
SPLINE
  5
33F
100
AcDbEntity
  8
0
100
AcDbSpline
 62
7
  6
CONTINUOUS
 70
0
 71
3
 72
12
 73
8
 74
0
 42
0.0000001
 43
0.0000001
 44
0.0000000001
 40
0.0
 40
0.0
 40
0.0
 40
0.0
 40
0.3323811173
 40
0.6132720389
 40
0.729370181
 40
0.8302823252
 40
1.0
 40
1.0
 40
1.0
 40
1.0
 10
-68.0925984092
 20
-25.8162238125
 30
0.0
 10
-68.0666040064
 20
-25.8164533085
 30
0.0
 10
-68.0185384486
 20
-25.8219084895
 30
0.0
 10
-67.9641374627
 20
-25.841742902
 30
0.0
 10
-67.9320659943
 20
-25.8642955351
 30
0.0
 10
-67.9112298246
 20
-25.8863427225
 30
0.0
 10
-67.9030656004
 20
-25.9076891653
 30
0.0
 10
-67.9030656004
 20
-25.9209627278
 30
0.0
  0
LINE
  5
340
100
AcDbEntity
  8
0
100
AcDbLine
 62
250
  6
CONTINUOUS
 10
-69.0261216308
 20
26.5709159923
 11
-69.0262773072
 21
26.5509203678
  0
LINE
  5
341
100
AcDbEntity
  8
0
100
AcDbLine
 62
250
  6
CONTINUOUS
 10
-68.9431726845
 20
-26.5086074485
 11
-70.9030656001
 21
-26.5438008312
  0
SPLINE
  5
342
100
AcDbEntity
  8
0
100
AcDbSpline
 62
250
  6
CONTINUOUS
 70
0
 71
3
 72
10
 73
6
 74
0
 42
0.0000001
 43
0.0000001
 44
0.0000000001
 40
0.0
 40
0.0
 40
0.0
 40
0.0
 40
0.2229784577
 40
0.4717426798
 40
1.0
 40
1.0
 40
1.0
 40
1.0
 10
-68.7061502111
 20
-26.469794114
 30
0.0
 10
-68.7163895928
 20
-26.4752645661
 30
0.0
 10
-68.739781337
 20
-26.4834034285
 30
0.0
 10
-68.7903915932
 20
-26.4954864739
 30
0.0
 10
-68.8306070764
 20
-26.5009527666
 30
0.0
 10
-68.8579769336
 20
-26.5036559893
 30
0.0
  0
LINE
  5
343
100
AcDbEntity
  8
0
100
AcDbLine
 62
7
  6
CONTINUOUS
 10
-70.9030655774
 20
-25.8344712822
 11
-69.9011856806
 21
-25.8000830555
  0
SPLINE
  5
344
100
AcDbEntity
  8
0
100
AcDbSpline
 62
250
  6
CONTINUOUS
 70
0
 71
3
 72
10
 73
6
 74
0
 42
0.0000001
 43
0.0000001
 44
0.0000000001
 40
0.0
 40
0.0
 40
0.0
 40
0.0
 40
0.5303899715
 40
0.7783703901
 40
1.0
 40
1.0
 40
1.0
 40
1.0
 10
-68.9273358312
 20
26.5458934805
 30
0.0
 10
-68.9037253098
 20
26.5434702032
 30
0.0
 10
-68.8691167029
 20
26.5386543604
 30
0.0
 10
-68.8256616945
 20
26.5280279371
 30
0.0
 10
-68.8057251802
 20
26.5208835778
 30
0.0
 10
-68.7969779032
 20
26.5162094918
 30
0.0
  0
SPLINE
  5
345
100
AcDbEntity
  8
0
100
AcDbSpline
 62
250
  6
CONTINUOUS
 70
0
 71
3
 72
9
 73
5
 74
0
 42
0.0000001
 43
0.0000001
 44
0.0000000001
 40
0.0
 40
0.0
 40
0.0
 40
0.0
 40
0.4758746172
 40
1.0
 40
1.0
 40
1.0
 40
1.0
 10
-68.6158691926
 20
-26.4667331967
 30
0.0
 10
-68.6288105315
 20
-26.4736026897
 30
0.0
 10
-68.6599279949
 20
-26.481289868
 30
0.0
 10
-68.6909562303
 20
-26.475230119
 30
0.0
 10
-68.7061502111
 20
-26.469794114
 30
0.0
  0
SPLINE
  5
346
100
AcDbEntity
  8
ASSI
100
AcDbSpline
 62
250
  6
CONTINUOUS
 70
0
 71
3
 72
9
 73
5
 74
0
 42
0.0000001
 43
0.0000001
 44
0.0000000001
 40
0.0
 40
0.0
 40
0.0
 40
0.0
 40
0.4758746182
 40
1.0
 40
1.0
 40
1.0
 40
1.0
 10
-68.6158691926
 20
-26.4667331967
 30
0.0
 10
-68.6288105315
 20
-26.4736026897
 30
0.0
 10
-68.6599279949
 20
-26.4812898681
 30
0.0
 10
-68.6909562304
 20
-26.475230119
 30
0.0
 10
-68.7061502111
 20
-26.469794114
 30
0.0
  0
SPLINE
  5
347
100
AcDbEntity
  8
ASSI
100
AcDbSpline
 62
7
  6
CONTINUOUS
 70
0
 71
3
 72
8
 73
4
 74
0
 42
0.0000001
 43
0.0000001
 44
0.0000000001
 40
0.0
 40
0.0
 40
0.0
 40
0.0
 40
1.0
 40
1.0
 40
1.0
 40
1.0
 10
-75.3407250906
 20
26.99996106
 30
0.0
 10
-75.3331070757
 20
26.9748568376
 30
0.0
 10
-75.321085927
 20
26.9499574469
 30
0.0
 10
-75.3031644883
 20
26.9307981628
 30
0.0
  0
SPLINE
  5
348
100
AcDbEntity
  8
ASSI
100
AcDbSpline
 62
250
  6
CONTINUOUS
 70
0
 71
3
 72
9
 73
5
 74
0
 42
0.0000001
 43
0.0000001
 44
0.0000000001
 40
0.0
 40
0.0
 40
0.0
 40
0.0
 40
0.5590804491
 40
1.0
 40
1.0
 40
1.0
 40
1.0
 10
-69.9772930167
 20
-26.9276792444
 30
0.0
 10
-69.9611212619
 20
-26.9561131001
 30
0.0
 10
-69.9310666897
 20
-27.0063206931
 30
0.0
 10
-69.8983329753
 20
-27.0549242007
 30
0.0
 10
-69.8825627015
 20
-27.0753402111
 30
0.0
  0
SPLINE
  5
349
100
AcDbEntity
  8
ASSI
100
AcDbSpline
 62
250
  6
CONTINUOUS
 70
0
 71
3
 72
10
 73
6
 74
0
 42
0.0000001
 43
0.0000001
 44
0.0000000001
 40
0.0
 40
0.0
 40
0.0
 40
0.0
 40
0.6950723239
 40
0.8909534108
 40
1.0
 40
1.0
 40
1.0
 40
1.0
 10
-69.8825627015
 20
-27.0753402111
 30
0.0
 10
-69.8737755332
 20
-27.0867159756
 30
0.0
 10
-69.8617071757
 20
-27.101166282
 30
0.0
 10
-69.8462114716
 20
-27.1142235668
 30
0.0
 10
-69.8391533891
 20
-27.1160691085
 30
0.0
 10
-69.8371593667
 20
-27.1150157965
 30
0.0
  0
SPLINE
  5
34A
100
AcDbEntity
  8
ASSI
100
AcDbSpline
 62
250
  6
CONTINUOUS
 70
0
 71
3
 72
9
 73
5
 74
0
 42
0.0000001
 43
0.0000001
 44
0.0000000001
 40
0.0
 40
0.0
 40
0.0
 40
0.0
 40
0.5637833815
 40
1.0
 40
1.0
 40
1.0
 40
1.0
 10
-69.9772930167
 20
26.9276792435
 30
0.0
 10
-69.9604714467
 20
26.9572424854
 30
0.0
 10
-69.9293991137
 20
27.008960004
 30
0.0
 10
-69.895490878
 20
27.0589979161
 30
0.0
 10
-69.8791637945
 20
27.0796387915
 30
0.0
  0
SPLINE
  5
34B
100
AcDbEntity
  8
ASSI
100
AcDbSpline
 62
250
  6
CONTINUOUS
 70
0
 71
3
 72
10
 73
6
 74
0
 42
0.0000001
 43
0.0000001
 44
0.0000000001
 40
0.0
 40
0.0
 40
0.0
 40
0.0
 40
0.6924464256
 40
0.8884019017
 40
1.0
 40
1.0
 40
1.0
 40
1.0
 10
-69.8791637945
 20
27.0796387915
 30
0.0
 10
-69.8710624316
 20
27.0898806221
 30
0.0
 10
-69.8599433019
 20
27.1028525562
 30
0.0
 10
-69.8455180684
 20
27.114529896
 30
0.0
 10
-69.8390164949
 20
27.1160059332
 30
0.0
 10
-69.8371593667
 20
27.1150157956
 30
0.0
  0
SPLINE
  5
34C
100
AcDbEntity
  8
ASSI
100
AcDbSpline
 62
7
  6
CONTINUOUS
 70
0
 71
3
 72
12
 73
8
 74
0
 42
0.0000001
 43
0.0000001
 44
0.0000000001
 40
0.0
 40
0.0
 40
0.0
 40
0.0
 40
0.3323811173
 40
0.6132720389
 40
0.729370181
 40
0.8302823252
 40
1.0
 40
1.0
 40
1.0
 40
1.0
 10
-68.0925984092
 20
-25.8162238125
 30
0.0
 10
-68.0666040064
 20
-25.8164533084
 30
0.0
 10
-68.0185384486
 20
-25.8219084895
 30
0.0
 10
-67.9641374627
 20
-25.841742902
 30
0.0
 10
-67.9320659943
 20
-25.8642955351
 30
0.0
 10
-67.9112298246
 20
-25.8863427226
 30
0.0
 10
-67.9030656004
 20
-25.9076891653
 30
0.0
 10
-67.9030656004
 20
-25.9209627278
 30
0.0
  0
SPLINE
  5
34D
100
AcDbEntity
  8
ASSI
100
AcDbSpline
 62
7
  6
CONTINUOUS
 70
0
 71
3
 72
18
 73
14
 74
0
 42
0.0000001
 43
0.0000001
 44
0.0000000001
 40
0.0
 40
0.0
 40
0.0
 40
0.0
 40
0.009729988
 40
0.0276396801
 40
0.0540707176
 40
0.0889210475
 40
0.1319532851
 40
0.182833336
 40
0.3063610902
 40
0.455316722
 40
0.6245434425
 40
0.8082498577
 40
1.0
 40
1.0
 40
1.0
 40
1.0
 10
-72.4020219551
 20
-44.2991650842
 30
0.0
 10
-72.3995872897
 20
-44.2972173519
 30
0.0
 10
-72.3963026901
 20
-44.2883198428
 30
0.0
 10
-72.3925448523
 20
-44.2717891162
 30
0.0
 10
-72.3892641498
 20
-44.2464101683
 30
0.0
 10
-72.3864158893
 20
-44.2131804709
 30
0.0
 10
-72.3841607996
 20
-44.1719467983
 30
0.0
 10
-72.3818257822
 20
-44.1023189321
 30
0.0
 10
-72.3809197015
 20
-43.9986819538
 30
0.0
 10
-72.3824622971
 20
-43.8571465469
 30
0.0
 10
-72.386606169
 20
-43.6963675876
 30
0.0
 10
-72.3931532273
 20
-43.5219485624
 30
0.0
 10
-72.3988507797
 20
-43.4017695441
 30
0.0
 10
-72.4020219551
 20
-43.3404067072
 30
0.0
  0
SPLINE
  5
34E
100
AcDbEntity
  8
ASSI
100
AcDbSpline
 62
7
  6
CONTINUOUS
 70
0
 71
3
 72
18
 73
14
 74
0
 42
0.0000001
 43
0.0000001
 44
0.0000000001
 40
0.0
 40
0.0
 40
0.0
 40
0.0
 40
0.1917501427
 40
0.3754565595
 40
0.5446832798
 40
0.6936389099
 40
0.817166663
 40
0.8680467139
 40
0.9110789516
 40
0.945929282
 40
0.9723603198
 40
0.990270012
 40
1.0
 40
1.0
 40
1.0
 40
1.0
 10
-72.4020219551
 20
43.3404067063
 30
0.0
 10
-72.3988507797
 20
43.4017695433
 30
0.0
 10
-72.3931532273
 20
43.5219485622
 30
0.0
 10
-72.386606169
 20
43.696367588
 30
0.0
 10
-72.3824622971
 20
43.8571465473
 30
0.0
 10
-72.3809197015
 20
43.9986819531
 30
0.0
 10
-72.3818257822
 20
44.1023189306
 30
0.0
 10
-72.3841607995
 20
44.1719467965
 30
0.0
 10
-72.3864158893
 20
44.2131804693
 30
0.0
 10
-72.3892641497
 20
44.246410167
 30
0.0
 10
-72.3925448522
 20
44.2717891152
 30
0.0
 10
-72.3963026901
 20
44.2883198419
 30
0.0
 10
-72.3995872897
 20
44.297217351
 30
0.0
 10
-72.4020219551
 20
44.2991650833
 30
0.0
  0
SPLINE
  5
34F
100
AcDbEntity
  8
ASSI
100
AcDbSpline
 62
7
  6
CONTINUOUS
 70
0
 71
3
 72
9
 73
5
 74
0
 42
0.0000001
 43
0.0000001
 44
0.0000000001
 40
0.0
 40
0.0
 40
0.0
 40
0.0
 40
0.4692870949
 40
1.0
 40
1.0
 40
1.0
 40
1.0
 10
-67.9030656004
 20
25.9903260325
 30
0.0
 10
-67.9030656004
 20
25.9819432622
 30
0.0
 10
-67.9071985678
 20
25.963949708
 30
0.0
 10
-67.9177422718
 20
25.9490693591
 30
0.0
 10
-67.9241742337
 20
25.942105138
 30
0.0
  0
SPLINE
  5
350
100
AcDbEntity
  8
ASSI
100
AcDbSpline
 62
7
  6
CONTINUOUS
 70
0
 71
3
 72
9
 73
5
 74
0
 42
0.0000001
 43
0.0000001
 44
0.0000000001
 40
0.0
 40
0.0
 40
0.0
 40
0.0
 40
0.4358841832
 40
1.0
 40
1.0
 40
1.0
 40
1.0
 10
-67.9241742337
 20
25.942105138
 30
0.0
 10
-67.9385444237
 20
25.9265457829
 30
0.0
 10
-67.9813408244
 20
25.900367107
 30
0.0
 10
-68.0289792359
 20
25.8885764588
 30
0.0
 10
-68.0561548689
 20
25.8849920944
 30
0.0
  0
SPLINE
  5
351
100
AcDbEntity
  8
ASSI
100
AcDbSpline
 62
250
  6
CONTINUOUS
 70
0
 71
3
 72
10
 73
6
 74
0
 42
0.0000001
 43
0.0000001
 44
0.0000000001
 40
0.0
 40
0.0
 40
0.0
 40
0.0
 40
0.530389975
 40
0.7783703925
 40
1.0
 40
1.0
 40
1.0
 40
1.0
 10
-68.9273357655
 20
26.5458934737
 30
0.0
 10
-68.9037252557
 20
26.5434701959
 30
0.0
 10
-68.869116666
 20
26.538654353
 30
0.0
 10
-68.8256616796
 20
26.5280279324
 30
0.0
 10
-68.8057251758
 20
26.5208835755
 30
0.0
 10
-68.7969779032
 20
26.5162094918
 30
0.0
  0
LINE
  5
352
100
AcDbEntity
  8
ASSI
100
AcDbLine
 62
250
  6
CONTINUOUS
 10
-68.9431726845
 20
-26.5086074485
 11
-70.9030656001
 21
-26.5438008312
  0
SPLINE
  5
353
100
AcDbEntity
  8
ASSI
100
AcDbSpline
 62
250
  6
CONTINUOUS
 70
0
 71
3
 72
10
 73
6
 74
0
 42
0.0000001
 43
0.0000001
 44
0.0000000001
 40
0.0
 40
0.0
 40
0.0
 40
0.0
 40
0.2229784515
 40
0.4717426786
 40
1.0
 40
1.0
 40
1.0
 40
1.0
 10
-68.7061502111
 20
-26.469794114
 30
0.0
 10
-68.7163896021
 20
-26.4752645711
 30
0.0
 10
-68.7397813692
 20
-26.4834034388
 30
0.0
 10
-68.7903916742
 20
-26.4954864897
 30
0.0
 10
-68.8306071962
 20
-26.5009527826
 30
0.0
 10
-68.8579770796
 20
-26.5036560038
 30
0.0
  0
LINE
  5
354
100
AcDbEntity
  8
ASSI
100
AcDbLine
 62
7
  6
CONTINUOUS
 10
-70.9030655774
 20
-25.8344712822
 11
-69.9011856806
 21
-25.8000830555
  0
LINE
  5
355
100
AcDbEntity
  8
ASSI
100
AcDbLine
 62
250
  6
CONTINUOUS
 10
-68.943075228
 20
-26.5286232597
 11
-68.9431726845
 21
-26.5086074485
  0
LINE
  5
356
100
AcDbEntity
  8
ASSI
100
AcDbLine
 62
250
  6
CONTINUOUS
 10
-69.0261216308
 20
26.5709159923
 11
-69.0262773072
 21
26.5509203678
  0
SPLINE
  5
357
100
AcDbEntity
  8
ASSI
100
AcDbSpline
 62
250
  6
CONTINUOUS
 70
0
 71
3
 72
9
 73
5
 74
0
 42
0.0000001
 43
0.0000001
 44
0.0000000001
 40
0.0
 40
0.0
 40
0.0
 40
0.0
 40
0.476686861
 40
1.0
 40
1.0
 40
1.0
 40
1.0
 10
-68.7032064025
 20
26.513093344
 30
0.0
 10
-68.7166732025
 20
26.5202417616
 30
0.0
 10
-68.7489990594
 20
26.5282395689
 30
0.0
 10
-68.7812386987
 20
26.5219042501
 30
0.0
 10
-68.7969779032
 20
26.5162094918
 30
0.0
  0
SPLINE
  5
358
100
AcDbEntity
  8
0
100
AcDbSpline
 62
250
  6
CONTINUOUS
 70
0
 71
3
 72
16
 73
12
 74
0
 42
0.0000001
 43
0.0000001
 44
0.0000000001
 40
0.0
 40
0.0
 40
0.0
 40
0.0
 40
0.125
 40
0.25
 40
0.3125
 40
0.375
 40
0.5
 40
0.625
 40
0.75
 40
0.875
 40
1.0
 40
1.0
 40
1.0
 40
1.0
 10
-73.4608665873
 20
-31.0543291301
 30
0.0
 10
-73.4736077553
 20
-31.0591210123
 30
0.0
 10
-73.4973202175
 20
-31.0699213516
 30
0.0
 10
-73.5249398849
 20
-31.0869312731
 30
0.0
 10
-73.5451625463
 20
-31.1023486406
 30
0.0
 10
-73.5641638223
 20
-31.1190369754
 30
0.0
 10
-73.5850007568
 20
-31.141831586
 30
0.0
 10
-73.6050772572
 20
-31.1727376039
 30
0.0
 10
-73.6187334446
 20
-31.2063880699
 30
0.0
 10
-73.6263753643
 20
-31.240728894
 30
0.0
 10
-73.6280665169
 20
-31.2635934604
 30
0.0
 10
-73.6280665169
 20
-31.275506149
 30
0.0
  0
SPLINE
  5
359
100
AcDbEntity
  8
0
100
AcDbSpline
 62
250
  6
CONTINUOUS
 70
0
 71
3
 72
12
 73
8
 74
0
 42
0.0000001
 43
0.0000001
 44
0.0000000001
 40
0.0
 40
0.0
 40
0.0
 40
0.0
 40
0.1666666667
 40
0.3333333333
 40
0.5
 40
0.6666666667
 40
1.0
 40
1.0
 40
1.0
 40
1.0
 10
-72.8845718544
 20
-30.8808429351
 30
0.0
 10
-72.9193076584
 20
-30.8908296183
 30
0.0
 10
-72.9878305992
 20
-30.9108910571
 30
0.0
 10
-73.0879329361
 20
-30.9403977651
 30
0.0
 10
-73.1857269436
 20
-30.9682804159
 30
0.0
 10
-73.3127425225
 20
-31.00409628
 30
0.0
 10
-73.4032825795
 20
-31.0326890545
 30
0.0
 10
-73.4608267265
 20
-31.054314163
 30
0.0
  0
SPLINE
  5
35A
100
AcDbEntity
  8
0
100
AcDbSpline
 62
250
  6
CONTINUOUS
 70
0
 71
3
 72
10
 73
6
 74
0
 42
0.0000001
 43
0.0000001
 44
0.0000000001
 40
0.0
 40
0.0
 40
0.0
 40
0.0
 40
0.3333333333
 40
0.6666666667
 40
1.0
 40
1.0
 40
1.0
 40
1.0
 10
-73.3987388206
 20
-30.6349473608
 30
0.0
 10
-73.3397974394
 20
-30.6188892847
 30
0.0
 10
-73.2229947966
 20
-30.5879128412
 30
0.0
 10
-73.0515328796
 20
-30.5433507261
 30
0.0
 10
-72.9396886369
 20
-30.514356012
 30
0.0
 10
-72.8845718544
 20
-30.49938645
 30
0.0
  0
SPLINE
  5
35B
100
AcDbEntity
  8
0
100
AcDbSpline
 62
250
  6
CONTINUOUS
 70
0
 71
3
 72
16
 73
12
 74
0
 42
0.0000001
 43
0.0000001
 44
0.0000000001
 40
0.0
 40
0.0
 40
0.0
 40
0.0
 40
0.1111111111
 40
0.2222222222
 40
0.3333333333
 40
0.4444444444
 40
0.5555555556
 40
0.6666666667
 40
0.7777777778
 40
0.8888888889
 40
1.0
 40
1.0
 40
1.0
 40
1.0
 10
-73.7714029762
 20
-30.8635473918
 30
0.0
 10
-73.7653912749
 20
-30.8484710249
 30
0.0
 10
-73.7501945721
 20
-30.8202676993
 30
0.0
 10
-73.7184892097
 20
-30.7824716051
 30
0.0
 10
-73.6816437942
 20
-30.7509354806
 30
0.0
 10
-73.6411706523
 20
-30.7242523067
 30
0.0
 10
-73.5993322797
 20
-30.702134078
 30
0.0
 10
-73.5552011021
 20
-30.6829086693
 30
0.0
 10
-73.5080259683
 20
-30.6658165285
 30
0.0
 10
-73.4566392551
 20
-30.650428967
 30
0.0
 10
-73.4185380302
 20
-30.6403414867
 30
0.0
 10
-73.3987388206
 20
-30.6349473611
 30
0.0
  0
SPLINE
  5
35C
100
AcDbEntity
  8
0
100
AcDbSpline
 62
250
  6
CONTINUOUS
 70
0
 71
3
 72
34
 73
30
 74
0
 42
0.0000001
 43
0.0000001
 44
0.0000000001
 40
0.0
 40
0.0
 40
0.0
 40
0.0
 40
0.0277777778
 40
0.0555555556
 40
0.0833333333
 40
0.1111111111
 40
0.1388888889
 40
0.1666666667
 40
0.1944444444
 40
0.2222222222
 40
0.25
 40
0.2777777778
 40
0.3333333333
 40
0.3888888889
 40
0.4444444444
 40
0.5
 40
0.5555555556
 40
0.6111111111
 40
0.6666666667
 40
0.7222222222
 40
0.7777777778
 40
0.8055555556
 40
0.8333333333
 40
0.8611111111
 40
0.8888888889
 40
0.9166666667
 40
0.9444444444
 40
0.9722222222
 40
1.0
 40
1.0
 40
1.0
 40
1.0
 10
-74.7422186351
 20
-30.9044355379
 30
0.0
 10
-74.7371555323
 20
-30.8904007405
 30
0.0
 10
-74.7248335684
 20
-30.8628010424
 30
0.0
 10
-74.6999773563
 20
-30.8215469781
 30
0.0
 10
-74.6685526181
 20
-30.7794171653
 30
0.0
 10
-74.6317313437
 20
-30.7396146476
 30
0.0
 10
-74.590172866
 20
-30.7035432522
 30
0.0
 10
-74.5446123502
 20
-30.6720512335
 30
0.0
 10
-74.4960127001
 20
-30.6457121674
 30
0.0
 10
-74.4459038553
 20
-30.625310974
 30
0.0
 10
-74.3974496763
 20
-30.6110732389
 30
0.0
 10
-74.3341468646
 20
-30.598575427
 30
0.0
 10
-74.2612107973
 20
-30.5930443996
 30
0.0
 10
-74.1830137784
 20
-30.5967784205
 30
0.0
 10
-74.1130297152
 20
-30.6090560201
 30
0.0
 10
-74.0518183402
 20
-30.6276213398
 30
0.0
 10
-73.9986015403
 20
-30.6505164744
 30
0.0
 10
-73.9527988146
 20
-30.6761890767
 30
0.0
 10
-73.9138669947
 20
-30.7035287324
 30
0.0
 10
-73.8811729936
 20
-30.73194263
 30
0.0
 10
-73.8582272565
 20
-30.7553453912
 30
0.0
 10
-73.8417576112
 20
-30.7734817034
 30
0.0
 10
-73.8301921296
 20
-30.7867670443
 30
0.0
 10
-73.8194151872
 20
-30.7995878956
 30
0.0
 10
-73.8091403753
 20
-30.8119992427
 30
0.0
 10
-73.7993539506
 20
-30.8246563101
 30
0.0
 10
-73.7912308501
 20
-30.8374015138
 30
0.0
 10
-73.7853597158
 20
-30.8502632872
 30
0.0
 10
-73.7832032638
 20
-30.8591000088
 30
0.0
 10
-73.782629408
 20
-30.8635473918
 30
0.0
  0
SPLINE
  5
35D
100
AcDbEntity
  8
0
100
AcDbSpline
 62
250
  6
CONTINUOUS
 70
0
 71
3
 72
15
 73
11
 74
0
 42
0.0000001
 43
0.0000001
 44
0.0000000001
 40
0.0
 40
0.0
 40
0.0
 40
0.0
 40
0.125
 40
0.25
 40
0.375
 40
0.5
 40
0.625
 40
0.75
 40
0.875
 40
1.0
 40
1.0
 40
1.0
 40
1.0
 10
-74.7622210591
 20
-31.8831153977
 30
0.0
 10
-74.7694170188
 20
-31.8342022313
 30
0.0
 10
-74.7827514889
 20
-31.739696961
 30
0.0
 10
-74.797832517
 20
-31.6090216926
 30
0.0
 10
-74.807593124
 20
-31.4852307725
 30
0.0
 10
-74.8114211349
 20
-31.366095616
 30
0.0
 10
-74.8084354409
 20
-31.2485933027
 30
0.0
 10
-74.7973219985
 20
-31.132127725
 30
0.0
 10
-74.7765742177
 20
-31.0169936904
 30
0.0
 10
-74.7556054754
 20
-30.9414897526
 30
0.0
 10
-74.7422186351
 20
-30.9044355379
 30
0.0
  0
SPLINE
  5
35E
100
AcDbEntity
  8
0
100
AcDbSpline
 62
250
  6
CONTINUOUS
 70
0
 71
3
 72
19
 73
15
 74
0
 42
0.0000001
 43
0.0000001
 44
0.0000000001
 40
0.0
 40
0.0
 40
0.0
 40
0.0
 40
0.1
 40
0.2
 40
0.25
 40
0.3
 40
0.4
 40
0.5
 40
0.6
 40
0.7
 40
0.75
 40
0.8
 40
0.9
 40
1.0
 40
1.0
 40
1.0
 40
1.0
 10
-74.2343462471
 20
-30.9665924611
 30
0.0
 10
-74.2458339536
 20
-30.9667667785
 30
0.0
 10
-74.2680955741
 20
-30.9688109126
 30
0.0
 10
-74.2958364525
 20
-30.9752826392
 30
0.0
 10
-74.3175036452
 20
-30.9827594343
 30
0.0
 10
-74.3388454052
 20
-30.9918119136
 30
0.0
 10
-74.3642921113
 20
-31.0058816409
 30
0.0
 10
-74.3928417277
 20
-31.0277121023
 30
0.0
 10
-74.4175819131
 20
-31.0542504691
 30
0.0
 10
-74.4345128958
 20
-31.0792467405
 30
0.0
 10
-74.4460311758
 20
-31.1009254265
 30
0.0
 10
-74.4560362807
 20
-31.1233891899
 30
0.0
 10
-74.4657826139
 20
-31.1530209702
 30
0.0
 10
-74.4704425595
 20
-31.1776757764
 30
0.0
 10
-74.4719448841
 20
-31.1906198901
 30
0.0
  0
SPLINE
  5
35F
100
AcDbEntity
  8
0
100
AcDbSpline
 62
250
  6
CONTINUOUS
 70
0
 71
3
 72
12
 73
8
 74
0
 42
0.0000001
 43
0.0000001
 44
0.0000000001
 40
0.0
 40
0.0
 40
0.0
 40
0.0
 40
0.3333333333
 40
0.5
 40
0.6666666667
 40
0.8333333333
 40
1.0
 40
1.0
 40
1.0
 40
1.0
 10
-74.4719448839
 20
-31.1906198901
 30
0.0
 10
-74.4759006719
 20
-31.2247031831
 30
0.0
 10
-74.4792086599
 20
-31.2760350981
 30
0.0
 10
-74.4784515632
 20
-31.3446468956
 30
0.0
 10
-74.4752975749
 20
-31.3963465212
 30
0.0
 10
-74.469320222
 20
-31.4486332426
 30
0.0
 10
-74.4637702792
 20
-31.4836469498
 30
0.0
 10
-74.4607600237
 20
-31.5012884973
 30
0.0
  0
SPLINE
  5
360
100
AcDbEntity
  8
0
100
AcDbSpline
 62
250
  6
CONTINUOUS
 70
0
 71
3
 72
15
 73
11
 74
0
 42
0.0000001
 43
0.0000001
 44
0.0000000001
 40
0.0
 40
0.0
 40
0.0
 40
0.0
 40
0.1666666667
 40
0.3333333333
 40
0.5
 40
0.5833333333
 40
0.6666666667
 40
0.75
 40
0.8333333333
 40
1.0
 40
1.0
 40
1.0
 40
1.0
 10
-73.9392153362
 20
-31.2746513445
 30
0.0
 10
-73.9399126103
 20
-31.2434334626
 30
0.0
 10
-73.9458403437
 20
-31.1854780506
 30
0.0
 10
-73.9671604893
 20
-31.1135922285
 30
0.0
 10
-73.9982598723
 20
-31.0622122598
 30
0.0
 10
-74.0347907113
 20
-31.0283093571
 30
0.0
 10
-74.0671488175
 20
-31.0068690878
 30
0.0
 10
-74.1029101691
 20
-30.9898520008
 30
0.0
 10
-74.1561050153
 20
-30.9724933486
 30
0.0
 10
-74.2015270303
 20
-30.9660914138
 30
0.0
 10
-74.2343983959
 20
-30.9665932676
 30
0.0
  0
ELLIPSE
  5
361
100
AcDbEntity
  8
0
100
AcDbEllipse
 62
7
  6
CONTINUOUS
 10
-71.1797567693
 20
43.2999999996
 30
0.0
 11
1.2233088312
 21
-0.0
 31
0.0
 40
0.7998095528
 41
3.1002827401
 42
3.1415926536
  0
ELLIPSE
  5
362
100
AcDbEntity
  8
0
100
AcDbEllipse
 62
7
  6
CONTINUOUS
 10
-71.1797567693
 20
-43.3000000004
 30
0.0
 11
1.2233088312
 21
0.0
 31
0.0
 40
0.7998095528
 41
-3.1415926536
 42
-3.1002827401
  0
ELLIPSE
  5
363
100
AcDbEntity
  8
0
100
AcDbEllipse
 62
7
  6
CONTINUOUS
 10
25.2457264646
 20
-0.0000000004
 30
0.0
 11
530.7034459343
 21
0.0
 31
0.0
 40
0.0494155445
 41
-1.7510554651
 42
-1.7475925186
  0
ELLIPSE
  5
364
100
AcDbEntity
  8
0
100
AcDbEllipse
 62
7
  6
CONTINUOUS
 10
4797.8272576884
 20
-0.0000000004
 30
0.0
 11
5070.6192780382
 21
-20.8600030618
 31
0.0
 40
0.0041137573
 41
2.856472503
 42
2.8584753448
  0
ELLIPSE
  5
365
100
AcDbEntity
  8
0
100
AcDbEllipse
 62
7
  6
CONTINUOUS
 10
-68.1030656004
 20
26.0797986946
 30
0.0
 11
-0.1417119467
 21
0.1422961243
 31
0.0
 40
0.9918061237
 41
-3.8766878413
 42
-3.6922883273
  0
ELLIPSE
  5
366
100
AcDbEntity
  8
ASSI
100
AcDbEllipse
 62
7
  6
CONTINUOUS
 10
-68.1030656004
 20
26.0797986946
 30
0.0
 11
-0.1417119467
 21
0.1422961243
 31
0.0
 40
0.9918061237
 41
-3.8766878413
 42
-3.6922883273
  0
ELLIPSE
  5
367
100
AcDbEntity
  8
ASSI
100
AcDbEllipse
 62
7
  6
CONTINUOUS
 10
-71.1797567693
 20
43.2999999996
 30
0.0
 11
1.2233088312
 21
0.0
 31
0.0
 40
0.7998095528
 41
3.1002827401
 42
3.1415926536
  0
ELLIPSE
  5
368
100
AcDbEntity
  8
ASSI
100
AcDbEllipse
 62
7
  6
CONTINUOUS
 10
-71.1797567693
 20
-43.3000000004
 30
0.0
 11
1.2233088312
 21
0.0
 31
0.0
 40
0.7998095528
 41
-3.1415926536
 42
-3.1002827401
  0
ELLIPSE
  5
369
100
AcDbEntity
  8
ASSI
100
AcDbEllipse
 62
7
  6
CONTINUOUS
 10
4797.8272576884
 20
-0.0000000004
 30
0.0
 11
5070.6192780382
 21
-20.8600030618
 31
0.0
 40
0.0041137573
 41
2.856472503
 42
2.8584753448
  0
ELLIPSE
  5
36A
100
AcDbEntity
  8
ASSI
100
AcDbEllipse
 62
7
  6
CONTINUOUS
 10
25.2457264646
 20
-0.0000000004
 30
0.0
 11
530.7034459343
 21
0.0
 31
0.0
 40
0.0494155445
 41
-1.7510554651
 42
-1.7475925186
  0
ENDSEC
  0
SECTION
  2
OBJECTS
  0
DICTIONARY
  5
C
100
AcDbDictionary
280
0
281
1
  3
ACAD_GROUP
350
D
  3
ACAD_MLINESTYLE
350
17
  3
ACAD_LAYOUT
350
1A
  3
ACAD_PLOTSETTINGS
350
19
  3
ACAD_PLOTSTYLENAME
350
E
  0
DICTIONARY
  5
D
102
{ACAD_REACTORS
330
C
102
}
100
AcDbDictionary
280
0
281
1
  0
ACDBDICTIONARYWDFLT
  5
E
102
{ACAD_REACTORS
330
C
102
}
100
AcDbDictionary
281
1
  3
Normal
350
F
100
AcDbDictionaryWithDefault
340
F
  0
DICTIONARY
  5
17
102
{ACAD_REACTORS
330
C
102
}
100
AcDbDictionary
280
0
281
1
  3
Standard
350
18
  0
DICTIONARY
  5
19
102
{ACAD_REACTORS
330
C
102
}
100
AcDbDictionary
281
1
  0
DICTIONARY
  5
1A
102
{ACAD_REACTORS
330
C
102
}
100
AcDbDictionary
281
1
  3
Model
350
36B
  3
Layout1
350
36C
  0
ACDBPLACEHOLDER
  5
F
102
{ACAD_REACTORS
330
E
102
}
  0
MLINESTYLE
  5
18
102
{ACAD_REACTORS
330
17
102
}
100
AcDbMlineStyle
  2
STANDARD
 70
0
  3

 62
256
 51
90.0
 52
90.0
 71
2
 49
0.5
 62
256
  6
BYLAYER
 49
-0.5
 62
256
  6
BYLAYER
  0
LAYOUT
  5
36B
102
{ACAD_REACTORS
330
1A
102
}
100
AcDbPlotSettings
  1

  2
none_device
  4
ISO_A4_(297.00_x_210.00_MM)
  6

 40
0.0
 41
0.0
 42
0.0
 43
0.0
 44
297.0
 45
210.0
 46
0.0
 47
0.0
 48
0.0
 49
0.0
140
0.0
141
0.0
142
1.0
143
1.0
 70
1024
 72
1
 73
0
 74
0
  7

 75
0
147
1.0
148
0.0
149
0.0
100
AcDbLayout
  1
Model
 70
0
 71
0
 10
0.0
 20
0.0
 11
297.0
 21
210.0
 12
0.0
 22
0.0
 32
0.0
 14
0.0
 24
0.0
 34
0.0
 15
0.0
 25
0.0
 35
0.0
146
0.0
 13
0.0
 23
0.0
 33
0.0
 16
1.0
 26
0.0
 36
0.0
 17
0.0
 27
1.0
 37
0.0
 76
0
330
224
345
0
346
0
  0
LAYOUT
  5
36C
102
{ACAD_REACTORS
330
1A
102
}
100
AcDbPlotSettings
  1

  2
none_device
  4
ISO_A4_(297.00_x_210.00_MM)
  6

 40
0.0
 41
0.0
 42
0.0
 43
0.0
 44
297.0
 45
210.0
 46
0.0
 47
0.0
 48
0.0
 49
0.0
140
0.0
141
0.0
142
1.0
143
1.0
 70
0
 72
1
 73
0
 74
0
  7

 75
0
147
1.0
148
0.0
149
0.0
100
AcDbLayout
  1
Layout1
 70
0
 71
1
 10
0.0
 20
0.0
 11
297.0
 21
210.0
 12
0.0
 22
0.0
 32
0.0
 14
0.0
 24
0.0
 34
0.0
 15
0.0
 25
0.0
 35
0.0
146
0.0
 13
0.0
 23
0.0
 33
0.0
 16
1.0
 26
0.0
 36
0.0
 17
0.0
 27
1.0
 37
0.0
 76
0
330
225
345
0
346
0
  0
ENDSEC
  0
EOF
