  0
SECTION
  2
HEADER
  9
$ACADVER
  1
AC1024
  9
$DWGCODEPAGE
  3
ANSI_1252
  9
$EXTMAX
 10
297.0
 20
210.0
 30
0.0
  9
$EXTMIN
 10
0.0
 20
0.0
 30
0.0
  9
$LIMMIN
 10
0.0
 20
0.0
  9
$LIMMAX
 10
297.0
 20
210.0
  9
$VIEWCTR
 10
148.5
 20
105.0
  9
$VIEWSIZE
 40
210.0
  9
$CLAYER
  8
0
  9
$LTSCALE
 40
16.335
  9
$CELTYPE
  6
BYLAYER
  9
$DIMSCALE
 40
1.0
  9
$DIMASZ
 40
3.0
  9
$DIMEXO
 40
0.5
  9
$DIMDLI
 40
11.286
  9
$DIMEXE
 40
1.5
  9
$DIMCEN
 40
2.673
  9
$DIMLFAC
 40
1.0
  9
$DIMBLK
  1
_FILLED
  9
$DIMALT
 70
0
  9
$DIMALTF
 40
0.0393700787
  9
$DIMTXT
 40
3.0
  9
$DIMTOL
 70
1
  9
$DIMLIM
 70
0
  9
$DIMTFAC
 40
1.0
  9
$DIMTP
 40
0.01
  9
$DIMTM
 40
0.01
  9
$DIMGAP
 40
0.625
  9
$DIMDSEP
 70
44
  9
$AUNITS
 70
0
  9
$PDMODE
 70
3
  9
$PDSIZE
 40
3.0
  9
$HANDSEED
  5
429
  9
$TILEMODE
 70
1
  9
$MEASUREMENT
 70
1
  9
$INSUNITS
 70
4
  0
ENDSEC
  0
SECTION
  2
CLASSES
  0
CLASS
  1
ACDBDICTIONARYWDFLT
  2
AcDbDictionaryWithDefault
  3
AutoCAD 2000
 90
0
 91
1
280
0
281
0
  0
CLASS
  1
ACDBPLACEHOLDER
  2
AcDbPlaceHolder
  3
AutoCAD 2000
 90
0
 91
1
280
0
281
0
  0
CLASS
  1
LAYOUT
  2
AcDbLayout
  3
AutoCAD 2000
 90
0
 91
0
280
0
281
0
  0
ENDSEC
  0
SECTION
  2
TABLES
  0
TABLE
  2
VPORT
  5
8
100
AcDbSymbolTable
 70
2
  0
VPORT
  5
1F4
100
AcDbSymbolTableRecord
100
AcDbViewportTableRecord
  2
*ACTIVE
 70
0
 10
0.0
 20
0.0
 11
1.0
 21
1.0
 12
148.5
 22
105.0
 13
0.0
 23
0.0
 14
1.0
 24
1.0
 15
0.0
 25
0.0
 16
0.0
 26
0.0
 36
1.0
 17
0.0
 27
0.0
 37
0.0
 40
210.0
 41
1.4142857143
 42
50.0
 43
0.0
 44
0.0
 50
0.0
 51
0.0
 71
0
 72
100
 73
1
 74
1
 75
0
 76
0
 77
0
 78
0
  0
ENDTAB
  0
TABLE
  2
LTYPE
  5
5
100
AcDbSymbolTable
 70
6
  0
LTYPE
  5
14
100
AcDbSymbolTableRecord
100
AcDbLinetypeTableRecord
  2
BYBLOCK
 70
0
  3

 72
65
 73
0
 40
0.0
  0
LTYPE
  5
15
100
AcDbSymbolTableRecord
100
AcDbLinetypeTableRecord
  2
BYLAYER
 70
0
  3

 72
65
 73
0
 40
0.0
  0
LTYPE
  5
16
100
AcDbSymbolTableRecord
100
AcDbLinetypeTableRecord
  2
CONTINUOUS
 70
64
  3
Solid line
 72
65
 73
0
 40
0.0
  0
LTYPE
  5
1F5
100
AcDbSymbolTableRecord
100
AcDbLinetypeTableRecord
  2
CENTER
 70
64
  3
____ _ ____ _ ____ _ ____ _ ____ _ ____ _ ____
 72
65
 73
4
 40
0.6
 49
0.375
 74
0
 49
-0.075
 74
0
 49
0.075
 74
0
 49
-0.075
 74
0
  0
LTYPE
  5
1F6
100
AcDbSymbolTableRecord
100
AcDbLinetypeTableRecord
  2
HIDDEN
 70
64
  3
- - - - - - - - - - - - - - - - - - - -
 72
65
 73
2
 40
0.2
 49
0.1
 74
0
 49
-0.1
 74
0
  0
LTYPE
  5
1F7
100
AcDbSymbolTableRecord
100
AcDbLinetypeTableRecord
  2
PHANTOM
 70
64
  3
_____ _ _ _____ _ _ _____ _ _ _____
 72
65
 73
6
 40
0.8
 49
0.45
 74
0
 49
-0.05
 74
0
 49
0.1
 74
0
 49
-0.05
 74
0
 49
0.1
 74
0
 49
-0.05
 74
0
  0
LTYPE
  5
1F8
100
AcDbSymbolTableRecord
100
AcDbLinetypeTableRecord
  2
DOT
 70
64
  3
. . . . . . . . . . . . . . . . . . . .
 72
65
 73
2
 40
0.2
 49
0.1
 74
0
 49
-0.1
 74
0
  0
LTYPE
  5
1F9
100
AcDbSymbolTableRecord
100
AcDbLinetypeTableRecord
  2
DASHED
 70
64
  3
- - - - - - - - - - - - - - - - - - - -
 72
65
 73
2
 40
0.2
 49
0.1
 74
0
 49
-0.1
 74
0
  0
ENDTAB
  0
TABLE
  2
LAYER
  5
2
100
AcDbSymbolTable
 70
36
  0
LAYER
  5
10
100
AcDbSymbolTableRecord
100
AcDbLayerTableRecord
  2
0
 70
0
 62
7
  6
CONTINUOUS
370
-3
390
F
  0
LAYER
  5
1FA
100
AcDbSymbolTableRecord
100
AcDbLayerTableRecord
  2
DEFAULT_1
 70
0
 62
7
  6
CENTER
370
-3
390
F
  0
LAYER
  5
1FB
100
AcDbSymbolTableRecord
100
AcDbLayerTableRecord
  2
DEFAULT_2
 70
0
 62
7
  6
HIDDEN
370
-3
390
F
  0
LAYER
  5
1FC
100
AcDbSymbolTableRecord
100
AcDbLayerTableRecord
  2
DEFAULT_3
 70
0
 62
7
  6
PHANTOM
370
-3
390
F
  0
LAYER
  5
1FD
100
AcDbSymbolTableRecord
100
AcDbLayerTableRecord
  2
ASSI
 70
0
 62
7
  6
CONTINUOUS
370
-3
390
F
  0
LAYER
  5
1FE
100
AcDbSymbolTableRecord
100
AcDbLayerTableRecord
  2
COORDINATE
 70
0
 62
7
  6
CONTINUOUS
370
-3
390
F
  0
LAYER
  5
1FF
100
AcDbSymbolTableRecord
100
AcDbLayerTableRecord
  2
COORD_ORIGINE
 70
0
 62
7
  6
CONTINUOUS
370
-3
390
F
  0
LAYER
  5
200
100
AcDbSymbolTableRecord
100
AcDbLayerTableRecord
  2
COPY_PUBLISH
 70
0
 62
7
  6
CONTINUOUS
370
-3
390
F
  0
LAYER
  5
201
100
AcDbSymbolTableRecord
100
AcDbLayerTableRecord
  2
COSMETIC
 70
0
 62
7
  6
CONTINUOUS
370
-3
390
F
  0
LAYER
  5
202
100
AcDbSymbolTableRecord
100
AcDbLayerTableRecord
  2
COSMETICI
 70
0
 62
7
  6
CONTINUOUS
370
-3
390
F
  0
LAYER
  5
203
100
AcDbSymbolTableRecord
100
AcDbLayerTableRecord
  2
CURVE
 70
0
 62
7
  6
CONTINUOUS
370
-3
390
F
  0
LAYER
  5
204
100
AcDbSymbolTableRecord
100
AcDbLayerTableRecord
  2
CURVE_TASSELLI
 70
0
 62
7
  6
CONTINUOUS
370
-3
390
F
  0
LAYER
  5
205
100
AcDbSymbolTableRecord
100
AcDbLayerTableRecord
  2
DRAFT
 70
0
 62
7
  6
CONTINUOUS
370
-3
390
F
  0
LAYER
  5
206
100
AcDbSymbolTableRecord
100
AcDbLayerTableRecord
  2
IMPORT_IGES
 70
0
 62
7
  6
CONTINUOUS
370
-3
390
F
  0
LAYER
  5
207
100
AcDbSymbolTableRecord
100
AcDbLayerTableRecord
  2
INTFCLR_2
 70
0
 62
7
  6
CONTINUOUS
370
-3
390
F
  0
LAYER
  5
208
100
AcDbSymbolTableRecord
100
AcDbLayerTableRecord
  2
INTF_1
 70
0
 62
7
  6
CONTINUOUS
370
-3
390
F
  0
LAYER
  5
209
100
AcDbSymbolTableRecord
100
AcDbLayerTableRecord
  2
INTF_21
 70
0
 62
7
  6
CONTINUOUS
370
-3
390
F
  0
LAYER
  5
20A
100
AcDbSymbolTableRecord
100
AcDbLayerTableRecord
  2
INTF_7
 70
0
 62
7
  6
CONTINUOUS
370
-3
390
F
  0
LAYER
  5
20B
100
AcDbSymbolTableRecord
100
AcDbLayerTableRecord
  2
INTF_CYAN
 70
0
 62
7
  6
CONTINUOUS
370
-3
390
F
  0
LAYER
  5
20C
100
AcDbSymbolTableRecord
100
AcDbLayerTableRecord
  2
NOTE
 70
0
 62
7
  6
CONTINUOUS
370
-3
390
F
  0
LAYER
  5
20D
100
AcDbSymbolTableRecord
100
AcDbLayerTableRecord
  2
PIANI
 70
0
 62
7
  6
CONTINUOUS
370
-3
390
F
  0
LAYER
  5
20E
100
AcDbSymbolTableRecord
100
AcDbLayerTableRecord
  2
PIANI_ORIGINE
 70
0
 62
7
  6
CONTINUOUS
370
-3
390
F
  0
LAYER
  5
20F
100
AcDbSymbolTableRecord
100
AcDbLayerTableRecord
  2
PIANI_RIFERIMENTO
 70
0
 62
7
  6
CONTINUOUS
370
-3
390
F
  0
LAYER
  5
210
100
AcDbSymbolTableRecord
100
AcDbLayerTableRecord
  2
PUNTI
 70
0
 62
7
  6
CONTINUOUS
370
-3
390
F
  0
LAYER
  5
211
100
AcDbSymbolTableRecord
100
AcDbLayerTableRecord
  2
RACCORDO
 70
0
 62
7
  6
CONTINUOUS
370
-3
390
F
  0
LAYER
  5
212
100
AcDbSymbolTableRecord
100
AcDbLayerTableRecord
  2
RGB__255__255__255__
 70
0
 62
7
  6
CONTINUOUS
370
-3
390
F
  0
LAYER
  5
213
100
AcDbSymbolTableRecord
100
AcDbLayerTableRecord
  2
RGB____0____0____0__
 70
0
 62
7
  6
CONTINUOUS
370
-3
390
F
  0
LAYER
  5
214
100
AcDbSymbolTableRecord
100
AcDbLayerTableRecord
  2
SIMBOLI
 70
0
 62
7
  6
CONTINUOUS
370
-3
390
F
  0
LAYER
  5
215
100
AcDbSymbolTableRecord
100
AcDbLayerTableRecord
  2
SMUSSO
 70
0
 62
7
  6
CONTINUOUS
370
-3
390
F
  0
LAYER
  5
216
100
AcDbSymbolTableRecord
100
AcDbLayerTableRecord
  2
SNAPLINE
 70
0
 62
7
  6
CONTINUOUS
370
-3
390
F
  0
LAYER
  5
217
100
AcDbSymbolTableRecord
100
AcDbLayerTableRecord
  2
SUPERFICI
 70
0
 62
7
  6
CONTINUOUS
370
-3
390
F
  0
LAYER
  5
218
100
AcDbSymbolTableRecord
100
AcDbLayerTableRecord
  2
TRASH
 70
0
 62
7
  6
CONTINUOUS
370
-3
390
F
  0
LAYER
  5
219
100
AcDbSymbolTableRecord
100
AcDbLayerTableRecord
  2
XSEC_DATUMS
 70
0
 62
7
  6
CONTINUOUS
370
-3
390
F
  0
ENDTAB
  0
TABLE
  2
STYLE
  5
3
100
AcDbSymbolTable
 70
1
  0
STYLE
  5
11
100
AcDbSymbolTableRecord
100
AcDbTextStyleTableRecord
  2
STANDARD
 70
0
 40
0.0
 41
0.8
 50
0.0
 71
0
 42
0.2
  3
txt
  4

  0
STYLE
  5
21A
100
AcDbSymbolTableRecord
100
AcDbTextStyleTableRecord
  2
TEXTSTYLE_1
 70
0
 40
0.0
 41
0.8
 50
0.0
 71
0
 42
0.2
  3
gdt
  4

  0
ENDTAB
  0
TABLE
  2
VIEW
  5
6
100
AcDbSymbolTable
 70
0
  0
ENDTAB
  0
TABLE
  2
UCS
  5
7
100
AcDbSymbolTable
 70
0
  0
ENDTAB
  0
TABLE
  2
APPID
  5
9
100
AcDbSymbolTable
 70
1
  0
APPID
  5
21B
100
AcDbSymbolTableRecord
100
AcDbRegAppTableRecord
  2
ACAD
 70
0
  0
ENDTAB
  0
TABLE
  2
BLOCK_RECORD
  5
1
100
AcDbSymbolTable
 70
0
  0
BLOCK_RECORD
  5
21C
100
AcDbSymbolTableRecord
100
AcDbBlockTableRecord
  2
*Model_Space
  0
BLOCK_RECORD
  5
21D
100
AcDbSymbolTableRecord
100
AcDbBlockTableRecord
  2
*Paper_Space
  0
BLOCK_RECORD
  5
21E
100
AcDbSymbolTableRecord
100
AcDbBlockTableRecord
  2
_FILLED
  0
BLOCK_RECORD
  5
21F
100
AcDbSymbolTableRecord
100
AcDbBlockTableRecord
  2
*D0
  0
BLOCK_RECORD
  5
220
100
AcDbSymbolTableRecord
100
AcDbBlockTableRecord
  2
*D1
  0
BLOCK_RECORD
  5
221
100
AcDbSymbolTableRecord
100
AcDbBlockTableRecord
  2
*D2
  0
BLOCK_RECORD
  5
222
100
AcDbSymbolTableRecord
100
AcDbBlockTableRecord
  2
*D3
  0
ENDTAB
  0
TABLE
  2
DIMSTYLE
  5
A
100
AcDbSymbolTable
 70
1
100
AcDbDimStyleTable
 71
0
  0
DIMSTYLE
105
223
100
AcDbSymbolTableRecord
100
AcDbDimStyleTableRecord
  2
STANDARD
 70
0
  3

  4

 40
1.0
 41
3.0
 42
0.5
 43
0.38
 44
1.5
 45
0.0
 46
0.0
 47
0.01
 48
0.01
140
3.0
141
0.0
142
0.0
143
25.4
144
1.0
145
0.0
146
1.0
147
0.625
 71
1
 72
0
 73
0
 74
0
 75
0
 76
0
 77
1
 78
8
 79
2
170
0
171
1
172
0
173
0
174
0
175
0
176
0
177
0
178
0
270
2
179
2
271
2
272
2
273
2
274
2
275
0
280
0
281
0
282
0
283
1
284
8
285
0
286
0
287
3
288
0
340
11
278
44
341
21E
342
21E
343
21E
344
21E
  0
DIMSTYLE
105
224
100
AcDbSymbolTableRecord
100
AcDbDimStyleTableRecord
  2
DIMSTYLE_1
 70
0
  3

  4

 40
1.0
 41
3.0
 42
0.5
 43
0.38
 44
1.5
 45
0.0
 46
0.0
 47
0.0
 48
0.0
140
3.0
141
0.0
142
0.0
143
25.4
144
1.0
145
0.0
146
1.0
147
0.75
 71
0
 72
0
 73
0
 74
0
 75
0
 76
0
 77
1
 78
8
 79
2
170
0
171
1
172
0
173
0
174
0
175
0
176
0
177
0
178
0
270
2
179
2
271
2
272
2
273
2
274
2
275
0
280
0
281
0
282
0
283
1
284
8
285
0
286
0
287
3
288
0
340
11
278
44
341
21E
342
21E
343
21E
344
21E
  0
ENDTAB
  0
ENDSEC
  0
SECTION
  2
BLOCKS
  0
BLOCK
  5
20
100
AcDbEntity
  8
0
100
AcDbBlockBegin
  2
*Model_Space
 70
0
 10
0.0
 20
0.0
 30
0.0
  3
*Model_Space
  1

  0
ENDBLK
  5
21
100
AcDbEntity
  8
0
100
AcDbBlockEnd
  0
BLOCK
  5
1C
100
AcDbEntity
  8
0
100
AcDbBlockBegin
  2
*Paper_Space
 70
0
 10
0.0
 20
0.0
 30
0.0
  3
*Paper_Space
  1

  0
ENDBLK
  5
1D
100
AcDbEntity
  8
0
100
AcDbBlockEnd
  0
BLOCK
  5
225
100
AcDbEntity
  8
0
100
AcDbBlockBegin
  2
_FILLED
 70
64
 10
0.0
 20
0.0
 30
0.0
  3
_FILLED
  1

  0
SOLID
  5
226
100
AcDbEntity
  8
0
  6
BYBLOCK
 62
0
100
AcDbTrace
 10
0.0
 20
0.0
 30
0.0
 11
-1.0
 21
0.3166666667
 31
0.0
 12
-1.0
 22
-0.3166666667
 32
0.0
 13
-1.0
 23
-0.3166666667
 33
0.0
  0
ENDBLK
  5
227
100
AcDbEntity
  8
0
  6
BYBLOCK
 62
0
100
AcDbBlockEnd
  0
BLOCK
  5
228
100
AcDbEntity
  8
0
100
AcDbBlockBegin
 62
7
  6
CONTINUOUS
  2
*D0
 70
65
 10
0.0
 20
0.0
 30
0.0
  3
*D0
  1

  0
MTEXT
  5
229
100
AcDbEntity
  8
0
100
AcDbMText
 62
7
  6
CONTINUOUS
  7
STANDARD
 71
3
 72
1
 10
-91.3353874072
 20
66.75
 30
0.0
 11
1.0
 21
0.0
 31
0.0
 73
2
 44
0.9
  1
{\ftxt;\W0.0001;\H0.0001;\~}{\ftxt;\W3.2142857143;\H3.0; }{\ftxt;\W0.0001;\H0.0001;\~}
 40
3.0
 41
14.4642857143
  0
LINE
  5
22A
100
AcDbEntity
  8
0
100
AcDbLine
 62
7
  6
CONTINUOUS
 10
-87.6913744174
 20
43.8767374102
 30
0.0
 11
-87.6913744174
 21
64.5
 31
0.0
  0
LINE
  5
22B
100
AcDbEntity
  8
0
100
AcDbLine
 62
7
  6
CONTINUOUS
 10
-77.5413744174
 20
26.4903260329
 30
0.0
 11
-77.5413744174
 21
64.5
 31
0.0
  0
LINE
  5
22C
100
AcDbEntity
  8
0
100
AcDbLine
 62
7
  6
CONTINUOUS
 10
-87.6913744174
 20
63.0
 30
0.0
 11
-82.6163744174
 21
63.0
 31
0.0
  0
LINE
  5
22D
100
AcDbEntity
  8
0
100
AcDbLine
 62
7
  6
CONTINUOUS
 10
-82.6163744174
 20
63.0
 30
0.0
 11
-100.97824455
 21
63.0
 31
0.0
  0
LINE
  5
22E
100
AcDbEntity
  8
0
100
AcDbLine
 62
7
  6
CONTINUOUS
 10
-77.5413744174
 20
63.0
 30
0.0
 11
-82.6163744174
 21
63.0
 31
0.0
  0
INSERT
  5
22F
100
AcDbEntity
  8
0
100
AcDbBlockReference
 62
7
  6
CONTINUOUS
  2
_FILLED
 10
-87.6913744174
 20
63.0
 30
0.0
 41
3.0
 42
3.0
 43
3.0
 50
180.0
  0
INSERT
  5
230
100
AcDbEntity
  8
0
100
AcDbBlockReference
 62
7
  6
CONTINUOUS
  2
_FILLED
 10
-77.5413744174
 20
63.0
 30
0.0
 41
3.0
 42
3.0
 43
3.0
  0
ENDBLK
  5
231
100
AcDbEntity
  8
0
  6
BYBLOCK
 62
0
100
AcDbBlockEnd
  0
BLOCK
  5
232
100
AcDbEntity
  8
0
100
AcDbBlockBegin
 62
7
  6
CONTINUOUS
  2
*D1
 70
65
 10
0.0
 20
0.0
 30
0.0
  3
*D1
  1

  0
MTEXT
  5
233
100
AcDbEntity
  8
0
100
AcDbMText
 62
7
  6
CONTINUOUS
  7
STANDARD
 71
3
 72
1
 10
-93.6713169288
 20
56.75
 30
0.0
 11
1.0
 21
0.0
 31
0.0
 73
2
 44
0.9
  1
{\ftxt;\W0.0001;\H0.0001;\~}{\ftxt;\W2.6428571429;\H3.0; }{\ftxt;\W0.0001;\H0.0001;\~}
 40
3.0
 41
11.8928571429
  0
LINE
  5
234
100
AcDbEntity
  8
0
100
AcDbLine
 62
7
  6
CONTINUOUS
 10
-87.6913744174
 20
43.8767374102
 30
0.0
 11
-87.6913744174
 21
54.5
 31
0.0
  0
LINE
  5
235
100
AcDbEntity
  8
0
100
AcDbLine
 62
7
  6
CONTINUOUS
 10
-80.5413744174
 20
41.7038975196
 30
0.0
 11
-80.5413744174
 21
54.5
 31
0.0
  0
LINE
  5
236
100
AcDbEntity
  8
0
100
AcDbLine
 62
7
  6
CONTINUOUS
 10
-87.6913744174
 20
53.0
 30
0.0
 11
-101.5998883574
 21
53.0
 31
0.0
  0
LINE
  5
237
100
AcDbEntity
  8
0
100
AcDbLine
 62
7
  6
CONTINUOUS
 10
-101.5998883574
 20
53.0
 30
0.0
 11
-84.1163744174
 21
53.0
 31
0.0
  0
LINE
  5
238
100
AcDbEntity
  8
0
100
AcDbLine
 62
7
  6
CONTINUOUS
 10
-80.5413744174
 20
53.0
 30
0.0
 11
-76.5413744174
 21
53.0
 31
0.0
  0
LINE
  5
239
100
AcDbEntity
  8
0
100
AcDbLine
 62
7
  6
CONTINUOUS
 10
-76.5413744174
 20
53.0
 30
0.0
 11
-84.1163744174
 21
53.0
 31
0.0
  0
INSERT
  5
23A
100
AcDbEntity
  8
0
100
AcDbBlockReference
 62
7
  6
CONTINUOUS
  2
_FILLED
 10
-87.6913744174
 20
53.0
 30
0.0
 41
3.0
 42
3.0
 43
3.0
  0
INSERT
  5
23B
100
AcDbEntity
  8
0
100
AcDbBlockReference
 62
7
  6
CONTINUOUS
  2
_FILLED
 10
-80.5413744174
 20
53.0
 30
0.0
 41
3.0
 42
3.0
 43
3.0
 50
180.0
  0
ENDBLK
  5
23C
100
AcDbEntity
  8
0
  6
BYBLOCK
 62
0
100
AcDbBlockEnd
  0
BLOCK
  5
23D
100
AcDbEntity
  8
0
100
AcDbBlockBegin
 62
7
  6
CONTINUOUS
  2
*D2
 70
65
 10
0.0
 20
0.0
 30
0.0
  3
*D2
  1

  0
MTEXT
  5
23E
100
AcDbEntity
  8
0
100
AcDbMText
 62
7
  6
CONTINUOUS
  7
STANDARD
 71
2
 72
1
 10
0.0
 20
56.8383327892
 30
0.0
 11
1.0
 21
0.0
 31
0.0
 73
2
 44
0.9
  1
{\ftxt;\W0.0001;\H0.0001;\~}{\ftxt;\W1.5714285714;\H3.0; }{\ftxt;\W0.0001;\H0.0001;\~}
 40
3.0
 41
7.0714285714
  0
LINE
  5
23F
100
AcDbEntity
  8
0
100
AcDbLine
 62
7
  6
CONTINUOUS
 10
-45.0
 20
44.4993911979
 30
0.0
 11
-45.0
 21
54.5883327892
 31
0.0
  0
LINE
  5
240
100
AcDbEntity
  8
0
100
AcDbLine
 62
7
  6
CONTINUOUS
 10
45.0
 20
44.4993911979
 30
0.0
 11
45.0
 21
54.5883327892
 31
0.0
  0
LINE
  5
241
100
AcDbEntity
  8
0
100
AcDbLine
 62
7
  6
CONTINUOUS
 10
-45.0
 20
53.0883327892
 30
0.0
 11
0.0
 21
53.0883327892
 31
0.0
  0
LINE
  5
242
100
AcDbEntity
  8
0
100
AcDbLine
 62
7
  6
CONTINUOUS
 10
45.0
 20
53.0883327892
 30
0.0
 11
0.0
 21
53.0883327892
 31
0.0
  0
INSERT
  5
243
100
AcDbEntity
  8
0
100
AcDbBlockReference
 62
7
  6
CONTINUOUS
  2
_FILLED
 10
-45.0
 20
53.0883327892
 30
0.0
 41
3.0
 42
3.0
 43
3.0
 50
180.0
  0
INSERT
  5
244
100
AcDbEntity
  8
0
100
AcDbBlockReference
 62
7
  6
CONTINUOUS
  2
_FILLED
 10
45.0
 20
53.0883327892
 30
0.0
 41
3.0
 42
3.0
 43
3.0
  0
ENDBLK
  5
245
100
AcDbEntity
  8
0
  6
BYBLOCK
 62
0
100
AcDbBlockEnd
  0
BLOCK
  5
246
100
AcDbEntity
  8
0
100
AcDbBlockBegin
 62
7
  6
CONTINUOUS
  2
*D3
 70
65
 10
0.0
 20
0.0
 30
0.0
  3
*D3
  1

  0
MTEXT
  5
247
100
AcDbEntity
  8
0
100
AcDbMText
 62
7
  6
CONTINUOUS
  7
STANDARD
 71
2
 72
1
 10
49.2693929603
 20
0.0
 30
0.0
 11
0.0
 21
1.0
 31
0.0
 73
2
 44
0.9
  1
{\ftxt;\W0.0001;\H0.0001;\~}{\ftxt;\W1.5714285714;\H3.0; }{\ftxt;\W0.0001;\H0.0001;\~}
 40
3.0
 41
7.0714285714
  0
LINE
  5
248
100
AcDbEntity
  8
0
100
AcDbLine
 62
7
  6
CONTINUOUS
 10
44.4993911979
 20
45.0
 30
0.0
 11
54.5193929603
 21
45.0
 31
0.0
  0
LINE
  5
249
100
AcDbEntity
  8
0
100
AcDbLine
 62
7
  6
CONTINUOUS
 10
44.4993911979
 20
-45.0
 30
0.0
 11
54.5193929603
 21
-45.0
 31
0.0
  0
LINE
  5
24A
100
AcDbEntity
  8
0
100
AcDbLine
 62
7
  6
CONTINUOUS
 10
53.0193929603
 20
45.0
 30
0.0
 11
53.0193929603
 21
0.0
 31
0.0
  0
LINE
  5
24B
100
AcDbEntity
  8
0
100
AcDbLine
 62
7
  6
CONTINUOUS
 10
53.0193929603
 20
-45.0
 30
0.0
 11
53.0193929603
 21
0.0
 31
0.0
  0
INSERT
  5
24C
100
AcDbEntity
  8
0
100
AcDbBlockReference
 62
7
  6
CONTINUOUS
  2
_FILLED
 10
53.0193929603
 20
45.0
 30
0.0
 41
3.0
 42
3.0
 43
3.0
 50
90.0
  0
INSERT
  5
24D
100
AcDbEntity
  8
0
100
AcDbBlockReference
 62
7
  6
CONTINUOUS
  2
_FILLED
 10
53.0193929603
 20
-45.0
 30
0.0
 41
3.0
 42
3.0
 43
3.0
 50
270.0
  0
ENDBLK
  5
24E
100
AcDbEntity
  8
0
  6
BYBLOCK
 62
0
100
AcDbBlockEnd
  0
ENDSEC
  0
SECTION
  2
ENTITIES
  0
DIMENSION
  5
24F
100
AcDbEntity
  8
0
100
AcDbDimension
 62
7
  6
CONTINUOUS
  2
*D0
 10
-77.5413744174
 20
63.0
 30
0.0
 11
-96.5853870392
 21
63.0
 31
0.0
 70
160
 71
3
 72
2
 41
0.9
 42
10.15
  1
{\ftxt;\W0.0001;\H0.0001;\~}{\ftxt;\W3.2142857143;\H3.0; }{\ftxt;\W0.0001;\H0.0001;\~}
  3
DIMSTYLE_1
100
AcDbAlignedDimension
 13
-87.6913744174
 23
43.3767374102
 33
0.0
 14
-77.5413744174
 24
25.9903260329
 34
0.0
100
AcDbRotatedDimension
  0
DIMENSION
  5
250
100
AcDbEntity
  8
0
100
AcDbDimension
 62
7
  6
CONTINUOUS
  2
*D1
 10
-80.5413744174
 20
53.0
 30
0.0
 11
-98.0641738586
 21
53.0
 31
0.0
 70
160
 71
3
 72
2
 41
0.9
 42
7.15
  1
{\ftxt;\W0.0001;\H0.0001;\~}{\ftxt;\W2.6428571429;\H3.0; }{\ftxt;\W0.0001;\H0.0001;\~}
  3
DIMSTYLE_1
100
AcDbAlignedDimension
 13
-87.6913744174
 23
43.3767374102
 33
0.0
 14
-80.5413744174
 24
41.2038975196
 34
0.0
100
AcDbRotatedDimension
  0
DIMENSION
  5
251
100
AcDbEntity
  8
0
100
AcDbDimension
 62
7
  6
CONTINUOUS
  2
*D2
 10
45.0
 20
53.0883327892
 30
0.0
 11
-0.4285713773
 21
53.0883327892
 31
0.0
 70
160
 71
2
 72
2
 41
0.9
 42
90.0
  1
{\ftxt;\W0.0001;\H0.0001;\~}{\ftxt;\W1.5714285714;\H3.0; }{\ftxt;\W0.0001;\H0.0001;\~}
  3
DIMSTYLE_1
100
AcDbAlignedDimension
 13
-45.0
 23
43.9993911979
 33
0.0
 14
45.0
 24
43.9993911979
 34
0.0
100
AcDbRotatedDimension
  0
DIMENSION
  5
252
100
AcDbEntity
  8
0
100
AcDbDimension
 62
7
  6
CONTINUOUS
  2
*D3
 10
53.0193929603
 20
-45.0
 30
0.0
 11
53.0193929603
 21
-0.4285699438
 31
0.0
 70
160
 71
2
 72
2
 41
0.9
 42
90.0
  1
{\ftxt;\W0.0001;\H0.0001;\~}{\ftxt;\W1.5714285714;\H3.0; }{\ftxt;\W0.0001;\H0.0001;\~}
  3
DIMSTYLE_1
100
AcDbAlignedDimension
 13
43.9993911979
 23
45.0
 33
0.0
 14
43.9993911979
 24
-45.0
 34
0.0
 50
270.0
100
AcDbRotatedDimension
  0
LINE
  5
253
100
AcDbEntity
  8
ASSI
100
AcDbLine
 62
7
  6
CONTINUOUS
 10
-43.8199854699
 20
44.7906993223
 30
0.0
 11
-43.8055596544
 21
44.8061684565
 31
0.0
  0
LINE
  5
254
100
AcDbEntity
  8
ASSI
100
AcDbLine
 62
7
  6
CONTINUOUS
 10
-45.0
 20
43.9993911979
 30
0.0
 11
-43.9993911979
 21
45.0
 31
0.0
  0
LINE
  5
255
100
AcDbEntity
  8
ASSI
100
AcDbLine
 62
7
  6
CONTINUOUS
 10
-43.8199854699
 20
44.7906993223
 30
0.0
 11
-44.7906993223
 21
43.8199854699
 31
0.0
  0
LINE
  5
256
100
AcDbEntity
  8
ASSI
100
AcDbLine
 62
7
  6
CONTINUOUS
 10
-43.3767374102
 20
43.7712689598
 30
0.0
 11
-43.7712689598
 21
43.3767374102
 31
0.0
  0
LINE
  5
257
100
AcDbEntity
  8
ASSI
100
AcDbLine
 62
7
  6
CONTINUOUS
 10
-44.8061684565
 20
43.8055596544
 30
0.0
 11
-44.7906993223
 21
43.8199854699
 31
0.0
  0
LINE
  5
258
100
AcDbEntity
  8
ASSI
100
AcDbLine
 62
7
  6
CONTINUOUS
 10
-44.7906993223
 20
-43.8199854699
 30
0.0
 11
-44.8061684565
 21
-43.8055596544
 31
0.0
  0
LINE
  5
259
100
AcDbEntity
  8
ASSI
100
AcDbLine
 62
7
  6
CONTINUOUS
 10
-43.9993911979
 20
-45.0
 30
0.0
 11
-45.0
 21
-43.9993911979
 31
0.0
  0
LINE
  5
25A
100
AcDbEntity
  8
ASSI
100
AcDbLine
 62
7
  6
CONTINUOUS
 10
-44.7906993223
 20
-43.8199854699
 30
0.0
 11
-43.8199854699
 21
-44.7906993223
 31
0.0
  0
LINE
  5
25B
100
AcDbEntity
  8
ASSI
100
AcDbLine
 62
7
  6
CONTINUOUS
 10
-43.7712689598
 20
-43.3767374102
 30
0.0
 11
-43.3767374102
 21
-43.7712689598
 31
0.0
  0
LINE
  5
25C
100
AcDbEntity
  8
ASSI
100
AcDbLine
 62
7
  6
CONTINUOUS
 10
-43.8055596544
 20
-44.8061684565
 30
0.0
 11
-43.8199854699
 21
-44.7906993223
 31
0.0
  0
LINE
  5
25D
100
AcDbEntity
  8
ASSI
100
AcDbLine
 62
7
  6
CONTINUOUS
 10
-45.0
 20
43.9993911979
 30
0.0
 11
-45.0
 21
-43.9993911979
 31
0.0
  0
LINE
  5
25E
100
AcDbEntity
  8
ASSI
100
AcDbLine
 62
7
  6
CONTINUOUS
 10
-44.8061684565
 20
43.8055596544
 30
0.0
 11
-44.8061684565
 21
-43.8055596544
 31
0.0
  0
LINE
  5
25F
100
AcDbEntity
  8
ASSI
100
AcDbLine
 62
7
  6
CONTINUOUS
 10
-43.7712689598
 20
43.3767374102
 30
0.0
 11
-43.7712689598
 21
-43.3767374102
 31
0.0
  0
LINE
  5
260
100
AcDbEntity
  8
ASSI
100
AcDbLine
 62
7
  6
CONTINUOUS
 10
-43.9993911979
 20
-45.0
 30
0.0
 11
43.9993911979
 21
-45.0
 31
0.0
  0
LINE
  5
261
100
AcDbEntity
  8
ASSI
100
AcDbLine
 62
7
  6
CONTINUOUS
 10
-43.8055596544
 20
-44.8061684565
 30
0.0
 11
43.8055596544
 21
-44.8061684565
 31
0.0
  0
LINE
  5
262
100
AcDbEntity
  8
ASSI
100
AcDbLine
 62
7
  6
CONTINUOUS
 10
-43.3767374102
 20
-43.7712689598
 30
0.0
 11
43.3767374102
 21
-43.7712689598
 31
0.0
  0
LWPOLYLINE
  5
263
100
AcDbEntity
  8
0
100
AcDbPolyline
 62
7
  6
CONTINUOUS
 90
10
 70
0
 43
0.3500000006
 10
-1.9285714102
 20
53.8383329773
 10
-1.0714285848
 20
54.6954754486
 10
-0.8571428254
 20
55.5526179199
 10
-0.8571428254
 20
56.4097649231
 10
-1.2857142735
 20
56.8383338928
 10
-1.9285714102
 20
56.8383338928
 10
-2.3571427875
 20
56.4097649231
 10
-2.3571427875
 20
55.5526179199
 10
-1.9285714102
 20
55.1240489502
 10
-1.0000000219
 20
55.1240489502
  0
LINE
  5
264
100
AcDbEntity
  8
CURVE
100
AcDbLine
 62
250
  6
CONTINUOUS
 10
44.860131217
 20
-36.257398
 30
0.0
 11
44.9473759453
 21
-36.257398
 31
0.0
  0
LINE
  5
265
100
AcDbEntity
  8
CURVE
100
AcDbLine
 62
250
  6
CONTINUOUS
 10
44.9473759453
 20
-35.735605
 30
0.0
 11
44.860131217
 21
-35.735605
 31
0.0
  0
LINE
  5
266
100
AcDbEntity
  8
CURVE
100
AcDbLine
 62
250
  6
CONTINUOUS
 10
44.8611556794
 20
-30.6285551388
 30
0.0
 11
44.9473759458
 21
-30.6285551388
 31
0.0
  0
LINE
  5
267
100
AcDbEntity
  8
CURVE
100
AcDbLine
 62
250
  6
CONTINUOUS
 10
44.8989474951
 20
-30.126163664
 30
0.0
 11
44.8749985478
 21
-30.126163664
 31
0.0
  0
LINE
  5
268
100
AcDbEntity
  8
CURVE
100
AcDbLine
 62
250
  6
CONTINUOUS
 10
44.9473759458
 20
-30.1088617972
 30
0.0
 11
44.9132352194
 21
-30.1088617972
 31
0.0
  0
LINE
  5
269
100
AcDbEntity
  8
CURVE
100
AcDbLine
 62
250
  6
CONTINUOUS
 10
44.9066533149
 20
-29.2870512436
 30
0.0
 11
44.9061378054
 21
-29.2870512436
 31
0.0
  0
LINE
  5
26A
100
AcDbEntity
  8
ASSI
100
AcDbLine
 62
250
  6
CONTINUOUS
 10
-22.8983859163
 20
-22.2000910812
 30
0.0
 11
-22.8983859163
 21
22.2000910812
 31
0.0
  0
LINE
  5
26B
100
AcDbEntity
  8
ASSI
100
AcDbLine
 62
250
  6
CONTINUOUS
 10
-22.6988731063
 20
-22.2000910812
 30
0.0
 11
-22.6988731063
 21
22.2000910812
 31
0.0
  0
LINE
  5
26C
100
AcDbEntity
  8
ASSI
100
AcDbLine
 62
7
  6
CONTINUOUS
 10
-22.6
 20
22.1012179749
 30
0.0
 11
-22.6
 21
-22.1012179749
 31
0.0
  0
LINE
  5
26D
100
AcDbEntity
  8
ASSI
100
AcDbLine
 62
250
  6
CONTINUOUS
 10
-22.2000910812
 20
22.8983859163
 30
0.0
 11
-22.2000910812
 21
22.6988731063
 31
0.0
  0
LINE
  5
26E
100
AcDbEntity
  8
ASSI
100
AcDbLine
 62
250
  6
CONTINUOUS
 10
-22.2000910812
 20
-22.8983859163
 30
0.0
 11
-22.2000910812
 21
-22.6988731063
 31
0.0
  0
LINE
  5
26F
100
AcDbEntity
  8
ASSI
100
AcDbLine
 62
7
  6
CONTINUOUS
 10
-43.3767374102
 20
-43.7712689598
 30
0.0
 11
-43.8199854699
 21
-44.7906993223
 31
0.0
  0
LINE
  5
270
100
AcDbEntity
  8
ASSI
100
AcDbLine
 62
7
  6
CONTINUOUS
 10
43.7712689598
 20
43.3767374102
 30
0.0
 11
44.7906993223
 21
43.8199854699
 31
0.0
  0
LINE
  5
271
100
AcDbEntity
  8
ASSI
100
AcDbLine
 62
250
  6
CONTINUOUS
 10
22.2000910812
 20
-22.8983859163
 30
0.0
 11
-22.2000910812
 21
-22.8983859163
 31
0.0
  0
LINE
  5
272
100
AcDbEntity
  8
ASSI
100
AcDbLine
 62
250
  6
CONTINUOUS
 10
22.2000910812
 20
-22.6988731063
 30
0.0
 11
-22.2000910812
 21
-22.6988731063
 31
0.0
  0
LINE
  5
273
100
AcDbEntity
  8
ASSI
100
AcDbLine
 62
7
  6
CONTINUOUS
 10
-22.1012179749
 20
-22.6
 30
0.0
 11
22.1012179749
 21
-22.6
 31
0.0
  0
LINE
  5
274
100
AcDbEntity
  8
ASSI
100
AcDbLine
 62
250
  6
CONTINUOUS
 10
-22.8983859163
 20
-22.2000910812
 30
0.0
 11
-22.6988731063
 21
-22.2000910812
 31
0.0
  0
LINE
  5
275
100
AcDbEntity
  8
ASSI
100
AcDbLine
 62
250
  6
CONTINUOUS
 10
22.8983859163
 20
-22.2000910812
 30
0.0
 11
22.6988731063
 21
-22.2000910812
 31
0.0
  0
LINE
  5
276
100
AcDbEntity
  8
ASSI
100
AcDbLine
 62
7
  6
CONTINUOUS
 10
43.7712689598
 20
-43.3767374102
 30
0.0
 11
44.7906993223
 21
-43.8199854699
 31
0.0
  0
LINE
  5
277
100
AcDbEntity
  8
ASSI
100
AcDbLine
 62
7
  6
CONTINUOUS
 10
-43.3767374102
 20
43.7712689598
 30
0.0
 11
-43.8199854699
 21
44.7906993223
 31
0.0
  0
LWPOLYLINE
  5
278
100
AcDbEntity
  8
0
100
AcDbPolyline
 62
7
  6
CONTINUOUS
 90
13
 70
0
 43
0.3500000006
 10
0.0
 20
54.6954754486
 10
0.0
 20
55.9811868896
 10
0.2142857063
 20
56.4097649231
 10
0.6428571367
 20
56.8383338928
 10
0.8571428254
 20
56.8383338928
 10
1.2857142735
 20
56.4097649231
 10
1.5000000329
 20
55.9811868896
 10
1.5000000329
 20
54.6954754486
 10
1.2857142735
 20
54.2669064789
 10
0.8571428254
 20
53.8383329773
 10
0.6428571367
 20
53.8383329773
 10
0.2142857063
 20
54.2669064789
 10
0.0
 20
54.6954754486
  0
LINE
  5
279
100
AcDbEntity
  8
ASSI
100
AcDbLine
 62
7
  6
CONTINUOUS
 10
-44.8061684565
 20
-43.8055596544
 30
0.0
 11
-45.0
 21
-43.9993911979
 31
0.0
  0
LINE
  5
27A
100
AcDbEntity
  8
ASSI
100
AcDbLine
 62
7
  6
CONTINUOUS
 10
43.8055596544
 20
44.8061684565
 30
0.0
 11
43.9993911979
 21
45.0
 31
0.0
  0
LINE
  5
27B
100
AcDbEntity
  8
ASSI
100
AcDbLine
 62
250
  6
CONTINUOUS
 10
22.2000910812
 20
22.6988731063
 30
0.0
 11
22.1012179749
 21
22.6
 31
0.0
  0
LINE
  5
27C
100
AcDbEntity
  8
ASSI
100
AcDbLine
 62
250
  6
CONTINUOUS
 10
-22.6988731063
 20
-22.2000910812
 30
0.0
 11
-22.6
 21
-22.1012179749
 31
0.0
  0
LINE
  5
27D
100
AcDbEntity
  8
ASSI
100
AcDbLine
 62
250
  6
CONTINUOUS
 10
22.6988731063
 20
22.2000910812
 30
0.0
 11
22.6
 21
22.1012179749
 31
0.0
  0
LINE
  5
27E
100
AcDbEntity
  8
ASSI
100
AcDbLine
 62
250
  6
CONTINUOUS
 10
-22.2000910812
 20
-22.6988731063
 30
0.0
 11
-22.1012179749
 21
-22.6
 31
0.0
  0
LWPOLYLINE
  5
27F
100
AcDbEntity
  8
0
100
AcDbPolyline
 62
7
  6
CONTINUOUS
 90
13
 70
0
 43
0.3500000006
 10
51.412251709
 20
-0.0000003204
 10
50.1265357361
 20
-0.0000003204
 10
49.6979622345
 20
0.2142864304
 10
49.2693932648
 20
0.642857666
 10
49.2693932648
 20
0.8571421509
 10
49.6979622345
 20
1.2857133865
 10
50.1265357361
 20
1.5000001373
 10
51.412251709
 20
1.5000001373
 10
51.8408206787
 20
1.2857133865
 10
52.2693941803
 20
0.8571421509
 10
52.2693941803
 20
0.642857666
 10
51.8408206787
 20
0.2142864304
 10
51.412251709
 20
-0.0000003204
  0
LINE
  5
280
100
AcDbEntity
  8
ASSI
100
AcDbLine
 62
7
  6
CONTINUOUS
 10
43.8055596544
 20
-44.8061684565
 30
0.0
 11
43.9993911979
 21
-45.0
 31
0.0
  0
LINE
  5
281
100
AcDbEntity
  8
ASSI
100
AcDbLine
 62
7
  6
CONTINUOUS
 10
-44.8061684565
 20
43.8055596544
 30
0.0
 11
-45.0
 21
43.9993911979
 31
0.0
  0
LINE
  5
282
100
AcDbEntity
  8
ASSI
100
AcDbLine
 62
250
  6
CONTINUOUS
 10
-22.6988731063
 20
22.2000910812
 30
0.0
 11
-22.6
 21
22.1012179749
 31
0.0
  0
LINE
  5
283
100
AcDbEntity
  8
ASSI
100
AcDbLine
 62
250
  6
CONTINUOUS
 10
22.2000910812
 20
-22.6988731063
 30
0.0
 11
22.1012179749
 21
-22.6
 31
0.0
  0
LINE
  5
284
100
AcDbEntity
  8
ASSI
100
AcDbLine
 62
250
  6
CONTINUOUS
 10
-22.2000910812
 20
22.6988731063
 30
0.0
 11
-22.1012179749
 21
22.6
 31
0.0
  0
LINE
  5
285
100
AcDbEntity
  8
ASSI
100
AcDbLine
 62
250
  6
CONTINUOUS
 10
22.6988731063
 20
-22.2000910812
 30
0.0
 11
22.6
 21
-22.1012179749
 31
0.0
  0
LINE
  5
286
100
AcDbEntity
  8
ASSI
100
AcDbLine
 62
7
  6
CONTINUOUS
 10
-43.8055596544
 20
-44.8061684565
 30
0.0
 11
-43.9993911979
 21
-45.0
 31
0.0
  0
LINE
  5
287
100
AcDbEntity
  8
ASSI
100
AcDbLine
 62
7
  6
CONTINUOUS
 10
44.8061684565
 20
43.8055596544
 30
0.0
 11
45.0
 21
43.9993911979
 31
0.0
  0
LINE
  5
288
100
AcDbEntity
  8
ASSI
100
AcDbLine
 62
7
  6
CONTINUOUS
 10
44.8061684565
 20
-43.8055596544
 30
0.0
 11
45.0
 21
-43.9993911979
 31
0.0
  0
LINE
  5
289
100
AcDbEntity
  8
ASSI
100
AcDbLine
 62
7
  6
CONTINUOUS
 10
-43.8055596544
 20
44.8061684565
 30
0.0
 11
-43.9993911979
 21
45.0
 31
0.0
  0
LINE
  5
28A
100
AcDbEntity
  8
ASSI
100
AcDbLine
 62
250
  6
CONTINUOUS
 10
22.2000910812
 20
22.8983859163
 30
0.0
 11
22.2000910812
 21
22.6988731063
 31
0.0
  0
LINE
  5
28B
100
AcDbEntity
  8
ASSI
100
AcDbLine
 62
250
  6
CONTINUOUS
 10
22.2000910812
 20
-22.8983859163
 30
0.0
 11
22.2000910812
 21
-22.6988731063
 31
0.0
  0
LINE
  5
28C
100
AcDbEntity
  8
ASSI
100
AcDbLine
 62
7
  6
CONTINUOUS
 10
22.6
 20
-22.1012179749
 30
0.0
 11
22.6
 21
22.1012179749
 31
0.0
  0
LINE
  5
28D
100
AcDbEntity
  8
ASSI
100
AcDbLine
 62
250
  6
CONTINUOUS
 10
22.6988731063
 20
22.2000910812
 30
0.0
 11
22.6988731063
 21
-22.2000910812
 31
0.0
  0
LINE
  5
28E
100
AcDbEntity
  8
ASSI
100
AcDbLine
 62
250
  6
CONTINUOUS
 10
22.8983859163
 20
22.2000910812
 30
0.0
 11
22.8983859163
 21
-22.2000910812
 31
0.0
  0
LINE
  5
28F
100
AcDbEntity
  8
ASSI
100
AcDbLine
 62
7
  6
CONTINUOUS
 10
43.3767374102
 20
43.7712689598
 30
0.0
 11
43.8199854699
 21
44.7906993223
 31
0.0
  0
LINE
  5
290
100
AcDbEntity
  8
ASSI
100
AcDbLine
 62
7
  6
CONTINUOUS
 10
-43.7712689598
 20
-43.3767374102
 30
0.0
 11
-44.7906993223
 21
-43.8199854699
 31
0.0
  0
LINE
  5
291
100
AcDbEntity
  8
ASSI
100
AcDbLine
 62
250
  6
CONTINUOUS
 10
-22.8983859163
 20
22.2000910812
 30
0.0
 11
-22.6988731063
 21
22.2000910812
 31
0.0
  0
LINE
  5
292
100
AcDbEntity
  8
ASSI
100
AcDbLine
 62
250
  6
CONTINUOUS
 10
22.8983859163
 20
22.2000910812
 30
0.0
 11
22.6988731063
 21
22.2000910812
 31
0.0
  0
LINE
  5
293
100
AcDbEntity
  8
ASSI
100
AcDbLine
 62
7
  6
CONTINUOUS
 10
22.1012179749
 20
22.6
 30
0.0
 11
-22.1012179749
 21
22.6
 31
0.0
  0
LINE
  5
294
100
AcDbEntity
  8
ASSI
100
AcDbLine
 62
250
  6
CONTINUOUS
 10
-22.2000910812
 20
22.6988731063
 30
0.0
 11
22.2000910812
 21
22.6988731063
 31
0.0
  0
LINE
  5
295
100
AcDbEntity
  8
ASSI
100
AcDbLine
 62
250
  6
CONTINUOUS
 10
-22.2000910812
 20
22.8983859163
 30
0.0
 11
22.2000910812
 21
22.8983859163
 31
0.0
  0
LINE
  5
296
100
AcDbEntity
  8
ASSI
100
AcDbLine
 62
7
  6
CONTINUOUS
 10
-43.7712689598
 20
43.3767374102
 30
0.0
 11
-44.7906993223
 21
43.8199854699
 31
0.0
  0
LINE
  5
297
100
AcDbEntity
  8
CURVE
100
AcDbLine
 62
250
  6
CONTINUOUS
 10
44.8904101948
 20
-34.842919
 30
0.0
 11
44.9473759453
 21
-34.955522
 31
0.0
  0
LINE
  5
298
100
AcDbEntity
  8
ASSI
100
AcDbLine
 62
7
  6
CONTINUOUS
 10
43.3767374102
 20
-43.7712689598
 30
0.0
 11
43.8199854699
 21
-44.7906993223
 31
0.0
  0
LINE
  5
299
100
AcDbEntity
  8
CURVE
100
AcDbLine
 62
250
  6
CONTINUOUS
 10
44.9473759453
 20
-35.454708
 30
0.0
 11
44.860136417
 21
-35.228996
 31
0.0
  0
LWPOLYLINE
  5
29A
100
AcDbEntity
  8
0
100
AcDbPolyline
 62
7
  6
CONTINUOUS
 90
10
 70
0
 43
0.3500000006
 10
52.2693941803
 20
-1.9285708809
 10
51.412251709
 20
-1.0714295425
 10
50.5551092377
 20
-0.8571427917
 10
49.6979622345
 20
-0.8571427917
 10
49.2693932648
 20
-1.2857140274
 10
49.2693932648
 20
-1.9285708809
 10
49.6979622345
 20
-2.3571432495
 10
50.5551092377
 20
-2.3571432495
 10
50.9836782074
 20
-1.9285708809
 10
50.9836782074
 20
-1.0000006256
  0
LINE
  5
29B
100
AcDbEntity
  8
CURVE
100
AcDbLine
 62
250
  6
CONTINUOUS
 10
44.860136417
 20
-36.451037
 30
0.0
 11
44.9473759453
 21
-37.254552
 31
0.0
  0
LINE
  5
29C
100
AcDbEntity
  8
CURVE
100
AcDbLine
 62
250
  6
CONTINUOUS
 10
44.9085720674
 20
-34.191353
 30
0.0
 11
44.860136417
 21
-33.66956
 31
0.0
  0
LINE
  5
29D
100
AcDbEntity
  8
CURVE
100
AcDbLine
 62
250
  6
CONTINUOUS
 10
44.890647651
 20
-33.5372
 30
0.0
 11
44.9473759453
 21
-34.157611
 31
0.0
  0
LINE
  5
29E
100
AcDbEntity
  8
CURVE
100
AcDbLine
 62
250
  6
CONTINUOUS
 10
44.8841076249
 20
-31.81095
 30
0.0
 11
44.9164833296
 21
-32.070759
 31
0.0
  0
LINE
  5
29F
100
AcDbEntity
  8
CURVE
100
AcDbLine
 62
250
  6
CONTINUOUS
 10
44.9201860964
 20
-37.463524
 30
0.0
 11
44.860136417
 21
-36.972473
 31
0.0
  0
LINE
  5
2A0
100
AcDbEntity
  8
CURVE
100
AcDbLine
 62
250
  6
CONTINUOUS
 10
44.92995984
 20
-32.177494
 30
0.0
 11
44.9473759453
 21
-32.321477
 31
0.0
  0
LINE
  5
2A1
100
AcDbEntity
  8
CURVE
100
AcDbLine
 62
250
  6
CONTINUOUS
 10
44.9473759453
 20
-32.837608
 30
0.0
 11
44.860136417
 21
-32.053532
 31
0.0
  0
LINE
  5
2A2
100
AcDbEntity
  8
ASSI
100
AcDbLine
 62
7
  6
CONTINUOUS
 10
43.7712689598
 20
-43.3767374102
 30
0.0
 11
43.7712689598
 21
43.3767374102
 31
0.0
  0
LINE
  5
2A3
100
AcDbEntity
  8
ASSI
100
AcDbLine
 62
7
  6
CONTINUOUS
 10
44.8061684565
 20
-43.8055596544
 30
0.0
 11
44.8061684565
 21
43.8055596544
 31
0.0
  0
LINE
  5
2A4
100
AcDbEntity
  8
CURVE
100
AcDbLine
 62
250
  6
CONTINUOUS
 10
44.860131217
 20
-35.735605
 30
0.0
 11
44.860131217
 21
-36.257398
 31
0.0
  0
LINE
  5
2A5
100
AcDbEntity
  8
CURVE
100
AcDbLine
 62
250
  6
CONTINUOUS
 10
44.860136417
 20
-38.506847
 30
0.0
 11
44.860136417
 21
-37.940019
 31
0.0
  0
LINE
  5
2A6
100
AcDbEntity
  8
CURVE
100
AcDbLine
 62
250
  6
CONTINUOUS
 10
44.860136417
 20
-36.972473
 30
0.0
 11
44.860136417
 21
-36.451037
 31
0.0
  0
LINE
  5
2A7
100
AcDbEntity
  8
CURVE
100
AcDbLine
 62
250
  6
CONTINUOUS
 10
44.860136417
 20
-35.228996
 30
0.0
 11
44.860136417
 21
-34.707635
 31
0.0
  0
LINE
  5
2A8
100
AcDbEntity
  8
CURVE
100
AcDbLine
 62
250
  6
CONTINUOUS
 10
44.860136417
 20
-33.66956
 30
0.0
 11
44.860136417
 21
-33.153297
 31
0.0
  0
LINE
  5
2A9
100
AcDbEntity
  8
CURVE
100
AcDbLine
 62
250
  6
CONTINUOUS
 10
44.860136417
 20
-32.053532
 30
0.0
 11
44.860136417
 21
-31.54876
 31
0.0
  0
LINE
  5
2AA
100
AcDbEntity
  8
CURVE
100
AcDbLine
 62
250
  6
CONTINUOUS
 10
44.8989474951
 20
-29.8279642095
 30
0.0
 11
44.8989474951
 21
-30.126163664
 31
0.0
  0
LINE
  5
2AB
100
AcDbEntity
  8
CURVE
100
AcDbLine
 62
250
  6
CONTINUOUS
 10
44.9132352194
 20
-30.1088617972
 30
0.0
 11
44.9132352194
 21
-29.8290889245
 31
0.0
  0
LINE
  5
2AC
100
AcDbEntity
  8
CURVE
100
AcDbLine
 62
250
  6
CONTINUOUS
 10
44.9164833296
 20
-32.070759
 30
0.0
 11
44.9164833296
 21
-31.571179
 31
0.0
  0
LINE
  5
2AD
100
AcDbEntity
  8
CURVE
100
AcDbLine
 62
250
  6
CONTINUOUS
 10
44.92995984
 20
-31.466899
 30
0.0
 11
44.92995984
 21
-32.177494
 31
0.0
  0
LINE
  5
2AE
100
AcDbEntity
  8
CURVE
100
AcDbLine
 62
250
  6
CONTINUOUS
 10
44.9473759453
 20
-36.257398
 30
0.0
 11
44.9473759453
 21
-35.735605
 31
0.0
  0
LINE
  5
2AF
100
AcDbEntity
  8
CURVE
100
AcDbLine
 62
250
  6
CONTINUOUS
 10
44.9473759458
 20
-30.6285551388
 30
0.0
 11
44.9473759458
 21
-30.1088617972
 31
0.0
  0
LINE
  5
2B0
100
AcDbEntity
  8
CURVE
100
AcDbLine
 62
250
  6
CONTINUOUS
 10
44.9473759458
 20
-29.3098079785
 30
0.0
 11
44.9473759458
 21
-28.8079038802
 31
0.0
  0
LINE
  5
2B1
100
AcDbEntity
  8
CURVE
100
AcDbLine
 62
250
  6
CONTINUOUS
 10
44.9473759453
 20
-30.781779
 30
0.0
 11
44.9473759453
 21
-31.331727
 31
0.0
  0
LINE
  5
2B2
100
AcDbEntity
  8
CURVE
100
AcDbLine
 62
250
  6
CONTINUOUS
 10
44.9473759453
 20
-32.321477
 30
0.0
 11
44.9473759453
 21
-32.837608
 31
0.0
  0
LINE
  5
2B3
100
AcDbEntity
  8
CURVE
100
AcDbLine
 62
250
  6
CONTINUOUS
 10
44.9473759453
 20
-32.919544
 30
0.0
 11
44.9473759453
 21
-33.429996
 31
0.0
  0
LINE
  5
2B4
100
AcDbEntity
  8
CURVE
100
AcDbLine
 62
250
  6
CONTINUOUS
 10
44.9473759453
 20
-34.157611
 30
0.0
 11
44.9473759453
 21
-34.230793
 31
0.0
  0
LINE
  5
2B5
100
AcDbEntity
  8
CURVE
100
AcDbLine
 62
250
  6
CONTINUOUS
 10
44.9473759453
 20
-34.955522
 30
0.0
 11
44.9473759453
 21
-35.454708
 31
0.0
  0
LINE
  5
2B6
100
AcDbEntity
  8
CURVE
100
AcDbLine
 62
250
  6
CONTINUOUS
 10
44.9473759453
 20
-37.254552
 30
0.0
 11
44.9473759453
 21
-37.714382
 31
0.0
  0
LINE
  5
2B7
100
AcDbEntity
  8
ASSI
100
AcDbLine
 62
7
  6
CONTINUOUS
 10
45.0
 20
-43.9993911979
 30
0.0
 11
45.0
 21
43.9993911979
 31
0.0
  0
LINE
  5
2B8
100
AcDbEntity
  8
ASSI
100
AcDbLine
 62
7
  6
CONTINUOUS
 10
43.3767374102
 20
43.7712689598
 30
0.0
 11
-43.3767374102
 21
43.7712689598
 31
0.0
  0
LINE
  5
2B9
100
AcDbEntity
  8
ASSI
100
AcDbLine
 62
7
  6
CONTINUOUS
 10
43.8055596544
 20
44.8061684565
 30
0.0
 11
-43.8055596544
 21
44.8061684565
 31
0.0
  0
LINE
  5
2BA
100
AcDbEntity
  8
ASSI
100
AcDbLine
 62
7
  6
CONTINUOUS
 10
43.9993911979
 20
45.0
 30
0.0
 11
-43.9993911979
 21
45.0
 31
0.0
  0
LINE
  5
2BB
100
AcDbEntity
  8
CURVE
100
AcDbLine
 62
250
  6
CONTINUOUS
 10
44.9473759453
 20
-34.230793
 30
0.0
 11
44.8904101948
 21
-34.842919
 31
0.0
  0
LINE
  5
2BC
100
AcDbEntity
  8
CURVE
100
AcDbLine
 62
250
  6
CONTINUOUS
 10
44.860136417
 20
-34.707635
 30
0.0
 11
44.9085720674
 21
-34.191353
 31
0.0
  0
LINE
  5
2BD
100
AcDbEntity
  8
CURVE
100
AcDbLine
 62
250
  6
CONTINUOUS
 10
44.9473759453
 20
-37.714382
 30
0.0
 11
44.860136417
 21
-38.506847
 31
0.0
  0
LINE
  5
2BE
100
AcDbEntity
  8
CURVE
100
AcDbLine
 62
250
  6
CONTINUOUS
 10
44.860136417
 20
-31.54876
 30
0.0
 11
44.9473759453
 21
-30.781779
 31
0.0
  0
LINE
  5
2BF
100
AcDbEntity
  8
CURVE
100
AcDbLine
 62
250
  6
CONTINUOUS
 10
44.860136417
 20
-37.940019
 30
0.0
 11
44.9201860964
 21
-37.463524
 31
0.0
  0
LINE
  5
2C0
100
AcDbEntity
  8
CURVE
100
AcDbLine
 62
250
  6
CONTINUOUS
 10
44.9473759453
 20
-31.331727
 30
0.0
 11
44.92995984
 21
-31.466899
 31
0.0
  0
LINE
  5
2C1
100
AcDbEntity
  8
CURVE
100
AcDbLine
 62
250
  6
CONTINUOUS
 10
44.9164833296
 20
-31.571179
 30
0.0
 11
44.8841076249
 21
-31.81095
 31
0.0
  0
LINE
  5
2C2
100
AcDbEntity
  8
CURVE
100
AcDbLine
 62
250
  6
CONTINUOUS
 10
44.860136417
 20
-33.153297
 30
0.0
 11
44.9473759453
 21
-32.919544
 31
0.0
  0
LINE
  5
2C3
100
AcDbEntity
  8
CURVE
100
AcDbLine
 62
250
  6
CONTINUOUS
 10
44.9473759453
 20
-33.429996
 30
0.0
 11
44.890647651
 21
-33.5372
 31
0.0
  0
LINE
  5
2C4
100
AcDbEntity
  8
CURVE
100
AcDbLine
 62
7
  6
CONTINUOUS
 10
44.9403230847
 20
-28.8611763
 30
0.0
 11
44.9473759458
 21
-28.8541234389
 31
0.0
  0
LINE
  5
2C5
100
AcDbEntity
  8
CURVE
100
AcDbLine
 62
7
  6
CONTINUOUS
 10
44.8664942614
 20
-29.1450158374
 30
0.0
 11
44.9014044164
 21
-29.1101056824
 31
0.0
  0
LINE
  5
2C6
100
AcDbEntity
  8
CURVE
100
AcDbLine
 62
7
  6
CONTINUOUS
 10
44.9130351519
 20
-29.0984749469
 30
0.0
 11
44.9473759458
 21
-29.0641341529
 31
0.0
  0
LINE
  5
2C7
100
AcDbEntity
  8
CURVE
100
AcDbLine
 62
7
  6
CONTINUOUS
 10
44.8618693599
 20
-29.3596514529
 30
0.0
 11
44.9473759458
 21
-29.274144867
 31
0.0
  0
LINE
  5
2C8
100
AcDbEntity
  8
CURVE
100
AcDbLine
 62
7
  6
CONTINUOUS
 10
44.8600810983
 20
-29.5714504285
 30
0.0
 11
44.876596684
 21
-29.5549348428
 31
0.0
  0
LINE
  5
2C9
100
AcDbEntity
  8
CURVE
100
AcDbLine
 62
7
  6
CONTINUOUS
 10
44.8956825097
 20
-29.5358490171
 30
0.0
 11
44.9239482785
 21
-29.5075832483
 31
0.0
  0
LINE
  5
2CA
100
AcDbEntity
  8
CURVE
100
AcDbLine
 62
7
  6
CONTINUOUS
 10
44.8987066428
 20
-29.742835598
 30
0.0
 11
44.9138426981
 21
-29.7276995427
 31
0.0
  0
LINE
  5
2CB
100
AcDbEntity
  8
CURVE
100
AcDbLine
 62
7
  6
CONTINUOUS
 10
44.8593194135
 20
-29.7822228273
 30
0.0
 11
44.8743228778
 21
-29.7672193631
 31
0.0
  0
LINE
  5
2CC
100
AcDbEntity
  8
CURVE
100
AcDbLine
 62
7
  6
CONTINUOUS
 10
44.8989474951
 20
-29.9526054597
 30
0.0
 11
44.9132352194
 21
-29.9383177355
 31
0.0
  0
LINE
  5
2CD
100
AcDbEntity
  8
CURVE
100
AcDbLine
 62
7
  6
CONTINUOUS
 10
44.8591438682
 20
-29.9924090866
 30
0.0
 11
44.8743312878
 21
-29.977221667
 31
0.0
  0
LINE
  5
2CE
100
AcDbEntity
  8
CURVE
100
AcDbLine
 62
7
  6
CONTINUOUS
 10
44.8594624149
 20
-30.202101254
 30
0.0
 11
44.9473759458
 21
-30.114187723
 31
0.0
  0
LINE
  5
2CF
100
AcDbEntity
  8
CURVE
100
AcDbLine
 62
7
  6
CONTINUOUS
 10
44.8601645785
 20
-30.4114098043
 30
0.0
 11
44.9473759458
 21
-30.324198437
 31
0.0
  0
LINE
  5
2D0
100
AcDbEntity
  8
CURVE
100
AcDbLine
 62
7
  6
CONTINUOUS
 10
44.8611167529
 20
-30.620468344
 30
0.0
 11
44.9473759458
 21
-30.534209151
 31
0.0
  0
LINE
  5
2D1
100
AcDbEntity
  8
CURVE
100
AcDbLine
 62
7
  6
CONTINUOUS
 10
44.925243127
 20
-30.9763633979
 30
0.0
 11
44.9473759453
 21
-30.9542305796
 31
0.0
  0
LINE
  5
2D2
100
AcDbEntity
  8
CURVE
100
AcDbLine
 62
7
  6
CONTINUOUS
 10
44.8982898861
 20
-31.2133273528
 30
0.0
 11
44.9473759453
 21
-31.1642412936
 31
0.0
  0
LINE
  5
2D3
100
AcDbEntity
  8
CURVE
100
AcDbLine
 62
7
  6
CONTINUOUS
 10
44.8713366452
 20
-31.4502913077
 30
0.0
 11
44.9410864936
 21
-31.3805414593
 31
0.0
  0
LINE
  5
2D4
100
AcDbEntity
  8
CURVE
100
AcDbLine
 62
7
  6
CONTINUOUS
 10
44.860136417
 20
-31.67150225
 30
0.0
 11
44.9096183479
 21
-31.6220203191
 31
0.0
  0
LINE
  5
2D5
100
AcDbEntity
  8
CURVE
100
AcDbLine
 62
7
  6
CONTINUOUS
 10
44.9164833296
 20
-31.6151553374
 30
0.0
 11
44.92995984
 21
-31.6016788269
 31
0.0
  0
LINE
  5
2D6
100
AcDbEntity
  8
CURVE
100
AcDbLine
 62
7
  6
CONTINUOUS
 10
44.9164833296
 20
-31.8251660514
 30
0.0
 11
44.92995984
 21
-31.8116895409
 31
0.0
  0
LINE
  5
2D7
100
AcDbEntity
  8
CURVE
100
AcDbLine
 62
7
  6
CONTINUOUS
 10
44.860136417
 20
-31.881512964
 30
0.0
 11
44.8892702529
 21
-31.8523791281
 31
0.0
  0
LINE
  5
2D8
100
AcDbEntity
  8
CURVE
100
AcDbLine
 62
7
  6
CONTINUOUS
 10
44.8639402928
 20
-32.0877198022
 30
0.0
 11
44.9125406183
 21
-32.0391194766
 31
0.0
  0
LINE
  5
2D9
100
AcDbEntity
  8
CURVE
100
AcDbLine
 62
7
  6
CONTINUOUS
 10
44.9164833296
 20
-32.0351767654
 30
0.0
 11
44.92995984
 21
-32.0217002549
 31
0.0
  0
LINE
  5
2DA
100
AcDbEntity
  8
CURVE
100
AcDbLine
 62
7
  6
CONTINUOUS
 10
44.8849673892
 20
-32.2767034198
 30
0.0
 11
44.9358102345
 21
-32.2258605744
 31
0.0
  0
LINE
  5
2DB
100
AcDbEntity
  8
CURVE
100
AcDbLine
 62
7
  6
CONTINUOUS
 10
44.9059944856
 20
-32.4656870373
 30
0.0
 11
44.9473759453
 21
-32.4243055777
 31
0.0
  0
LINE
  5
2DC
100
AcDbEntity
  8
CURVE
100
AcDbLine
 62
7
  6
CONTINUOUS
 10
44.9270215821
 20
-32.6546706549
 30
0.0
 11
44.9473759453
 21
-32.6343162917
 31
0.0
  0
LINE
  5
2DD
100
AcDbEntity
  8
CURVE
100
AcDbLine
 62
7
  6
CONTINUOUS
 10
44.8671147898
 20
-33.1345988752
 30
0.0
 11
44.9473759453
 21
-33.0543377198
 31
0.0
  0
LINE
  5
2DE
100
AcDbEntity
  8
CURVE
100
AcDbLine
 62
7
  6
CONTINUOUS
 10
44.860136417
 20
-33.3515879621
 30
0.0
 11
44.9473759453
 21
-33.2643484338
 31
0.0
  0
LINE
  5
2DF
100
AcDbEntity
  8
CURVE
100
AcDbLine
 62
7
  6
CONTINUOUS
 10
44.860136417
 20
-33.5615986761
 30
0.0
 11
44.8975173912
 21
-33.5242177019
 31
0.0
  0
LINE
  5
2E0
100
AcDbEntity
  8
CURVE
100
AcDbLine
 62
7
  6
CONTINUOUS
 10
44.8688045689
 20
-33.7629412381
 30
0.0
 11
44.907729505
 21
-33.724016302
 31
0.0
  0
LINE
  5
2E1
100
AcDbEntity
  8
ASSI
100
AcDbLine
 62
7
  6
CONTINUOUS
 10
43.8199854699
 20
-44.7906993223
 30
0.0
 11
43.8055596544
 21
-44.8061684565
 31
0.0
  0
LINE
  5
2E2
100
AcDbEntity
  8
CURVE
100
AcDbLine
 62
7
  6
CONTINUOUS
 10
44.8866430369
 20
-33.9551134842
 30
0.0
 11
44.9253234472
 21
-33.9164330739
 31
0.0
  0
LINE
  5
2E3
100
AcDbEntity
  8
CURVE
100
AcDbLine
 62
7
  6
CONTINUOUS
 10
44.9044815049
 20
-34.1472857302
 30
0.0
 11
44.9429173894
 21
-34.1088498457
 31
0.0
  0
LINE
  5
2E4
100
AcDbEntity
  8
CURVE
100
AcDbLine
 62
7
  6
CONTINUOUS
 10
44.8918156053
 20
-34.3699623438
 30
0.0
 11
44.9387967113
 21
-34.3229812378
 31
0.0
  0
LINE
  5
2E5
100
AcDbEntity
  8
CURVE
100
AcDbLine
 62
7
  6
CONTINUOUS
 10
44.8700734126
 20
-34.6017152505
 30
0.0
 11
44.9172472255
 21
-34.5545414376
 31
0.0
  0
LINE
  5
2E6
100
AcDbEntity
  8
CURVE
100
AcDbLine
 62
7
  6
CONTINUOUS
 10
44.860136417
 20
-34.8216629601
 30
0.0
 11
44.8956977397
 21
-34.7861016374
 31
0.0
  0
LINE
  5
2E7
100
AcDbEntity
  8
CURVE
100
AcDbLine
 62
7
  6
CONTINUOUS
 10
44.860136417
 20
-35.0316736742
 30
0.0
 11
44.9436510376
 21
-34.9481590535
 31
0.0
  0
LINE
  5
2E8
100
AcDbEntity
  8
CURVE
100
AcDbLine
 62
7
  6
CONTINUOUS
 10
44.8636734791
 20
-35.238147326
 30
0.0
 11
44.9473759453
 21
-35.1544448599
 31
0.0
  0
LINE
  5
2E9
100
AcDbEntity
  8
CURVE
100
AcDbLine
 62
7
  6
CONTINUOUS
 10
44.9222168444
 20
-35.3896146748
 30
0.0
 11
44.9473759453
 21
-35.3644555739
 31
0.0
  0
LINE
  5
2EA
100
AcDbEntity
  8
CURVE
100
AcDbLine
 62
7
  6
CONTINUOUS
 10
44.860131217
 20
-35.8717217302
 30
0.0
 11
44.9473759453
 21
-35.7844770019
 31
0.0
  0
LINE
  5
2EB
100
AcDbEntity
  8
CURVE
100
AcDbLine
 62
7
  6
CONTINUOUS
 10
44.860131217
 20
-36.0817324442
 30
0.0
 11
44.9473759453
 21
-35.9944877159
 31
0.0
  0
LINE
  5
2EC
100
AcDbEntity
  8
CURVE
100
AcDbLine
 62
7
  6
CONTINUOUS
 10
44.8944763752
 20
-36.257398
 30
0.0
 11
44.9473759453
 21
-36.2044984299
 31
0.0
  0
LINE
  5
2ED
100
AcDbEntity
  8
CURVE
100
AcDbLine
 62
7
  6
CONTINUOUS
 10
44.860136417
 20
-36.5017486722
 30
0.0
 11
44.8651030629
 21
-36.4967820263
 31
0.0
  0
LINE
  5
2EE
100
AcDbEntity
  8
CURVE
100
AcDbLine
 62
7
  6
CONTINUOUS
 10
44.860136417
 20
-36.7117593863
 30
0.0
 11
44.8856712835
 21
-36.6862245197
 31
0.0
  0
LINE
  5
2EF
100
AcDbEntity
  8
CURVE
100
AcDbLine
 62
7
  6
CONTINUOUS
 10
44.860136417
 20
-36.9217701003
 30
0.0
 11
44.9062395041
 21
-36.8756670131
 31
0.0
  0
LINE
  5
2F0
100
AcDbEntity
  8
CURVE
100
AcDbLine
 62
7
  6
CONTINUOUS
 10
44.8774951021
 20
-37.1144221291
 30
0.0
 11
44.9268077247
 21
-37.0651095066
 31
0.0
  0
LINE
  5
2F1
100
AcDbEntity
  8
CURVE
100
AcDbLine
 62
7
  6
CONTINUOUS
 10
44.9003785362
 20
-37.3015494091
 30
0.0
 11
44.9473759453
 21
-37.254552
 31
0.0
  0
LINE
  5
2F2
100
AcDbEntity
  8
CURVE
100
AcDbLine
 62
7
  6
CONTINUOUS
 10
44.9161156553
 20
-37.495823004
 30
0.0
 11
44.9473759453
 21
-37.464562714
 31
0.0
  0
LINE
  5
2F3
100
AcDbEntity
  8
CURVE
100
AcDbLine
 62
7
  6
CONTINUOUS
 10
44.8858329857
 20
-37.7361163876
 30
0.0
 11
44.9473759453
 21
-37.674573428
 31
0.0
  0
LINE
  5
2F4
100
AcDbEntity
  8
CURVE
100
AcDbLine
 62
7
  6
CONTINUOUS
 10
44.860136417
 20
-37.9718236703
 30
0.0
 11
44.9263211831
 21
-37.9056389042
 31
0.0
  0
LINE
  5
2F5
100
AcDbEntity
  8
CURVE
100
AcDbLine
 62
7
  6
CONTINUOUS
 10
44.860136417
 20
-38.1818343843
 30
0.0
 11
44.9003419235
 21
-38.1416288779
 31
0.0
  0
LINE
  5
2F6
100
AcDbEntity
  8
CURVE
100
AcDbLine
 62
7
  6
CONTINUOUS
 10
44.860136417
 20
-38.3918450984
 30
0.0
 11
44.8743626638
 21
-38.3776188515
 31
0.0
  0
LINE
  5
2F7
100
AcDbEntity
  8
ASSI
100
AcDbLine
 62
7
  6
CONTINUOUS
 10
43.3767374102
 20
-43.7712689598
 30
0.0
 11
43.7712689598
 21
-43.3767374102
 31
0.0
  0
LINE
  5
2F8
100
AcDbEntity
  8
ASSI
100
AcDbLine
 62
7
  6
CONTINUOUS
 10
43.8199854699
 20
-44.7906993223
 30
0.0
 11
44.7906993223
 21
-43.8199854699
 31
0.0
  0
LINE
  5
2F9
100
AcDbEntity
  8
ASSI
100
AcDbLine
 62
7
  6
CONTINUOUS
 10
45.0
 20
-43.9993911979
 30
0.0
 11
43.9993911979
 21
-45.0
 31
0.0
  0
LINE
  5
2FA
100
AcDbEntity
  8
ASSI
100
AcDbLine
 62
7
  6
CONTINUOUS
 10
44.8061684565
 20
-43.8055596544
 30
0.0
 11
44.7906993223
 21
-43.8199854699
 31
0.0
  0
LINE
  5
2FB
100
AcDbEntity
  8
ASSI
100
AcDbLine
 62
7
  6
CONTINUOUS
 10
44.7906993223
 20
43.8199854699
 30
0.0
 11
44.8061684565
 21
43.8055596544
 31
0.0
  0
LINE
  5
2FC
100
AcDbEntity
  8
ASSI
100
AcDbLine
 62
7
  6
CONTINUOUS
 10
43.7712689598
 20
43.3767374102
 30
0.0
 11
43.3767374102
 21
43.7712689598
 31
0.0
  0
LINE
  5
2FD
100
AcDbEntity
  8
ASSI
100
AcDbLine
 62
7
  6
CONTINUOUS
 10
44.7906993223
 20
43.8199854699
 30
0.0
 11
43.8199854699
 21
44.7906993223
 31
0.0
  0
LINE
  5
2FE
100
AcDbEntity
  8
ASSI
100
AcDbLine
 62
7
  6
CONTINUOUS
 10
43.9993911979
 20
45.0
 30
0.0
 11
45.0
 21
43.9993911979
 31
0.0
  0
LINE
  5
2FF
100
AcDbEntity
  8
ASSI
100
AcDbLine
 62
7
  6
CONTINUOUS
 10
43.8055596544
 20
44.8061684565
 30
0.0
 11
43.8199854699
 21
44.7906993223
 31
0.0
  0
LWPOLYLINE
  5
300
100
AcDbEntity
  8
0
100
AcDbPolyline
 62
7
  6
CONTINUOUS
 90
3
 70
0
 43
0.3500000006
 10
-100.9782416382
 20
65.8928549194
 10
-100.1211036987
 20
66.7500019226
 10
-100.1211036987
 20
63.7500010071
  0
LWPOLYLINE
  5
301
100
AcDbEntity
  8
0
100
AcDbPolyline
 62
7
  6
CONTINUOUS
 90
3
 70
0
 43
0.3500000006
 10
-95.1925333557
 20
65.8928549194
 10
-94.3353863525
 20
66.7500019226
 10
-94.3353863525
 20
63.7500010071
  0
LWPOLYLINE
  5
302
100
AcDbEntity
  8
0
100
AcDbPolyline
 62
7
  6
CONTINUOUS
 90
3
 70
0
 43
0.3500000006
 10
-97.5284626465
 20
55.8928609314
 10
-96.6713156433
 20
56.7499988708
 10
-96.6713156433
 20
53.7499979553
  0
LINE
  5
303
100
AcDbEntity
  8
ASSI
100
AcDbLine
 62
7
  6
CONTINUOUS
 10
-86.6919835904
 20
-44.8061684565
 30
0.0
 11
-81.1413744174
 21
-45.0
 31
0.0
  0
LINE
  5
304
100
AcDbEntity
  8
ASSI
100
AcDbLine
 62
7
  6
CONTINUOUS
 10
-86.6919835904
 20
-43.8055596544
 30
0.0
 11
-81.1413744174
 21
-43.9993911979
 31
0.0
  0
LINE
  5
305
100
AcDbEntity
  8
0
100
AcDbLine
 62
7
  6
CONTINUOUS
 10
-81.1413744174
 20
-42.7580439128
 30
0.0
 11
-80.5413744174
 21
-42.8
 31
0.0
  0
LINE
  5
306
100
AcDbEntity
  8
ASSI
100
AcDbLine
 62
7
  6
CONTINUOUS
 10
-87.6913744174
 20
43.3767374102
 30
0.0
 11
-86.7069219596
 21
43.8199854699
 31
0.0
  0
LINE
  5
307
100
AcDbEntity
  8
0
100
AcDbLine
 62
250
  6
CONTINUOUS
 10
-81.1413744174
 20
-41.1619414324
 30
0.0
 11
-80.5413744174
 21
-41.2038975196
 31
0.0
  0
LINE
  5
308
100
AcDbEntity
  8
ASSI
100
AcDbLine
 62
7
  6
CONTINUOUS
 10
-87.6913744174
 20
-43.3767374102
 30
0.0
 11
-86.7069219596
 21
-43.8199854699
 31
0.0
  0
LINE
  5
309
100
AcDbEntity
  8
CURVE
100
AcDbLine
 62
250
  6
CONTINUOUS
 10
-85.1465434059
 20
-37.940019
 30
0.0
 11
-83.426945577
 21
-37.463524
 31
0.0
  0
LINE
  5
30A
100
AcDbEntity
  8
CURVE
100
AcDbLine
 62
250
  6
CONTINUOUS
 10
-85.1466923151
 20
-36.257398
 30
0.0
 11
-82.6483301775
 21
-36.257398
 31
0.0
  0
LINE
  5
30B
100
AcDbEntity
  8
CURVE
100
AcDbLine
 62
250
  6
CONTINUOUS
 10
-83.426945577
 20
-37.463524
 30
0.0
 11
-85.1465434059
 21
-36.972473
 31
0.0
  0
LWPOLYLINE
  5
30C
100
AcDbEntity
  8
0
100
AcDbPolyline
 62
7
  6
CONTINUOUS
 90
3
 70
0
 43
0.3500000006
 10
-96.1925336609
 20
64.0357166748
 10
-96.26395578
 20
63.8214321899
 10
-96.4068181458
 20
63.5357165222
  0
LINE
  5
30D
100
AcDbEntity
  8
ASSI
100
AcDbLine
 62
7
  6
CONTINUOUS
 10
-86.6919835904
 20
44.8061684565
 30
0.0
 11
-87.6913744174
 21
43.7712689598
 31
0.0
  0
LINE
  5
30E
100
AcDbEntity
  8
CURVE
100
AcDbLine
 62
250
  6
CONTINUOUS
 10
-82.6483301775
 20
-33.429996
 30
0.0
 11
-84.2728159815
 21
-33.5372
 31
0.0
  0
LINE
  5
30F
100
AcDbEntity
  8
CURVE
100
AcDbLine
 62
250
  6
CONTINUOUS
 10
-82.6483301775
 20
-35.735605
 30
0.0
 11
-85.1466923151
 21
-35.735605
 31
0.0
  0
LINE
  5
310
100
AcDbEntity
  8
CURVE
100
AcDbLine
 62
250
  6
CONTINUOUS
 10
-84.2796158367
 20
-34.842919
 30
0.0
 11
-82.6483301775
 21
-34.955522
 31
0.0
  0
LINE
  5
311
100
AcDbEntity
  8
CURVE
100
AcDbLine
 62
250
  6
CONTINUOUS
 10
-82.6483301775
 20
-35.454708
 30
0.0
 11
-85.1465434059
 21
-35.228996
 31
0.0
  0
LINE
  5
312
100
AcDbEntity
  8
CURVE
100
AcDbLine
 62
250
  6
CONTINUOUS
 10
-85.1465434059
 20
-36.451037
 30
0.0
 11
-82.6483301775
 21
-37.254552
 31
0.0
  0
LINE
  5
313
100
AcDbEntity
  8
ASSI
100
AcDbLine
 62
7
  6
CONTINUOUS
 10
-87.6913744174
 20
-43.7712689598
 30
0.0
 11
-86.6919835904
 21
-44.8061684565
 31
0.0
  0
LWPOLYLINE
  5
314
100
AcDbEntity
  8
0
100
AcDbPolyline
 62
7
  6
CONTINUOUS
 90
3
 70
0
 43
0.3500000006
 10
-98.5284629517
 20
54.035713623
 10
-98.5998850708
 20
53.8214291382
 10
-98.7427474365
 20
53.5357134705
  0
LINE
  5
315
100
AcDbEntity
  8
CURVE
100
AcDbLine
 62
250
  6
CONTINUOUS
 10
-82.6483301775
 20
-31.331727
 30
0.0
 11
-83.1470621783
 21
-31.466899
 31
0.0
  0
LINE
  5
316
100
AcDbEntity
  8
CURVE
100
AcDbLine
 62
250
  6
CONTINUOUS
 10
-83.5329789449
 20
-31.571179
 30
0.0
 11
-84.4600978249
 21
-31.81095
 31
0.0
  0
LINE
  5
317
100
AcDbEntity
  8
CURVE
100
AcDbLine
 62
250
  6
CONTINUOUS
 10
-85.1465434059
 20
-33.153297
 30
0.0
 11
-82.6483301775
 21
-32.919544
 31
0.0
  0
LINE
  5
318
100
AcDbEntity
  8
CURVE
100
AcDbLine
 62
250
  6
CONTINUOUS
 10
-85.1173555498
 20
-30.6285551388
 30
0.0
 11
-82.6483301611
 21
-30.6285551388
 31
0.0
  0
LINE
  5
319
100
AcDbEntity
  8
CURVE
100
AcDbLine
 62
250
  6
CONTINUOUS
 10
-84.0351395427
 20
-30.126163664
 30
0.0
 11
-84.7209476646
 21
-30.126163664
 31
0.0
  0
LINE
  5
31A
100
AcDbEntity
  8
CURVE
100
AcDbLine
 62
250
  6
CONTINUOUS
 10
-82.6483301611
 20
-30.1088617972
 30
0.0
 11
-83.6259926517
 21
-30.1088617972
 31
0.0
  0
LINE
  5
31B
100
AcDbEntity
  8
CURVE
100
AcDbLine
 62
250
  6
CONTINUOUS
 10
-84.4600978249
 20
-31.81095
 30
0.0
 11
-83.5329789449
 21
-32.070759
 31
0.0
  0
LINE
  5
31C
100
AcDbEntity
  8
CURVE
100
AcDbLine
 62
250
  6
CONTINUOUS
 10
-83.1470621783
 20
-32.177494
 30
0.0
 11
-82.6483301775
 21
-32.321477
 31
0.0
  0
LINE
  5
31D
100
AcDbEntity
  8
CURVE
100
AcDbLine
 62
250
  6
CONTINUOUS
 10
-82.6483301775
 20
-32.837608
 30
0.0
 11
-85.1465434059
 21
-32.053532
 31
0.0
  0
LINE
  5
31E
100
AcDbEntity
  8
CURVE
100
AcDbLine
 62
250
  6
CONTINUOUS
 10
-83.7595278533
 20
-34.191353
 30
0.0
 11
-85.1465434059
 21
-33.66956
 31
0.0
  0
LINE
  5
31F
100
AcDbEntity
  8
CURVE
100
AcDbLine
 62
250
  6
CONTINUOUS
 10
-84.2728159815
 20
-33.5372
 30
0.0
 11
-82.6483301775
 21
-34.157611
 31
0.0
  0
LINE
  5
320
100
AcDbEntity
  8
0
100
AcDbLine
 62
7
  6
CONTINUOUS
 10
-79.6155372664
 20
-27.1501294387
 30
0.0
 11
-80.5413744174
 21
-27.151745331
 31
0.0
  0
LINE
  5
321
100
AcDbEntity
  8
0
100
AcDbLine
 62
250
  6
CONTINUOUS
 10
-79.6156018336
 20
-26.9276792439
 30
0.0
 11
-80.5413744174
 21
-26.9280974384
 31
0.0
  0
LINE
  5
322
100
AcDbEntity
  8
CURVE
100
AcDbLine
 62
250
  6
CONTINUOUS
 10
-83.8144737355
 20
-29.2870512436
 30
0.0
 11
-83.8292359951
 21
-29.2870512436
 31
0.0
  0
LWPOLYLINE
  5
323
100
AcDbEntity
  8
0
100
AcDbPolyline
 62
7
  6
CONTINUOUS
 90
15
 70
0
 10
-78.5813841961
 20
-26.5286213358
 10
-78.5572749177
 20
-26.5279581755
 10
-78.5286719847
 20
-26.5265776586
 10
-78.5005826494
 20
-26.5245970893
 10
-78.4731398326
 20
-26.5220519269
 10
-78.4462597893
 20
-26.5189330145
 10
-78.4200084287
 20
-26.5152409708
 10
-78.3946777239
 20
-26.510995443
 10
-78.3702319779
 20
-26.5061606297
 10
-78.3465836385
 20
-26.5006695942
 10
-78.3237315247
 20
-26.4944146865
 10
-78.3011671682
 20
-26.4871252555
 10
-78.2790025893
 20
-26.4785478715
 10
-78.2580367839
 20
-26.4687456582
 10
-78.2539606584
 20
-26.4666176884
  0
LINE
  5
324
100
AcDbEntity
  8
0
100
AcDbLine
 62
7
  6
CONTINUOUS
 10
-80.5413744174
 20
-26.5637861501
 30
0.0
 11
-78.5813840794
 21
-26.5286213375
 31
0.0
  0
LINE
  5
325
100
AcDbEntity
  8
0
100
AcDbLine
 62
7
  6
CONTINUOUS
 10
-79.5912500385
 20
-25.2
 30
0.0
 11
-80.5413744174
 21
-25.2
 31
0.0
  0
LINE
  5
326
100
AcDbEntity
  8
0
100
AcDbLine
 62
7
  6
CONTINUOUS
 10
-80.5413744174
 20
-25.05
 30
0.0
 11
-80.3913744174
 21
-25.05
 31
0.0
  0
LINE
  5
327
100
AcDbEntity
  8
0
100
AcDbLine
 62
7
  6
CONTINUOUS
 10
-80.0913744174
 20
-25.05
 30
0.0
 11
-79.8913744174
 21
-25.05
 31
0.0
  0
LINE
  5
328
100
AcDbEntity
  8
0
100
AcDbLine
 62
7
  6
CONTINUOUS
 10
-80.5413744174
 20
-25.7558198745
 30
0.0
 11
-79.5394944976
 21
-25.8000830551
 31
0.0
  0
LINE
  5
329
100
AcDbEntity
  8
0
100
AcDbLine
 62
7
  6
CONTINUOUS
 10
-77.5413744174
 20
-25.4
 30
0.0
 11
-79.4917463195
 21
-25.2049628098
 31
0.0
  0
LWPOLYLINE
  5
32A
100
AcDbEntity
  8
0
100
AcDbPolyline
 62
7
  6
CONTINUOUS
 90
4
 70
0
 43
0.3500000006
 10
-101.5998859863
 20
56.1071454163
 10
-101.5998859863
 20
56.7499988708
 10
-100.0998855286
 20
56.7499988708
 10
-100.9570325317
 20
53.7499979553
  0
LWPOLYLINE
  5
32B
100
AcDbEntity
  8
0
100
AcDbPolyline
 62
7
  6
CONTINUOUS
 90
13
 70
0
 43
0.3500000006
 10
-99.2639566956
 20
64.6071389465
 10
-99.2639566956
 20
65.8928549194
 10
-99.0496722107
 20
66.3214329529
 10
-98.621103241
 20
66.7500019226
 10
-98.4068187561
 20
66.7500019226
 10
-97.9782407227
 20
66.3214329529
 10
-97.7639562378
 20
65.8928549194
 10
-97.7639562378
 20
64.6071389465
 10
-97.9782407227
 20
64.1785699768
 10
-98.4068187561
 20
63.7500010071
 10
-98.621103241
 20
63.7500010071
 10
-99.0496722107
 20
64.1785699768
 10
-99.2639566956
 20
64.6071389465
  0
LINE
  5
32C
100
AcDbEntity
  8
0
100
AcDbLine
 62
7
  6
CONTINUOUS
 10
-80.3913744174
 20
25.05
 30
0.0
 11
-80.2413744174
 21
25.2
 31
0.0
  0
LINE
  5
32D
100
AcDbEntity
  8
0
100
AcDbLine
 62
7
  6
CONTINUOUS
 10
-79.8913744174
 20
25.05
 30
0.0
 11
-79.7413744174
 21
25.2
 31
0.0
  0
LINE
  5
32E
100
AcDbEntity
  8
0
100
AcDbLine
 62
7
  6
CONTINUOUS
 10
-80.3913744174
 20
-25.05
 30
0.0
 11
-80.2413744174
 21
-25.2
 31
0.0
  0
LINE
  5
32F
100
AcDbEntity
  8
0
100
AcDbLine
 62
7
  6
CONTINUOUS
 10
-79.8913744174
 20
-25.05
 30
0.0
 11
-79.7413744174
 21
-25.2
 31
0.0
  0
LINE
  5
330
100
AcDbEntity
  8
ASSI
100
AcDbLine
 62
7
  6
CONTINUOUS
 10
-87.6913744174
 20
-43.7712689598
 30
0.0
 11
-87.6913744174
 21
43.7712689598
 31
0.0
  0
LINE
  5
331
100
AcDbEntity
  8
ASSI
100
AcDbLine
 62
7
  6
CONTINUOUS
 10
-86.7069219596
 20
-44.7906993223
 30
0.0
 11
-86.7069219596
 21
-43.8199854699
 31
0.0
  0
LINE
  5
332
100
AcDbEntity
  8
ASSI
100
AcDbLine
 62
7
  6
CONTINUOUS
 10
-86.7069219596
 20
43.8199854699
 30
0.0
 11
-86.7069219596
 21
44.7906993223
 31
0.0
  0
LINE
  5
333
100
AcDbEntity
  8
ASSI
100
AcDbLine
 62
7
  6
CONTINUOUS
 10
-86.6919835904
 20
-43.8055596544
 30
0.0
 11
-86.6919835904
 21
43.8055596544
 31
0.0
  0
LINE
  5
334
100
AcDbEntity
  8
CURVE
100
AcDbLine
 62
250
  6
CONTINUOUS
 10
-85.1466923151
 20
-35.735605
 30
0.0
 11
-85.1466923151
 21
-36.257398
 31
0.0
  0
LINE
  5
335
100
AcDbEntity
  8
CURVE
100
AcDbLine
 62
250
  6
CONTINUOUS
 10
-85.1465434059
 20
-38.506847
 30
0.0
 11
-85.1465434059
 21
-37.940019
 31
0.0
  0
LINE
  5
336
100
AcDbEntity
  8
CURVE
100
AcDbLine
 62
250
  6
CONTINUOUS
 10
-85.1465434059
 20
-36.972473
 30
0.0
 11
-85.1465434059
 21
-36.451037
 31
0.0
  0
LINE
  5
337
100
AcDbEntity
  8
CURVE
100
AcDbLine
 62
250
  6
CONTINUOUS
 10
-85.1465434059
 20
-35.228996
 30
0.0
 11
-85.1465434059
 21
-34.707635
 31
0.0
  0
LINE
  5
338
100
AcDbEntity
  8
CURVE
100
AcDbLine
 62
250
  6
CONTINUOUS
 10
-85.1465434059
 20
-33.66956
 30
0.0
 11
-85.1465434059
 21
-33.153297
 31
0.0
  0
LINE
  5
339
100
AcDbEntity
  8
CURVE
100
AcDbLine
 62
250
  6
CONTINUOUS
 10
-85.1465434059
 20
-32.053532
 30
0.0
 11
-85.1465434059
 21
-31.54876
 31
0.0
  0
LINE
  5
33A
100
AcDbEntity
  8
CURVE
100
AcDbLine
 62
250
  6
CONTINUOUS
 10
-84.0351395427
 20
-29.8279642095
 30
0.0
 11
-84.0351395427
 21
-30.126163664
 31
0.0
  0
LINE
  5
33B
100
AcDbEntity
  8
CURVE
100
AcDbLine
 62
250
  6
CONTINUOUS
 10
-83.6259926517
 20
-30.1088617972
 30
0.0
 11
-83.6259926517
 21
-29.8290889245
 31
0.0
  0
LINE
  5
33C
100
AcDbEntity
  8
CURVE
100
AcDbLine
 62
250
  6
CONTINUOUS
 10
-83.5329789449
 20
-32.070759
 30
0.0
 11
-83.5329789449
 21
-31.571179
 31
0.0
  0
LINE
  5
33D
100
AcDbEntity
  8
CURVE
100
AcDbLine
 62
250
  6
CONTINUOUS
 10
-83.1470621783
 20
-31.466899
 30
0.0
 11
-83.1470621783
 21
-32.177494
 31
0.0
  0
LINE
  5
33E
100
AcDbEntity
  8
CURVE
100
AcDbLine
 62
250
  6
CONTINUOUS
 10
-82.6483301775
 20
-36.257398
 30
0.0
 11
-82.6483301775
 21
-35.735605
 31
0.0
  0
LINE
  5
33F
100
AcDbEntity
  8
CURVE
100
AcDbLine
 62
250
  6
CONTINUOUS
 10
-82.6483301775
 20
-30.781779
 30
0.0
 11
-82.6483301775
 21
-31.331727
 31
0.0
  0
LINE
  5
340
100
AcDbEntity
  8
CURVE
100
AcDbLine
 62
250
  6
CONTINUOUS
 10
-82.6483301775
 20
-32.321477
 30
0.0
 11
-82.6483301775
 21
-32.837608
 31
0.0
  0
LINE
  5
341
100
AcDbEntity
  8
CURVE
100
AcDbLine
 62
250
  6
CONTINUOUS
 10
-82.6483301775
 20
-32.919544
 30
0.0
 11
-82.6483301775
 21
-33.429996
 31
0.0
  0
LINE
  5
342
100
AcDbEntity
  8
CURVE
100
AcDbLine
 62
250
  6
CONTINUOUS
 10
-82.6483301775
 20
-34.157611
 30
0.0
 11
-82.6483301775
 21
-34.230793
 31
0.0
  0
LINE
  5
343
100
AcDbEntity
  8
CURVE
100
AcDbLine
 62
250
  6
CONTINUOUS
 10
-82.6483301775
 20
-34.955522
 30
0.0
 11
-82.6483301775
 21
-35.454708
 31
0.0
  0
LINE
  5
344
100
AcDbEntity
  8
CURVE
100
AcDbLine
 62
250
  6
CONTINUOUS
 10
-82.6483301775
 20
-37.254552
 30
0.0
 11
-82.6483301775
 21
-37.714382
 31
0.0
  0
LINE
  5
345
100
AcDbEntity
  8
CURVE
100
AcDbLine
 62
250
  6
CONTINUOUS
 10
-82.6483301611
 20
-30.6285551388
 30
0.0
 11
-82.6483301611
 21
-30.1088617972
 31
0.0
  0
LINE
  5
346
100
AcDbEntity
  8
CURVE
100
AcDbLine
 62
250
  6
CONTINUOUS
 10
-82.6483301611
 20
-29.3098079785
 30
0.0
 11
-82.6483301611
 21
-28.8079038802
 31
0.0
  0
LINE
  5
347
100
AcDbEntity
  8
0
100
AcDbLine
 62
250
  6
CONTINUOUS
 10
-79.6155373375
 20
-27.1500750748
 30
0.0
 11
-79.6156018336
 21
-26.9276792439
 31
0.0
  0
LINE
  5
348
100
AcDbEntity
  8
ASSI
100
AcDbLine
 62
7
  6
CONTINUOUS
 10
-81.1413744174
 20
-45.0
 30
0.0
 11
-81.1413744174
 21
45.0
 31
0.0
  0
LINE
  5
349
100
AcDbEntity
  8
0
100
AcDbLine
 62
7
  6
CONTINUOUS
 10
-80.5413744174
 20
-42.8
 30
0.0
 11
-80.5413744174
 21
42.8
 31
0.0
  0
LINE
  5
34A
100
AcDbEntity
  8
0
100
AcDbLine
 62
250
  6
CONTINUOUS
 10
-79.6156018336
 20
26.9276792439
 30
0.0
 11
-79.6155373689
 21
27.1501232518
 31
0.0
  0
LINE
  5
34B
100
AcDbEntity
  8
0
100
AcDbLine
 62
250
  6
CONTINUOUS
 10
-77.7309072261
 20
25.8799866677
 30
0.0
 11
-77.7309072261
 21
25.3810467191
 31
0.0
  0
LINE
  5
34C
100
AcDbEntity
  8
0
100
AcDbLine
 62
250
  6
CONTINUOUS
 10
-77.7309072261
 20
-25.3810467191
 30
0.0
 11
-77.7309072261
 21
-25.8162101919
 31
0.0
  0
LINE
  5
34D
100
AcDbEntity
  8
0
100
AcDbLine
 62
7
  6
CONTINUOUS
 10
-77.5413744174
 20
26.0883643404
 30
0.0
 11
-77.5413744174
 21
25.4
 31
0.0
  0
LINE
  5
34E
100
AcDbEntity
  8
0
100
AcDbLine
 62
7
  6
CONTINUOUS
 10
-77.5413744174
 20
-25.4
 30
0.0
 11
-77.5413744174
 21
-26.0883643404
 31
0.0
  0
LWPOLYLINE
  5
34F
100
AcDbEntity
  8
0
100
AcDbPolyline
 62
7
  6
CONTINUOUS
 90
10
 70
0
 43
0.3500000006
 10
-98.5998850708
 20
54.2499981079
 10
-98.5284629517
 20
54.1071448059
 10
-98.5284629517
 20
54.035713623
 10
-98.6713162537
 20
53.8928557892
 10
-98.7427474365
 20
53.8928557892
 10
-98.8141695557
 20
53.964286972
 10
-98.8141695557
 20
54.035713623
 10
-98.7427474365
 20
54.1785714569
 10
-98.6713162537
 20
54.2499981079
 10
-98.5998850708
 20
54.2499981079
  0
LWPOLYLINE
  5
350
100
AcDbEntity
  8
0
100
AcDbPolyline
 62
7
  6
CONTINUOUS
 90
10
 70
0
 43
0.3500000006
 10
-96.26395578
 20
64.2500011597
 10
-96.1925336609
 20
64.1071387939
 10
-96.1925336609
 20
64.0357166748
 10
-96.3353869629
 20
63.8928543091
 10
-96.4068181458
 20
63.8928543091
 10
-96.4782402649
 20
63.9642854919
 10
-96.4782402649
 20
64.0357166748
 10
-96.4068181458
 20
64.1785699768
 10
-96.3353869629
 20
64.2500011597
 10
-96.26395578
 20
64.2500011597
  0
LINE
  5
351
100
AcDbEntity
  8
CURVE
100
AcDbLine
 62
7
  6
CONTINUOUS
 10
-85.1204581661
 20
-29.4361550019
 30
0.0
 11
-84.6414241175
 21
-28.9571209534
 31
0.0
  0
LINE
  5
352
100
AcDbEntity
  8
CURVE
100
AcDbLine
 62
7
  6
CONTINUOUS
 10
-85.1633253879
 20
-29.6890329377
 30
0.0
 11
-84.4088668082
 21
-28.934574358
 31
0.0
  0
LINE
  5
353
100
AcDbEntity
  8
CURVE
100
AcDbLine
 62
7
  6
CONTINUOUS
 10
-85.174843348
 20
-29.9105616119
 30
0.0
 11
-84.2285028512
 21
-28.9642211151
 31
0.0
  0
LINE
  5
354
100
AcDbEntity
  8
CURVE
100
AcDbLine
 62
7
  6
CONTINUOUS
 10
-85.1707636647
 20
-30.1164926426
 30
0.0
 11
-84.7274601929
 21
-29.6731891708
 31
0.0
  0
LINE
  5
355
100
AcDbEntity
  8
CURVE
100
AcDbLine
 62
7
  6
CONTINUOUS
 10
-84.4841151072
 20
-29.4298440851
 30
0.0
 11
-84.0803512045
 21
-29.0260801824
 31
0.0
  0
LINE
  5
356
100
AcDbEntity
  8
0
100
AcDbLine
 62
7
  6
CONTINUOUS
 10
-80.2413744174
 20
-25.2
 30
0.0
 11
-80.0913744174
 21
-25.05
 31
0.0
  0
LINE
  5
357
100
AcDbEntity
  8
CURVE
100
AcDbLine
 62
7
  6
CONTINUOUS
 10
-85.1566438949
 20
-30.3123835868
 30
0.0
 11
-84.744159761
 21
-29.8998994529
 31
0.0
  0
LINE
  5
358
100
AcDbEntity
  8
CURVE
100
AcDbLine
 62
7
  6
CONTINUOUS
 10
-84.2863400614
 20
-29.4420797533
 30
0.0
 11
-83.9592837188
 21
-29.1150234107
 31
0.0
  0
LINE
  5
359
100
AcDbEntity
  8
CURVE
100
AcDbLine
 62
7
  6
CONTINUOUS
 10
-85.1349758837
 20
-30.5007262896
 30
0.0
 11
-84.7263584325
 21
-30.0921088385
 31
0.0
  0
LINE
  5
35A
100
AcDbEntity
  8
CURVE
100
AcDbLine
 62
7
  6
CONTINUOUS
 10
-84.1495591236
 20
-29.5153095296
 30
0.0
 11
-83.8595492251
 21
-29.225299631
 31
0.0
  0
LINE
  5
35B
100
AcDbEntity
  8
CURVE
100
AcDbLine
 62
7
  6
CONTINUOUS
 10
-85.0527940189
 20
-30.6285551388
 30
0.0
 11
-84.5504025441
 21
-30.126163664
 31
0.0
  0
LINE
  5
35C
100
AcDbEntity
  8
CURVE
100
AcDbLine
 62
7
  6
CONTINUOUS
 10
-84.0663056647
 20
-29.6420667847
 30
0.0
 11
-83.4443747302
 21
-29.0201358501
 31
0.0
  0
LINE
  5
35D
100
AcDbEntity
  8
CURVE
100
AcDbLine
 62
7
  6
CONTINUOUS
 10
-84.8427833049
 20
-30.6285551388
 30
0.0
 11
-84.3403918301
 21
-30.126163664
 31
0.0
  0
LINE
  5
35E
100
AcDbEntity
  8
CURVE
100
AcDbLine
 62
7
  6
CONTINUOUS
 10
-84.0354303678
 20
-29.8212022018
 30
0.0
 11
-83.1555340635
 21
-28.9413058974
 31
0.0
  0
LINE
  5
35F
100
AcDbEntity
  8
CURVE
100
AcDbLine
 62
7
  6
CONTINUOUS
 10
-84.6327725908
 20
-30.6285551388
 30
0.0
 11
-84.130381116
 21
-30.126163664
 31
0.0
  0
LINE
  5
360
100
AcDbEntity
  8
CURVE
100
AcDbLine
 62
7
  6
CONTINUOUS
 10
-84.0351395427
 20
-30.0309220906
 30
0.0
 11
-82.8707160611
 21
-28.866498609
 31
0.0
  0
LINE
  5
361
100
AcDbEntity
  8
CURVE
100
AcDbLine
 62
7
  6
CONTINUOUS
 10
-84.4227618768
 20
-30.6285551388
 30
0.0
 11
-83.6259926517
 21
-29.8317859137
 31
0.0
  0
LINE
  5
362
100
AcDbEntity
  8
CURVE
100
AcDbLine
 62
7
  6
CONTINUOUS
 10
-83.2929008994
 20
-29.4986941614
 30
0.0
 11
-82.6483301611
 21
-28.854123423
 31
0.0
  0
LINE
  5
363
100
AcDbEntity
  8
CURVE
100
AcDbLine
 62
7
  6
CONTINUOUS
 10
-85.1465434059
 20
-31.5623473819
 30
0.0
 11
-85.1269364597
 21
-31.5427404357
 31
0.0
  0
LINE
  5
364
100
AcDbEntity
  8
CURVE
100
AcDbLine
 62
7
  6
CONTINUOUS
 10
-84.2127511628
 20
-30.6285551388
 30
0.0
 11
-83.6259926517
 21
-30.0417966277
 31
0.0
  0
LINE
  5
365
100
AcDbEntity
  8
CURVE
100
AcDbLine
 62
7
  6
CONTINUOUS
 10
-82.9949561248
 20
-29.4107601008
 30
0.0
 11
-82.6483301611
 21
-29.064134137
 31
0.0
  0
LINE
  5
366
100
AcDbEntity
  8
CURVE
100
AcDbLine
 62
7
  6
CONTINUOUS
 10
-85.1465434059
 20
-31.7723580959
 30
0.0
 11
-84.8238855257
 21
-31.4497002157
 31
0.0
  0
LINE
  5
367
100
AcDbEntity
  8
CURVE
100
AcDbLine
 62
7
  6
CONTINUOUS
 10
-84.0027404488
 20
-30.6285551388
 30
0.0
 11
-83.4830471072
 21
-30.1088617972
 31
0.0
  0
LINE
  5
368
100
AcDbEntity
  8
CURVE
100
AcDbLine
 62
7
  6
CONTINUOUS
 10
-82.6986982587
 20
-29.3245129487
 30
0.0
 11
-82.6483301611
 21
-29.274144851
 31
0.0
  0
LINE
  5
369
100
AcDbEntity
  8
CURVE
100
AcDbLine
 62
7
  6
CONTINUOUS
 10
-85.1465434059
 20
-31.9823688099
 30
0.0
 11
-84.5208345916
 21
-31.3566599956
 31
0.0
  0
LINE
  5
36A
100
AcDbEntity
  8
CURVE
100
AcDbLine
 62
7
  6
CONTINUOUS
 10
-83.7927297348
 20
-30.6285551388
 30
0.0
 11
-83.2730363932
 21
-30.1088617972
 31
0.0
  0
LINE
  5
36B
100
AcDbEntity
  8
CURVE
100
AcDbLine
 62
7
  6
CONTINUOUS
 10
-85.0408638948
 20
-32.0867000128
 30
0.0
 11
-84.2177836576
 21
-31.2636197756
 31
0.0
  0
LINE
  5
36C
100
AcDbEntity
  8
CURVE
100
AcDbLine
 62
7
  6
CONTINUOUS
 10
-83.5827190208
 20
-30.6285551388
 30
0.0
 11
-83.0630256792
 21
-30.1088617972
 31
0.0
  0
LINE
  5
36D
100
AcDbEntity
  8
CURVE
100
AcDbLine
 62
7
  6
CONTINUOUS
 10
-84.881020716
 20
-32.1368675481
 30
0.0
 11
-83.9147327235
 21
-31.1705795556
 31
0.0
  0
LINE
  5
36E
100
AcDbEntity
  8
CURVE
100
AcDbLine
 62
7
  6
CONTINUOUS
 10
-83.3727083068
 20
-30.6285551388
 30
0.0
 11
-82.8530149652
 21
-30.1088617972
 31
0.0
  0
LINE
  5
36F
100
AcDbEntity
  8
CURVE
100
AcDbLine
 62
7
  6
CONTINUOUS
 10
-84.7211775373
 20
-32.1870350833
 30
0.0
 11
-84.3702662079
 21
-31.836123754
 31
0.0
  0
LINE
  5
370
100
AcDbEntity
  8
CURVE
100
AcDbLine
 62
7
  6
CONTINUOUS
 10
-84.304974555
 20
-31.770832101
 30
0.0
 11
-83.6116817895
 21
-31.0775393356
 31
0.0
  0
LINE
  5
371
100
AcDbEntity
  8
CURVE
100
AcDbLine
 62
7
  6
CONTINUOUS
 10
-83.1626975928
 20
-30.6285551388
 30
0.0
 11
-82.6483301611
 21
-30.1141877071
 31
0.0
  0
LINE
  5
372
100
AcDbEntity
  8
CURVE
100
AcDbLine
 62
7
  6
CONTINUOUS
 10
-84.5613343585
 20
-32.2372026186
 30
0.0
 11
-84.206225156
 21
-31.8820934161
 31
0.0
  0
LINE
  5
373
100
AcDbEntity
  8
CURVE
100
AcDbLine
 62
7
  6
CONTINUOUS
 10
-84.0217047529
 20
-31.6975730129
 30
0.0
 11
-83.3086308555
 21
-30.9844991155
 31
0.0
  0
LINE
  5
374
100
AcDbEntity
  8
CURVE
100
AcDbLine
 62
7
  6
CONTINUOUS
 10
-82.9526868787
 20
-30.6285551388
 30
0.0
 11
-82.6483301611
 21
-30.3241984211
 31
0.0
  0
LINE
  5
375
100
AcDbEntity
  8
0
100
AcDbLine
 62
7
  6
CONTINUOUS
 10
-80.2413744174
 20
25.2
 30
0.0
 11
-80.0913744174
 21
25.05
 31
0.0
  0
LINE
  5
376
100
AcDbEntity
  8
CURVE
100
AcDbLine
 62
7
  6
CONTINUOUS
 10
-84.4014911798
 20
-32.2873701539
 30
0.0
 11
-84.0421841041
 21
-31.9280630782
 31
0.0
  0
LINE
  5
377
100
AcDbEntity
  8
CURVE
100
AcDbLine
 62
7
  6
CONTINUOUS
 10
-83.7384349507
 20
-31.6243139248
 30
0.0
 11
-83.0055799214
 21
-30.8914588955
 31
0.0
  0
LINE
  5
378
100
AcDbEntity
  8
CURVE
100
AcDbLine
 62
7
  6
CONTINUOUS
 10
-82.7426761647
 20
-30.6285551388
 30
0.0
 11
-82.6483301611
 21
-30.5342091351
 31
0.0
  0
LINE
  5
379
100
AcDbEntity
  8
CURVE
100
AcDbLine
 62
7
  6
CONTINUOUS
 10
-85.1465434059
 20
-33.242433094
 30
0.0
 11
-85.0482060775
 21
-33.1440957656
 31
0.0
  0
LINE
  5
37A
100
AcDbEntity
  8
CURVE
100
AcDbLine
 62
7
  6
CONTINUOUS
 10
-84.241648001
 20
-32.3375376891
 30
0.0
 11
-83.8781430522
 21
-31.9740327403
 31
0.0
  0
LINE
  5
37B
100
AcDbEntity
  8
CURVE
100
AcDbLine
 62
7
  6
CONTINUOUS
 10
-83.5329789449
 20
-31.628868633
 30
0.0
 11
-82.7025289874
 21
-30.7984186755
 31
0.0
  0
LINE
  5
37C
100
AcDbEntity
  8
CURVE
100
AcDbLine
 62
7
  6
CONTINUOUS
 10
-85.1465434059
 20
-33.452443808
 30
0.0
 11
-84.816516628
 21
-33.12241703
 31
0.0
  0
LINE
  5
37D
100
AcDbEntity
  8
CURVE
100
AcDbLine
 62
7
  6
CONTINUOUS
 10
-84.0818048223
 20
-32.3877052244
 30
0.0
 11
-83.7141020003
 21
-32.0200024024
 31
0.0
  0
LINE
  5
37E
100
AcDbEntity
  8
CURVE
100
AcDbLine
 62
7
  6
CONTINUOUS
 10
-83.5329789449
 20
-31.838879347
 30
0.0
 11
-82.6483301775
 21
-30.9542305796
 31
0.0
  0
LINE
  5
37F
100
AcDbEntity
  8
CURVE
100
AcDbLine
 62
7
  6
CONTINUOUS
 10
-85.1465434059
 20
-33.662454522
 30
0.0
 11
-84.5848271784
 21
-33.1007382945
 31
0.0
  0
LINE
  5
380
100
AcDbEntity
  8
CURVE
100
AcDbLine
 62
7
  6
CONTINUOUS
 10
-83.9219616435
 20
-32.4378727596
 30
0.0
 11
-83.5500609484
 21
-32.0659720645
 31
0.0
  0
LINE
  5
381
100
AcDbEntity
  8
CURVE
100
AcDbLine
 62
7
  6
CONTINUOUS
 10
-83.5329789449
 20
-32.048890061
 30
0.0
 11
-83.1470621783
 21
-31.6629732944
 31
0.0
  0
LINE
  5
382
100
AcDbEntity
  8
CURVE
100
AcDbLine
 62
7
  6
CONTINUOUS
 10
-82.87808725
 20
-31.3939983661
 30
0.0
 11
-82.6483301775
 21
-31.1642412936
 31
0.0
  0
LINE
  5
383
100
AcDbEntity
  8
CURVE
100
AcDbLine
 62
7
  6
CONTINUOUS
 10
-84.9991044615
 20
-33.7250262916
 30
0.0
 11
-84.3531377288
 21
-33.079059559
 31
0.0
  0
LINE
  5
384
100
AcDbEntity
  8
CURVE
100
AcDbLine
 62
7
  6
CONTINUOUS
 10
-83.7621184648
 20
-32.4880402949
 30
0.0
 11
-83.1470621783
 21
-31.8729840084
 31
0.0
  0
LINE
  5
385
100
AcDbEntity
  8
CURVE
100
AcDbLine
 62
7
  6
CONTINUOUS
 10
-84.8465023966
 20
-33.7824349408
 30
0.0
 11
-84.1214482793
 21
-33.0573808234
 31
0.0
  0
LINE
  5
386
100
AcDbEntity
  8
CURVE
100
AcDbLine
 62
7
  6
CONTINUOUS
 10
-83.602275286
 20
-32.5382078302
 30
0.0
 11
-83.1470621783
 21
-32.0829947224
 31
0.0
  0
LINE
  5
387
100
AcDbEntity
  8
CURVE
100
AcDbLine
 62
7
  6
CONTINUOUS
 10
-84.6939003318
 20
-33.8398435899
 30
0.0
 11
-83.8897588297
 21
-33.0357020879
 31
0.0
  0
LINE
  5
388
100
AcDbEntity
  8
CURVE
100
AcDbLine
 62
7
  6
CONTINUOUS
 10
-83.4424321073
 20
-32.5883753654
 30
0.0
 11
-83.0574279707
 21
-32.2033712288
 31
0.0
  0
LINE
  5
389
100
AcDbEntity
  8
CURVE
100
AcDbLine
 62
7
  6
CONTINUOUS
 10
-84.5412982669
 20
-33.8972522391
 30
0.0
 11
-84.2065527619
 21
-33.5625067341
 31
0.0
  0
LINE
  5
38A
100
AcDbEntity
  8
CURVE
100
AcDbLine
 62
7
  6
CONTINUOUS
 10
-84.1747761254
 20
-33.5307300975
 30
0.0
 11
-83.6580693802
 21
-33.0140233523
 31
0.0
  0
LINE
  5
38B
100
AcDbEntity
  8
CURVE
100
AcDbLine
 62
7
  6
CONTINUOUS
 10
-83.2825889285
 20
-32.6385429007
 30
0.0
 11
-82.8944645056
 21
-32.2504184778
 31
0.0
  0
LINE
  5
38C
100
AcDbEntity
  8
CURVE
100
AcDbLine
 62
7
  6
CONTINUOUS
 10
-85.1465434059
 20
-34.7125080921
 30
0.0
 11
-85.1387809228
 21
-34.704745609
 31
0.0
  0
LINE
  5
38D
100
AcDbEntity
  8
CURVE
100
AcDbLine
 62
7
  6
CONTINUOUS
 10
-84.3886962021
 20
-33.9546608882
 30
0.0
 11
-84.0545816678
 21
-33.6205463539
 31
0.0
  0
LINE
  5
38E
100
AcDbEntity
  8
CURVE
100
AcDbLine
 62
7
  6
CONTINUOUS
 10
-83.9499270415
 20
-33.5158917277
 30
0.0
 11
-83.4263799306
 21
-32.9923446168
 31
0.0
  0
LINE
  5
38F
100
AcDbEntity
  8
CURVE
100
AcDbLine
 62
7
  6
CONTINUOUS
 10
-83.1227457498
 20
-32.6887104359
 30
0.0
 11
-82.7315010405
 21
-32.2974657267
 31
0.0
  0
LINE
  5
390
100
AcDbEntity
  8
CURVE
100
AcDbLine
 62
7
  6
CONTINUOUS
 10
-85.1465434059
 20
-34.9225188061
 30
0.0
 11
-84.8042490494
 21
-34.5802244496
 31
0.0
  0
LINE
  5
391
100
AcDbEntity
  8
CURVE
100
AcDbLine
 62
7
  6
CONTINUOUS
 10
-84.2360941372
 20
-34.0120695374
 30
0.0
 11
-83.9026105736
 21
-33.6785859738
 31
0.0
  0
LINE
  5
392
100
AcDbEntity
  8
CURVE
100
AcDbLine
 62
7
  6
CONTINUOUS
 10
-83.7250779576
 20
-33.5010533578
 30
0.0
 11
-83.1946904811
 21
-32.9706658813
 31
0.0
  0
LINE
  5
393
100
AcDbEntity
  8
CURVE
100
AcDbLine
 62
7
  6
CONTINUOUS
 10
-82.962902571
 20
-32.7388779712
 30
0.0
 11
-82.6483301775
 21
-32.4243055777
 31
0.0
  0
LINE
  5
394
100
AcDbEntity
  8
CURVE
100
AcDbLine
 62
7
  6
CONTINUOUS
 10
-85.1465434059
 20
-35.1325295201
 30
0.0
 11
-84.4697171761
 21
-34.4557032903
 31
0.0
  0
LINE
  5
395
100
AcDbEntity
  8
CURVE
100
AcDbLine
 62
7
  6
CONTINUOUS
 10
-84.0834920723
 20
-34.0694781865
 30
0.0
 11
-83.7506394794
 21
-33.7366255936
 31
0.0
  0
LINE
  5
396
100
AcDbEntity
  8
CURVE
100
AcDbLine
 62
7
  6
CONTINUOUS
 10
-83.5002288737
 20
-33.4862149879
 30
0.0
 11
-82.9630010315
 21
-32.9489871457
 31
0.0
  0
LINE
  5
397
100
AcDbEntity
  8
CURVE
100
AcDbLine
 62
7
  6
CONTINUOUS
 10
-82.8030593923
 20
-32.7890455065
 30
0.0
 11
-82.6483301775
 21
-32.6343162917
 31
0.0
  0
LINE
  5
398
100
AcDbEntity
  8
CURVE
100
AcDbLine
 62
7
  6
CONTINUOUS
 10
-85.042407762
 20
-35.2384045902
 30
0.0
 11
-84.1351853027
 21
-34.3311821309
 31
0.0
  0
LINE
  5
399
100
AcDbEntity
  8
CURVE
100
AcDbLine
 62
7
  6
CONTINUOUS
 10
-83.9308900075
 20
-34.1268868357
 30
0.0
 11
-83.5986683853
 21
-33.7946652135
 31
0.0
  0
LINE
  5
39A
100
AcDbEntity
  8
CURVE
100
AcDbLine
 62
7
  6
CONTINUOUS
 10
-83.2753797899
 20
-33.4713766181
 30
0.0
 11
-82.731311582
 21
-32.9273084102
 31
0.0
  0
LINE
  5
39B
100
AcDbEntity
  8
CURVE
100
AcDbLine
 62
7
  6
CONTINUOUS
 10
-84.8497991183
 20
-35.2558066605
 30
0.0
 11
-83.8006534293
 21
-34.2066609716
 31
0.0
  0
LINE
  5
39C
100
AcDbEntity
  8
CURVE
100
AcDbLine
 62
7
  6
CONTINUOUS
 10
-83.7782879426
 20
-34.1842954848
 30
0.0
 11
-83.4466972911
 21
-33.8527048333
 31
0.0
  0
LINE
  5
39D
100
AcDbEntity
  8
CURVE
100
AcDbLine
 62
7
  6
CONTINUOUS
 10
-83.050530706
 20
-33.4565382482
 30
0.0
 11
-82.6483301775
 21
-33.0543377198
 31
0.0
  0
LINE
  5
39E
100
AcDbEntity
  8
CURVE
100
AcDbLine
 62
7
  6
CONTINUOUS
 10
-85.1466923151
 20
-35.7627105714
 30
0.0
 11
-85.1195867438
 21
-35.735605
 31
0.0
  0
LINE
  5
39F
100
AcDbEntity
  8
CURVE
100
AcDbLine
 62
7
  6
CONTINUOUS
 10
-84.6571904745
 20
-35.2732087308
 30
0.0
 11
-84.2303045606
 21
-34.8463228169
 31
0.0
  0
LINE
  5
3A0
100
AcDbEntity
  8
CURVE
100
AcDbLine
 62
7
  6
CONTINUOUS
 10
-84.1952390913
 20
-34.8112573475
 30
0.0
 11
-83.2947261969
 21
-33.9107444532
 31
0.0
  0
LINE
  5
3A1
100
AcDbEntity
  8
CURVE
100
AcDbLine
 62
7
  6
CONTINUOUS
 10
-82.8256816221
 20
-33.4416998784
 30
0.0
 11
-82.6483301775
 21
-33.2643484338
 31
0.0
  0
LINE
  5
3A2
100
AcDbEntity
  8
CURVE
100
AcDbLine
 62
7
  6
CONTINUOUS
 10
-85.1466923151
 20
-35.9727212854
 30
0.0
 11
-84.9095760298
 21
-35.735605
 31
0.0
  0
LINE
  5
3A3
100
AcDbEntity
  8
CURVE
100
AcDbLine
 62
7
  6
CONTINUOUS
 10
-84.4645818308
 20
-35.290610801
 30
0.0
 11
-84.0338542516
 21
-34.8598832218
 31
0.0
  0
LINE
  5
3A4
100
AcDbEntity
  8
CURVE
100
AcDbLine
 62
7
  6
CONTINUOUS
 10
-83.8590920873
 20
-34.6851210575
 30
0.0
 11
-83.1427551028
 21
-33.968784073
 31
0.0
  0
LINE
  5
3A5
100
AcDbEntity
  8
CURVE
100
AcDbLine
 62
7
  6
CONTINUOUS
 10
-85.1466923151
 20
-36.1827319994
 30
0.0
 11
-84.6995653157
 21
-35.735605
 31
0.0
  0
LINE
  5
3A6
100
AcDbEntity
  8
CURVE
100
AcDbLine
 62
7
  6
CONTINUOUS
 10
-84.2719731871
 20
-35.3080128713
 30
0.0
 11
-83.8374039425
 21
-34.8734436268
 31
0.0
  0
LINE
  5
3A7
100
AcDbEntity
  8
CURVE
100
AcDbLine
 62
7
  6
CONTINUOUS
 10
-83.5229450832
 20
-34.5589847675
 30
0.0
 11
-82.9907840086
 21
-34.0268236929
 31
0.0
  0
LINE
  5
3A8
100
AcDbEntity
  8
CURVE
100
AcDbLine
 62
7
  6
CONTINUOUS
 10
-85.0113476017
 20
-36.257398
 30
0.0
 11
-84.4895546017
 21
-35.735605
 31
0.0
  0
LINE
  5
3A9
100
AcDbEntity
  8
CURVE
100
AcDbLine
 62
7
  6
CONTINUOUS
 10
-84.0793645434
 20
-35.3254149416
 30
0.0
 11
-83.6409536335
 21
-34.8870040317
 31
0.0
  0
LINE
  5
3AA
100
AcDbEntity
  8
CURVE
100
AcDbLine
 62
7
  6
CONTINUOUS
 10
-83.1867980792
 20
-34.4328484775
 30
0.0
 11
-82.8388129144
 21
-34.0848633127
 31
0.0
  0
LINE
  5
3AB
100
AcDbEntity
  8
CURVE
100
AcDbLine
 62
7
  6
CONTINUOUS
 10
-85.1465434059
 20
-36.6026045182
 30
0.0
 11
-85.0318616536
 21
-36.4879227659
 31
0.0
  0
LINE
  5
3AC
100
AcDbEntity
  8
CURVE
100
AcDbLine
 62
7
  6
CONTINUOUS
 10
-84.8013368877
 20
-36.257398
 30
0.0
 11
-84.2795438877
 21
-35.735605
 31
0.0
  0
LINE
  5
3AD
100
AcDbEntity
  8
CURVE
100
AcDbLine
 62
7
  6
CONTINUOUS
 10
-83.8867558996
 20
-35.3428170119
 30
0.0
 11
-83.4445033244
 21
-34.9005644367
 31
0.0
  0
LINE
  5
3AE
100
AcDbEntity
  8
CURVE
100
AcDbLine
 62
7
  6
CONTINUOUS
 10
-82.8506510752
 20
-34.3067121875
 30
0.0
 11
-82.6868418203
 21
-34.1429029325
 31
0.0
  0
LINE
  5
3AF
100
AcDbEntity
  8
CURVE
100
AcDbLine
 62
7
  6
CONTINUOUS
 10
-85.1465434059
 20
-36.8126152322
 30
0.0
 11
-84.8729595552
 21
-36.5390313815
 31
0.0
  0
LINE
  5
3B0
100
AcDbEntity
  8
CURVE
100
AcDbLine
 62
7
  6
CONTINUOUS
 10
-84.5913261737
 20
-36.257398
 30
0.0
 11
-84.0695331737
 21
-35.735605
 31
0.0
  0
LINE
  5
3B1
100
AcDbEntity
  8
CURVE
100
AcDbLine
 62
7
  6
CONTINUOUS
 10
-83.6941472559
 20
-35.3602190822
 30
0.0
 11
-83.2480530154
 21
-34.9141248417
 31
0.0
  0
LINE
  5
3B2
100
AcDbEntity
  8
CURVE
100
AcDbLine
 62
7
  6
CONTINUOUS
 10
-85.107530924
 20
-36.9836134643
 30
0.0
 11
-84.7140574568
 21
-36.5901399971
 31
0.0
  0
LINE
  5
3B3
100
AcDbEntity
  8
CURVE
100
AcDbLine
 62
7
  6
CONTINUOUS
 10
-84.3813154597
 20
-36.257398
 30
0.0
 11
-83.8595224597
 21
-35.735605
 31
0.0
  0
LINE
  5
3B4
100
AcDbEntity
  8
CURVE
100
AcDbLine
 62
7
  6
CONTINUOUS
 10
-83.5015386122
 20
-35.3776211525
 30
0.0
 11
-83.0516027063
 21
-34.9276852466
 31
0.0
  0
LINE
  5
3B5
100
AcDbEntity
  8
CURVE
100
AcDbLine
 62
7
  6
CONTINUOUS
 10
-84.9441698496
 20
-37.0302631039
 30
0.0
 11
-84.5551553584
 21
-36.6412486127
 31
0.0
  0
LINE
  5
3B6
100
AcDbEntity
  8
CURVE
100
AcDbLine
 62
7
  6
CONTINUOUS
 10
-84.1713047457
 20
-36.257398
 30
0.0
 11
-83.6495117457
 21
-35.735605
 31
0.0
  0
LINE
  5
3B7
100
AcDbEntity
  8
CURVE
100
AcDbLine
 62
7
  6
CONTINUOUS
 10
-83.3089299685
 20
-35.3950232228
 30
0.0
 11
-82.8551523973
 21
-34.9412456516
 31
0.0
  0
LINE
  5
3B8
100
AcDbEntity
  8
CURVE
100
AcDbLine
 62
7
  6
CONTINUOUS
 10
-84.7808087752
 20
-37.0769127435
 30
0.0
 11
-84.39625326
 21
-36.6923572283
 31
0.0
  0
LINE
  5
3B9
100
AcDbEntity
  8
CURVE
100
AcDbLine
 62
7
  6
CONTINUOUS
 10
-83.9612940317
 20
-36.257398
 30
0.0
 11
-83.4395010317
 21
-35.735605
 31
0.0
  0
LINE
  5
3BA
100
AcDbEntity
  8
CURVE
100
AcDbLine
 62
7
  6
CONTINUOUS
 10
-83.1163213247
 20
-35.4124252931
 30
0.0
 11
-82.6587020882
 21
-34.9548060566
 31
0.0
  0
LINE
  5
3BB
100
AcDbEntity
  8
CURVE
100
AcDbLine
 62
7
  6
CONTINUOUS
 10
-84.6174477007
 20
-37.1235623831
 30
0.0
 11
-84.2373511616
 21
-36.7434658439
 31
0.0
  0
LINE
  5
3BC
100
AcDbEntity
  8
CURVE
100
AcDbLine
 62
7
  6
CONTINUOUS
 10
-83.7512833177
 20
-36.257398
 30
0.0
 11
-83.2294903177
 21
-35.735605
 31
0.0
  0
LINE
  5
3BD
100
AcDbEntity
  8
CURVE
100
AcDbLine
 62
7
  6
CONTINUOUS
 10
-82.923712681
 20
-35.4298273633
 30
0.0
 11
-82.6483301775
 21
-35.1544448599
 31
0.0
  0
LINE
  5
3BE
100
AcDbEntity
  8
CURVE
100
AcDbLine
 62
7
  6
CONTINUOUS
 10
-84.4540866263
 20
-37.1702120227
 30
0.0
 11
-84.0784490632
 21
-36.7945744595
 31
0.0
  0
LINE
  5
3BF
100
AcDbEntity
  8
CURVE
100
AcDbLine
 62
7
  6
CONTINUOUS
 10
-83.5412726036
 20
-36.257398
 30
0.0
 11
-83.0194796036
 21
-35.735605
 31
0.0
  0
LINE
  5
3C0
100
AcDbEntity
  8
CURVE
100
AcDbLine
 62
7
  6
CONTINUOUS
 10
-82.7311040373
 20
-35.4472294336
 30
0.0
 11
-82.6483301775
 21
-35.3644555739
 31
0.0
  0
LINE
  5
3C1
100
AcDbEntity
  8
CURVE
100
AcDbLine
 62
7
  6
CONTINUOUS
 10
-85.1465434059
 20
-38.0726795163
 30
0.0
 11
-84.9630326532
 21
-37.8891687636
 31
0.0
  0
LINE
  5
3C2
100
AcDbEntity
  8
CURVE
100
AcDbLine
 62
7
  6
CONTINUOUS
 10
-84.2907255519
 20
-37.2168616623
 30
0.0
 11
-83.9195469648
 21
-36.8456830751
 31
0.0
  0
LINE
  5
3C3
100
AcDbEntity
  8
CURVE
100
AcDbLine
 62
7
  6
CONTINUOUS
 10
-83.3312618896
 20
-36.257398
 30
0.0
 11
-82.8094688896
 21
-35.735605
 31
0.0
  0
LINE
  5
3C4
100
AcDbEntity
  8
CURVE
100
AcDbLine
 62
7
  6
CONTINUOUS
 10
-85.1465434059
 20
-38.2826902303
 30
0.0
 11
-84.6725225205
 21
-37.8086693449
 31
0.0
  0
LINE
  5
3C5
100
AcDbEntity
  8
CURVE
100
AcDbLine
 62
7
  6
CONTINUOUS
 10
-84.1273644775
 20
-37.2635113018
 30
0.0
 11
-83.7606448664
 21
-36.8967916907
 31
0.0
  0
LINE
  5
3C6
100
AcDbEntity
  8
CURVE
100
AcDbLine
 62
7
  6
CONTINUOUS
 10
-83.1212511756
 20
-36.257398
 30
0.0
 11
-82.6483301775
 21
-35.7844770019
 31
0.0
  0
LINE
  5
3C7
100
AcDbEntity
  8
CURVE
100
AcDbLine
 62
7
  6
CONTINUOUS
 10
-85.1465434059
 20
-38.4927009443
 30
0.0
 11
-84.3820123877
 21
-37.7281699261
 31
0.0
  0
LINE
  5
3C8
100
AcDbEntity
  8
CURVE
100
AcDbLine
 62
7
  6
CONTINUOUS
 10
-83.964003403
 20
-37.3101609414
 30
0.0
 11
-83.601742768
 21
-36.9479003063
 31
0.0
  0
LINE
  5
3C9
100
AcDbEntity
  8
CURVE
100
AcDbLine
 62
7
  6
CONTINUOUS
 10
-82.9112404616
 20
-36.257398
 30
0.0
 11
-82.6483301775
 21
-35.9944877159
 31
0.0
  0
LINE
  5
3CA
100
AcDbEntity
  8
CURVE
100
AcDbLine
 62
7
  6
CONTINUOUS
 10
-84.85968297
 20
-38.4158512224
 30
0.0
 11
-84.091502255
 21
-37.6476705074
 31
0.0
  0
LINE
  5
3CB
100
AcDbEntity
  8
CURVE
100
AcDbLine
 62
7
  6
CONTINUOUS
 10
-83.8006423286
 20
-37.356810581
 30
0.0
 11
-83.4428406695
 21
-36.999008922
 31
0.0
  0
LINE
  5
3CC
100
AcDbEntity
  8
CURVE
100
AcDbLine
 62
7
  6
CONTINUOUS
 10
-82.7012297476
 20
-36.257398
 30
0.0
 11
-82.6483301775
 21
-36.2044984299
 31
0.0
  0
LINE
  5
3CD
100
AcDbEntity
  8
CURVE
100
AcDbLine
 62
7
  6
CONTINUOUS
 10
-84.5521044334
 20
-38.3182833998
 30
0.0
 11
-83.8009921222
 21
-37.5671710886
 31
0.0
  0
LINE
  5
3CE
100
AcDbEntity
  8
CURVE
100
AcDbLine
 62
7
  6
CONTINUOUS
 10
-83.6372812542
 20
-37.4034602206
 30
0.0
 11
-83.2839385711
 21
-37.0501175376
 31
0.0
  0
LINE
  5
3CF
100
AcDbEntity
  8
CURVE
100
AcDbLine
 62
7
  6
CONTINUOUS
 10
-84.2445258968
 20
-38.2207155773
 30
0.0
 11
-83.5104819894
 21
-37.4866716699
 31
0.0
  0
LINE
  5
3D0
100
AcDbEntity
  8
CURVE
100
AcDbLine
 62
7
  6
CONTINUOUS
 10
-83.4739201798
 20
-37.4501098602
 30
0.0
 11
-83.1250364727
 21
-37.1012261532
 31
0.0
  0
LINE
  5
3D1
100
AcDbEntity
  8
CURVE
100
AcDbLine
 62
7
  6
CONTINUOUS
 10
-83.9369473603
 20
-38.1231477547
 30
0.0
 11
-82.9661343743
 21
-37.1523347688
 31
0.0
  0
LINE
  5
3D2
100
AcDbEntity
  8
CURVE
100
AcDbLine
 62
7
  6
CONTINUOUS
 10
-83.6293688237
 20
-38.0255799321
 30
0.0
 11
-82.8072322759
 21
-37.2034433844
 31
0.0
  0
LINE
  5
3D3
100
AcDbEntity
  8
CURVE
100
AcDbLine
 62
7
  6
CONTINUOUS
 10
-83.3217902871
 20
-37.9280121096
 30
0.0
 11
-82.6483301775
 21
-37.254552
 31
0.0
  0
LINE
  5
3D4
100
AcDbEntity
  8
CURVE
100
AcDbLine
 62
7
  6
CONTINUOUS
 10
-83.0142117505
 20
-37.830444287
 30
0.0
 11
-82.6483301775
 21
-37.464562714
 31
0.0
  0
LINE
  5
3D5
100
AcDbEntity
  8
CURVE
100
AcDbLine
 62
7
  6
CONTINUOUS
 10
-82.706633214
 20
-37.7328764645
 30
0.0
 11
-82.6483301775
 21
-37.674573428
 31
0.0
  0
LINE
  5
3D6
100
AcDbEntity
  8
0
100
AcDbLine
 62
250
  6
CONTINUOUS
 10
-77.5413744178
 20
-26.0406731706
 30
0.0
 11
-78.344459028
 21
-26.4697941135
 31
0.0
  0
LINE
  5
3D7
100
AcDbEntity
  8
0
100
AcDbLine
 62
250
  6
CONTINUOUS
 10
-79.6156018336
 20
-26.9276792439
 30
0.0
 11
-78.8737026285
 21
-26.5338659179
 31
0.0
  0
LINE
  5
3D8
100
AcDbEntity
  8
0
100
AcDbLine
 62
7
  6
CONTINUOUS
 10
-77.5413744174
 20
-26.0883643404
 30
0.0
 11
-79.4763624556
 21
-27.1154904916
 31
0.0
  0
LINE
  5
3D9
100
AcDbEntity
  8
0
100
AcDbLine
 62
7
  6
CONTINUOUS
 10
-77.5413744174
 20
25.4
 30
0.0
 11
-79.4917463195
 21
25.2049628098
 31
0.0
  0
LINE
  5
3DA
100
AcDbEntity
  8
0
100
AcDbLine
 62
7
  6
CONTINUOUS
 10
-80.5413744174
 20
25.7558198745
 30
0.0
 11
-77.7309072261
 21
25.8799866677
 31
0.0
  0
LINE
  5
3DB
100
AcDbEntity
  8
0
100
AcDbLine
 62
7
  6
CONTINUOUS
 10
-80.5413744174
 20
25.05
 30
0.0
 11
-80.3913744174
 21
25.05
 31
0.0
  0
LINE
  5
3DC
100
AcDbEntity
  8
0
100
AcDbLine
 62
7
  6
CONTINUOUS
 10
-80.0913744174
 20
25.05
 30
0.0
 11
-79.8913744174
 21
25.05
 31
0.0
  0
LINE
  5
3DD
100
AcDbEntity
  8
0
100
AcDbLine
 62
7
  6
CONTINUOUS
 10
-80.5413744174
 20
25.2
 30
0.0
 11
-79.5912500385
 21
25.2
 31
0.0
  0
LINE
  5
3DE
100
AcDbEntity
  8
0
100
AcDbLine
 62
250
  6
CONTINUOUS
 10
-79.6156018336
 20
26.9276792439
 30
0.0
 11
-80.5413744174
 21
26.9280974384
 31
0.0
  0
LINE
  5
3DF
100
AcDbEntity
  8
0
100
AcDbLine
 62
250
  6
CONTINUOUS
 10
-80.5413744174
 20
26.5523835751
 30
0.0
 11
-78.6645861242
 21
26.5509203682
 31
0.0
  0
LINE
  5
3E0
100
AcDbEntity
  8
0
100
AcDbLine
 62
7
  6
CONTINUOUS
 10
-78.6644304375
 20
26.5709140678
 30
0.0
 11
-80.5413744174
 21
26.5723674752
 31
0.0
  0
LINE
  5
3E1
100
AcDbEntity
  8
0
100
AcDbLine
 62
7
  6
CONTINUOUS
 10
-79.6155372664
 20
27.1501294387
 30
0.0
 11
-80.5413744174
 21
27.151745331
 31
0.0
  0
LWPOLYLINE
  5
3E2
100
AcDbEntity
  8
0
100
AcDbPolyline
 62
7
  6
CONTINUOUS
 90
15
 70
0
 10
-78.3416305437
 20
26.5131542117
 10
-78.3492850791
 20
26.5170726347
 10
-78.3701922784
 20
26.5264706134
 10
-78.3922260911
 20
26.5346349649
 10
-78.414637239
 20
26.5415406896
 10
-78.4373674366
 20
26.5474108385
 10
-78.4608901668
 20
26.552509597
 10
-78.4851919315
 20
26.5569255537
 10
-78.5103507023
 20
26.5607247805
 10
-78.5364116676
 20
26.563940345
 10
-78.5630950867
 20
26.5665546938
 10
-78.5903376141
 20
26.5685705986
 10
-78.6182141607
 20
26.56998545
 10
-78.6465769065
 20
26.570766163
 10
-78.6644303769
 20
26.5709140647
  0
LINE
  5
3E3
100
AcDbEntity
  8
0
100
AcDbLine
 62
250
  6
CONTINUOUS
 10
-78.9439047924
 20
26.5711304782
 30
0.0
 11
-79.6156018336
 21
26.9276792439
 31
0.0
  0
LINE
  5
3E4
100
AcDbEntity
  8
0
100
AcDbLine
 62
7
  6
CONTINUOUS
 10
-79.4763624556
 20
27.1154904916
 30
0.0
 11
-77.5413744174
 21
26.0883643404
 31
0.0
  0
LINE
  5
3E5
100
AcDbEntity
  8
0
100
AcDbLine
 62
250
  6
CONTINUOUS
 10
-78.4352867202
 20
26.5162094923
 30
0.0
 11
-77.5413744174
 21
26.0384659645
 31
0.0
  0
LINE
  5
3E6
100
AcDbEntity
  8
ASSI
100
AcDbLine
 62
7
  6
CONTINUOUS
 10
-86.6919835904
 20
-43.8055596544
 30
0.0
 11
-86.7069219596
 21
-43.8199854699
 31
0.0
  0
LINE
  5
3E7
100
AcDbEntity
  8
CURVE
100
AcDbLine
 62
250
  6
CONTINUOUS
 10
-85.1465434059
 20
-31.54876
 30
0.0
 11
-82.6483301775
 21
-30.781779
 31
0.0
  0
LINE
  5
3E8
100
AcDbEntity
  8
ASSI
100
AcDbLine
 62
7
  6
CONTINUOUS
 10
-86.7069219596
 20
43.8199854699
 30
0.0
 11
-86.6919835904
 21
43.8055596544
 31
0.0
  0
LINE
  5
3E9
100
AcDbEntity
  8
CURVE
100
AcDbLine
 62
250
  6
CONTINUOUS
 10
-82.6483301775
 20
-34.230793
 30
0.0
 11
-84.2796158367
 21
-34.842919
 31
0.0
  0
LINE
  5
3EA
100
AcDbEntity
  8
CURVE
100
AcDbLine
 62
250
  6
CONTINUOUS
 10
-85.1465434059
 20
-34.707635
 30
0.0
 11
-83.7595278533
 21
-34.191353
 31
0.0
  0
LINE
  5
3EB
100
AcDbEntity
  8
CURVE
100
AcDbLine
 62
250
  6
CONTINUOUS
 10
-82.6483301775
 20
-37.714382
 30
0.0
 11
-85.1465434059
 21
-38.506847
 31
0.0
  0
LINE
  5
3EC
100
AcDbEntity
  8
0
100
AcDbLine
 62
250
  6
CONTINUOUS
 10
-81.1413744174
 20
41.1619414324
 30
0.0
 11
-80.5413744174
 21
41.2038975196
 31
0.0
  0
LINE
  5
3ED
100
AcDbEntity
  8
0
100
AcDbLine
 62
7
  6
CONTINUOUS
 10
-81.1413744174
 20
42.7580439128
 30
0.0
 11
-80.5413744174
 21
42.8
 31
0.0
  0
LINE
  5
3EE
100
AcDbEntity
  8
ASSI
100
AcDbLine
 62
7
  6
CONTINUOUS
 10
-86.6919835904
 20
43.8055596544
 30
0.0
 11
-81.1413744174
 21
43.9993911979
 31
0.0
  0
LINE
  5
3EF
100
AcDbEntity
  8
ASSI
100
AcDbLine
 62
7
  6
CONTINUOUS
 10
-86.6919835904
 20
44.8061684565
 30
0.0
 11
-81.1413744174
 21
45.0
 31
0.0
  0
LWPOLYLINE
  5
3F0
100
AcDbEntity
  8
0
100
AcDbPolyline
 62
7
  6
CONTINUOUS
 90
8
 70
0
 43
0.3500000006
 10
-95.8141777039
 20
53.7499979553
 10
-94.9570307007
 20
53.7499979553
 10
-94.528461731
 20
54.1785714569
 10
-94.528461731
 20
55.0357139282
 10
-94.9570307007
 20
55.4642874298
 10
-95.8141777039
 20
55.4642874298
 10
-95.8141777039
 20
56.7499988708
 10
-94.528461731
 20
56.7499988708
  0
LWPOLYLINE
  5
3F1
100
AcDbEntity
  8
0
100
AcDbPolyline
 62
7
  6
CONTINUOUS
 90
8
 70
0
 43
0.3500000006
 10
-93.4782484131
 20
63.7500010071
 10
-92.6211014099
 20
63.7500010071
 10
-92.1925324402
 20
64.1785699768
 10
-92.1925324402
 20
65.03571698
 10
-92.6211014099
 20
65.4642859497
 10
-93.4782484131
 20
65.4642859497
 10
-93.4782484131
 20
66.7500019226
 10
-92.1925324402
 20
66.7500019226
  0
ARC
  5
3F2
100
AcDbEntity
  8
CURVE
100
AcDbCircle
 62
250
  6
CONTINUOUS
 10
84.7422937963
 20
-29.8716892664
 30
0.0
 40
39.8681074
100
AcDbArc
 50
179.7782450657
 51
180.3657160807
  0
ARC
  5
3F3
100
AcDbEntity
  8
ASSI
100
AcDbCircle
 62
250
  6
CONTINUOUS
 10
22.2007118417
 20
22.2007118418
 30
0.0
 40
0.697667947
100
AcDbArc
 50
359.9490206737
 51
90.0509793213
  0
ARC
  5
3F4
100
AcDbEntity
  8
ASSI
100
AcDbCircle
 62
250
  6
CONTINUOUS
 10
-22.2007118419
 20
-22.200711842
 30
0.0
 40
0.6976679467
100
AcDbArc
 50
179.9490206547
 51
270.0509793402
  0
ARC
  5
3F5
100
AcDbEntity
  8
ASSI
100
AcDbCircle
 62
250
  6
CONTINUOUS
 10
22.2007118419
 20
-22.2007118418
 30
0.0
 40
0.6976679468
100
AcDbArc
 50
269.9490206638
 51
0.0509793312
  0
ARC
  5
3F6
100
AcDbEntity
  8
ASSI
100
AcDbCircle
 62
250
  6
CONTINUOUS
 10
-22.2007118419
 20
22.2007118418
 30
0.0
 40
0.6976679469
100
AcDbArc
 50
89.9490206655
 51
180.0509793295
  0
ARC
  5
3F7
100
AcDbEntity
  8
0
100
AcDbCircle
 62
250
  6
CONTINUOUS
 10
-78.6003972597
 20
-25.447727595
 30
0.0
 40
1.0610484761
100
AcDbArc
 50
271.0214901114
 51
275.636935072
  0
ARC
  5
3F8
100
AcDbEntity
  8
0
100
AcDbCircle
 62
7
  6
CONTINUOUS
 10
-79.5912500385
 20
26.2
 30
0.0
 40
1.0
100
AcDbArc
 50
270.0
 51
275.7105931375
  0
ARC
  5
3F9
100
AcDbEntity
  8
0
100
AcDbCircle
 62
7
  6
CONTINUOUS
 10
-79.5912500385
 20
-26.2
 30
0.0
 40
1.0
100
AcDbArc
 50
84.2894068625
 51
90.0
  0
ARC
  5
3FA
100
AcDbEntity
  8
0
100
AcDbCircle
 62
250
  6
CONTINUOUS
 10
-78.6654598962
 20
25.5563887283
 30
0.0
 40
0.9945320238
100
AcDbArc
 50
87.9270310034
 51
89.9496612941
  0
ARC
  5
3FB
100
AcDbEntity
  8
0
100
AcDbCircle
 62
250
  6
CONTINUOUS
 10
-78.66369569
 20
25.5833896848
 30
0.0
 40
0.9674852418
100
AcDbArc
 50
84.1884612297
 51
87.9736006925
  0
ARC
  5
3FC
100
AcDbEntity
  8
0
100
AcDbCircle
 62
7
  6
CONTINUOUS
 10
-79.6160610925
 20
-26.849999496
 30
0.0
 40
0.3
100
AcDbArc
 50
270.0999999936
 51
297.9489629825
  0
ARC
  5
3FD
100
AcDbEntity
  8
0
100
AcDbCircle
 62
7
  6
CONTINUOUS
 10
-79.6160610925
 20
26.849999496
 30
0.0
 40
0.3
100
AcDbArc
 50
62.0510370175
 51
89.9000000064
  0
SPLINE
  5
3FE
100
AcDbEntity
  8
ASSI
100
AcDbSpline
 62
250
  6
CONTINUOUS
 70
0
 71
3
 72
11
 73
7
 74
0
 42
0.0000001
 43
0.0000001
 44
0.0000000001
 40
0.0
 40
0.0
 40
0.0
 40
0.0
 40
0.2499905435
 40
0.4999988276
 40
0.7500102815
 40
1.0
 40
1.0
 40
1.0
 40
1.0
 10
-22.2000910812
 20
-22.6988731063
 30
0.0
 10
-22.2650180044
 20
-22.6989959644
 30
0.0
 10
-22.3963686325
 20
-22.67342896
 30
0.0
 10
-22.5625444135
 20
-22.5625446342
 30
0.0
 10
-22.6734286671
 20
-22.396368945
 30
0.0
 10
-22.6989959126
 20
-22.2650177903
 30
0.0
 10
-22.6988731063
 20
-22.2000910812
 30
0.0
  0
SPLINE
  5
3FF
100
AcDbEntity
  8
ASSI
100
AcDbSpline
 62
250
  6
CONTINUOUS
 70
0
 71
3
 72
11
 73
7
 74
0
 42
0.0000001
 43
0.0000001
 44
0.0000000001
 40
0.0
 40
0.0
 40
0.0
 40
0.0
 40
0.2499905435
 40
0.4999988276
 40
0.7500102815
 40
1.0
 40
1.0
 40
1.0
 40
1.0
 10
22.6988731063
 20
-22.2000910812
 30
0.0
 10
22.6989959644
 20
-22.2650180044
 30
0.0
 10
22.67342896
 20
-22.3963686325
 30
0.0
 10
22.5625446342
 20
-22.5625444135
 30
0.0
 10
22.396368945
 20
-22.6734286671
 30
0.0
 10
22.2650177903
 20
-22.6989959126
 30
0.0
 10
22.2000910812
 20
-22.6988731063
 30
0.0
  0
SPLINE
  5
400
100
AcDbEntity
  8
ASSI
100
AcDbSpline
 62
250
  6
CONTINUOUS
 70
0
 71
3
 72
11
 73
7
 74
0
 42
0.0000001
 43
0.0000001
 44
0.0000000001
 40
0.0
 40
0.0
 40
0.0
 40
0.0
 40
0.2499905435
 40
0.4999988276
 40
0.7500102815
 40
1.0
 40
1.0
 40
1.0
 40
1.0
 10
22.2000910812
 20
22.6988731063
 30
0.0
 10
22.2650180044
 20
22.6989959644
 30
0.0
 10
22.3963686325
 20
22.67342896
 30
0.0
 10
22.5625444135
 20
22.5625446342
 30
0.0
 10
22.6734286671
 20
22.396368945
 30
0.0
 10
22.6989959126
 20
22.2650177903
 30
0.0
 10
22.6988731063
 20
22.2000910812
 30
0.0
  0
SPLINE
  5
401
100
AcDbEntity
  8
ASSI
100
AcDbSpline
 62
250
  6
CONTINUOUS
 70
0
 71
3
 72
11
 73
7
 74
0
 42
0.0000001
 43
0.0000001
 44
0.0000000001
 40
0.0
 40
0.0
 40
0.0
 40
0.0
 40
0.2499905435
 40
0.4999988276
 40
0.7500102815
 40
1.0
 40
1.0
 40
1.0
 40
1.0
 10
-22.6988731063
 20
22.2000910812
 30
0.0
 10
-22.6989959644
 20
22.2650180044
 30
0.0
 10
-22.67342896
 20
22.3963686325
 30
0.0
 10
-22.5625446342
 20
22.5625444135
 30
0.0
 10
-22.396368945
 20
22.6734286671
 30
0.0
 10
-22.2650177903
 20
22.6989959126
 30
0.0
 10
-22.2000910812
 20
22.6988731063
 30
0.0
  0
SPLINE
  5
402
100
AcDbEntity
  8
CURVE
100
AcDbSpline
 62
250
  6
CONTINUOUS
 70
0
 71
3
 72
9
 73
5
 74
0
 42
0.0000001
 43
0.0000001
 44
0.0000000001
 40
0.0
 40
0.0
 40
0.0
 40
0.0
 40
0.5206208722
 40
1.0
 40
1.0
 40
1.0
 40
1.0
 10
44.885390512
 20
-29.4226356449
 30
0.0
 10
44.8891619261
 20
-29.4209681689
 30
0.0
 10
44.8974005432
 20
-29.4973108459
 30
0.0
 10
44.8988699409
 20
-29.728472706
 30
0.0
 10
44.8989474951
 20
-29.8279642095
 30
0.0
  0
SPLINE
  5
403
100
AcDbEntity
  8
CURVE
100
AcDbSpline
 62
250
  6
CONTINUOUS
 70
0
 71
3
 72
9
 73
5
 74
0
 42
0.0000001
 43
0.0000001
 44
0.0000000001
 40
0.0
 40
0.0
 40
0.0
 40
0.0
 40
0.5013510385
 40
1.0
 40
1.0
 40
1.0
 40
1.0
 10
44.8744850009
 20
-29.7173859732
 30
0.0
 10
44.874794863
 20
-29.6409112471
 30
0.0
 10
44.8771452432
 20
-29.4862321801
 30
0.0
 10
44.8827184632
 20
-29.423833145
 30
0.0
 10
44.885390512
 20
-29.4226356449
 30
0.0
  0
SPLINE
  5
404
100
AcDbEntity
  8
CURVE
100
AcDbSpline
 62
250
  6
CONTINUOUS
 70
0
 71
3
 72
9
 73
5
 74
0
 42
0.0000001
 43
0.0000001
 44
0.0000000001
 40
0.0
 40
0.0
 40
0.0
 40
0.0
 40
0.2957417834
 40
1.0
 40
1.0
 40
1.0
 40
1.0
 10
44.8620741759
 20
-29.3408501143
 30
0.0
 10
44.8605585951
 20
-29.4610542637
 30
0.0
 10
44.8580881081
 20
-29.8931154132
 30
0.0
 10
44.8596096759
 20
-30.3274429247
 30
0.0
 10
44.8611556794
 20
-30.6285551388
 30
0.0
  0
SPLINE
  5
405
100
AcDbEntity
  8
CURVE
100
AcDbSpline
 62
250
  6
CONTINUOUS
 70
0
 71
3
 72
17
 73
13
 74
0
 42
0.0000001
 43
0.0000001
 44
0.0000000001
 40
0.0
 40
0.0
 40
0.0
 40
0.0
 40
0.0559780952
 40
0.1687540387
 40
0.321006234
 40
0.4122750837
 40
0.516613223
 40
0.6013931059
 40
0.6776022439
 40
0.8103422694
 40
0.9200404832
 40
1.0
 40
1.0
 40
1.0
 40
1.0
 10
44.9061378054
 20
-29.2870512436
 30
0.0
 10
44.9060080221
 20
-29.2582307418
 30
0.0
 10
44.9039944413
 20
-29.184972753
 30
0.0
 10
44.9001559947
 20
-29.0634829078
 30
0.0
 10
44.894247302
 20
-28.9740276278
 30
0.0
 10
44.8880831982
 20
-28.9341773505
 30
0.0
 10
44.8829671207
 20
-28.9304334968
 30
0.0
 10
44.8781887457
 20
-28.9501640226
 30
0.0
 10
44.8731113496
 20
-28.9979840427
 30
0.0
 10
44.8681353908
 20
-29.0877998266
 30
0.0
 10
44.8642440602
 20
-29.2146127248
 30
0.0
 10
44.862565765
 20
-29.301804483
 30
0.0
 10
44.8620741759
 20
-29.3408501143
 30
0.0
  0
SPLINE
  5
406
100
AcDbEntity
  8
CURVE
100
AcDbSpline
 62
250
  6
CONTINUOUS
 70
0
 71
3
 72
9
 73
5
 74
0
 42
0.0000001
 43
0.0000001
 44
0.0000000001
 40
0.0
 40
0.0
 40
0.0
 40
0.0
 40
0.2426586216
 40
1.0
 40
1.0
 40
1.0
 40
1.0
 10
44.9237639114
 20
-28.9862836897
 30
0.0
 10
44.9221786227
 20
-28.9986586641
 30
0.0
 10
44.9157768408
 20
-29.0459291565
 30
0.0
 10
44.9085526835
 20
-29.1505648409
 30
0.0
 10
44.9066533149
 20
-29.2870512436
 30
0.0
  0
LINE
  5
407
100
AcDbEntity
  8
CURVE
100
AcDbLine
 62
250
  6
CONTINUOUS
 10
44.9473759458
 20
-28.8079038802
 30
0.0
 11
44.9237639114
 21
-28.9862836897
 31
0.0
  0
SPLINE
  5
408
100
AcDbEntity
  8
CURVE
100
AcDbSpline
 62
250
  6
CONTINUOUS
 70
0
 71
3
 72
9
 73
5
 74
0
 42
0.0000001
 43
0.0000001
 44
0.0000000001
 40
0.0
 40
0.0
 40
0.0
 40
0.0
 40
0.5586214172
 40
1.0
 40
1.0
 40
1.0
 40
1.0
 10
44.9209220674
 20
-29.5379751749
 30
0.0
 10
44.9257378197
 20
-29.486134558
 30
0.0
 10
44.9346552336
 20
-29.4179595379
 30
0.0
 10
44.9434695024
 20
-29.3419894791
 30
0.0
 10
44.9473759458
 20
-29.3098079785
 30
0.0
  0
SPLINE
  5
409
100
AcDbEntity
  8
CURVE
100
AcDbSpline
 62
250
  6
CONTINUOUS
 70
0
 71
3
 72
9
 73
5
 74
0
 42
0.0000001
 43
0.0000001
 44
0.0000000001
 40
0.0
 40
0.0
 40
0.0
 40
0.0
 40
0.3559141631
 40
1.0
 40
1.0
 40
1.0
 40
1.0
 10
44.9132352194
 20
-29.8290889245
 30
0.0
 10
44.9132352194
 20
-29.7836184402
 30
0.0
 10
44.9141961358
 20
-29.6528120506
 30
0.0
 10
44.9182334149
 20
-29.5668873007
 30
0.0
 10
44.9209220674
 20
-29.5379751749
 30
0.0
  0
SPLINE
  5
40A
100
AcDbEntity
  8
CURVE
100
AcDbSpline
 62
250
  6
CONTINUOUS
 70
0
 71
3
 72
9
 73
5
 74
0
 42
0.0000001
 43
0.0000001
 44
0.0000000001
 40
0.0
 40
0.0
 40
0.0
 40
0.0
 40
0.5206208722
 40
1.0
 40
1.0
 40
1.0
 40
1.0
 10
-84.4233607433
 20
-29.4226356449
 30
0.0
 10
-84.3153615736
 20
-29.4209681689
 30
0.0
 10
-84.07943845
 20
-29.4973108459
 30
0.0
 10
-84.0373604042
 20
-29.728472706
 30
0.0
 10
-84.0351395427
 20
-29.8279642095
 30
0.0
  0
SPLINE
  5
40B
100
AcDbEntity
  8
CURVE
100
AcDbSpline
 62
250
  6
CONTINUOUS
 70
0
 71
3
 72
9
 73
5
 74
0
 42
0.0000001
 43
0.0000001
 44
0.0000000001
 40
0.0
 40
0.0
 40
0.0
 40
0.0
 40
0.5013510385
 40
1.0
 40
1.0
 40
1.0
 40
1.0
 10
-84.7356537227
 20
-29.7173859732
 30
0.0
 10
-84.726780433
 20
-29.6409112471
 30
0.0
 10
-84.6594743509
 20
-29.4862321801
 30
0.0
 10
-84.4998782106
 20
-29.423833145
 30
0.0
 10
-84.4233607433
 20
-29.4226356449
 30
0.0
  0
SPLINE
  5
40C
100
AcDbEntity
  8
CURVE
100
AcDbSpline
 62
250
  6
CONTINUOUS
 70
0
 71
3
 72
9
 73
5
 74
0
 42
0.0000001
 43
0.0000001
 44
0.0000000001
 40
0.0
 40
0.0
 40
0.0
 40
0.0
 40
0.2703953699
 40
1.0
 40
1.0
 40
1.0
 40
1.0
 10
-84.7209476646
 20
-30.126163664
 30
0.0
 10
-84.7271581963
 20
-30.0897447717
 30
0.0
 10
-84.7475841403
 20
-29.9546358143
 30
0.0
 10
-84.7471407162
 20
-29.8164101388
 30
0.0
 10
-84.7356537227
 20
-29.7173859732
 30
0.0
  0
SPLINE
  5
40D
100
AcDbEntity
  8
CURVE
100
AcDbSpline
 62
250
  6
CONTINUOUS
 70
0
 71
3
 72
9
 73
5
 74
0
 42
0.0000001
 43
0.0000001
 44
0.0000000001
 40
0.0
 40
0.0
 40
0.0
 40
0.0
 40
0.2957417834
 40
1.0
 40
1.0
 40
1.0
 40
1.0
 10
-85.0910532496
 20
-29.3408501143
 30
0.0
 10
-85.1344538053
 20
-29.4610542637
 30
0.0
 10
-85.2051992978
 20
-29.8931154132
 30
0.0
 10
-85.1616272982
 20
-30.3274429247
 30
0.0
 10
-85.1173555498
 20
-30.6285551388
 30
0.0
  0
SPLINE
  5
40E
100
AcDbEntity
  8
CURVE
100
AcDbSpline
 62
250
  6
CONTINUOUS
 70
0
 71
3
 72
17
 73
13
 74
0
 42
0.0000001
 43
0.0000001
 44
0.0000000001
 40
0.0
 40
0.0
 40
0.0
 40
0.0
 40
0.0559780952
 40
0.1687540387
 40
0.321006234
 40
0.4122750837
 40
0.516613223
 40
0.6013931059
 40
0.6776022439
 40
0.8103422694
 40
0.9200404832
 40
1.0
 40
1.0
 40
1.0
 40
1.0
 10
-83.8292359951
 20
-29.2870512436
 30
0.0
 10
-83.8329525042
 20
-29.2582307418
 30
0.0
 10
-83.8906139124
 20
-29.184972753
 30
0.0
 10
-84.0005326424
 20
-29.0634829078
 30
0.0
 10
-84.1697354616
 20
-28.9740276278
 30
0.0
 10
-84.3462523009
 20
-28.9341773505
 30
0.0
 10
-84.4927575928
 20
-28.9304334968
 30
0.0
 10
-84.6295923471
 20
-28.9501640226
 30
0.0
 10
-84.7749899479
 20
-28.9979840427
 30
0.0
 10
-84.9174827664
 20
-29.0877998266
 30
0.0
 10
-85.0289158938
 20
-29.2146127248
 30
0.0
 10
-85.0769759809
 20
-29.301804483
 30
0.0
 10
-85.0910532496
 20
-29.3408501143
 30
0.0
  0
SPLINE
  5
40F
100
AcDbEntity
  8
CURVE
100
AcDbSpline
 62
250
  6
CONTINUOUS
 70
0
 71
3
 72
9
 73
5
 74
0
 42
0.0000001
 43
0.0000001
 44
0.0000000001
 40
0.0
 40
0.0
 40
0.0
 40
0.0
 40
0.2426586216
 40
1.0
 40
1.0
 40
1.0
 40
1.0
 10
-83.3244903595
 20
-28.9862836897
 30
0.0
 10
-83.3698870874
 20
-28.9986586641
 30
0.0
 10
-83.5532101378
 20
-29.0459291565
 30
0.0
 10
-83.760082936
 20
-29.1505648409
 30
0.0
 10
-83.8144737355
 20
-29.2870512436
 30
0.0
  0
SPLINE
  5
410
100
AcDbEntity
  8
CURVE
100
AcDbSpline
 62
250
  6
CONTINUOUS
 70
0
 71
3
 72
9
 73
5
 74
0
 42
0.0000001
 43
0.0000001
 44
0.0000000001
 40
0.0
 40
0.0
 40
0.0
 40
0.0
 40
0.1980141723
 40
1.0
 40
1.0
 40
1.0
 40
1.0
 10
-82.6483301611
 20
-28.8079038802
 30
0.0
 10
-82.6928714765
 20
-28.8200085492
 30
0.0
 10
-82.9183171205
 20
-28.8792554798
 30
0.0
 10
-83.144130358
 20
-28.9371156095
 30
0.0
 10
-83.3244903595
 20
-28.9862836897
 30
0.0
  0
SPLINE
  5
411
100
AcDbEntity
  8
CURVE
100
AcDbSpline
 62
250
  6
CONTINUOUS
 70
0
 71
3
 72
9
 73
5
 74
0
 42
0.0000001
 43
0.0000001
 44
0.0000000001
 40
0.0
 40
0.0
 40
0.0
 40
0.0
 40
0.5586214172
 40
1.0
 40
1.0
 40
1.0
 40
1.0
 10
-83.4058701257
 20
-29.5379751749
 30
0.0
 10
-83.2679650224
 20
-29.486134558
 30
0.0
 10
-83.012603698
 20
-29.4179595379
 30
0.0
 10
-82.7601960646
 20
-29.3419894791
 30
0.0
 10
-82.6483301611
 20
-29.3098079785
 30
0.0
  0
SPLINE
  5
412
100
AcDbEntity
  8
CURVE
100
AcDbSpline
 62
250
  6
CONTINUOUS
 70
0
 71
3
 72
9
 73
5
 74
0
 42
0.0000001
 43
0.0000001
 44
0.0000000001
 40
0.0
 40
0.0
 40
0.0
 40
0.0
 40
0.3559141631
 40
1.0
 40
1.0
 40
1.0
 40
1.0
 10
-83.6259926517
 20
-29.8290889245
 30
0.0
 10
-83.6259926517
 20
-29.7836184402
 30
0.0
 10
-83.5984756038
 20
-29.6528120506
 30
0.0
 10
-83.4828630581
 20
-29.5668873007
 30
0.0
 10
-83.4058701257
 20
-29.5379751749
 30
0.0
  0
SPLINE
  5
413
100
AcDbEntity
  8
0
100
AcDbSpline
 62
7
  6
CONTINUOUS
 70
0
 71
3
 72
11
 73
7
 74
0
 42
0.0000001
 43
0.0000001
 44
0.0000000001
 40
0.0
 40
0.0
 40
0.0
 40
0.0
 40
0.1766628077
 40
0.3933835141
 40
0.6689569267
 40
1.0
 40
1.0
 40
1.0
 40
1.0
 10
-77.5413744174
 20
25.9903260329
 30
0.0
 10
-77.5413744174
 20
25.9785870345
 30
0.0
 10
-77.5501905704
 20
25.95230288
 30
0.0
 10
-77.5833278183
 20
25.9210987513
 30
0.0
 10
-77.6329937313
 20
25.896888045
 30
0.0
 10
-77.6726552119
 20
25.8878685511
 30
0.0
 10
-77.6944636858
 20
25.8849920949
 30
0.0
  0
SPLINE
  5
414
100
AcDbEntity
  8
0
100
AcDbSpline
 62
250
  6
CONTINUOUS
 70
0
 71
3
 72
9
 73
5
 74
0
 42
0.0000001
 43
0.0000001
 44
0.0000000001
 40
0.0
 40
0.0
 40
0.0
 40
0.0
 40
0.4758739135
 40
1.0
 40
1.0
 40
1.0
 40
1.0
 10
-78.2541780097
 20
-26.4667331963
 30
0.0
 10
-78.2671193275
 20
-26.4736026782
 30
0.0
 10
-78.2982367937
 20
-26.481289816
 30
0.0
 10
-78.3292650205
 20
-26.4752301011
 30
0.0
 10
-78.344459028
 20
-26.4697941135
 30
0.0
  0
SPLINE
  5
415
100
AcDbEntity
  8
0
100
AcDbSpline
 62
250
  6
CONTINUOUS
 70
0
 71
3
 72
9
 73
5
 74
0
 42
0.0000001
 43
0.0000001
 44
0.0000000001
 40
0.0
 40
0.0
 40
0.0
 40
0.0
 40
0.559051935
 40
1.0
 40
1.0
 40
1.0
 40
1.0
 10
-79.6156018336
 20
-26.9276792439
 30
0.0
 10
-79.5994341588
 20
-26.956105941
 30
0.0
 10
-79.5693859712
 20
-27.0063036816
 30
0.0
 10
-79.5366598398
 20
-27.0548979666
 30
0.0
 10
-79.5208931401
 20
-27.0753122965
 30
0.0
  0
SPLINE
  5
416
100
AcDbEntity
  8
0
100
AcDbSpline
 62
250
  6
CONTINUOUS
 70
0
 71
3
 72
10
 73
6
 74
0
 42
0.0000001
 43
0.0000001
 44
0.0000000001
 40
0.0
 40
0.0
 40
0.0
 40
0.0
 40
0.6950890107
 40
0.8909699854
 40
1.0
 40
1.0
 40
1.0
 40
1.0
 10
-79.5208931401
 20
-27.0753122965
 30
0.0
 10
-79.512101578
 20
-27.0866953919
 30
0.0
 10
-79.5000269883
 20
-27.1011552054
 30
0.0
 10
-79.4845246889
 20
-27.1142214567
 30
0.0
 10
-79.4774630322
 20
-27.1160695448
 30
0.0
 10
-79.4754681837
 20
-27.1150157961
 30
0.0
  0
SPLINE
  5
417
100
AcDbEntity
  8
0
100
AcDbSpline
 62
250
  6
CONTINUOUS
 70
0
 71
3
 72
13
 73
9
 74
0
 42
0.0000001
 43
0.0000001
 44
0.0000000001
 40
0.0
 40
0.0
 40
0.0
 40
0.0
 40
0.3880873768
 40
0.7025988063
 40
0.8214552708
 40
0.9105861323
 40
0.9687926632
 40
1.0
 40
1.0
 40
1.0
 40
1.0
 10
-79.6156018336
 20
26.9276792439
 30
0.0
 10
-79.6004039286
 20
26.954388973
 30
0.0
 10
-79.5718894073
 20
27.0021522321
 30
0.0
 10
-79.5356710614
 20
27.0563451373
 30
0.0
 10
-79.5103863949
 20
27.0889874445
 30
0.0
 10
-79.4957531926
 20
27.1045153454
 30
0.0
 10
-79.4855680343
 20
27.1136634531
 30
0.0
 10
-79.4776487857
 20
27.1161783954
 30
0.0
 10
-79.4754681837
 20
27.1150157961
 30
0.0
  0
LINE
  5
418
100
AcDbEntity
  8
0
100
AcDbLine
 62
250
  6
CONTINUOUS
 10
-78.581384045
 20
-26.5286232592
 30
0.0
 11
-78.5814815015
 21
-26.5086074481
 31
0.0
  0
SPLINE
  5
419
100
AcDbEntity
  8
0
100
AcDbSpline
 62
7
  6
CONTINUOUS
 70
0
 71
3
 72
12
 73
8
 74
0
 42
0.0000001
 43
0.0000001
 44
0.0000000001
 40
0.0
 40
0.0
 40
0.0
 40
0.0
 40
0.3323810919
 40
0.6132720133
 40
0.729370166
 40
0.8302823194
 40
1.0
 40
1.0
 40
1.0
 40
1.0
 10
-77.7309072261
 20
-25.8162238239
 30
0.0
 10
-77.7049128255
 20
-25.8164533198
 30
0.0
 10
-77.6568472681
 20
-25.8219084844
 30
0.0
 10
-77.6024462839
 20
-25.8417429
 30
0.0
 10
-77.5703748136
 20
-25.8642955324
 30
0.0
 10
-77.5495386421
 20
-25.8863427207
 30
0.0
 10
-77.5413744174
 20
-25.9076891645
 30
0.0
 10
-77.5413744174
 20
-25.9209627273
 30
0.0
  0
LINE
  5
41A
100
AcDbEntity
  8
0
100
AcDbLine
 62
250
  6
CONTINUOUS
 10
-78.6644304328
 20
26.5709159928
 30
0.0
 11
-78.6645861242
 21
26.5509203682
 31
0.0
  0
SPLINE
  5
41B
100
AcDbEntity
  8
0
100
AcDbSpline
 62
250
  6
CONTINUOUS
 70
0
 71
3
 72
10
 73
6
 74
0
 42
0.0000001
 43
0.0000001
 44
0.0000000001
 40
0.0
 40
0.0
 40
0.0
 40
0.0
 40
0.5303870515
 40
0.7783694843
 40
1.0
 40
1.0
 40
1.0
 40
1.0
 10
-78.5657313719
 20
26.5459023784
 30
0.0
 10
-78.5421054268
 20
26.5434798744
 30
0.0
 10
-78.507473918
 20
26.53866405
 30
0.0
 10
-78.4639899558
 20
26.5280341633
 30
0.0
 10
-78.4440397086
 20
26.5208866257
 30
0.0
 10
-78.4352867202
 20
26.5162094923
 30
0.0
  0
LINE
  5
41C
100
AcDbEntity
  8
0
100
AcDbLine
 62
250
  6
CONTINUOUS
 10
-78.5814815015
 20
-26.5086074481
 30
0.0
 11
-80.5413744171
 21
-26.5438008307
 31
0.0
  0
SPLINE
  5
41D
100
AcDbEntity
  8
0
100
AcDbSpline
 62
250
  6
CONTINUOUS
 70
0
 71
3
 72
10
 73
6
 74
0
 42
0.0000001
 43
0.0000001
 44
0.0000000001
 40
0.0
 40
0.0
 40
0.0
 40
0.0
 40
0.2229831124
 40
0.4717436652
 40
1.0
 40
1.0
 40
1.0
 40
1.0
 10
-78.344459028
 20
-26.4697941135
 30
0.0
 10
-78.354691431
 20
-26.4752608227
 30
0.0
 10
-78.3780659921
 20
-26.4833957243
 30
0.0
 10
-78.4286397011
 20
-26.4954746949
 30
0.0
 10
-78.4688260977
 20
-26.5009408247
 30
0.0
 10
-78.4961763658
 20
-26.5036451457
 30
0.0
  0
LINE
  5
41E
100
AcDbEntity
  8
0
100
AcDbLine
 62
7
  6
CONTINUOUS
 10
-80.5413743943
 20
-25.8344712818
 30
0.0
 11
-79.5394944976
 21
-25.8000830551
 31
0.0
  0
SPLINE
  5
41F
100
AcDbEntity
  8
0
100
AcDbSpline
 62
250
  6
CONTINUOUS
 70
0
 71
3
 72
9
 73
5
 74
0
 42
0.0000001
 43
0.0000001
 44
0.0000000001
 40
0.0
 40
0.0
 40
0.0
 40
0.0
 40
0.4766868604
 40
1.0
 40
1.0
 40
1.0
 40
1.0
 10
-78.3415152196
 20
26.5130933445
 30
0.0
 10
-78.3549820195
 20
26.5202417621
 30
0.0
 10
-78.3873078764
 20
26.5282395694
 30
0.0
 10
-78.4195475157
 20
26.5219042505
 30
0.0
 10
-78.4352867202
 20
26.5162094923
 30
0.0
  0
ELLIPSE
  5
420
100
AcDbEntity
  8
ASSI
100
AcDbEllipse
 62
7
  6
CONTINUOUS
 10
-22.098779051
 20
-22.098779051
 30
0.0
 11
-0.3552779753
 21
-0.3552779753
 31
0.0
 40
0.9951458158
 41
-0.782965171
 42
0.782965171
  0
ELLIPSE
  5
421
100
AcDbEntity
  8
ASSI
100
AcDbEllipse
 62
7
  6
CONTINUOUS
 10
22.098779051
 20
-22.098779051
 30
0.0
 11
0.3552779753
 21
-0.3552779753
 31
0.0
 40
0.9951458158
 41
-0.782965171
 42
0.782965171
  0
ELLIPSE
  5
422
100
AcDbEntity
  8
ASSI
100
AcDbEllipse
 62
7
  6
CONTINUOUS
 10
22.098779051
 20
22.098779051
 30
0.0
 11
0.3552779753
 21
0.3552779753
 31
0.0
 40
0.9951458158
 41
-0.782965171
 42
0.782965171
  0
ELLIPSE
  5
423
100
AcDbEntity
  8
ASSI
100
AcDbEllipse
 62
7
  6
CONTINUOUS
 10
-22.098779051
 20
22.098779051
 30
0.0
 11
-0.3552779753
 21
0.3552779753
 31
0.0
 40
0.9951458158
 41
-0.782965171
 42
0.782965171
  0
ELLIPSE
  5
424
100
AcDbEntity
  8
0
100
AcDbEllipse
 62
7
  6
CONTINUOUS
 10
4788.1889488715
 20
0.0
 30
0.0
 11
5070.6192780382
 21
-20.8600030618
 31
0.0
 40
0.0041137573
 41
2.856472503
 42
2.8584753448
  0
ELLIPSE
  5
425
100
AcDbEntity
  8
0
100
AcDbEllipse
 62
7
  6
CONTINUOUS
 10
15.6074176476
 20
0.0
 30
0.0
 11
530.7034459343
 21
0.0
 31
0.0
 40
0.0494155445
 41
-1.7510554651
 42
-1.7475925186
  0
ELLIPSE
  5
426
100
AcDbEntity
  8
0
100
AcDbEllipse
 62
7
  6
CONTINUOUS
 10
-77.7413744174
 20
26.079798695
 30
0.0
 11
-0.1417119467
 21
0.1422961243
 31
0.0
 40
0.9918061237
 41
-3.8766878413
 42
-3.6922883272
  0
ENDSEC
  0
SECTION
  2
OBJECTS
  0
DICTIONARY
  5
C
100
AcDbDictionary
280
0
281
1
  3
ACAD_GROUP
350
D
  3
ACAD_MLINESTYLE
350
17
  3
ACAD_LAYOUT
350
1A
  3
ACAD_PLOTSETTINGS
350
19
  3
ACAD_PLOTSTYLENAME
350
E
  0
DICTIONARY
  5
D
102
{ACAD_REACTORS
330
C
102
}
100
AcDbDictionary
280
0
281
1
  0
ACDBDICTIONARYWDFLT
  5
E
102
{ACAD_REACTORS
330
C
102
}
100
AcDbDictionary
281
1
  3
Normal
350
F
100
AcDbDictionaryWithDefault
340
F
  0
DICTIONARY
  5
17
102
{ACAD_REACTORS
330
C
102
}
100
AcDbDictionary
280
0
281
1
  3
Standard
350
18
  0
DICTIONARY
  5
19
102
{ACAD_REACTORS
330
C
102
}
100
AcDbDictionary
281
1
  0
DICTIONARY
  5
1A
102
{ACAD_REACTORS
330
C
102
}
100
AcDbDictionary
281
1
  3
Model
350
427
  3
Layout1
350
428
  0
ACDBPLACEHOLDER
  5
F
102
{ACAD_REACTORS
330
E
102
}
  0
MLINESTYLE
  5
18
102
{ACAD_REACTORS
330
17
102
}
100
AcDbMlineStyle
  2
STANDARD
 70
0
  3

 62
256
 51
90.0
 52
90.0
 71
2
 49
0.5
 62
256
  6
BYLAYER
 49
-0.5
 62
256
  6
BYLAYER
  0
LAYOUT
  5
427
102
{ACAD_REACTORS
330
1A
102
}
100
AcDbPlotSettings
  1

  2
none_device
  4
ISO_A4_(297.00_x_210.00_MM)
  6

 40
0.0
 41
0.0
 42
0.0
 43
0.0
 44
297.0
 45
210.0
 46
0.0
 47
0.0
 48
0.0
 49
0.0
140
0.0
141
0.0
142
1.0
143
1.0
 70
1024
 72
1
 73
0
 74
0
  7

 75
0
147
1.0
148
0.0
149
0.0
100
AcDbLayout
  1
Model
 70
0
 71
0
 10
0.0
 20
0.0
 11
297.0
 21
210.0
 12
0.0
 22
0.0
 32
0.0
 14
0.0
 24
0.0
 34
0.0
 15
0.0
 25
0.0
 35
0.0
146
0.0
 13
0.0
 23
0.0
 33
0.0
 16
1.0
 26
0.0
 36
0.0
 17
0.0
 27
1.0
 37
0.0
 76
0
330
21C
345
0
346
0
  0
LAYOUT
  5
428
102
{ACAD_REACTORS
330
1A
102
}
100
AcDbPlotSettings
  1

  2
none_device
  4
ISO_A4_(297.00_x_210.00_MM)
  6

 40
0.0
 41
0.0
 42
0.0
 43
0.0
 44
297.0
 45
210.0
 46
0.0
 47
0.0
 48
0.0
 49
0.0
140
0.0
141
0.0
142
1.0
143
1.0
 70
0
 72
1
 73
0
 74
0
  7

 75
0
147
1.0
148
0.0
149
0.0
100
AcDbLayout
  1
Layout1
 70
0
 71
1
 10
0.0
 20
0.0
 11
297.0
 21
210.0
 12
0.0
 22
0.0
 32
0.0
 14
0.0
 24
0.0
 34
0.0
 15
0.0
 25
0.0
 35
0.0
146
0.0
 13
0.0
 23
0.0
 33
0.0
 16
1.0
 26
0.0
 36
0.0
 17
0.0
 27
1.0
 37
0.0
 76
0
330
21D
345
0
346
0
  0
ENDSEC
  0
EOF
