  0
SECTION
  2
HEADER
  9
$ACADVER
  1
AC1021
  9
$DWGCODEPAGE
  3
ANSI_1252
  9
$EXTMAX
 10
297.0
 20
210.0
 30
0.0
  9
$EXTMIN
 10
0.0
 20
0.0
 30
0.0
  9
$LIMMIN
 10
0.0
 20
0.0
  9
$LIMMAX
 10
297.0
 20
210.0
  9
$VIEWCTR
 10
148.5
 20
105.0
  9
$VIEWSIZE
 40
210.0
  9
$CLAYER
  8
0
  9
$LTSCALE
 40
16.335
  9
$CELTYPE
  6
BYLAYER
  9
$DIMSCALE
 40
1.0
  9
$DIMASZ
 40
3.0
  9
$DIMEXO
 40
0.5
  9
$DIMDLI
 40
11.286
  9
$DIMEXE
 40
1.5
  9
$DIMCEN
 40
2.673
  9
$DIMLFAC
 40
1.0
  9
$DIMBLK
  1
_FILLED
  9
$DIMALT
 70
0
  9
$DIMALTF
 40
25.4
  9
$DIMTXT
 40
3.0
  9
$DIMTOL
 70
1
  9
$DIMLIM
 70
0
  9
$DIMTFAC
 40
1.0
  9
$DIMTP
 40
0.01
  9
$DIMTM
 40
0.01
  9
$DIMGAP
 40
0.625
  9
$DIMDSEP
 70
44
  9
$AUNITS
 70
0
  9
$PDMODE
 70
3
  9
$PDSIZE
 40
3.0
  9
$HANDSEED
  5
375
  9
$TILEMODE
 70
1
  9
$MEASUREMENT
 70
1
  9
$INSUNITS
 70
4
  0
ENDSEC
  0
SECTION
  2
CLASSES
  0
CLASS
  1
ACDBDICTIONARYWDFLT
  2
AcDbDictionaryWithDefault
  3
AutoCAD 2000
 90
0
 91
1
280
0
281
0
  0
CLASS
  1
ACDBPLACEHOLDER
  2
AcDbPlaceHolder
  3
AutoCAD 2000
 90
0
 91
1
280
0
281
0
  0
CLASS
  1
LAYOUT
  2
AcDbLayout
  3
AutoCAD 2000
 90
0
 91
0
280
0
281
0
  0
ENDSEC
  0
SECTION
  2
TABLES
  0
TABLE
  2
VPORT
  5
8
100
AcDbSymbolTable
 70
2
  0
VPORT
  5
1F4
100
AcDbSymbolTableRecord
100
AcDbViewportTableRecord
  2
*ACTIVE
 70
0
 10
0.0
 20
0.0
 11
1.0
 21
1.0
 12
148.5
 22
105.0
 13
0.0
 23
0.0
 14
1.0
 24
1.0
 15
0.0
 25
0.0
 16
0.0
 26
0.0
 36
1.0
 17
0.0
 27
0.0
 37
0.0
 40
210.0
 41
1.4142857143
 42
50.0
 43
0.0
 44
0.0
 50
0.0
 51
0.0
 71
0
 72
100
 73
1
 74
1
 75
0
 76
0
 77
0
 78
0
  0
ENDTAB
  0
TABLE
  2
LTYPE
  5
5
100
AcDbSymbolTable
 70
6
  0
LTYPE
  5
14
100
AcDbSymbolTableRecord
100
AcDbLinetypeTableRecord
  2
BYBLOCK
 70
0
  3

 72
65
 73
0
 40
0.0
  0
LTYPE
  5
15
100
AcDbSymbolTableRecord
100
AcDbLinetypeTableRecord
  2
BYLAYER
 70
0
  3

 72
65
 73
0
 40
0.0
  0
LTYPE
  5
16
100
AcDbSymbolTableRecord
100
AcDbLinetypeTableRecord
  2
CONTINUOUS
 70
64
  3
Solid line
 72
65
 73
0
 40
0.0
  0
LTYPE
  5
1F5
100
AcDbSymbolTableRecord
100
AcDbLinetypeTableRecord
  2
CENTER
 70
64
  3
____ _ ____ _ ____ _ ____ _ ____ _ ____ _ ____
 72
65
 73
4
 40
0.6
 49
0.375
 74
0
 49
-0.075
 74
0
 49
0.075
 74
0
 49
-0.075
 74
0
  0
LTYPE
  5
1F6
100
AcDbSymbolTableRecord
100
AcDbLinetypeTableRecord
  2
HIDDEN
 70
64
  3
- - - - - - - - - - - - - - - - - - - -
 72
65
 73
2
 40
0.2
 49
0.1
 74
0
 49
-0.1
 74
0
  0
LTYPE
  5
1F7
100
AcDbSymbolTableRecord
100
AcDbLinetypeTableRecord
  2
PHANTOM
 70
64
  3
_____ _ _ _____ _ _ _____ _ _ _____
 72
65
 73
6
 40
0.8
 49
0.45
 74
0
 49
-0.05
 74
0
 49
0.1
 74
0
 49
-0.05
 74
0
 49
0.1
 74
0
 49
-0.05
 74
0
  0
LTYPE
  5
1F8
100
AcDbSymbolTableRecord
100
AcDbLinetypeTableRecord
  2
DOT
 70
64
  3
. . . . . . . . . . . . . . . . . . . .
 72
65
 73
2
 40
0.2
 49
0.1
 74
0
 49
-0.1
 74
0
  0
LTYPE
  5
1F9
100
AcDbSymbolTableRecord
100
AcDbLinetypeTableRecord
  2
DASHED
 70
64
  3
- - - - - - - - - - - - - - - - - - - -
 72
65
 73
2
 40
0.2
 49
0.1
 74
0
 49
-0.1
 74
0
  0
ENDTAB
  0
TABLE
  2
LAYER
  5
2
100
AcDbSymbolTable
 70
36
  0
LAYER
  5
10
100
AcDbSymbolTableRecord
100
AcDbLayerTableRecord
  2
0
 70
0
 62
7
  6
CONTINUOUS
370
-3
390
F
  0
LAYER
  5
1FA
100
AcDbSymbolTableRecord
100
AcDbLayerTableRecord
  2
DEFAULT_1
 70
0
 62
7
  6
CENTER
370
-3
390
F
  0
LAYER
  5
1FB
100
AcDbSymbolTableRecord
100
AcDbLayerTableRecord
  2
DEFAULT_2
 70
0
 62
7
  6
HIDDEN
370
-3
390
F
  0
LAYER
  5
1FC
100
AcDbSymbolTableRecord
100
AcDbLayerTableRecord
  2
DEFAULT_3
 70
0
 62
7
  6
PHANTOM
370
-3
390
F
  0
LAYER
  5
1FD
100
AcDbSymbolTableRecord
100
AcDbLayerTableRecord
  2
ASSI
 70
0
 62
7
  6
CONTINUOUS
370
-3
390
F
  0
LAYER
  5
1FE
100
AcDbSymbolTableRecord
100
AcDbLayerTableRecord
  2
COORDINATE
 70
0
 62
7
  6
CONTINUOUS
370
-3
390
F
  0
LAYER
  5
1FF
100
AcDbSymbolTableRecord
100
AcDbLayerTableRecord
  2
COORD_ORIGINE
 70
0
 62
7
  6
CONTINUOUS
370
-3
390
F
  0
LAYER
  5
200
100
AcDbSymbolTableRecord
100
AcDbLayerTableRecord
  2
COPY_PUBLISH
 70
0
 62
7
  6
CONTINUOUS
370
-3
390
F
  0
LAYER
  5
201
100
AcDbSymbolTableRecord
100
AcDbLayerTableRecord
  2
COSMETIC
 70
0
 62
7
  6
CONTINUOUS
370
-3
390
F
  0
LAYER
  5
202
100
AcDbSymbolTableRecord
100
AcDbLayerTableRecord
  2
COSMETICI
 70
0
 62
7
  6
CONTINUOUS
370
-3
390
F
  0
LAYER
  5
203
100
AcDbSymbolTableRecord
100
AcDbLayerTableRecord
  2
CURVE
 70
0
 62
7
  6
CONTINUOUS
370
-3
390
F
  0
LAYER
  5
204
100
AcDbSymbolTableRecord
100
AcDbLayerTableRecord
  2
CURVE_TASSELLI
 70
0
 62
7
  6
CONTINUOUS
370
-3
390
F
  0
LAYER
  5
205
100
AcDbSymbolTableRecord
100
AcDbLayerTableRecord
  2
DRAFT
 70
0
 62
7
  6
CONTINUOUS
370
-3
390
F
  0
LAYER
  5
206
100
AcDbSymbolTableRecord
100
AcDbLayerTableRecord
  2
IMPORT_IGES
 70
0
 62
7
  6
CONTINUOUS
370
-3
390
F
  0
LAYER
  5
207
100
AcDbSymbolTableRecord
100
AcDbLayerTableRecord
  2
INTFCLR_2
 70
0
 62
7
  6
CONTINUOUS
370
-3
390
F
  0
LAYER
  5
208
100
AcDbSymbolTableRecord
100
AcDbLayerTableRecord
  2
INTFCLR_3
 70
0
 62
7
  6
CONTINUOUS
370
-3
390
F
  0
LAYER
  5
209
100
AcDbSymbolTableRecord
100
AcDbLayerTableRecord
  2
INTF_1
 70
0
 62
7
  6
CONTINUOUS
370
-3
390
F
  0
LAYER
  5
20A
100
AcDbSymbolTableRecord
100
AcDbLayerTableRecord
  2
INTF_14
 70
0
 62
7
  6
CONTINUOUS
370
-3
390
F
  0
LAYER
  5
20B
100
AcDbSymbolTableRecord
100
AcDbLayerTableRecord
  2
INTF_15
 70
0
 62
7
  6
CONTINUOUS
370
-3
390
F
  0
LAYER
  5
20C
100
AcDbSymbolTableRecord
100
AcDbLayerTableRecord
  2
INTF_18
 70
0
 62
7
  6
CONTINUOUS
370
-3
390
F
  0
LAYER
  5
20D
100
AcDbSymbolTableRecord
100
AcDbLayerTableRecord
  2
INTF_19
 70
0
 62
7
  6
CONTINUOUS
370
-3
390
F
  0
LAYER
  5
20E
100
AcDbSymbolTableRecord
100
AcDbLayerTableRecord
  2
INTF_2
 70
0
 62
7
  6
CONTINUOUS
370
-3
390
F
  0
LAYER
  5
20F
100
AcDbSymbolTableRecord
100
AcDbLayerTableRecord
  2
INTF_7
 70
0
 62
7
  6
CONTINUOUS
370
-3
390
F
  0
LAYER
  5
210
100
AcDbSymbolTableRecord
100
AcDbLayerTableRecord
  2
INTF_CYAN
 70
0
 62
7
  6
CONTINUOUS
370
-3
390
F
  0
LAYER
  5
211
100
AcDbSymbolTableRecord
100
AcDbLayerTableRecord
  2
INTF_YELLOW
 70
0
 62
7
  6
CONTINUOUS
370
-3
390
F
  0
LAYER
  5
212
100
AcDbSymbolTableRecord
100
AcDbLayerTableRecord
  2
LIVELLO_1
 70
0
 62
7
  6
CONTINUOUS
370
-3
390
F
  0
LAYER
  5
213
100
AcDbSymbolTableRecord
100
AcDbLayerTableRecord
  2
NOTE
 70
0
 62
7
  6
CONTINUOUS
370
-3
390
F
  0
LAYER
  5
214
100
AcDbSymbolTableRecord
100
AcDbLayerTableRecord
  2
PIANI
 70
0
 62
7
  6
CONTINUOUS
370
-3
390
F
  0
LAYER
  5
215
100
AcDbSymbolTableRecord
100
AcDbLayerTableRecord
  2
PIANI_ORIGINE
 70
0
 62
7
  6
CONTINUOUS
370
-3
390
F
  0
LAYER
  5
216
100
AcDbSymbolTableRecord
100
AcDbLayerTableRecord
  2
PIANI_RIFERIMENTO
 70
0
 62
7
  6
CONTINUOUS
370
-3
390
F
  0
LAYER
  5
217
100
AcDbSymbolTableRecord
100
AcDbLayerTableRecord
  2
PUNTI
 70
0
 62
7
  6
CONTINUOUS
370
-3
390
F
  0
LAYER
  5
218
100
AcDbSymbolTableRecord
100
AcDbLayerTableRecord
  2
RACCORDO
 70
0
 62
7
  6
CONTINUOUS
370
-3
390
F
  0
LAYER
  5
219
100
AcDbSymbolTableRecord
100
AcDbLayerTableRecord
  2
RGB__255__255__255__
 70
0
 62
7
  6
CONTINUOUS
370
-3
390
F
  0
LAYER
  5
21A
100
AcDbSymbolTableRecord
100
AcDbLayerTableRecord
  2
RGB____0____0____0__
 70
0
 62
7
  6
CONTINUOUS
370
-3
390
F
  0
LAYER
  5
21B
100
AcDbSymbolTableRecord
100
AcDbLayerTableRecord
  2
SIMBOLI
 70
0
 62
7
  6
CONTINUOUS
370
-3
390
F
  0
LAYER
  5
21C
100
AcDbSymbolTableRecord
100
AcDbLayerTableRecord
  2
SMUSSO
 70
0
 62
7
  6
CONTINUOUS
370
-3
390
F
  0
LAYER
  5
21D
100
AcDbSymbolTableRecord
100
AcDbLayerTableRecord
  2
SNAPLINE
 70
0
 62
7
  6
CONTINUOUS
370
-3
390
F
  0
LAYER
  5
21E
100
AcDbSymbolTableRecord
100
AcDbLayerTableRecord
  2
SUPERFICI
 70
0
 62
7
  6
CONTINUOUS
370
-3
390
F
  0
LAYER
  5
21F
100
AcDbSymbolTableRecord
100
AcDbLayerTableRecord
  2
TRASH
 70
0
 62
7
  6
CONTINUOUS
370
-3
390
F
  0
LAYER
  5
220
100
AcDbSymbolTableRecord
100
AcDbLayerTableRecord
  2
WHITE
 70
0
 62
7
  6
CONTINUOUS
370
-3
390
F
  0
LAYER
  5
221
100
AcDbSymbolTableRecord
100
AcDbLayerTableRecord
  2
XSEC_DATUMS
 70
0
 62
7
  6
CONTINUOUS
370
-3
390
F
  0
ENDTAB
  0
TABLE
  2
STYLE
  5
3
100
AcDbSymbolTable
 70
1
  0
STYLE
  5
11
100
AcDbSymbolTableRecord
100
AcDbTextStyleTableRecord
  2
STANDARD
 70
0
 40
0.0
 41
0.8
 50
0.0
 71
0
 42
0.2
  3
txt
  4

  0
STYLE
  5
222
100
AcDbSymbolTableRecord
100
AcDbTextStyleTableRecord
  2
TEXTSTYLE_1
 70
0
 40
0.0
 41
0.8
 50
0.0
 71
0
 42
0.2
  3
gdt
  4

  0
ENDTAB
  0
TABLE
  2
VIEW
  5
6
100
AcDbSymbolTable
 70
0
  0
ENDTAB
  0
TABLE
  2
UCS
  5
7
100
AcDbSymbolTable
 70
0
  0
ENDTAB
  0
TABLE
  2
APPID
  5
9
100
AcDbSymbolTable
 70
1
  0
APPID
  5
223
100
AcDbSymbolTableRecord
100
AcDbRegAppTableRecord
  2
ACAD
 70
0
  0
ENDTAB
  0
TABLE
  2
BLOCK_RECORD
  5
1
100
AcDbSymbolTable
 70
0
  0
BLOCK_RECORD
  5
224
100
AcDbSymbolTableRecord
100
AcDbBlockTableRecord
  2
*Model_Space
  0
BLOCK_RECORD
  5
225
100
AcDbSymbolTableRecord
100
AcDbBlockTableRecord
  2
*Paper_Space
  0
BLOCK_RECORD
  5
226
100
AcDbSymbolTableRecord
100
AcDbBlockTableRecord
  2
_FILLED
  0
BLOCK_RECORD
  5
227
100
AcDbSymbolTableRecord
100
AcDbBlockTableRecord
  2
*D0
  0
BLOCK_RECORD
  5
228
100
AcDbSymbolTableRecord
100
AcDbBlockTableRecord
  2
*D1
  0
BLOCK_RECORD
  5
229
100
AcDbSymbolTableRecord
100
AcDbBlockTableRecord
  2
*D2
  0
BLOCK_RECORD
  5
22A
100
AcDbSymbolTableRecord
100
AcDbBlockTableRecord
  2
*D3
  0
ENDTAB
  0
TABLE
  2
DIMSTYLE
  5
A
100
AcDbSymbolTable
 70
1
100
AcDbDimStyleTable
 71
0
  0
DIMSTYLE
105
22B
100
AcDbSymbolTableRecord
100
AcDbDimStyleTableRecord
  2
STANDARD
 70
0
  3

  4

 40
1.0
 41
3.0
 42
0.5
 43
0.38
 44
1.5
 45
0.0
 46
0.0
 47
0.01
 48
0.01
140
3.0
141
0.09
142
0.0
143
25.4
144
1.0
145
0.0
146
1.0
147
0.625
 71
1.0
 72
0.0
 73
0
 74
0
 75
0
 76
0
 77
1
 78
8
 79
2
170
0
171
1
172
0
173
0
174
0
175
0
176
0
177
0
178
0
270
2
179
2
271
2
272
2
273
2
274
2
275
0
280
0
281
0
282
0
283
1
284
8
285
0
286
0
287
3
288
0
340
11
278
44
341
226
342
226
343
226
344
226
  0
DIMSTYLE
105
22C
100
AcDbSymbolTableRecord
100
AcDbDimStyleTableRecord
  2
DIMSTYLE_1
 70
0
  3

  4

 40
1.0
 41
3.0
 42
0.5
 43
0.38
 44
1.5
 45
0.0
 46
0.0
 47
0.0
 48
0.0
140
3.0
141
0.09
142
0.0
143
25.4
144
1.0
145
0.0
146
1.0
147
0.75
 71
0.0
 72
0.0
 73
0
 74
0
 75
0
 76
0
 77
1
 78
8
 79
2
170
0
171
1
172
0
173
0
174
0
175
0
176
0
177
0
178
0
270
2
179
2
271
2
272
2
273
2
274
2
275
0
280
0
281
0
282
0
283
1
284
8
285
0
286
0
287
3
288
0
340
11
278
44
341
226
342
226
343
226
344
226
  0
ENDTAB
  0
ENDSEC
  0
SECTION
  2
BLOCKS
  0
BLOCK
  5
20
100
AcDbEntity
  8
0
100
AcDbBlockBegin
  2
*Model_Space
 70
0
 10
0.0
 20
0.0
 30
0.0
  3
*Model_Space
  1

  0
ENDBLK
  5
21
100
AcDbEntity
  8
0
100
AcDbBlockEnd
  0
BLOCK
  5
1C
100
AcDbEntity
  8
0
100
AcDbBlockBegin
  2
*Paper_Space
 70
0
 10
0.0
 20
0.0
 30
0.0
  3
*Paper_Space
  1

  0
ENDBLK
  5
1D
100
AcDbEntity
  8
0
100
AcDbBlockEnd
  0
BLOCK
  5
22D
100
AcDbEntity
  8
0
100
AcDbBlockBegin
  2
_FILLED
 70
64
 10
0.0
 20
0.0
  3
_FILLED
  1

  0
SOLID
  5
22E
100
AcDbEntity
  8
0
  6
BYBLOCK
 62
0
100
AcDbTrace
 10
0.0
 20
0.0
 11
-1.0
 21
0.3166666667
 12
-1.0
 22
-0.3166666667
 13
-1.0
 23
-0.3166666667
  0
ENDBLK
  5
22F
100
AcDbEntity
  8
0
  6
BYBLOCK
 62
0
100
AcDbBlockEnd
  0
BLOCK
  5
230
100
AcDbEntity
  8
0
100
AcDbBlockBegin
 62
7
  6
CONTINUOUS
  2
*D0
 70
65
 10
0.0
 20
0.0
  3
*D0
  1

  0
LINE
  5
231
100
AcDbEntity
  8
0
100
AcDbLine
 62
7
  6
CONTINUOUS
 10
224.4324218746
 20
62.8476562504
 11
234.5324218746
 21
62.8476562504
  0
LINE
  5
232
100
AcDbEntity
  8
0
100
AcDbLine
 62
7
  6
CONTINUOUS
 10
224.4324218746
 20
152.8476562504
 11
234.5324218746
 21
152.8476562504
  0
LINE
  5
233
100
AcDbEntity
  8
0
100
AcDbLine
 62
7
  6
CONTINUOUS
 10
233.0324218746
 20
62.8476562504
 11
233.0324218746
 21
107.8476562504
  0
LINE
  5
234
100
AcDbEntity
  8
0
100
AcDbLine
 62
7
  6
CONTINUOUS
 10
233.0324218746
 20
152.8476562504
 11
233.0324218746
 21
107.8476562504
  0
INSERT
  5
235
100
AcDbEntity
  8
0
100
AcDbBlockReference
 62
7
  6
CONTINUOUS
  2
_FILLED
 10
233.0324218746
 20
62.8476562504
 41
3.0
 42
3.0
 43
3.0
 50
270.0
  0
INSERT
  5
236
100
AcDbEntity
  8
0
100
AcDbBlockReference
 62
7
  6
CONTINUOUS
  2
_FILLED
 10
233.0324218746
 20
152.8476562504
 41
3.0
 42
3.0
 43
3.0
 50
90.0
  0
ENDBLK
  5
237
100
AcDbEntity
  8
0
  6
BYBLOCK
 62
0
100
AcDbBlockEnd
  0
BLOCK
  5
238
100
AcDbEntity
  8
0
100
AcDbBlockBegin
 62
7
  6
CONTINUOUS
  2
*D1
 70
65
 10
0.0
 20
0.0
  3
*D1
  1

  0
LINE
  5
239
100
AcDbEntity
  8
0
100
AcDbLine
 62
7
  6
CONTINUOUS
 10
134.9324218746
 20
152.3476562504
 11
134.9324218746
 21
162.3476562496
  0
LINE
  5
23A
100
AcDbEntity
  8
0
100
AcDbLine
 62
7
  6
CONTINUOUS
 10
224.9324218746
 20
152.3476562504
 11
224.9324218746
 21
162.3476562496
  0
LINE
  5
23B
100
AcDbEntity
  8
0
100
AcDbLine
 62
7
  6
CONTINUOUS
 10
134.9324218746
 20
160.8476562496
 11
179.9324218746
 21
160.8476562496
  0
LINE
  5
23C
100
AcDbEntity
  8
0
100
AcDbLine
 62
7
  6
CONTINUOUS
 10
224.9324218746
 20
160.8476562496
 11
179.9324218746
 21
160.8476562496
  0
INSERT
  5
23D
100
AcDbEntity
  8
0
100
AcDbBlockReference
 62
7
  6
CONTINUOUS
  2
_FILLED
 10
134.9324218746
 20
160.8476562496
 41
3.0
 42
3.0
 43
3.0
 50
180.0
  0
INSERT
  5
23E
100
AcDbEntity
  8
0
100
AcDbBlockReference
 62
7
  6
CONTINUOUS
  2
_FILLED
 10
224.9324218746
 20
160.8476562496
 41
3.0
 42
3.0
 43
3.0
  0
ENDBLK
  5
23F
100
AcDbEntity
  8
0
  6
BYBLOCK
 62
0
100
AcDbBlockEnd
  0
BLOCK
  5
240
100
AcDbEntity
  8
0
100
AcDbBlockBegin
 62
7
  6
CONTINUOUS
  2
*D2
 70
65
 10
0.0
 20
0.0
  3
*D2
  1

  0
LINE
  5
241
100
AcDbEntity
  8
0
100
AcDbLine
 62
7
  6
CONTINUOUS
 10
91.0085042429
 20
152.3476562504
 11
91.0085042429
 21
172.3476562496
  0
LINE
  5
242
100
AcDbEntity
  8
0
100
AcDbLine
 62
7
  6
CONTINUOUS
 10
101.5585042429
 20
134.3379822834
 11
101.5585042429
 21
172.3476562496
  0
LINE
  5
243
100
AcDbEntity
  8
0
100
AcDbLine
 62
7
  6
CONTINUOUS
 10
91.0085042429
 20
170.8476562496
 11
96.2835042429
 21
170.8476562496
  0
LINE
  5
244
100
AcDbEntity
  8
0
100
AcDbLine
 62
7
  6
CONTINUOUS
 10
101.5585042429
 20
170.8476562496
 11
96.2835042429
 21
170.8476562496
  0
LINE
  5
245
100
AcDbEntity
  8
0
100
AcDbLine
 62
7
  6
CONTINUOUS
 10
96.2835042429
 20
170.8476562496
 11
112.5399031144
 21
170.8476562496
  0
INSERT
  5
246
100
AcDbEntity
  8
0
100
AcDbBlockReference
 62
7
  6
CONTINUOUS
  2
_FILLED
 10
91.0085042429
 20
170.8476562496
 41
3.0
 42
3.0
 43
3.0
 50
180.0
  0
INSERT
  5
247
100
AcDbEntity
  8
0
100
AcDbBlockReference
 62
7
  6
CONTINUOUS
  2
_FILLED
 10
101.5585042429
 20
170.8476562496
 41
3.0
 42
3.0
 43
3.0
  0
ENDBLK
  5
248
100
AcDbEntity
  8
0
  6
BYBLOCK
 62
0
100
AcDbBlockEnd
  0
BLOCK
  5
249
100
AcDbEntity
  8
0
100
AcDbBlockBegin
 62
7
  6
CONTINUOUS
  2
*D3
 70
65
 10
0.0
 20
0.0
  3
*D3
  1

  0
LINE
  5
24A
100
AcDbEntity
  8
0
100
AcDbLine
 62
7
  6
CONTINUOUS
 10
98.5585042429
 20
151.3859665786
 11
98.5585042429
 21
162.3476562496
  0
LINE
  5
24B
100
AcDbEntity
  8
0
100
AcDbLine
 62
7
  6
CONTINUOUS
 10
91.0085042429
 20
152.3476562504
 11
91.0085042429
 21
162.3476562496
  0
LINE
  5
24C
100
AcDbEntity
  8
0
100
AcDbLine
 62
7
  6
CONTINUOUS
 10
98.5585042429
 20
160.8476562496
 11
94.7835042429
 21
160.8476562496
  0
LINE
  5
24D
100
AcDbEntity
  8
0
100
AcDbLine
 62
7
  6
CONTINUOUS
 10
94.7835042429
 20
160.8476562496
 11
110.9869408001
 21
160.8476562496
  0
LINE
  5
24E
100
AcDbEntity
  8
0
100
AcDbLine
 62
7
  6
CONTINUOUS
 10
91.0085042429
 20
160.8476562496
 11
94.7835042429
 21
160.8476562496
  0
INSERT
  5
24F
100
AcDbEntity
  8
0
100
AcDbBlockReference
 62
7
  6
CONTINUOUS
  2
_FILLED
 10
98.5585042429
 20
160.8476562496
 41
3.0
 42
3.0
 43
3.0
  0
INSERT
  5
250
100
AcDbEntity
  8
0
100
AcDbBlockReference
 62
7
  6
CONTINUOUS
  2
_FILLED
 10
91.0085042429
 20
160.8476562496
 41
3.0
 42
3.0
 43
3.0
 50
180.0
  0
ENDBLK
  5
251
100
AcDbEntity
  8
0
  6
BYBLOCK
 62
0
100
AcDbBlockEnd
  0
ENDSEC
  0
SECTION
  2
ENTITIES
  0
DIMENSION
  5
252
100
AcDbEntity
  8
0
100
AcDbDimension
 62
7
  6
CONTINUOUS
  2
*D0
 10
233.0324218746
 20
152.8476562504
 11
233.0324218746
 21
105.4905133933
 70
160
 71
2
 72
2
 41
0.9
 42
90.0
  3
DIMSTYLE_1
100
AcDbAlignedDimension
 13
223.9324218746
 23
62.8476562504
 14
223.9324218746
 24
152.8476562504
 50
90.0
100
AcDbRotatedDimension
  0
DIMENSION
  5
253
100
AcDbEntity
  8
0
100
AcDbDimension
 62
7
  6
CONTINUOUS
  2
*D1
 10
224.9324218746
 20
160.8476562496
 11
177.5752790174
 21
160.8476562496
 70
160
 71
2
 72
2
 41
0.9
 42
90.0
  3
DIMSTYLE_1
100
AcDbAlignedDimension
 13
134.9324218746
 23
151.8476562504
 14
224.9324218746
 24
151.8476562504
100
AcDbRotatedDimension
  0
DIMENSION
  5
254
100
AcDbEntity
  8
0
100
AcDbDimension
 62
7
  6
CONTINUOUS
  2
*D2
 10
101.5585042429
 20
170.8476562496
 11
102.4684745429
 21
170.8476562496
 70
160
 71
1
 72
2
 41
0.9
 42
10.55
  3
DIMSTYLE_1
100
AcDbAlignedDimension
 13
91.0085042429
 23
151.8476562504
 14
101.5585042429
 24
133.8379822834
100
AcDbRotatedDimension
  0
DIMENSION
  5
255
100
AcDbEntity
  8
0
100
AcDbDimension
 62
7
  6
CONTINUOUS
  2
*D3
 10
91.0085042429
 20
160.8476562496
 11
102.6297979429
 21
160.8476562496
 70
160
 71
1
 72
2
 41
0.9
 42
7.55
  3
DIMSTYLE_1
100
AcDbAlignedDimension
 13
98.5585042429
 23
150.8859665786
 14
91.0085042429
 24
151.8476562504
 50
180.0
100
AcDbRotatedDimension
  0
LINE
  5
256
100
AcDbEntity
  8
SMUSSO
100
AcDbLine
 62
7
  6
CONTINUOUS
 10
134.9324218746
 20
151.8476562504
 11
134.9324218746
 21
63.8476562504
  0
LINE
  5
257
100
AcDbEntity
  8
SMUSSO
100
AcDbLine
 62
7
  6
CONTINUOUS
 10
135.9324218746
 20
151.8476562504
 11
135.9324218746
 21
63.8476562504
  0
LINE
  5
258
100
AcDbEntity
  8
SMUSSO
100
AcDbLine
 62
250
  6
CONTINUOUS
 10
135.9324218746
 20
63.8476562504
 11
135.9324218746
 21
62.8476562504
  0
LINE
  5
259
100
AcDbEntity
  8
SMUSSO
100
AcDbLine
 62
250
  6
CONTINUOUS
 10
135.9324218746
 20
151.8476562504
 11
135.9324218746
 21
152.8476562504
  0
LINE
  5
25A
100
AcDbEntity
  8
SMUSSO
100
AcDbLine
 62
7
  6
CONTINUOUS
 10
135.9324218746
 20
62.8476562504
 11
223.9324218746
 21
62.8476562504
  0
LINE
  5
25B
100
AcDbEntity
  8
SMUSSO
100
AcDbLine
 62
250
  6
CONTINUOUS
 10
135.9324218746
 20
63.8476562504
 11
134.9324218746
 21
63.8476562504
  0
LINE
  5
25C
100
AcDbEntity
  8
SMUSSO
100
AcDbLine
 62
7
  6
CONTINUOUS
 10
135.9324218746
 20
63.8476562504
 11
223.9324218746
 21
63.8476562504
  0
LINE
  5
25D
100
AcDbEntity
  8
SMUSSO
100
AcDbLine
 62
250
  6
CONTINUOUS
 10
223.9324218746
 20
63.8476562504
 11
224.9324218746
 21
63.8476562504
  0
LWPOLYLINE
  5
25E
100
AcDbEntity
  8
0
100
AcDbPolyline
 62
7
  6
CONTINUOUS
 90
10
 70
0
 43
0.3500000006
 10
178.0038429565
 20
161.5976607056
 10
178.8609990234
 20
162.454798645
 10
179.0752835083
 20
163.3119365845
 10
179.0752835083
 20
164.1690926514
 10
178.6467145386
 20
164.5976616211
 10
178.0038429565
 20
164.5976616211
 10
177.5752739868
 20
164.1690926514
 10
177.5752739868
 20
163.3119365845
 10
178.0038429565
 20
162.8833676147
 10
178.9324211426
 20
162.8833676147
  0
LINE
  5
25F
100
AcDbEntity
  8
RACCORDO
100
AcDbLine
 62
7
  6
CONTINUOUS
 10
157.3324218746
 20
129.2476562504
 11
157.3324218746
 21
86.4476562504
  0
LINE
  5
260
100
AcDbEntity
  8
RACCORDO
100
AcDbLine
 62
7
  6
CONTINUOUS
 10
158.5324218746
 20
85.2476562504
 11
201.3324218746
 21
85.2476562504
  0
LWPOLYLINE
  5
261
100
AcDbEntity
  8
0
100
AcDbPolyline
 62
7
  6
CONTINUOUS
 90
13
 70
0
 43
0.3500000006
 10
179.9324214478
 20
162.454798645
 10
179.9324214478
 20
163.7405055542
 10
180.1467059326
 20
164.1690926514
 10
180.5752749023
 20
164.5976616211
 10
180.7895593872
 20
164.5976616211
 10
181.2181283569
 20
164.1690926514
 10
181.4324128418
 20
163.7405055542
 10
181.4324128418
 20
162.454798645
 10
181.2181283569
 20
162.0262296753
 10
180.7895593872
 20
161.5976607056
 10
180.5752749023
 20
161.5976607056
 10
180.1467059326
 20
162.0262296753
 10
179.9324214478
 20
162.454798645
  0
LWPOLYLINE
  5
262
100
AcDbEntity
  8
0
100
AcDbPolyline
 62
7
  6
CONTINUOUS
 90
13
 70
0
 43
0.3500000006
 10
231.4252858887
 20
107.8476578979
 10
230.1395608521
 20
107.8476578979
 10
229.7109918823
 20
108.0619423828
 10
229.2824229126
 20
108.4905113525
 10
229.2824229126
 20
108.7047958374
 10
229.7109918823
 20
109.1333738708
 10
230.1395608521
 20
109.3476583557
 10
231.4252858887
 20
109.3476583557
 10
231.8538548584
 20
109.1333738708
 10
232.2824238281
 20
108.7047958374
 10
232.2824238281
 20
108.4905113525
 10
231.8538548584
 20
108.0619423828
 10
231.4252858887
 20
107.8476578979
  0
LINE
  5
263
100
AcDbEntity
  8
RACCORDO
100
AcDbLine
 62
7
  6
CONTINUOUS
 10
202.5324218746
 20
86.4476562504
 11
202.5324218746
 21
129.2476562504
  0
LINE
  5
264
100
AcDbEntity
  8
RACCORDO
100
AcDbLine
 62
7
  6
CONTINUOUS
 10
201.3324218746
 20
130.4476562504
 11
158.5324218746
 21
130.4476562504
  0
LWPOLYLINE
  5
265
100
AcDbEntity
  8
0
100
AcDbPolyline
 62
7
  6
CONTINUOUS
 90
10
 70
0
 43
0.3500000006
 10
232.2824238281
 20
105.9190884705
 10
231.4252858887
 20
106.7762264099
 10
230.5681298218
 20
106.9905108948
 10
229.7109918823
 20
106.9905108948
 10
229.2824229126
 20
106.561941925
 10
229.2824229126
 20
105.9190884705
 10
229.7109918823
 20
105.490510437
 10
230.5681298218
 20
105.490510437
 10
230.9966987915
 20
105.9190884705
 10
230.9966987915
 20
106.8476575928
  0
LINE
  5
266
100
AcDbEntity
  8
SMUSSO
100
AcDbLine
 62
250
  6
CONTINUOUS
 10
223.9324218746
 20
63.8476562504
 11
223.9324218746
 21
62.8476562504
  0
LINE
  5
267
100
AcDbEntity
  8
SMUSSO
100
AcDbLine
 62
7
  6
CONTINUOUS
 10
223.9324218746
 20
63.8476562504
 11
223.9324218746
 21
151.8476562504
  0
LINE
  5
268
100
AcDbEntity
  8
SMUSSO
100
AcDbLine
 62
250
  6
CONTINUOUS
 10
223.9324218746
 20
151.8476562504
 11
223.9324218746
 21
152.8476562504
  0
LINE
  5
269
100
AcDbEntity
  8
SMUSSO
100
AcDbLine
 62
7
  6
CONTINUOUS
 10
224.9324218746
 20
63.8476562504
 11
224.9324218746
 21
151.8476562504
  0
LINE
  5
26A
100
AcDbEntity
  8
SMUSSO
100
AcDbLine
 62
7
  6
CONTINUOUS
 10
223.9324218746
 20
151.8476562504
 11
135.9324218746
 21
151.8476562504
  0
LINE
  5
26B
100
AcDbEntity
  8
SMUSSO
100
AcDbLine
 62
250
  6
CONTINUOUS
 10
135.9324218746
 20
151.8476562504
 11
134.9324218746
 21
151.8476562504
  0
LINE
  5
26C
100
AcDbEntity
  8
SMUSSO
100
AcDbLine
 62
250
  6
CONTINUOUS
 10
223.9324218746
 20
151.8476562504
 11
224.9324218746
 21
151.8476562504
  0
LINE
  5
26D
100
AcDbEntity
  8
SMUSSO
100
AcDbLine
 62
7
  6
CONTINUOUS
 10
223.9324218746
 20
152.8476562504
 11
135.9324218746
 21
152.8476562504
  0
LINE
  5
26E
100
AcDbEntity
  8
SMUSSO
100
AcDbLine
 62
7
  6
CONTINUOUS
 10
92.0085042429
 20
62.8476562504
 11
93.5085042429
 21
62.8476562504
  0
LWPOLYLINE
  5
26F
100
AcDbEntity
  8
0
100
AcDbPolyline
 62
7
  6
CONTINUOUS
 90
3
 70
0
 43
0.3500000006
 10
102.468471405
 20
173.740508606
 10
103.3256184082
 20
174.5976646729
 10
103.3256184082
 20
171.5976637573
  0
LINE
  5
270
100
AcDbEntity
  8
0
100
AcDbLine
 62
250
  6
CONTINUOUS
 10
97.0595478882
 20
64.5072495437
 11
98.5585042429
 21
64.8093459223
  0
LINE
  5
271
100
AcDbEntity
  8
ASSI
100
AcDbLine
 62
250
  6
CONTINUOUS
 10
97.0595478882
 20
64.5072495437
 11
98.5585042429
 21
64.8093459223
  0
LINE
  5
272
100
AcDbEntity
  8
0
100
AcDbLine
 62
7
  6
CONTINUOUS
 10
94.1585042429
 20
63.4970365622
 11
97.0585042429
 21
63.5476562504
  0
LINE
  5
273
100
AcDbEntity
  8
ASSI
100
AcDbLine
 62
7
  6
CONTINUOUS
 10
94.1585042429
 20
63.4970365622
 11
97.0585042429
 21
63.5476562504
  0
LINE
  5
274
100
AcDbEntity
  8
SMUSSO
100
AcDbLine
 62
250
  6
CONTINUOUS
 10
91.0085042429
 20
63.8476562504
 11
94.0085042429
 21
63.8476562504
  0
LINE
  5
275
100
AcDbEntity
  8
0
100
AcDbLine
 62
250
  6
CONTINUOUS
 10
94.1585042429
 20
64.5476562504
 11
97.0585042429
 21
64.5476562504
  0
LINE
  5
276
100
AcDbEntity
  8
ASSI
100
AcDbLine
 62
250
  6
CONTINUOUS
 10
94.1585042429
 20
64.5476562504
 11
97.0585042429
 21
64.5476562504
  0
LINE
  5
277
100
AcDbEntity
  8
RACCORDO
100
AcDbLine
 62
7
  6
CONTINUOUS
 10
94.1585042429
 20
67.8476562504
 11
94.0085042429
 21
67.8476562504
  0
LINE
  5
278
100
AcDbEntity
  8
RACCORDO
100
AcDbLine
 62
250
  6
CONTINUOUS
 10
94.1585042429
 20
69.8476562504
 11
94.0085042429
 21
69.8476562504
  0
LINE
  5
279
100
AcDbEntity
  8
0
100
AcDbLine
 62
250
  6
CONTINUOUS
 10
96.5769982429
 20
71.6865152504
 11
94.6770382429
 21
71.6865152504
  0
LINE
  5
27A
100
AcDbEntity
  8
SMUSSO
100
AcDbLine
 62
7
  6
CONTINUOUS
 10
91.0085042429
 20
151.8476562504
 11
92.0085042429
 21
152.8476562504
  0
LINE
  5
27B
100
AcDbEntity
  8
0
100
AcDbLine
 62
250
  6
CONTINUOUS
 10
95.9848752429
 20
70.7698372504
 11
94.6771522429
 21
70.4076922504
  0
LINE
  5
27C
100
AcDbEntity
  8
0
100
AcDbLine
 62
250
  6
CONTINUOUS
 10
96.5769982429
 20
74.2233472504
 11
94.6771522429
 21
74.0456902504
  0
LINE
  5
27D
100
AcDbEntity
  8
0
100
AcDbLine
 62
250
  6
CONTINUOUS
 10
95.3416062429
 20
73.7539172504
 11
96.5769982429
 21
73.8353942504
  0
LINE
  5
27E
100
AcDbEntity
  8
0
100
AcDbLine
 62
250
  6
CONTINUOUS
 10
94.6770382429
 20
72.0830872504
 11
96.5769982429
 21
72.0830872504
  0
LINE
  5
27F
100
AcDbEntity
  8
0
100
AcDbLine
 62
250
  6
CONTINUOUS
 10
96.5769982429
 20
72.6759652504
 11
95.3364342429
 21
72.7615462504
  0
LINE
  5
280
100
AcDbEntity
  8
0
100
AcDbLine
 62
250
  6
CONTINUOUS
 10
94.6771522429
 20
72.4681202504
 11
96.5769982429
 21
72.2965752504
  0
LINE
  5
281
100
AcDbEntity
  8
0
100
AcDbLine
 62
250
  6
CONTINUOUS
 10
94.6771522429
 20
71.1430452504
 11
95.9848752429
 21
70.7698372504
  0
LINE
  5
282
100
AcDbEntity
  8
0
100
AcDbLine
 62
250
  6
CONTINUOUS
 10
96.5769982429
 20
70.9286602504
 11
94.6771522429
 21
71.5393462504
  0
LINE
  5
283
100
AcDbEntity
  8
SMUSSO
100
AcDbLine
 62
7
  6
CONTINUOUS
 10
91.0085042429
 20
63.8476562504
 11
92.0085042429
 21
62.8476562504
  0
LINE
  5
284
100
AcDbEntity
  8
0
100
AcDbLine
 62
250
  6
CONTINUOUS
 10
96.1977212429
 20
75.3273842504
 11
96.5769982429
 21
75.4301172504
  0
LINE
  5
285
100
AcDbEntity
  8
0
100
AcDbLine
 62
250
  6
CONTINUOUS
 10
95.1991812429
 20
75.0658992504
 11
95.9042382429
 21
75.2481292504
  0
LWPOLYLINE
  5
286
100
AcDbEntity
  8
0
100
AcDbPolyline
 62
250
  6
CONTINUOUS
 90
53
 70
0
 10
95.2272235963
 20
76.8810637898
 10
95.2203710824
 20
76.8808579849
 10
95.2135879196
 20
76.8804518131
 10
95.2068578039
 20
76.8798483674
 10
95.2001644313
 20
76.8790507408
 10
95.1934914978
 20
76.8780620264
 10
95.1868266802
 20
76.8768849363
 10
95.1801735789
 20
76.8755206598
 10
95.1735397749
 20
76.8739700051
 10
95.1669328495
 20
76.8722337806
 10
95.1603603837
 20
76.8703127947
 10
95.1549142752
 20
76.8685711432
 10
95.1494966697
 20
76.8667005592
 10
95.1441068756
 20
76.8646998555
 10
95.1387458478
 20
76.8625685371
 10
95.1334211291
 20
76.8603088789
 10
95.1281419094
 20
76.8579238478
 10
95.1218772202
 20
76.8548989213
 10
95.1156914238
 20
76.8516934092
 10
95.1095846612
 20
76.84830299
 10
95.1035570736
 20
76.8447233421
 10
95.0976088022
 20
76.8409501441
 10
95.0917423951
 20
76.8369801134
 10
95.0859700293
 20
76.8328141222
 10
95.0803062887
 20
76.8284540816
 10
95.0747657574
 20
76.8239019026
 10
95.0693630194
 20
76.8191594964
 10
95.064111046
 20
76.8142301231
 10
95.0590163584
 20
76.8091224396
 10
95.0540838653
 20
76.8038464518
 10
95.0493184753
 20
76.7984121657
 10
95.0447250969
 20
76.7928295873
 10
95.0403073273
 20
76.78710718
 10
95.036063518
 20
76.7812472369
 10
95.0319907091
 20
76.7752505086
 10
95.0280859405
 20
76.7691177457
 10
95.0243462524
 20
76.7628496987
 10
95.0213548496
 20
76.757525009
 10
95.0184805352
 20
76.7521162275
 10
95.015727814
 20
76.7466326887
 10
95.0131002494
 20
76.7410819734
 10
95.0105976396
 20
76.7354646489
 10
95.0082188417
 20
76.7297795293
 10
95.0055268218
 20
76.7228679801
 10
95.0030137618
 20
76.7158655721
 10
95.0006819785
 20
76.7087807792
 10
94.9985337888
 20
76.7016220754
 10
94.9965715096
 20
76.6943979347
 10
94.9947974183
 20
76.6871123839
 10
94.9932136361
 20
76.6797516606
 10
94.9918222443
 20
76.6722975553
 10
94.9906253249
 20
76.6647318586
 10
94.9896249593
 20
76.6570363608
  0
LINE
  5
287
100
AcDbEntity
  8
0
100
AcDbLine
 62
250
  6
CONTINUOUS
 10
96.5769979889
 20
75.9645408532
 11
94.6993487842
 21
75.9645408532
  0
LINE
  5
288
100
AcDbEntity
  8
0
100
AcDbLine
 62
250
  6
CONTINUOUS
 10
95.0008098197
 20
76.3463677536
 11
95.5223545072
 21
76.3463677536
  0
LINE
  5
289
100
AcDbEntity
  8
0
100
AcDbLine
 62
250
  6
CONTINUOUS
 10
95.8335033264
 20
76.3595174953
 11
96.5769979889
 21
76.3595174953
  0
LINE
  5
28A
100
AcDbEntity
  8
0
100
AcDbLine
 62
250
  6
CONTINUOUS
 10
95.6789404354
 20
76.9841088591
 11
95.6901668671
 21
76.9841088591
  0
LINE
  5
28B
100
AcDbEntity
  8
0
100
AcDbLine
 62
250
  6
CONTINUOUS
 10
95.9042382429
 20
74.8684392504
 11
95.1991812429
 21
75.0658992504
  0
LINE
  5
28C
100
AcDbEntity
  8
0
100
AcDbLine
 62
250
  6
CONTINUOUS
 10
96.5769982429
 20
74.6778892504
 11
96.1977212429
 21
74.7873182504
  0
LINE
  5
28D
100
AcDbEntity
  8
0
100
AcDbLine
 62
250
  6
CONTINUOUS
 10
94.6771522429
 20
74.8815322504
 11
96.5769982429
 21
74.2856192504
  0
LINE
  5
28E
100
AcDbEntity
  8
0
100
AcDbLine
 62
250
  6
CONTINUOUS
 10
94.6771522429
 20
73.6533202504
 11
95.7319522429
 21
73.2567482504
  0
LINE
  5
28F
100
AcDbEntity
  8
0
100
AcDbLine
 62
250
  6
CONTINUOUS
 10
96.5769982429
 20
73.2823922504
 11
95.3416062429
 21
73.7539172504
  0
LWPOLYLINE
  5
290
100
AcDbEntity
  8
0
100
AcDbPolyline
 62
250
  6
CONTINUOUS
 90
3
 70
0
 10
96.3085803191
 20
76.8887305172
 10
96.244233603
 20
76.870465186
 10
96.1811059431
 20
76.8523216472
  0
LINE
  5
291
100
AcDbEntity
  8
0
100
AcDbLine
 62
250
  6
CONTINUOUS
 10
96.0168589644
 20
77.2002344739
 11
96.1069344771
 21
77.2246495452
  0
LINE
  5
292
100
AcDbEntity
  8
0
100
AcDbLine
 62
250
  6
CONTINUOUS
 10
96.4937424634
 20
77.326088287
 11
96.5769979889
 21
77.3482698009
  0
LINE
  5
293
100
AcDbEntity
  8
0
100
AcDbLine
 62
250
  6
CONTINUOUS
 10
96.1069344771
 20
77.2246495452
 11
96.2379513322
 21
77.2594263075
  0
LINE
  5
294
100
AcDbEntity
  8
0
100
AcDbLine
 62
250
  6
CONTINUOUS
 10
96.2379513322
 20
77.2594263075
 11
96.4937424634
 21
77.326088287
  0
LWPOLYLINE
  5
295
100
AcDbEntity
  8
0
100
AcDbPolyline
 62
250
  6
CONTINUOUS
 90
5
 70
0
 10
100.6035956201
 20
81.3439941036
 10
100.5833562385
 20
81.3422038129
 10
100.5624656688
 20
81.3408029297
 10
100.5408126422
 20
81.3397512964
 10
100.5183971588
 20
81.3390488024
  0
LWPOLYLINE
  5
296
100
AcDbEntity
  8
ASSI
100
AcDbPolyline
 62
250
  6
CONTINUOUS
 90
5
 70
0
 10
100.6035956201
 20
81.3439941036
 10
100.5833562385
 20
81.3422038129
 10
100.5624656688
 20
81.3408029297
 10
100.5408126422
 20
81.3397512964
 10
100.5183971588
 20
81.3390488024
  0
LINE
  5
297
100
AcDbEntity
  8
0
100
AcDbLine
 62
7
  6
CONTINUOUS
 10
99.4843414408
 20
80.6975268118
 11
98.5585042429
 21
80.6959109194
  0
LINE
  5
298
100
AcDbEntity
  8
ASSI
100
AcDbLine
 62
7
  6
CONTINUOUS
 10
99.4843414408
 20
80.6975268118
 11
98.5585042429
 21
80.6959109194
  0
LINE
  5
299
100
AcDbEntity
  8
0
100
AcDbLine
 62
250
  6
CONTINUOUS
 10
99.4842768267
 20
80.9199770065
 11
98.5585042429
 21
80.919558812
  0
LINE
  5
29A
100
AcDbEntity
  8
ASSI
100
AcDbLine
 62
250
  6
CONTINUOUS
 10
99.4842768267
 20
80.9199770065
 11
98.5585042429
 21
80.919558812
  0
LINE
  5
29B
100
AcDbEntity
  8
0
100
AcDbLine
 62
7
  6
CONTINUOUS
 10
98.5585042429
 20
82.0131853508
 11
99.5603841627
 21
82.0475731954
  0
LINE
  5
29C
100
AcDbEntity
  8
ASSI
100
AcDbLine
 62
7
  6
CONTINUOUS
 10
98.5585042429
 20
82.0131853508
 11
99.5603841627
 21
82.0475731954
  0
LWPOLYLINE
  5
29D
100
AcDbEntity
  8
0
100
AcDbPolyline
 62
7
  6
CONTINUOUS
 90
15
 70
0
 10
100.5184944644
 20
81.3190349147
 10
100.542604027
 20
81.3196980938
 10
100.5712076323
 20
81.3210786741
 10
100.5992981242
 20
81.3230593196
 10
100.6267423306
 20
81.3256046545
 10
100.6536235767
 20
81.328723828
 10
100.6798758805
 20
81.3324161502
 10
100.7052074812
 20
81.3366619907
 10
100.729654511
 20
81.341497321
 10
100.7533043904
 20
81.3469888805
 10
100.7761572769
 20
81.3532444823
 10
100.7987213535
 20
81.3605348627
 10
100.8208861353
 20
81.3691128842
 10
100.8418525525
 20
81.3789160625
 10
100.8459162714
 20
81.3810376428
  0
LWPOLYLINE
  5
29E
100
AcDbEntity
  8
ASSI
100
AcDbPolyline
 62
7
  6
CONTINUOUS
 90
15
 70
0
 10
100.5184944644
 20
81.3190349147
 10
100.542604027
 20
81.3196980938
 10
100.5712076323
 20
81.3210786741
 10
100.5992981242
 20
81.3230593196
 10
100.6267423306
 20
81.3256046545
 10
100.6536235767
 20
81.328723828
 10
100.6798758805
 20
81.3324161502
 10
100.7052074812
 20
81.3366619907
 10
100.729654511
 20
81.341497321
 10
100.7533043904
 20
81.3469888805
 10
100.7761572769
 20
81.3532444823
 10
100.7987213535
 20
81.3605348627
 10
100.8208861353
 20
81.3691128842
 10
100.8418525525
 20
81.3789160625
 10
100.8459162714
 20
81.3810376428
  0
LINE
  5
29F
100
AcDbEntity
  8
0
100
AcDbLine
 62
7
  6
CONTINUOUS
 10
98.5585042429
 20
81.2838701004
 11
100.5184945809
 21
81.319034913
  0
LINE
  5
2A0
100
AcDbEntity
  8
ASSI
100
AcDbLine
 62
7
  6
CONTINUOUS
 10
98.5585042429
 20
81.2838701004
 11
100.5184945809
 21
81.319034913
  0
LINE
  5
2A1
100
AcDbEntity
  8
0
100
AcDbLine
 62
250
  6
CONTINUOUS
 10
100.5183971588
 20
81.3390488024
 11
98.5585042429
 21
81.3038554422
  0
LINE
  5
2A2
100
AcDbEntity
  8
ASSI
100
AcDbLine
 62
250
  6
CONTINUOUS
 10
100.5183971588
 20
81.3390488024
 11
98.5585042429
 21
81.3038554422
  0
LINE
  5
2A3
100
AcDbEntity
  8
0
100
AcDbLine
 62
7
  6
CONTINUOUS
 10
99.5086286218
 20
82.6476562504
 11
98.5585042429
 21
82.6476562504
  0
LINE
  5
2A4
100
AcDbEntity
  8
ASSI
100
AcDbLine
 62
7
  6
CONTINUOUS
 10
99.5086286218
 20
82.6476562504
 11
98.5585042429
 21
82.6476562504
  0
LINE
  5
2A5
100
AcDbEntity
  8
0
100
AcDbLine
 62
7
  6
CONTINUOUS
 10
98.5585042429
 20
82.7976562504
 11
98.7085042429
 21
82.7976562504
  0
LINE
  5
2A6
100
AcDbEntity
  8
ASSI
100
AcDbLine
 62
7
  6
CONTINUOUS
 10
98.5585042429
 20
82.7976562504
 11
98.7085042429
 21
82.7976562504
  0
LINE
  5
2A7
100
AcDbEntity
  8
0
100
AcDbLine
 62
7
  6
CONTINUOUS
 10
99.0085042429
 20
82.7976562504
 11
99.2085042429
 21
82.7976562504
  0
LINE
  5
2A8
100
AcDbEntity
  8
ASSI
100
AcDbLine
 62
7
  6
CONTINUOUS
 10
99.0085042429
 20
82.7976562504
 11
99.2085042429
 21
82.7976562504
  0
LWPOLYLINE
  5
2A9
100
AcDbEntity
  8
0
100
AcDbPolyline
 62
7
  6
CONTINUOUS
 90
25
 70
0
 10
101.3689714342
 20
82.0314324384
 10
101.3823011404
 20
82.0310572622
 10
101.3954827219
 20
82.0302156084
 10
101.4084588511
 20
82.0289074768
 10
101.4211910266
 20
82.0271121753
 10
101.4336079783
 20
82.024850396
 10
101.4456099455
 20
82.0221842157
 10
101.4571440564
 20
82.0191074851
 10
101.4681794651
 20
82.0156263535
 10
101.4786610629
 20
82.0118213457
 10
101.4885482748
 20
82.0076948481
 10
101.4978273975
 20
82.0032444744
 10
101.5064898106
 20
81.9985435902
 10
101.5145068728
 20
81.9936003304
 10
101.5218718988
 20
81.9884065601
 10
101.5286034523
 20
81.9830112407
 10
101.5346811804
 20
81.977419215
 10
101.5400908333
 20
81.9716256402
 10
101.5448442914
 20
81.9656649486
 10
101.5489181511
 20
81.9595399769
 10
101.5522938863
 20
81.9532478885
 10
101.5549688608
 20
81.9468146065
 10
101.5569167775
 20
81.9402487722
 10
101.5581035602
 20
81.9335417444
 10
101.5585042429
 20
81.9266935231
  0
LWPOLYLINE
  5
2AA
100
AcDbEntity
  8
ASSI
100
AcDbPolyline
 62
7
  6
CONTINUOUS
 90
25
 70
0
 10
101.3689714342
 20
82.0314324384
 10
101.3823011404
 20
82.0310572622
 10
101.3954827219
 20
82.0302156084
 10
101.4084588511
 20
82.0289074768
 10
101.4211910266
 20
82.0271121753
 10
101.4336079783
 20
82.024850396
 10
101.4456099455
 20
82.0221842157
 10
101.4571440564
 20
82.0191074851
 10
101.4681794651
 20
82.0156263535
 10
101.4786610629
 20
82.0118213457
 10
101.4885482748
 20
82.0076948481
 10
101.4978273975
 20
82.0032444744
 10
101.5064898106
 20
81.9985435902
 10
101.5145068728
 20
81.9936003304
 10
101.5218718988
 20
81.9884065601
 10
101.5286034523
 20
81.9830112407
 10
101.5346811804
 20
81.977419215
 10
101.5400908333
 20
81.9716256402
 10
101.5448442914
 20
81.9656649486
 10
101.5489181511
 20
81.9595399769
 10
101.5522938863
 20
81.9532478885
 10
101.5549688608
 20
81.9468146065
 10
101.5569167775
 20
81.9402487722
 10
101.5581035602
 20
81.9335417444
 10
101.5585042429
 20
81.9266935231
  0
LINE
  5
2AB
100
AcDbEntity
  8
0
100
AcDbLine
 62
7
  6
CONTINUOUS
 10
98.5585042429
 20
82.0918363759
 11
99.5603841627
 21
82.0475731954
  0
LINE
  5
2AC
100
AcDbEntity
  8
ASSI
100
AcDbLine
 62
7
  6
CONTINUOUS
 10
98.5585042429
 20
82.0918363759
 11
99.5603841627
 21
82.0475731954
  0
LINE
  5
2AD
100
AcDbEntity
  8
0
100
AcDbLine
 62
7
  6
CONTINUOUS
 10
99.6081323408
 20
82.6426934407
 11
101.5585042429
 21
82.4476562504
  0
LINE
  5
2AE
100
AcDbEntity
  8
ASSI
100
AcDbLine
 62
7
  6
CONTINUOUS
 10
99.6081323408
 20
82.6426934407
 11
101.5585042429
 21
82.4476562504
  0
LINE
  5
2AF
100
AcDbEntity
  8
0
100
AcDbLine
 62
7
  6
CONTINUOUS
 10
98.7085042429
 20
132.8976562504
 11
98.8585042429
 21
133.0476562504
  0
LINE
  5
2B0
100
AcDbEntity
  8
ASSI
100
AcDbLine
 62
7
  6
CONTINUOUS
 10
98.7085042429
 20
132.8976562504
 11
98.8585042429
 21
133.0476562504
  0
LINE
  5
2B1
100
AcDbEntity
  8
0
100
AcDbLine
 62
7
  6
CONTINUOUS
 10
99.2085042429
 20
132.8976562504
 11
99.3585042429
 21
133.0476562504
  0
LINE
  5
2B2
100
AcDbEntity
  8
ASSI
100
AcDbLine
 62
7
  6
CONTINUOUS
 10
99.2085042429
 20
132.8976562504
 11
99.3585042429
 21
133.0476562504
  0
LWPOLYLINE
  5
2B3
100
AcDbEntity
  8
0
100
AcDbPolyline
 62
7
  6
CONTINUOUS
 90
11
 70
0
 10
101.5373944688
 20
133.7897573014
 10
101.5284835323
 20
133.7811177293
 10
101.5183238197
 20
133.7730863275
 10
101.5070141083
 20
133.7656044522
 10
101.4946622249
 20
133.7587885158
 10
101.481402303
 20
133.7526574002
 10
101.4673610834
 20
133.7471922236
 10
101.4526227384
 20
133.7424527531
 10
101.4372952367
 20
133.7384589111
 10
101.4215181046
 20
133.7351907752
 10
101.4054149745
 20
133.7326483453
  0
LWPOLYLINE
  5
2B4
100
AcDbEntity
  8
ASSI
100
AcDbPolyline
 62
7
  6
CONTINUOUS
 90
11
 70
0
 10
101.5373944688
 20
133.7897573014
 10
101.5284835323
 20
133.7811177293
 10
101.5183238197
 20
133.7730863275
 10
101.5070141083
 20
133.7656044522
 10
101.4946622249
 20
133.7587885158
 10
101.481402303
 20
133.7526574002
 10
101.4673610834
 20
133.7471922236
 10
101.4526227384
 20
133.7424527531
 10
101.4372952367
 20
133.7384589111
 10
101.4215181046
 20
133.7351907752
 10
101.4054149745
 20
133.7326483453
  0
LINE
  5
2B5
100
AcDbEntity
  8
0
100
AcDbLine
 62
7
  6
CONTINUOUS
 10
98.7085042429
 20
82.7976562504
 11
98.8585042429
 21
82.6476562504
  0
LINE
  5
2B6
100
AcDbEntity
  8
ASSI
100
AcDbLine
 62
7
  6
CONTINUOUS
 10
98.7085042429
 20
82.7976562504
 11
98.8585042429
 21
82.6476562504
  0
LINE
  5
2B7
100
AcDbEntity
  8
0
100
AcDbLine
 62
7
  6
CONTINUOUS
 10
99.2085042429
 20
82.7976562504
 11
99.3585042429
 21
82.6476562504
  0
LINE
  5
2B8
100
AcDbEntity
  8
ASSI
100
AcDbLine
 62
7
  6
CONTINUOUS
 10
99.2085042429
 20
82.7976562504
 11
99.3585042429
 21
82.6476562504
  0
LWPOLYLINE
  5
2B9
100
AcDbEntity
  8
0
100
AcDbPolyline
 62
250
  6
CONTINUOUS
 90
8
 70
0
 10
99.5824084801
 20
134.9272965686
 10
99.5907218688
 20
134.9374518187
 10
99.5984670875
 20
134.9461513554
 10
99.6055260292
 20
134.9532184387
 10
99.6116992878
 20
134.9584373568
 10
99.6169104679
 20
134.9617531259
 10
99.621158692
 20
134.963169806
 10
99.6244104766
 20
134.9626720465
  0
LWPOLYLINE
  5
2BA
100
AcDbEntity
  8
ASSI
100
AcDbPolyline
 62
250
  6
CONTINUOUS
 90
8
 70
0
 10
99.5824084801
 20
134.9272965686
 10
99.5907218688
 20
134.9374518187
 10
99.5984670875
 20
134.9461513554
 10
99.6055260292
 20
134.9532184387
 10
99.6116992878
 20
134.9584373568
 10
99.6169104679
 20
134.9617531259
 10
99.621158692
 20
134.963169806
 10
99.6244104766
 20
134.9626720465
  0
LWPOLYLINE
  5
2BB
100
AcDbEntity
  8
0
100
AcDbPolyline
 62
250
  6
CONTINUOUS
 90
9
 70
0
 10
99.5783644827
 20
80.7731504916
 10
99.5856346418
 20
80.7639386828
 10
99.5926923185
 20
80.7555212566
 10
99.5994542451
 20
80.7480700657
 10
99.6057921462
 20
80.7418038436
 10
99.6115776539
 20
80.7369301195
 10
99.6166889503
 20
80.7336480826
 10
99.621008237
 20
80.7321535641
 10
99.6244104766
 20
80.7326404544
  0
LWPOLYLINE
  5
2BC
100
AcDbEntity
  8
ASSI
100
AcDbPolyline
 62
250
  6
CONTINUOUS
 90
9
 70
0
 10
99.5783644827
 20
80.7731504916
 10
99.5856346418
 20
80.7639386828
 10
99.5926923185
 20
80.7555212566
 10
99.5994542451
 20
80.7480700657
 10
99.6057921462
 20
80.7418038436
 10
99.6115776539
 20
80.7369301195
 10
99.6166889503
 20
80.7336480826
 10
99.621008237
 20
80.7321535641
 10
99.6244104766
 20
80.7326404544
  0
LWPOLYLINE
  5
2BD
100
AcDbEntity
  8
0
100
AcDbPolyline
 62
7
  6
CONTINUOUS
 90
3
 70
0
 43
0.3500000006
 10
107.254188446
 20
171.8833703613
 10
107.1827572632
 20
171.6690858765
 10
107.0399039612
 20
171.3833792725
  0
LWPOLYLINE
  5
2BE
100
AcDbEntity
  8
0
100
AcDbPolyline
 62
250
  6
CONTINUOUS
 90
12
 70
0
 10
99.4842768267
 20
134.7753354944
 10
99.4922188931
 20
134.789123208
 10
99.5005193523
 20
134.8033039631
 10
99.5091447703
 20
134.81778425
 10
99.5180634208
 20
134.8324771177
 10
99.5272140803
 20
134.8472354587
 10
99.5365076397
 20
134.8618597425
 10
99.5458710304
 20
134.8761896295
 10
99.5552334105
 20
134.8900785509
 10
99.564498517
 20
134.9033378967
 10
99.5736021838
 20
134.9158246171
 10
99.5824084801
 20
134.9272965686
  0
LWPOLYLINE
  5
2BF
100
AcDbEntity
  8
ASSI
100
AcDbPolyline
 62
250
  6
CONTINUOUS
 90
12
 70
0
 10
99.4842768267
 20
134.7753354944
 10
99.4922188931
 20
134.789123208
 10
99.5005193523
 20
134.8033039631
 10
99.5091447703
 20
134.81778425
 10
99.5180634208
 20
134.8324771177
 10
99.5272140803
 20
134.8472354587
 10
99.5365076397
 20
134.8618597425
 10
99.5458710304
 20
134.8761896295
 10
99.5552334105
 20
134.8900785509
 10
99.564498517
 20
134.9033378967
 10
99.5736021838
 20
134.9158246171
 10
99.5824084801
 20
134.9272965686
  0
LWPOLYLINE
  5
2C0
100
AcDbEntity
  8
0
100
AcDbPolyline
 62
250
  6
CONTINUOUS
 90
14
 70
0
 10
99.4842768267
 20
80.9199770065
 10
99.4910387595
 20
80.9082031426
 10
99.4979073779
 20
80.8964068699
 10
99.5048657803
 20
80.8846269325
 10
99.5118574373
 20
80.8729648421
 10
99.5189007528
 20
80.8614011934
 10
99.5260849432
 20
80.8498125582
 10
99.5333957372
 20
80.8382456168
 10
99.5407847575
 20
80.8267964357
 10
99.5482764583
 20
80.8154530703
 10
99.5558320728
 20
80.8043056108
 10
99.5633905145
 20
80.7934776867
 10
99.5709260245
 20
80.7830440707
 10
99.5783644827
 20
80.7731504916
  0
LWPOLYLINE
  5
2C1
100
AcDbEntity
  8
ASSI
100
AcDbPolyline
 62
250
  6
CONTINUOUS
 90
14
 70
0
 10
99.4842768267
 20
80.9199770065
 10
99.4910387595
 20
80.9082031426
 10
99.4979073779
 20
80.8964068699
 10
99.5048657803
 20
80.8846269325
 10
99.5118574373
 20
80.8729648421
 10
99.5189007528
 20
80.8614011934
 10
99.5260849432
 20
80.8498125582
 10
99.5333957372
 20
80.8382456168
 10
99.5407847575
 20
80.8267964357
 10
99.5482764583
 20
80.8154530703
 10
99.5558320728
 20
80.8043056108
 10
99.5633905145
 20
80.7934776867
 10
99.5709260245
 20
80.7830440707
 10
99.5783644827
 20
80.7731504916
  0
LWPOLYLINE
  5
2C2
100
AcDbEntity
  8
0
100
AcDbPolyline
 62
7
  6
CONTINUOUS
 90
3
 70
0
 43
0.3500000006
 10
105.7012286682
 20
161.8833673096
 10
105.6297974854
 20
161.6690828247
 10
105.4869441833
 20
161.3833762207
  0
LWPOLYLINE
  5
2C3
100
AcDbEntity
  8
0
100
AcDbPolyline
 62
250
  6
CONTINUOUS
 90
33
 70
0
 10
94.6993487842
 20
75.9645408532
 10
94.6889878237
 20
76.0366417962
 10
94.6841730432
 20
76.0717145001
 10
94.6796384861
 20
76.1061120374
 10
94.6754079581
 20
76.139830765
 10
94.6714912172
 20
76.1729224324
 10
94.6678945097
 20
76.205452637
 10
94.6646240818
 20
76.2374869763
 10
94.661686733
 20
76.2690859182
 10
94.6590914752
 20
76.3002894133
 10
94.6568478741
 20
76.3311322827
 10
94.6549654949
 20
76.3616493476
 10
94.6534546033
 20
76.3918774977
 10
94.6523282664
 20
76.4218618969
 10
94.6516002516
 20
76.4516497775
 10
94.6512843263
 20
76.4812883721
 10
94.6513953853
 20
76.5108185934
 10
94.651952833
 20
76.5402560752
 10
94.6529772013
 20
76.5696101316
 10
94.6544890222
 20
76.5988900765
 10
94.6565093288
 20
76.6281029042
 10
94.6590611603
 20
76.6572463285
 10
94.6621680572
 20
76.6863157434
 10
94.6658535598
 20
76.715306543
 10
94.6701400743
 20
76.7442134655
 10
94.6750454696
 20
76.7730286264
 10
94.6805864798
 20
76.8017434857
 10
94.6867798395
 20
76.8303495032
 10
94.6922229823
 20
76.853147863
 10
94.6981480146
 20
76.8758526311
 10
94.7046086125
 20
76.8984453404
 10
94.7116584517
 20
76.9209075234
 10
94.7193512083
 20
76.943220713
  0
LINE
  5
2C4
100
AcDbEntity
  8
SMUSSO
100
AcDbLine
 62
7
  6
CONTINUOUS
 10
91.0085042429
 20
63.8476562504
 11
91.0085042429
 21
151.8476562504
  0
LINE
  5
2C5
100
AcDbEntity
  8
SMUSSO
100
AcDbLine
 62
7
  6
CONTINUOUS
 10
92.0085042429
 20
62.8476562504
 11
92.0085042429
 21
152.8476562504
  0
LINE
  5
2C6
100
AcDbEntity
  8
SMUSSO
100
AcDbLine
 62
7
  6
CONTINUOUS
 10
93.5085042429
 20
152.8476562504
 11
93.5085042429
 21
62.8476562504
  0
LINE
  5
2C7
100
AcDbEntity
  8
0
100
AcDbLine
 62
7
  6
CONTINUOUS
 10
97.0663724799
 20
64.3664770023
 11
97.0595478882
 21
64.5072495437
  0
LINE
  5
2C8
100
AcDbEntity
  8
ASSI
100
AcDbLine
 62
7
  6
CONTINUOUS
 10
97.0663724799
 20
64.3664770023
 11
97.0595478882
 21
64.5072495437
  0
LWPOLYLINE
  5
2C9
100
AcDbEntity
  8
0
100
AcDbPolyline
 62
250
  6
CONTINUOUS
 90
56
 70
0
 10
95.5223545072
 20
76.5730049063
 10
95.5219871648
 20
76.5846060637
 10
95.5214096171
 20
76.5959940691
 10
95.5206241511
 20
76.6071657852
 10
95.5196330539
 20
76.6181180751
 10
95.5184386123
 20
76.6288478016
 10
95.5170431135
 20
76.6393518277
 10
95.5154488445
 20
76.6496270162
 10
95.5136580922
 20
76.6596702301
 10
95.5116716001
 20
76.6694804232
 10
95.5094839381
 20
76.6790649134
 10
95.5070881322
 20
76.6884331093
 10
95.5044772087
 20
76.6975944198
 10
95.5016441937
 20
76.7065582537
 10
95.4985821136
 20
76.7153340196
 10
95.4952839945
 20
76.7239311264
 10
95.4917428626
 20
76.7323589829
 10
95.488384688
 20
76.739713875
 10
95.4848189746
 20
76.7469367492
 10
95.4810357038
 20
76.7540218821
 10
95.4770248572
 20
76.7609635503
 10
95.4727764163
 20
76.7677560305
 10
95.4682803624
 20
76.7743935994
 10
95.463526677
 20
76.7808705335
 10
95.4585053417
 20
76.7871811095
 10
95.4532063379
 20
76.7933196041
 10
95.448193919
 20
76.7986925695
 10
95.4429553991
 20
76.8039184221
 10
95.4374977037
 20
76.808994071
 10
95.4318277583
 20
76.8139164254
 10
95.4259524883
 20
76.8186823942
 10
95.4198797406
 20
76.82328882
 10
95.4136210478
 20
76.8277322793
 10
95.4071888636
 20
76.8320092818
 10
95.400595642
 20
76.8361163373
 10
95.3938538368
 20
76.8400499556
 10
95.3869728508
 20
76.843807795
 10
95.3799498827
 20
76.8473921077
 10
95.3727790803
 20
76.8508062945
 10
95.3654545911
 20
76.854053756
 10
95.3579705629
 20
76.8571378928
 10
95.3503227198
 20
76.860060988
 10
95.3425130923
 20
76.8628208531
 10
95.3345452871
 20
76.8654141819
 10
95.3264229111
 20
76.8678376684
 10
95.3181495711
 20
76.8700880062
 10
95.3097281389
 20
76.8721606115
 10
95.3011585451
 20
76.8740457886
 10
95.2924399854
 20
76.8757325641
 10
95.2835716553
 20
76.8772099647
 10
95.2745527503
 20
76.8784670169
 10
95.265382466
 20
76.8794927473
 10
95.2560599981
 20
76.8802761826
 10
95.246584542
 20
76.8808063493
 10
95.2369552932
 20
76.881072274
 10
95.2271714475
 20
76.8810629833
  0
LINE
  5
2CA
100
AcDbEntity
  8
SMUSSO
100
AcDbLine
 62
7
  6
CONTINUOUS
 10
94.0085042429
 20
152.3476562504
 11
94.0085042429
 21
63.3476562504
  0
LINE
  5
2CB
100
AcDbEntity
  8
0
100
AcDbLine
 62
7
  6
CONTINUOUS
 10
94.1585042429
 20
63.4970365622
 11
94.1585042429
 21
152.1982759387
  0
LINE
  5
2CC
100
AcDbEntity
  8
ASSI
100
AcDbLine
 62
7
  6
CONTINUOUS
 10
94.1585042429
 20
63.4970365622
 11
94.1585042429
 21
152.1982759387
  0
LINE
  5
2CD
100
AcDbEntity
  8
0
100
AcDbLine
 62
250
  6
CONTINUOUS
 10
94.6770382429
 20
71.6865152504
 11
94.6770382429
 21
72.0830872504
  0
LINE
  5
2CE
100
AcDbEntity
  8
0
100
AcDbLine
 62
250
  6
CONTINUOUS
 10
94.6771522429
 20
75.2651682504
 11
94.6771522429
 21
74.8815322504
  0
LINE
  5
2CF
100
AcDbEntity
  8
0
100
AcDbLine
 62
250
  6
CONTINUOUS
 10
94.6771522429
 20
74.0456902504
 11
94.6771522429
 21
73.6533202504
  0
LINE
  5
2D0
100
AcDbEntity
  8
0
100
AcDbLine
 62
250
  6
CONTINUOUS
 10
94.6771522429
 20
72.8643642504
 11
94.6771522429
 21
72.4681202504
  0
LINE
  5
2D1
100
AcDbEntity
  8
0
100
AcDbLine
 62
250
  6
CONTINUOUS
 10
94.6771522429
 20
71.5393462504
 11
94.6771522429
 21
71.1430452504
  0
LINE
  5
2D2
100
AcDbEntity
  8
0
100
AcDbLine
 62
250
  6
CONTINUOUS
 10
94.6771522429
 20
70.4076922504
 11
94.6771522429
 21
69.9768922504
  0
LINE
  5
2D3
100
AcDbEntity
  8
0
100
AcDbLine
 62
250
  6
CONTINUOUS
 10
95.5223545072
 20
76.3463677536
 11
95.5223545072
 21
76.5730049063
  0
LINE
  5
2D4
100
AcDbEntity
  8
0
100
AcDbLine
 62
250
  6
CONTINUOUS
 10
95.8335033264
 20
76.5721501019
 11
95.8335033264
 21
76.3595174953
  0
LINE
  5
2D5
100
AcDbEntity
  8
0
100
AcDbLine
 62
250
  6
CONTINUOUS
 10
95.9042382429
 20
75.2481292504
 11
95.9042382429
 21
74.8684392504
  0
LINE
  5
2D6
100
AcDbEntity
  8
0
100
AcDbLine
 62
250
  6
CONTINUOUS
 10
96.1977212429
 20
74.7873182504
 11
96.1977212429
 21
75.3273842504
  0
LINE
  5
2D7
100
AcDbEntity
  8
0
100
AcDbLine
 62
250
  6
CONTINUOUS
 10
96.5769979889
 20
77.3482698009
 11
96.5769979889
 21
76.9668133158
  0
LINE
  5
2D8
100
AcDbEntity
  8
0
100
AcDbLine
 62
250
  6
CONTINUOUS
 10
96.5769979889
 20
76.3595174953
 11
96.5769979889
 21
75.9645408532
  0
LINE
  5
2D9
100
AcDbEntity
  8
0
100
AcDbLine
 62
250
  6
CONTINUOUS
 10
96.5769982429
 20
72.0830872504
 11
96.5769982429
 21
71.6865152504
  0
LINE
  5
2DA
100
AcDbEntity
  8
0
100
AcDbLine
 62
250
  6
CONTINUOUS
 10
96.5769982429
 20
70.5791802504
 11
96.5769982429
 21
70.9286602504
  0
LINE
  5
2DB
100
AcDbEntity
  8
0
100
AcDbLine
 62
250
  6
CONTINUOUS
 10
96.5769982429
 20
72.2965752504
 11
96.5769982429
 21
72.6759652504
  0
LINE
  5
2DC
100
AcDbEntity
  8
0
100
AcDbLine
 62
250
  6
CONTINUOUS
 10
96.5769982429
 20
73.2267732504
 11
96.5769982429
 21
73.2823922504
  0
LINE
  5
2DD
100
AcDbEntity
  8
0
100
AcDbLine
 62
250
  6
CONTINUOUS
 10
96.5769982429
 20
73.8353942504
 11
96.5769982429
 21
74.2233472504
  0
LINE
  5
2DE
100
AcDbEntity
  8
0
100
AcDbLine
 62
250
  6
CONTINUOUS
 10
96.5769982429
 20
74.2856192504
 11
96.5769982429
 21
74.6778892504
  0
LINE
  5
2DF
100
AcDbEntity
  8
0
100
AcDbLine
 62
250
  6
CONTINUOUS
 10
96.5769982429
 20
75.4301172504
 11
96.5769982429
 21
75.8480882504
  0
LWPOLYLINE
  5
2E0
100
AcDbEntity
  8
0
100
AcDbPolyline
 62
7
  6
CONTINUOUS
 90
17
 70
0
 10
97.0742732836
 20
151.5329334733
 10
97.076222925
 20
151.5974469727
 10
97.077786624
 20
151.6593599582
 10
97.0789765731
 20
151.7185737839
 10
97.0797721624
 20
151.7751054752
 10
97.0801665221
 20
151.8288354754
 10
97.080166522
 20
151.8792564223
 10
97.0797721621
 20
151.9258369367
 10
97.0789765725
 20
151.9682283961
 10
97.077786623
 20
152.0064264877
 10
97.0762229238
 20
152.0404439513
 10
97.0742732825
 20
152.0701588604
 10
97.0719498914
 20
152.0952811582
 10
97.0693099377
 20
152.1155848169
 10
97.0663724838
 20
152.1309666748
 10
97.0631184673
 20
152.141391254
 10
97.0595478882
 20
152.1468213342
  0
LWPOLYLINE
  5
2E1
100
AcDbEntity
  8
ASSI
100
AcDbPolyline
 62
7
  6
CONTINUOUS
 90
17
 70
0
 10
97.0742732836
 20
151.5329334733
 10
97.076222925
 20
151.5974469727
 10
97.077786624
 20
151.6593599582
 10
97.0789765731
 20
151.7185737839
 10
97.0797721624
 20
151.7751054752
 10
97.0801665221
 20
151.8288354754
 10
97.080166522
 20
151.8792564223
 10
97.0797721621
 20
151.9258369367
 10
97.0789765725
 20
151.9682283961
 10
97.077786623
 20
152.0064264877
 10
97.0762229238
 20
152.0404439513
 10
97.0742732825
 20
152.0701588604
 10
97.0719498914
 20
152.0952811582
 10
97.0693099377
 20
152.1155848169
 10
97.0663724838
 20
152.1309666748
 10
97.0631184673
 20
152.141391254
 10
97.0595478882
 20
152.1468213342
  0
LINE
  5
2E2
100
AcDbEntity
  8
0
100
AcDbLine
 62
7
  6
CONTINUOUS
 10
97.0693099382
 20
151.3981300088
 11
97.0742732836
 21
151.5329334733
  0
LINE
  5
2E3
100
AcDbEntity
  8
ASSI
100
AcDbLine
 62
7
  6
CONTINUOUS
 10
97.0693099382
 20
151.3981300088
 11
97.0742732836
 21
151.5329334733
  0
LWPOLYLINE
  5
2E4
100
AcDbEntity
  8
0
100
AcDbPolyline
 62
7
  6
CONTINUOUS
 90
3
 70
0
 10
97.0595478882
 20
151.1880629572
 10
97.0631184674
 20
151.2586952813
 10
97.0693099382
 20
151.3981300088
  0
LWPOLYLINE
  5
2E5
100
AcDbEntity
  8
ASSI
100
AcDbPolyline
 62
7
  6
CONTINUOUS
 90
3
 70
0
 10
97.0595478882
 20
151.1880629572
 10
97.0631184674
 20
151.2586952813
 10
97.0693099382
 20
151.3981300088
  0
LINE
  5
2E6
100
AcDbEntity
  8
0
100
AcDbLine
 62
7
  6
CONTINUOUS
 10
97.0585042429
 20
151.1476562504
 11
97.0585042429
 21
64.5476562504
  0
LINE
  5
2E7
100
AcDbEntity
  8
ASSI
100
AcDbLine
 62
7
  6
CONTINUOUS
 10
97.0585042429
 20
151.1476562504
 11
97.0585042429
 21
64.5476562504
  0
LINE
  5
2E8
100
AcDbEntity
  8
0
100
AcDbLine
 62
7
  6
CONTINUOUS
 10
98.5585042429
 20
150.9476562504
 11
98.5585042429
 21
64.7476562504
  0
LINE
  5
2E9
100
AcDbEntity
  8
ASSI
100
AcDbLine
 62
7
  6
CONTINUOUS
 10
98.5585042429
 20
150.9476562504
 11
98.5585042429
 21
64.7476562504
  0
LINE
  5
2EA
100
AcDbEntity
  8
0
100
AcDbLine
 62
250
  6
CONTINUOUS
 10
99.4843416026
 20
80.6978785962
 11
99.4842768267
 21
80.9199770065
  0
LINE
  5
2EB
100
AcDbEntity
  8
ASSI
100
AcDbLine
 62
250
  6
CONTINUOUS
 10
99.4843416026
 20
80.6978785962
 11
99.4842768267
 21
80.9199770065
  0
LINE
  5
2EC
100
AcDbEntity
  8
0
100
AcDbLine
 62
250
  6
CONTINUOUS
 10
99.4842768267
 20
134.7753354944
 11
99.48434148
 21
134.9974321367
  0
LINE
  5
2ED
100
AcDbEntity
  8
ASSI
100
AcDbLine
 62
250
  6
CONTINUOUS
 10
99.4842768267
 20
134.7753354944
 11
99.48434148
 21
134.9974321367
  0
LWPOLYLINE
  5
2EE
100
AcDbEntity
  8
0
100
AcDbPolyline
 62
250
  6
CONTINUOUS
 90
4
 70
0
 10
100.4354482119
 20
134.4185703183
 10
100.4354157169
 20
134.4175917713
 10
100.4353756289
 20
134.4139102773
 10
100.4352925361
 20
134.3985766187
  0
LWPOLYLINE
  5
2EF
100
AcDbEntity
  8
ASSI
100
AcDbPolyline
 62
250
  6
CONTINUOUS
 90
4
 70
0
 10
100.4354482119
 20
134.4185703183
 10
100.4354157169
 20
134.4175917713
 10
100.4353756289
 20
134.4139102773
 10
100.4352925361
 20
134.3985766187
  0
LWPOLYLINE
  5
2F0
100
AcDbEntity
  8
0
100
AcDbPolyline
 62
7
  6
CONTINUOUS
 90
6
 70
0
 10
101.5585042429
 20
133.8379822834
 10
101.5576397609
 20
133.8278618996
 10
101.5550613268
 20
133.817998699
 10
101.5508023418
 20
133.8083926817
 10
101.5448893404
 20
133.7989463999
 10
101.5373944688
 20
133.7897573014
  0
LWPOLYLINE
  5
2F1
100
AcDbEntity
  8
ASSI
100
AcDbPolyline
 62
7
  6
CONTINUOUS
 90
6
 70
0
 10
101.5585042429
 20
133.8379822834
 10
101.5576397609
 20
133.8278618996
 10
101.5550613268
 20
133.817998699
 10
101.5508023418
 20
133.8083926817
 10
101.5448893404
 20
133.7989463999
 10
101.5373944688
 20
133.7897573014
  0
LWPOLYLINE
  5
2F2
100
AcDbEntity
  8
0
100
AcDbPolyline
 62
250
  6
CONTINUOUS
 90
24
 70
0
 10
94.9896249594
 20
76.6570363608
 10
94.9880367115
 20
76.6424210237
 10
94.9866623182
 20
76.6277902177
 10
94.985501292
 20
76.6131453693
 10
94.9845531451
 20
76.5984879056
 10
94.9838173897
 20
76.5838192533
 10
94.9832935383
 20
76.5691408392
 10
94.9829811031
 20
76.5544540902
 10
94.9828808267
 20
76.5415969032
 10
94.9829420782
 20
76.5287319873
 10
94.9831648935
 20
76.5158569027
 10
94.9835493084
 20
76.5029692096
 10
94.9840959704
 20
76.4900659729
 10
94.984807974
 20
76.4771422767
 10
94.9856890254
 20
76.4641927099
 10
94.9867428309
 20
76.4512118614
 10
94.9879712398
 20
76.4381961419
 10
94.9893686744
 20
76.4251492492
 10
94.9909277004
 20
76.4120767027
 10
94.9926408833
 20
76.3989840221
 10
94.9944995906
 20
76.3858743113
 10
94.9964903976
 20
76.3727410122
 10
94.9985986815
 20
76.3595751509
 10
95.0008098197
 20
76.3463677536
  0
LINE
  5
2F3
100
AcDbEntity
  8
0
100
AcDbLine
 62
250
  6
CONTINUOUS
 10
101.3689714342
 20
133.7276429181
 11
101.3689714342
 21
133.2287029696
  0
LINE
  5
2F4
100
AcDbEntity
  8
ASSI
100
AcDbLine
 62
250
  6
CONTINUOUS
 10
101.3689714342
 20
133.7276429181
 11
101.3689714342
 21
133.2287029696
  0
LINE
  5
2F5
100
AcDbEntity
  8
0
100
AcDbLine
 62
250
  6
CONTINUOUS
 10
101.3689714342
 20
82.4666095313
 11
101.3689714342
 21
82.0314460585
  0
LINE
  5
2F6
100
AcDbEntity
  8
ASSI
100
AcDbLine
 62
250
  6
CONTINUOUS
 10
101.3689714342
 20
82.4666095313
 11
101.3689714342
 21
82.0314460585
  0
LINE
  5
2F7
100
AcDbEntity
  8
0
100
AcDbLine
 62
7
  6
CONTINUOUS
 10
101.5585042429
 20
133.9360205908
 11
101.5585042429
 21
133.2476562504
  0
LINE
  5
2F8
100
AcDbEntity
  8
ASSI
100
AcDbLine
 62
7
  6
CONTINUOUS
 10
101.5585042429
 20
133.9360205908
 11
101.5585042429
 21
133.2476562504
  0
LINE
  5
2F9
100
AcDbEntity
  8
0
100
AcDbLine
 62
7
  6
CONTINUOUS
 10
101.5585042429
 20
82.4476562504
 11
101.5585042429
 21
81.7592919101
  0
LINE
  5
2FA
100
AcDbEntity
  8
ASSI
100
AcDbLine
 62
7
  6
CONTINUOUS
 10
101.5585042429
 20
82.4476562504
 11
101.5585042429
 21
81.7592919101
  0
LWPOLYLINE
  5
2FB
100
AcDbEntity
  8
0
100
AcDbPolyline
 62
7
  6
CONTINUOUS
 90
4
 70
0
 43
0.3500000006
 10
102.6297965698
 20
163.9548081665
 10
102.6297965698
 20
164.5976616211
 10
104.1297970276
 20
164.5976616211
 10
103.2726590881
 20
161.5976607056
  0
LWPOLYLINE
  5
2FC
100
AcDbEntity
  8
0
100
AcDbPolyline
 62
250
  6
CONTINUOUS
 90
4
 70
0
 10
100.5184945809
 20
81.319034913
 10
100.5185363436
 20
81.3200177661
 10
100.5185397039
 20
81.3237045132
 10
100.5183971588
 20
81.3390488024
  0
LWPOLYLINE
  5
2FD
100
AcDbEntity
  8
ASSI
100
AcDbPolyline
 62
250
  6
CONTINUOUS
 90
4
 70
0
 10
100.5184945809
 20
81.319034913
 10
100.5185363436
 20
81.3200177661
 10
100.5185397039
 20
81.3237045132
 10
100.5183971588
 20
81.3390488024
  0
LWPOLYLINE
  5
2FE
100
AcDbEntity
  8
0
100
AcDbPolyline
 62
7
  6
CONTINUOUS
 90
13
 70
0
 43
0.3500000006
 10
104.1827563477
 20
172.4548016968
 10
104.1827563477
 20
173.740508606
 10
104.3970498962
 20
174.1690775757
 10
104.825618866
 20
174.5976646729
 10
105.0399033508
 20
174.5976646729
 10
105.4684723206
 20
174.1690775757
 10
105.6827568054
 20
173.740508606
 10
105.6827568054
 20
172.4548016968
 10
105.4684723206
 20
172.0262327271
 10
105.0399033508
 20
171.5976637573
 10
104.825618866
 20
171.5976637573
 10
104.3970498962
 20
172.0262327271
 10
104.1827563477
 20
172.4548016968
  0
LWPOLYLINE
  5
2FF
100
AcDbEntity
  8
0
100
AcDbPolyline
 62
250
  6
CONTINUOUS
 90
81
 70
0
 10
94.7193512083
 20
76.943220713
 10
94.7247789944
 20
76.9571851052
 10
94.7309307794
 20
76.971039675
 10
94.7377986351
 20
76.9848312457
 10
94.7453771594
 20
76.9986051408
 10
94.7536710564
 20
77.0124006838
 10
94.7626875567
 20
77.0262556981
 10
94.772425451
 20
77.0401819316
 10
94.782849772
 20
77.0540868294
 10
94.7939171129
 20
77.067851761
 10
94.8055872309
 20
77.0813692019
 10
94.8178325411
 20
77.0945760526
 10
94.8306286226
 20
77.10742032
 10
94.8439505868
 20
77.1198534403
 10
94.857771673
 20
77.1318405682
 10
94.8720646529
 20
77.1433502881
 10
94.8868008922
 20
77.1543528798
 10
94.9019461332
 20
77.1648254048
 10
94.9174647124
 20
77.17474662
 10
94.9333174664
 20
77.1840939778
 10
94.9494512312
 20
77.1928397127
 10
94.9658093426
 20
77.2009547542
 10
94.9823250507
 20
77.2084134849
 10
94.9988912614
 20
77.2152040979
 10
95.0153907948
 20
77.2213182388
 10
95.0317301837
 20
77.2267569647
 10
95.0479108122
 20
77.2315589786
 10
95.0639577771
 20
77.235772395
 10
95.079882734
 20
77.2394424195
 10
95.0956435724
 20
77.2426026232
 10
95.1111847405
 20
77.2452836684
 10
95.1294827352
 20
77.2479104748
 10
95.1473890647
 20
77.2499376444
 10
95.1649083835
 20
77.2514113747
 10
95.1820453463
 20
77.2523778634
 10
95.1988046076
 20
77.2528833078
 10
95.2151915307
 20
77.252968643
 10
95.231214314
 20
77.2526537526
 10
95.2468818644
 20
77.2519532577
 10
95.262203089
 20
77.2508817791
 10
95.2771868948
 20
77.2494539379
 10
95.2954513688
 20
77.2471913906
 10
95.3131937963
 20
77.2444301192
 10
95.3304054302
 20
77.2412053708
 10
95.3470775235
 20
77.2375523926
 10
95.3632048135
 20
77.233505656
 10
95.3787959733
 20
77.229096529
 10
95.3938631602
 20
77.2243556035
 10
95.4084185315
 20
77.2193134719
 10
95.4224737299
 20
77.2139996701
 10
95.4360383401
 20
77.2084395095
 10
95.4491214324
 20
77.2026572455
 10
95.461732077
 20
77.1966771334
 10
95.4738792469
 20
77.1905222777
 10
95.4855715263
 20
77.1842111794
 10
95.4968174022
 20
77.1777611884
 10
95.5076253617
 20
77.171189655
 10
95.5213699947
 20
77.1622653369
 10
95.5343746447
 20
77.1531777436
 10
95.5466627587
 20
77.1439488307
 10
95.5582605345
 20
77.1346055665
 10
95.5692051725
 20
77.125194969
 10
95.5795366237
 20
77.1157690687
 10
95.5892967313
 20
77.1063764169
 10
95.598534908
 20
77.0970516492
 10
95.6073024585
 20
77.0878259218
 10
95.6135997936
 20
77.0809886721
 10
95.6196808504
 20
77.0742276512
 10
95.6255619168
 20
77.0675484285
 10
95.6312460714
 20
77.0609668774
 10
95.6367390952
 20
77.0544972274
 10
95.642070785
 20
77.0481368257
 10
95.6523479252
 20
77.0356162355
 10
95.65727773
 20
77.0293216803
 10
95.6619385722
 20
77.022985393
 10
95.6661957978
 20
77.0166231957
 10
95.6699636107
 20
77.0102354092
 10
95.6731726831
 20
77.003813306
 10
95.6757706993
 20
76.9973274662
 10
95.6777094874
 20
76.9907536287
 10
95.6789404354
 20
76.9841088591
  0
LWPOLYLINE
  5
300
100
AcDbEntity
  8
0
100
AcDbPolyline
 62
250
  6
CONTINUOUS
 90
41
 70
0
 10
95.6901668671
 20
76.9841088591
 10
95.6933044697
 20
76.991566854
 10
95.696703692
 20
76.9988685985
 10
95.7003617118
 20
77.0060202934
 10
95.7042757069
 20
77.0130281393
 10
95.7084428551
 20
77.0198983367
 10
95.7128603342
 20
77.0266370864
 10
95.7175228833
 20
77.0332482042
 10
95.7224154861
 20
77.039725968
 10
95.7275206879
 20
77.0460622709
 10
95.7328210336
 20
77.0522490061
 10
95.7382990684
 20
77.0582780667
 10
95.7439373373
 20
77.064141346
 10
95.7508932032
 20
77.070951246
 10
95.7580425725
 20
77.0775220032
 10
95.7653733469
 20
77.0838648738
 10
95.7728734277
 20
77.089991114
 10
95.7805307164
 20
77.09591198
 10
95.7883321142
 20
77.1016372361
 10
95.7962605213
 20
77.1071706782
 10
95.8042978378
 20
77.1125146104
 10
95.8124259637
 20
77.1176713367
 10
95.8206267989
 20
77.1226431611
 10
95.8309608236
 20
77.1286050378
 10
95.8413946687
 20
77.1343077322
 10
95.8519428271
 20
77.1397773712
 10
95.8626197922
 20
77.1450400816
 10
95.8734395975
 20
77.150119614
 10
95.8844144392
 20
77.1550302126
 10
95.8955560538
 20
77.1597837456
 10
95.9068761779
 20
77.1643920809
 10
95.9183876326
 20
77.1688662249
 10
95.9301075774
 20
77.1732137375
 10
95.9420542561
 20
77.1774413169
 10
95.9542459126
 20
77.1815556614
 10
95.9641883965
 20
77.1847714685
 10
95.9743117705
 20
77.1879306782
 10
95.984628463
 20
77.1910448762
 10
95.9951509023
 20
77.1941256486
 10
96.0058915164
 20
77.1971845812
 10
96.0168589644
 20
77.2002344739
  0
LINE
  5
301
100
AcDbEntity
  8
0
100
AcDbLine
 62
7
  6
CONTINUOUS
 10
98.8585042429
 20
82.6476562504
 11
99.0085042429
 21
82.7976562504
  0
LINE
  5
302
100
AcDbEntity
  8
ASSI
100
AcDbLine
 62
7
  6
CONTINUOUS
 10
98.8585042429
 20
82.6476562504
 11
99.0085042429
 21
82.7976562504
  0
LINE
  5
303
100
AcDbEntity
  8
RACCORDO
100
AcDbLine
 62
250
  6
CONTINUOUS
 10
94.1585042429
 20
128.8476562504
 11
94.0085042429
 21
128.8476562504
  0
LINE
  5
304
100
AcDbEntity
  8
0
100
AcDbLine
 62
7
  6
CONTINUOUS
 10
98.8585042429
 20
133.0476562504
 11
99.0085042429
 21
132.8976562504
  0
LINE
  5
305
100
AcDbEntity
  8
ASSI
100
AcDbLine
 62
7
  6
CONTINUOUS
 10
98.8585042429
 20
133.0476562504
 11
99.0085042429
 21
132.8976562504
  0
LINE
  5
306
100
AcDbEntity
  8
RACCORDO
100
AcDbLine
 62
7
  6
CONTINUOUS
 10
94.1585042429
 20
130.8476562504
 11
94.0085042429
 21
130.8476562504
  0
LWPOLYLINE
  5
307
100
AcDbEntity
  8
0
100
AcDbPolyline
 62
7
  6
CONTINUOUS
 90
19
 70
0
 10
97.0595478882
 20
63.5484911667
 10
97.0631184655
 20
63.5539212443
 10
97.06637248
 20
63.5643458128
 10
97.0693099317
 20
63.5797276461
 10
97.0719498823
 20
63.6000312507
 10
97.0742732701
 20
63.6251534655
 10
97.0762229103
 20
63.6548683029
 10
97.0777866121
 20
63.6888857409
 10
97.0789765663
 20
63.7270838507
 10
97.0797721595
 20
63.7694753699
 10
97.0801665205
 20
63.8160560098
 10
97.0801665204
 20
63.8664771399
 10
97.0797721593
 20
63.9202073107
 10
97.078976566
 20
63.9767391333
 10
97.0777866117
 20
64.0359530589
 10
97.0762229097
 20
64.0978660793
 10
97.0742732697
 20
64.1623794974
 10
97.071949882
 20
64.2290067263
 10
97.0663724799
 20
64.3664770023
  0
LWPOLYLINE
  5
308
100
AcDbEntity
  8
ASSI
100
AcDbPolyline
 62
7
  6
CONTINUOUS
 90
19
 70
0
 10
97.0595478882
 20
63.5484911667
 10
97.0631184655
 20
63.5539212443
 10
97.06637248
 20
63.5643458128
 10
97.0693099317
 20
63.5797276461
 10
97.0719498823
 20
63.6000312507
 10
97.0742732701
 20
63.6251534655
 10
97.0762229103
 20
63.6548683029
 10
97.0777866121
 20
63.6888857409
 10
97.0789765663
 20
63.7270838507
 10
97.0797721595
 20
63.7694753699
 10
97.0801665205
 20
63.8160560098
 10
97.0801665204
 20
63.8664771399
 10
97.0797721593
 20
63.9202073107
 10
97.078976566
 20
63.9767391333
 10
97.0777866117
 20
64.0359530589
 10
97.0762229097
 20
64.0978660793
 10
97.0742732697
 20
64.1623794974
 10
97.071949882
 20
64.2290067263
 10
97.0663724799
 20
64.3664770023
  0
LINE
  5
309
100
AcDbEntity
  8
0
100
AcDbLine
 62
250
  6
CONTINUOUS
 10
101.5585042423
 20
81.8069830797
 11
100.7554196323
 21
81.3778621369
  0
LINE
  5
30A
100
AcDbEntity
  8
ASSI
100
AcDbLine
 62
250
  6
CONTINUOUS
 10
101.5585042423
 20
81.8069830797
 11
100.7554196323
 21
81.3778621369
  0
LINE
  5
30B
100
AcDbEntity
  8
0
100
AcDbLine
 62
250
  6
CONTINUOUS
 10
99.4842768267
 20
80.9199770065
 11
100.2261760318
 21
81.3137903325
  0
LINE
  5
30C
100
AcDbEntity
  8
ASSI
100
AcDbLine
 62
250
  6
CONTINUOUS
 10
99.4842768267
 20
80.9199770065
 11
100.2261760318
 21
81.3137903325
  0
LINE
  5
30D
100
AcDbEntity
  8
0
100
AcDbLine
 62
7
  6
CONTINUOUS
 10
101.5585042429
 20
81.7592919101
 11
99.6235162047
 21
80.7321657589
  0
LINE
  5
30E
100
AcDbEntity
  8
ASSI
100
AcDbLine
 62
7
  6
CONTINUOUS
 10
101.5585042429
 20
81.7592919101
 11
99.6235162047
 21
80.7321657589
  0
LWPOLYLINE
  5
30F
100
AcDbEntity
  8
0
100
AcDbPolyline
 62
250
  6
CONTINUOUS
 90
12
 70
0
 10
100.7554196323
 20
81.3778621369
 10
100.7471794443
 20
81.3739498052
 10
100.7378529429
 20
81.3702037433
 10
100.727440128
 20
81.3666236366
 10
100.7159668311
 20
81.3632132114
 10
100.7034072207
 20
81.3599681575
 10
100.6896838024
 20
81.3568761459
 10
100.67474823
 20
81.3539068743
 10
100.6586488498
 20
81.3510902109
 10
100.6414532061
 20
81.3485040278
 10
100.6230725448
 20
81.3461340785
 10
100.6035956201
 20
81.3439941036
  0
LWPOLYLINE
  5
310
100
AcDbEntity
  8
ASSI
100
AcDbPolyline
 62
250
  6
CONTINUOUS
 90
12
 70
0
 10
100.7554196323
 20
81.3778621369
 10
100.7471794443
 20
81.3739498052
 10
100.7378529429
 20
81.3702037433
 10
100.727440128
 20
81.3666236366
 10
100.7159668311
 20
81.3632132114
 10
100.7034072207
 20
81.3599681575
 10
100.6896838024
 20
81.3568761459
 10
100.67474823
 20
81.3539068743
 10
100.6586488498
 20
81.3510902109
 10
100.6414532061
 20
81.3485040278
 10
100.6230725448
 20
81.3461340785
 10
100.6035956201
 20
81.3439941036
  0
LINE
  5
311
100
AcDbEntity
  8
0
100
AcDbLine
 62
250
  6
CONTINUOUS
 10
100.8457006507
 20
81.3809230542
 11
100.8418525525
 21
81.3789160625
  0
LINE
  5
312
100
AcDbEntity
  8
ASSI
100
AcDbLine
 62
250
  6
CONTINUOUS
 10
100.8457006507
 20
81.3809230542
 11
100.8418525525
 21
81.3789160625
  0
LWPOLYLINE
  5
313
100
AcDbEntity
  8
0
100
AcDbPolyline
 62
250
  6
CONTINUOUS
 90
9
 70
0
 10
100.8369316134
 20
81.376841218
 10
100.8277325114
 20
81.3736740489
 10
100.8181498845
 20
81.3714375716
 10
100.808232191
 20
81.3701430896
 10
100.7980296317
 20
81.3697971634
 10
100.7875938805
 20
81.3704015676
 10
100.7769777368
 20
81.3719532389
 10
100.7662348753
 20
81.3744443017
 10
100.7554196323
 20
81.3778621369
  0
LWPOLYLINE
  5
314
100
AcDbEntity
  8
ASSI
100
AcDbPolyline
 62
250
  6
CONTINUOUS
 90
9
 70
0
 10
100.8369316134
 20
81.376841218
 10
100.8277325114
 20
81.3736740489
 10
100.8181498845
 20
81.3714375716
 10
100.808232191
 20
81.3701430896
 10
100.7980296317
 20
81.3697971634
 10
100.7875938805
 20
81.3704015676
 10
100.7769777368
 20
81.3719532389
 10
100.7662348753
 20
81.3744443017
 10
100.7554196323
 20
81.3778621369
  0
LINE
  5
315
100
AcDbEntity
  8
0
100
AcDbLine
 62
7
  6
CONTINUOUS
 10
99.6081323408
 20
133.0526190602
 11
101.5585042429
 21
133.2476562504
  0
LINE
  5
316
100
AcDbEntity
  8
ASSI
100
AcDbLine
 62
7
  6
CONTINUOUS
 10
99.6081323408
 20
133.0526190602
 11
101.5585042429
 21
133.2476562504
  0
LINE
  5
317
100
AcDbEntity
  8
0
100
AcDbLine
 62
7
  6
CONTINUOUS
 10
98.5585042429
 20
133.603476125
 11
101.3689714342
 21
133.7276429181
  0
LINE
  5
318
100
AcDbEntity
  8
ASSI
100
AcDbLine
 62
7
  6
CONTINUOUS
 10
98.5585042429
 20
133.603476125
 11
101.3689714342
 21
133.7276429181
  0
LINE
  5
319
100
AcDbEntity
  8
0
100
AcDbLine
 62
7
  6
CONTINUOUS
 10
98.5585042429
 20
132.8976562504
 11
98.7085042429
 21
132.8976562504
  0
LINE
  5
31A
100
AcDbEntity
  8
ASSI
100
AcDbLine
 62
7
  6
CONTINUOUS
 10
98.5585042429
 20
132.8976562504
 11
98.7085042429
 21
132.8976562504
  0
LINE
  5
31B
100
AcDbEntity
  8
0
100
AcDbLine
 62
7
  6
CONTINUOUS
 10
99.0085042429
 20
132.8976562504
 11
99.2085042429
 21
132.8976562504
  0
LINE
  5
31C
100
AcDbEntity
  8
ASSI
100
AcDbLine
 62
7
  6
CONTINUOUS
 10
99.0085042429
 20
132.8976562504
 11
99.2085042429
 21
132.8976562504
  0
LINE
  5
31D
100
AcDbEntity
  8
0
100
AcDbLine
 62
7
  6
CONTINUOUS
 10
98.5585042429
 20
133.0476562504
 11
99.5086286218
 21
133.0476562504
  0
LINE
  5
31E
100
AcDbEntity
  8
ASSI
100
AcDbLine
 62
7
  6
CONTINUOUS
 10
98.5585042429
 20
133.0476562504
 11
99.5086286218
 21
133.0476562504
  0
LINE
  5
31F
100
AcDbEntity
  8
RACCORDO
100
AcDbLine
 62
250
  6
CONTINUOUS
 10
94.0085042429
 20
133.8476562504
 11
94.1585042429
 21
133.8476562504
  0
LINE
  5
320
100
AcDbEntity
  8
RACCORDO
100
AcDbLine
 62
7
  6
CONTINUOUS
 10
94.1585042429
 20
134.8476562504
 11
94.0085042429
 21
134.8476562504
  0
LINE
  5
321
100
AcDbEntity
  8
0
100
AcDbLine
 62
250
  6
CONTINUOUS
 10
99.4842768267
 20
134.7753354944
 11
98.5585042429
 21
134.7757536889
  0
LINE
  5
322
100
AcDbEntity
  8
ASSI
100
AcDbLine
 62
250
  6
CONTINUOUS
 10
99.4842768267
 20
134.7753354944
 11
98.5585042429
 21
134.7757536889
  0
LINE
  5
323
100
AcDbEntity
  8
0
100
AcDbLine
 62
250
  6
CONTINUOUS
 10
98.5585042429
 20
134.4000398256
 11
100.4352925361
 21
134.3985766187
  0
LINE
  5
324
100
AcDbEntity
  8
ASSI
100
AcDbLine
 62
250
  6
CONTINUOUS
 10
98.5585042429
 20
134.4000398256
 11
100.4352925361
 21
134.3985766187
  0
LINE
  5
325
100
AcDbEntity
  8
0
100
AcDbLine
 62
7
  6
CONTINUOUS
 10
100.4354482079
 20
134.4185703183
 11
98.5585042429
 21
134.4200237256
  0
LINE
  5
326
100
AcDbEntity
  8
ASSI
100
AcDbLine
 62
7
  6
CONTINUOUS
 10
100.4354482079
 20
134.4185703183
 11
98.5585042429
 21
134.4200237256
  0
LINE
  5
327
100
AcDbEntity
  8
0
100
AcDbLine
 62
7
  6
CONTINUOUS
 10
99.4843414408
 20
134.9977856891
 11
98.5585042429
 21
134.9994015815
  0
LINE
  5
328
100
AcDbEntity
  8
ASSI
100
AcDbLine
 62
7
  6
CONTINUOUS
 10
99.4843414408
 20
134.9977856891
 11
98.5585042429
 21
134.9994015815
  0
LWPOLYLINE
  5
329
100
AcDbEntity
  8
0
100
AcDbPolyline
 62
250
  6
CONTINUOUS
 90
3
 70
0
 10
100.4352925361
 20
134.3985766187
 10
100.4531324387
 20
134.3983586863
 10
100.4704324786
 20
134.3978929049
  0
LWPOLYLINE
  5
32A
100
AcDbEntity
  8
ASSI
100
AcDbPolyline
 62
250
  6
CONTINUOUS
 90
3
 70
0
 10
100.4352925361
 20
134.3985766187
 10
100.4531324387
 20
134.3983586863
 10
100.4704324786
 20
134.3978929049
  0
LWPOLYLINE
  5
32B
100
AcDbEntity
  8
0
100
AcDbPolyline
 62
250
  6
CONTINUOUS
 90
5
 70
0
 10
100.4704324786
 20
134.3978929049
 10
100.4871926559
 20
134.3971792186
 10
100.5034937384
 20
134.3961892842
 10
100.5192549583
 20
134.3949512339
 10
100.5342340121
 20
134.3935497314
  0
LWPOLYLINE
  5
32C
100
AcDbEntity
  8
ASSI
100
AcDbPolyline
 62
250
  6
CONTINUOUS
 90
5
 70
0
 10
100.4704324786
 20
134.3978929049
 10
100.4871926559
 20
134.3971792186
 10
100.5034937384
 20
134.3961892842
 10
100.5192549583
 20
134.3949512339
 10
100.5342340121
 20
134.3935497314
  0
LWPOLYLINE
  5
32D
100
AcDbEntity
  8
0
100
AcDbPolyline
 62
250
  6
CONTINUOUS
 90
13
 70
0
 10
100.5342340121
 20
134.3935497314
 10
100.5483115219
 20
134.3920010964
 10
100.5616068657
 20
134.3902887854
 10
100.5742358738
 20
134.3884482268
 10
100.586135275
 20
134.3865140798
 10
100.5973683406
 20
134.3844514747
 10
100.6082407146
 20
134.3821914957
 10
100.6189253813
 20
134.3797283492
 10
100.6292493565
 20
134.3770673798
 10
100.6389993308
 20
134.3741562162
 10
100.6481042014
 20
134.3709771295
 10
100.6566350711
 20
134.3675471075
 10
100.6645919401
 20
134.3638657427
  0
LWPOLYLINE
  5
32E
100
AcDbEntity
  8
ASSI
100
AcDbPolyline
 62
250
  6
CONTINUOUS
 90
13
 70
0
 10
100.5342340121
 20
134.3935497314
 10
100.5483115219
 20
134.3920010964
 10
100.5616068657
 20
134.3902887854
 10
100.5742358738
 20
134.3884482268
 10
100.586135275
 20
134.3865140798
 10
100.5973683406
 20
134.3844514747
 10
100.6082407146
 20
134.3821914957
 10
100.6189253813
 20
134.3797283492
 10
100.6292493565
 20
134.3770673798
 10
100.6389993308
 20
134.3741562162
 10
100.6481042014
 20
134.3709771295
 10
100.6566350711
 20
134.3675471075
 10
100.6645919401
 20
134.3638657427
  0
LWPOLYLINE
  5
32F
100
AcDbEntity
  8
0
100
AcDbPolyline
 62
250
  6
CONTINUOUS
 90
10
 70
0
 10
100.7583634409
 20
134.3607495949
 10
100.7492324907
 20
134.3649997365
 10
100.7396554227
 20
134.3682963717
 10
100.7296827156
 20
134.3706221254
 10
100.7193669332
 20
134.3719647397
 10
100.7087624476
 20
134.3723171385
 10
100.6979251524
 20
134.3716774651
 10
100.6869121682
 20
134.3700490915
 10
100.6757815419
 20
134.367440601
 10
100.6645919401
 20
134.3638657427
  0
LWPOLYLINE
  5
330
100
AcDbEntity
  8
ASSI
100
AcDbPolyline
 62
250
  6
CONTINUOUS
 90
10
 70
0
 10
100.7583634409
 20
134.3607495949
 10
100.7492324907
 20
134.3649997365
 10
100.7396554227
 20
134.3682963717
 10
100.7296827156
 20
134.3706221254
 10
100.7193669332
 20
134.3719647397
 10
100.7087624476
 20
134.3723171385
 10
100.6979251524
 20
134.3716774651
 10
100.6869121682
 20
134.3700490915
 10
100.6757815419
 20
134.367440601
 10
100.6645919401
 20
134.3638657427
  0
LWPOLYLINE
  5
331
100
AcDbEntity
  8
0
100
AcDbPolyline
 62
7
  6
CONTINUOUS
 90
15
 70
0
 10
100.7582483075
 20
134.3608103616
 10
100.7506025227
 20
134.3647244463
 10
100.7296949044
 20
134.3741231448
 10
100.7076612912
 20
134.3822880103
 10
100.6852506718
 20
134.3891944544
 10
100.6625197252
 20
134.3950651003
 10
100.638995861
 20
134.4001643836
 10
100.614693282
 20
134.404580708
 10
100.5895339131
 20
134.4083802246
 10
100.563472318
 20
134.411596003
 10
100.5367882656
 20
134.4142105469
 10
100.5095451063
 20
134.4162265931
 10
100.4816678858
 20
134.4176415719
 10
100.4533043916
 20
134.4184223733
 10
100.4354482685
 20
134.4185703151
  0
LWPOLYLINE
  5
332
100
AcDbEntity
  8
ASSI
100
AcDbPolyline
 62
7
  6
CONTINUOUS
 90
15
 70
0
 10
100.7582483075
 20
134.3608103616
 10
100.7506025227
 20
134.3647244463
 10
100.7296949044
 20
134.3741231448
 10
100.7076612912
 20
134.3822880103
 10
100.6852506718
 20
134.3891944544
 10
100.6625197252
 20
134.3950651003
 10
100.638995861
 20
134.4001643836
 10
100.614693282
 20
134.404580708
 10
100.5895339131
 20
134.4083802246
 10
100.563472318
 20
134.411596003
 10
100.5367882656
 20
134.4142105469
 10
100.5095451063
 20
134.4162265931
 10
100.4816678858
 20
134.4176415719
 10
100.4533043916
 20
134.4184223733
 10
100.4354482685
 20
134.4185703151
  0
LINE
  5
333
100
AcDbEntity
  8
0
100
AcDbLine
 62
250
  6
CONTINUOUS
 10
100.1559738679
 20
134.4187867286
 11
99.4842768267
 21
134.7753354944
  0
LINE
  5
334
100
AcDbEntity
  8
ASSI
100
AcDbLine
 62
250
  6
CONTINUOUS
 10
100.1559738679
 20
134.4187867286
 11
99.4842768267
 21
134.7753354944
  0
LINE
  5
335
100
AcDbEntity
  8
0
100
AcDbLine
 62
7
  6
CONTINUOUS
 10
99.6235162047
 20
134.963146742
 11
101.5585042429
 21
133.9360205908
  0
LINE
  5
336
100
AcDbEntity
  8
ASSI
100
AcDbLine
 62
7
  6
CONTINUOUS
 10
99.6235162047
 20
134.963146742
 11
101.5585042429
 21
133.9360205908
  0
LINE
  5
337
100
AcDbEntity
  8
0
100
AcDbLine
 62
250
  6
CONTINUOUS
 10
100.6645919401
 20
134.3638657427
 11
101.5585042429
 21
133.8861222149
  0
LINE
  5
338
100
AcDbEntity
  8
ASSI
100
AcDbLine
 62
250
  6
CONTINUOUS
 10
100.6645919401
 20
134.3638657427
 11
101.5585042429
 21
133.8861222149
  0
LINE
  5
339
100
AcDbEntity
  8
SMUSSO
100
AcDbLine
 62
7
  6
CONTINUOUS
 10
94.0085042429
 20
63.3476562504
 11
93.5085042429
 21
62.8476562504
  0
LWPOLYLINE
  5
33A
100
AcDbEntity
  8
0
100
AcDbPolyline
 62
250
  6
CONTINUOUS
 90
48
 70
0
 10
96.000703256
 20
76.7933271208
 10
95.994404191
 20
76.7908800557
 10
95.9882392613
 20
76.788329009
 10
95.9821951123
 20
76.7856713804
 10
95.97625839
 20
76.7829045695
 10
95.97041574
 20
76.7800259761
 10
95.9646538079
 20
76.7770329998
 10
95.9578328417
 20
76.7732883204
 10
95.9511194477
 20
76.7693799255
 10
95.9445241942
 20
76.7653125553
 10
95.9380576497
 20
76.76109095
 10
95.9317303825
 20
76.7567198501
 10
95.926570531
 20
76.7529657327
 10
95.92151398
 20
76.7491092947
 10
95.9165599703
 20
76.7451487394
 10
95.9117094113
 20
76.741083678
 10
95.9069698872
 20
76.7369193526
 10
95.9023506508
 20
76.7326624131
 10
95.8978596167
 20
76.728318048
 10
95.893499347
 20
76.7238855995
 10
95.8892710656
 20
76.7193629482
 10
95.8851759963
 20
76.7147479747
 10
95.8812153632
 20
76.7100385598
 10
95.8773903901
 20
76.7052325841
 10
95.8737032485
 20
76.700328905
 10
95.8701599005
 20
76.6953302866
 10
95.8667672558
 20
76.6902404699
 10
95.8635322241
 20
76.6850631958
 10
95.860461715
 20
76.6798022052
 10
95.8575626383
 20
76.6744612391
 10
95.8548404387
 20
76.6690449997
 10
95.8522947013
 20
76.6635620353
 10
95.8499235462
 20
76.6580218556
 10
95.8477250937
 20
76.6524339703
 10
95.8456974638
 20
76.6468078889
 10
95.8438387767
 20
76.6411531214
 10
95.8421467645
 20
76.6354781588
 10
95.8406176066
 20
76.6297874193
 10
95.8392470943
 20
76.6240843026
 10
95.8380310189
 20
76.6183722084
 10
95.8369651717
 20
76.6126545363
 10
95.8360453441
 20
76.606934686
 10
95.8352680044
 20
76.6012132326
 10
95.8346323285
 20
76.5954794525
 10
95.8341381697
 20
76.5897197976
 10
95.8337853811
 20
76.5839207196
 10
95.8335738156
 20
76.5780686705
 10
95.8335033264
 20
76.5721501019
  0
LWPOLYLINE
  5
33B
100
AcDbEntity
  8
0
100
AcDbPolyline
 62
250
  6
CONTINUOUS
 90
8
 70
0
 10
96.1811059431
 20
76.8523216472
 10
96.1544685603
 20
76.844429643
 10
96.1281006838
 20
76.8364120593
 10
96.1020148629
 20
76.8282375143
 10
96.0762236466
 20
76.8198746264
 10
96.0507395841
 20
76.8112920138
 10
96.0255752244
 20
76.8024582949
 10
96.0007431168
 20
76.7933420879
  0
LINE
  5
33C
100
AcDbEntity
  8
0
100
AcDbLine
 62
250
  6
CONTINUOUS
 10
96.5424193089
 20
76.9568172059
 11
96.3740217325
 21
76.9075291921
  0
LINE
  5
33D
100
AcDbEntity
  8
0
100
AcDbLine
 62
250
  6
CONTINUOUS
 10
96.5769979889
 20
76.9668133158
 11
96.5424193089
 21
76.9568172059
  0
LINE
  5
33E
100
AcDbEntity
  8
0
100
AcDbLine
 62
250
  6
CONTINUOUS
 10
96.3740217325
 20
76.9075291921
 11
96.3085803191
 21
76.8887305172
  0
LINE
  5
33F
100
AcDbEntity
  8
RACCORDO
100
AcDbLine
 62
250
  6
CONTINUOUS
 10
94.1585042429
 20
136.8476562504
 11
94.0085042429
 21
136.8476562504
  0
LINE
  5
340
100
AcDbEntity
  8
SMUSSO
100
AcDbLine
 62
7
  6
CONTINUOUS
 10
94.0085042429
 20
152.3476562504
 11
93.5085042429
 21
152.8476562504
  0
LINE
  5
341
100
AcDbEntity
  8
0
100
AcDbLine
 62
250
  6
CONTINUOUS
 10
95.3364342429
 20
72.7615462504
 11
96.5769982429
 21
73.2267732504
  0
LINE
  5
342
100
AcDbEntity
  8
0
100
AcDbLine
 62
250
  6
CONTINUOUS
 10
95.7319522429
 20
73.2567482504
 11
94.6771522429
 21
72.8643642504
  0
LINE
  5
343
100
AcDbEntity
  8
0
100
AcDbLine
 62
250
  6
CONTINUOUS
 10
96.5769982429
 20
75.8480882504
 11
94.6771522429
 21
75.2651682504
  0
LWPOLYLINE
  5
344
100
AcDbEntity
  8
0
100
AcDbPolyline
 62
7
  6
CONTINUOUS
 90
10
 70
0
 43
0.3500000006
 10
105.6297974854
 20
162.0976517944
 10
105.7012286682
 20
161.9548075562
 10
105.7012286682
 20
161.8833673096
 10
105.5583663025
 20
161.7405049438
 10
105.4869441833
 20
161.7405049438
 10
105.4155130005
 20
161.8119451904
 10
105.4155130005
 20
161.8833673096
 10
105.4869441833
 20
162.0262296753
 10
105.5583663025
 20
162.0976517944
 10
105.6297974854
 20
162.0976517944
  0
LINE
  5
345
100
AcDbEntity
  8
0
100
AcDbLine
 62
7
  6
CONTINUOUS
 10
97.0591353734
 20
63.5481611548
 11
98.5585042429
 21
64.7476562504
  0
LINE
  5
346
100
AcDbEntity
  8
ASSI
100
AcDbLine
 62
7
  6
CONTINUOUS
 10
97.0595478882
 20
63.5484911667
 11
98.5585042429
 21
64.7476562504
  0
LINE
  5
347
100
AcDbEntity
  8
0
100
AcDbLine
 62
250
  6
CONTINUOUS
 10
94.6771522429
 20
69.9768922504
 11
96.5769982429
 21
70.5791802504
  0
LINE
  5
348
100
AcDbEntity
  8
0
100
AcDbLine
 62
7
  6
CONTINUOUS
 10
97.0595478882
 20
152.1468213342
 11
98.5585042429
 21
150.9476562504
  0
LINE
  5
349
100
AcDbEntity
  8
ASSI
100
AcDbLine
 62
7
  6
CONTINUOUS
 10
97.0595478882
 20
152.1468213342
 11
98.5585042429
 21
150.9476562504
  0
LINE
  5
34A
100
AcDbEntity
  8
RACCORDO
100
AcDbLine
 62
250
  6
CONTINUOUS
 10
94.1585042429
 20
145.8476562504
 11
94.0085042429
 21
145.8476562504
  0
LWPOLYLINE
  5
34B
100
AcDbEntity
  8
0
100
AcDbPolyline
 62
7
  6
CONTINUOUS
 90
10
 70
0
 43
0.3500000006
 10
107.1827572632
 20
172.0976548462
 10
107.254188446
 20
171.9547924805
 10
107.254188446
 20
171.8833703613
 10
107.111335144
 20
171.7405079956
 10
107.0399039612
 20
171.7405079956
 10
106.9684727783
 20
171.8119482422
 10
106.9684727783
 20
171.8833703613
 10
107.0399039612
 20
172.0262327271
 10
107.111335144
 20
172.0976548462
 10
107.1827572632
 20
172.0976548462
  0
LINE
  5
34C
100
AcDbEntity
  8
RACCORDO
100
AcDbLine
 62
7
  6
CONTINUOUS
 10
94.1585042429
 20
147.8476562504
 11
94.0085042429
 21
147.8476562504
  0
LINE
  5
34D
100
AcDbEntity
  8
0
100
AcDbLine
 62
250
  6
CONTINUOUS
 10
94.1585042429
 20
151.1476562504
 11
97.0585042429
 21
151.1476562504
  0
LINE
  5
34E
100
AcDbEntity
  8
ASSI
100
AcDbLine
 62
250
  6
CONTINUOUS
 10
94.1585042429
 20
151.1476562504
 11
97.0585042429
 21
151.1476562504
  0
LINE
  5
34F
100
AcDbEntity
  8
SMUSSO
100
AcDbLine
 62
250
  6
CONTINUOUS
 10
91.0085042429
 20
151.8476562504
 11
94.0085042429
 21
151.8476562504
  0
LINE
  5
350
100
AcDbEntity
  8
SMUSSO
100
AcDbLine
 62
7
  6
CONTINUOUS
 10
92.0085042429
 20
152.8476562504
 11
93.5085042429
 21
152.8476562504
  0
LWPOLYLINE
  5
351
100
AcDbEntity
  8
0
100
AcDbPolyline
 62
7
  6
CONTINUOUS
 90
8
 70
0
 43
0.3500000006
 10
106.7012289734
 20
161.5976607056
 10
107.5583669128
 20
161.5976607056
 10
107.9869449463
 20
162.0262296753
 10
107.9869449463
 20
162.8833676147
 10
107.5583669128
 20
163.3119365845
 10
106.7012289734
 20
163.3119365845
 10
106.7012289734
 20
164.5976616211
 10
107.9869449463
 20
164.5976616211
  0
LWPOLYLINE
  5
352
100
AcDbEntity
  8
0
100
AcDbPolyline
 62
7
  6
CONTINUOUS
 90
8
 70
0
 43
0.3500000006
 10
108.8440828857
 20
161.5976607056
 10
109.7012298889
 20
161.5976607056
 10
110.1297988586
 20
162.0262296753
 10
110.1297988586
 20
162.8833676147
 10
109.7012298889
 20
163.3119365845
 10
108.8440828857
 20
163.3119365845
 10
108.8440828857
 20
164.5976616211
 10
110.1297988586
 20
164.5976616211
  0
LWPOLYLINE
  5
353
100
AcDbEntity
  8
0
100
AcDbPolyline
 62
7
  6
CONTINUOUS
 90
8
 70
0
 43
0.3500000006
 10
108.2541887512
 20
171.5976637573
 10
109.1113357544
 20
171.5976637573
 10
109.5399047241
 20
172.0262327271
 10
109.5399047241
 20
172.8833706665
 10
109.1113357544
 20
173.3119396362
 10
108.2541887512
 20
173.3119396362
 10
108.2541887512
 20
174.5976646729
 10
109.5399047241
 20
174.5976646729
  0
LWPOLYLINE
  5
354
100
AcDbEntity
  8
0
100
AcDbPolyline
 62
7
  6
CONTINUOUS
 90
8
 70
0
 43
0.3500000006
 10
110.3970426636
 20
171.5976637573
 10
111.2541896667
 20
171.5976637573
 10
111.6827586365
 20
172.0262327271
 10
111.6827586365
 20
172.8833706665
 10
111.2541896667
 20
173.3119396362
 10
110.3970426636
 20
173.3119396362
 10
110.3970426636
 20
174.5976646729
 10
111.6827586365
 20
174.5976646729
  0
LINE
  5
355
100
AcDbEntity
  8
0
100
AcDbLine
 62
7
  6
CONTINUOUS
 10
94.1585042429
 20
152.1982759387
 11
97.0585042429
 21
152.1476562504
  0
LINE
  5
356
100
AcDbEntity
  8
ASSI
100
AcDbLine
 62
7
  6
CONTINUOUS
 10
94.1585042429
 20
152.1982759387
 11
97.0585042429
 21
152.1476562504
  0
LINE
  5
357
100
AcDbEntity
  8
0
100
AcDbLine
 62
250
  6
CONTINUOUS
 10
97.0595478882
 20
151.1880629572
 11
98.5585042429
 21
150.8859665786
  0
LINE
  5
358
100
AcDbEntity
  8
ASSI
100
AcDbLine
 62
250
  6
CONTINUOUS
 10
97.0595478882
 20
151.1880629572
 11
98.5585042429
 21
150.8859665786
  0
ARC
  5
359
100
AcDbEntity
  8
RACCORDO
100
AcDbCircle
 62
7
  6
CONTINUOUS
 10
158.5324218746
 20
86.4476562504
 40
1.2
100
AcDbArc
 50
180.0
 51
270.0
  0
ARC
  5
35A
100
AcDbEntity
  8
RACCORDO
100
AcDbCircle
 62
7
  6
CONTINUOUS
 10
201.3324218746
 20
86.4476562504
 40
1.2
100
AcDbArc
 50
270.0
 51
360.0
  0
ARC
  5
35B
100
AcDbEntity
  8
RACCORDO
100
AcDbCircle
 62
7
  6
CONTINUOUS
 10
201.3324218746
 20
129.2476562504
 40
1.2
100
AcDbArc
 50
0.0
 51
90.0
  0
ARC
  5
35C
100
AcDbEntity
  8
RACCORDO
100
AcDbCircle
 62
7
  6
CONTINUOUS
 10
158.5324218746
 20
129.2476562504
 40
1.2
100
AcDbArc
 50
90.0
 51
180.0
  0
ARC
  5
35D
100
AcDbEntity
  8
SMUSSO
100
AcDbCircle
 62
7
  6
CONTINUOUS
 10
135.9324218746
 20
151.8476562504
 40
1.0
100
AcDbArc
 50
90.0
 51
180.0
  0
ARC
  5
35E
100
AcDbEntity
  8
SMUSSO
100
AcDbCircle
 62
7
  6
CONTINUOUS
 10
135.9324218746
 20
63.8476562504
 40
1.0
100
AcDbArc
 50
180.0
 51
270.0
  0
ARC
  5
35F
100
AcDbEntity
  8
SMUSSO
100
AcDbCircle
 62
7
  6
CONTINUOUS
 10
223.9324218746
 20
63.8476562504
 40
1.0
100
AcDbArc
 50
270.0
 51
360.0
  0
ARC
  5
360
100
AcDbEntity
  8
SMUSSO
100
AcDbCircle
 62
7
  6
CONTINUOUS
 10
223.9324218746
 20
151.8476562504
 40
1.0
100
AcDbArc
 50
0.0
 51
90.0
  0
ARC
  5
361
100
AcDbEntity
  8
0
100
AcDbCircle
 62
7
  6
CONTINUOUS
 10
99.5086286218
 20
134.0476562504
 40
1.0
100
AcDbArc
 50
270.0
 51
275.7105931375
  0
ARC
  5
362
100
AcDbEntity
  8
0
100
AcDbCircle
 62
7
  6
CONTINUOUS
 10
99.5086286218
 20
81.6476562504
 40
1.0
100
AcDbArc
 50
84.2894068625
 51
90.0
  0
ARC
  5
363
100
AcDbEntity
  8
ASSI
100
AcDbCircle
 62
7
  6
CONTINUOUS
 10
99.5086286218
 20
134.0476562504
 40
1.0
100
AcDbArc
 50
270.0
 51
275.7105931375
  0
ARC
  5
364
100
AcDbEntity
  8
ASSI
100
AcDbCircle
 62
7
  6
CONTINUOUS
 10
99.5086286218
 20
81.6476562504
 40
1.0
100
AcDbArc
 50
84.2894068625
 51
90.0
  0
ARC
  5
365
100
AcDbEntity
  8
0
100
AcDbCircle
 62
7
  6
CONTINUOUS
 10
99.4838176146
 20
80.9976567793
 40
0.3
100
AcDbArc
 50
270.1000001427
 51
297.9489527925
  0
ARC
  5
366
100
AcDbEntity
  8
0
100
AcDbCircle
 62
7
  6
CONTINUOUS
 10
99.4838176146
 20
134.6976557216
 40
0.3
100
AcDbArc
 50
62.0510472075
 51
89.8999998573
  0
ARC
  5
367
100
AcDbEntity
  8
ASSI
100
AcDbCircle
 62
7
  6
CONTINUOUS
 10
99.4838176146
 20
80.9976567793
 40
0.3
100
AcDbArc
 50
270.1000001427
 51
297.9489527925
  0
ARC
  5
368
100
AcDbEntity
  8
ASSI
100
AcDbCircle
 62
7
  6
CONTINUOUS
 10
99.4838176146
 20
134.6976557216
 40
0.3
100
AcDbArc
 50
62.0510472075
 51
89.8999998573
  0
ELLIPSE
  5
369
100
AcDbEntity
  8
0
100
AcDbEllipse
 62
7
  6
CONTINUOUS
 10
98.2818130741
 20
151.1476562504
 30
0.0
 11
1.2233088312
 21
-0.0
 31
0.0
 40
0.7998095528
 41
3.1002827401
 42
3.1415926536
  0
ELLIPSE
  5
36A
100
AcDbEntity
  8
0
100
AcDbEllipse
 62
7
  6
CONTINUOUS
 10
98.2818130741
 20
64.5476562504
 30
0.0
 11
1.2233088312
 21
0.0
 31
0.0
 40
0.7998095528
 41
-3.1415926536
 42
-3.1002827401
  0
ELLIPSE
  5
36B
100
AcDbEntity
  8
0
100
AcDbEllipse
 62
7
  6
CONTINUOUS
 10
194.7072963079
 20
107.8476562504
 30
0.0
 11
530.7034459343
 21
0.0
 31
0.0
 40
0.0494155445
 41
-1.7510554651
 42
-1.7475925186
  0
ELLIPSE
  5
36C
100
AcDbEntity
  8
0
100
AcDbEllipse
 62
7
  6
CONTINUOUS
 10
4967.2888275318
 20
107.8476562504
 30
0.0
 11
5070.6192780382
 21
-20.8600030618
 31
0.0
 40
0.0041137573
 41
2.856472503
 42
2.8584753448
  0
ELLIPSE
  5
36D
100
AcDbEntity
  8
0
100
AcDbEllipse
 62
7
  6
CONTINUOUS
 10
101.3585042429
 20
133.9274549455
 30
0.0
 11
-0.1417119467
 21
0.1422961243
 31
0.0
 40
0.9918061237
 41
-3.8766878413
 42
-3.6922883272
  0
ELLIPSE
  5
36E
100
AcDbEntity
  8
ASSI
100
AcDbEllipse
 62
7
  6
CONTINUOUS
 10
98.2818130741
 20
151.1476562504
 30
0.0
 11
1.2233088312
 21
-0.0
 31
0.0
 40
0.7998095528
 41
3.1002827401
 42
3.1415926536
  0
ELLIPSE
  5
36F
100
AcDbEntity
  8
ASSI
100
AcDbEllipse
 62
7
  6
CONTINUOUS
 10
98.2818130741
 20
64.5476562504
 30
0.0
 11
1.2233088312
 21
0.0
 31
0.0
 40
0.7998095528
 41
-3.1415926536
 42
-3.1002827401
  0
ELLIPSE
  5
370
100
AcDbEntity
  8
ASSI
100
AcDbEllipse
 62
7
  6
CONTINUOUS
 10
101.3585042429
 20
133.9274549455
 30
0.0
 11
-0.1417119467
 21
0.1422961243
 31
0.0
 40
0.9918061237
 41
-3.8766878413
 42
-3.6922883272
  0
ELLIPSE
  5
371
100
AcDbEntity
  8
ASSI
100
AcDbEllipse
 62
7
  6
CONTINUOUS
 10
194.7072963079
 20
107.8476562504
 30
0.0
 11
530.7034459343
 21
0.0
 31
0.0
 40
0.0494155445
 41
-1.7510554651
 42
-1.7475925186
  0
ELLIPSE
  5
372
100
AcDbEntity
  8
ASSI
100
AcDbEllipse
 62
7
  6
CONTINUOUS
 10
4967.2888275318
 20
107.8476562504
 30
0.0
 11
5070.6192780382
 21
-20.8600030618
 31
0.0
 40
0.0041137573
 41
2.856472503
 42
2.8584753448
  0
ENDSEC
  0
SECTION
  2
OBJECTS
  0
DICTIONARY
  5
C
100
AcDbDictionary
280
0
281
1
  3
ACAD_GROUP
350
D
  3
ACAD_MLINESTYLE
350
17
  3
ACAD_LAYOUT
350
1A
  3
ACAD_PLOTSETTINGS
350
19
  3
ACAD_PLOTSTYLENAME
350
E
  0
DICTIONARY
  5
D
102
{ACAD_REACTORS
330
C
102
}
100
AcDbDictionary
280
0
281
1
  0
ACDBDICTIONARYWDFLT
  5
E
102
{ACAD_REACTORS
330
C
102
}
100
AcDbDictionary
281
1
  3
Normal
350
F
100
AcDbDictionaryWithDefault
340
F
  0
DICTIONARY
  5
17
102
{ACAD_REACTORS
330
C
102
}
100
AcDbDictionary
280
0
281
1
  3
Standard
350
18
  0
DICTIONARY
  5
19
102
{ACAD_REACTORS
330
C
102
}
100
AcDbDictionary
281
1
  0
DICTIONARY
  5
1A
102
{ACAD_REACTORS
330
C
102
}
100
AcDbDictionary
281
1
  3
Model
350
373
  3
Layout1
350
374
  0
ACDBPLACEHOLDER
  5
F
102
{ACAD_REACTORS
330
E
102
}
  0
MLINESTYLE
  5
18
102
{ACAD_REACTORS
330
17
102
}
100
AcDbMlineStyle
  2
STANDARD
 70
0
  3

 62
256
 51
90.0
 52
90.0
 71
2
 49
0.5
 62
256
  6
BYLAYER
 49
-0.5
 62
256
  6
BYLAYER
  0
LAYOUT
  5
373
102
{ACAD_REACTORS
330
1A
102
}
100
AcDbPlotSettings
  1

  2
none_device
  4
ISO_A4_(297.00_x_210.00_MM)
  6

 40
0.0
 41
0.0
 42
0.0
 43
0.0
 44
297.0
 45
210.0
 46
0.0
 47
0.0
 48
0.0
 49
0.0
140
0.0
141
0.0
142
1.0
143
1.0
 70
1024
 72
1
 73
0
 74
0
  7

 75
0
147
1.0
148
0.0
149
0.0
100
AcDbLayout
  1
Model
 70
0
 71
0
 10
0.0
 20
0.0
 11
297.0
 21
210.0
 12
0.0
 22
0.0
 32
0.0
 14
0.0
 24
0.0
 34
0.0
 15
0.0
 25
0.0
 35
0.0
146
0.0
 13
0.0
 23
0.0
 33
0.0
 16
1.0
 26
0.0
 36
0.0
 17
0.0
 27
1.0
 37
0.0
 76
0
330
224
345
0
346
0
  0
LAYOUT
  5
374
102
{ACAD_REACTORS
330
1A
102
}
100
AcDbPlotSettings
  1

  2
none_device
  4
ISO_A4_(297.00_x_210.00_MM)
  6

 40
0.0
 41
0.0
 42
0.0
 43
0.0
 44
297.0
 45
210.0
 46
0.0
 47
0.0
 48
0.0
 49
0.0
140
0.0
141
0.0
142
1.0
143
1.0
 70
0
 72
1
 73
0
 74
0
  7

 75
0
147
1.0
148
0.0
149
0.0
100
AcDbLayout
  1
Layout1
 70
0
 71
1
 10
0.0
 20
0.0
 11
297.0
 21
210.0
 12
0.0
 22
0.0
 32
0.0
 14
0.0
 24
0.0
 34
0.0
 15
0.0
 25
0.0
 35
0.0
146
0.0
 13
0.0
 23
0.0
 33
0.0
 16
1.0
 26
0.0
 36
0.0
 17
0.0
 27
1.0
 37
0.0
 76
0
330
225
345
0
346
0
  0
ENDSEC
  0
EOF
