  0
SECTION
  2
HEADER
  9
$ACADVER
  1
AC1021
  9
$DWGCODEPAGE
  3
ANSI_1252
  9
$EXTMAX
 10
297.0
 20
210.0
 30
0.0
  9
$EXTMIN
 10
0.0
 20
0.0
 30
0.0
  9
$LIMMIN
 10
0.0
 20
0.0
  9
$LIMMAX
 10
297.0
 20
210.0
  9
$VIEWCTR
 10
148.5
 20
105.0
  9
$VIEWSIZE
 40
210.0
  9
$CLAYER
  8
0
  9
$LTSCALE
 40
16.335
  9
$CELTYPE
  6
BYLAYER
  9
$DIMSCALE
 40
1.0
  9
$DIMASZ
 40
3.0
  9
$DIMEXO
 40
0.5
  9
$DIMDLI
 40
11.286
  9
$DIMEXE
 40
1.5
  9
$DIMCEN
 40
2.673
  9
$DIMLFAC
 40
1.0
  9
$DIMBLK
  1
_FILLED
  9
$DIMALT
 70
0
  9
$DIMALTF
 40
25.4
  9
$DIMTXT
 40
3.0
  9
$DIMTOL
 70
1
  9
$DIMLIM
 70
0
  9
$DIMTFAC
 40
1.0
  9
$DIMTP
 40
0.01
  9
$DIMTM
 40
0.01
  9
$DIMGAP
 40
0.625
  9
$DIMDSEP
 70
44
  9
$AUNITS
 70
0
  9
$PDMODE
 70
3
  9
$PDSIZE
 40
3.0
  9
$HANDSEED
  5
328
  9
$TILEMODE
 70
1
  9
$MEASUREMENT
 70
1
  9
$INSUNITS
 70
4
  0
ENDSEC
  0
SECTION
  2
CLASSES
  0
CLASS
  1
ACDBDICTIONARYWDFLT
  2
AcDbDictionaryWithDefault
  3
AutoCAD 2000
 90
0
 91
1
280
0
281
0
  0
CLASS
  1
ACDBPLACEHOLDER
  2
AcDbPlaceHolder
  3
AutoCAD 2000
 90
0
 91
1
280
0
281
0
  0
CLASS
  1
LAYOUT
  2
AcDbLayout
  3
AutoCAD 2000
 90
0
 91
0
280
0
281
0
  0
ENDSEC
  0
SECTION
  2
TABLES
  0
TABLE
  2
VPORT
  5
8
100
AcDbSymbolTable
 70
2
  0
VPORT
  5
1F4
100
AcDbSymbolTableRecord
100
AcDbViewportTableRecord
  2
*ACTIVE
 70
0
 10
0.0
 20
0.0
 11
1.0
 21
1.0
 12
148.5
 22
105.0
 13
0.0
 23
0.0
 14
1.0
 24
1.0
 15
0.0
 25
0.0
 16
0.0
 26
0.0
 36
1.0
 17
0.0
 27
0.0
 37
0.0
 40
210.0
 41
1.4142857143
 42
50.0
 43
0.0
 44
0.0
 50
0.0
 51
0.0
 71
0
 72
100
 73
1
 74
1
 75
0
 76
0
 77
0
 78
0
  0
ENDTAB
  0
TABLE
  2
LTYPE
  5
5
100
AcDbSymbolTable
 70
6
  0
LTYPE
  5
14
100
AcDbSymbolTableRecord
100
AcDbLinetypeTableRecord
  2
BYBLOCK
 70
0
  3

 72
65
 73
0
 40
0.0
  0
LTYPE
  5
15
100
AcDbSymbolTableRecord
100
AcDbLinetypeTableRecord
  2
BYLAYER
 70
0
  3

 72
65
 73
0
 40
0.0
  0
LTYPE
  5
16
100
AcDbSymbolTableRecord
100
AcDbLinetypeTableRecord
  2
CONTINUOUS
 70
64
  3
Solid line
 72
65
 73
0
 40
0.0
  0
LTYPE
  5
1F5
100
AcDbSymbolTableRecord
100
AcDbLinetypeTableRecord
  2
CENTER
 70
64
  3
____ _ ____ _ ____ _ ____ _ ____ _ ____ _ ____
 72
65
 73
4
 40
0.6
 49
0.375
 74
0
 49
-0.075
 74
0
 49
0.075
 74
0
 49
-0.075
 74
0
  0
LTYPE
  5
1F6
100
AcDbSymbolTableRecord
100
AcDbLinetypeTableRecord
  2
HIDDEN
 70
64
  3
- - - - - - - - - - - - - - - - - - - -
 72
65
 73
2
 40
0.2
 49
0.1
 74
0
 49
-0.1
 74
0
  0
LTYPE
  5
1F7
100
AcDbSymbolTableRecord
100
AcDbLinetypeTableRecord
  2
PHANTOM
 70
64
  3
_____ _ _ _____ _ _ _____ _ _ _____
 72
65
 73
6
 40
0.8
 49
0.45
 74
0
 49
-0.05
 74
0
 49
0.1
 74
0
 49
-0.05
 74
0
 49
0.1
 74
0
 49
-0.05
 74
0
  0
LTYPE
  5
1F8
100
AcDbSymbolTableRecord
100
AcDbLinetypeTableRecord
  2
DOT
 70
64
  3
. . . . . . . . . . . . . . . . . . . .
 72
65
 73
2
 40
0.2
 49
0.1
 74
0
 49
-0.1
 74
0
  0
LTYPE
  5
1F9
100
AcDbSymbolTableRecord
100
AcDbLinetypeTableRecord
  2
DASHED
 70
64
  3
- - - - - - - - - - - - - - - - - - - -
 72
65
 73
2
 40
0.2
 49
0.1
 74
0
 49
-0.1
 74
0
  0
ENDTAB
  0
TABLE
  2
LAYER
  5
2
100
AcDbSymbolTable
 70
36
  0
LAYER
  5
10
100
AcDbSymbolTableRecord
100
AcDbLayerTableRecord
  2
0
 70
0
 62
7
  6
CONTINUOUS
370
-3
390
F
  0
LAYER
  5
1FA
100
AcDbSymbolTableRecord
100
AcDbLayerTableRecord
  2
DEFAULT_1
 70
0
 62
7
  6
CENTER
370
-3
390
F
  0
LAYER
  5
1FB
100
AcDbSymbolTableRecord
100
AcDbLayerTableRecord
  2
DEFAULT_2
 70
0
 62
7
  6
HIDDEN
370
-3
390
F
  0
LAYER
  5
1FC
100
AcDbSymbolTableRecord
100
AcDbLayerTableRecord
  2
DEFAULT_3
 70
0
 62
7
  6
PHANTOM
370
-3
390
F
  0
LAYER
  5
1FD
100
AcDbSymbolTableRecord
100
AcDbLayerTableRecord
  2
ASSI
 70
0
 62
7
  6
CONTINUOUS
370
-3
390
F
  0
LAYER
  5
1FE
100
AcDbSymbolTableRecord
100
AcDbLayerTableRecord
  2
COORDINATE
 70
0
 62
7
  6
CONTINUOUS
370
-3
390
F
  0
LAYER
  5
1FF
100
AcDbSymbolTableRecord
100
AcDbLayerTableRecord
  2
COORD_ORIGINE
 70
0
 62
7
  6
CONTINUOUS
370
-3
390
F
  0
LAYER
  5
200
100
AcDbSymbolTableRecord
100
AcDbLayerTableRecord
  2
COPY_PUBLISH
 70
0
 62
7
  6
CONTINUOUS
370
-3
390
F
  0
LAYER
  5
201
100
AcDbSymbolTableRecord
100
AcDbLayerTableRecord
  2
COSMETIC
 70
0
 62
7
  6
CONTINUOUS
370
-3
390
F
  0
LAYER
  5
202
100
AcDbSymbolTableRecord
100
AcDbLayerTableRecord
  2
COSMETICI
 70
0
 62
7
  6
CONTINUOUS
370
-3
390
F
  0
LAYER
  5
203
100
AcDbSymbolTableRecord
100
AcDbLayerTableRecord
  2
CURVE
 70
0
 62
7
  6
CONTINUOUS
370
-3
390
F
  0
LAYER
  5
204
100
AcDbSymbolTableRecord
100
AcDbLayerTableRecord
  2
CURVE_TASSELLI
 70
0
 62
7
  6
CONTINUOUS
370
-3
390
F
  0
LAYER
  5
205
100
AcDbSymbolTableRecord
100
AcDbLayerTableRecord
  2
DRAFT
 70
0
 62
7
  6
CONTINUOUS
370
-3
390
F
  0
LAYER
  5
206
100
AcDbSymbolTableRecord
100
AcDbLayerTableRecord
  2
IMPORT_IGES
 70
0
 62
7
  6
CONTINUOUS
370
-3
390
F
  0
LAYER
  5
207
100
AcDbSymbolTableRecord
100
AcDbLayerTableRecord
  2
INTFCLR_2
 70
0
 62
7
  6
CONTINUOUS
370
-3
390
F
  0
LAYER
  5
208
100
AcDbSymbolTableRecord
100
AcDbLayerTableRecord
  2
INTFCLR_3
 70
0
 62
7
  6
CONTINUOUS
370
-3
390
F
  0
LAYER
  5
209
100
AcDbSymbolTableRecord
100
AcDbLayerTableRecord
  2
INTF_1
 70
0
 62
7
  6
CONTINUOUS
370
-3
390
F
  0
LAYER
  5
20A
100
AcDbSymbolTableRecord
100
AcDbLayerTableRecord
  2
INTF_14
 70
0
 62
7
  6
CONTINUOUS
370
-3
390
F
  0
LAYER
  5
20B
100
AcDbSymbolTableRecord
100
AcDbLayerTableRecord
  2
INTF_15
 70
0
 62
7
  6
CONTINUOUS
370
-3
390
F
  0
LAYER
  5
20C
100
AcDbSymbolTableRecord
100
AcDbLayerTableRecord
  2
INTF_18
 70
0
 62
7
  6
CONTINUOUS
370
-3
390
F
  0
LAYER
  5
20D
100
AcDbSymbolTableRecord
100
AcDbLayerTableRecord
  2
INTF_19
 70
0
 62
7
  6
CONTINUOUS
370
-3
390
F
  0
LAYER
  5
20E
100
AcDbSymbolTableRecord
100
AcDbLayerTableRecord
  2
INTF_2
 70
0
 62
7
  6
CONTINUOUS
370
-3
390
F
  0
LAYER
  5
20F
100
AcDbSymbolTableRecord
100
AcDbLayerTableRecord
  2
INTF_7
 70
0
 62
7
  6
CONTINUOUS
370
-3
390
F
  0
LAYER
  5
210
100
AcDbSymbolTableRecord
100
AcDbLayerTableRecord
  2
INTF_CYAN
 70
0
 62
7
  6
CONTINUOUS
370
-3
390
F
  0
LAYER
  5
211
100
AcDbSymbolTableRecord
100
AcDbLayerTableRecord
  2
INTF_YELLOW
 70
0
 62
7
  6
CONTINUOUS
370
-3
390
F
  0
LAYER
  5
212
100
AcDbSymbolTableRecord
100
AcDbLayerTableRecord
  2
LIVELLO_1
 70
0
 62
7
  6
CONTINUOUS
370
-3
390
F
  0
LAYER
  5
213
100
AcDbSymbolTableRecord
100
AcDbLayerTableRecord
  2
NOTE
 70
0
 62
7
  6
CONTINUOUS
370
-3
390
F
  0
LAYER
  5
214
100
AcDbSymbolTableRecord
100
AcDbLayerTableRecord
  2
PIANI
 70
0
 62
7
  6
CONTINUOUS
370
-3
390
F
  0
LAYER
  5
215
100
AcDbSymbolTableRecord
100
AcDbLayerTableRecord
  2
PIANI_ORIGINE
 70
0
 62
7
  6
CONTINUOUS
370
-3
390
F
  0
LAYER
  5
216
100
AcDbSymbolTableRecord
100
AcDbLayerTableRecord
  2
PIANI_RIFERIMENTO
 70
0
 62
7
  6
CONTINUOUS
370
-3
390
F
  0
LAYER
  5
217
100
AcDbSymbolTableRecord
100
AcDbLayerTableRecord
  2
PUNTI
 70
0
 62
7
  6
CONTINUOUS
370
-3
390
F
  0
LAYER
  5
218
100
AcDbSymbolTableRecord
100
AcDbLayerTableRecord
  2
RACCORDO
 70
0
 62
7
  6
CONTINUOUS
370
-3
390
F
  0
LAYER
  5
219
100
AcDbSymbolTableRecord
100
AcDbLayerTableRecord
  2
RGB__255__255__255__
 70
0
 62
7
  6
CONTINUOUS
370
-3
390
F
  0
LAYER
  5
21A
100
AcDbSymbolTableRecord
100
AcDbLayerTableRecord
  2
RGB____0____0____0__
 70
0
 62
7
  6
CONTINUOUS
370
-3
390
F
  0
LAYER
  5
21B
100
AcDbSymbolTableRecord
100
AcDbLayerTableRecord
  2
SIMBOLI
 70
0
 62
7
  6
CONTINUOUS
370
-3
390
F
  0
LAYER
  5
21C
100
AcDbSymbolTableRecord
100
AcDbLayerTableRecord
  2
SMUSSO
 70
0
 62
7
  6
CONTINUOUS
370
-3
390
F
  0
LAYER
  5
21D
100
AcDbSymbolTableRecord
100
AcDbLayerTableRecord
  2
SNAPLINE
 70
0
 62
7
  6
CONTINUOUS
370
-3
390
F
  0
LAYER
  5
21E
100
AcDbSymbolTableRecord
100
AcDbLayerTableRecord
  2
SUPERFICI
 70
0
 62
7
  6
CONTINUOUS
370
-3
390
F
  0
LAYER
  5
21F
100
AcDbSymbolTableRecord
100
AcDbLayerTableRecord
  2
TRASH
 70
0
 62
7
  6
CONTINUOUS
370
-3
390
F
  0
LAYER
  5
220
100
AcDbSymbolTableRecord
100
AcDbLayerTableRecord
  2
WHITE
 70
0
 62
7
  6
CONTINUOUS
370
-3
390
F
  0
LAYER
  5
221
100
AcDbSymbolTableRecord
100
AcDbLayerTableRecord
  2
XSEC_DATUMS
 70
0
 62
7
  6
CONTINUOUS
370
-3
390
F
  0
ENDTAB
  0
TABLE
  2
STYLE
  5
3
100
AcDbSymbolTable
 70
1
  0
STYLE
  5
11
100
AcDbSymbolTableRecord
100
AcDbTextStyleTableRecord
  2
STANDARD
 70
0
 40
0.0
 41
0.8
 50
0.0
 71
0
 42
0.2
  3
txt
  4

  0
STYLE
  5
222
100
AcDbSymbolTableRecord
100
AcDbTextStyleTableRecord
  2
TEXTSTYLE_1
 70
0
 40
0.0
 41
0.8
 50
0.0
 71
0
 42
0.2
  3
gdt
  4

  0
ENDTAB
  0
TABLE
  2
VIEW
  5
6
100
AcDbSymbolTable
 70
0
  0
ENDTAB
  0
TABLE
  2
UCS
  5
7
100
AcDbSymbolTable
 70
0
  0
ENDTAB
  0
TABLE
  2
APPID
  5
9
100
AcDbSymbolTable
 70
1
  0
APPID
  5
223
100
AcDbSymbolTableRecord
100
AcDbRegAppTableRecord
  2
ACAD
 70
0
  0
ENDTAB
  0
TABLE
  2
BLOCK_RECORD
  5
1
100
AcDbSymbolTable
 70
0
  0
BLOCK_RECORD
  5
224
100
AcDbSymbolTableRecord
100
AcDbBlockTableRecord
  2
*Model_Space
  0
BLOCK_RECORD
  5
225
100
AcDbSymbolTableRecord
100
AcDbBlockTableRecord
  2
*Paper_Space
  0
BLOCK_RECORD
  5
226
100
AcDbSymbolTableRecord
100
AcDbBlockTableRecord
  2
_FILLED
  0
BLOCK_RECORD
  5
227
100
AcDbSymbolTableRecord
100
AcDbBlockTableRecord
  2
*D0
  0
BLOCK_RECORD
  5
228
100
AcDbSymbolTableRecord
100
AcDbBlockTableRecord
  2
*D1
  0
BLOCK_RECORD
  5
229
100
AcDbSymbolTableRecord
100
AcDbBlockTableRecord
  2
*D2
  0
BLOCK_RECORD
  5
22A
100
AcDbSymbolTableRecord
100
AcDbBlockTableRecord
  2
*D3
  0
ENDTAB
  0
TABLE
  2
DIMSTYLE
  5
A
100
AcDbSymbolTable
 70
1
100
AcDbDimStyleTable
 71
0
  0
DIMSTYLE
105
22B
100
AcDbSymbolTableRecord
100
AcDbDimStyleTableRecord
  2
STANDARD
 70
0
  3

  4

 40
1.0
 41
3.0
 42
0.5
 43
0.38
 44
1.5
 45
0.0
 46
0.0
 47
0.01
 48
0.01
140
3.0
141
0.09
142
0.0
143
25.4
144
1.0
145
0.0
146
1.0
147
0.625
 71
1.0
 72
0.0
 73
0
 74
0
 75
0
 76
0
 77
1
 78
8
 79
2
170
0
171
1
172
0
173
0
174
0
175
0
176
0
177
0
178
0
270
2
179
2
271
2
272
2
273
2
274
2
275
0
280
0
281
0
282
0
283
1
284
8
285
0
286
0
287
3
288
0
340
11
278
44
341
226
342
226
343
226
344
226
  0
DIMSTYLE
105
22C
100
AcDbSymbolTableRecord
100
AcDbDimStyleTableRecord
  2
DIMSTYLE_1
 70
0
  3

  4

 40
1.0
 41
3.0
 42
0.5
 43
0.38
 44
1.5
 45
0.0
 46
0.0
 47
0.0
 48
0.0
140
3.0
141
0.09
142
0.0
143
25.4
144
1.0
145
0.0
146
1.0
147
0.75
 71
0.0
 72
0.0
 73
0
 74
0
 75
0
 76
0
 77
1
 78
8
 79
2
170
0
171
1
172
0
173
0
174
0
175
0
176
0
177
0
178
0
270
2
179
2
271
2
272
2
273
2
274
2
275
0
280
0
281
0
282
0
283
1
284
8
285
0
286
0
287
3
288
0
340
11
278
44
341
226
342
226
343
226
344
226
  0
ENDTAB
  0
ENDSEC
  0
SECTION
  2
BLOCKS
  0
BLOCK
  5
20
100
AcDbEntity
  8
0
100
AcDbBlockBegin
  2
*Model_Space
 70
0
 10
0.0
 20
0.0
 30
0.0
  3
*Model_Space
  1

  0
ENDBLK
  5
21
100
AcDbEntity
  8
0
100
AcDbBlockEnd
  0
BLOCK
  5
1C
100
AcDbEntity
  8
0
100
AcDbBlockBegin
  2
*Paper_Space
 70
0
 10
0.0
 20
0.0
 30
0.0
  3
*Paper_Space
  1

  0
ENDBLK
  5
1D
100
AcDbEntity
  8
0
100
AcDbBlockEnd
  0
BLOCK
  5
22D
100
AcDbEntity
  8
0
100
AcDbBlockBegin
  2
_FILLED
 70
64
 10
0.0
 20
0.0
  3
_FILLED
  1

  0
SOLID
  5
22E
100
AcDbEntity
  8
0
  6
BYBLOCK
 62
0
100
AcDbTrace
 10
0.0
 20
0.0
 11
-1.0
 21
0.3166666667
 12
-1.0
 22
-0.3166666667
 13
-1.0
 23
-0.3166666667
  0
ENDBLK
  5
22F
100
AcDbEntity
  8
0
  6
BYBLOCK
 62
0
100
AcDbBlockEnd
  0
BLOCK
  5
230
100
AcDbEntity
  8
0
100
AcDbBlockBegin
 62
7
  6
CONTINUOUS
  2
*D0
 70
65
 10
0.0
 20
0.0
  3
*D0
  1

  0
LINE
  5
231
100
AcDbEntity
  8
0
100
AcDbLine
 62
7
  6
CONTINUOUS
 10
125.806640625
 20
150.923828125
 11
125.806640625
 21
160.923828125
  0
LINE
  5
232
100
AcDbEntity
  8
0
100
AcDbLine
 62
7
  6
CONTINUOUS
 10
215.806640625
 20
150.923828125
 11
215.806640625
 21
160.923828125
  0
LINE
  5
233
100
AcDbEntity
  8
0
100
AcDbLine
 62
7
  6
CONTINUOUS
 10
125.806640625
 20
159.423828125
 11
170.806640625
 21
159.423828125
  0
LINE
  5
234
100
AcDbEntity
  8
0
100
AcDbLine
 62
7
  6
CONTINUOUS
 10
215.806640625
 20
159.423828125
 11
170.806640625
 21
159.423828125
  0
INSERT
  5
235
100
AcDbEntity
  8
0
100
AcDbBlockReference
 62
7
  6
CONTINUOUS
  2
_FILLED
 10
125.806640625
 20
159.423828125
 41
3.0
 42
3.0
 43
3.0
 50
180.0
  0
INSERT
  5
236
100
AcDbEntity
  8
0
100
AcDbBlockReference
 62
7
  6
CONTINUOUS
  2
_FILLED
 10
215.806640625
 20
159.423828125
 41
3.0
 42
3.0
 43
3.0
  0
ENDBLK
  5
237
100
AcDbEntity
  8
0
  6
BYBLOCK
 62
0
100
AcDbBlockEnd
  0
BLOCK
  5
238
100
AcDbEntity
  8
0
100
AcDbBlockBegin
 62
7
  6
CONTINUOUS
  2
*D1
 70
65
 10
0.0
 20
0.0
  3
*D1
  1

  0
LINE
  5
239
100
AcDbEntity
  8
0
100
AcDbLine
 62
7
  6
CONTINUOUS
 10
215.306640625
 20
151.423828125
 11
225.306640625
 21
151.423828125
  0
LINE
  5
23A
100
AcDbEntity
  8
0
100
AcDbLine
 62
7
  6
CONTINUOUS
 10
215.306640625
 20
61.423828125
 11
225.306640625
 21
61.423828125
  0
LINE
  5
23B
100
AcDbEntity
  8
0
100
AcDbLine
 62
7
  6
CONTINUOUS
 10
223.806640625
 20
151.423828125
 11
223.806640625
 21
106.423828125
  0
LINE
  5
23C
100
AcDbEntity
  8
0
100
AcDbLine
 62
7
  6
CONTINUOUS
 10
223.806640625
 20
61.423828125
 11
223.806640625
 21
106.423828125
  0
INSERT
  5
23D
100
AcDbEntity
  8
0
100
AcDbBlockReference
 62
7
  6
CONTINUOUS
  2
_FILLED
 10
223.806640625
 20
151.423828125
 41
3.0
 42
3.0
 43
3.0
 50
90.0
  0
INSERT
  5
23E
100
AcDbEntity
  8
0
100
AcDbBlockReference
 62
7
  6
CONTINUOUS
  2
_FILLED
 10
223.806640625
 20
61.423828125
 41
3.0
 42
3.0
 43
3.0
 50
270.0
  0
ENDBLK
  5
23F
100
AcDbEntity
  8
0
  6
BYBLOCK
 62
0
100
AcDbBlockEnd
  0
BLOCK
  5
240
100
AcDbEntity
  8
0
100
AcDbBlockBegin
 62
7
  6
CONTINUOUS
  2
*D2
 70
65
 10
0.0
 20
0.0
  3
*D2
  1

  0
LINE
  5
241
100
AcDbEntity
  8
0
100
AcDbLine
 62
7
  6
CONTINUOUS
 10
89.0008789011
 20
150.923828125
 11
89.0008789011
 21
160.923828125
  0
LINE
  5
242
100
AcDbEntity
  8
0
100
AcDbLine
 62
7
  6
CONTINUOUS
 10
96.5508789011
 20
149.9621384531
 11
96.5508789011
 21
160.923828125
  0
LINE
  5
243
100
AcDbEntity
  8
0
100
AcDbLine
 62
7
  6
CONTINUOUS
 10
89.0008789011
 20
159.423828125
 11
92.7758789011
 21
159.423828125
  0
LINE
  5
244
100
AcDbEntity
  8
0
100
AcDbLine
 62
7
  6
CONTINUOUS
 10
96.5508789011
 20
159.423828125
 11
92.7758789011
 21
159.423828125
  0
LINE
  5
245
100
AcDbEntity
  8
0
100
AcDbLine
 62
7
  6
CONTINUOUS
 10
92.7758789011
 20
159.423828125
 11
109.3452535844
 21
159.423828125
  0
INSERT
  5
246
100
AcDbEntity
  8
0
100
AcDbBlockReference
 62
7
  6
CONTINUOUS
  2
_FILLED
 10
89.0008789011
 20
159.423828125
 41
3.0
 42
3.0
 43
3.0
 50
180.0
  0
INSERT
  5
247
100
AcDbEntity
  8
0
100
AcDbBlockReference
 62
7
  6
CONTINUOUS
  2
_FILLED
 10
96.5508789011
 20
159.423828125
 41
3.0
 42
3.0
 43
3.0
  0
ENDBLK
  5
248
100
AcDbEntity
  8
0
  6
BYBLOCK
 62
0
100
AcDbBlockEnd
  0
BLOCK
  5
249
100
AcDbEntity
  8
0
100
AcDbBlockBegin
 62
7
  6
CONTINUOUS
  2
*D3
 70
65
 10
0.0
 20
0.0
  3
*D3
  1

  0
LINE
  5
24A
100
AcDbEntity
  8
0
100
AcDbLine
 62
7
  6
CONTINUOUS
 10
89.0008789011
 20
150.923828125
 11
89.0008789011
 21
170.923828125
  0
LINE
  5
24B
100
AcDbEntity
  8
0
100
AcDbLine
 62
7
  6
CONTINUOUS
 10
99.5508789011
 20
132.9141541579
 11
99.5508789011
 21
170.923828125
  0
LINE
  5
24C
100
AcDbEntity
  8
0
100
AcDbLine
 62
7
  6
CONTINUOUS
 10
89.0008789011
 20
169.423828125
 11
94.2758789011
 21
169.423828125
  0
LINE
  5
24D
100
AcDbEntity
  8
0
100
AcDbLine
 62
7
  6
CONTINUOUS
 10
99.5508789011
 20
169.423828125
 11
94.2758789011
 21
169.423828125
  0
LINE
  5
24E
100
AcDbEntity
  8
0
100
AcDbLine
 62
7
  6
CONTINUOUS
 10
94.2758789011
 20
169.423828125
 11
110.3758411726
 21
169.423828125
  0
INSERT
  5
24F
100
AcDbEntity
  8
0
100
AcDbBlockReference
 62
7
  6
CONTINUOUS
  2
_FILLED
 10
89.0008789011
 20
169.423828125
 41
3.0
 42
3.0
 43
3.0
 50
180.0
  0
INSERT
  5
250
100
AcDbEntity
  8
0
100
AcDbBlockReference
 62
7
  6
CONTINUOUS
  2
_FILLED
 10
99.5508789011
 20
169.423828125
 41
3.0
 42
3.0
 43
3.0
  0
ENDBLK
  5
251
100
AcDbEntity
  8
0
  6
BYBLOCK
 62
0
100
AcDbBlockEnd
  0
ENDSEC
  0
SECTION
  2
ENTITIES
  0
DIMENSION
  5
252
100
AcDbEntity
  8
0
100
AcDbDimension
 62
7
  6
CONTINUOUS
  2
*D0
 10
215.806640625
 20
159.423828125
 11
168.4494977679
 21
159.423828125
 70
160
 71
2
 72
2
 41
0.9
 42
90.0
  3
DIMSTYLE_1
100
AcDbAlignedDimension
 13
125.806640625
 23
150.423828125
 14
215.806640625
 24
150.423828125
100
AcDbRotatedDimension
  0
DIMENSION
  5
253
100
AcDbEntity
  8
0
100
AcDbDimension
 62
7
  6
CONTINUOUS
  2
*D1
 10
223.806640625
 20
61.423828125
 11
223.806640625
 21
104.0666852679
 70
160
 71
2
 72
2
 41
0.9
 42
90.0
  3
DIMSTYLE_1
100
AcDbAlignedDimension
 13
214.806640625
 23
151.423828125
 14
214.806640625
 24
61.423828125
 50
270.0
100
AcDbRotatedDimension
  0
DIMENSION
  5
254
100
AcDbEntity
  8
0
100
AcDbDimension
 62
7
  6
CONTINUOUS
  2
*D2
 10
96.5508789011
 20
159.423828125
 11
100.9881107272
 21
159.423828125
 70
160
 71
1
 72
2
 41
0.9
 42
7.55
  3
DIMSTYLE_1
100
AcDbAlignedDimension
 13
89.0008789011
 23
150.423828125
 14
96.5508789011
 24
149.4621384531
100
AcDbRotatedDimension
  0
DIMENSION
  5
255
100
AcDbEntity
  8
0
100
AcDbDimension
 62
7
  6
CONTINUOUS
  2
*D3
 10
99.5508789011
 20
169.423828125
 11
100.3044126011
 21
169.423828125
 70
160
 71
1
 72
2
 41
0.9
 42
10.55
  3
DIMSTYLE_1
100
AcDbAlignedDimension
 13
89.0008789011
 23
150.423828125
 14
99.5508789011
 24
132.4141541579
100
AcDbRotatedDimension
  0
LINE
  5
256
100
AcDbEntity
  8
SMUSSO
100
AcDbLine
 62
7
  6
CONTINUOUS
 10
125.806640625
 20
150.423828125
 11
126.806640625
 21
151.423828125
  0
LINE
  5
257
100
AcDbEntity
  8
SMUSSO
100
AcDbLine
 62
7
  6
CONTINUOUS
 10
126.806640625
 20
61.423828125
 11
125.806640625
 21
62.423828125
  0
LINE
  5
258
100
AcDbEntity
  8
SMUSSO
100
AcDbLine
 62
7
  6
CONTINUOUS
 10
125.806640625
 20
150.423828125
 11
125.806640625
 21
62.423828125
  0
LINE
  5
259
100
AcDbEntity
  8
SMUSSO
100
AcDbLine
 62
7
  6
CONTINUOUS
 10
126.806640625
 20
150.423828125
 11
126.806640625
 21
62.423828125
  0
LINE
  5
25A
100
AcDbEntity
  8
SMUSSO
100
AcDbLine
 62
7
  6
CONTINUOUS
 10
126.806640625
 20
61.423828125
 11
214.806640625
 21
61.423828125
  0
LINE
  5
25B
100
AcDbEntity
  8
SMUSSO
100
AcDbLine
 62
7
  6
CONTINUOUS
 10
126.806640625
 20
62.423828125
 11
214.806640625
 21
62.423828125
  0
LWPOLYLINE
  5
25C
100
AcDbEntity
  8
0
100
AcDbPolyline
 62
7
  6
CONTINUOUS
 90
10
 70
0
 43
0.3500000006
 10
168.8780720215
 20
160.1738226929
 10
169.7352099609
 20
161.0309787598
 10
169.9494944458
 20
161.8881166992
 10
169.9494944458
 20
162.7452546387
 10
169.5209254761
 20
163.1738236084
 10
168.8780720215
 20
163.1738236084
 10
168.4495030518
 20
162.7452546387
 10
168.4495030518
 20
161.8881166992
 10
168.8780720215
 20
161.4595477295
 10
169.8066320801
 20
161.4595477295
  0
LWPOLYLINE
  5
25D
100
AcDbEntity
  8
0
100
AcDbPolyline
 62
7
  6
CONTINUOUS
 90
6
 70
0
 10
174.611995758
 20
80.400165234
 10
174.6174742716
 20
80.4015783031
 10
174.6230076024
 20
80.4034424998
 10
174.6285957502
 20
80.4057578239
 10
174.6342218408
 20
80.4086178406
 10
174.6399027484
 20
80.4119289848
  0
LWPOLYLINE
  5
25E
100
AcDbEntity
  8
0
100
AcDbPolyline
 62
7
  6
CONTINUOUS
 90
10
 70
0
 10
173.8735608318
 20
81.1853668257
 10
173.9154201029
 20
81.1922433936
 10
173.9565512974
 20
81.1977725891
 10
173.9969544151
 20
81.2019544122
 10
174.0362887758
 20
81.2048048968
 10
174.0748950598
 20
81.206308009
 10
174.1137953086
 20
81.206415647
 10
174.1533302025
 20
81.2051117771
 10
174.1931590612
 20
81.2024124331
 10
174.2332818846
 20
81.1983176149
  0
LINE
  5
25F
100
AcDbEntity
  8
0
100
AcDbLine
 62
7
  6
CONTINUOUS
 10
167.195783932
 20
79.3603125543
 11
167.6004435326
 21
79.3603125543
  0
LINE
  5
260
100
AcDbEntity
  8
0
100
AcDbLine
 62
7
  6
CONTINUOUS
 10
168.4779574928
 20
79.3603125543
 11
168.9371456624
 21
79.3603125543
  0
LINE
  5
261
100
AcDbEntity
  8
0
100
AcDbLine
 62
7
  6
CONTINUOUS
 10
169.184340794
 20
79.3603125543
 11
169.6236336312
 21
79.3603125543
  0
LINE
  5
262
100
AcDbEntity
  8
0
100
AcDbLine
 62
7
  6
CONTINUOUS
 10
170.2614094117
 20
79.3603125543
 11
170.3258096945
 21
79.3603125543
  0
LINE
  5
263
100
AcDbEntity
  8
0
100
AcDbLine
 62
7
  6
CONTINUOUS
 10
170.9661259511
 20
79.3603125543
 11
171.4153334545
 21
79.3603125543
  0
LINE
  5
264
100
AcDbEntity
  8
0
100
AcDbLine
 62
7
  6
CONTINUOUS
 10
171.4874379274
 20
79.3603125543
 11
171.941643621
 21
79.3603125543
  0
LINE
  5
265
100
AcDbEntity
  8
0
100
AcDbLine
 62
7
  6
CONTINUOUS
 10
172.8126424386
 20
79.3603125543
 11
173.2966067975
 21
79.3603125543
  0
LINE
  5
266
100
AcDbEntity
  8
0
100
AcDbLine
 62
7
  6
CONTINUOUS
 10
173.4314467568
 20
79.3603121376
 11
173.8887868044
 21
79.3603121376
  0
LINE
  5
267
100
AcDbEntity
  8
0
100
AcDbLine
 62
7
  6
CONTINUOUS
 10
174.5919693975
 20
79.3603121376
 11
175.0336545719
 21
79.3603121376
  0
LINE
  5
268
100
AcDbEntity
  8
RACCORDO
100
AcDbLine
 62
7
  6
CONTINUOUS
 10
167.1756482526
 20
79.423828125
 11
167.6208600048
 21
79.423828125
  0
LINE
  5
269
100
AcDbEntity
  8
RACCORDO
100
AcDbLine
 62
7
  6
CONTINUOUS
 10
168.4779574928
 20
79.423828125
 11
168.9371456624
 21
79.423828125
  0
LINE
  5
26A
100
AcDbEntity
  8
RACCORDO
100
AcDbLine
 62
7
  6
CONTINUOUS
 10
169.1900758865
 20
79.423828125
 11
169.6280152788
 21
79.423828125
  0
LINE
  5
26B
100
AcDbEntity
  8
RACCORDO
100
AcDbLine
 62
7
  6
CONTINUOUS
 10
170.2375902562
 20
79.423828125
 11
170.3500523668
 21
79.423828125
  0
LINE
  5
26C
100
AcDbEntity
  8
RACCORDO
100
AcDbLine
 62
7
  6
CONTINUOUS
 10
170.9619369616
 20
79.423828125
 11
171.4093940363
 21
79.423828125
  0
LINE
  5
26D
100
AcDbEntity
  8
RACCORDO
100
AcDbLine
 62
7
  6
CONTINUOUS
 10
171.5073604789
 20
79.423828125
 11
171.9599692402
 21
79.423828125
  0
LINE
  5
26E
100
AcDbEntity
  8
RACCORDO
100
AcDbLine
 62
7
  6
CONTINUOUS
 10
172.7954381931
 20
79.423828125
 11
173.2771186384
 21
79.423828125
  0
LINE
  5
26F
100
AcDbEntity
  8
RACCORDO
100
AcDbLine
 62
7
  6
CONTINUOUS
 10
173.4314467568
 20
79.423828125
 11
173.8887868044
 21
79.423828125
  0
LINE
  5
270
100
AcDbEntity
  8
RACCORDO
100
AcDbLine
 62
7
  6
CONTINUOUS
 10
174.573670691
 20
79.423828125
 11
175.0168654748
 21
79.423828125
  0
LINE
  5
271
100
AcDbEntity
  8
0
100
AcDbLine
 62
7
  6
CONTINUOUS
 10
172.0683510438
 20
79.7994733915
 11
172.693688444
 21
79.7994733915
  0
LINE
  5
272
100
AcDbEntity
  8
0
100
AcDbLine
 62
7
  6
CONTINUOUS
 10
172.6019201624
 20
80.1392948046
 11
172.1622805634
 21
80.1392948046
  0
LINE
  5
273
100
AcDbEntity
  8
0
100
AcDbLine
 62
7
  6
CONTINUOUS
 10
173.8887868044
 20
80.2211981954
 11
174.1349922658
 21
80.2211981954
  0
LINE
  5
274
100
AcDbEntity
  8
0
100
AcDbLine
 62
7
  6
CONTINUOUS
 10
174.1359820365
 20
80.5814747299
 11
173.8735608318
 21
80.5814747299
  0
LWPOLYLINE
  5
275
100
AcDbEntity
  8
0
100
AcDbPolyline
 62
7
  6
CONTINUOUS
 90
16
 70
0
 10
174.1349922658
 20
80.2211981954
 10
174.1577071046
 20
80.2201576718
 10
174.1797432877
 20
80.2174062366
 10
174.2011008153
 20
80.2129438901
 10
174.2218552072
 20
80.2067423384
 10
174.2419309435
 20
80.1988298752
 10
174.2611014645
 20
80.1892913816
 10
174.2792845682
 20
80.1781912719
 10
174.2965624565
 20
80.1654651316
 10
174.3129551763
 20
80.1510045989
 10
174.3285314298
 20
80.1347734197
 10
174.3432225148
 20
80.1168078481
 10
174.3568423714
 20
80.0971082837
 10
174.3693289796
 20
80.0756748599
 10
174.3807443595
 20
80.0525074434
 10
174.3910885111
 20
80.0276060342
  0
LINE
  5
276
100
AcDbEntity
  8
RACCORDO
100
AcDbLine
 62
7
  6
CONTINUOUS
 10
148.206640625
 20
127.823828125
 11
148.206640625
 21
85.023828125
  0
LINE
  5
277
100
AcDbEntity
  8
0
100
AcDbLine
 62
7
  6
CONTINUOUS
 10
172.6216489235
 20
81.5601270257
 11
172.1774406579
 21
81.5601270257
  0
LINE
  5
278
100
AcDbEntity
  8
0
100
AcDbLine
 62
7
  6
CONTINUOUS
 10
171.2096261305
 20
81.5601270257
 11
170.7553051988
 21
81.5601270257
  0
LINE
  5
279
100
AcDbEntity
  8
0
100
AcDbLine
 62
7
  6
CONTINUOUS
 10
169.8417793355
 20
81.5601270257
 11
169.3829714516
 21
81.5601270257
  0
LINE
  5
27A
100
AcDbEntity
  8
0
100
AcDbLine
 62
7
  6
CONTINUOUS
 10
168.3075528338
 20
81.5601270257
 11
167.8486779023
 21
81.5601270257
  0
LINE
  5
27B
100
AcDbEntity
  8
0
100
AcDbLine
 62
7
  6
CONTINUOUS
 10
166.9972192743
 20
81.5601270257
 11
166.498399678
 21
81.5601270257
  0
LINE
  5
27C
100
AcDbEntity
  8
0
100
AcDbLine
 62
7
  6
CONTINUOUS
 10
168.9371456624
 20
81.5602590257
 11
168.4779574928
 21
81.5602590257
  0
LINE
  5
27D
100
AcDbEntity
  8
RACCORDO
100
AcDbLine
 62
7
  6
CONTINUOUS
 10
149.406640625
 20
83.823828125
 11
192.206640625
 21
83.823828125
  0
LWPOLYLINE
  5
27E
100
AcDbEntity
  8
0
100
AcDbPolyline
 62
7
  6
CONTINUOUS
 90
16
 70
0
 10
174.2332818846
 20
81.1983176149
 10
174.2636330557
 20
81.1930617801
 10
174.2923830847
 20
81.1856092971
 10
174.3195319718
 20
81.175960166
 10
174.3452296988
 20
81.1639815365
 10
174.3693262839
 20
81.1498062589
 10
174.3913717812
 20
81.1338328836
 10
174.4112168238
 20
81.116140587
 10
174.4290107787
 20
81.0966501927
 10
174.444751801
 20
81.0755227225
 10
174.4585652865
 20
81.0524960006
 10
174.4703258394
 20
81.0278322028
 10
174.4796554278
 20
81.0024788775
 10
174.4864280411
 20
80.9767518741
 10
174.4907696899
 20
80.9503353432
 10
174.4926803742
 20
80.9232292847
  0
LWPOLYLINE
  5
27F
100
AcDbEntity
  8
0
100
AcDbPolyline
 62
7
  6
CONTINUOUS
 90
16
 70
0
 10
174.5646517262
 20
81.5112653245
 10
174.5074415148
 20
81.5296904433
 10
174.4473748203
 20
81.5454169228
 10
174.3844516427
 20
81.5584447631
 10
174.3185278974
 20
81.5686430251
 10
174.2497476691
 20
81.5761426478
 10
174.1785432111
 20
81.5813364481
 10
174.1050387572
 20
81.5842587493
 10
174.0291100736
 20
81.5848752281
 10
173.9508167123
 20
81.5834757308
 10
173.8701811411
 20
81.5801160203
 10
173.7871808921
 20
81.5747403339
 10
173.7018081143
 20
81.5674712287
 10
173.6140601906
 20
81.5583495574
 10
173.5239397381
 20
81.5473344675
 10
173.4314467568
 20
81.5344259589
  0
LINE
  5
280
100
AcDbEntity
  8
0
100
AcDbLine
 62
7
  6
CONTINUOUS
 10
169.7227268647
 20
80.796750108
 11
170.2614094117
 21
79.3603125543
  0
LINE
  5
281
100
AcDbEntity
  8
0
100
AcDbLine
 62
7
  6
CONTINUOUS
 10
170.2961170292
 20
80.3387834622
 11
169.8417793355
 21
81.5601270257
  0
LINE
  5
282
100
AcDbEntity
  8
0
100
AcDbLine
 62
7
  6
CONTINUOUS
 10
166.498399678
 20
81.5601270257
 11
167.195783932
 21
79.3603125543
  0
LINE
  5
283
100
AcDbEntity
  8
0
100
AcDbLine
 62
7
  6
CONTINUOUS
 10
167.4165444934
 20
80.0459268088
 11
166.9972192743
 21
81.5601270257
  0
LWPOLYLINE
  5
284
100
AcDbEntity
  8
0
100
AcDbPolyline
 62
7
  6
CONTINUOUS
 90
5
 70
0
 10
174.3910885111
 20
80.0276060342
 10
174.4126911815
 20
79.960714735
 10
174.4344144194
 20
79.8920354443
 10
174.4562582247
 20
79.8215681622
 10
174.4781442114
 20
79.7493463889
  0
LINE
  5
285
100
AcDbEntity
  8
0
100
AcDbLine
 62
7
  6
CONTINUOUS
 10
173.2966067975
 20
79.3603125543
 11
172.6216489235
 21
81.5601270257
  0
LINE
  5
286
100
AcDbEntity
  8
0
100
AcDbLine
 62
7
  6
CONTINUOUS
 10
174.4781442114
 20
79.7493463889
 11
174.545309437
 21
79.5216181163
  0
LINE
  5
287
100
AcDbEntity
  8
0
100
AcDbLine
 62
7
  6
CONTINUOUS
 10
174.545309437
 20
79.5216181163
 11
174.5919693975
 21
79.3603121376
  0
LINE
  5
288
100
AcDbEntity
  8
0
100
AcDbLine
 62
7
  6
CONTINUOUS
 10
172.693688444
 20
79.7994733915
 11
172.8126424386
 21
79.3603125543
  0
LINE
  5
289
100
AcDbEntity
  8
0
100
AcDbLine
 62
7
  6
CONTINUOUS
 10
172.3909171244
 20
80.9556739103
 11
172.6019201624
 21
80.1392948046
  0
LINE
  5
28A
100
AcDbEntity
  8
0
100
AcDbLine
 62
7
  6
CONTINUOUS
 10
171.4153334545
 20
79.3603125543
 11
171.2096261305
 21
81.5601270257
  0
LINE
  5
28B
100
AcDbEntity
  8
0
100
AcDbLine
 62
7
  6
CONTINUOUS
 10
170.8717847173
 20
80.7907619178
 11
170.9661259511
 21
79.3603125543
  0
LINE
  5
28C
100
AcDbEntity
  8
0
100
AcDbLine
 62
7
  6
CONTINUOUS
 10
168.4779574928
 20
81.5602590257
 11
168.4779574928
 21
79.3603125543
  0
LINE
  5
28D
100
AcDbEntity
  8
0
100
AcDbLine
 62
7
  6
CONTINUOUS
 10
168.9371456624
 20
79.3603125543
 11
168.9371456624
 21
81.5602590257
  0
LWPOLYLINE
  5
28E
100
AcDbEntity
  8
0
100
AcDbPolyline
 62
7
  6
CONTINUOUS
 90
13
 70
0
 43
0.3500000006
 10
170.8066323853
 20
161.0309787598
 10
170.8066323853
 20
162.3166856689
 10
171.0209349976
 20
162.7452546387
 10
171.4495039673
 20
163.1738236084
 10
171.6637884521
 20
163.1738236084
 10
172.0923574219
 20
162.7452546387
 10
172.3066419067
 20
162.3166856689
 10
172.3066419067
 20
161.0309787598
 10
172.0923574219
 20
160.6023916626
 10
171.6637884521
 20
160.1738226929
 10
171.4495039673
 20
160.1738226929
 10
171.0209349976
 20
160.6023916626
 10
170.8066323853
 20
161.0309787598
  0
LINE
  5
28F
100
AcDbEntity
  8
SMUSSO
100
AcDbLine
 62
7
  6
CONTINUOUS
 10
215.306640625
 20
150.923828125
 11
214.806640625
 21
150.423828125
  0
LINE
  5
290
100
AcDbEntity
  8
SMUSSO
100
AcDbLine
 62
7
  6
CONTINUOUS
 10
126.806640625
 20
62.423828125
 11
126.306640625
 21
61.923828125
  0
LWPOLYLINE
  5
291
100
AcDbEntity
  8
0
100
AcDbPolyline
 62
7
  6
CONTINUOUS
 90
13
 70
0
 43
0.3500000006
 10
222.1995058594
 20
106.423828949
 10
220.9137808228
 20
106.423828949
 10
220.485211853
 20
106.6381134338
 10
220.0566428833
 20
107.0666824036
 10
220.0566428833
 20
107.2809668884
 10
220.485211853
 20
107.7095449219
 10
220.9137808228
 20
107.9238294067
 10
222.1995058594
 20
107.9238294067
 10
222.6280748291
 20
107.7095449219
 10
223.0566437988
 20
107.2809668884
 10
223.0566437988
 20
107.0666824036
 10
222.6280748291
 20
106.6381134338
 10
222.1995058594
 20
106.423828949
  0
LINE
  5
292
100
AcDbEntity
  8
SMUSSO
100
AcDbLine
 62
7
  6
CONTINUOUS
 10
215.306640625
 20
61.923828125
 11
214.806640625
 21
62.423828125
  0
LINE
  5
293
100
AcDbEntity
  8
SMUSSO
100
AcDbLine
 62
7
  6
CONTINUOUS
 10
126.306640625
 20
150.923828125
 11
126.806640625
 21
150.423828125
  0
LINE
  5
294
100
AcDbEntity
  8
0
100
AcDbLine
 62
7
  6
CONTINUOUS
 10
174.9306486269
 20
79.7534051125
 11
174.8767095673
 21
79.9555889378
  0
LWPOLYLINE
  5
295
100
AcDbEntity
  8
0
100
AcDbPolyline
 62
7
  6
CONTINUOUS
 90
16
 70
0
 10
174.8767095673
 20
79.9555889378
 10
174.8656279145
 20
79.9982595008
 10
174.8538414782
 20
80.0393698623
 10
174.8413502584
 20
80.0789200222
 10
174.8283228853
 20
80.117076525
 10
174.8145907288
 20
80.1536728264
 10
174.7996478982
 20
80.1882092931
 10
174.7833648939
 20
80.220708063
 10
174.7658712155
 20
80.2511469984
 10
174.7470494715
 20
80.2789600532
 10
174.7266382752
 20
80.3040473068
 10
174.7048990133
 20
80.3265086798
 10
174.6824984537
 20
80.3460778886
 10
174.6596588527
 20
80.3626661719
 10
174.6361579541
 20
80.3763622908
 10
174.611995758
 20
80.3871662455
  0
LINE
  5
296
100
AcDbEntity
  8
0
100
AcDbLine
 62
7
  6
CONTINUOUS
 10
175.0336545719
 20
79.3603121376
 11
174.9306486269
 21
79.7534051125
  0
LINE
  5
297
100
AcDbEntity
  8
0
100
AcDbLine
 62
7
  6
CONTINUOUS
 10
173.4314467568
 20
81.5344259589
 11
173.4314467568
 21
79.3603121376
  0
LINE
  5
298
100
AcDbEntity
  8
0
100
AcDbLine
 62
7
  6
CONTINUOUS
 10
173.8735608318
 20
80.5814747299
 11
173.8735608318
 21
81.1853668257
  0
LINE
  5
299
100
AcDbEntity
  8
0
100
AcDbLine
 62
7
  6
CONTINUOUS
 10
173.8887868044
 20
79.3603121376
 11
173.8887868044
 21
80.2211981954
  0
LINE
  5
29A
100
AcDbEntity
  8
0
100
AcDbLine
 62
7
  6
CONTINUOUS
 10
174.611995758
 20
80.3871662455
 11
174.611995758
 21
80.400165234
  0
LWPOLYLINE
  5
29B
100
AcDbEntity
  8
0
100
AcDbPolyline
 62
7
  6
CONTINUOUS
 90
19
 70
0
 10
174.4926803742
 20
80.9232292847
 10
174.4921425137
 20
80.8869304049
 10
174.4890933947
 20
80.8526198625
 10
174.4835330172
 20
80.8202976573
 10
174.4753781457
 20
80.7899309385
 10
174.4647120156
 20
80.7615525569
 10
174.4517843337
 20
80.7352610659
 10
174.4365957772
 20
80.7110726614
 10
174.4191456688
 20
80.6889711475
 10
174.3996816827
 20
80.6690064895
 10
174.3783054298
 20
80.6512442874
 10
174.3549152994
 20
80.6356189413
 10
174.3294541328
 20
80.621983616
 10
174.3017954339
 20
80.6102965407
 10
174.2720656989
 20
80.6005994862
 10
174.2405872586
 20
80.5928709301
 10
174.2074675565
 20
80.5871036983
 10
174.1725991492
 20
80.5833049649
 10
174.1359820365
 20
80.5814747299
  0
LINE
  5
29C
100
AcDbEntity
  8
0
100
AcDbLine
 62
7
  6
CONTINUOUS
 10
169.6236336312
 20
79.3603125543
 11
169.7227268647
 21
80.796750108
  0
LINE
  5
29D
100
AcDbEntity
  8
0
100
AcDbLine
 62
7
  6
CONTINUOUS
 10
169.3829714516
 20
81.5601270257
 11
169.184340794
 21
79.3603125543
  0
LINE
  5
29E
100
AcDbEntity
  8
0
100
AcDbLine
 62
7
  6
CONTINUOUS
 10
167.8486779023
 20
81.5601270257
 11
167.4165444934
 21
80.0459268088
  0
LINE
  5
29F
100
AcDbEntity
  8
0
100
AcDbLine
 62
7
  6
CONTINUOUS
 10
172.1622805634
 20
80.1392948046
 11
172.3909171244
 21
80.9556739103
  0
LINE
  5
2A0
100
AcDbEntity
  8
0
100
AcDbLine
 62
7
  6
CONTINUOUS
 10
171.941643621
 20
79.3603125543
 11
172.0683510438
 21
79.7994733915
  0
LINE
  5
2A1
100
AcDbEntity
  8
0
100
AcDbLine
 62
7
  6
CONTINUOUS
 10
172.1774406579
 20
81.5601270257
 11
171.4874379274
 21
79.3603125543
  0
LINE
  5
2A2
100
AcDbEntity
  8
0
100
AcDbLine
 62
7
  6
CONTINUOUS
 10
167.6004435326
 20
79.3603125543
 11
168.3075528338
 21
81.5601270257
  0
LINE
  5
2A3
100
AcDbEntity
  8
0
100
AcDbLine
 62
7
  6
CONTINUOUS
 10
170.7553051988
 20
81.5601270257
 11
170.2961170292
 21
80.3387834622
  0
LINE
  5
2A4
100
AcDbEntity
  8
0
100
AcDbLine
 62
7
  6
CONTINUOUS
 10
170.3258096945
 20
79.3603125543
 11
170.8717847173
 21
80.7907619178
  0
LINE
  5
2A5
100
AcDbEntity
  8
RACCORDO
100
AcDbLine
 62
7
  6
CONTINUOUS
 10
193.406640625
 20
85.023828125
 11
193.406640625
 21
127.823828125
  0
LWPOLYLINE
  5
2A6
100
AcDbEntity
  8
0
100
AcDbPolyline
 62
7
  6
CONTINUOUS
 90
67
 70
0
 10
174.6399027484
 20
80.4119289848
 10
174.6515972051
 20
80.4189558414
 10
174.6576107541
 20
80.4226715537
 10
174.6637314065
 20
80.4265971936
 10
174.6699617878
 20
80.4307286547
 10
174.6762992725
 20
80.4350700433
 10
174.682737647
 20
80.4396731732
 10
174.6892797966
 20
80.4445505213
 10
174.695922836
 20
80.4496896107
 10
174.7026518956
 20
80.4551048241
 10
174.709463921
 20
80.460796989
 10
174.7163619666
 20
80.466765278
 10
174.7233403263
 20
80.4730215917
 10
174.730404012
 20
80.4795643933
 10
174.7375480118
 20
80.4863952197
 10
174.7447515837
 20
80.4935305821
 10
174.7520129879
 20
80.5009592104
 10
174.7593339643
 20
80.5086923746
 10
174.7666989906
 20
80.5167803961
 10
174.7741121856
 20
80.5252220795
 10
174.7815694304
 20
80.5340186202
 10
174.7890428458
 20
80.5432239255
 10
174.7965336339
 20
80.5528332471
 10
174.8040405925
 20
80.5628513334
 10
174.8115322356
 20
80.5733463377
 10
174.819015884
 20
80.5843179886
 10
174.8264842168
 20
80.5957665575
 10
174.8338837863
 20
80.6077610113
 10
174.8412224072
 20
80.6203016332
 10
174.8484922646
 20
80.6333881401
 10
174.8556164665
 20
80.6470886498
 10
174.8626035268
 20
80.6614039732
 10
174.8694449317
 20
80.6763332995
 10
174.8760382474
 20
80.6919423142
 10
174.8823908416
 20
80.7082303421
 10
174.8884953466
 20
80.7251980583
 10
174.8942272258
 20
80.7429131741
 10
174.8995936874
 20
80.7613850567
 10
174.9045875233
 20
80.7806043389
 10
174.9090625722
 20
80.8006106291
 10
174.9130239211
 20
80.8214075562
 10
174.916466483
 20
80.8429914915
 10
174.9192288371
 20
80.8653911569
 10
174.9213170298
 20
80.888591604
 10
174.9227250146
 20
80.9126077813
 10
174.9232732308
 20
80.9375132571
 10
174.9230222094
 20
80.9633228869
 10
174.9219114194
 20
80.9900218152
 10
174.9195797071
 20
81.0176390431
 10
174.9161013454
 20
81.0462290424
 10
174.9114020614
 20
81.0757373414
 10
174.9048978838
 20
81.106029526
 10
174.8965998069
 20
81.1372092822
 10
174.8864968362
 20
81.1691729241
 10
174.8739720176
 20
81.2014749795
 10
174.8588559334
 20
81.2343374687
 10
174.8413180013
 20
81.2675383714
 10
174.8212495197
 20
81.2999661547
 10
174.7983080178
 20
81.3316805679
 10
174.7728359665
 20
81.3626218617
 10
174.745752077
 20
81.3914992559
 10
174.7168657651
 20
81.4181630401
 10
174.6863676149
 20
81.4427629248
 10
174.6557480896
 20
81.4644572605
 10
174.6255040102
 20
81.4829654975
 10
174.5951385558
 20
81.4985681855
 10
174.5646517262
 20
81.5112653245
  0
LINE
  5
2A7
100
AcDbEntity
  8
RACCORDO
100
AcDbLine
 62
7
  6
CONTINUOUS
 10
192.206640625
 20
129.023828125
 11
149.406640625
 21
129.023828125
  0
LWPOLYLINE
  5
2A8
100
AcDbEntity
  8
0
100
AcDbPolyline
 62
7
  6
CONTINUOUS
 90
10
 70
0
 43
0.3500000006
 10
223.0566437988
 20
104.4952595215
 10
222.1995058594
 20
105.3523974609
 10
221.3423497925
 20
105.5666819458
 10
220.485211853
 20
105.5666819458
 10
220.0566428833
 20
105.1381129761
 10
220.0566428833
 20
104.4952595215
 10
220.485211853
 20
104.066681488
 10
221.3423497925
 20
104.066681488
 10
221.7709187622
 20
104.4952595215
 10
221.7709187622
 20
105.4238286438
  0
LINE
  5
2A9
100
AcDbEntity
  8
SMUSSO
100
AcDbLine
 62
7
  6
CONTINUOUS
 10
214.806640625
 20
62.423828125
 11
214.806640625
 21
150.423828125
  0
LINE
  5
2AA
100
AcDbEntity
  8
SMUSSO
100
AcDbLine
 62
7
  6
CONTINUOUS
 10
215.806640625
 20
62.423828125
 11
215.806640625
 21
150.423828125
  0
LINE
  5
2AB
100
AcDbEntity
  8
SMUSSO
100
AcDbLine
 62
7
  6
CONTINUOUS
 10
214.806640625
 20
150.423828125
 11
126.806640625
 21
150.423828125
  0
LINE
  5
2AC
100
AcDbEntity
  8
SMUSSO
100
AcDbLine
 62
7
  6
CONTINUOUS
 10
214.806640625
 20
151.423828125
 11
126.806640625
 21
151.423828125
  0
LINE
  5
2AD
100
AcDbEntity
  8
SMUSSO
100
AcDbLine
 62
7
  6
CONTINUOUS
 10
215.806640625
 20
62.423828125
 11
214.806640625
 21
61.423828125
  0
LINE
  5
2AE
100
AcDbEntity
  8
SMUSSO
100
AcDbLine
 62
7
  6
CONTINUOUS
 10
214.806640625
 20
151.423828125
 11
215.806640625
 21
150.423828125
  0
LINE
  5
2AF
100
AcDbEntity
  8
SMUSSO
100
AcDbLine
 62
7
  6
CONTINUOUS
 10
90.0008789011
 20
61.423828125
 11
91.5008789011
 21
61.423828125
  0
LWPOLYLINE
  5
2B0
100
AcDbEntity
  8
0
100
AcDbPolyline
 62
7
  6
CONTINUOUS
 90
3
 70
0
 43
0.3500000006
 10
100.3044083862
 20
172.3166887207
 10
101.1615553894
 20
173.1738266602
 10
101.1615553894
 20
170.1738257446
  0
LINE
  5
2B1
100
AcDbEntity
  8
0
100
AcDbLine
 62
250
  6
CONTINUOUS
 10
95.0519225464
 20
63.0834214183
 11
96.5508789011
 21
63.3855177969
  0
LINE
  5
2B2
100
AcDbEntity
  8
0
100
AcDbLine
 62
7
  6
CONTINUOUS
 10
92.1508789011
 20
62.0732084367
 11
95.0508789011
 21
62.123828125
  0
LINE
  5
2B3
100
AcDbEntity
  8
SMUSSO
100
AcDbLine
 62
7
  6
CONTINUOUS
 10
90.0008789011
 20
62.423828125
 11
91.5008789011
 21
62.423828125
  0
LINE
  5
2B4
100
AcDbEntity
  8
0
100
AcDbLine
 62
250
  6
CONTINUOUS
 10
92.1508789011
 20
63.123828125
 11
95.0508789011
 21
63.123828125
  0
LINE
  5
2B5
100
AcDbEntity
  8
RACCORDO
100
AcDbLine
 62
7
  6
CONTINUOUS
 10
92.1508789011
 20
66.423828125
 11
92.0008789011
 21
66.423828125
  0
LINE
  5
2B6
100
AcDbEntity
  8
RACCORDO
100
AcDbLine
 62
250
  6
CONTINUOUS
 10
92.1508789011
 20
68.423828125
 11
92.0008789011
 21
68.423828125
  0
LINE
  5
2B7
100
AcDbEntity
  8
SMUSSO
100
AcDbLine
 62
7
  6
CONTINUOUS
 10
90.0008789011
 20
151.423828125
 11
89.0008789011
 21
150.423828125
  0
LINE
  5
2B8
100
AcDbEntity
  8
SMUSSO
100
AcDbLine
 62
7
  6
CONTINUOUS
 10
91.5008789011
 20
150.423828125
 11
92.0008789011
 21
150.923828125
  0
LINE
  5
2B9
100
AcDbEntity
  8
SMUSSO
100
AcDbLine
 62
7
  6
CONTINUOUS
 10
89.0008789011
 20
62.423828125
 11
90.0008789011
 21
61.423828125
  0
LINE
  5
2BA
100
AcDbEntity
  8
SMUSSO
100
AcDbLine
 62
7
  6
CONTINUOUS
 10
92.0008789011
 20
61.923828125
 11
91.5008789011
 21
62.423828125
  0
LWPOLYLINE
  5
2BB
100
AcDbEntity
  8
0
100
AcDbPolyline
 62
250
  6
CONTINUOUS
 90
5
 70
0
 10
98.5959702783
 20
79.9201659782
 10
98.5757308967
 20
79.9183756874
 10
98.554840327
 20
79.9169748042
 10
98.5331873005
 20
79.915923171
 10
98.510771817
 20
79.9152206769
  0
LINE
  5
2BC
100
AcDbEntity
  8
0
100
AcDbLine
 62
7
  6
CONTINUOUS
 10
97.476716099
 20
79.2736986864
 11
96.5508789011
 21
79.272082794
  0
LINE
  5
2BD
100
AcDbEntity
  8
0
100
AcDbLine
 62
250
  6
CONTINUOUS
 10
97.4766514849
 20
79.4961488811
 11
96.5508789011
 21
79.4957306866
  0
LINE
  5
2BE
100
AcDbEntity
  8
0
100
AcDbLine
 62
7
  6
CONTINUOUS
 10
96.5508789011
 20
80.5893572254
 11
97.5527588209
 21
80.6237450699
  0
LWPOLYLINE
  5
2BF
100
AcDbEntity
  8
0
100
AcDbPolyline
 62
7
  6
CONTINUOUS
 90
15
 70
0
 10
98.5108691226
 20
79.8952067892
 10
98.5349786852
 20
79.8958699683
 10
98.5635822905
 20
79.8972505486
 10
98.5916727824
 20
79.8992311942
 10
98.6191169888
 20
79.9017765291
 10
98.6459982349
 20
79.9048957026
 10
98.6722505387
 20
79.9085880247
 10
98.6975821394
 20
79.9128338653
 10
98.7220291692
 20
79.9176691955
 10
98.7456790486
 20
79.923160755
 10
98.7685319351
 20
79.9294163569
 10
98.7910960117
 20
79.9367067372
 10
98.8132607935
 20
79.9452847587
 10
98.8342272107
 20
79.955087937
 10
98.8382909296
 20
79.9572095173
  0
LINE
  5
2C0
100
AcDbEntity
  8
0
100
AcDbLine
 62
7
  6
CONTINUOUS
 10
96.5508789011
 20
79.8600419749
 11
98.5108692391
 21
79.8952067875
  0
LINE
  5
2C1
100
AcDbEntity
  8
0
100
AcDbLine
 62
250
  6
CONTINUOUS
 10
98.510771817
 20
79.9152206769
 11
96.5508789011
 21
79.8800273168
  0
LINE
  5
2C2
100
AcDbEntity
  8
0
100
AcDbLine
 62
7
  6
CONTINUOUS
 10
97.50100328
 20
81.223828125
 11
96.5508789011
 21
81.223828125
  0
LINE
  5
2C3
100
AcDbEntity
  8
0
100
AcDbLine
 62
7
  6
CONTINUOUS
 10
96.5508789011
 20
81.373828125
 11
96.7008789011
 21
81.373828125
  0
LINE
  5
2C4
100
AcDbEntity
  8
0
100
AcDbLine
 62
7
  6
CONTINUOUS
 10
97.0008789011
 20
81.373828125
 11
97.2008789011
 21
81.373828125
  0
LWPOLYLINE
  5
2C5
100
AcDbEntity
  8
0
100
AcDbPolyline
 62
7
  6
CONTINUOUS
 90
25
 70
0
 10
99.3613460924
 20
80.607604313
 10
99.3746757986
 20
80.6072291368
 10
99.3878573801
 20
80.6063874829
 10
99.4008335093
 20
80.6050793513
 10
99.4135656848
 20
80.6032840498
 10
99.4259826365
 20
80.6010222706
 10
99.4379846037
 20
80.5983560903
 10
99.4495187146
 20
80.5952793597
 10
99.4605541233
 20
80.591798228
 10
99.4710357211
 20
80.5879932202
 10
99.480922933
 20
80.5838667227
 10
99.4902020557
 20
80.579416349
 10
99.4988644688
 20
80.5747154648
 10
99.506881531
 20
80.569772205
 10
99.514246557
 20
80.5645784347
 10
99.5209781105
 20
80.5591831152
 10
99.5270558386
 20
80.5535910895
 10
99.5324654915
 20
80.5477975147
 10
99.5372189496
 20
80.5418368232
 10
99.5412928093
 20
80.5357118514
 10
99.5446685445
 20
80.529419763
 10
99.547343519
 20
80.5229864811
 10
99.5492914357
 20
80.5164206468
 10
99.5504782184
 20
80.509713619
 10
99.5508789011
 20
80.5028653977
  0
LINE
  5
2C6
100
AcDbEntity
  8
0
100
AcDbLine
 62
7
  6
CONTINUOUS
 10
96.5508789011
 20
80.6680082505
 11
97.5527588209
 21
80.6237450699
  0
LINE
  5
2C7
100
AcDbEntity
  8
0
100
AcDbLine
 62
7
  6
CONTINUOUS
 10
97.600506999
 20
81.2188653152
 11
99.5508789011
 21
81.023828125
  0
LINE
  5
2C8
100
AcDbEntity
  8
0
100
AcDbLine
 62
7
  6
CONTINUOUS
 10
96.7008789011
 20
131.473828125
 11
96.8508789011
 21
131.623828125
  0
LINE
  5
2C9
100
AcDbEntity
  8
0
100
AcDbLine
 62
7
  6
CONTINUOUS
 10
97.2008789011
 20
131.473828125
 11
97.3508789011
 21
131.623828125
  0
LINE
  5
2CA
100
AcDbEntity
  8
0
100
AcDbLine
 62
7
  6
CONTINUOUS
 10
96.7008789011
 20
81.373828125
 11
96.8508789011
 21
81.223828125
  0
LINE
  5
2CB
100
AcDbEntity
  8
0
100
AcDbLine
 62
7
  6
CONTINUOUS
 10
97.2008789011
 20
81.373828125
 11
97.3508789011
 21
81.223828125
  0
LWPOLYLINE
  5
2CC
100
AcDbEntity
  8
0
100
AcDbPolyline
 62
250
  6
CONTINUOUS
 90
9
 70
0
 10
97.570739141
 20
79.3493223662
 10
97.5780093
 20
79.3401105574
 10
97.5850669767
 20
79.3316931311
 10
97.5918289033
 20
79.3242419402
 10
97.5981668044
 20
79.3179757182
 10
97.6039523121
 20
79.3131019941
 10
97.6090636085
 20
79.3098199572
 10
97.6133828952
 20
79.3083254387
 10
97.6167851348
 20
79.3088123289
  0
LWPOLYLINE
  5
2CD
100
AcDbEntity
  8
0
100
AcDbPolyline
 62
7
  6
CONTINUOUS
 90
3
 70
0
 43
0.3500000006
 10
105.0901254272
 20
170.4595504761
 10
105.0186942444
 20
170.2452478638
 10
104.8758409424
 20
169.9595412598
  0
LWPOLYLINE
  5
2CE
100
AcDbEntity
  8
0
100
AcDbPolyline
 62
250
  6
CONTINUOUS
 90
19
 70
0
 10
97.4766514849
 20
133.3515073689
 10
97.4845935513
 20
133.3652950826
 10
97.4928940105
 20
133.3794758376
 10
97.5015194285
 20
133.3939561246
 10
97.510438079
 20
133.4086489923
 10
97.5195887385
 20
133.4234073332
 10
97.5288822979
 20
133.4380316171
 10
97.5382456886
 20
133.452361504
 10
97.5476080687
 20
133.4662504255
 10
97.5568731752
 20
133.4795097712
 10
97.565976842
 20
133.4919964917
 10
97.5747831383
 20
133.5034684431
 10
97.583096527
 20
133.5136236932
 10
97.5908417457
 20
133.52232323
 10
97.5979006874
 20
133.5293903133
 10
97.604073946
 20
133.5346092313
 10
97.6092851261
 20
133.5379250004
 10
97.6135333502
 20
133.5393416805
 10
97.6167851348
 20
133.5388439211
  0
LWPOLYLINE
  5
2CF
100
AcDbEntity
  8
0
100
AcDbPolyline
 62
250
  6
CONTINUOUS
 90
14
 70
0
 10
97.4766514849
 20
79.4961488811
 10
97.4834134177
 20
79.4843750171
 10
97.4902820361
 20
79.4725787444
 10
97.4972404385
 20
79.4607988071
 10
97.5042320955
 20
79.4491367166
 10
97.511275411
 20
79.437573068
 10
97.5184596014
 20
79.4259844327
 10
97.5257703954
 20
79.4144174914
 10
97.5331594157
 20
79.4029683103
 10
97.5406511165
 20
79.3916249448
 10
97.548206731
 20
79.3804774854
 10
97.5557651728
 20
79.3696495613
 10
97.5633006827
 20
79.3592159452
 10
97.570739141
 20
79.3493223662
  0
LWPOLYLINE
  5
2D0
100
AcDbEntity
  8
0
100
AcDbPolyline
 62
7
  6
CONTINUOUS
 90
3
 70
0
 43
0.3500000006
 10
104.0595350647
 20
160.4595474243
 10
103.9881129456
 20
160.2452629395
 10
103.8452505798
 20
159.959538208
  0
LINE
  5
2D1
100
AcDbEntity
  8
SMUSSO
100
AcDbLine
 62
7
  6
CONTINUOUS
 10
89.0008789011
 20
62.423828125
 11
89.0008789011
 21
150.423828125
  0
LINE
  5
2D2
100
AcDbEntity
  8
SMUSSO
100
AcDbLine
 62
7
  6
CONTINUOUS
 10
90.0008789011
 20
62.423828125
 11
90.0008789011
 21
150.423828125
  0
LINE
  5
2D3
100
AcDbEntity
  8
SMUSSO
100
AcDbLine
 62
7
  6
CONTINUOUS
 10
91.5008789011
 20
150.423828125
 11
91.5008789011
 21
62.423828125
  0
LINE
  5
2D4
100
AcDbEntity
  8
0
100
AcDbLine
 62
7
  6
CONTINUOUS
 10
95.0587471381
 20
62.9426488769
 11
95.0519225464
 21
63.0834214183
  0
LINE
  5
2D5
100
AcDbEntity
  8
SMUSSO
100
AcDbLine
 62
7
  6
CONTINUOUS
 10
92.0008789011
 20
150.923828125
 11
92.0008789011
 21
61.923828125
  0
LINE
  5
2D6
100
AcDbEntity
  8
0
100
AcDbLine
 62
7
  6
CONTINUOUS
 10
92.1508789011
 20
62.0732084367
 11
92.1508789011
 21
150.7744478133
  0
LWPOLYLINE
  5
2D7
100
AcDbEntity
  8
0
100
AcDbPolyline
 62
7
  6
CONTINUOUS
 90
17
 70
0
 10
95.0666479418
 20
150.1091053478
 10
95.0685975832
 20
150.1736188473
 10
95.0701612822
 20
150.2355318328
 10
95.0713512313
 20
150.2947456585
 10
95.0721468206
 20
150.3512773498
 10
95.0725411803
 20
150.4050073499
 10
95.0725411802
 20
150.4554282969
 10
95.0721468203
 20
150.5020088113
 10
95.0713512307
 20
150.5444002707
 10
95.0701612812
 20
150.5825983623
 10
95.0685975821
 20
150.6166158259
 10
95.0666479407
 20
150.646330735
 10
95.0643245496
 20
150.6714530327
 10
95.0616845959
 20
150.6917566914
 10
95.058747142
 20
150.7071385493
 10
95.0554931255
 20
150.7175631286
 10
95.0519225464
 20
150.7229932088
  0
LINE
  5
2D8
100
AcDbEntity
  8
0
100
AcDbLine
 62
7
  6
CONTINUOUS
 10
95.0616845964
 20
149.9743018833
 11
95.0666479418
 21
150.1091053478
  0
LWPOLYLINE
  5
2D9
100
AcDbEntity
  8
0
100
AcDbPolyline
 62
7
  6
CONTINUOUS
 90
3
 70
0
 10
95.0519225464
 20
149.7642348317
 10
95.0554931256
 20
149.8348671558
 10
95.0616845964
 20
149.9743018833
  0
LINE
  5
2DA
100
AcDbEntity
  8
0
100
AcDbLine
 62
7
  6
CONTINUOUS
 10
95.0508789011
 20
149.723828125
 11
95.0508789011
 21
63.123828125
  0
LINE
  5
2DB
100
AcDbEntity
  8
0
100
AcDbLine
 62
7
  6
CONTINUOUS
 10
96.5508789011
 20
149.523828125
 11
96.5508789011
 21
63.323828125
  0
LINE
  5
2DC
100
AcDbEntity
  8
0
100
AcDbLine
 62
250
  6
CONTINUOUS
 10
97.4767162608
 20
79.2740504707
 11
97.4766514849
 21
79.4961488811
  0
LINE
  5
2DD
100
AcDbEntity
  8
0
100
AcDbLine
 62
250
  6
CONTINUOUS
 10
97.4766514849
 20
133.3515073689
 11
97.4767161382
 21
133.5736040113
  0
LWPOLYLINE
  5
2DE
100
AcDbEntity
  8
0
100
AcDbPolyline
 62
250
  6
CONTINUOUS
 90
4
 70
0
 10
98.4278228701
 20
132.9947421928
 10
98.4277903751
 20
132.9937636458
 10
98.4277502871
 20
132.9900821519
 10
98.4276671943
 20
132.9747484932
  0
LWPOLYLINE
  5
2DF
100
AcDbEntity
  8
0
100
AcDbPolyline
 62
7
  6
CONTINUOUS
 90
16
 70
0
 10
99.5508789011
 20
132.4141541579
 10
99.5500144191
 20
132.4040337741
 10
99.547435985
 20
132.3941705736
 10
99.543177
 20
132.3845645563
 10
99.5372639986
 20
132.3751182745
 10
99.529769127
 20
132.3659291759
 10
99.5208581905
 20
132.3572896039
 10
99.5106984779
 20
132.349258202
 10
99.4993887665
 20
132.3417763267
 10
99.4870368831
 20
132.3349603904
 10
99.4737769612
 20
132.3288292748
 10
99.4597357416
 20
132.3233640982
 10
99.4449973966
 20
132.3186246277
 10
99.429669895
 20
132.3146307856
 10
99.4138927628
 20
132.3113626497
 10
99.3977896327
 20
132.3088202199
  0
LINE
  5
2E0
100
AcDbEntity
  8
0
100
AcDbLine
 62
250
  6
CONTINUOUS
 10
99.3613460924
 20
132.3038147927
 11
99.3613460924
 21
131.8048748441
  0
LINE
  5
2E1
100
AcDbEntity
  8
0
100
AcDbLine
 62
250
  6
CONTINUOUS
 10
99.3613460924
 20
81.0427814059
 11
99.3613460924
 21
80.6076179331
  0
LINE
  5
2E2
100
AcDbEntity
  8
0
100
AcDbLine
 62
7
  6
CONTINUOUS
 10
99.5508789011
 20
132.5121924654
 11
99.5508789011
 21
131.823828125
  0
LINE
  5
2E3
100
AcDbEntity
  8
0
100
AcDbLine
 62
7
  6
CONTINUOUS
 10
99.5508789011
 20
81.023828125
 11
99.5508789011
 21
80.3354637846
  0
LWPOLYLINE
  5
2E4
100
AcDbEntity
  8
0
100
AcDbPolyline
 62
250
  6
CONTINUOUS
 90
4
 70
0
 10
98.5108692391
 20
79.8952067875
 10
98.5109110018
 20
79.8961896406
 10
98.5109143621
 20
79.8998763878
 10
98.510771817
 20
79.9152206769
  0
LWPOLYLINE
  5
2E5
100
AcDbEntity
  8
0
100
AcDbPolyline
 62
7
  6
CONTINUOUS
 90
4
 70
0
 43
0.3500000006
 10
100.98811203
 20
162.5309701538
 10
100.98811203
 20
163.1738236084
 10
102.4881124878
 20
163.1738236084
 10
101.6309654846
 20
160.1738226929
  0
LWPOLYLINE
  5
2E6
100
AcDbEntity
  8
0
100
AcDbPolyline
 62
7
  6
CONTINUOUS
 90
13
 70
0
 43
0.3500000006
 10
102.0187023926
 20
171.0309636841
 10
102.0187023926
 20
172.3166887207
 10
102.2329868774
 20
172.7452576904
 10
102.6615558472
 20
173.1738266602
 10
102.875840332
 20
173.1738266602
 10
103.3044093018
 20
172.7452576904
 10
103.5186937866
 20
172.3166887207
 10
103.5186937866
 20
171.0309636841
 10
103.3044093018
 20
170.6023947144
 10
102.875840332
 20
170.1738257446
 10
102.6615558472
 20
170.1738257446
 10
102.2329868774
 20
170.6023947144
 10
102.0187023926
 20
171.0309636841
  0
LINE
  5
2E7
100
AcDbEntity
  8
0
100
AcDbLine
 62
7
  6
CONTINUOUS
 10
96.8508789011
 20
81.223828125
 11
97.0008789011
 21
81.373828125
  0
LINE
  5
2E8
100
AcDbEntity
  8
RACCORDO
100
AcDbLine
 62
250
  6
CONTINUOUS
 10
92.1508789011
 20
127.423828125
 11
92.0008789011
 21
127.423828125
  0
LINE
  5
2E9
100
AcDbEntity
  8
0
100
AcDbLine
 62
7
  6
CONTINUOUS
 10
96.8508789011
 20
131.623828125
 11
97.0008789011
 21
131.473828125
  0
LINE
  5
2EA
100
AcDbEntity
  8
RACCORDO
100
AcDbLine
 62
7
  6
CONTINUOUS
 10
92.1508789011
 20
129.423828125
 11
92.0008789011
 21
129.423828125
  0
LWPOLYLINE
  5
2EB
100
AcDbEntity
  8
0
100
AcDbPolyline
 62
7
  6
CONTINUOUS
 90
19
 70
0
 10
95.0519225464
 20
62.1246630412
 10
95.0554931237
 20
62.1300931189
 10
95.0587471382
 20
62.1405176873
 10
95.0616845899
 20
62.1558995207
 10
95.0643245405
 20
62.1762031252
 10
95.0666479283
 20
62.2013253401
 10
95.0685975685
 20
62.2310401775
 10
95.0701612703
 20
62.2650576155
 10
95.0713512245
 20
62.3032557252
 10
95.0721468177
 20
62.3456472444
 10
95.0725411787
 20
62.3922278843
 10
95.0725411786
 20
62.4426490144
 10
95.0721468175
 20
62.4963791853
 10
95.0713512242
 20
62.5529110078
 10
95.0701612699
 20
62.6121249335
 10
95.0685975679
 20
62.6740379539
 10
95.0666479279
 20
62.7385513719
 10
95.0643245402
 20
62.8051786008
 10
95.0587471381
 20
62.9426488769
  0
LINE
  5
2EC
100
AcDbEntity
  8
0
100
AcDbLine
 62
250
  6
CONTINUOUS
 10
99.5508789005
 20
80.3831549543
 11
98.7477942905
 21
79.9540340115
  0
LINE
  5
2ED
100
AcDbEntity
  8
0
100
AcDbLine
 62
250
  6
CONTINUOUS
 10
97.4766514849
 20
79.4961488811
 11
98.21855069
 21
79.8899622071
  0
LINE
  5
2EE
100
AcDbEntity
  8
0
100
AcDbLine
 62
7
  6
CONTINUOUS
 10
99.5508789011
 20
80.3354637846
 11
97.6158908629
 21
79.3083376334
  0
LWPOLYLINE
  5
2EF
100
AcDbEntity
  8
0
100
AcDbPolyline
 62
250
  6
CONTINUOUS
 90
12
 70
0
 10
98.7477942905
 20
79.9540340115
 10
98.7395541025
 20
79.9501216797
 10
98.7302276011
 20
79.9463756178
 10
98.7198147862
 20
79.9427955112
 10
98.7083414893
 20
79.9393850859
 10
98.6957818789
 20
79.9361400321
 10
98.6820584606
 20
79.9330480205
 10
98.6671228882
 20
79.9300787488
 10
98.651023508
 20
79.9272620855
 10
98.6338278643
 20
79.9246759023
 10
98.615447203
 20
79.9223059531
 10
98.5959702783
 20
79.9201659782
  0
LINE
  5
2F0
100
AcDbEntity
  8
0
100
AcDbLine
 62
250
  6
CONTINUOUS
 10
98.8380753089
 20
79.9570949287
 11
98.8342272107
 21
79.955087937
  0
LWPOLYLINE
  5
2F1
100
AcDbEntity
  8
0
100
AcDbPolyline
 62
250
  6
CONTINUOUS
 90
9
 70
0
 10
98.8293062716
 20
79.9530130926
 10
98.8201071696
 20
79.9498459234
 10
98.8105245427
 20
79.9476094462
 10
98.8006068492
 20
79.9463149642
 10
98.7904042899
 20
79.945969038
 10
98.7799685387
 20
79.9465734422
 10
98.7693523951
 20
79.9481251134
 10
98.7586095335
 20
79.9506161763
 10
98.7477942905
 20
79.9540340115
  0
LINE
  5
2F2
100
AcDbEntity
  8
0
100
AcDbLine
 62
7
  6
CONTINUOUS
 10
97.600506999
 20
131.6287909348
 11
99.5508789011
 21
131.823828125
  0
LINE
  5
2F3
100
AcDbEntity
  8
0
100
AcDbLine
 62
7
  6
CONTINUOUS
 10
96.5508789011
 20
132.1796479995
 11
99.3613460924
 21
132.3038147927
  0
LINE
  5
2F4
100
AcDbEntity
  8
0
100
AcDbLine
 62
7
  6
CONTINUOUS
 10
96.5508789011
 20
131.473828125
 11
96.7008789011
 21
131.473828125
  0
LINE
  5
2F5
100
AcDbEntity
  8
0
100
AcDbLine
 62
7
  6
CONTINUOUS
 10
97.0008789011
 20
131.473828125
 11
97.2008789011
 21
131.473828125
  0
LINE
  5
2F6
100
AcDbEntity
  8
0
100
AcDbLine
 62
7
  6
CONTINUOUS
 10
96.5508789011
 20
131.623828125
 11
97.50100328
 21
131.623828125
  0
LINE
  5
2F7
100
AcDbEntity
  8
RACCORDO
100
AcDbLine
 62
250
  6
CONTINUOUS
 10
92.0008789011
 20
132.423828125
 11
92.1508789011
 21
132.423828125
  0
LINE
  5
2F8
100
AcDbEntity
  8
RACCORDO
100
AcDbLine
 62
7
  6
CONTINUOUS
 10
92.1508789011
 20
133.423828125
 11
92.0008789011
 21
133.423828125
  0
LINE
  5
2F9
100
AcDbEntity
  8
0
100
AcDbLine
 62
250
  6
CONTINUOUS
 10
97.4766514849
 20
133.3515073689
 11
96.5508789011
 21
133.3519255634
  0
LINE
  5
2FA
100
AcDbEntity
  8
0
100
AcDbLine
 62
250
  6
CONTINUOUS
 10
96.5508789011
 20
132.9762117001
 11
98.4276671943
 21
132.9747484932
  0
LINE
  5
2FB
100
AcDbEntity
  8
0
100
AcDbLine
 62
7
  6
CONTINUOUS
 10
98.4278228661
 20
132.9947421928
 11
96.5508789011
 21
132.9961956002
  0
LINE
  5
2FC
100
AcDbEntity
  8
0
100
AcDbLine
 62
7
  6
CONTINUOUS
 10
97.476716099
 20
133.5739575636
 11
96.5508789011
 21
133.575573456
  0
LWPOLYLINE
  5
2FD
100
AcDbEntity
  8
0
100
AcDbPolyline
 62
250
  6
CONTINUOUS
 90
3
 70
0
 10
98.4276671943
 20
132.9747484932
 10
98.4455070969
 20
132.9745305609
 10
98.4628071368
 20
132.9740647794
  0
LWPOLYLINE
  5
2FE
100
AcDbEntity
  8
0
100
AcDbPolyline
 62
250
  6
CONTINUOUS
 90
5
 70
0
 10
98.4628071368
 20
132.9740647794
 10
98.4795673141
 20
132.9733510932
 10
98.4958683966
 20
132.9723611588
 10
98.5116296165
 20
132.9711231085
 10
98.5266086703
 20
132.9697216059
  0
LWPOLYLINE
  5
2FF
100
AcDbEntity
  8
0
100
AcDbPolyline
 62
250
  6
CONTINUOUS
 90
13
 70
0
 10
98.5266086703
 20
132.9697216059
 10
98.5406861801
 20
132.968172971
 10
98.5539815239
 20
132.96646066
 10
98.566610532
 20
132.9646201014
 10
98.5785099332
 20
132.9626859543
 10
98.5897429988
 20
132.9606233492
 10
98.6006153728
 20
132.9583633702
 10
98.6113000395
 20
132.9559002238
 10
98.6216240147
 20
132.9532392544
 10
98.631373989
 20
132.9503280907
 10
98.6404788596
 20
132.947149004
 10
98.6490097293
 20
132.943718982
 10
98.6569665983
 20
132.9400376173
  0
LWPOLYLINE
  5
300
100
AcDbEntity
  8
0
100
AcDbPolyline
 62
250
  6
CONTINUOUS
 90
10
 70
0
 10
98.7507380991
 20
132.9369214695
 10
98.7416071489
 20
132.941171611
 10
98.7320300809
 20
132.9444682462
 10
98.7220573738
 20
132.946794
 10
98.7117415914
 20
132.9481366142
 10
98.7011371058
 20
132.9484890131
 10
98.6902998106
 20
132.9478493397
 10
98.6792868264
 20
132.946220966
 10
98.6681562001
 20
132.9436124755
 10
98.6569665983
 20
132.9400376173
  0
LWPOLYLINE
  5
301
100
AcDbEntity
  8
0
100
AcDbPolyline
 62
7
  6
CONTINUOUS
 90
15
 70
0
 10
98.7506229657
 20
132.9369822362
 10
98.7429771809
 20
132.9408963209
 10
98.7220695626
 20
132.9502950194
 10
98.7000359494
 20
132.9584598849
 10
98.67762533
 20
132.965366329
 10
98.6548943834
 20
132.9712369749
 10
98.6313705192
 20
132.9763362582
 10
98.6070679402
 20
132.9807525826
 10
98.5819085713
 20
132.9845520991
 10
98.5558469762
 20
132.9877678776
 10
98.5291629238
 20
132.9903824215
 10
98.5019197645
 20
132.9923984677
 10
98.474042544
 20
132.9938134465
 10
98.4456790498
 20
132.9945942479
 10
98.4278229267
 20
132.9947421897
  0
LINE
  5
302
100
AcDbEntity
  8
0
100
AcDbLine
 62
250
  6
CONTINUOUS
 10
98.1483485261
 20
132.9949586032
 11
97.4766514849
 21
133.3515073689
  0
LINE
  5
303
100
AcDbEntity
  8
0
100
AcDbLine
 62
7
  6
CONTINUOUS
 10
97.6158908629
 20
133.5393186166
 11
99.5508789011
 21
132.5121924654
  0
LINE
  5
304
100
AcDbEntity
  8
0
100
AcDbLine
 62
250
  6
CONTINUOUS
 10
98.6569665983
 20
132.9400376173
 11
99.5508789011
 21
132.4622940895
  0
LINE
  5
305
100
AcDbEntity
  8
SMUSSO
100
AcDbLine
 62
7
  6
CONTINUOUS
 10
90.0008789011
 20
62.423828125
 11
89.5008789011
 21
61.923828125
  0
LINE
  5
306
100
AcDbEntity
  8
SMUSSO
100
AcDbLine
 62
7
  6
CONTINUOUS
 10
91.5008789011
 20
61.423828125
 11
92.0008789011
 21
61.923828125
  0
LINE
  5
307
100
AcDbEntity
  8
RACCORDO
100
AcDbLine
 62
250
  6
CONTINUOUS
 10
92.1508789011
 20
135.423828125
 11
92.0008789011
 21
135.423828125
  0
LINE
  5
308
100
AcDbEntity
  8
SMUSSO
100
AcDbLine
 62
7
  6
CONTINUOUS
 10
89.5008789011
 20
150.923828125
 11
90.0008789011
 21
150.423828125
  0
LINE
  5
309
100
AcDbEntity
  8
SMUSSO
100
AcDbLine
 62
7
  6
CONTINUOUS
 10
92.0008789011
 20
150.923828125
 11
91.5008789011
 21
151.423828125
  0
LWPOLYLINE
  5
30A
100
AcDbEntity
  8
0
100
AcDbPolyline
 62
7
  6
CONTINUOUS
 90
10
 70
0
 43
0.3500000006
 10
103.9881129456
 20
160.6738319092
 10
104.0595350647
 20
160.5309695435
 10
104.0595350647
 20
160.4595474243
 10
103.9166817627
 20
160.3166850586
 10
103.8452505798
 20
160.3166850586
 10
103.7738284607
 20
160.3881071777
 10
103.7738284607
 20
160.4595474243
 10
103.8452505798
 20
160.6023916626
 10
103.9166817627
 20
160.6738319092
 10
103.9881129456
 20
160.6738319092
  0
LINE
  5
30B
100
AcDbEntity
  8
0
100
AcDbLine
 62
7
  6
CONTINUOUS
 10
95.0519225464
 20
62.1246630412
 11
96.5508789011
 21
63.323828125
  0
LINE
  5
30C
100
AcDbEntity
  8
0
100
AcDbLine
 62
7
  6
CONTINUOUS
 10
95.0519225464
 20
150.7229932088
 11
96.5508789011
 21
149.523828125
  0
LINE
  5
30D
100
AcDbEntity
  8
RACCORDO
100
AcDbLine
 62
250
  6
CONTINUOUS
 10
92.1508789011
 20
144.423828125
 11
92.0008789011
 21
144.423828125
  0
LWPOLYLINE
  5
30E
100
AcDbEntity
  8
0
100
AcDbPolyline
 62
7
  6
CONTINUOUS
 90
10
 70
0
 43
0.3500000006
 10
105.0186942444
 20
170.6738349609
 10
105.0901254272
 20
170.5309725952
 10
105.0901254272
 20
170.4595504761
 10
104.9472721252
 20
170.3166881104
 10
104.8758409424
 20
170.3166881104
 10
104.8044097595
 20
170.3881102295
 10
104.8044097595
 20
170.4595504761
 10
104.8758409424
 20
170.6023947144
 10
104.9472721252
 20
170.6738349609
 10
105.0186942444
 20
170.6738349609
  0
LINE
  5
30F
100
AcDbEntity
  8
RACCORDO
100
AcDbLine
 62
7
  6
CONTINUOUS
 10
92.1508789011
 20
146.423828125
 11
92.0008789011
 21
146.423828125
  0
LINE
  5
310
100
AcDbEntity
  8
0
100
AcDbLine
 62
250
  6
CONTINUOUS
 10
92.1508789011
 20
149.723828125
 11
95.0508789011
 21
149.723828125
  0
LINE
  5
311
100
AcDbEntity
  8
SMUSSO
100
AcDbLine
 62
7
  6
CONTINUOUS
 10
90.0008789011
 20
150.423828125
 11
91.5008789011
 21
150.423828125
  0
LINE
  5
312
100
AcDbEntity
  8
SMUSSO
100
AcDbLine
 62
7
  6
CONTINUOUS
 10
90.0008789011
 20
151.423828125
 11
91.5008789011
 21
151.423828125
  0
LWPOLYLINE
  5
313
100
AcDbEntity
  8
0
100
AcDbPolyline
 62
7
  6
CONTINUOUS
 90
8
 70
0
 43
0.3500000006
 10
105.0595353699
 20
160.1738226929
 10
105.916682373
 20
160.1738226929
 10
106.3452513428
 20
160.6023916626
 10
106.3452513428
 20
161.4595477295
 10
105.916682373
 20
161.8881166992
 10
105.0595353699
 20
161.8881166992
 10
105.0595353699
 20
163.1738236084
 10
106.3452513428
 20
163.1738236084
  0
LWPOLYLINE
  5
314
100
AcDbEntity
  8
0
100
AcDbPolyline
 62
7
  6
CONTINUOUS
 90
8
 70
0
 43
0.3500000006
 10
107.2023983459
 20
160.1738226929
 10
108.0595362854
 20
160.1738226929
 10
108.4881143188
 20
160.6023916626
 10
108.4881143188
 20
161.4595477295
 10
108.0595362854
 20
161.8881166992
 10
107.2023983459
 20
161.8881166992
 10
107.2023983459
 20
163.1738236084
 10
108.4881143188
 20
163.1738236084
  0
LWPOLYLINE
  5
315
100
AcDbEntity
  8
0
100
AcDbPolyline
 62
7
  6
CONTINUOUS
 90
8
 70
0
 43
0.3500000006
 10
106.0901257324
 20
170.1738257446
 10
106.9472727356
 20
170.1738257446
 10
107.3758417053
 20
170.6023947144
 10
107.3758417053
 20
171.4595507813
 10
106.9472727356
 20
171.888119751
 10
106.0901257324
 20
171.888119751
 10
106.0901257324
 20
173.1738266602
 10
107.3758417053
 20
173.1738266602
  0
LWPOLYLINE
  5
316
100
AcDbEntity
  8
0
100
AcDbPolyline
 62
7
  6
CONTINUOUS
 90
8
 70
0
 43
0.3500000006
 10
108.2329796448
 20
170.1738257446
 10
109.0901266479
 20
170.1738257446
 10
109.5186956177
 20
170.6023947144
 10
109.5186956177
 20
171.4595507813
 10
109.0901266479
 20
171.888119751
 10
108.2329796448
 20
171.888119751
 10
108.2329796448
 20
173.1738266602
 10
109.5186956177
 20
173.1738266602
  0
LINE
  5
317
100
AcDbEntity
  8
0
100
AcDbLine
 62
7
  6
CONTINUOUS
 10
92.1508789011
 20
150.7744478133
 11
95.0508789011
 21
150.723828125
  0
LINE
  5
318
100
AcDbEntity
  8
0
100
AcDbLine
 62
250
  6
CONTINUOUS
 10
95.0519225464
 20
149.7642348317
 11
96.5508789011
 21
149.4621384531
  0
ARC
  5
319
100
AcDbEntity
  8
RACCORDO
100
AcDbCircle
 62
7
  6
CONTINUOUS
 10
149.406640625
 20
85.023828125
 40
1.2
100
AcDbArc
 50
180.0
 51
270.0
  0
ARC
  5
31A
100
AcDbEntity
  8
RACCORDO
100
AcDbCircle
 62
7
  6
CONTINUOUS
 10
192.206640625
 20
85.023828125
 40
1.2
100
AcDbArc
 50
270.0
 51
360.0
  0
ARC
  5
31B
100
AcDbEntity
  8
RACCORDO
100
AcDbCircle
 62
7
  6
CONTINUOUS
 10
192.206640625
 20
127.823828125
 40
1.2
100
AcDbArc
 50
0.0
 51
90.0
  0
ARC
  5
31C
100
AcDbEntity
  8
RACCORDO
100
AcDbCircle
 62
7
  6
CONTINUOUS
 10
149.406640625
 20
127.823828125
 40
1.2
100
AcDbArc
 50
90.0
 51
180.0
  0
ARC
  5
31D
100
AcDbEntity
  8
0
100
AcDbCircle
 62
7
  6
CONTINUOUS
 10
97.50100328
 20
132.623828125
 40
1.0
100
AcDbArc
 50
270.0
 51
275.7105931375
  0
ARC
  5
31E
100
AcDbEntity
  8
0
100
AcDbCircle
 62
7
  6
CONTINUOUS
 10
97.50100328
 20
80.223828125
 40
1.0
100
AcDbArc
 50
84.2894068625
 51
90.0
  0
ARC
  5
31F
100
AcDbEntity
  8
0
100
AcDbCircle
 62
7
  6
CONTINUOUS
 10
97.4761922728
 20
79.5738286538
 40
0.3
100
AcDbArc
 50
270.1000001427
 51
297.9489527925
  0
ARC
  5
320
100
AcDbEntity
  8
0
100
AcDbCircle
 62
7
  6
CONTINUOUS
 10
97.4761922728
 20
133.2738275962
 40
0.3
100
AcDbArc
 50
62.0510472075
 51
89.8999998573
  0
ELLIPSE
  5
321
100
AcDbEntity
  8
0
100
AcDbEllipse
 62
7
  6
CONTINUOUS
 10
96.2741877323
 20
149.723828125
 30
0.0
 11
1.2233088312
 21
-0.0
 31
0.0
 40
0.7998095528
 41
3.1002827401
 42
3.1415926536
  0
ELLIPSE
  5
322
100
AcDbEntity
  8
0
100
AcDbEllipse
 62
7
  6
CONTINUOUS
 10
96.2741877323
 20
63.123828125
 30
0.0
 11
1.2233088312
 21
0.0
 31
0.0
 40
0.7998095528
 41
-3.1415926536
 42
-3.1002827401
  0
ELLIPSE
  5
323
100
AcDbEntity
  8
0
100
AcDbEllipse
 62
7
  6
CONTINUOUS
 10
192.6996709661
 20
106.423828125
 30
0.0
 11
530.7034459343
 21
0.0
 31
0.0
 40
0.0494155445
 41
-1.7510554651
 42
-1.7475925186
  0
ELLIPSE
  5
324
100
AcDbEntity
  8
0
100
AcDbEllipse
 62
7
  6
CONTINUOUS
 10
4965.28120219
 20
106.423828125
 30
0.0
 11
5070.6192780382
 21
-20.8600030618
 31
0.0
 40
0.0041137573
 41
2.856472503
 42
2.8584753448
  0
ELLIPSE
  5
325
100
AcDbEntity
  8
0
100
AcDbEllipse
 62
7
  6
CONTINUOUS
 10
99.3508789011
 20
132.50362682
 30
0.0
 11
-0.1417119467
 21
0.1422961243
 31
0.0
 40
0.9918061237
 41
-3.8766878413
 42
-3.6922883273
  0
ENDSEC
  0
SECTION
  2
OBJECTS
  0
DICTIONARY
  5
C
100
AcDbDictionary
280
0
281
1
  3
ACAD_GROUP
350
D
  3
ACAD_MLINESTYLE
350
17
  3
ACAD_LAYOUT
350
1A
  3
ACAD_PLOTSETTINGS
350
19
  3
ACAD_PLOTSTYLENAME
350
E
  0
DICTIONARY
  5
D
102
{ACAD_REACTORS
330
C
102
}
100
AcDbDictionary
280
0
281
1
  0
ACDBDICTIONARYWDFLT
  5
E
102
{ACAD_REACTORS
330
C
102
}
100
AcDbDictionary
281
1
  3
Normal
350
F
100
AcDbDictionaryWithDefault
340
F
  0
DICTIONARY
  5
17
102
{ACAD_REACTORS
330
C
102
}
100
AcDbDictionary
280
0
281
1
  3
Standard
350
18
  0
DICTIONARY
  5
19
102
{ACAD_REACTORS
330
C
102
}
100
AcDbDictionary
281
1
  0
DICTIONARY
  5
1A
102
{ACAD_REACTORS
330
C
102
}
100
AcDbDictionary
281
1
  3
Model
350
326
  3
Layout1
350
327
  0
ACDBPLACEHOLDER
  5
F
102
{ACAD_REACTORS
330
E
102
}
  0
MLINESTYLE
  5
18
102
{ACAD_REACTORS
330
17
102
}
100
AcDbMlineStyle
  2
STANDARD
 70
0
  3

 62
256
 51
90.0
 52
90.0
 71
2
 49
0.5
 62
256
  6
BYLAYER
 49
-0.5
 62
256
  6
BYLAYER
  0
LAYOUT
  5
326
102
{ACAD_REACTORS
330
1A
102
}
100
AcDbPlotSettings
  1

  2
none_device
  4
ISO_A4_(297.00_x_210.00_MM)
  6

 40
0.0
 41
0.0
 42
0.0
 43
0.0
 44
297.0
 45
210.0
 46
0.0
 47
0.0
 48
0.0
 49
0.0
140
0.0
141
0.0
142
1.0
143
1.0
 70
1024
 72
1
 73
0
 74
0
  7

 75
0
147
1.0
148
0.0
149
0.0
100
AcDbLayout
  1
Model
 70
0
 71
0
 10
0.0
 20
0.0
 11
297.0
 21
210.0
 12
0.0
 22
0.0
 32
0.0
 14
0.0
 24
0.0
 34
0.0
 15
0.0
 25
0.0
 35
0.0
146
0.0
 13
0.0
 23
0.0
 33
0.0
 16
1.0
 26
0.0
 36
0.0
 17
0.0
 27
1.0
 37
0.0
 76
0
330
224
345
0
346
0
  0
LAYOUT
  5
327
102
{ACAD_REACTORS
330
1A
102
}
100
AcDbPlotSettings
  1

  2
none_device
  4
ISO_A4_(297.00_x_210.00_MM)
  6

 40
0.0
 41
0.0
 42
0.0
 43
0.0
 44
297.0
 45
210.0
 46
0.0
 47
0.0
 48
0.0
 49
0.0
140
0.0
141
0.0
142
1.0
143
1.0
 70
0
 72
1
 73
0
 74
0
  7

 75
0
147
1.0
148
0.0
149
0.0
100
AcDbLayout
  1
Layout1
 70
0
 71
1
 10
0.0
 20
0.0
 11
297.0
 21
210.0
 12
0.0
 22
0.0
 32
0.0
 14
0.0
 24
0.0
 34
0.0
 15
0.0
 25
0.0
 35
0.0
146
0.0
 13
0.0
 23
0.0
 33
0.0
 16
1.0
 26
0.0
 36
0.0
 17
0.0
 27
1.0
 37
0.0
 76
0
330
225
345
0
346
0
  0
ENDSEC
  0
EOF
