  0
SECTION
  2
HEADER
  9
$ACADVER
  1
AC1024
  9
$DWGCODEPAGE
  3
ANSI_1252
  9
$EXTMAX
 10
297.0
 20
210.0
 30
0.0
  9
$EXTMIN
 10
0.0
 20
0.0
 30
0.0
  9
$LIMMIN
 10
0.0
 20
0.0
  9
$LIMMAX
 10
297.0
 20
210.0
  9
$VIEWCTR
 10
148.5
 20
105.0
  9
$VIEWSIZE
 40
210.0
  9
$CLAYER
  8
0
  9
$LTSCALE
 40
16.335
  9
$CELTYPE
  6
BYLAYER
  9
$DIMSCALE
 40
1.0
  9
$DIMASZ
 40
3.0
  9
$DIMEXO
 40
0.5
  9
$DIMDLI
 40
11.286
  9
$DIMEXE
 40
1.5
  9
$DIMCEN
 40
2.673
  9
$DIMLFAC
 40
1.0
  9
$DIMBLK
  1
_FILLED
  9
$DIMALT
 70
0
  9
$DIMALTF
 40
0.0393700787
  9
$DIMTXT
 40
3.0
  9
$DIMTOL
 70
1
  9
$DIMLIM
 70
0
  9
$DIMTFAC
 40
1.0
  9
$DIMTP
 40
0.01
  9
$DIMTM
 40
0.01
  9
$DIMGAP
 40
0.625
  9
$DIMDSEP
 70
44
  9
$AUNITS
 70
0
  9
$PDMODE
 70
3
  9
$PDSIZE
 40
3.0
  9
$HANDSEED
  5
2F8
  9
$TILEMODE
 70
1
  9
$MEASUREMENT
 70
1
  9
$INSUNITS
 70
4
  0
ENDSEC
  0
SECTION
  2
CLASSES
  0
CLASS
  1
ACDBDICTIONARYWDFLT
  2
AcDbDictionaryWithDefault
  3
AutoCAD 2000
 90
0
 91
1
280
0
281
0
  0
CLASS
  1
ACDBPLACEHOLDER
  2
AcDbPlaceHolder
  3
AutoCAD 2000
 90
0
 91
1
280
0
281
0
  0
CLASS
  1
LAYOUT
  2
AcDbLayout
  3
AutoCAD 2000
 90
0
 91
0
280
0
281
0
  0
ENDSEC
  0
SECTION
  2
TABLES
  0
TABLE
  2
VPORT
  5
8
100
AcDbSymbolTable
 70
2
  0
VPORT
  5
1F4
100
AcDbSymbolTableRecord
100
AcDbViewportTableRecord
  2
*ACTIVE
 70
0
 10
0.0
 20
0.0
 11
1.0
 21
1.0
 12
148.5
 22
105.0
 13
0.0
 23
0.0
 14
1.0
 24
1.0
 15
0.0
 25
0.0
 16
0.0
 26
0.0
 36
1.0
 17
0.0
 27
0.0
 37
0.0
 40
210.0
 41
1.4142857143
 42
50.0
 43
0.0
 44
0.0
 50
0.0
 51
0.0
 71
0
 72
100
 73
1
 74
1
 75
0
 76
0
 77
0
 78
0
  0
ENDTAB
  0
TABLE
  2
LTYPE
  5
5
100
AcDbSymbolTable
 70
6
  0
LTYPE
  5
14
100
AcDbSymbolTableRecord
100
AcDbLinetypeTableRecord
  2
BYBLOCK
 70
0
  3

 72
65
 73
0
 40
0.0
  0
LTYPE
  5
15
100
AcDbSymbolTableRecord
100
AcDbLinetypeTableRecord
  2
BYLAYER
 70
0
  3

 72
65
 73
0
 40
0.0
  0
LTYPE
  5
16
100
AcDbSymbolTableRecord
100
AcDbLinetypeTableRecord
  2
CONTINUOUS
 70
64
  3
Solid line
 72
65
 73
0
 40
0.0
  0
LTYPE
  5
1F5
100
AcDbSymbolTableRecord
100
AcDbLinetypeTableRecord
  2
CENTER
 70
64
  3
____ _ ____ _ ____ _ ____ _ ____ _ ____ _ ____
 72
65
 73
4
 40
0.6
 49
0.375
 74
0
 49
-0.075
 74
0
 49
0.075
 74
0
 49
-0.075
 74
0
  0
LTYPE
  5
1F6
100
AcDbSymbolTableRecord
100
AcDbLinetypeTableRecord
  2
HIDDEN
 70
64
  3
- - - - - - - - - - - - - - - - - - - -
 72
65
 73
2
 40
0.2
 49
0.1
 74
0
 49
-0.1
 74
0
  0
LTYPE
  5
1F7
100
AcDbSymbolTableRecord
100
AcDbLinetypeTableRecord
  2
PHANTOM
 70
64
  3
_____ _ _ _____ _ _ _____ _ _ _____
 72
65
 73
6
 40
0.8
 49
0.45
 74
0
 49
-0.05
 74
0
 49
0.1
 74
0
 49
-0.05
 74
0
 49
0.1
 74
0
 49
-0.05
 74
0
  0
LTYPE
  5
1F8
100
AcDbSymbolTableRecord
100
AcDbLinetypeTableRecord
  2
DOT
 70
64
  3
. . . . . . . . . . . . . . . . . . . .
 72
65
 73
2
 40
0.2
 49
0.1
 74
0
 49
-0.1
 74
0
  0
LTYPE
  5
1F9
100
AcDbSymbolTableRecord
100
AcDbLinetypeTableRecord
  2
DASHED
 70
64
  3
- - - - - - - - - - - - - - - - - - - -
 72
65
 73
2
 40
0.2
 49
0.1
 74
0
 49
-0.1
 74
0
  0
ENDTAB
  0
TABLE
  2
LAYER
  5
2
100
AcDbSymbolTable
 70
36
  0
LAYER
  5
10
100
AcDbSymbolTableRecord
100
AcDbLayerTableRecord
  2
0
 70
0
 62
7
  6
CONTINUOUS
370
-3
390
F
  0
LAYER
  5
1FA
100
AcDbSymbolTableRecord
100
AcDbLayerTableRecord
  2
DEFAULT_1
 70
0
 62
7
  6
CENTER
370
-3
390
F
  0
LAYER
  5
1FB
100
AcDbSymbolTableRecord
100
AcDbLayerTableRecord
  2
DEFAULT_2
 70
0
 62
7
  6
HIDDEN
370
-3
390
F
  0
LAYER
  5
1FC
100
AcDbSymbolTableRecord
100
AcDbLayerTableRecord
  2
DEFAULT_3
 70
0
 62
7
  6
PHANTOM
370
-3
390
F
  0
LAYER
  5
1FD
100
AcDbSymbolTableRecord
100
AcDbLayerTableRecord
  2
ASSI
 70
0
 62
7
  6
CONTINUOUS
370
-3
390
F
  0
LAYER
  5
1FE
100
AcDbSymbolTableRecord
100
AcDbLayerTableRecord
  2
COORDINATE
 70
0
 62
7
  6
CONTINUOUS
370
-3
390
F
  0
LAYER
  5
1FF
100
AcDbSymbolTableRecord
100
AcDbLayerTableRecord
  2
COORD_ORIGINE
 70
0
 62
7
  6
CONTINUOUS
370
-3
390
F
  0
LAYER
  5
200
100
AcDbSymbolTableRecord
100
AcDbLayerTableRecord
  2
COPY_PUBLISH
 70
0
 62
7
  6
CONTINUOUS
370
-3
390
F
  0
LAYER
  5
201
100
AcDbSymbolTableRecord
100
AcDbLayerTableRecord
  2
COSMETIC
 70
0
 62
7
  6
CONTINUOUS
370
-3
390
F
  0
LAYER
  5
202
100
AcDbSymbolTableRecord
100
AcDbLayerTableRecord
  2
COSMETICI
 70
0
 62
7
  6
CONTINUOUS
370
-3
390
F
  0
LAYER
  5
203
100
AcDbSymbolTableRecord
100
AcDbLayerTableRecord
  2
CURVE
 70
0
 62
7
  6
CONTINUOUS
370
-3
390
F
  0
LAYER
  5
204
100
AcDbSymbolTableRecord
100
AcDbLayerTableRecord
  2
CURVE_TASSELLI
 70
0
 62
7
  6
CONTINUOUS
370
-3
390
F
  0
LAYER
  5
205
100
AcDbSymbolTableRecord
100
AcDbLayerTableRecord
  2
DRAFT
 70
0
 62
7
  6
CONTINUOUS
370
-3
390
F
  0
LAYER
  5
206
100
AcDbSymbolTableRecord
100
AcDbLayerTableRecord
  2
IMPORT_IGES
 70
0
 62
7
  6
CONTINUOUS
370
-3
390
F
  0
LAYER
  5
207
100
AcDbSymbolTableRecord
100
AcDbLayerTableRecord
  2
INTFCLR_2
 70
0
 62
7
  6
CONTINUOUS
370
-3
390
F
  0
LAYER
  5
208
100
AcDbSymbolTableRecord
100
AcDbLayerTableRecord
  2
INTFCLR_3
 70
0
 62
7
  6
CONTINUOUS
370
-3
390
F
  0
LAYER
  5
209
100
AcDbSymbolTableRecord
100
AcDbLayerTableRecord
  2
INTF_1
 70
0
 62
7
  6
CONTINUOUS
370
-3
390
F
  0
LAYER
  5
20A
100
AcDbSymbolTableRecord
100
AcDbLayerTableRecord
  2
INTF_14
 70
0
 62
7
  6
CONTINUOUS
370
-3
390
F
  0
LAYER
  5
20B
100
AcDbSymbolTableRecord
100
AcDbLayerTableRecord
  2
INTF_15
 70
0
 62
7
  6
CONTINUOUS
370
-3
390
F
  0
LAYER
  5
20C
100
AcDbSymbolTableRecord
100
AcDbLayerTableRecord
  2
INTF_18
 70
0
 62
7
  6
CONTINUOUS
370
-3
390
F
  0
LAYER
  5
20D
100
AcDbSymbolTableRecord
100
AcDbLayerTableRecord
  2
INTF_19
 70
0
 62
7
  6
CONTINUOUS
370
-3
390
F
  0
LAYER
  5
20E
100
AcDbSymbolTableRecord
100
AcDbLayerTableRecord
  2
INTF_2
 70
0
 62
7
  6
CONTINUOUS
370
-3
390
F
  0
LAYER
  5
20F
100
AcDbSymbolTableRecord
100
AcDbLayerTableRecord
  2
INTF_7
 70
0
 62
7
  6
CONTINUOUS
370
-3
390
F
  0
LAYER
  5
210
100
AcDbSymbolTableRecord
100
AcDbLayerTableRecord
  2
INTF_CYAN
 70
0
 62
7
  6
CONTINUOUS
370
-3
390
F
  0
LAYER
  5
211
100
AcDbSymbolTableRecord
100
AcDbLayerTableRecord
  2
INTF_YELLOW
 70
0
 62
7
  6
CONTINUOUS
370
-3
390
F
  0
LAYER
  5
212
100
AcDbSymbolTableRecord
100
AcDbLayerTableRecord
  2
LIVELLO_1
 70
0
 62
7
  6
CONTINUOUS
370
-3
390
F
  0
LAYER
  5
213
100
AcDbSymbolTableRecord
100
AcDbLayerTableRecord
  2
NOTE
 70
0
 62
7
  6
CONTINUOUS
370
-3
390
F
  0
LAYER
  5
214
100
AcDbSymbolTableRecord
100
AcDbLayerTableRecord
  2
PIANI
 70
0
 62
7
  6
CONTINUOUS
370
-3
390
F
  0
LAYER
  5
215
100
AcDbSymbolTableRecord
100
AcDbLayerTableRecord
  2
PIANI_ORIGINE
 70
0
 62
7
  6
CONTINUOUS
370
-3
390
F
  0
LAYER
  5
216
100
AcDbSymbolTableRecord
100
AcDbLayerTableRecord
  2
PIANI_RIFERIMENTO
 70
0
 62
7
  6
CONTINUOUS
370
-3
390
F
  0
LAYER
  5
217
100
AcDbSymbolTableRecord
100
AcDbLayerTableRecord
  2
PUNTI
 70
0
 62
7
  6
CONTINUOUS
370
-3
390
F
  0
LAYER
  5
218
100
AcDbSymbolTableRecord
100
AcDbLayerTableRecord
  2
RACCORDO
 70
0
 62
7
  6
CONTINUOUS
370
-3
390
F
  0
LAYER
  5
219
100
AcDbSymbolTableRecord
100
AcDbLayerTableRecord
  2
RGB__255__255__255__
 70
0
 62
7
  6
CONTINUOUS
370
-3
390
F
  0
LAYER
  5
21A
100
AcDbSymbolTableRecord
100
AcDbLayerTableRecord
  2
RGB____0____0____0__
 70
0
 62
7
  6
CONTINUOUS
370
-3
390
F
  0
LAYER
  5
21B
100
AcDbSymbolTableRecord
100
AcDbLayerTableRecord
  2
SIMBOLI
 70
0
 62
7
  6
CONTINUOUS
370
-3
390
F
  0
LAYER
  5
21C
100
AcDbSymbolTableRecord
100
AcDbLayerTableRecord
  2
SMUSSO
 70
0
 62
7
  6
CONTINUOUS
370
-3
390
F
  0
LAYER
  5
21D
100
AcDbSymbolTableRecord
100
AcDbLayerTableRecord
  2
SNAPLINE
 70
0
 62
7
  6
CONTINUOUS
370
-3
390
F
  0
LAYER
  5
21E
100
AcDbSymbolTableRecord
100
AcDbLayerTableRecord
  2
SUPERFICI
 70
0
 62
7
  6
CONTINUOUS
370
-3
390
F
  0
LAYER
  5
21F
100
AcDbSymbolTableRecord
100
AcDbLayerTableRecord
  2
TRASH
 70
0
 62
7
  6
CONTINUOUS
370
-3
390
F
  0
LAYER
  5
220
100
AcDbSymbolTableRecord
100
AcDbLayerTableRecord
  2
WHITE
 70
0
 62
7
  6
CONTINUOUS
370
-3
390
F
  0
LAYER
  5
221
100
AcDbSymbolTableRecord
100
AcDbLayerTableRecord
  2
XSEC_DATUMS
 70
0
 62
7
  6
CONTINUOUS
370
-3
390
F
  0
ENDTAB
  0
TABLE
  2
STYLE
  5
3
100
AcDbSymbolTable
 70
1
  0
STYLE
  5
11
100
AcDbSymbolTableRecord
100
AcDbTextStyleTableRecord
  2
STANDARD
 70
0
 40
0.0
 41
0.8
 50
0.0
 71
0
 42
0.2
  3
txt
  4

  0
STYLE
  5
222
100
AcDbSymbolTableRecord
100
AcDbTextStyleTableRecord
  2
TEXTSTYLE_1
 70
0
 40
0.0
 41
0.8
 50
0.0
 71
0
 42
0.2
  3
gdt
  4

  0
ENDTAB
  0
TABLE
  2
VIEW
  5
6
100
AcDbSymbolTable
 70
0
  0
ENDTAB
  0
TABLE
  2
UCS
  5
7
100
AcDbSymbolTable
 70
0
  0
ENDTAB
  0
TABLE
  2
APPID
  5
9
100
AcDbSymbolTable
 70
1
  0
APPID
  5
223
100
AcDbSymbolTableRecord
100
AcDbRegAppTableRecord
  2
ACAD
 70
0
  0
ENDTAB
  0
TABLE
  2
BLOCK_RECORD
  5
1
100
AcDbSymbolTable
 70
0
  0
BLOCK_RECORD
  5
224
100
AcDbSymbolTableRecord
100
AcDbBlockTableRecord
  2
*Model_Space
  0
BLOCK_RECORD
  5
225
100
AcDbSymbolTableRecord
100
AcDbBlockTableRecord
  2
*Paper_Space
  0
BLOCK_RECORD
  5
226
100
AcDbSymbolTableRecord
100
AcDbBlockTableRecord
  2
_FILLED
  0
BLOCK_RECORD
  5
227
100
AcDbSymbolTableRecord
100
AcDbBlockTableRecord
  2
*D0
  0
BLOCK_RECORD
  5
228
100
AcDbSymbolTableRecord
100
AcDbBlockTableRecord
  2
*D1
  0
BLOCK_RECORD
  5
229
100
AcDbSymbolTableRecord
100
AcDbBlockTableRecord
  2
*D2
  0
BLOCK_RECORD
  5
22A
100
AcDbSymbolTableRecord
100
AcDbBlockTableRecord
  2
*D3
  0
ENDTAB
  0
TABLE
  2
DIMSTYLE
  5
A
100
AcDbSymbolTable
 70
1
100
AcDbDimStyleTable
 71
0
  0
DIMSTYLE
105
22B
100
AcDbSymbolTableRecord
100
AcDbDimStyleTableRecord
  2
STANDARD
 70
0
  3

  4

 40
1.0
 41
3.0
 42
0.5
 43
0.38
 44
1.5
 45
0.0
 46
0.0
 47
0.01
 48
0.01
140
3.0
141
0.09
142
0.0
143
25.4
144
1.0
145
0.0
146
1.0
147
0.625
 71
1.0
 72
0.0
 73
0
 74
0
 75
0
 76
0
 77
1
 78
8
 79
2
170
0
171
1
172
0
173
0
174
0
175
0
176
0
177
0
178
0
270
2
179
2
271
2
272
2
273
2
274
2
275
0
280
0
281
0
282
0
283
1
284
8
285
0
286
0
287
3
288
0
340
11
278
44
341
226
342
226
343
226
344
226
  0
DIMSTYLE
105
22C
100
AcDbSymbolTableRecord
100
AcDbDimStyleTableRecord
  2
DIMSTYLE_1
 70
0
  3

  4

 40
1.0
 41
3.0
 42
0.5
 43
0.38
 44
1.5
 45
0.0
 46
0.0
 47
0.0
 48
0.0
140
3.0
141
0.09
142
0.0
143
25.4
144
1.0
145
0.0
146
1.0
147
0.75
 71
0.0
 72
0.0
 73
0
 74
0
 75
0
 76
0
 77
1
 78
8
 79
2
170
0
171
1
172
0
173
0
174
0
175
0
176
0
177
0
178
0
270
2
179
2
271
2
272
2
273
2
274
2
275
0
280
0
281
0
282
0
283
1
284
8
285
0
286
0
287
3
288
0
340
11
278
44
341
226
342
226
343
226
344
226
  0
ENDTAB
  0
ENDSEC
  0
SECTION
  2
BLOCKS
  0
BLOCK
  5
20
100
AcDbEntity
  8
0
100
AcDbBlockBegin
  2
*Model_Space
 70
0
 10
0.0
 20
0.0
 30
0.0
  3
*Model_Space
  1

  0
ENDBLK
  5
21
100
AcDbEntity
  8
0
100
AcDbBlockEnd
  0
BLOCK
  5
1C
100
AcDbEntity
  8
0
100
AcDbBlockBegin
  2
*Paper_Space
 70
0
 10
0.0
 20
0.0
 30
0.0
  3
*Paper_Space
  1

  0
ENDBLK
  5
1D
100
AcDbEntity
  8
0
100
AcDbBlockEnd
  0
BLOCK
  5
22D
100
AcDbEntity
  8
0
100
AcDbBlockBegin
  2
_FILLED
 70
64
 10
0.0
 20
0.0
  3
_FILLED
  1

  0
SOLID
  5
22E
100
AcDbEntity
  8
0
  6
BYBLOCK
 62
0
100
AcDbTrace
 10
0.0
 20
0.0
 11
-1.0
 21
0.3166666667
 12
-1.0
 22
-0.3166666667
 13
-1.0
 23
-0.3166666667
  0
ENDBLK
  5
22F
100
AcDbEntity
  8
0
  6
BYBLOCK
 62
0
100
AcDbBlockEnd
  0
BLOCK
  5
230
100
AcDbEntity
  8
0
100
AcDbBlockBegin
 62
7
  6
CONTINUOUS
  2
*D0
 70
65
 10
0.0
 20
0.0
  3
*D0
  1

  0
LINE
  5
231
100
AcDbEntity
  8
0
100
AcDbLine
 62
7
  6
CONTINUOUS
 10
130.7850431743
 20
149.5
 11
130.7850431743
 21
159.5
  0
LINE
  5
232
100
AcDbEntity
  8
0
100
AcDbLine
 62
7
  6
CONTINUOUS
 10
220.7850431743
 20
149.5
 11
220.7850431743
 21
159.5
  0
LINE
  5
233
100
AcDbEntity
  8
0
100
AcDbLine
 62
7
  6
CONTINUOUS
 10
130.7850431743
 20
158.0
 11
175.7850431743
 21
158.0
  0
LINE
  5
234
100
AcDbEntity
  8
0
100
AcDbLine
 62
7
  6
CONTINUOUS
 10
220.7850431743
 20
158.0
 11
175.7850431743
 21
158.0
  0
INSERT
  5
235
100
AcDbEntity
  8
0
100
AcDbBlockReference
 62
7
  6
CONTINUOUS
  2
_FILLED
 10
130.7850431743
 20
158.0
 41
3.0
 42
3.0
 43
3.0
 50
180.0
  0
INSERT
  5
236
100
AcDbEntity
  8
0
100
AcDbBlockReference
 62
7
  6
CONTINUOUS
  2
_FILLED
 10
220.7850431743
 20
158.0
 41
3.0
 42
3.0
 43
3.0
  0
ENDBLK
  5
237
100
AcDbEntity
  8
0
  6
BYBLOCK
 62
0
100
AcDbBlockEnd
  0
BLOCK
  5
238
100
AcDbEntity
  8
0
100
AcDbBlockBegin
 62
7
  6
CONTINUOUS
  2
*D1
 70
65
 10
0.0
 20
0.0
  3
*D1
  1

  0
LINE
  5
239
100
AcDbEntity
  8
0
100
AcDbLine
 62
7
  6
CONTINUOUS
 10
220.2850431743
 20
150.0
 11
230.2850431743
 21
150.0
  0
LINE
  5
23A
100
AcDbEntity
  8
0
100
AcDbLine
 62
7
  6
CONTINUOUS
 10
220.2850431743
 20
60.0
 11
230.2850431743
 21
60.0
  0
LINE
  5
23B
100
AcDbEntity
  8
0
100
AcDbLine
 62
7
  6
CONTINUOUS
 10
228.7850431743
 20
150.0
 11
228.7850431743
 21
105.0
  0
LINE
  5
23C
100
AcDbEntity
  8
0
100
AcDbLine
 62
7
  6
CONTINUOUS
 10
228.7850431743
 20
60.0
 11
228.7850431743
 21
105.0
  0
INSERT
  5
23D
100
AcDbEntity
  8
0
100
AcDbBlockReference
 62
7
  6
CONTINUOUS
  2
_FILLED
 10
228.7850431743
 20
150.0
 41
3.0
 42
3.0
 43
3.0
 50
90.0
  0
INSERT
  5
23E
100
AcDbEntity
  8
0
100
AcDbBlockReference
 62
7
  6
CONTINUOUS
  2
_FILLED
 10
228.7850431743
 20
60.0
 41
3.0
 42
3.0
 43
3.0
 50
270.0
  0
ENDBLK
  5
23F
100
AcDbEntity
  8
0
  6
BYBLOCK
 62
0
100
AcDbBlockEnd
  0
BLOCK
  5
240
100
AcDbEntity
  8
0
100
AcDbBlockBegin
 62
7
  6
CONTINUOUS
  2
*D2
 70
65
 10
0.0
 20
0.0
  3
*D2
  1

  0
LINE
  5
241
100
AcDbEntity
  8
0
100
AcDbLine
 62
7
  6
CONTINUOUS
 10
80.5505473839
 20
149.5
 11
80.5505473839
 21
169.5
  0
LINE
  5
242
100
AcDbEntity
  8
0
100
AcDbLine
 62
7
  6
CONTINUOUS
 10
92.1005473839
 20
131.4903260329
 11
92.1005473839
 21
169.5
  0
LINE
  5
243
100
AcDbEntity
  8
0
100
AcDbLine
 62
7
  6
CONTINUOUS
 10
80.5505473839
 20
168.0
 11
86.3255473839
 21
168.0
  0
LINE
  5
244
100
AcDbEntity
  8
0
100
AcDbLine
 62
7
  6
CONTINUOUS
 10
86.3255473839
 20
168.0
 11
69.4947608432
 21
168.0
  0
LINE
  5
245
100
AcDbEntity
  8
0
100
AcDbLine
 62
7
  6
CONTINUOUS
 10
92.1005473839
 20
168.0
 11
86.3255473839
 21
168.0
  0
INSERT
  5
246
100
AcDbEntity
  8
0
100
AcDbBlockReference
 62
7
  6
CONTINUOUS
  2
_FILLED
 10
80.5505473839
 20
168.0
 41
3.0
 42
3.0
 43
3.0
 50
180.0
  0
INSERT
  5
247
100
AcDbEntity
  8
0
100
AcDbBlockReference
 62
7
  6
CONTINUOUS
  2
_FILLED
 10
92.1005473839
 20
168.0
 41
3.0
 42
3.0
 43
3.0
  0
ENDBLK
  5
248
100
AcDbEntity
  8
0
  6
BYBLOCK
 62
0
100
AcDbBlockEnd
  0
BLOCK
  5
249
100
AcDbEntity
  8
0
100
AcDbBlockBegin
 62
7
  6
CONTINUOUS
  2
*D3
 70
65
 10
0.0
 20
0.0
  3
*D3
  1

  0
LINE
  5
24A
100
AcDbEntity
  8
0
100
AcDbLine
 62
7
  6
CONTINUOUS
 10
89.1005473839
 20
148.5383103281
 11
89.1005473839
 21
159.5
  0
LINE
  5
24B
100
AcDbEntity
  8
0
100
AcDbLine
 62
7
  6
CONTINUOUS
 10
80.5505473839
 20
149.5
 11
80.5505473839
 21
159.5
  0
LINE
  5
24C
100
AcDbEntity
  8
0
100
AcDbLine
 62
7
  6
CONTINUOUS
 10
89.1005473839
 20
158.0
 11
84.8255473839
 21
158.0
  0
LINE
  5
24D
100
AcDbEntity
  8
0
100
AcDbLine
 62
7
  6
CONTINUOUS
 10
80.5505473839
 20
158.0
 11
84.8255473839
 21
158.0
  0
LINE
  5
24E
100
AcDbEntity
  8
0
100
AcDbLine
 62
7
  6
CONTINUOUS
 10
84.8255473839
 20
158.0
 11
70.7970984815
 21
158.0
  0
INSERT
  5
24F
100
AcDbEntity
  8
0
100
AcDbBlockReference
 62
7
  6
CONTINUOUS
  2
_FILLED
 10
89.1005473839
 20
158.0
 41
3.0
 42
3.0
 43
3.0
  0
INSERT
  5
250
100
AcDbEntity
  8
0
100
AcDbBlockReference
 62
7
  6
CONTINUOUS
  2
_FILLED
 10
80.5505473839
 20
158.0
 41
3.0
 42
3.0
 43
3.0
 50
180.0
  0
ENDBLK
  5
251
100
AcDbEntity
  8
0
  6
BYBLOCK
 62
0
100
AcDbBlockEnd
  0
ENDSEC
  0
SECTION
  2
ENTITIES
  0
DIMENSION
  5
252
100
AcDbEntity
  8
0
100
AcDbDimension
 62
7
  6
CONTINUOUS
  2
*D0
 10
220.7850431743
 20
158.0
 11
173.4279003172
 21
158.0
 70
160
 71
2
 72
2
 41
0.9
 42
90.0
  3
DIMSTYLE_1
100
AcDbAlignedDimension
 13
130.7850431743
 23
149.0
 14
220.7850431743
 24
149.0
100
AcDbRotatedDimension
  0
DIMENSION
  5
253
100
AcDbEntity
  8
0
100
AcDbDimension
 62
7
  6
CONTINUOUS
  2
*D1
 10
228.7850431743
 20
60.0
 11
228.7850431743
 21
102.6428571429
 70
160
 71
2
 72
2
 41
0.9
 42
90.0
  3
DIMSTYLE_1
100
AcDbAlignedDimension
 13
219.7850431743
 23
150.0
 14
219.7850431743
 24
60.0
 50
270.0
100
AcDbRotatedDimension
  0
DIMENSION
  5
254
100
AcDbEntity
  8
0
100
AcDbDimension
 62
7
  6
CONTINUOUS
  2
*D2
 10
92.1005473839
 20
168.0
 11
69.4947608432
 21
168.0
 70
160
 71
3
 72
2
 41
0.9
 42
11.55
  3
DIMSTYLE_1
100
AcDbAlignedDimension
 13
80.5505473839
 23
149.0
 14
92.1005473839
 24
130.9903260329
100
AcDbRotatedDimension
  0
DIMENSION
  5
255
100
AcDbEntity
  8
0
100
AcDbDimension
 62
7
  6
CONTINUOUS
  2
*D3
 10
80.5505473839
 20
158.0
 11
70.7970984815
 21
158.0
 70
160
 71
3
 72
2
 41
0.9
 42
8.55
  3
DIMSTYLE_1
100
AcDbAlignedDimension
 13
89.1005473839
 23
148.0383103281
 14
80.5505473839
 24
149.0
 50
180.0
100
AcDbRotatedDimension
  0
LINE
  5
256
100
AcDbEntity
  8
SMUSSO
100
AcDbLine
 62
7
  6
CONTINUOUS
 10
130.7850431743
 20
149.0
 11
131.7850431743
 21
150.0
  0
LINE
  5
257
100
AcDbEntity
  8
SMUSSO
100
AcDbLine
 62
7
  6
CONTINUOUS
 10
131.7850431743
 20
60.0
 11
130.7850431743
 21
61.0
  0
LINE
  5
258
100
AcDbEntity
  8
SMUSSO
100
AcDbLine
 62
7
  6
CONTINUOUS
 10
130.7850431743
 20
149.0
 11
130.7850431743
 21
61.0
  0
LINE
  5
259
100
AcDbEntity
  8
SMUSSO
100
AcDbLine
 62
7
  6
CONTINUOUS
 10
131.7850431743
 20
149.0
 11
131.7850431743
 21
61.0
  0
LINE
  5
25A
100
AcDbEntity
  8
SMUSSO
100
AcDbLine
 62
7
  6
CONTINUOUS
 10
131.7850431743
 20
60.0
 11
219.7850431743
 21
60.0
  0
LINE
  5
25B
100
AcDbEntity
  8
SMUSSO
100
AcDbLine
 62
7
  6
CONTINUOUS
 10
131.7850431743
 20
61.0
 11
219.7850431743
 21
61.0
  0
LWPOLYLINE
  5
25C
100
AcDbEntity
  8
0
100
AcDbPolyline
 62
7
  6
CONTINUOUS
 90
10
 70
0
 43
0.3500000006
 10
173.8564656372
 20
158.7500028076
 10
174.7136217041
 20
159.6071407471
 10
174.927906189
 20
160.4642786865
 10
174.927906189
 20
161.3214347534
 10
174.4993372192
 20
161.7500037231
 10
173.8564656372
 20
161.7500037231
 10
173.4278966675
 20
161.3214347534
 10
173.4278966675
 20
160.4642786865
 10
173.8564656372
 20
160.0357097168
 10
174.7850438232
 20
160.0357097168
  0
LINE
  5
25D
100
AcDbEntity
  8
0
100
AcDbLine
 62
7
  6
CONTINUOUS
 10
152.6850431743
 20
83.6
 11
152.6850431743
 21
126.4
  0
LINE
  5
25E
100
AcDbEntity
  8
0
100
AcDbLine
 62
7
  6
CONTINUOUS
 10
153.1850431743
 20
83.6
 11
153.1850431743
 21
126.4
  0
LINE
  5
25F
100
AcDbEntity
  8
0
100
AcDbLine
 62
250
  6
CONTINUOUS
 10
154.3850431743
 20
128.1
 11
154.3850431743
 21
127.6
  0
LINE
  5
260
100
AcDbEntity
  8
0
100
AcDbLine
 62
250
  6
CONTINUOUS
 10
154.3850431743
 20
81.9
 11
154.3850431743
 21
82.4
  0
LINE
  5
261
100
AcDbEntity
  8
0
100
AcDbLine
 62
7
  6
CONTINUOUS
 10
197.1850431743
 20
81.9
 11
154.3850431743
 21
81.9
  0
LINE
  5
262
100
AcDbEntity
  8
0
100
AcDbLine
 62
7
  6
CONTINUOUS
 10
197.1850431743
 20
82.4
 11
154.3850431743
 21
82.4
  0
LINE
  5
263
100
AcDbEntity
  8
0
100
AcDbLine
 62
250
  6
CONTINUOUS
 10
198.8850431743
 20
83.6
 11
198.3850431743
 21
83.6
  0
LINE
  5
264
100
AcDbEntity
  8
0
100
AcDbLine
 62
250
  6
CONTINUOUS
 10
152.6850431743
 20
83.6
 11
153.1850431743
 21
83.6
  0
LWPOLYLINE
  5
265
100
AcDbEntity
  8
0
100
AcDbPolyline
 62
7
  6
CONTINUOUS
 90
13
 70
0
 43
0.3500000006
 10
175.7850441284
 20
159.6071407471
 10
175.7850441284
 20
160.8928657837
 10
175.9993286133
 20
161.3214347534
 10
176.427897583
 20
161.7500037231
 10
176.6421820679
 20
161.7500037231
 10
177.0707510376
 20
161.3214347534
 10
177.2850355225
 20
160.8928657837
 10
177.2850355225
 20
159.6071407471
 10
177.0707510376
 20
159.1785717773
 10
176.6421820679
 20
158.7500028076
 10
176.427897583
 20
158.7500028076
 10
175.9993286133
 20
159.1785717773
 10
175.7850441284
 20
159.6071407471
  0
LINE
  5
266
100
AcDbEntity
  8
SMUSSO
100
AcDbLine
 62
7
  6
CONTINUOUS
 10
220.2850431743
 20
149.5
 11
219.7850431743
 21
149.0
  0
LINE
  5
267
100
AcDbEntity
  8
SMUSSO
100
AcDbLine
 62
7
  6
CONTINUOUS
 10
131.7850431743
 20
61.0
 11
131.2850431743
 21
60.5
  0
LWPOLYLINE
  5
268
100
AcDbEntity
  8
0
100
AcDbPolyline
 62
7
  6
CONTINUOUS
 90
13
 70
0
 43
0.3500000006
 10
227.1778994751
 20
105.0
 10
225.8921925659
 20
105.0
 10
225.4636235962
 20
105.2142844849
 10
225.035036499
 20
105.6428534546
 10
225.035036499
 20
105.8571470032
 10
225.4636235962
 20
106.2857159729
 10
225.8921925659
 20
106.5000004578
 10
227.1778994751
 20
106.5000004578
 10
227.6064684448
 20
106.2857159729
 10
228.0350374146
 20
105.8571470032
 10
228.0350374146
 20
105.6428534546
 10
227.6064684448
 20
105.2142844849
 10
227.1778994751
 20
105.0
  0
LINE
  5
269
100
AcDbEntity
  8
SMUSSO
100
AcDbLine
 62
7
  6
CONTINUOUS
 10
220.2850431743
 20
60.5
 11
219.7850431743
 21
61.0
  0
LINE
  5
26A
100
AcDbEntity
  8
SMUSSO
100
AcDbLine
 62
7
  6
CONTINUOUS
 10
131.2850431743
 20
149.5
 11
131.7850431743
 21
149.0
  0
LINE
  5
26B
100
AcDbEntity
  8
0
100
AcDbLine
 62
250
  6
CONTINUOUS
 10
197.1850431743
 20
128.1
 11
197.1850431743
 21
127.6
  0
LINE
  5
26C
100
AcDbEntity
  8
0
100
AcDbLine
 62
250
  6
CONTINUOUS
 10
197.1850431743
 20
81.9
 11
197.1850431743
 21
82.4
  0
LINE
  5
26D
100
AcDbEntity
  8
0
100
AcDbLine
 62
250
  6
CONTINUOUS
 10
198.8850431743
 20
126.4
 11
198.3850431743
 21
126.4
  0
LINE
  5
26E
100
AcDbEntity
  8
0
100
AcDbLine
 62
250
  6
CONTINUOUS
 10
152.6850431743
 20
126.4
 11
153.1850431743
 21
126.4
  0
LINE
  5
26F
100
AcDbEntity
  8
0
100
AcDbLine
 62
7
  6
CONTINUOUS
 10
198.3850431743
 20
126.4
 11
198.3850431743
 21
83.6
  0
LINE
  5
270
100
AcDbEntity
  8
0
100
AcDbLine
 62
7
  6
CONTINUOUS
 10
198.8850431743
 20
126.4
 11
198.8850431743
 21
83.6
  0
LINE
  5
271
100
AcDbEntity
  8
0
100
AcDbLine
 62
7
  6
CONTINUOUS
 10
154.3850431743
 20
127.6
 11
197.1850431743
 21
127.6
  0
LINE
  5
272
100
AcDbEntity
  8
0
100
AcDbLine
 62
7
  6
CONTINUOUS
 10
154.3850431743
 20
128.1
 11
197.1850431743
 21
128.1
  0
LWPOLYLINE
  5
273
100
AcDbEntity
  8
0
100
AcDbPolyline
 62
7
  6
CONTINUOUS
 90
10
 70
0
 43
0.3500000006
 10
228.0350374146
 20
103.0714305725
 10
227.1778994751
 20
103.928568512
 10
226.3207615356
 20
104.1428529968
 10
225.4636235962
 20
104.1428529968
 10
225.035036499
 20
103.7142840271
 10
225.035036499
 20
103.0714305725
 10
225.4636235962
 20
102.6428616028
 10
226.3207615356
 20
102.6428616028
 10
226.7493305054
 20
103.0714305725
 10
226.7493305054
 20
103.9999996948
  0
LINE
  5
274
100
AcDbEntity
  8
SMUSSO
100
AcDbLine
 62
7
  6
CONTINUOUS
 10
219.7850431743
 20
61.0
 11
219.7850431743
 21
149.0
  0
LINE
  5
275
100
AcDbEntity
  8
SMUSSO
100
AcDbLine
 62
7
  6
CONTINUOUS
 10
220.7850431743
 20
61.0
 11
220.7850431743
 21
149.0
  0
LINE
  5
276
100
AcDbEntity
  8
SMUSSO
100
AcDbLine
 62
7
  6
CONTINUOUS
 10
219.7850431743
 20
149.0
 11
131.7850431743
 21
149.0
  0
LINE
  5
277
100
AcDbEntity
  8
SMUSSO
100
AcDbLine
 62
7
  6
CONTINUOUS
 10
219.7850431743
 20
150.0
 11
131.7850431743
 21
150.0
  0
LINE
  5
278
100
AcDbEntity
  8
SMUSSO
100
AcDbLine
 62
7
  6
CONTINUOUS
 10
220.7850431743
 20
61.0
 11
219.7850431743
 21
60.0
  0
LINE
  5
279
100
AcDbEntity
  8
SMUSSO
100
AcDbLine
 62
7
  6
CONTINUOUS
 10
219.7850431743
 20
150.0
 11
220.7850431743
 21
149.0
  0
LWPOLYLINE
  5
27A
100
AcDbEntity
  8
0
100
AcDbPolyline
 62
7
  6
CONTINUOUS
 90
3
 70
0
 43
0.3500000006
 10
69.4947597198
 20
170.892850708
 10
70.3519021912
 20
171.7500067749
 10
70.3519021912
 20
168.7500058594
  0
LWPOLYLINE
  5
27B
100
AcDbEntity
  8
0
100
AcDbPolyline
 62
7
  6
CONTINUOUS
 90
3
 70
0
 43
0.3500000006
 10
71.2090446625
 20
170.892850708
 10
72.0661916656
 20
171.7500067749
 10
72.0661916656
 20
168.7500058594
  0
LINE
  5
27C
100
AcDbEntity
  8
SMUSSO
100
AcDbLine
 62
7
  6
CONTINUOUS
 10
81.5505473839
 20
60.0
 11
84.0505473839
 21
60.0
  0
LINE
  5
27D
100
AcDbEntity
  8
0
100
AcDbLine
 62
250
  6
CONTINUOUS
 10
87.6015910292
 20
61.6595932933
 11
89.1005473839
 21
61.9616896719
  0
LINE
  5
27E
100
AcDbEntity
  8
0
100
AcDbLine
 62
7
  6
CONTINUOUS
 10
84.7005473839
 20
60.6493803117
 11
87.6005473839
 21
60.7
  0
LINE
  5
27F
100
AcDbEntity
  8
SMUSSO
100
AcDbLine
 62
7
  6
CONTINUOUS
 10
81.5505473839
 20
61.0
 11
84.0505473839
 21
61.0
  0
LINE
  5
280
100
AcDbEntity
  8
0
100
AcDbLine
 62
250
  6
CONTINUOUS
 10
84.7005473839
 20
61.7
 11
87.6005473839
 21
61.7
  0
LINE
  5
281
100
AcDbEntity
  8
RACCORDO
100
AcDbLine
 62
7
  6
CONTINUOUS
 10
84.7005473839
 20
65.0
 11
84.5505473839
 21
65.0
  0
LINE
  5
282
100
AcDbEntity
  8
RACCORDO
100
AcDbLine
 62
250
  6
CONTINUOUS
 10
84.7005473839
 20
67.0
 11
84.5505473839
 21
67.0
  0
LINE
  5
283
100
AcDbEntity
  8
SMUSSO
100
AcDbLine
 62
7
  6
CONTINUOUS
 10
81.5505473839
 20
150.0
 11
80.5505473839
 21
149.0
  0
LINE
  5
284
100
AcDbEntity
  8
SMUSSO
100
AcDbLine
 62
7
  6
CONTINUOUS
 10
81.5505473839
 20
60.0
 11
80.5505473839
 21
61.0
  0
LWPOLYLINE
  5
285
100
AcDbEntity
  8
0
100
AcDbPolyline
 62
7
  6
CONTINUOUS
 90
3
 70
0
 43
0.3500000006
 10
73.6376187744
 20
169.0357124634
 10
73.5661875916
 20
168.8214279785
 10
73.4233342896
 20
168.5357213745
  0
LINE
  5
286
100
AcDbEntity
  8
SMUSSO
100
AcDbLine
 62
7
  6
CONTINUOUS
 10
84.0505473839
 20
149.0
 11
84.5505473839
 21
149.5
  0
LINE
  5
287
100
AcDbEntity
  8
SMUSSO
100
AcDbLine
 62
7
  6
CONTINUOUS
 10
84.5505473839
 20
60.5
 11
84.0505473839
 21
61.0
  0
LWPOLYLINE
  5
288
100
AcDbEntity
  8
0
100
AcDbPolyline
 62
7
  6
CONTINUOUS
 90
3
 70
0
 43
0.3500000006
 10
73.868526123
 20
159.0357094116
 10
73.797099472
 20
158.8214249268
 10
73.6542416382
 20
158.5357183228
  0
LWPOLYLINE
  5
289
100
AcDbEntity
  8
0
100
AcDbPolyline
 62
250
  6
CONTINUOUS
 90
5
 70
0
 10
91.145638761
 20
78.4963378532
 10
91.1253993794
 20
78.4945475624
 10
91.1045088097
 20
78.4931466792
 10
91.0828557832
 20
78.492095046
 10
91.0604402997
 20
78.4913925519
  0
LINE
  5
28A
100
AcDbEntity
  8
0
100
AcDbLine
 62
7
  6
CONTINUOUS
 10
90.0263845817
 20
77.8498705614
 11
89.1005473839
 21
77.848254669
  0
LINE
  5
28B
100
AcDbEntity
  8
0
100
AcDbLine
 62
250
  6
CONTINUOUS
 10
90.0263199676
 20
78.0723207561
 11
89.1005473839
 21
78.0719025616
  0
LINE
  5
28C
100
AcDbEntity
  8
0
100
AcDbLine
 62
7
  6
CONTINUOUS
 10
89.1005473839
 20
79.1655291004
 11
90.1024273037
 21
79.1999169449
  0
LWPOLYLINE
  5
28D
100
AcDbEntity
  8
0
100
AcDbPolyline
 62
7
  6
CONTINUOUS
 90
15
 70
0
 10
91.0605376053
 20
78.4713786642
 10
91.0846471679
 20
78.4720418433
 10
91.1132507732
 20
78.4734224236
 10
91.1413412651
 20
78.4754030692
 10
91.1687854715
 20
78.4779484041
 10
91.1956667177
 20
78.4810675776
 10
91.2219190215
 20
78.4847598997
 10
91.2472506221
 20
78.4890057403
 10
91.271697652
 20
78.4938410705
 10
91.2953475314
 20
78.49933263
 10
91.3182004179
 20
78.5055882319
 10
91.3407644945
 20
78.5128786122
 10
91.3629292762
 20
78.5214566337
 10
91.3838956934
 20
78.531259812
 10
91.3879594123
 20
78.5333813923
  0
LINE
  5
28E
100
AcDbEntity
  8
0
100
AcDbLine
 62
7
  6
CONTINUOUS
 10
89.1005473839
 20
78.4362138499
 11
91.0605377218
 21
78.4713786625
  0
LINE
  5
28F
100
AcDbEntity
  8
0
100
AcDbLine
 62
250
  6
CONTINUOUS
 10
91.0604402997
 20
78.4913925519
 11
89.1005473839
 21
78.4561991918
  0
LINE
  5
290
100
AcDbEntity
  8
0
100
AcDbLine
 62
7
  6
CONTINUOUS
 10
90.0506717627
 20
79.8
 11
89.1005473839
 21
79.8
  0
LINE
  5
291
100
AcDbEntity
  8
0
100
AcDbLine
 62
7
  6
CONTINUOUS
 10
89.1005473839
 20
79.95
 11
89.2505473839
 21
79.95
  0
LINE
  5
292
100
AcDbEntity
  8
0
100
AcDbLine
 62
7
  6
CONTINUOUS
 10
89.5505473839
 20
79.95
 11
89.7505473839
 21
79.95
  0
LWPOLYLINE
  5
293
100
AcDbEntity
  8
0
100
AcDbPolyline
 62
7
  6
CONTINUOUS
 90
25
 70
0
 10
91.9110145751
 20
79.183776188
 10
91.9243442813
 20
79.1834010118
 10
91.9375258629
 20
79.1825593579
 10
91.950501992
 20
79.1812512263
 10
91.9632341675
 20
79.1794559248
 10
91.9756511192
 20
79.1771941456
 10
91.9876530865
 20
79.1745279653
 10
91.9991871973
 20
79.1714512347
 10
92.010222606
 20
79.167970103
 10
92.0207042039
 20
79.1641650952
 10
92.0305914157
 20
79.1600385977
 10
92.0398705384
 20
79.155588224
 10
92.0485329515
 20
79.1508873398
 10
92.0565500137
 20
79.14594408
 10
92.0639150397
 20
79.1407503097
 10
92.0706465933
 20
79.1353549902
 10
92.0767243213
 20
79.1297629645
 10
92.0821339742
 20
79.1239693897
 10
92.0868874323
 20
79.1180086982
 10
92.090961292
 20
79.1118837264
 10
92.0943370273
 20
79.105591638
 10
92.0970120017
 20
79.0991583561
 10
92.0989599185
 20
79.0925925218
 10
92.1001467011
 20
79.085885494
 10
92.1005473839
 20
79.0790372727
  0
LINE
  5
294
100
AcDbEntity
  8
0
100
AcDbLine
 62
7
  6
CONTINUOUS
 10
89.1005473839
 20
79.2441801255
 11
90.1024273037
 21
79.1999169449
  0
LINE
  5
295
100
AcDbEntity
  8
0
100
AcDbLine
 62
7
  6
CONTINUOUS
 10
90.1501754818
 20
79.7950371902
 11
92.1005473839
 21
79.6
  0
LWPOLYLINE
  5
296
100
AcDbEntity
  8
0
100
AcDbPolyline
 62
7
  6
CONTINUOUS
 90
4
 70
0
 43
0.3500000006
 10
70.7970985565
 20
159.1785717773
 10
70.7970985565
 20
160.0357097168
 10
71.2256720581
 20
160.4642786865
 10
71.8685255127
 20
160.4642786865
  0
LINE
  5
297
100
AcDbEntity
  8
0
100
AcDbLine
 62
7
  6
CONTINUOUS
 10
89.2505473839
 20
130.05
 11
89.4005473839
 21
130.2
  0
LINE
  5
298
100
AcDbEntity
  8
0
100
AcDbLine
 62
7
  6
CONTINUOUS
 10
89.7505473839
 20
130.05
 11
89.9005473839
 21
130.2
  0
LINE
  5
299
100
AcDbEntity
  8
0
100
AcDbLine
 62
7
  6
CONTINUOUS
 10
89.2505473839
 20
79.95
 11
89.4005473839
 21
79.8
  0
LINE
  5
29A
100
AcDbEntity
  8
0
100
AcDbLine
 62
7
  6
CONTINUOUS
 10
89.7505473839
 20
79.95
 11
89.9005473839
 21
79.8
  0
LWPOLYLINE
  5
29B
100
AcDbEntity
  8
0
100
AcDbPolyline
 62
250
  6
CONTINUOUS
 90
9
 70
0
 10
90.1204076237
 20
77.9254942412
 10
90.1276777828
 20
77.9162824324
 10
90.1347354595
 20
77.9078650061
 10
90.141497386
 20
77.9004138152
 10
90.1478352872
 20
77.8941475932
 10
90.1536207948
 20
77.8892738691
 10
90.1587320912
 20
77.8859918322
 10
90.1630513779
 20
77.8844973137
 10
90.1664536175
 20
77.8849842039
  0
LWPOLYLINE
  5
29C
100
AcDbEntity
  8
0
100
AcDbPolyline
 62
250
  6
CONTINUOUS
 90
19
 70
0
 10
90.0263199676
 20
131.9276792439
 10
90.034262034
 20
131.9414669576
 10
90.0425624933
 20
131.9556477126
 10
90.0511879113
 20
131.9701279996
 10
90.0601065617
 20
131.9848208673
 10
90.0692572212
 20
131.9995792082
 10
90.0785507806
 20
132.0142034921
 10
90.0879141714
 20
132.028533379
 10
90.0972765514
 20
132.0424223005
 10
90.1065416579
 20
132.0556816462
 10
90.1156453248
 20
132.0681683667
 10
90.1244516211
 20
132.0796403181
 10
90.1327650097
 20
132.0897955682
 10
90.1405102284
 20
132.098495105
 10
90.1475691701
 20
132.1055621883
 10
90.1537424288
 20
132.1107811063
 10
90.1589536088
 20
132.1140968754
 10
90.1632018329
 20
132.1155135555
 10
90.1664536175
 20
132.1150157961
  0
LWPOLYLINE
  5
29D
100
AcDbEntity
  8
0
100
AcDbPolyline
 62
250
  6
CONTINUOUS
 90
14
 70
0
 10
90.0263199676
 20
78.0723207561
 10
90.0330819005
 20
78.0605468921
 10
90.0399505189
 20
78.0487506194
 10
90.0469089212
 20
78.0369706821
 10
90.0539005782
 20
78.0253085916
 10
90.0609438937
 20
78.013744943
 10
90.0681280841
 20
78.0021563077
 10
90.0754388782
 20
77.9905893664
 10
90.0828278984
 20
77.9791401853
 10
90.0903195993
 20
77.9677968198
 10
90.0978752137
 20
77.9566493604
 10
90.1054336555
 20
77.9458214363
 10
90.1129691655
 20
77.9353878202
 10
90.1204076237
 20
77.9254942412
  0
LINE
  5
29E
100
AcDbEntity
  8
SMUSSO
100
AcDbLine
 62
7
  6
CONTINUOUS
 10
80.5505473839
 20
61.0
 11
80.5505473839
 21
149.0
  0
LINE
  5
29F
100
AcDbEntity
  8
SMUSSO
100
AcDbLine
 62
7
  6
CONTINUOUS
 10
81.5505473839
 20
61.0
 11
81.5505473839
 21
149.0
  0
LINE
  5
2A0
100
AcDbEntity
  8
0
100
AcDbLine
 62
7
  6
CONTINUOUS
 10
87.6084156208
 20
61.5188207519
 11
87.6015910292
 21
61.6595932933
  0
LINE
  5
2A1
100
AcDbEntity
  8
SMUSSO
100
AcDbLine
 62
7
  6
CONTINUOUS
 10
84.0505473839
 20
149.0
 11
84.0505473839
 21
61.0
  0
LINE
  5
2A2
100
AcDbEntity
  8
SMUSSO
100
AcDbLine
 62
7
  6
CONTINUOUS
 10
84.5505473839
 20
149.5
 11
84.5505473839
 21
60.5
  0
LINE
  5
2A3
100
AcDbEntity
  8
0
100
AcDbLine
 62
7
  6
CONTINUOUS
 10
84.7005473839
 20
60.6493803117
 11
84.7005473839
 21
149.3506196883
  0
LWPOLYLINE
  5
2A4
100
AcDbEntity
  8
0
100
AcDbPolyline
 62
7
  6
CONTINUOUS
 90
17
 70
0
 10
87.6163164245
 20
148.6852772228
 10
87.618266066
 20
148.7497907223
 10
87.619829765
 20
148.8117037078
 10
87.621019714
 20
148.8709175335
 10
87.6218153034
 20
148.9274492248
 10
87.622209663
 20
148.9811792249
 10
87.6222096629
 20
149.0316001719
 10
87.621815303
 20
149.0781806863
 10
87.6210197134
 20
149.1205721457
 10
87.619829764
 20
149.1587702373
 10
87.6182660648
 20
149.1927877009
 10
87.6163164234
 20
149.22250261
 10
87.6139930323
 20
149.2476249077
 10
87.6113530786
 20
149.2679285664
 10
87.6084156247
 20
149.2833104243
 10
87.6051616082
 20
149.2937350036
 10
87.6015910292
 20
149.2991650838
  0
LINE
  5
2A5
100
AcDbEntity
  8
0
100
AcDbLine
 62
7
  6
CONTINUOUS
 10
87.6113530791
 20
148.5504737583
 11
87.6163164245
 21
148.6852772228
  0
LWPOLYLINE
  5
2A6
100
AcDbEntity
  8
0
100
AcDbPolyline
 62
7
  6
CONTINUOUS
 90
3
 70
0
 10
87.6015910292
 20
148.3404067067
 10
87.6051616084
 20
148.4110390308
 10
87.6113530791
 20
148.5504737583
  0
LINE
  5
2A7
100
AcDbEntity
  8
0
100
AcDbLine
 62
7
  6
CONTINUOUS
 10
87.6005473839
 20
148.3
 11
87.6005473839
 21
61.7
  0
LINE
  5
2A8
100
AcDbEntity
  8
0
100
AcDbLine
 62
7
  6
CONTINUOUS
 10
89.1005473839
 20
148.1
 11
89.1005473839
 21
61.9
  0
LINE
  5
2A9
100
AcDbEntity
  8
0
100
AcDbLine
 62
250
  6
CONTINUOUS
 10
91.9110145751
 20
130.8799866677
 11
91.9110145751
 21
130.3810467191
  0
LINE
  5
2AA
100
AcDbEntity
  8
0
100
AcDbLine
 62
250
  6
CONTINUOUS
 10
91.9110145751
 20
79.6189532809
 11
91.9110145751
 21
79.1837898081
  0
LINE
  5
2AB
100
AcDbEntity
  8
0
100
AcDbLine
 62
7
  6
CONTINUOUS
 10
92.1005473839
 20
131.0883643404
 11
92.1005473839
 21
130.4
  0
LINE
  5
2AC
100
AcDbEntity
  8
0
100
AcDbLine
 62
7
  6
CONTINUOUS
 10
92.1005473839
 20
79.6
 11
92.1005473839
 21
78.9116356596
  0
LINE
  5
2AD
100
AcDbEntity
  8
0
100
AcDbLine
 62
250
  6
CONTINUOUS
 10
90.0263847435
 20
77.8502223457
 11
90.0263199676
 21
78.0723207561
  0
LINE
  5
2AE
100
AcDbEntity
  8
0
100
AcDbLine
 62
250
  6
CONTINUOUS
 10
90.0263199676
 20
131.9276792439
 11
90.026384621
 21
132.1497758863
  0
LWPOLYLINE
  5
2AF
100
AcDbEntity
  8
0
100
AcDbPolyline
 62
250
  6
CONTINUOUS
 90
4
 70
0
 10
90.9774913528
 20
131.5709140678
 10
90.9774588578
 20
131.5699355208
 10
90.9774187698
 20
131.5662540269
 10
90.9773356771
 20
131.5509203682
  0
LWPOLYLINE
  5
2B0
100
AcDbEntity
  8
0
100
AcDbPolyline
 62
250
  6
CONTINUOUS
 90
4
 70
0
 10
91.0605377218
 20
78.4713786625
 10
91.0605794845
 20
78.4723615156
 10
91.0605828448
 20
78.4760482628
 10
91.0604402997
 20
78.4913925519
  0
LWPOLYLINE
  5
2B1
100
AcDbEntity
  8
0
100
AcDbPolyline
 62
7
  6
CONTINUOUS
 90
16
 70
0
 10
92.1005473839
 20
130.9903260329
 10
92.0996829018
 20
130.9802056491
 10
92.0971044678
 20
130.9703424486
 10
92.0928454828
 20
130.9607364313
 10
92.0869324814
 20
130.9512901495
 10
92.0794376097
 20
130.9421010509
 10
92.0705266733
 20
130.9334614789
 10
92.0603669606
 20
130.925430077
 10
92.0490572492
 20
130.9179482017
 10
92.0367053658
 20
130.9111322654
 10
92.023445444
 20
130.9050011498
 10
92.0094042244
 20
130.8995359732
 10
91.9946658794
 20
130.8947965027
 10
91.9793383777
 20
130.8908026606
 10
91.9635612455
 20
130.8875345247
 10
91.9474581154
 20
130.8849920949
  0
LWPOLYLINE
  5
2B2
100
AcDbEntity
  8
0
100
AcDbPolyline
 62
7
  6
CONTINUOUS
 90
10
 70
0
 43
0.3500000006
 10
73.797099472
 20
159.2499938965
 10
73.868526123
 20
159.1071496582
 10
73.868526123
 20
159.0357094116
 10
73.7256682892
 20
158.8928651733
 10
73.6542416382
 20
158.8928651733
 10
73.5828149872
 20
158.9642872925
 10
73.5828149872
 20
159.0357094116
 10
73.6542416382
 20
159.1785717773
 10
73.7256682892
 20
159.2499938965
 10
73.797099472
 20
159.2499938965
  0
LWPOLYLINE
  5
2B3
100
AcDbEntity
  8
0
100
AcDbPolyline
 62
7
  6
CONTINUOUS
 90
10
 70
0
 43
0.3500000006
 10
73.5661875916
 20
169.2499969482
 10
73.6376187744
 20
169.1071345825
 10
73.6376187744
 20
169.0357124634
 10
73.4947609406
 20
168.8928500977
 10
73.4233342896
 20
168.8928500977
 10
73.3519031067
 20
168.9642903442
 10
73.3519031067
 20
169.0357124634
 10
73.4233342896
 20
169.1785748291
 10
73.4947609406
 20
169.2499969482
 10
73.5661875916
 20
169.2499969482
  0
LINE
  5
2B4
100
AcDbEntity
  8
0
100
AcDbLine
 62
7
  6
CONTINUOUS
 10
89.4005473839
 20
79.8
 11
89.5505473839
 21
79.95
  0
LINE
  5
2B5
100
AcDbEntity
  8
RACCORDO
100
AcDbLine
 62
250
  6
CONTINUOUS
 10
84.7005473839
 20
126.0
 11
84.5505473839
 21
126.0
  0
LINE
  5
2B6
100
AcDbEntity
  8
0
100
AcDbLine
 62
7
  6
CONTINUOUS
 10
89.4005473839
 20
130.2
 11
89.5505473839
 21
130.05
  0
LINE
  5
2B7
100
AcDbEntity
  8
RACCORDO
100
AcDbLine
 62
7
  6
CONTINUOUS
 10
84.7005473839
 20
128.0
 11
84.5505473839
 21
128.0
  0
LWPOLYLINE
  5
2B8
100
AcDbEntity
  8
0
100
AcDbPolyline
 62
7
  6
CONTINUOUS
 90
19
 70
0
 10
87.6015910292
 20
60.7008349162
 10
87.6051616064
 20
60.7062649939
 10
87.6084156209
 20
60.7166895623
 10
87.6113530726
 20
60.7320713957
 10
87.6139930232
 20
60.7523750002
 10
87.6163164111
 20
60.7774972151
 10
87.6182660512
 20
60.8072120525
 10
87.6198297531
 20
60.8412294905
 10
87.6210197073
 20
60.8794276002
 10
87.6218153004
 20
60.9218191194
 10
87.6222096614
 20
60.9683997593
 10
87.6222096613
 20
61.0188208894
 10
87.6218153002
 20
61.0725510603
 10
87.621019707
 20
61.1290828828
 10
87.6198297526
 20
61.1882968085
 10
87.6182660506
 20
61.2502098289
 10
87.6163164106
 20
61.3147232469
 10
87.6139930229
 20
61.3813504758
 10
87.6084156208
 20
61.5188207519
  0
LINE
  5
2B9
100
AcDbEntity
  8
0
100
AcDbLine
 62
250
  6
CONTINUOUS
 10
92.1005473832
 20
78.9593268293
 11
91.2974627732
 21
78.5302058865
  0
LINE
  5
2BA
100
AcDbEntity
  8
0
100
AcDbLine
 62
250
  6
CONTINUOUS
 10
90.0263199676
 20
78.0723207561
 11
90.7682191727
 21
78.4661340821
  0
LINE
  5
2BB
100
AcDbEntity
  8
0
100
AcDbLine
 62
7
  6
CONTINUOUS
 10
92.1005473839
 20
78.9116356596
 11
90.1655593456
 21
77.8845095084
  0
LWPOLYLINE
  5
2BC
100
AcDbEntity
  8
0
100
AcDbPolyline
 62
250
  6
CONTINUOUS
 90
12
 70
0
 10
91.2974627732
 20
78.5302058865
 10
91.2892225853
 20
78.5262935547
 10
91.2798960838
 20
78.5225474928
 10
91.2694832689
 20
78.5189673862
 10
91.258009972
 20
78.5155569609
 10
91.2454503616
 20
78.5123119071
 10
91.2317269434
 20
78.5092198955
 10
91.216791371
 20
78.5062506238
 10
91.2006919907
 20
78.5034339605
 10
91.183496347
 20
78.5008477773
 10
91.1651156857
 20
78.4984778281
 10
91.145638761
 20
78.4963378532
  0
LINE
  5
2BD
100
AcDbEntity
  8
0
100
AcDbLine
 62
250
  6
CONTINUOUS
 10
91.3877437917
 20
78.5332668037
 11
91.3838956934
 21
78.531259812
  0
LWPOLYLINE
  5
2BE
100
AcDbEntity
  8
0
100
AcDbPolyline
 62
250
  6
CONTINUOUS
 90
9
 70
0
 10
91.3789747544
 20
78.5291849676
 10
91.3697756523
 20
78.5260177984
 10
91.3601930255
 20
78.5237813212
 10
91.350275332
 20
78.5224868392
 10
91.3400727726
 20
78.522140913
 10
91.3296370214
 20
78.5227453172
 10
91.3190208778
 20
78.5242969884
 10
91.3082780162
 20
78.5267880513
 10
91.2974627732
 20
78.5302058865
  0
LINE
  5
2BF
100
AcDbEntity
  8
0
100
AcDbLine
 62
7
  6
CONTINUOUS
 10
90.1501754818
 20
130.2049628098
 11
92.1005473839
 21
130.4
  0
LINE
  5
2C0
100
AcDbEntity
  8
0
100
AcDbLine
 62
7
  6
CONTINUOUS
 10
89.1005473839
 20
130.7558198745
 11
91.9110145751
 21
130.8799866677
  0
LINE
  5
2C1
100
AcDbEntity
  8
0
100
AcDbLine
 62
7
  6
CONTINUOUS
 10
89.1005473839
 20
130.05
 11
89.2505473839
 21
130.05
  0
LINE
  5
2C2
100
AcDbEntity
  8
0
100
AcDbLine
 62
7
  6
CONTINUOUS
 10
89.5505473839
 20
130.05
 11
89.7505473839
 21
130.05
  0
LINE
  5
2C3
100
AcDbEntity
  8
0
100
AcDbLine
 62
7
  6
CONTINUOUS
 10
89.1005473839
 20
130.2
 11
90.0506717627
 21
130.2
  0
LINE
  5
2C4
100
AcDbEntity
  8
RACCORDO
100
AcDbLine
 62
250
  6
CONTINUOUS
 10
84.5505473839
 20
131.0
 11
84.7005473839
 21
131.0
  0
LINE
  5
2C5
100
AcDbEntity
  8
RACCORDO
100
AcDbLine
 62
7
  6
CONTINUOUS
 10
84.7005473839
 20
132.0
 11
84.5505473839
 21
132.0
  0
LINE
  5
2C6
100
AcDbEntity
  8
0
100
AcDbLine
 62
250
  6
CONTINUOUS
 10
90.0263199676
 20
131.9276792439
 11
89.1005473839
 21
131.9280974384
  0
LINE
  5
2C7
100
AcDbEntity
  8
0
100
AcDbLine
 62
250
  6
CONTINUOUS
 10
89.1005473839
 20
131.5523835751
 11
90.9773356771
 21
131.5509203682
  0
LINE
  5
2C8
100
AcDbEntity
  8
0
100
AcDbLine
 62
7
  6
CONTINUOUS
 10
90.9774913488
 20
131.5709140678
 11
89.1005473839
 21
131.5723674752
  0
LINE
  5
2C9
100
AcDbEntity
  8
0
100
AcDbLine
 62
7
  6
CONTINUOUS
 10
90.0263845817
 20
132.1501294386
 11
89.1005473839
 21
132.151745331
  0
LWPOLYLINE
  5
2CA
100
AcDbEntity
  8
0
100
AcDbPolyline
 62
250
  6
CONTINUOUS
 90
3
 70
0
 10
90.9773356771
 20
131.5509203682
 10
90.9951755796
 20
131.5507024359
 10
91.0124756195
 20
131.5502366544
  0
LWPOLYLINE
  5
2CB
100
AcDbEntity
  8
0
100
AcDbPolyline
 62
250
  6
CONTINUOUS
 90
5
 70
0
 10
91.0124756195
 20
131.5502366544
 10
91.0292357968
 20
131.5495229682
 10
91.0455368793
 20
131.5485330338
 10
91.0612980992
 20
131.5472949835
 10
91.076277153
 20
131.5458934809
  0
LWPOLYLINE
  5
2CC
100
AcDbEntity
  8
0
100
AcDbPolyline
 62
250
  6
CONTINUOUS
 90
13
 70
0
 10
91.076277153
 20
131.5458934809
 10
91.0903546629
 20
131.544344846
 10
91.1036500066
 20
131.542632535
 10
91.1162790147
 20
131.5407919764
 10
91.1281784159
 20
131.5388578293
 10
91.1394114815
 20
131.5367952242
 10
91.1502838555
 20
131.5345352452
 10
91.1609685223
 20
131.5320720988
 10
91.1712924974
 20
131.5294111294
 10
91.1810424718
 20
131.5264999657
 10
91.1901473423
 20
131.523320879
 10
91.1986782121
 20
131.519890857
 10
91.206635081
 20
131.5162094923
  0
LWPOLYLINE
  5
2CD
100
AcDbEntity
  8
0
100
AcDbPolyline
 62
250
  6
CONTINUOUS
 90
10
 70
0
 10
91.3004065818
 20
131.5130933445
 10
91.2912756316
 20
131.517343486
 10
91.2816985636
 20
131.5206401212
 10
91.2717258565
 20
131.522965875
 10
91.2614100741
 20
131.5243084892
 10
91.2508055885
 20
131.5246608881
 10
91.2399682933
 20
131.5240212147
 10
91.2289553092
 20
131.522392841
 10
91.2178246828
 20
131.5197843505
 10
91.206635081
 20
131.5162094923
  0
LWPOLYLINE
  5
2CE
100
AcDbEntity
  8
0
100
AcDbPolyline
 62
7
  6
CONTINUOUS
 90
15
 70
0
 10
91.3002914485
 20
131.5131541112
 10
91.2926456637
 20
131.5170681959
 10
91.2717380453
 20
131.5264668944
 10
91.2497044321
 20
131.5346317599
 10
91.2272938128
 20
131.541538204
 10
91.2045628662
 20
131.5474088499
 10
91.181039002
 20
131.5525081332
 10
91.156736423
 20
131.5569244576
 10
91.1315770541
 20
131.5607239741
 10
91.1055154589
 20
131.5639397526
 10
91.0788314065
 20
131.5665542965
 10
91.0515882472
 20
131.5685703427
 10
91.0237110268
 20
131.5699853215
 10
90.9953475326
 20
131.5707661229
 10
90.9774914094
 20
131.5709140647
  0
LINE
  5
2CF
100
AcDbEntity
  8
0
100
AcDbLine
 62
250
  6
CONTINUOUS
 10
90.6980170089
 20
131.5711304782
 11
90.0263199676
 21
131.9276792439
  0
LINE
  5
2D0
100
AcDbEntity
  8
0
100
AcDbLine
 62
7
  6
CONTINUOUS
 10
90.1655593456
 20
132.1154904916
 11
92.1005473839
 21
131.0883643404
  0
LINE
  5
2D1
100
AcDbEntity
  8
0
100
AcDbLine
 62
250
  6
CONTINUOUS
 10
91.206635081
 20
131.5162094923
 11
92.1005473839
 21
131.0384659645
  0
LINE
  5
2D2
100
AcDbEntity
  8
SMUSSO
100
AcDbLine
 62
7
  6
CONTINUOUS
 10
81.5505473839
 20
61.0
 11
81.0505473839
 21
60.5
  0
LINE
  5
2D3
100
AcDbEntity
  8
SMUSSO
100
AcDbLine
 62
7
  6
CONTINUOUS
 10
84.0505473839
 20
60.0
 11
84.5505473839
 21
60.5
  0
LINE
  5
2D4
100
AcDbEntity
  8
RACCORDO
100
AcDbLine
 62
250
  6
CONTINUOUS
 10
84.7005473839
 20
134.0
 11
84.5505473839
 21
134.0
  0
LINE
  5
2D5
100
AcDbEntity
  8
SMUSSO
100
AcDbLine
 62
7
  6
CONTINUOUS
 10
81.0505473839
 20
149.5
 11
81.5505473839
 21
149.0
  0
LINE
  5
2D6
100
AcDbEntity
  8
SMUSSO
100
AcDbLine
 62
7
  6
CONTINUOUS
 10
84.5505473839
 20
149.5
 11
84.0505473839
 21
150.0
  0
LINE
  5
2D7
100
AcDbEntity
  8
0
100
AcDbLine
 62
7
  6
CONTINUOUS
 10
87.6015910292
 20
60.7008349162
 11
89.1005473839
 21
61.9
  0
LWPOLYLINE
  5
2D8
100
AcDbEntity
  8
0
100
AcDbPolyline
 62
7
  6
CONTINUOUS
 90
13
 70
0
 43
0.3500000006
 10
71.2256720581
 20
160.4642786865
 10
70.9399563904
 20
160.6785631714
 10
70.9399563904
 20
161.3214347534
 10
71.2256720581
 20
161.7500037231
 10
71.8685255127
 20
161.7500037231
 10
72.1542411804
 20
161.3214347534
 10
72.1542411804
 20
160.6785631714
 10
71.8685255127
 20
160.4642786865
 10
72.2970990143
 20
160.0357097168
 10
72.2970990143
 20
159.1785717773
 10
71.8685255127
 20
158.7500028076
 10
71.2256720581
 20
158.7500028076
 10
70.7970985565
 20
159.1785717773
  0
LINE
  5
2D9
100
AcDbEntity
  8
0
100
AcDbLine
 62
7
  6
CONTINUOUS
 10
87.6015910292
 20
149.2991650838
 11
89.1005473839
 21
148.1
  0
LINE
  5
2DA
100
AcDbEntity
  8
RACCORDO
100
AcDbLine
 62
250
  6
CONTINUOUS
 10
84.7005473839
 20
143.0
 11
84.5505473839
 21
143.0
  0
LINE
  5
2DB
100
AcDbEntity
  8
RACCORDO
100
AcDbLine
 62
7
  6
CONTINUOUS
 10
84.7005473839
 20
145.0
 11
84.5505473839
 21
145.0
  0
LINE
  5
2DC
100
AcDbEntity
  8
0
100
AcDbLine
 62
250
  6
CONTINUOUS
 10
84.7005473839
 20
148.3
 11
87.6005473839
 21
148.3
  0
LINE
  5
2DD
100
AcDbEntity
  8
SMUSSO
100
AcDbLine
 62
7
  6
CONTINUOUS
 10
81.5505473839
 20
149.0
 11
84.0505473839
 21
149.0
  0
LINE
  5
2DE
100
AcDbEntity
  8
SMUSSO
100
AcDbLine
 62
7
  6
CONTINUOUS
 10
81.5505473839
 20
150.0
 11
84.0505473839
 21
150.0
  0
LWPOLYLINE
  5
2DF
100
AcDbEntity
  8
0
100
AcDbPolyline
 62
7
  6
CONTINUOUS
 90
8
 70
0
 43
0.3500000006
 10
74.8685264282
 20
158.7500028076
 10
75.7256688995
 20
158.7500028076
 10
76.1542424011
 20
159.1785717773
 10
76.1542424011
 20
160.0357097168
 10
75.7256688995
 20
160.4642786865
 10
74.8685264282
 20
160.4642786865
 10
74.8685264282
 20
161.7500037231
 10
76.1542424011
 20
161.7500037231
  0
LWPOLYLINE
  5
2E0
100
AcDbEntity
  8
0
100
AcDbPolyline
 62
7
  6
CONTINUOUS
 90
8
 70
0
 43
0.3500000006
 10
77.0113803406
 20
158.7500028076
 10
77.8685273438
 20
158.7500028076
 10
78.2970963135
 20
159.1785717773
 10
78.2970963135
 20
160.0357097168
 10
77.8685273438
 20
160.4642786865
 10
77.0113803406
 20
160.4642786865
 10
77.0113803406
 20
161.7500037231
 10
78.2970963135
 20
161.7500037231
  0
LWPOLYLINE
  5
2E1
100
AcDbEntity
  8
0
100
AcDbPolyline
 62
7
  6
CONTINUOUS
 90
8
 70
0
 43
0.3500000006
 10
74.6376190796
 20
168.7500058594
 10
75.4947615509
 20
168.7500058594
 10
75.9233305206
 20
169.1785748291
 10
75.9233305206
 20
170.0357127686
 10
75.4947615509
 20
170.4642817383
 10
74.6376190796
 20
170.4642817383
 10
74.6376190796
 20
171.7500067749
 10
75.9233305206
 20
171.7500067749
  0
LWPOLYLINE
  5
2E2
100
AcDbEntity
  8
0
100
AcDbPolyline
 62
7
  6
CONTINUOUS
 90
8
 70
0
 43
0.3500000006
 10
76.7804729919
 20
168.7500058594
 10
77.6376199951
 20
168.7500058594
 10
78.0661889648
 20
169.1785748291
 10
78.0661889648
 20
170.0357127686
 10
77.6376199951
 20
170.4642817383
 10
76.7804729919
 20
170.4642817383
 10
76.7804729919
 20
171.7500067749
 10
78.0661889648
 20
171.7500067749
  0
LINE
  5
2E3
100
AcDbEntity
  8
0
100
AcDbLine
 62
7
  6
CONTINUOUS
 10
84.7005473839
 20
149.3506196883
 11
87.6005473839
 21
149.3
  0
LINE
  5
2E4
100
AcDbEntity
  8
0
100
AcDbLine
 62
250
  6
CONTINUOUS
 10
87.6015910292
 20
148.3404067067
 11
89.1005473839
 21
148.0383103281
  0
ARC
  5
2E5
100
AcDbEntity
  8
0
100
AcDbCircle
 62
7
  6
CONTINUOUS
 10
197.1850431743
 20
126.4
 40
1.7
100
AcDbArc
 50
0.0
 51
90.0
  0
ARC
  5
2E6
100
AcDbEntity
  8
0
100
AcDbCircle
 62
7
  6
CONTINUOUS
 10
154.3850431743
 20
126.4
 40
1.7
100
AcDbArc
 50
90.0
 51
180.0
  0
ARC
  5
2E7
100
AcDbEntity
  8
0
100
AcDbCircle
 62
7
  6
CONTINUOUS
 10
154.3850431743
 20
83.6
 40
1.7
100
AcDbArc
 50
180.0
 51
270.0
  0
ARC
  5
2E8
100
AcDbEntity
  8
0
100
AcDbCircle
 62
7
  6
CONTINUOUS
 10
197.1850431743
 20
83.6
 40
1.7
100
AcDbArc
 50
270.0
 51
360.0
  0
ARC
  5
2E9
100
AcDbEntity
  8
0
100
AcDbCircle
 62
7
  6
CONTINUOUS
 10
154.3850431743
 20
83.6
 40
1.2
100
AcDbArc
 50
180.0
 51
270.0
  0
ARC
  5
2EA
100
AcDbEntity
  8
0
100
AcDbCircle
 62
7
  6
CONTINUOUS
 10
197.1850431743
 20
83.6
 40
1.2
100
AcDbArc
 50
270.0
 51
360.0
  0
ARC
  5
2EB
100
AcDbEntity
  8
0
100
AcDbCircle
 62
7
  6
CONTINUOUS
 10
197.1850431743
 20
126.4
 40
1.2
100
AcDbArc
 50
0.0
 51
90.0
  0
ARC
  5
2EC
100
AcDbEntity
  8
0
100
AcDbCircle
 62
7
  6
CONTINUOUS
 10
154.3850431743
 20
126.4
 40
1.2
100
AcDbArc
 50
90.0
 51
180.0
  0
ARC
  5
2ED
100
AcDbEntity
  8
0
100
AcDbCircle
 62
7
  6
CONTINUOUS
 10
90.0506717627
 20
131.2
 40
1.0
100
AcDbArc
 50
270.0
 51
275.7105931375
  0
ARC
  5
2EE
100
AcDbEntity
  8
0
100
AcDbCircle
 62
7
  6
CONTINUOUS
 10
90.0506717627
 20
78.8
 40
1.0
100
AcDbArc
 50
84.2894068625
 51
90.0
  0
ARC
  5
2EF
100
AcDbEntity
  8
0
100
AcDbCircle
 62
7
  6
CONTINUOUS
 10
90.0258607555
 20
78.1500005288
 40
0.3
100
AcDbArc
 50
270.1000001427
 51
297.9489527925
  0
ARC
  5
2F0
100
AcDbEntity
  8
0
100
AcDbCircle
 62
7
  6
CONTINUOUS
 10
90.0258607555
 20
131.8499994712
 40
0.3
100
AcDbArc
 50
62.0510472075
 51
89.8999998573
  0
ELLIPSE
  5
2F1
100
AcDbEntity
  8
0
100
AcDbEllipse
 62
7
  6
CONTINUOUS
 10
88.823856215
 20
148.3
 30
0.0
 11
1.2233088312
 21
-0.0
 31
0.0
 40
0.7998095528
 41
3.1002827401
 42
3.1415926536
  0
ELLIPSE
  5
2F2
100
AcDbEntity
  8
0
100
AcDbEllipse
 62
7
  6
CONTINUOUS
 10
88.823856215
 20
61.7
 30
0.0
 11
1.2233088312
 21
-0.0
 31
0.0
 40
0.7998095528
 41
3.1415926536
 42
3.1829025671
  0
ELLIPSE
  5
2F3
100
AcDbEntity
  8
0
100
AcDbEllipse
 62
7
  6
CONTINUOUS
 10
185.2493394488
 20
105.0
 30
0.0
 11
530.7034459343
 21
0.0
 31
0.0
 40
0.0494155445
 41
-1.7510554651
 42
-1.7475925186
  0
ELLIPSE
  5
2F4
100
AcDbEntity
  8
0
100
AcDbEllipse
 62
7
  6
CONTINUOUS
 10
4957.8308706727
 20
105.0
 30
0.0
 11
5070.6192780382
 21
-20.8600030618
 31
0.0
 40
0.0041137573
 41
2.856472503
 42
2.8584753448
  0
ELLIPSE
  5
2F5
100
AcDbEntity
  8
0
100
AcDbEllipse
 62
7
  6
CONTINUOUS
 10
91.9005473839
 20
131.079798695
 30
0.0
 11
-0.1417119467
 21
0.1422961243
 31
0.0
 40
0.9918061237
 41
-3.8766878413
 42
-3.6922883273
  0
ENDSEC
  0
SECTION
  2
OBJECTS
  0
DICTIONARY
  5
C
100
AcDbDictionary
280
0
281
1
  3
ACAD_GROUP
350
D
  3
ACAD_MLINESTYLE
350
17
  3
ACAD_LAYOUT
350
1A
  3
ACAD_PLOTSETTINGS
350
19
  3
ACAD_PLOTSTYLENAME
350
E
  0
DICTIONARY
  5
D
102
{ACAD_REACTORS
330
C
102
}
100
AcDbDictionary
280
0
281
1
  0
ACDBDICTIONARYWDFLT
  5
E
102
{ACAD_REACTORS
330
C
102
}
100
AcDbDictionary
281
1
  3
Normal
350
F
100
AcDbDictionaryWithDefault
340
F
  0
DICTIONARY
  5
17
102
{ACAD_REACTORS
330
C
102
}
100
AcDbDictionary
280
0
281
1
  3
Standard
350
18
  0
DICTIONARY
  5
19
102
{ACAD_REACTORS
330
C
102
}
100
AcDbDictionary
281
1
  0
DICTIONARY
  5
1A
102
{ACAD_REACTORS
330
C
102
}
100
AcDbDictionary
281
1
  3
Model
350
2F6
  3
Layout1
350
2F7
  0
ACDBPLACEHOLDER
  5
F
102
{ACAD_REACTORS
330
E
102
}
  0
MLINESTYLE
  5
18
102
{ACAD_REACTORS
330
17
102
}
100
AcDbMlineStyle
  2
STANDARD
 70
0
  3

 62
256
 51
90.0
 52
90.0
 71
2
 49
0.5
 62
256
  6
BYLAYER
 49
-0.5
 62
256
  6
BYLAYER
  0
LAYOUT
  5
2F6
102
{ACAD_REACTORS
330
1A
102
}
100
AcDbPlotSettings
  1

  2
none_device
  4
ISO_A4_(297.00_x_210.00_MM)
  6

 40
0.0
 41
0.0
 42
0.0
 43
0.0
 44
297.0
 45
210.0
 46
0.0
 47
0.0
 48
0.0
 49
0.0
140
0.0
141
0.0
142
1.0
143
1.0
 70
1024
 72
1
 73
0
 74
0
  7

 75
0
147
1.0
148
0.0
149
0.0
100
AcDbLayout
  1
Model
 70
0
 71
0
 10
0.0
 20
0.0
 11
297.0
 21
210.0
 12
0.0
 22
0.0
 32
0.0
 14
0.0
 24
0.0
 34
0.0
 15
0.0
 25
0.0
 35
0.0
146
0.0
 13
0.0
 23
0.0
 33
0.0
 16
1.0
 26
0.0
 36
0.0
 17
0.0
 27
1.0
 37
0.0
 76
0
330
224
345
0
346
0
  0
LAYOUT
  5
2F7
102
{ACAD_REACTORS
330
1A
102
}
100
AcDbPlotSettings
  1

  2
none_device
  4
ISO_A4_(297.00_x_210.00_MM)
  6

 40
0.0
 41
0.0
 42
0.0
 43
0.0
 44
297.0
 45
210.0
 46
0.0
 47
0.0
 48
0.0
 49
0.0
140
0.0
141
0.0
142
1.0
143
1.0
 70
0
 72
1
 73
0
 74
0
  7

 75
0
147
1.0
148
0.0
149
0.0
100
AcDbLayout
  1
Layout1
 70
0
 71
1
 10
0.0
 20
0.0
 11
297.0
 21
210.0
 12
0.0
 22
0.0
 32
0.0
 14
0.0
 24
0.0
 34
0.0
 15
0.0
 25
0.0
 35
0.0
146
0.0
 13
0.0
 23
0.0
 33
0.0
 16
1.0
 26
0.0
 36
0.0
 17
0.0
 27
1.0
 37
0.0
 76
0
330
225
345
0
346
0
  0
ENDSEC
  0
EOF
