  0
SECTION
  2
HEADER
  9
$ACADVER
  1
AC1024
  9
$DWGCODEPAGE
  3
ANSI_1252
  9
$EXTMAX
 10
297.0
 20
210.0
 30
0.0
  9
$EXTMIN
 10
0.0
 20
0.0
 30
0.0
  9
$LIMMIN
 10
0.0
 20
0.0
  9
$LIMMAX
 10
297.0
 20
210.0
  9
$VIEWCTR
 10
148.5
 20
105.0
  9
$VIEWSIZE
 40
210.0
  9
$CLAYER
  8
0
  9
$LTSCALE
 40
16.335
  9
$CELTYPE
  6
BYLAYER
  9
$DIMSCALE
 40
1.0
  9
$DIMASZ
 40
3.0
  9
$DIMEXO
 40
0.5
  9
$DIMDLI
 40
11.286
  9
$DIMEXE
 40
1.5
  9
$DIMCEN
 40
2.673
  9
$DIMLFAC
 40
1.0
  9
$DIMBLK
  1
_FILLED
  9
$DIMALT
 70
0
  9
$DIMALTF
 40
0.0393700787
  9
$DIMTXT
 40
3.0
  9
$DIMTOL
 70
1
  9
$DIMLIM
 70
0
  9
$DIMTFAC
 40
1.0
  9
$DIMTP
 40
0.01
  9
$DIMTM
 40
0.01
  9
$DIMGAP
 40
0.625
  9
$DIMDSEP
 70
44
  9
$AUNITS
 70
0
  9
$PDMODE
 70
3
  9
$PDSIZE
 40
3.0
  9
$HANDSEED
  5
3BC
  9
$TILEMODE
 70
1
  9
$MEASUREMENT
 70
1
  9
$INSUNITS
 70
4
  0
ENDSEC
  0
SECTION
  2
CLASSES
  0
CLASS
  1
ACDBDICTIONARYWDFLT
  2
AcDbDictionaryWithDefault
  3
AutoCAD 2000
 90
0
 91
1
280
0
281
0
  0
CLASS
  1
ACDBPLACEHOLDER
  2
AcDbPlaceHolder
  3
AutoCAD 2000
 90
0
 91
1
280
0
281
0
  0
CLASS
  1
LAYOUT
  2
AcDbLayout
  3
AutoCAD 2000
 90
0
 91
0
280
0
281
0
  0
ENDSEC
  0
SECTION
  2
TABLES
  0
TABLE
  2
VPORT
  5
8
100
AcDbSymbolTable
 70
2
  0
VPORT
  5
1F4
100
AcDbSymbolTableRecord
100
AcDbViewportTableRecord
  2
*ACTIVE
 70
0
 10
0.0
 20
0.0
 11
1.0
 21
1.0
 12
148.5
 22
105.0
 13
0.0
 23
0.0
 14
1.0
 24
1.0
 15
0.0
 25
0.0
 16
0.0
 26
0.0
 36
1.0
 17
0.0
 27
0.0
 37
0.0
 40
210.0
 41
1.4142857143
 42
50.0
 43
0.0
 44
0.0
 50
0.0
 51
0.0
 71
0
 72
100
 73
1
 74
1
 75
0
 76
0
 77
0
 78
0
  0
ENDTAB
  0
TABLE
  2
LTYPE
  5
5
100
AcDbSymbolTable
 70
6
  0
LTYPE
  5
14
100
AcDbSymbolTableRecord
100
AcDbLinetypeTableRecord
  2
BYBLOCK
 70
0
  3

 72
65
 73
0
 40
0.0
  0
LTYPE
  5
15
100
AcDbSymbolTableRecord
100
AcDbLinetypeTableRecord
  2
BYLAYER
 70
0
  3

 72
65
 73
0
 40
0.0
  0
LTYPE
  5
16
100
AcDbSymbolTableRecord
100
AcDbLinetypeTableRecord
  2
CONTINUOUS
 70
64
  3
Solid line
 72
65
 73
0
 40
0.0
  0
LTYPE
  5
1F5
100
AcDbSymbolTableRecord
100
AcDbLinetypeTableRecord
  2
CENTER
 70
64
  3
____ _ ____ _ ____ _ ____ _ ____ _ ____ _ ____
 72
65
 73
4
 40
0.6
 49
0.375
 74
0
 49
-0.075
 74
0
 49
0.075
 74
0
 49
-0.075
 74
0
  0
LTYPE
  5
1F6
100
AcDbSymbolTableRecord
100
AcDbLinetypeTableRecord
  2
HIDDEN
 70
64
  3
- - - - - - - - - - - - - - - - - - - -
 72
65
 73
2
 40
0.2
 49
0.1
 74
0
 49
-0.1
 74
0
  0
LTYPE
  5
1F7
100
AcDbSymbolTableRecord
100
AcDbLinetypeTableRecord
  2
PHANTOM
 70
64
  3
_____ _ _ _____ _ _ _____ _ _ _____
 72
65
 73
6
 40
0.8
 49
0.45
 74
0
 49
-0.05
 74
0
 49
0.1
 74
0
 49
-0.05
 74
0
 49
0.1
 74
0
 49
-0.05
 74
0
  0
LTYPE
  5
1F8
100
AcDbSymbolTableRecord
100
AcDbLinetypeTableRecord
  2
DOT
 70
64
  3
. . . . . . . . . . . . . . . . . . . .
 72
65
 73
2
 40
0.2
 49
0.1
 74
0
 49
-0.1
 74
0
  0
LTYPE
  5
1F9
100
AcDbSymbolTableRecord
100
AcDbLinetypeTableRecord
  2
DASHED
 70
64
  3
- - - - - - - - - - - - - - - - - - - -
 72
65
 73
2
 40
0.2
 49
0.1
 74
0
 49
-0.1
 74
0
  0
ENDTAB
  0
TABLE
  2
LAYER
  5
2
100
AcDbSymbolTable
 70
36
  0
LAYER
  5
10
100
AcDbSymbolTableRecord
100
AcDbLayerTableRecord
  2
0
 70
0
 62
7
  6
CONTINUOUS
370
-3
390
F
  0
LAYER
  5
1FA
100
AcDbSymbolTableRecord
100
AcDbLayerTableRecord
  2
DEFAULT_1
 70
0
 62
7
  6
CENTER
370
-3
390
F
  0
LAYER
  5
1FB
100
AcDbSymbolTableRecord
100
AcDbLayerTableRecord
  2
DEFAULT_2
 70
0
 62
7
  6
HIDDEN
370
-3
390
F
  0
LAYER
  5
1FC
100
AcDbSymbolTableRecord
100
AcDbLayerTableRecord
  2
DEFAULT_3
 70
0
 62
7
  6
PHANTOM
370
-3
390
F
  0
LAYER
  5
1FD
100
AcDbSymbolTableRecord
100
AcDbLayerTableRecord
  2
ASSI
 70
0
 62
7
  6
CONTINUOUS
370
-3
390
F
  0
LAYER
  5
1FE
100
AcDbSymbolTableRecord
100
AcDbLayerTableRecord
  2
COLOR6
 70
0
 62
7
  6
CONTINUOUS
370
-3
390
F
  0
LAYER
  5
1FF
100
AcDbSymbolTableRecord
100
AcDbLayerTableRecord
  2
COORDINATE
 70
0
 62
7
  6
CONTINUOUS
370
-3
390
F
  0
LAYER
  5
200
100
AcDbSymbolTableRecord
100
AcDbLayerTableRecord
  2
COORD_ORIGINE
 70
0
 62
7
  6
CONTINUOUS
370
-3
390
F
  0
LAYER
  5
201
100
AcDbSymbolTableRecord
100
AcDbLayerTableRecord
  2
COPY_PUBLISH
 70
0
 62
7
  6
CONTINUOUS
370
-3
390
F
  0
LAYER
  5
202
100
AcDbSymbolTableRecord
100
AcDbLayerTableRecord
  2
COSMETIC
 70
0
 62
7
  6
CONTINUOUS
370
-3
390
F
  0
LAYER
  5
203
100
AcDbSymbolTableRecord
100
AcDbLayerTableRecord
  2
COSMETICI
 70
0
 62
7
  6
CONTINUOUS
370
-3
390
F
  0
LAYER
  5
204
100
AcDbSymbolTableRecord
100
AcDbLayerTableRecord
  2
CURVE
 70
0
 62
7
  6
CONTINUOUS
370
-3
390
F
  0
LAYER
  5
205
100
AcDbSymbolTableRecord
100
AcDbLayerTableRecord
  2
CURVE_TASSELLI
 70
0
 62
7
  6
CONTINUOUS
370
-3
390
F
  0
LAYER
  5
206
100
AcDbSymbolTableRecord
100
AcDbLayerTableRecord
  2
DRAFT
 70
0
 62
7
  6
CONTINUOUS
370
-3
390
F
  0
LAYER
  5
207
100
AcDbSymbolTableRecord
100
AcDbLayerTableRecord
  2
IMPORT_IGES
 70
0
 62
7
  6
CONTINUOUS
370
-3
390
F
  0
LAYER
  5
208
100
AcDbSymbolTableRecord
100
AcDbLayerTableRecord
  2
INTFCLR_2
 70
0
 62
7
  6
CONTINUOUS
370
-3
390
F
  0
LAYER
  5
209
100
AcDbSymbolTableRecord
100
AcDbLayerTableRecord
  2
INTF_1
 70
0
 62
7
  6
CONTINUOUS
370
-3
390
F
  0
LAYER
  5
20A
100
AcDbSymbolTableRecord
100
AcDbLayerTableRecord
  2
INTF_11
 70
0
 62
7
  6
CONTINUOUS
370
-3
390
F
  0
LAYER
  5
20B
100
AcDbSymbolTableRecord
100
AcDbLayerTableRecord
  2
INTF_21
 70
0
 62
7
  6
CONTINUOUS
370
-3
390
F
  0
LAYER
  5
20C
100
AcDbSymbolTableRecord
100
AcDbLayerTableRecord
  2
INTF_7
 70
0
 62
7
  6
CONTINUOUS
370
-3
390
F
  0
LAYER
  5
20D
100
AcDbSymbolTableRecord
100
AcDbLayerTableRecord
  2
INTF_CYAN
 70
0
 62
7
  6
CONTINUOUS
370
-3
390
F
  0
LAYER
  5
20E
100
AcDbSymbolTableRecord
100
AcDbLayerTableRecord
  2
LINEA_CHIUSURA
 70
0
 62
7
  6
CONTINUOUS
370
-3
390
F
  0
LAYER
  5
20F
100
AcDbSymbolTableRecord
100
AcDbLayerTableRecord
  2
NOTE
 70
0
 62
7
  6
CONTINUOUS
370
-3
390
F
  0
LAYER
  5
210
100
AcDbSymbolTableRecord
100
AcDbLayerTableRecord
  2
PIANI
 70
0
 62
7
  6
CONTINUOUS
370
-3
390
F
  0
LAYER
  5
211
100
AcDbSymbolTableRecord
100
AcDbLayerTableRecord
  2
PIANI_ORIGINE
 70
0
 62
7
  6
CONTINUOUS
370
-3
390
F
  0
LAYER
  5
212
100
AcDbSymbolTableRecord
100
AcDbLayerTableRecord
  2
PIANI_RIFERIMENTO
 70
0
 62
7
  6
CONTINUOUS
370
-3
390
F
  0
LAYER
  5
213
100
AcDbSymbolTableRecord
100
AcDbLayerTableRecord
  2
PUNTI
 70
0
 62
7
  6
CONTINUOUS
370
-3
390
F
  0
LAYER
  5
214
100
AcDbSymbolTableRecord
100
AcDbLayerTableRecord
  2
RACCORDO
 70
0
 62
7
  6
CONTINUOUS
370
-3
390
F
  0
LAYER
  5
215
100
AcDbSymbolTableRecord
100
AcDbLayerTableRecord
  2
RGB__255__255__255__
 70
0
 62
7
  6
CONTINUOUS
370
-3
390
F
  0
LAYER
  5
216
100
AcDbSymbolTableRecord
100
AcDbLayerTableRecord
  2
RGB____0____0____0__
 70
0
 62
7
  6
CONTINUOUS
370
-3
390
F
  0
LAYER
  5
217
100
AcDbSymbolTableRecord
100
AcDbLayerTableRecord
  2
SIMBOLI
 70
0
 62
7
  6
CONTINUOUS
370
-3
390
F
  0
LAYER
  5
218
100
AcDbSymbolTableRecord
100
AcDbLayerTableRecord
  2
SMUSSO
 70
0
 62
7
  6
CONTINUOUS
370
-3
390
F
  0
LAYER
  5
219
100
AcDbSymbolTableRecord
100
AcDbLayerTableRecord
  2
SUPERFICI
 70
0
 62
7
  6
CONTINUOUS
370
-3
390
F
  0
LAYER
  5
21A
100
AcDbSymbolTableRecord
100
AcDbLayerTableRecord
  2
TRASH
 70
0
 62
7
  6
CONTINUOUS
370
-3
390
F
  0
LAYER
  5
21B
100
AcDbSymbolTableRecord
100
AcDbLayerTableRecord
  2
XSEC_DATUMS
 70
0
 62
7
  6
CONTINUOUS
370
-3
390
F
  0
LAYER
  5
21C
100
AcDbSymbolTableRecord
100
AcDbLayerTableRecord
  2
___SHELL
 70
0
 62
7
  6
CONTINUOUS
370
-3
390
F
  0
ENDTAB
  0
TABLE
  2
STYLE
  5
3
100
AcDbSymbolTable
 70
1
  0
STYLE
  5
11
100
AcDbSymbolTableRecord
100
AcDbTextStyleTableRecord
  2
STANDARD
 70
0
 40
0.0
 41
0.8
 50
0.0
 71
0
 42
0.2
  3
txt
  4

  0
STYLE
  5
21D
100
AcDbSymbolTableRecord
100
AcDbTextStyleTableRecord
  2
TEXTSTYLE_1
 70
0
 40
0.0
 41
0.8
 50
0.0
 71
0
 42
0.2
  3
gdt
  4

  0
ENDTAB
  0
TABLE
  2
VIEW
  5
6
100
AcDbSymbolTable
 70
0
  0
ENDTAB
  0
TABLE
  2
UCS
  5
7
100
AcDbSymbolTable
 70
0
  0
ENDTAB
  0
TABLE
  2
APPID
  5
9
100
AcDbSymbolTable
 70
1
  0
APPID
  5
21E
100
AcDbSymbolTableRecord
100
AcDbRegAppTableRecord
  2
ACAD
 70
0
  0
ENDTAB
  0
TABLE
  2
BLOCK_RECORD
  5
1
100
AcDbSymbolTable
 70
0
  0
BLOCK_RECORD
  5
21F
100
AcDbSymbolTableRecord
100
AcDbBlockTableRecord
  2
*Model_Space
  0
BLOCK_RECORD
  5
220
100
AcDbSymbolTableRecord
100
AcDbBlockTableRecord
  2
*Paper_Space
  0
BLOCK_RECORD
  5
221
100
AcDbSymbolTableRecord
100
AcDbBlockTableRecord
  2
_FILLED
  0
BLOCK_RECORD
  5
222
100
AcDbSymbolTableRecord
100
AcDbBlockTableRecord
  2
*D0
  0
BLOCK_RECORD
  5
223
100
AcDbSymbolTableRecord
100
AcDbBlockTableRecord
  2
*D1
  0
BLOCK_RECORD
  5
224
100
AcDbSymbolTableRecord
100
AcDbBlockTableRecord
  2
*D2
  0
BLOCK_RECORD
  5
225
100
AcDbSymbolTableRecord
100
AcDbBlockTableRecord
  2
*D3
  0
ENDTAB
  0
TABLE
  2
DIMSTYLE
  5
A
100
AcDbSymbolTable
 70
1
100
AcDbDimStyleTable
 71
0
  0
DIMSTYLE
105
226
100
AcDbSymbolTableRecord
100
AcDbDimStyleTableRecord
  2
STANDARD
 70
0
  3

  4

 40
1.0
 41
3.0
 42
0.5
 43
0.38
 44
1.5
 45
0.0
 46
0.0
 47
0.01
 48
0.01
140
3.0
141
0.09
142
0.0
143
25.4
144
1.0
145
0.0
146
1.0
147
0.625
 71
1
 72
0
 73
0
 74
0
 75
0
 76
0
 77
1
 78
8
 79
2
170
0
171
1
172
0
173
0
174
0
175
0
176
0
177
0
178
0
270
2
179
2
271
2
272
2
273
2
274
2
275
0
280
0
281
0
282
0
283
1
284
8
285
0
286
0
287
3
288
0
340
11
278
44
341
221
342
221
343
221
344
221
  0
DIMSTYLE
105
227
100
AcDbSymbolTableRecord
100
AcDbDimStyleTableRecord
  2
DIMSTYLE_1
 70
0
  3

  4

 40
1.0
 41
3.0
 42
0.5
 43
0.38
 44
1.5
 45
0.0
 46
0.0
 47
0.0
 48
0.0
140
3.0
141
0.09
142
0.0
143
25.4
144
1.0
145
0.0
146
1.0
147
0.75
 71
0
 72
0
 73
0
 74
0
 75
0
 76
0
 77
1
 78
8
 79
2
170
0
171
1
172
0
173
0
174
0
175
0
176
0
177
0
178
0
270
2
179
2
271
2
272
2
273
2
274
2
275
0
280
0
281
0
282
0
283
1
284
8
285
0
286
0
287
3
288
0
340
11
278
44
341
221
342
221
343
221
344
221
  0
ENDTAB
  0
ENDSEC
  0
SECTION
  2
BLOCKS
  0
BLOCK
  5
20
100
AcDbEntity
  8
0
100
AcDbBlockBegin
  2
*Model_Space
 70
0
 10
0.0
 20
0.0
 30
0.0
  3
*Model_Space
  1

  0
ENDBLK
  5
21
100
AcDbEntity
  8
0
100
AcDbBlockEnd
  0
BLOCK
  5
1C
100
AcDbEntity
  8
0
100
AcDbBlockBegin
  2
*Paper_Space
 70
0
 10
0.0
 20
0.0
 30
0.0
  3
*Paper_Space
  1

  0
ENDBLK
  5
1D
100
AcDbEntity
  8
0
100
AcDbBlockEnd
  0
BLOCK
  5
228
100
AcDbEntity
  8
0
100
AcDbBlockBegin
  2
_FILLED
 70
64
 10
0.0
 20
0.0
  3
_FILLED
  1

  0
SOLID
  5
229
100
AcDbEntity
  8
0
  6
BYBLOCK
 62
0
100
AcDbTrace
 10
0.0
 20
0.0
 11
-1.0
 21
0.3166666667
 12
-1.0
 22
-0.3166666667
 13
-1.0
 23
-0.3166666667
  0
ENDBLK
  5
22A
100
AcDbEntity
  8
0
  6
BYBLOCK
 62
0
100
AcDbBlockEnd
  0
BLOCK
  5
22B
100
AcDbEntity
  8
0
100
AcDbBlockBegin
 62
7
  6
CONTINUOUS
  2
*D0
 70
65
 10
0.0
 20
0.0
  3
*D0
  1

  0
LINE
  5
22C
100
AcDbEntity
  8
0
100
AcDbLine
 62
7
  6
CONTINUOUS
 10
50.1946546053
 20
153.868295392
 11
50.1946546053
 21
169.039207118
  0
LINE
  5
22D
100
AcDbEntity
  8
0
100
AcDbLine
 62
7
  6
CONTINUOUS
 10
211.1946546053
 20
153.868295392
 11
211.1946546053
 21
169.039207118
  0
LINE
  5
22E
100
AcDbEntity
  8
0
100
AcDbLine
 62
7
  6
CONTINUOUS
 10
50.1946546053
 20
167.539207118
 11
130.6946546053
 21
167.539207118
  0
LINE
  5
22F
100
AcDbEntity
  8
0
100
AcDbLine
 62
7
  6
CONTINUOUS
 10
211.1946546053
 20
167.539207118
 11
130.6946546053
 21
167.539207118
  0
INSERT
  5
230
100
AcDbEntity
  8
0
100
AcDbBlockReference
 62
7
  6
CONTINUOUS
  2
_FILLED
 10
50.1946546053
 20
167.539207118
 41
3.0
 42
3.0
 43
3.0
 50
180.0
  0
INSERT
  5
231
100
AcDbEntity
  8
0
100
AcDbBlockReference
 62
7
  6
CONTINUOUS
  2
_FILLED
 10
211.1946546053
 20
167.539207118
 41
3.0
 42
3.0
 43
3.0
  0
ENDBLK
  5
232
100
AcDbEntity
  8
0
  6
BYBLOCK
 62
0
100
AcDbBlockEnd
  0
BLOCK
  5
233
100
AcDbEntity
  8
0
100
AcDbBlockBegin
 62
7
  6
CONTINUOUS
  2
*D1
 70
65
 10
0.0
 20
0.0
  3
*D1
  1

  0
LINE
  5
234
100
AcDbEntity
  8
0
100
AcDbLine
 62
7
  6
CONTINUOUS
 10
50.6952634074
 20
154.3689041941
 11
36.5058669571
 21
154.3689041941
  0
LINE
  5
235
100
AcDbEntity
  8
0
100
AcDbLine
 62
7
  6
CONTINUOUS
 10
50.6952634074
 20
64.3689041941
 11
36.5058669571
 21
64.3689041941
  0
LINE
  5
236
100
AcDbEntity
  8
0
100
AcDbLine
 62
7
  6
CONTINUOUS
 10
38.0058669571
 20
154.3689041941
 11
38.0058669571
 21
109.3689041941
  0
LINE
  5
237
100
AcDbEntity
  8
0
100
AcDbLine
 62
7
  6
CONTINUOUS
 10
38.0058669571
 20
64.3689041941
 11
38.0058669571
 21
109.3689041941
  0
INSERT
  5
238
100
AcDbEntity
  8
0
100
AcDbBlockReference
 62
7
  6
CONTINUOUS
  2
_FILLED
 10
38.0058669571
 20
154.3689041941
 41
3.0
 42
3.0
 43
3.0
 50
90.0
  0
INSERT
  5
239
100
AcDbEntity
  8
0
100
AcDbBlockReference
 62
7
  6
CONTINUOUS
  2
_FILLED
 10
38.0058669571
 20
64.3689041941
 41
3.0
 42
3.0
 43
3.0
 50
270.0
  0
ENDBLK
  5
23A
100
AcDbEntity
  8
0
  6
BYBLOCK
 62
0
100
AcDbBlockEnd
  0
BLOCK
  5
23B
100
AcDbEntity
  8
0
100
AcDbBlockBegin
 62
7
  6
CONTINUOUS
  2
*D2
 70
65
 10
0.0
 20
0.0
  3
*D2
  1

  0
LINE
  5
23C
100
AcDbEntity
  8
0
100
AcDbLine
 62
7
  6
CONTINUOUS
 10
235.6112047697
 20
151.0728017137
 11
235.6112047697
 21
169.2190930302
  0
LINE
  5
23D
100
AcDbEntity
  8
0
100
AcDbLine
 62
7
  6
CONTINUOUS
 10
242.7612047697
 20
153.2456416043
 11
242.7612047697
 21
169.2190930302
  0
LINE
  5
23E
100
AcDbEntity
  8
0
100
AcDbLine
 62
7
  6
CONTINUOUS
 10
235.6112047697
 20
167.7190930302
 11
231.6112047697
 21
167.7190930302
  0
LINE
  5
23F
100
AcDbEntity
  8
0
100
AcDbLine
 62
7
  6
CONTINUOUS
 10
231.6112047697
 20
167.7190930302
 11
239.1862047697
 21
167.7190930302
  0
LINE
  5
240
100
AcDbEntity
  8
0
100
AcDbLine
 62
7
  6
CONTINUOUS
 10
242.7612047697
 20
167.7190930302
 11
255.4449013065
 21
167.7190930302
  0
LINE
  5
241
100
AcDbEntity
  8
0
100
AcDbLine
 62
7
  6
CONTINUOUS
 10
255.4449013065
 20
167.7190930302
 11
239.1862047697
 21
167.7190930302
  0
INSERT
  5
242
100
AcDbEntity
  8
0
100
AcDbBlockReference
 62
7
  6
CONTINUOUS
  2
_FILLED
 10
235.6112047697
 20
167.7190930302
 41
3.0
 42
3.0
 43
3.0
  0
INSERT
  5
243
100
AcDbEntity
  8
0
100
AcDbBlockReference
 62
7
  6
CONTINUOUS
  2
_FILLED
 10
242.7612047697
 20
167.7190930302
 41
3.0
 42
3.0
 43
3.0
 50
180.0
  0
ENDBLK
  5
244
100
AcDbEntity
  8
0
  6
BYBLOCK
 62
0
100
AcDbBlockEnd
  0
BLOCK
  5
245
100
AcDbEntity
  8
0
100
AcDbBlockBegin
 62
7
  6
CONTINUOUS
  2
*D3
 70
65
 10
0.0
 20
0.0
  3
*D3
  1

  0
LINE
  5
246
100
AcDbEntity
  8
0
100
AcDbLine
 62
7
  6
CONTINUOUS
 10
232.6112047697
 20
135.7898669214
 11
232.6112047697
 21
178.4259643729
  0
LINE
  5
247
100
AcDbEntity
  8
0
100
AcDbLine
 62
7
  6
CONTINUOUS
 10
242.7612047697
 20
153.2456416043
 11
242.7612047697
 21
178.4259643729
  0
LINE
  5
248
100
AcDbEntity
  8
0
100
AcDbLine
 62
7
  6
CONTINUOUS
 10
232.6112047697
 20
176.9259643729
 11
237.6862047697
 21
176.9259643729
  0
LINE
  5
249
100
AcDbEntity
  8
0
100
AcDbLine
 62
7
  6
CONTINUOUS
 10
242.7612047697
 20
176.9259643729
 11
237.6862047697
 21
176.9259643729
  0
LINE
  5
24A
100
AcDbEntity
  8
0
100
AcDbLine
 62
7
  6
CONTINUOUS
 10
237.6862047697
 20
176.9259643729
 11
253.1218080949
 21
176.9259643729
  0
INSERT
  5
24B
100
AcDbEntity
  8
0
100
AcDbBlockReference
 62
7
  6
CONTINUOUS
  2
_FILLED
 10
232.6112047697
 20
176.9259643729
 41
3.0
 42
3.0
 43
3.0
 50
180.0
  0
INSERT
  5
24C
100
AcDbEntity
  8
0
100
AcDbBlockReference
 62
7
  6
CONTINUOUS
  2
_FILLED
 10
242.7612047697
 20
176.9259643729
 41
3.0
 42
3.0
 43
3.0
  0
ENDBLK
  5
24D
100
AcDbEntity
  8
0
  6
BYBLOCK
 62
0
100
AcDbBlockEnd
  0
ENDSEC
  0
SECTION
  2
ENTITIES
  0
DIMENSION
  5
24E
100
AcDbEntity
  8
0
100
AcDbDimension
 62
7
  6
CONTINUOUS
  2
*D0
 10
211.1946546053
 20
167.539207118
 11
127.8017974624
 21
167.539207118
 70
160
 71
2
 72
2
 41
0.9
 42
161.0
  3
DIMSTYLE_1
100
AcDbAlignedDimension
 13
50.1946546053
 23
153.368295392
 14
211.1946546053
 24
153.368295392
100
AcDbRotatedDimension
  0
DIMENSION
  5
24F
100
AcDbEntity
  8
0
100
AcDbDimension
 62
7
  6
CONTINUOUS
  2
*D1
 10
38.0058669571
 20
64.3689041941
 11
38.0058669571
 21
107.0117613369
 70
160
 71
2
 72
2
 41
0.9
 42
90.0
  3
DIMSTYLE_1
100
AcDbAlignedDimension
 13
51.1952634074
 23
154.3689041941
 14
51.1952634074
 24
64.3689041941
 50
270.0
100
AcDbRotatedDimension
  0
DIMENSION
  5
250
100
AcDbEntity
  8
0
100
AcDbDimension
 62
7
  6
CONTINUOUS
  2
*D2
 10
242.7612047697
 20
167.7190930302
 11
247.5163298779
 21
167.7190930302
 70
160
 71
1
 72
2
 41
0.9
 42
7.15
  3
DIMSTYLE_1
100
AcDbAlignedDimension
 13
235.6112047697
 23
150.5728017137
 14
242.7612047697
 24
152.7456416043
100
AcDbRotatedDimension
  0
DIMENSION
  5
251
100
AcDbEntity
  8
0
100
AcDbDimension
 62
7
  6
CONTINUOUS
  2
*D3
 10
242.7612047697
 20
176.9259643729
 11
243.478950952
 21
176.9259643729
 70
160
 71
1
 72
2
 41
0.9
 42
10.15
  3
DIMSTYLE_1
100
AcDbAlignedDimension
 13
232.6112047697
 23
135.2898669214
 14
242.7612047697
 24
152.7456416043
100
AcDbRotatedDimension
  0
LINE
  5
252
100
AcDbEntity
  8
SMUSSO
100
AcDbLine
 62
7
  6
CONTINUOUS
 10
51.3746691353
 20
154.1596035164
 11
51.3890949508
 21
154.1750726506
  0
LINE
  5
253
100
AcDbEntity
  8
SMUSSO
100
AcDbLine
 62
7
  6
CONTINUOUS
 10
50.1946546053
 20
153.368295392
 11
51.1952634074
 21
154.3689041941
  0
LINE
  5
254
100
AcDbEntity
  8
SMUSSO
100
AcDbLine
 62
7
  6
CONTINUOUS
 10
51.3746691353
 20
154.1596035164
 11
50.4039552829
 21
153.188889664
  0
LINE
  5
255
100
AcDbEntity
  8
SMUSSO
100
AcDbLine
 62
7
  6
CONTINUOUS
 10
51.8179171951
 20
153.1401731539
 11
51.4233856454
 21
152.7456416043
  0
LINE
  5
256
100
AcDbEntity
  8
SMUSSO
100
AcDbLine
 62
7
  6
CONTINUOUS
 10
50.3884861487
 20
153.1744638485
 11
50.4039552829
 21
153.188889664
  0
LINE
  5
257
100
AcDbEntity
  8
SMUSSO
100
AcDbLine
 62
7
  6
CONTINUOUS
 10
50.4039552829
 20
65.5489187242
 11
50.3884861487
 21
65.5633445397
  0
LINE
  5
258
100
AcDbEntity
  8
SMUSSO
100
AcDbLine
 62
7
  6
CONTINUOUS
 10
51.1952634074
 20
64.3689041941
 11
50.1946546053
 21
65.3695129962
  0
LINE
  5
259
100
AcDbEntity
  8
SMUSSO
100
AcDbLine
 62
7
  6
CONTINUOUS
 10
50.4039552829
 20
65.5489187242
 11
51.3746691353
 21
64.5782048717
  0
LINE
  5
25A
100
AcDbEntity
  8
SMUSSO
100
AcDbLine
 62
7
  6
CONTINUOUS
 10
51.4233856454
 20
65.9921667839
 11
51.8179171951
 21
65.5976352342
  0
LINE
  5
25B
100
AcDbEntity
  8
SMUSSO
100
AcDbLine
 62
7
  6
CONTINUOUS
 10
51.3890949508
 20
64.5627357375
 11
51.3746691353
 21
64.5782048717
  0
LINE
  5
25C
100
AcDbEntity
  8
SMUSSO
100
AcDbLine
 62
7
  6
CONTINUOUS
 10
50.1946546053
 20
153.368295392
 11
50.1946546053
 21
65.3695129962
  0
LINE
  5
25D
100
AcDbEntity
  8
SMUSSO
100
AcDbLine
 62
7
  6
CONTINUOUS
 10
50.3884861487
 20
153.1744638485
 11
50.3884861487
 21
65.5633445397
  0
LINE
  5
25E
100
AcDbEntity
  8
SMUSSO
100
AcDbLine
 62
7
  6
CONTINUOUS
 10
51.4233856454
 20
152.7456416043
 11
51.4233856454
 21
65.9921667839
  0
LWPOLYLINE
  5
25F
100
AcDbEntity
  8
0
100
AcDbPolyline
 62
7
  6
CONTINUOUS
 90
10
 70
0
 43
0.3500000006
 10
37.2558665314
 20
107.4403342896
 10
36.3987240601
 20
108.297472229
 10
35.5415815887
 20
108.5117657776
 10
34.6844391174
 20
108.5117657776
 10
34.2558678818
 20
108.0831877441
 10
34.2558678818
 20
107.4403342896
 10
34.6844391174
 20
107.0117653198
 10
35.5415815887
 20
107.0117653198
 10
35.9701528244
 20
107.4403342896
 10
35.9701528244
 20
108.3689034119
  0
LINE
  5
260
100
AcDbEntity
  8
0
100
AcDbLine
 62
250
  6
CONTINUOUS
 10
72.3382247761
 20
87.2107692001
 11
72.3382247761
 21
131.5270391881
  0
LINE
  5
261
100
AcDbEntity
  8
0
100
AcDbLine
 62
250
  6
CONTINUOUS
 10
72.5377375861
 20
87.2107692001
 11
72.5377375861
 21
131.5270391881
  0
LINE
  5
262
100
AcDbEntity
  8
RACCORDO
100
AcDbLine
 62
7
  6
CONTINUOUS
 10
72.5946546053
 20
131.4701221689
 11
72.5946546053
 21
87.2676862192
  0
LINE
  5
263
100
AcDbEntity
  8
0
100
AcDbLine
 62
250
  6
CONTINUOUS
 10
73.0365196113
 20
132.2253340232
 11
73.0365196113
 21
132.0258212132
  0
LINE
  5
264
100
AcDbEntity
  8
0
100
AcDbLine
 62
250
  6
CONTINUOUS
 10
73.0365196113
 20
86.5124743649
 11
73.0365196113
 21
86.711987175
  0
LWPOLYLINE
  5
265
100
AcDbEntity
  8
0
100
AcDbPolyline
 62
250
  6
CONTINUOUS
 90
25
 70
0
 10
72.5377375861
 20
131.5270391881
 10
72.5387379299
 20
131.5597197987
 10
72.5418689476
 20
131.5922723534
 10
72.5471216909
 20
131.6245589027
 10
72.5544817046
 20
131.6564581937
 10
72.5639205141
 20
131.6878170518
 10
72.5753856679
 20
131.7184540062
 10
72.5888209954
 20
131.748233678
 10
72.6041669218
 20
131.777038398
 10
72.6213400351
 20
131.8047243996
 10
72.6402472223
 20
131.8311633034
 10
72.6608105455
 20
131.8562667846
 10
72.6829596083
 20
131.8799584945
 10
72.7066129916
 20
131.9021526948
 10
72.7316568424
 20
131.9227445841
 10
72.7579654824
 20
131.9416381245
 10
72.7853621381
 20
131.9587233834
 10
72.8137864207
 20
131.9739789856
 10
72.8432962253
 20
131.9874235246
 10
72.8738541579
 20
131.9989974315
 10
72.905272051
 20
132.0085879215
 10
72.9373867398
 20
132.0161174773
 10
72.9700525575
 20
132.0215285003
 10
73.0031442055
 20
132.0247760323
 10
73.0365196113
 20
132.0258212132
  0
LWPOLYLINE
  5
266
100
AcDbEntity
  8
0
100
AcDbPolyline
 62
250
  6
CONTINUOUS
 90
25
 70
0
 10
72.3382247761
 20
131.5270391881
 10
72.3397532915
 20
131.5730261034
 10
72.344211912
 20
131.6184559446
 10
72.3516006374
 20
131.6633287119
 10
72.3619814205
 20
131.7078515366
 10
72.3752923085
 20
131.7518172873
 10
72.3913474442
 20
131.7946045696
 10
72.4101900263
 20
131.8361830098
 10
72.431776856
 20
131.8765829816
 10
72.4557924792
 20
131.9152742107
 10
72.4822499332
 20
131.9522104871
 10
72.5111361806
 20
131.987438021
 10
72.5420966559
 20
132.0205651683
 10
72.5751718393
 20
132.0515827737
 10
72.6103212506
 20
132.0804999925
 10
72.6470688824
 20
132.1069526469
 10
72.6853371818
 20
132.1308814624
 10
72.7252037018
 20
132.1523457136
 10
72.7664250947
 20
132.171159046
 10
72.8091128178
 20
132.1873579718
 10
72.8531554138
 20
132.2009059788
 10
72.8979751631
 20
132.2115071766
 10
72.9433794925
 20
132.2190629348
 10
72.9895609752
 20
132.2236718837
 10
73.0365196113
 20
132.2253340232
  0
LINE
  5
267
100
AcDbEntity
  8
SMUSSO
100
AcDbLine
 62
7
  6
CONTINUOUS
 10
51.8179171951
 20
65.5976352342
 11
51.3746691353
 21
64.5782048717
  0
LINE
  5
268
100
AcDbEntity
  8
SMUSSO
100
AcDbLine
 62
7
  6
CONTINUOUS
 10
51.8179171951
 20
153.1401731539
 11
51.3746691353
 21
154.1596035164
  0
LWPOLYLINE
  5
269
100
AcDbEntity
  8
0
100
AcDbPolyline
 62
7
  6
CONTINUOUS
 90
3
 70
0
 43
0.3500000006
 10
127.8017973633
 20
170.4320692749
 10
128.6589443665
 20
171.2892072144
 10
128.6589443665
 20
168.2892062988
  0
LWPOLYLINE
  5
26A
100
AcDbEntity
  8
0
100
AcDbPolyline
 62
7
  6
CONTINUOUS
 90
10
 70
0
 43
0.3500000006
 10
130.5875137939
 20
171.2892072144
 10
129.9446512756
 20
170.6463537598
 10
129.5160823059
 20
169.7892158203
 10
129.5160823059
 20
168.7177752686
 10
129.9446512756
 20
168.2892062988
 10
130.5875137939
 20
168.2892062988
 10
131.0160827637
 20
168.7177752686
 10
131.0160827637
 20
169.574913208
 10
130.5875137939
 20
170.0035003052
 10
129.6589446716
 20
170.0035003052
  0
LWPOLYLINE
  5
26B
100
AcDbEntity
  8
0
100
AcDbPolyline
 62
7
  6
CONTINUOUS
 90
3
 70
0
 43
0.3500000006
 10
131.8732297668
 20
170.4320692749
 10
132.7303677063
 20
171.2892072144
 10
132.7303677063
 20
168.2892062988
  0
LINE
  5
26C
100
AcDbEntity
  8
SMUSSO
100
AcDbLine
 62
7
  6
CONTINUOUS
 10
51.1952634074
 20
64.3689041941
 11
210.1940458031
 21
64.3689041941
  0
LINE
  5
26D
100
AcDbEntity
  8
SMUSSO
100
AcDbLine
 62
7
  6
CONTINUOUS
 10
51.3890949508
 20
64.5627357375
 11
210.0002142597
 21
64.5627357375
  0
LINE
  5
26E
100
AcDbEntity
  8
SMUSSO
100
AcDbLine
 62
7
  6
CONTINUOUS
 10
51.8179171951
 20
65.5976352342
 11
209.5713920155
 21
65.5976352342
  0
LINE
  5
26F
100
AcDbEntity
  8
SMUSSO
100
AcDbLine
 62
7
  6
CONTINUOUS
 10
50.3884861487
 20
65.5633445397
 11
50.1946546053
 21
65.3695129962
  0
LINE
  5
270
100
AcDbEntity
  8
0
100
AcDbLine
 62
250
  6
CONTINUOUS
 10
117.3527895993
 20
132.0258212132
 11
117.2958725801
 21
131.9689041941
  0
LINE
  5
271
100
AcDbEntity
  8
0
100
AcDbLine
 62
250
  6
CONTINUOUS
 10
72.5377375861
 20
87.2107692001
 11
72.5946546053
 21
87.2676862192
  0
LINE
  5
272
100
AcDbEntity
  8
0
100
AcDbLine
 62
250
  6
CONTINUOUS
 10
117.8515716244
 20
131.5270391881
 11
117.7946546053
 21
131.4701221689
  0
LINE
  5
273
100
AcDbEntity
  8
0
100
AcDbLine
 62
250
  6
CONTINUOUS
 10
73.0365196113
 20
86.711987175
 11
73.0934366304
 21
86.7689041941
  0
LINE
  5
274
100
AcDbEntity
  8
SMUSSO
100
AcDbLine
 62
7
  6
CONTINUOUS
 10
51.3890949508
 20
64.5627357375
 11
51.1952634074
 21
64.3689041941
  0
LWPOLYLINE
  5
275
100
AcDbEntity
  8
0
100
AcDbPolyline
 62
250
  6
CONTINUOUS
 90
25
 70
0
 10
73.0365196113
 20
86.711987175
 10
73.0038390006
 20
86.7129875187
 10
72.9712864459
 20
86.7161185364
 10
72.9389998966
 20
86.7213712797
 10
72.9071006056
 20
86.7287312934
 10
72.8757417475
 20
86.7381701029
 10
72.8451047931
 20
86.7496352567
 10
72.8153251213
 20
86.7630705842
 10
72.7865204013
 20
86.7784165106
 10
72.7588343998
 20
86.7955896239
 10
72.732395496
 20
86.8144968111
 10
72.7072920147
 20
86.8350601343
 10
72.6836003049
 20
86.8572091971
 10
72.6614061046
 20
86.8808625804
 10
72.6408142152
 20
86.9059064313
 10
72.6219206748
 20
86.9322150712
 10
72.6048354159
 20
86.959611727
 10
72.5895798137
 20
86.9880360095
 10
72.5761352748
 20
87.0175458141
 10
72.5645613679
 20
87.0481037467
 10
72.5549708778
 20
87.0795216398
 10
72.547441322
 20
87.1116363286
 10
72.542030299
 20
87.1443021463
 10
72.538782767
 20
87.1773937943
 10
72.5377375861
 20
87.2107692001
  0
LWPOLYLINE
  5
276
100
AcDbEntity
  8
0
100
AcDbPolyline
 62
250
  6
CONTINUOUS
 90
25
 70
0
 10
73.0365196113
 20
86.5124743649
 10
72.990532696
 20
86.5140028803
 10
72.9451028547
 20
86.5184615008
 10
72.9002300875
 20
86.5258502263
 10
72.8557072627
 20
86.5362310093
 10
72.811741512
 20
86.5495418973
 10
72.7689542298
 20
86.565597033
 10
72.7273757895
 20
86.5844396151
 10
72.6869758178
 20
86.6060264448
 10
72.6482845887
 20
86.630042068
 10
72.6113483122
 20
86.656499522
 10
72.5761207783
 20
86.6853857694
 10
72.542993631
 20
86.7163462447
 10
72.5119760257
 20
86.7494214281
 10
72.4830588068
 20
86.7845708394
 10
72.4566061524
 20
86.8213184713
 10
72.4326773369
 20
86.8595867706
 10
72.4112130858
 20
86.8994532906
 10
72.3923997534
 20
86.9406746835
 10
72.3762008276
 20
86.9833624066
 10
72.3626528205
 20
87.0274050026
 10
72.3520516228
 20
87.0722247519
 10
72.3444958646
 20
87.1176290813
 10
72.3398869157
 20
87.163810564
 10
72.3382247761
 20
87.2107692001
  0
LINE
  5
277
100
AcDbEntity
  8
SMUSSO
100
AcDbLine
 62
7
  6
CONTINUOUS
 10
50.3884861487
 20
153.1744638485
 11
50.1946546053
 21
153.368295392
  0
LINE
  5
278
100
AcDbEntity
  8
0
100
AcDbLine
 62
250
  6
CONTINUOUS
 10
72.5377375861
 20
131.5270391881
 11
72.5946546053
 21
131.4701221689
  0
LINE
  5
279
100
AcDbEntity
  8
0
100
AcDbLine
 62
250
  6
CONTINUOUS
 10
117.3527895993
 20
86.711987175
 11
117.2958725801
 21
86.7689041941
  0
LINE
  5
27A
100
AcDbEntity
  8
0
100
AcDbLine
 62
250
  6
CONTINUOUS
 10
73.0365196113
 20
132.0258212132
 11
73.0934366304
 21
131.9689041941
  0
LINE
  5
27B
100
AcDbEntity
  8
0
100
AcDbLine
 62
250
  6
CONTINUOUS
 10
117.8515716244
 20
87.2107692001
 11
117.7946546053
 21
87.2676862192
  0
LINE
  5
27C
100
AcDbEntity
  8
SMUSSO
100
AcDbLine
 62
7
  6
CONTINUOUS
 10
51.3890949508
 20
154.1750726506
 11
51.1952634074
 21
154.3689041941
  0
LINE
  5
27D
100
AcDbEntity
  8
0
100
AcDbLine
 62
250
  6
CONTINUOUS
 10
188.3527895993
 20
86.5124743649
 11
144.0365196113
 21
86.5124743649
  0
LINE
  5
27E
100
AcDbEntity
  8
0
100
AcDbLine
 62
250
  6
CONTINUOUS
 10
117.3527895993
 20
86.5124743649
 11
73.0365196113
 21
86.5124743649
  0
LINE
  5
27F
100
AcDbEntity
  8
0
100
AcDbLine
 62
250
  6
CONTINUOUS
 10
188.3527895993
 20
86.711987175
 11
144.0365196113
 21
86.711987175
  0
LINE
  5
280
100
AcDbEntity
  8
0
100
AcDbLine
 62
250
  6
CONTINUOUS
 10
117.3527895993
 20
86.711987175
 11
73.0365196113
 21
86.711987175
  0
LINE
  5
281
100
AcDbEntity
  8
RACCORDO
100
AcDbLine
 62
7
  6
CONTINUOUS
 10
73.0934366304
 20
86.7689041941
 11
117.2958725801
 21
86.7689041941
  0
LINE
  5
282
100
AcDbEntity
  8
RACCORDO
100
AcDbLine
 62
7
  6
CONTINUOUS
 10
144.0934366304
 20
86.7689041941
 11
188.2958725801
 21
86.7689041941
  0
LINE
  5
283
100
AcDbEntity
  8
0
100
AcDbLine
 62
250
  6
CONTINUOUS
 10
189.0510844344
 20
87.2107692001
 11
188.8515716244
 21
87.2107692001
  0
LINE
  5
284
100
AcDbEntity
  8
0
100
AcDbLine
 62
250
  6
CONTINUOUS
 10
118.0510844344
 20
87.2107692001
 11
117.8515716244
 21
87.2107692001
  0
LINE
  5
285
100
AcDbEntity
  8
0
100
AcDbLine
 62
250
  6
CONTINUOUS
 10
72.3382247761
 20
87.2107692001
 11
72.5377375861
 21
87.2107692001
  0
LINE
  5
286
100
AcDbEntity
  8
0
100
AcDbLine
 62
250
  6
CONTINUOUS
 10
143.3382247761
 20
87.2107692001
 11
143.5377375861
 21
87.2107692001
  0
LWPOLYLINE
  5
287
100
AcDbEntity
  8
0
100
AcDbPolyline
 62
250
  6
CONTINUOUS
 90
25
 70
0
 10
144.0365196113
 20
86.711987175
 10
144.0038390006
 20
86.7129875187
 10
143.9712864459
 20
86.7161185364
 10
143.9389998966
 20
86.7213712797
 10
143.9071006056
 20
86.7287312934
 10
143.8757417475
 20
86.7381701029
 10
143.8451047931
 20
86.7496352567
 10
143.8153251213
 20
86.7630705842
 10
143.7865204013
 20
86.7784165106
 10
143.7588343998
 20
86.7955896239
 10
143.732395496
 20
86.8144968111
 10
143.7072920147
 20
86.8350601343
 10
143.6836003049
 20
86.8572091971
 10
143.6614061046
 20
86.8808625804
 10
143.6408142152
 20
86.9059064313
 10
143.6219206748
 20
86.9322150712
 10
143.6048354159
 20
86.959611727
 10
143.5895798137
 20
86.9880360095
 10
143.5761352748
 20
87.0175458141
 10
143.5645613679
 20
87.0481037467
 10
143.5549708778
 20
87.0795216398
 10
143.547441322
 20
87.1116363286
 10
143.542030299
 20
87.1443021463
 10
143.538782767
 20
87.1773937943
 10
143.5377375861
 20
87.2107692001
  0
LWPOLYLINE
  5
288
100
AcDbEntity
  8
0
100
AcDbPolyline
 62
250
  6
CONTINUOUS
 90
25
 70
0
 10
144.0365196113
 20
86.5124743649
 10
143.990532696
 20
86.5140028803
 10
143.9451028547
 20
86.5184615008
 10
143.9002300875
 20
86.5258502263
 10
143.8557072627
 20
86.5362310093
 10
143.811741512
 20
86.5495418973
 10
143.7689542298
 20
86.565597033
 10
143.7273757895
 20
86.5844396151
 10
143.6869758178
 20
86.6060264448
 10
143.6482845887
 20
86.630042068
 10
143.6113483122
 20
86.656499522
 10
143.5761207783
 20
86.6853857694
 10
143.542993631
 20
86.7163462447
 10
143.5119760257
 20
86.7494214281
 10
143.4830588068
 20
86.7845708394
 10
143.4566061524
 20
86.8213184713
 10
143.4326773369
 20
86.8595867706
 10
143.4112130858
 20
86.8994532906
 10
143.3923997534
 20
86.9406746835
 10
143.3762008276
 20
86.9833624066
 10
143.3626528205
 20
87.0274050026
 10
143.3520516228
 20
87.0722247519
 10
143.3444958646
 20
87.1176290813
 10
143.3398869157
 20
87.163810564
 10
143.3382247761
 20
87.2107692001
  0
LINE
  5
289
100
AcDbEntity
  8
0
100
AcDbLine
 62
250
  6
CONTINUOUS
 10
117.3527895993
 20
132.2253340232
 11
117.3527895993
 21
132.0258212132
  0
LINE
  5
28A
100
AcDbEntity
  8
0
100
AcDbLine
 62
250
  6
CONTINUOUS
 10
117.3527895993
 20
86.5124743649
 11
117.3527895993
 21
86.711987175
  0
LINE
  5
28B
100
AcDbEntity
  8
RACCORDO
100
AcDbLine
 62
7
  6
CONTINUOUS
 10
117.7946546053
 20
87.2676862192
 11
117.7946546053
 21
131.4701221689
  0
LINE
  5
28C
100
AcDbEntity
  8
0
100
AcDbLine
 62
250
  6
CONTINUOUS
 10
117.8515716244
 20
131.5270391881
 11
117.8515716244
 21
87.2107692001
  0
LINE
  5
28D
100
AcDbEntity
  8
0
100
AcDbLine
 62
250
  6
CONTINUOUS
 10
118.0510844344
 20
131.5270391881
 11
118.0510844344
 21
87.2107692001
  0
LWPOLYLINE
  5
28E
100
AcDbEntity
  8
0
100
AcDbPolyline
 62
250
  6
CONTINUOUS
 90
25
 70
0
 10
117.8515716244
 20
87.2107692001
 10
117.8505712806
 20
87.1780885895
 10
117.8474402629
 20
87.1455360347
 10
117.8421875196
 20
87.1132494854
 10
117.834827506
 20
87.0813501944
 10
117.8253886965
 20
87.0499913364
 10
117.8139235427
 20
87.0193543819
 10
117.8004882152
 20
86.9895747102
 10
117.7851422887
 20
86.9607699901
 10
117.7679691754
 20
86.9330839886
 10
117.7490619882
 20
86.9066450848
 10
117.728498665
 20
86.8815416035
 10
117.7063496022
 20
86.8578498937
 10
117.6826962189
 20
86.8356556934
 10
117.6576523681
 20
86.815063804
 10
117.6313437281
 20
86.7961702636
 10
117.6039470724
 20
86.7790850047
 10
117.5755227898
 20
86.7638294025
 10
117.5460129852
 20
86.7503848636
 10
117.5154550526
 20
86.7388109567
 10
117.4840371595
 20
86.7292204667
 10
117.4519224707
 20
86.7216909108
 10
117.419256653
 20
86.7162798878
 10
117.386165005
 20
86.7130323558
 10
117.3527895993
 20
86.711987175
  0
LWPOLYLINE
  5
28F
100
AcDbEntity
  8
0
100
AcDbPolyline
 62
250
  6
CONTINUOUS
 90
25
 70
0
 10
118.0510844344
 20
87.2107692001
 10
118.049555919
 20
87.1647822848
 10
118.0450972986
 20
87.1193524435
 10
118.0377085731
 20
87.0744796763
 10
118.0273277901
 20
87.0299568515
 10
118.014016902
 20
86.9859911008
 10
117.9979617664
 20
86.9432038186
 10
117.9791191843
 20
86.9016253783
 10
117.9575323545
 20
86.8612254066
 10
117.9335167313
 20
86.8225341775
 10
117.9070592774
 20
86.785597901
 10
117.8781730299
 20
86.7503703672
 10
117.8472125547
 20
86.7172432199
 10
117.8141373712
 20
86.6862256145
 10
117.77898796
 20
86.6573083957
 10
117.7422403281
 20
86.6308557412
 10
117.7039720287
 20
86.6069269257
 10
117.6641055087
 20
86.5854626746
 10
117.6228841158
 20
86.5666493422
 10
117.5801963927
 20
86.5504504164
 10
117.5361537967
 20
86.5369024093
 10
117.4913340474
 20
86.5263012116
 10
117.445929718
 20
86.5187454534
 10
117.3997482353
 20
86.5141365045
 10
117.3527895993
 20
86.5124743649
  0
LINE
  5
290
100
AcDbEntity
  8
SMUSSO
100
AcDbLine
 62
7
  6
CONTINUOUS
 10
209.9659235651
 20
152.7456416043
 11
210.9853539276
 21
153.188889664
  0
LINE
  5
291
100
AcDbEntity
  8
SMUSSO
100
AcDbLine
 62
7
  6
CONTINUOUS
 10
209.9659235651
 20
65.9921667839
 11
210.9853539276
 21
65.5489187242
  0
LWPOLYLINE
  5
292
100
AcDbEntity
  8
0
100
AcDbPolyline
 62
7
  6
CONTINUOUS
 90
13
 70
0
 43
0.3500000006
 10
36.3987240601
 20
109.368903717
 10
35.1130103531
 20
109.368903717
 10
34.6844391174
 20
109.5831882019
 10
34.2558678818
 20
110.0117571716
 10
34.2558678818
 20
110.2260507202
 10
34.6844391174
 20
110.6546196899
 10
35.1130103531
 20
110.8689041748
 10
36.3987240601
 20
110.8689041748
 10
36.8272952957
 20
110.6546196899
 10
37.2558665314
 20
110.2260507202
 10
37.2558665314
 20
110.0117571716
 10
36.8272952957
 20
109.5831882019
 10
36.3987240601
 20
109.368903717
  0
LINE
  5
293
100
AcDbEntity
  8
0
100
AcDbLine
 62
250
  6
CONTINUOUS
 10
143.3382247761
 20
87.2107692001
 11
143.3382247761
 21
131.5270391881
  0
LINE
  5
294
100
AcDbEntity
  8
0
100
AcDbLine
 62
250
  6
CONTINUOUS
 10
143.5377375861
 20
87.2107692001
 11
143.5377375861
 21
131.5270391881
  0
LINE
  5
295
100
AcDbEntity
  8
RACCORDO
100
AcDbLine
 62
7
  6
CONTINUOUS
 10
143.5946546053
 20
131.4701221689
 11
143.5946546053
 21
87.2676862192
  0
LWPOLYLINE
  5
296
100
AcDbEntity
  8
0
100
AcDbPolyline
 62
250
  6
CONTINUOUS
 90
25
 70
0
 10
143.5377375861
 20
131.5270391881
 10
143.5387379299
 20
131.5597197987
 10
143.5418689476
 20
131.5922723534
 10
143.5471216909
 20
131.6245589027
 10
143.5544817046
 20
131.6564581937
 10
143.5639205141
 20
131.6878170518
 10
143.5753856679
 20
131.7184540062
 10
143.5888209954
 20
131.748233678
 10
143.6041669218
 20
131.777038398
 10
143.6213400351
 20
131.8047243996
 10
143.6402472223
 20
131.8311633034
 10
143.6608105455
 20
131.8562667846
 10
143.6829596083
 20
131.8799584945
 10
143.7066129916
 20
131.9021526948
 10
143.7316568424
 20
131.9227445841
 10
143.7579654824
 20
131.9416381245
 10
143.7853621381
 20
131.9587233834
 10
143.8137864207
 20
131.9739789856
 10
143.8432962253
 20
131.9874235246
 10
143.8738541579
 20
131.9989974315
 10
143.905272051
 20
132.0085879215
 10
143.9373867398
 20
132.0161174773
 10
143.9700525575
 20
132.0215285003
 10
144.0031442055
 20
132.0247760323
 10
144.0365196113
 20
132.0258212132
  0
LWPOLYLINE
  5
297
100
AcDbEntity
  8
0
100
AcDbPolyline
 62
250
  6
CONTINUOUS
 90
25
 70
0
 10
143.3382247761
 20
131.5270391881
 10
143.3397532915
 20
131.5730261034
 10
143.344211912
 20
131.6184559446
 10
143.3516006374
 20
131.6633287119
 10
143.3619814205
 20
131.7078515366
 10
143.3752923085
 20
131.7518172873
 10
143.3913474442
 20
131.7946045696
 10
143.4101900263
 20
131.8361830098
 10
143.431776856
 20
131.8765829816
 10
143.4557924792
 20
131.9152742107
 10
143.4822499332
 20
131.9522104871
 10
143.5111361806
 20
131.987438021
 10
143.5420966559
 20
132.0205651683
 10
143.5751718393
 20
132.0515827737
 10
143.6103212506
 20
132.0804999925
 10
143.6470688824
 20
132.1069526469
 10
143.6853371818
 20
132.1308814624
 10
143.7252037018
 20
132.1523457136
 10
143.7664250947
 20
132.171159046
 10
143.8091128178
 20
132.1873579718
 10
143.8531554138
 20
132.2009059788
 10
143.8979751631
 20
132.2115071766
 10
143.9433794925
 20
132.2190629348
 10
143.9895609752
 20
132.2236718837
 10
144.0365196113
 20
132.2253340233
  0
LINE
  5
298
100
AcDbEntity
  8
SMUSSO
100
AcDbLine
 62
7
  6
CONTINUOUS
 10
51.4233856454
 20
65.9921667839
 11
50.4039552829
 21
65.5489187242
  0
LINE
  5
299
100
AcDbEntity
  8
SMUSSO
100
AcDbLine
 62
7
  6
CONTINUOUS
 10
51.4233856454
 20
152.7456416043
 11
50.4039552829
 21
153.188889664
  0
LINE
  5
29A
100
AcDbEntity
  8
0
100
AcDbLine
 62
250
  6
CONTINUOUS
 10
144.0365196113
 20
132.2253340233
 11
144.0365196113
 21
132.0258212132
  0
LINE
  5
29B
100
AcDbEntity
  8
0
100
AcDbLine
 62
250
  6
CONTINUOUS
 10
144.0365196113
 20
86.5124743649
 11
144.0365196113
 21
86.711987175
  0
LINE
  5
29C
100
AcDbEntity
  8
SMUSSO
100
AcDbLine
 62
7
  6
CONTINUOUS
 10
210.0002142597
 20
154.1750726506
 11
210.1940458031
 21
154.3689041941
  0
LINE
  5
29D
100
AcDbEntity
  8
0
100
AcDbLine
 62
250
  6
CONTINUOUS
 10
188.3527895993
 20
132.0258212132
 11
188.2958725801
 21
131.9689041941
  0
LINE
  5
29E
100
AcDbEntity
  8
0
100
AcDbLine
 62
250
  6
CONTINUOUS
 10
143.5377375861
 20
87.2107692001
 11
143.5946546053
 21
87.2676862192
  0
LINE
  5
29F
100
AcDbEntity
  8
0
100
AcDbLine
 62
250
  6
CONTINUOUS
 10
189.0510844344
 20
131.5270391881
 11
188.8515716244
 21
131.5270391881
  0
LINE
  5
2A0
100
AcDbEntity
  8
0
100
AcDbLine
 62
250
  6
CONTINUOUS
 10
118.0510844344
 20
131.5270391881
 11
117.8515716244
 21
131.5270391881
  0
LINE
  5
2A1
100
AcDbEntity
  8
0
100
AcDbLine
 62
250
  6
CONTINUOUS
 10
72.3382247761
 20
131.5270391881
 11
72.5377375861
 21
131.5270391881
  0
LINE
  5
2A2
100
AcDbEntity
  8
0
100
AcDbLine
 62
250
  6
CONTINUOUS
 10
143.3382247761
 20
131.5270391881
 11
143.5377375861
 21
131.5270391881
  0
LINE
  5
2A3
100
AcDbEntity
  8
RACCORDO
100
AcDbLine
 62
7
  6
CONTINUOUS
 10
188.2958725801
 20
131.9689041941
 11
144.0934366304
 21
131.9689041941
  0
LINE
  5
2A4
100
AcDbEntity
  8
RACCORDO
100
AcDbLine
 62
7
  6
CONTINUOUS
 10
117.2958725801
 20
131.9689041941
 11
73.0934366304
 21
131.9689041941
  0
LINE
  5
2A5
100
AcDbEntity
  8
0
100
AcDbLine
 62
250
  6
CONTINUOUS
 10
73.0365196113
 20
132.0258212132
 11
117.3527895993
 21
132.0258212132
  0
LINE
  5
2A6
100
AcDbEntity
  8
0
100
AcDbLine
 62
250
  6
CONTINUOUS
 10
144.0365196113
 20
132.0258212132
 11
188.3527895993
 21
132.0258212132
  0
LINE
  5
2A7
100
AcDbEntity
  8
0
100
AcDbLine
 62
250
  6
CONTINUOUS
 10
73.0365196113
 20
132.2253340232
 11
117.3527895993
 21
132.2253340232
  0
LINE
  5
2A8
100
AcDbEntity
  8
0
100
AcDbLine
 62
250
  6
CONTINUOUS
 10
144.0365196113
 20
132.2253340233
 11
188.3527895993
 21
132.2253340233
  0
LWPOLYLINE
  5
2A9
100
AcDbEntity
  8
0
100
AcDbPolyline
 62
250
  6
CONTINUOUS
 90
25
 70
0
 10
117.3527895993
 20
132.0258212132
 10
117.3854702099
 20
132.0248208694
 10
117.4180227646
 20
132.0216898518
 10
117.4503093139
 20
132.0164371084
 10
117.4822086049
 20
132.0090770948
 10
117.513567463
 20
131.9996382853
 10
117.5442044174
 20
131.9881731315
 10
117.5739840892
 20
131.974737804
 10
117.6027888092
 20
131.9593918775
 10
117.6304748108
 20
131.9422187642
 10
117.6569137146
 20
131.923311577
 10
117.6820171958
 20
131.9027482539
 10
117.7057089056
 20
131.880599191
 10
117.7279031059
 20
131.8569458078
 10
117.7484949953
 20
131.8319019569
 10
117.7673885357
 20
131.8055933169
 10
117.7844737946
 20
131.7781966612
 10
117.7997293968
 20
131.7497723786
 10
117.8131739358
 20
131.7202625741
 10
117.8247478427
 20
131.6897046414
 10
117.8343383327
 20
131.6582867484
 10
117.8418678885
 20
131.6261720595
 10
117.8472789115
 20
131.5935062418
 10
117.8505264435
 20
131.5604145938
 10
117.8515716244
 20
131.5270391881
  0
LWPOLYLINE
  5
2AA
100
AcDbEntity
  8
0
100
AcDbPolyline
 62
250
  6
CONTINUOUS
 90
25
 70
0
 10
188.3527895993
 20
132.0258212132
 10
188.3854702099
 20
132.0248208694
 10
188.4180227646
 20
132.0216898518
 10
188.4503093139
 20
132.0164371084
 10
188.4822086049
 20
132.0090770948
 10
188.513567463
 20
131.9996382853
 10
188.5442044174
 20
131.9881731315
 10
188.5739840892
 20
131.974737804
 10
188.6027888092
 20
131.9593918775
 10
188.6304748108
 20
131.9422187642
 10
188.6569137146
 20
131.923311577
 10
188.6820171958
 20
131.9027482539
 10
188.7057089056
 20
131.880599191
 10
188.7279031059
 20
131.8569458078
 10
188.7484949953
 20
131.8319019569
 10
188.7673885357
 20
131.8055933169
 10
188.7844737946
 20
131.7781966612
 10
188.7997293968
 20
131.7497723786
 10
188.8131739358
 20
131.7202625741
 10
188.8247478427
 20
131.6897046414
 10
188.8343383327
 20
131.6582867484
 10
188.8418678885
 20
131.6261720595
 10
188.8472789115
 20
131.5935062418
 10
188.8505264435
 20
131.5604145938
 10
188.8515716244
 20
131.5270391881
  0
LWPOLYLINE
  5
2AB
100
AcDbEntity
  8
0
100
AcDbPolyline
 62
250
  6
CONTINUOUS
 90
25
 70
0
 10
117.3527895993
 20
132.2253340232
 10
117.3987765145
 20
132.2238055078
 10
117.4442063558
 20
132.2193468874
 10
117.4890791231
 20
132.2119581619
 10
117.5336019478
 20
132.2015773789
 10
117.5775676985
 20
132.1882664908
 10
117.6203549808
 20
132.1722113552
 10
117.661933421
 20
132.1533687731
 10
117.7023333927
 20
132.1317819433
 10
117.7410246219
 20
132.1077663201
 10
117.7779608983
 20
132.0813088662
 10
117.8131884322
 20
132.0524226187
 10
117.8463155795
 20
132.0214621435
 10
117.8773331849
 20
131.98838696
 10
117.9062504037
 20
131.9532375488
 10
117.9327030581
 20
131.9164899169
 10
117.9566318736
 20
131.8782216175
 10
117.9780961248
 20
131.8383550975
 10
117.9969094572
 20
131.7971337046
 10
118.0131083829
 20
131.7544459815
 10
118.02665639
 20
131.7104033855
 10
118.0372575877
 20
131.6655836363
 10
118.044813346
 20
131.6201793068
 10
118.0494222949
 20
131.5739978241
 10
118.0510844344
 20
131.5270391881
  0
LWPOLYLINE
  5
2AC
100
AcDbEntity
  8
0
100
AcDbPolyline
 62
250
  6
CONTINUOUS
 90
25
 70
0
 10
188.3527895993
 20
132.2253340233
 10
188.3987765145
 20
132.2238055078
 10
188.4442063558
 20
132.2193468874
 10
188.4890791231
 20
132.2119581619
 10
188.5336019478
 20
132.2015773789
 10
188.5775676985
 20
132.1882664908
 10
188.6203549808
 20
132.1722113552
 10
188.661933421
 20
132.1533687731
 10
188.7023333927
 20
132.1317819433
 10
188.7410246219
 20
132.1077663201
 10
188.7779608983
 20
132.0813088662
 10
188.8131884322
 20
132.0524226187
 10
188.8463155795
 20
132.0214621435
 10
188.8773331849
 20
131.98838696
 10
188.9062504037
 20
131.9532375488
 10
188.9327030581
 20
131.9164899169
 10
188.9566318736
 20
131.8782216175
 10
188.9780961248
 20
131.8383550975
 10
188.9969094572
 20
131.7971337046
 10
189.0131083829
 20
131.7544459815
 10
189.02665639
 20
131.7104033855
 10
189.0372575877
 20
131.6655836363
 10
189.044813346
 20
131.6201793068
 10
189.0494222949
 20
131.5739978241
 10
189.0510844344
 20
131.5270391881
  0
LINE
  5
2AD
100
AcDbEntity
  8
SMUSSO
100
AcDbLine
 62
7
  6
CONTINUOUS
 10
210.0002142597
 20
64.5627357375
 11
210.1940458031
 21
64.3689041941
  0
LINE
  5
2AE
100
AcDbEntity
  8
0
100
AcDbLine
 62
250
  6
CONTINUOUS
 10
188.3527895993
 20
86.711987175
 11
188.2958725801
 21
86.7689041941
  0
LINE
  5
2AF
100
AcDbEntity
  8
0
100
AcDbLine
 62
250
  6
CONTINUOUS
 10
143.5377375861
 20
131.5270391881
 11
143.5946546053
 21
131.4701221689
  0
LINE
  5
2B0
100
AcDbEntity
  8
0
100
AcDbLine
 62
250
  6
CONTINUOUS
 10
188.8515716244
 20
131.5270391881
 11
188.7946546053
 21
131.4701221689
  0
LINE
  5
2B1
100
AcDbEntity
  8
0
100
AcDbLine
 62
250
  6
CONTINUOUS
 10
144.0365196113
 20
86.711987175
 11
144.0934366304
 21
86.7689041941
  0
LINE
  5
2B2
100
AcDbEntity
  8
SMUSSO
100
AcDbLine
 62
7
  6
CONTINUOUS
 10
211.0008230618
 20
153.1744638485
 11
211.1946546053
 21
153.368295392
  0
LINE
  5
2B3
100
AcDbEntity
  8
0
100
AcDbLine
 62
250
  6
CONTINUOUS
 10
188.8515716244
 20
87.2107692001
 11
188.7946546053
 21
87.2676862192
  0
LINE
  5
2B4
100
AcDbEntity
  8
0
100
AcDbLine
 62
250
  6
CONTINUOUS
 10
144.0365196113
 20
132.0258212132
 11
144.0934366304
 21
131.9689041941
  0
LINE
  5
2B5
100
AcDbEntity
  8
SMUSSO
100
AcDbLine
 62
7
  6
CONTINUOUS
 10
211.0008230618
 20
65.5633445397
 11
211.1946546053
 21
65.3695129962
  0
LINE
  5
2B6
100
AcDbEntity
  8
SMUSSO
100
AcDbLine
 62
7
  6
CONTINUOUS
 10
209.5713920155
 20
153.1401731539
 11
51.8179171951
 21
153.1401731539
  0
LINE
  5
2B7
100
AcDbEntity
  8
SMUSSO
100
AcDbLine
 62
7
  6
CONTINUOUS
 10
210.0002142597
 20
154.1750726506
 11
51.3890949508
 21
154.1750726506
  0
LINE
  5
2B8
100
AcDbEntity
  8
SMUSSO
100
AcDbLine
 62
7
  6
CONTINUOUS
 10
210.1940458031
 20
154.3689041941
 11
51.1952634074
 21
154.3689041941
  0
LINE
  5
2B9
100
AcDbEntity
  8
SMUSSO
100
AcDbLine
 62
7
  6
CONTINUOUS
 10
209.5713920155
 20
153.1401731539
 11
210.0146400752
 21
154.1596035164
  0
LINE
  5
2BA
100
AcDbEntity
  8
SMUSSO
100
AcDbLine
 62
7
  6
CONTINUOUS
 10
209.5713920155
 20
65.5976352342
 11
210.0146400752
 21
64.5782048717
  0
LINE
  5
2BB
100
AcDbEntity
  8
0
100
AcDbLine
 62
250
  6
CONTINUOUS
 10
188.3527895993
 20
132.2253340233
 11
188.3527895993
 21
132.0258212132
  0
LINE
  5
2BC
100
AcDbEntity
  8
0
100
AcDbLine
 62
250
  6
CONTINUOUS
 10
188.3527895993
 20
86.5124743649
 11
188.3527895993
 21
86.711987175
  0
LINE
  5
2BD
100
AcDbEntity
  8
RACCORDO
100
AcDbLine
 62
7
  6
CONTINUOUS
 10
188.7946546053
 20
87.2676862192
 11
188.7946546053
 21
131.4701221689
  0
LINE
  5
2BE
100
AcDbEntity
  8
0
100
AcDbLine
 62
250
  6
CONTINUOUS
 10
188.8515716244
 20
131.5270391881
 11
188.8515716244
 21
87.2107692001
  0
LINE
  5
2BF
100
AcDbEntity
  8
0
100
AcDbLine
 62
250
  6
CONTINUOUS
 10
189.0510844344
 20
131.5270391881
 11
189.0510844344
 21
87.2107692001
  0
LWPOLYLINE
  5
2C0
100
AcDbEntity
  8
0
100
AcDbPolyline
 62
250
  6
CONTINUOUS
 90
25
 70
0
 10
188.8515716244
 20
87.2107692001
 10
188.8505712806
 20
87.1780885895
 10
188.8474402629
 20
87.1455360347
 10
188.8421875196
 20
87.1132494854
 10
188.834827506
 20
87.0813501944
 10
188.8253886965
 20
87.0499913364
 10
188.8139235427
 20
87.0193543819
 10
188.8004882152
 20
86.9895747102
 10
188.7851422887
 20
86.9607699901
 10
188.7679691754
 20
86.9330839886
 10
188.7490619882
 20
86.9066450848
 10
188.728498665
 20
86.8815416035
 10
188.7063496022
 20
86.8578498937
 10
188.6826962189
 20
86.8356556934
 10
188.6576523681
 20
86.815063804
 10
188.6313437281
 20
86.7961702636
 10
188.6039470724
 20
86.7790850047
 10
188.5755227898
 20
86.7638294025
 10
188.5460129852
 20
86.7503848636
 10
188.5154550526
 20
86.7388109567
 10
188.4840371595
 20
86.7292204667
 10
188.4519224707
 20
86.7216909108
 10
188.419256653
 20
86.7162798878
 10
188.386165005
 20
86.7130323558
 10
188.3527895993
 20
86.711987175
  0
LWPOLYLINE
  5
2C1
100
AcDbEntity
  8
0
100
AcDbPolyline
 62
250
  6
CONTINUOUS
 90
25
 70
0
 10
189.0510844344
 20
87.2107692001
 10
189.049555919
 20
87.1647822848
 10
189.0450972986
 20
87.1193524435
 10
189.0377085731
 20
87.0744796763
 10
189.0273277901
 20
87.0299568515
 10
189.014016902
 20
86.9859911008
 10
188.9979617664
 20
86.9432038186
 10
188.9791191843
 20
86.9016253783
 10
188.9575323545
 20
86.8612254066
 10
188.9335167313
 20
86.8225341775
 10
188.9070592774
 20
86.785597901
 10
188.8781730299
 20
86.7503703672
 10
188.8472125547
 20
86.7172432199
 10
188.8141373712
 20
86.6862256145
 10
188.77898796
 20
86.6573083957
 10
188.7422403281
 20
86.6308557412
 10
188.7039720287
 20
86.6069269257
 10
188.6641055087
 20
86.5854626746
 10
188.6228841158
 20
86.5666493422
 10
188.5801963927
 20
86.5504504164
 10
188.5361537967
 20
86.5369024093
 10
188.4913340474
 20
86.5263012116
 10
188.445929718
 20
86.5187454534
 10
188.3997482353
 20
86.5141365045
 10
188.3527895993
 20
86.5124743649
  0
LINE
  5
2C2
100
AcDbEntity
  8
SMUSSO
100
AcDbLine
 62
7
  6
CONTINUOUS
 10
209.9659235651
 20
65.9921667839
 11
209.9659235651
 21
152.7456416043
  0
LINE
  5
2C3
100
AcDbEntity
  8
SMUSSO
100
AcDbLine
 62
7
  6
CONTINUOUS
 10
211.0008230618
 20
65.5633445397
 11
211.0008230618
 21
153.1744638485
  0
LINE
  5
2C4
100
AcDbEntity
  8
SMUSSO
100
AcDbLine
 62
7
  6
CONTINUOUS
 10
211.1946546053
 20
65.3695129962
 11
211.1946546053
 21
153.368295392
  0
LINE
  5
2C5
100
AcDbEntity
  8
SMUSSO
100
AcDbLine
 62
7
  6
CONTINUOUS
 10
210.0146400752
 20
64.5782048717
 11
210.0002142597
 21
64.5627357375
  0
LINE
  5
2C6
100
AcDbEntity
  8
SMUSSO
100
AcDbLine
 62
7
  6
CONTINUOUS
 10
209.5713920155
 20
65.5976352342
 11
209.9659235651
 21
65.9921667839
  0
LINE
  5
2C7
100
AcDbEntity
  8
SMUSSO
100
AcDbLine
 62
7
  6
CONTINUOUS
 10
210.0146400752
 20
64.5782048717
 11
210.9853539276
 21
65.5489187242
  0
LINE
  5
2C8
100
AcDbEntity
  8
SMUSSO
100
AcDbLine
 62
7
  6
CONTINUOUS
 10
211.1946546053
 20
65.3695129962
 11
210.1940458031
 21
64.3689041941
  0
LINE
  5
2C9
100
AcDbEntity
  8
SMUSSO
100
AcDbLine
 62
7
  6
CONTINUOUS
 10
211.0008230618
 20
65.5633445397
 11
210.9853539276
 21
65.5489187242
  0
LINE
  5
2CA
100
AcDbEntity
  8
SMUSSO
100
AcDbLine
 62
7
  6
CONTINUOUS
 10
210.9853539276
 20
153.188889664
 11
211.0008230618
 21
153.1744638485
  0
LINE
  5
2CB
100
AcDbEntity
  8
SMUSSO
100
AcDbLine
 62
7
  6
CONTINUOUS
 10
209.9659235651
 20
152.7456416043
 11
209.5713920155
 21
153.1401731539
  0
LINE
  5
2CC
100
AcDbEntity
  8
SMUSSO
100
AcDbLine
 62
7
  6
CONTINUOUS
 10
210.9853539276
 20
153.188889664
 11
210.0146400752
 21
154.1596035164
  0
LINE
  5
2CD
100
AcDbEntity
  8
SMUSSO
100
AcDbLine
 62
7
  6
CONTINUOUS
 10
210.1940458031
 20
154.3689041941
 11
211.1946546053
 21
153.368295392
  0
LINE
  5
2CE
100
AcDbEntity
  8
SMUSSO
100
AcDbLine
 62
7
  6
CONTINUOUS
 10
210.0002142597
 20
154.1750726506
 11
210.0146400752
 21
154.1596035164
  0
LINE
  5
2CF
100
AcDbEntity
  8
0
100
AcDbLine
 62
7
  6
CONTINUOUS
 10
235.6112047697
 20
66.5689041941
 11
236.2112047697
 21
66.6108602812
  0
LINE
  5
2D0
100
AcDbEntity
  8
SMUSSO
100
AcDbLine
 62
7
  6
CONTINUOUS
 10
241.7618139427
 20
64.5627357375
 11
236.2112047697
 21
64.3689041941
  0
LINE
  5
2D1
100
AcDbEntity
  8
SMUSSO
100
AcDbLine
 62
7
  6
CONTINUOUS
 10
241.7618139427
 20
65.5633445397
 11
236.2112047697
 21
65.3695129962
  0
LWPOLYLINE
  5
2D2
100
AcDbEntity
  8
0
100
AcDbPolyline
 62
7
  6
CONTINUOUS
 90
3
 70
0
 43
0.3500000006
 10
243.4789467773
 20
179.8188209839
 10
244.3361028442
 20
180.6759589233
 10
244.3361028442
 20
177.6759580078
  0
LINE
  5
2D3
100
AcDbEntity
  8
0
100
AcDbLine
 62
250
  6
CONTINUOUS
 10
235.6112047697
 20
68.1650066745
 11
236.2112047697
 21
68.2069627617
  0
LWPOLYLINE
  5
2D4
100
AcDbEntity
  8
0
100
AcDbPolyline
 62
7
  6
CONTINUOUS
 90
3
 70
0
 43
0.3500000006
 10
249.2646641235
 20
179.8188209839
 10
250.121802063
 20
180.6759589233
 10
250.121802063
 20
177.6759580078
  0
LWPOLYLINE
  5
2D5
100
AcDbEntity
  8
0
100
AcDbPolyline
 62
7
  6
CONTINUOUS
 90
3
 70
0
 43
0.3500000006
 10
251.5877501221
 20
170.611947876
 10
252.444906189
 20
171.4690858154
 10
252.444906189
 20
168.4690848999
  0
LINE
  5
2D6
100
AcDbEntity
  8
SMUSSO
100
AcDbLine
 62
7
  6
CONTINUOUS
 10
241.7618139427
 20
153.1744638485
 11
241.776752312
 21
153.188889664
  0
LINE
  5
2D7
100
AcDbEntity
  8
0
100
AcDbLine
 62
7
  6
CONTINUOUS
 10
232.6112047697
 20
83.9689041941
 11
234.5615766718
 21
84.1639413843
  0
LINE
  5
2D8
100
AcDbEntity
  8
0
100
AcDbLine
 62
7
  6
CONTINUOUS
 10
235.6112047697
 20
83.6130843195
 11
234.6093248499
 21
83.568821139
  0
LWPOLYLINE
  5
2D9
100
AcDbEntity
  8
0
100
AcDbPolyline
 62
7
  6
CONTINUOUS
 90
25
 70
0
 10
232.8007375785
 20
83.5526803699
 10
232.7874080369
 20
83.5523052
 10
232.774226658
 20
83.5514635747
 10
232.7612507656
 20
83.5501554938
 10
232.7485188777
 20
83.5483602688
 10
232.7361022358
 20
83.5460985882
 10
232.7241005315
 20
83.543432518
 10
232.712566632
 20
83.5403559163
 10
232.7015313865
 20
83.5368749248
 10
232.6910498585
 20
83.5330700351
 10
232.6811626174
 20
83.528943629
 10
232.6718833917
 20
83.5244933246
 10
232.6632208117
 20
83.5197924669
 10
232.6552035194
 20
83.5148491786
 10
232.6478382275
 20
83.5096553371
 10
232.6411064158
 20
83.5042599193
 10
232.6350284421
 20
83.4986677612
 10
232.6296185651
 20
83.4928740268
 10
232.6248649351
 20
83.4869131853
 10
232.6207909524
 20
83.4807880726
 10
232.6174151366
 20
83.4744958528
 10
232.6147401292
 20
83.4680624862
 10
232.6127922133
 20
83.4614966264
 10
232.6116054441
 20
83.4547896199
 10
232.6112047697
 20
83.4479414668
  0
LINE
  5
2DA
100
AcDbEntity
  8
0
100
AcDbLine
 62
7
  6
CONTINUOUS
 10
234.6610803909
 20
84.1689041941
 11
235.6112047697
 21
84.1689041941
  0
LINE
  5
2DB
100
AcDbEntity
  8
0
100
AcDbLine
 62
7
  6
CONTINUOUS
 10
235.6112047697
 20
84.3189041941
 11
235.4612047697
 21
84.3189041941
  0
LINE
  5
2DC
100
AcDbEntity
  8
0
100
AcDbLine
 62
7
  6
CONTINUOUS
 10
235.1612047697
 20
84.3189041941
 11
234.9612047697
 21
84.3189041941
  0
LINE
  5
2DD
100
AcDbEntity
  8
0
100
AcDbLine
 62
250
  6
CONTINUOUS
 10
234.685432186
 20
82.4412249502
 11
235.6112047697
 21
82.4408067556
  0
LINE
  5
2DE
100
AcDbEntity
  8
0
100
AcDbLine
 62
7
  6
CONTINUOUS
 10
235.6112047697
 20
82.2171588631
 11
234.6853677309
 21
82.2187747552
  0
LINE
  5
2DF
100
AcDbEntity
  8
0
100
AcDbLine
 62
7
  6
CONTINUOUS
 10
233.6512144318
 20
82.8402828566
 11
235.6112047697
 21
82.805118044
  0
LINE
  5
2E0
100
AcDbEntity
  8
0
100
AcDbLine
 62
250
  6
CONTINUOUS
 10
233.6513118539
 20
82.860296746
 11
235.6112047697
 21
82.8251033851
  0
LINE
  5
2E1
100
AcDbEntity
  8
0
100
AcDbLine
 62
7
  6
CONTINUOUS
 10
235.6112047697
 20
83.5344332944
 11
234.6093248499
 21
83.568821139
  0
LWPOLYLINE
  5
2E2
100
AcDbEntity
  8
0
100
AcDbPolyline
 62
250
  6
CONTINUOUS
 90
5
 70
0
 10
233.5660004518
 20
82.8652509187
 10
233.5862000183
 20
82.8634638419
 10
233.6071042484
 20
82.8620620786
 10
233.6288081936
 20
82.8610064169
 10
233.6513118539
 20
82.860296746
  0
LINE
  5
2E3
100
AcDbEntity
  8
SMUSSO
100
AcDbLine
 62
7
  6
CONTINUOUS
 10
241.776752312
 20
65.5489187242
 11
241.7618139427
 21
65.5633445397
  0
LINE
  5
2E4
100
AcDbEntity
  8
0
100
AcDbLine
 62
250
  6
CONTINUOUS
 10
233.4142893804
 20
135.8386983076
 11
232.6112047711
 21
135.4095773652
  0
LINE
  5
2E5
100
AcDbEntity
  8
0
100
AcDbLine
 62
7
  6
CONTINUOUS
 10
234.546192808
 20
136.4843946856
 11
232.6112047697
 21
135.4572685345
  0
LINE
  5
2E6
100
AcDbEntity
  8
0
100
AcDbLine
 62
250
  6
CONTINUOUS
 10
233.9435329809
 20
135.902770112
 11
234.685432186
 21
136.296583438
  0
LWPOLYLINE
  5
2E7
100
AcDbEntity
  8
0
100
AcDbPolyline
 62
250
  6
CONTINUOUS
 90
10
 70
0
 10
233.3240083617
 20
135.8356373902
 10
233.3327770967
 20
135.8397190612
 10
233.3419759908
 20
135.8428861081
 10
233.3515584925
 20
135.8451225041
 10
233.3614761092
 20
135.846416932
 10
233.3716786522
 20
135.8467628417
 10
233.3821144913
 20
135.8461584828
 10
233.3927308155
 20
135.8446069138
 10
233.4034739005
 20
135.8421159869
 10
233.4142893804
 20
135.8386983076
  0
LWPOLYLINE
  5
2E8
100
AcDbEntity
  8
0
100
AcDbPolyline
 62
250
  6
CONTINUOUS
 90
10
 70
0
 10
233.324008362
 20
82.9021709978
 10
233.3327773755
 20
82.8980891747
 10
233.3419764613
 20
82.8949220153
 10
233.3515590783
 20
82.8926855446
 10
233.3614767657
 20
82.8913910671
 10
233.3716793236
 20
82.8910451424
 10
233.3821150817
 20
82.891649543
 10
233.3927312396
 20
82.8932012061
 10
233.4034741187
 20
82.895692258
 10
233.4142893804
 20
82.8991100806
  0
LWPOLYLINE
  5
2E9
100
AcDbEntity
  8
0
100
AcDbPolyline
 62
250
  6
CONTINUOUS
 90
12
 70
0
 10
233.4142893804
 20
82.8991100806
 10
233.4225813465
 20
82.8951800656
 10
233.4319462371
 20
82.8914218503
 10
233.4423840522
 20
82.8878351103
 10
233.4538672634
 20
82.8844251729
 10
233.4664233991
 20
82.8811861082
 10
233.480135044
 20
82.8781007536
 10
233.4950532729
 20
82.875137529
 10
233.511127011
 20
82.8723275811
 10
233.5282856185
 20
82.8697477909
 10
233.5466006004
 20
82.8673845278
 10
233.5660004518
 20
82.8652509187
  0
LWPOLYLINE
  5
2EA
100
AcDbEntity
  8
0
100
AcDbPolyline
 62
7
  6
CONTINUOUS
 90
17
 70
0
 10
233.3239975281
 20
82.9021768229
 10
233.3368182596
 20
82.8957485378
 10
233.3554448885
 20
82.8876228731
 10
233.3743810204
 20
82.8806027264
 10
233.3934855937
 20
82.8745123138
 10
233.4130669838
 20
82.8690875591
 10
233.4331749137
 20
82.8642519395
 10
233.4539124258
 20
82.8599093195
 10
233.4753512725
 20
82.8560024764
 10
233.4973362788
 20
82.8525399603
 10
233.5198508004
 20
82.849495783
 10
233.5429405625
 20
82.8468553561
 10
233.5664726917
 20
82.8446346655
 10
233.5904163176
 20
82.842833183
 10
233.614791113
 20
82.8414616144
 10
233.6395170083
 20
82.8405471874
 10
233.6512144882
 20
82.8402828565
  0
LINE
  5
2EB
100
AcDbEntity
  8
0
100
AcDbLine
 62
7
  6
CONTINUOUS
 10
232.6112047697
 20
83.2805398537
 11
234.546192808
 21
82.2534137025
  0
LINE
  5
2EC
100
AcDbEntity
  8
0
100
AcDbLine
 62
250
  6
CONTINUOUS
 10
234.685432186
 20
82.4412249502
 11
233.9435329809
 21
82.8350382762
  0
LINE
  5
2ED
100
AcDbEntity
  8
0
100
AcDbLine
 62
250
  6
CONTINUOUS
 10
232.6112047703
 20
83.3282310234
 11
233.4142893804
 21
82.8991100806
  0
LINE
  5
2EE
100
AcDbEntity
  8
0
100
AcDbLine
 62
7
  6
CONTINUOUS
 10
235.3112047697
 20
134.5689041941
 11
235.1612047697
 21
134.4189041941
  0
LINE
  5
2EF
100
AcDbEntity
  8
0
100
AcDbLine
 62
7
  6
CONTINUOUS
 10
235.3112047697
 20
84.1689041941
 11
235.1612047697
 21
84.3189041941
  0
LWPOLYLINE
  5
2F0
100
AcDbEntity
  8
0
100
AcDbPolyline
 62
250
  6
CONTINUOUS
 90
19
 70
0
 10
233.6544532695
 20
96.8035826121
 10
233.6279320719
 20
96.7988007942
 10
233.6022062633
 20
96.7921975681
 10
233.5773456801
 20
96.7839803981
 10
233.553338668
 20
96.7743603224
 10
233.5302985854
 20
96.7635321302
 10
233.5084636529
 20
96.7516765567
 10
233.4880014334
 20
96.7390571406
 10
233.468772811
 20
96.7257895399
 10
233.4505598822
 20
96.7117705552
 10
233.4335018035
 20
96.6972483947
 10
233.4174802338
 20
96.6822060739
 10
233.4019623648
 20
96.6659954753
 10
233.3868275464
 20
96.6485375033
 10
233.3723467161
 20
96.6299689292
 10
233.3586796699
 20
96.6098622355
 10
233.345986637
 20
96.5881067452
 10
233.3343817088
 20
96.5649522893
 10
233.3240083627
 20
96.5405298227
  0
LWPOLYLINE
  5
2F1
100
AcDbEntity
  8
0
100
AcDbPolyline
 62
7
  6
CONTINUOUS
 90
7
 70
0
 10
233.4359484109
 20
96.8036760079
 10
233.4618970553
 20
96.8067736682
 10
233.4874648387
 20
96.8092201027
 10
233.5126356861
 20
96.8110522186
 10
233.5373956123
 20
96.8123080373
 10
233.561732605
 20
96.8130263203
 10
233.5856365019
 20
96.813246228
  0
LINE
  5
2F2
100
AcDbEntity
  8
0
100
AcDbLine
 62
7
  6
CONTINUOUS
 10
234.6093248499
 20
95.1190027165
 11
235.6112047697
 21
95.1451474399
  0
LWPOLYLINE
  5
2F3
100
AcDbEntity
  8
0
100
AcDbPolyline
 62
250
  6
CONTINUOUS
 90
19
 70
0
 10
233.6513118539
 20
96.5231945229
 10
233.632878244
 20
96.522826322
 10
233.61501319
 20
96.5219470069
 10
233.5977166918
 20
96.5205566209
 10
233.5809114033
 20
96.5185979965
 10
233.5646746705
 20
96.5161284337
 10
233.5492385324
 20
96.5133196663
 10
233.5347200156
 20
96.5102048449
 10
233.5210020934
 20
96.5067509356
 10
233.5079657247
 20
96.503030358
 10
233.4956780389
 20
96.4991153507
 10
233.4840719066
 20
96.4949337784
 10
233.472826898
 20
96.4903415286
 10
233.4617625074
 20
96.485329415
 10
233.4510592405
 20
96.4799068571
 10
233.4409381856
 20
96.4739577387
 10
233.4314730386
 20
96.4674434934
 10
233.4225901036
 20
96.460403066
 10
233.4142893804
 20
96.452836663
  0
LINE
  5
2F4
100
AcDbEntity
  8
0
100
AcDbLine
 62
250
  6
CONTINUOUS
 10
233.1611555375
 20
96.9532450995
 11
235.6112047697
 21
96.9570644391
  0
LINE
  5
2F5
100
AcDbEntity
  8
0
100
AcDbLine
 62
7
  6
CONTINUOUS
 10
235.6112047697
 20
97.3204630769
 11
232.7615206779
 21
97.3160207534
  0
LINE
  5
2F6
100
AcDbEntity
  8
0
100
AcDbLine
 62
7
  6
CONTINUOUS
 10
233.5856365019
 20
96.813246228
 11
235.6112047697
 21
96.8137295393
  0
LINE
  5
2F7
100
AcDbEntity
  8
0
100
AcDbLine
 62
250
  6
CONTINUOUS
 10
233.4359484109
 20
96.8036760079
 11
233.0222436086
 21
96.803247639
  0
LINE
  5
2F8
100
AcDbEntity
  8
0
100
AcDbLine
 62
250
  6
CONTINUOUS
 10
235.6112047697
 20
96.5173755522
 11
233.6513118539
 21
96.5231945229
  0
LINE
  5
2F9
100
AcDbEntity
  8
0
100
AcDbLine
 62
250
  6
CONTINUOUS
 10
235.6112047697
 20
96.7977114645
 11
233.6544532695
 21
96.8035826121
  0
LINE
  5
2FA
100
AcDbEntity
  8
0
100
AcDbLine
 62
7
  6
CONTINUOUS
 10
232.8007375785
 20
95.213786759
 11
235.6112047697
 21
95.0664964148
  0
LINE
  5
2FB
100
AcDbEntity
  8
0
100
AcDbLine
 62
250
  6
CONTINUOUS
 10
233.0222436085
 20
96.5829052316
 11
233.3240083627
 21
96.5405298227
  0
LINE
  5
2FC
100
AcDbEntity
  8
0
100
AcDbLine
 62
250
  6
CONTINUOUS
 10
233.6544532695
 20
96.8035826121
 11
233.5856365019
 21
96.813246228
  0
LINE
  5
2FD
100
AcDbEntity
  8
0
100
AcDbLine
 62
250
  6
CONTINUOUS
 10
233.5856365019
 20
99.4245621602
 11
234.685432186
 21
99.5790013091
  0
LINE
  5
2FE
100
AcDbEntity
  8
0
100
AcDbLine
 62
250
  6
CONTINUOUS
 10
234.546192808
 20
99.8689041941
 11
233.0222436085
 21
99.6549031565
  0
LINE
  5
2FF
100
AcDbEntity
  8
0
100
AcDbLine
 62
250
  6
CONTINUOUS
 10
234.685432186
 20
100.158807079
 11
235.6112047697
 21
100.1603678023
  0
LINE
  5
300
100
AcDbEntity
  8
0
100
AcDbLine
 62
7
  6
CONTINUOUS
 10
233.5859133261
 20
100.3132073549
 11
235.6112047697
 21
100.3137096613
  0
LINE
  5
301
100
AcDbEntity
  8
0
100
AcDbLine
 62
250
  6
CONTINUOUS
 10
235.6112047697
 20
100.4470520523
 11
233.0222436085
 21
100.4411478649
  0
LINE
  5
302
100
AcDbEntity
  8
0
100
AcDbLine
 62
7
  6
CONTINUOUS
 10
235.6112047697
 20
99.424078849
 11
233.5856365019
 21
99.4245621602
  0
LINE
  5
303
100
AcDbEntity
  8
0
100
AcDbLine
 62
7
  6
CONTINUOUS
 10
235.6112047697
 20
98.9173453113
 11
232.7615206779
 21
98.9217876348
  0
LINE
  5
304
100
AcDbEntity
  8
0
100
AcDbLine
 62
250
  6
CONTINUOUS
 10
233.1611555375
 20
99.2845632886
 11
235.6112047697
 21
99.280743949
  0
LINE
  5
305
100
AcDbEntity
  8
0
100
AcDbLine
 62
250
  6
CONTINUOUS
 10
233.0222436085
 20
99.4345607501
 11
233.4359484109
 21
99.4341323803
  0
LINE
  5
306
100
AcDbEntity
  8
0
100
AcDbLine
 62
250
  6
CONTINUOUS
 10
234.685432186
 20
99.5790013091
 11
235.6112047697
 21
99.5774405859
  0
LWPOLYLINE
  5
307
100
AcDbEntity
  8
0
100
AcDbPolyline
 62
7
  6
CONTINUOUS
 90
7
 70
0
 10
233.5856365019
 20
99.4245621602
 10
233.5618009493
 20
99.4247804631
 10
233.5375049007
 20
99.4254957632
 10
233.5127585154
 20
99.4267486882
 10
233.4875738652
 20
99.4285795369
 10
233.4619650672
 20
99.4310279223
 10
233.4359484109
 20
99.4341323803
  0
LINE
  5
308
100
AcDbEntity
  8
0
100
AcDbLine
 62
250
  6
CONTINUOUS
 10
233.0222436085
 20
100.0829052316
 11
234.546192808
 21
99.8689041941
  0
LWPOLYLINE
  5
309
100
AcDbEntity
  8
0
100
AcDbPolyline
 62
7
  6
CONTINUOUS
 90
3
 70
0
 43
0.3500000006
 10
248.2646638184
 20
177.9616827393
 10
248.1932416992
 20
177.7473982544
 10
248.0503793335
 20
177.4616735229
  0
LWPOLYLINE
  5
30A
100
AcDbEntity
  8
0
100
AcDbPolyline
 62
250
  6
CONTINUOUS
 90
10
 70
0
 10
233.324008362
 20
122.1972785675
 10
233.3327773755
 20
122.2077123175
 10
233.3419764613
 20
122.2180933741
 10
233.3515590783
 20
122.2283691932
 10
233.3614767657
 20
122.2384877434
 10
233.3716793236
 20
122.248397829
 10
233.3821150817
 20
122.2580493344
 10
233.3927312396
 20
122.2673934044
 10
233.4034741187
 20
122.2763827075
 10
233.4142893804
 20
122.2849717252
  0
LWPOLYLINE
  5
30B
100
AcDbEntity
  8
0
100
AcDbPolyline
 62
7
  6
CONTINUOUS
 90
7
 70
0
 10
233.0222436085
 20
119.0829052316
 10
233.044883998
 20
119.1052631479
 10
233.0679725217
 20
119.1268728644
 10
233.0913177612
 20
119.1477343814
 10
233.1147396521
 20
119.1678476986
 10
233.1380704651
 20
119.1872128162
 10
233.1611555375
 20
119.2058297341
  0
LINE
  5
30C
100
AcDbEntity
  8
0
100
AcDbLine
 62
250
  6
CONTINUOUS
 10
232.6112047697
 20
121.5614329314
 11
233.0222436085
 21
121.9345607501
  0
LINE
  5
30D
100
AcDbEntity
  8
0
100
AcDbLine
 62
250
  6
CONTINUOUS
 10
232.7615206779
 20
121.4217876348
 11
233.1611555375
 21
121.7845632886
  0
LINE
  5
30E
100
AcDbEntity
  8
0
100
AcDbLine
 62
250
  6
CONTINUOUS
 10
232.6112047697
 20
118.0818556642
 11
233.0222436085
 21
118.2966605233
  0
LINE
  5
30F
100
AcDbEntity
  8
0
100
AcDbLine
 62
250
  6
CONTINUOUS
 10
232.6390636848
 20
117.8116920057
 11
233.1611555375
 21
118.0845320789
  0
LWPOLYLINE
  5
310
100
AcDbEntity
  8
0
100
AcDbPolyline
 62
250
  6
CONTINUOUS
 90
22
 70
0
 10
234.685432186
 20
119.158807079
 10
234.6786588138
 20
119.1552942279
 10
234.6717786509
 20
119.1510694484
 10
234.6648086844
 20
119.1461065904
 10
234.6578050508
 20
119.1404126774
 10
234.6507499414
 20
119.1339416742
 10
234.643555683
 20
119.1265603748
 10
234.6362368117
 20
119.1182058351
 10
234.6288415432
 20
119.1088483714
 10
234.6213462259
 20
119.0983607699
 10
234.6137895332
 20
119.0866792233
 10
234.6062324879
 20
119.0737721027
 10
234.5987014947
 20
119.0595425097
 10
234.5912703827
 20
119.0439684574
 10
234.5840099156
 20
119.0270222748
 10
234.5769642877
 20
119.0085951052
 10
234.570217712
 20
118.9886487393
 10
234.5638954336
 20
118.967253048
 10
234.5581210444
 20
118.944485535
 10
234.5530158473
 20
118.9204421131
 10
234.5486997262
 20
118.8952378821
 10
234.5452985361
 20
118.8690297725
  0
LINE
  5
311
100
AcDbEntity
  8
0
100
AcDbLine
 62
7
  6
CONTINUOUS
 10
235.6112047697
 20
101.1713119734
 11
232.8007375785
 21
101.0240216291
  0
LINE
  5
312
100
AcDbEntity
  8
0
100
AcDbLine
 62
250
  6
CONTINUOUS
 10
233.1611555375
 20
100.6532763093
 11
235.6112047697
 21
100.6591804967
  0
LINE
  5
313
100
AcDbEntity
  8
0
100
AcDbLine
 62
250
  6
CONTINUOUS
 10
234.685432186
 20
100.158807079
 11
233.5859133261
 21
100.3132073549
  0
LINE
  5
314
100
AcDbEntity
  8
0
100
AcDbLine
 62
250
  6
CONTINUOUS
 10
233.0222436085
 20
100.4411478648
 11
232.6112047697
 21
100.6559527239
  0
LINE
  5
315
100
AcDbEntity
  8
0
100
AcDbLine
 62
250
  6
CONTINUOUS
 10
233.1611555375
 20
100.6532763093
 11
232.6390636848
 21
100.9261163825
  0
LWPOLYLINE
  5
316
100
AcDbEntity
  8
0
100
AcDbPolyline
 62
250
  6
CONTINUOUS
 90
19
 70
0
 10
234.685432186
 20
99.5790013091
 10
234.6774740018
 20
99.5831864532
 10
234.6691629583
 20
99.5885036911
 10
234.6605325298
 20
99.5950666584
 10
234.6516153819
 20
99.6029971895
 10
234.6424714937
 20
99.612392238
 10
234.6331867057
 20
99.6233074184
 10
234.6238337939
 20
99.6358057811
 10
234.6144832302
 20
99.6499580352
 10
234.6052282437
 20
99.6657956486
 10
234.5961327329
 20
99.683403128
 10
234.5873326513
 20
99.7027280937
 10
234.5790217208
 20
99.7235247162
 10
234.5712755724
 20
99.7457620812
 10
234.5642130397
 20
99.7692898516
 10
234.5580333188
 20
99.7935742002
 10
234.5528138488
 20
99.8183029607
 10
234.548557271
 20
99.8434313616
 10
234.5452985361
 20
99.8687786157
  0
LWPOLYLINE
  5
317
100
AcDbEntity
  8
0
100
AcDbPolyline
 62
7
  6
CONTINUOUS
 90
7
 70
0
 10
233.1611555375
 20
99.531978654
 10
233.1380382024
 20
99.5506233105
 10
233.1146885264
 20
99.5700050713
 10
233.0912611727
 20
99.5901239363
 10
233.0679233864
 20
99.6109799055
 10
233.044854235
 20
99.6325729789
 10
233.0222436085
 20
99.6549031565
  0
LINE
  5
318
100
AcDbEntity
  8
0
100
AcDbLine
 62
250
  6
CONTINUOUS
 10
233.0222436085
 20
96.803247638
 11
232.6112047697
 21
97.1763754568
  0
LINE
  5
319
100
AcDbEntity
  8
0
100
AcDbLine
 62
250
  6
CONTINUOUS
 10
233.1611555375
 20
96.9532450995
 11
232.7615206779
 21
97.3160207534
  0
LWPOLYLINE
  5
31A
100
AcDbEntity
  8
0
100
AcDbPolyline
 62
250
  6
CONTINUOUS
 90
10
 70
0
 10
233.3240083617
 20
96.5405298216
 10
233.332777094
 20
96.530095706
 10
233.3419759858
 20
96.5197143926
 10
233.3515584858
 20
96.5094384164
 10
233.3614761015
 20
96.4993197794
 10
233.3716786444
 20
96.4894096872
 10
233.3821144842
 20
96.4797582903
 10
233.3927308099
 20
96.4704144299
 10
233.4034738972
 20
96.461425391
 10
233.4142893804
 20
96.452836663
  0
LWPOLYLINE
  5
31B
100
AcDbEntity
  8
0
100
AcDbPolyline
 62
250
  6
CONTINUOUS
 90
10
 70
0
 10
233.0222436085
 20
119.303247638
 10
233.0353991519
 20
119.321235833
 10
233.0493346516
 20
119.3391497251
 10
233.063971238
 20
119.3568820996
 10
233.079238097
 20
119.374340295
 10
233.0950347305
 20
119.3914027709
 10
233.111227636
 20
119.4079237621
 10
233.1277049672
 20
119.4237923578
 10
233.144380931
 20
119.4389290727
 10
233.1611555375
 20
119.4532450995
  0
LWPOLYLINE
  5
31C
100
AcDbEntity
  8
0
100
AcDbPolyline
 62
250
  6
CONTINUOUS
 90
10
 70
0
 10
233.0222436085
 20
99.4345607501
 10
233.0353439474
 20
99.4166457276
 10
233.0492327668
 20
99.3987858072
 10
233.0638341173
 20
99.381087708
 10
233.0790793798
 20
99.363644535
 10
233.0948702691
 20
99.3465783202
 10
233.1110755417
 20
99.3300354475
 10
233.1275845002
 20
99.3141287142
 10
233.1443113014
 20
99.2989406298
 10
233.1611555375
 20
99.2845632886
  0
LWPOLYLINE
  5
31D
100
AcDbEntity
  8
0
100
AcDbPolyline
 62
7
  6
CONTINUOUS
 90
3
 70
0
 43
0.3500000006
 10
250.5877498169
 20
168.7548096313
 10
250.5163276978
 20
168.5405251465
 10
250.373465332
 20
168.254800415
  0
LWPOLYLINE
  5
31E
100
AcDbEntity
  8
0
100
AcDbPolyline
 62
7
  6
CONTINUOUS
 90
25
 70
0
 10
232.6112047697
 20
135.2898669214
 10
232.6116080663
 20
135.2829953631
 10
232.6128046687
 20
135.2762580672
 10
232.6147724829
 20
135.2696550339
 10
232.6174812217
 20
135.2631745418
 10
232.6209065454
 20
135.2568283122
 10
232.6250434123
 20
135.2506515087
 10
232.6298740049
 20
135.2446411943
 10
232.6353741591
 20
135.238800306
 10
232.6415457271
 20
135.2331728183
 10
232.6483701462
 20
135.227756364
 10
232.6558248142
 20
135.2225533103
 10
232.6639165929
 20
135.2176147342
 10
232.672630708
 20
135.2129357285
 10
232.6819373506
 20
135.2085212004
 10
232.6918253954
 20
135.204436948
 10
232.7022731574
 20
135.20068184
 10
232.7132419938
 20
135.1972570076
 10
232.7246920849
 20
135.1942316429
 10
232.7365919521
 20
135.1916093598
 10
232.7488902581
 20
135.1893865443
 10
232.7615096995
 20
135.187621547
 10
232.7743885283
 20
135.1863338179
 10
232.7874830779
 20
135.1855039069
 10
232.8007375785
 20
135.1851318141
  0
LWPOLYLINE
  5
31F
100
AcDbEntity
  8
0
100
AcDbPolyline
 62
250
  6
CONTINUOUS
 90
5
 70
0
 10
233.6544532678
 20
121.934225776
 10
233.6540317439
 20
121.9416143399
 10
233.6536208188
 20
121.9515583631
 10
233.6532261445
 20
121.9639210745
 10
233.6528531493
 20
121.9785324365
  0
LWPOLYLINE
  5
320
100
AcDbEntity
  8
0
100
AcDbPolyline
 62
250
  6
CONTINUOUS
 90
3
 70
0
 10
233.6512144318
 20
82.8402828566
 10
233.6511726691
 20
82.8412657097
 10
233.6511693088
 20
82.8449524569
  0
LINE
  5
321
100
AcDbEntity
  8
0
100
AcDbLine
 62
250
  6
CONTINUOUS
 10
233.6528531493
 20
121.9785324365
 11
233.6521923483
 21
122.0136690837
  0
LINE
  5
322
100
AcDbEntity
  8
0
100
AcDbLine
 62
250
  6
CONTINUOUS
 10
233.6521923483
 20
122.0136690837
 11
233.6516746456
 21
122.055041861
  0
LINE
  5
323
100
AcDbEntity
  8
0
100
AcDbLine
 62
250
  6
CONTINUOUS
 10
233.6516746456
 20
122.055041861
 11
233.6513284251
 21
122.1003824154
  0
LINE
  5
324
100
AcDbEntity
  8
0
100
AcDbLine
 62
250
  6
CONTINUOUS
 10
233.651168703
 20
96.5674399461
 11
233.6513118539
 21
96.5231945229
  0
LINE
  5
325
100
AcDbEntity
  8
0
100
AcDbLine
 62
250
  6
CONTINUOUS
 10
233.6513284251
 20
122.1003824154
 11
233.6511693088
 21
122.1703688653
  0
LINE
  5
326
100
AcDbEntity
  8
0
100
AcDbLine
 62
7
  6
CONTINUOUS
 10
232.6112047697
 20
135.4572685345
 11
232.6112047697
 21
134.7689041941
  0
LINE
  5
327
100
AcDbEntity
  8
0
100
AcDbLine
 62
7
  6
CONTINUOUS
 10
232.6112047697
 20
123.3242957222
 11
232.6112047697
 21
117.913512666
  0
LINE
  5
328
100
AcDbEntity
  8
0
100
AcDbLine
 62
7
  6
CONTINUOUS
 10
232.6112047697
 20
100.8242957222
 11
232.6112047697
 21
95.413512666
  0
LINE
  5
329
100
AcDbEntity
  8
0
100
AcDbLine
 62
7
  6
CONTINUOUS
 10
232.6112047697
 20
83.9689041941
 11
232.6112047697
 21
83.2805398537
  0
LINE
  5
32A
100
AcDbEntity
  8
0
100
AcDbLine
 62
250
  6
CONTINUOUS
 10
232.8007375785
 20
135.185114386
 11
232.8007375785
 21
134.7499509132
  0
LINE
  5
32B
100
AcDbEntity
  8
0
100
AcDbLine
 62
250
  6
CONTINUOUS
 10
232.8007375785
 20
83.987857475
 11
232.8007375785
 21
83.5526940022
  0
LINE
  5
32C
100
AcDbEntity
  8
0
100
AcDbLine
 62
250
  6
CONTINUOUS
 10
233.0222436085
 20
122.1549031565
 11
233.0222436085
 21
121.9345607501
  0
LINE
  5
32D
100
AcDbEntity
  8
0
100
AcDbLine
 62
250
  6
CONTINUOUS
 10
233.0222436085
 20
118.6549031565
 11
233.0222436085
 21
118.2966605233
  0
LINE
  5
32E
100
AcDbEntity
  8
0
100
AcDbLine
 62
250
  6
CONTINUOUS
 10
233.0222436085
 20
99.6549031565
 11
233.0222436085
 21
99.4345607501
  0
LINE
  5
32F
100
AcDbEntity
  8
0
100
AcDbLine
 62
250
  6
CONTINUOUS
 10
233.0222436085
 20
96.5829052316
 11
233.0222436085
 21
96.803247638
  0
LINE
  5
330
100
AcDbEntity
  8
0
100
AcDbLine
 62
250
  6
CONTINUOUS
 10
233.0222436085
 20
100.0829052316
 11
233.0222436085
 21
100.4411478648
  0
LINE
  5
331
100
AcDbEntity
  8
0
100
AcDbLine
 62
250
  6
CONTINUOUS
 10
233.0222436085
 20
119.0829052316
 11
233.0222436085
 21
119.303247638
  0
LINE
  5
332
100
AcDbEntity
  8
0
100
AcDbLine
 62
250
  6
CONTINUOUS
 10
234.685432186
 20
136.296583438
 11
234.6853676759
 21
136.5186802333
  0
LINE
  5
333
100
AcDbEntity
  8
0
100
AcDbLine
 62
250
  6
CONTINUOUS
 10
234.685432186
 20
118.5790013091
 11
234.6853818488
 21
119.1384000841
  0
LINE
  5
334
100
AcDbEntity
  8
0
100
AcDbLine
 62
250
  6
CONTINUOUS
 10
234.6853675965
 20
82.2187747554
 11
234.685432186
 21
82.4412249502
  0
LINE
  5
335
100
AcDbEntity
  8
0
100
AcDbLine
 62
250
  6
CONTINUOUS
 10
233.1611555375
 20
118.0845320789
 11
233.1610565171
 21
118.2445648196
  0
LINE
  5
336
100
AcDbEntity
  8
0
100
AcDbLine
 62
250
  6
CONTINUOUS
 10
233.1611555375
 20
121.7845632886
 11
233.1611555375
 21
122.031978654
  0
LINE
  5
337
100
AcDbEntity
  8
0
100
AcDbLine
 62
250
  6
CONTINUOUS
 10
233.1611555375
 20
99.2845632886
 11
233.1611555375
 21
99.531978654
  0
LINE
  5
338
100
AcDbEntity
  8
0
100
AcDbLine
 62
250
  6
CONTINUOUS
 10
233.1611555375
 20
119.2058297341
 11
233.1611555375
 21
119.4532450995
  0
LINE
  5
339
100
AcDbEntity
  8
0
100
AcDbLine
 62
250
  6
CONTINUOUS
 10
233.1611555375
 20
96.7058297341
 11
233.1611555375
 21
96.9532450995
  0
LWPOLYLINE
  5
33A
100
AcDbEntity
  8
0
100
AcDbPolyline
 62
250
  6
CONTINUOUS
 90
3
 70
0
 10
233.1611555375
 20
100.2058297341
 10
233.1610991824
 20
100.6339844452
 10
233.1611555375
 20
100.6532763093
  0
LINE
  5
33B
100
AcDbEntity
  8
0
100
AcDbLine
 62
250
  6
CONTINUOUS
 10
233.1610565171
 20
118.2445648196
 11
233.1611555375
 21
118.531978654
  0
LINE
  5
33C
100
AcDbEntity
  8
0
100
AcDbLine
 62
250
  6
CONTINUOUS
 10
234.6853818488
 20
119.1384000841
 11
234.685432186
 21
119.158807079
  0
LINE
  5
33D
100
AcDbEntity
  8
0
100
AcDbLine
 62
250
  6
CONTINUOUS
 10
234.685432186
 20
99.5790013091
 11
234.685432186
 21
100.158807079
  0
LINE
  5
33E
100
AcDbEntity
  8
0
100
AcDbLine
 62
250
  6
CONTINUOUS
 10
233.6513272167
 20
96.6374267758
 11
233.651168703
 21
96.5674399461
  0
LINE
  5
33F
100
AcDbEntity
  8
0
100
AcDbLine
 62
250
  6
CONTINUOUS
 10
233.6511693088
 20
122.1703688653
 11
233.6513118539
 21
122.2146138653
  0
LINE
  5
340
100
AcDbEntity
  8
0
100
AcDbLine
 62
250
  6
CONTINUOUS
 10
233.6516732829
 20
96.6827673498
 11
233.6513272167
 21
96.6374267758
  0
LINE
  5
341
100
AcDbEntity
  8
0
100
AcDbLine
 62
250
  6
CONTINUOUS
 10
233.6511693088
 20
82.8449524569
 11
233.6513118539
 21
82.860296746
  0
LINE
  5
342
100
AcDbEntity
  8
0
100
AcDbLine
 62
250
  6
CONTINUOUS
 10
233.6521910423
 20
96.7241399772
 11
233.6516732829
 21
96.6827673498
  0
LWPOLYLINE
  5
343
100
AcDbEntity
  8
0
100
AcDbPolyline
 62
250
  6
CONTINUOUS
 90
4
 70
0
 10
233.6512133968
 20
135.897525513
 10
233.6511718107
 20
135.8965427217
 10
233.651168703
 20
135.8928560131
 10
233.6513118539
 20
135.8775116422
  0
LWPOLYLINE
  5
344
100
AcDbEntity
  8
0
100
AcDbPolyline
 62
250
  6
CONTINUOUS
 90
6
 70
0
 10
233.6544532678
 20
96.8035826119
 10
233.6540314208
 20
96.7961941182
 10
233.653620211
 20
96.7862501951
 10
233.653225294
 20
96.7738876036
 10
233.6528520989
 20
96.7592763738
 10
233.6521910423
 20
96.7241399772
  0
LINE
  5
345
100
AcDbEntity
  8
0
100
AcDbLine
 62
7
  6
CONTINUOUS
 10
235.6112047697
 20
66.5689041941
 11
235.6112047697
 21
152.1689041941
  0
LINE
  5
346
100
AcDbEntity
  8
SMUSSO
100
AcDbLine
 62
7
  6
CONTINUOUS
 10
236.2112047697
 20
64.3689041941
 11
236.2112047697
 21
154.3689041941
  0
LWPOLYLINE
  5
347
100
AcDbEntity
  8
0
100
AcDbPolyline
 62
250
  6
CONTINUOUS
 90
10
 70
0
 10
233.0222436085
 20
100.4411478648
 10
233.0339373852
 20
100.4681322888
 10
233.0468970966
 20
100.4948455564
 10
233.0609945191
 20
100.5210252104
 10
233.0760879556
 20
100.546410425
 10
233.0920306656
 20
100.570756561
 10
233.1086735536
 20
100.5938357915
 10
233.1258563085
 20
100.6154235751
 10
233.1434077832
 20
100.6353027249
 10
233.1611555375
 20
100.6532763093
  0
LWPOLYLINE
  5
348
100
AcDbEntity
  8
0
100
AcDbPolyline
 62
250
  6
CONTINUOUS
 90
10
 70
0
 10
233.0222436085
 20
118.2966605233
 10
233.0339902227
 20
118.2695610432
 10
233.0469854777
 20
118.2427901196
 10
233.06109286
 20
118.2166095222
 10
233.0761438954
 20
118.1913083435
 10
233.0920050542
 20
118.1670891055
 10
233.1085905655
 20
118.1440822118
 10
233.1257675901
 20
118.1224907575
 10
233.143346494
 20
118.1025713997
 10
233.1611555375
 20
118.0845320789
  0
LWPOLYLINE
  5
349
100
AcDbEntity
  8
0
100
AcDbPolyline
 62
250
  6
CONTINUOUS
 90
16
 70
0
 10
233.3240083627
 20
122.1972785655
 10
233.3344426156
 20
122.1724824025
 10
233.3466645227
 20
122.1483140344
 10
233.3606046441
 20
122.1249480843
 10
233.3761155425
 20
122.1027586418
 10
233.3931801943
 20
122.0816573886
 10
233.4119882855
 20
122.0611638237
 10
233.4326095538
 20
122.0413512102
 10
233.4549364774
 20
122.0225528975
 10
233.478965864
 20
122.0047896034
 10
233.504736623
 20
121.9883073097
 10
233.532127982
 20
121.9733924844
 10
233.5609023418
 20
121.9602122118
 10
233.5909243176
 20
121.9490539042
 10
233.6221497521
 20
121.9402838091
 10
233.6544532695
 20
121.934225776
  0
LWPOLYLINE
  5
34A
100
AcDbEntity
  8
0
100
AcDbPolyline
 62
250
  6
CONTINUOUS
 90
10
 70
0
 10
233.0222436085
 20
96.803247638
 10
233.0353991519
 20
96.821235833
 10
233.0493346516
 20
96.8391497251
 10
233.063971238
 20
96.8568820996
 10
233.079238097
 20
96.874340295
 10
233.0950347305
 20
96.8914027709
 10
233.111227636
 20
96.9079237621
 10
233.1277049672
 20
96.9237923578
 10
233.144380931
 20
96.9389290727
 10
233.1611555375
 20
96.9532450995
  0
LWPOLYLINE
  5
34B
100
AcDbEntity
  8
0
100
AcDbPolyline
 62
7
  6
CONTINUOUS
 90
7
 70
0
 10
233.0222436085
 20
100.0829052316
 10
233.044883998
 20
100.1052631479
 10
233.0679725217
 20
100.1268728644
 10
233.0913177612
 20
100.1477343814
 10
233.1147396521
 20
100.1678476986
 10
233.1380704651
 20
100.1872128162
 10
233.1611555375
 20
100.2058297341
  0
LINE
  5
34C
100
AcDbEntity
  8
0
100
AcDbLine
 62
250
  6
CONTINUOUS
 10
232.6112047697
 20
99.0614329314
 11
233.0222436085
 21
99.4345607501
  0
LINE
  5
34D
100
AcDbEntity
  8
0
100
AcDbLine
 62
250
  6
CONTINUOUS
 10
232.7615206779
 20
98.9217876348
 11
233.1611555375
 21
99.2845632886
  0
LWPOLYLINE
  5
34E
100
AcDbEntity
  8
0
100
AcDbPolyline
 62
250
  6
CONTINUOUS
 90
22
 70
0
 10
234.685432186
 20
100.158807079
 10
234.6786588138
 20
100.1552942279
 10
234.6717786509
 20
100.1510694484
 10
234.6648086844
 20
100.1461065904
 10
234.6578050508
 20
100.1404126774
 10
234.6507499414
 20
100.1339416742
 10
234.643555683
 20
100.1265603748
 10
234.6362368117
 20
100.1182058351
 10
234.6288415432
 20
100.1088483714
 10
234.6213462259
 20
100.0983607699
 10
234.6137895332
 20
100.0866792233
 10
234.6062324879
 20
100.0737721027
 10
234.5987014947
 20
100.0595425097
 10
234.5912703827
 20
100.0439684574
 10
234.5840099156
 20
100.0270222748
 10
234.5769642877
 20
100.0085951052
 10
234.570217712
 20
99.9886487393
 10
234.5638954336
 20
99.967253048
 10
234.5581210444
 20
99.944485535
 10
234.5530158473
 20
99.9204421131
 10
234.5486997262
 20
99.8952378821
 10
234.5452985361
 20
99.8690297725
  0
LINE
  5
34F
100
AcDbEntity
  8
0
100
AcDbLine
 62
250
  6
CONTINUOUS
 10
233.5859133261
 20
118.4246010333
 11
234.685432186
 21
118.5790013091
  0
LINE
  5
350
100
AcDbEntity
  8
0
100
AcDbLine
 62
250
  6
CONTINUOUS
 10
234.546192808
 20
118.8689041941
 11
233.0222436085
 21
118.6549031565
  0
LINE
  5
351
100
AcDbEntity
  8
0
100
AcDbLine
 62
7
  6
CONTINUOUS
 10
233.5859133261
 20
118.4246010333
 11
235.6112047697
 21
118.4240987269
  0
LINE
  5
352
100
AcDbEntity
  8
0
100
AcDbLine
 62
250
  6
CONTINUOUS
 10
234.685432186
 20
118.5790013091
 11
235.6112047697
 21
118.5774405859
  0
LINE
  5
353
100
AcDbEntity
  8
0
100
AcDbLine
 62
250
  6
CONTINUOUS
 10
233.1611555375
 20
118.0845320789
 11
235.6112047697
 21
118.0786278914
  0
LINE
  5
354
100
AcDbEntity
  8
0
100
AcDbLine
 62
250
  6
CONTINUOUS
 10
233.0222436085
 20
118.2966605233
 11
235.6112047697
 21
118.2907563358
  0
LINE
  5
355
100
AcDbEntity
  8
0
100
AcDbLine
 62
7
  6
CONTINUOUS
 10
235.6112047697
 20
117.5664964148
 11
232.8007375785
 21
117.713786759
  0
LWPOLYLINE
  5
356
100
AcDbEntity
  8
0
100
AcDbPolyline
 62
250
  6
CONTINUOUS
 90
19
 70
0
 10
234.685432186
 20
118.5790013091
 10
234.6774740018
 20
118.5831864532
 10
234.6691629583
 20
118.5885036911
 10
234.6605325298
 20
118.5950666584
 10
234.6516153819
 20
118.6029971895
 10
234.6424714937
 20
118.612392238
 10
234.6331867057
 20
118.6233074184
 10
234.6238337939
 20
118.6358057811
 10
234.6144832302
 20
118.6499580352
 10
234.6052282437
 20
118.6657956486
 10
234.5961327329
 20
118.683403128
 10
234.5873326513
 20
118.7027280937
 10
234.5790217208
 20
118.7235247162
 10
234.5712755724
 20
118.7457620812
 10
234.5642130397
 20
118.7692898516
 10
234.5580333188
 20
118.7935742002
 10
234.5528138488
 20
118.8183029607
 10
234.548557271
 20
118.8434313616
 10
234.5452985361
 20
118.8687786157
  0
LWPOLYLINE
  5
357
100
AcDbEntity
  8
0
100
AcDbPolyline
 62
7
  6
CONTINUOUS
 90
7
 70
0
 10
233.1611555375
 20
118.531978654
 10
233.1380382024
 20
118.5506233105
 10
233.1146885264
 20
118.5700050713
 10
233.0912611727
 20
118.5901239363
 10
233.0679233864
 20
118.6109799055
 10
233.044854235
 20
118.6325729789
 10
233.0222436085
 20
118.6549031565
  0
LINE
  5
358
100
AcDbEntity
  8
0
100
AcDbLine
 62
250
  6
CONTINUOUS
 10
233.0222436085
 20
119.303247638
 11
232.6112047697
 21
119.6763754568
  0
LINE
  5
359
100
AcDbEntity
  8
0
100
AcDbLine
 62
250
  6
CONTINUOUS
 10
233.1611555375
 20
119.4532450995
 11
232.7615206779
 21
119.8160207534
  0
LWPOLYLINE
  5
35A
100
AcDbEntity
  8
0
100
AcDbPolyline
 62
250
  6
CONTINUOUS
 90
10
 70
0
 10
233.0222436085
 20
121.9345607501
 10
233.0353439474
 20
121.9166457276
 10
233.0492327668
 20
121.8987858072
 10
233.0638341173
 20
121.881087708
 10
233.0790793798
 20
121.863644535
 10
233.0948702691
 20
121.8465783202
 10
233.1110755417
 20
121.8300354475
 10
233.1275845002
 20
121.8141287142
 10
233.1443113014
 20
121.7989406298
 10
233.1611555375
 20
121.7845632886
  0
LINE
  5
35B
100
AcDbEntity
  8
SMUSSO
100
AcDbLine
 62
7
  6
CONTINUOUS
 10
241.7618139427
 20
153.1744638485
 11
241.7618139427
 21
65.5633445397
  0
LINE
  5
35C
100
AcDbEntity
  8
SMUSSO
100
AcDbLine
 62
7
  6
CONTINUOUS
 10
241.776752312
 20
154.1596035164
 11
241.776752312
 21
153.188889664
  0
LINE
  5
35D
100
AcDbEntity
  8
SMUSSO
100
AcDbLine
 62
7
  6
CONTINUOUS
 10
241.776752312
 20
65.5489187242
 11
241.776752312
 21
64.5782048717
  0
LINE
  5
35E
100
AcDbEntity
  8
SMUSSO
100
AcDbLine
 62
7
  6
CONTINUOUS
 10
242.7612047697
 20
153.1401731539
 11
242.7612047697
 21
65.5976352342
  0
LWPOLYLINE
  5
35F
100
AcDbEntity
  8
0
100
AcDbPolyline
 62
250
  6
CONTINUOUS
 90
3
 70
0
 10
233.4142893804
 20
96.452836663
 10
233.3311242763
 20
96.3654196354
 10
233.2465070449
 20
96.2772644661
  0
LWPOLYLINE
  5
360
100
AcDbEntity
  8
0
100
AcDbPolyline
 62
250
  6
CONTINUOUS
 90
7
 70
0
 10
233.3240083627
 20
96.5405298227
 10
233.2119429588
 20
96.4236544785
 10
233.0971834769
 20
96.3054493291
 10
232.9797299171
 20
96.1859143745
 10
232.8595822793
 20
96.0650496147
 10
232.7367405635
 20
95.9428550497
 10
232.6112047697
 20
95.8193306796
  0
LWPOLYLINE
  5
361
100
AcDbEntity
  8
0
100
AcDbPolyline
 62
250
  6
CONTINUOUS
 90
4
 70
0
 10
233.2465070449
 20
96.2772644661
 10
233.0730022032
 20
96.0988316234
 10
232.984114593
 20
96.0085657207
 10
232.8935168455
 20
95.9173810283
  0
LWPOLYLINE
  5
362
100
AcDbEntity
  8
0
100
AcDbPolyline
 62
250
  6
CONTINUOUS
 90
3
 70
0
 10
232.8935168455
 20
95.9173810283
 10
232.7070189323
 20
95.7321496537
 10
232.6112047698
 20
95.6381867239
  0
LWPOLYLINE
  5
363
100
AcDbEntity
  8
0
100
AcDbPolyline
 62
7
  6
CONTINUOUS
 90
7
 70
0
 10
233.0222436085
 20
96.5829052316
 10
233.044883998
 20
96.6052631479
 10
233.0679725217
 20
96.6268728644
 10
233.0913177612
 20
96.6477343814
 10
233.1147396521
 20
96.6678476986
 10
233.1380704651
 20
96.6872128162
 10
233.1611555375
 20
96.7058297341
  0
LINE
  5
364
100
AcDbEntity
  8
0
100
AcDbLine
 62
250
  6
CONTINUOUS
 10
233.5856365019
 20
121.9245621602
 11
233.6544532695
 21
121.934225776
  0
LINE
  5
365
100
AcDbEntity
  8
0
100
AcDbLine
 62
250
  6
CONTINUOUS
 10
233.3240083627
 20
122.1972785655
 11
233.0222436085
 21
122.1549031565
  0
LWPOLYLINE
  5
366
100
AcDbEntity
  8
0
100
AcDbPolyline
 62
7
  6
CONTINUOUS
 90
7
 70
0
 10
233.4359484109
 20
119.3036760079
 10
233.4618970553
 20
119.3067736682
 10
233.4874648387
 20
119.3092201027
 10
233.5126356861
 20
119.3110522186
 10
233.5373956123
 20
119.3123080373
 10
233.561732605
 20
119.3130263203
 10
233.5856365019
 20
119.313246228
  0
LINE
  5
367
100
AcDbEntity
  8
0
100
AcDbLine
 62
250
  6
CONTINUOUS
 10
233.6544532695
 20
121.934225776
 11
235.6112047697
 21
121.9400969236
  0
LINE
  5
368
100
AcDbEntity
  8
0
100
AcDbLine
 62
250
  6
CONTINUOUS
 10
234.685432186
 20
119.158807079
 11
235.6112047697
 21
119.1603678023
  0
LINE
  5
369
100
AcDbEntity
  8
0
100
AcDbLine
 62
250
  6
CONTINUOUS
 10
233.1611555375
 20
119.4532450995
 11
235.6112047697
 21
119.4570644391
  0
LINE
  5
36A
100
AcDbEntity
  8
0
100
AcDbLine
 62
7
  6
CONTINUOUS
 10
235.6112047697
 20
119.8204630769
 11
232.7615206779
 21
119.8160207534
  0
LINE
  5
36B
100
AcDbEntity
  8
0
100
AcDbLine
 62
7
  6
CONTINUOUS
 10
233.5856365019
 20
119.313246228
 11
235.6112047697
 21
119.3137295399
  0
LINE
  5
36C
100
AcDbEntity
  8
0
100
AcDbLine
 62
250
  6
CONTINUOUS
 10
233.4359484109
 20
119.3036760079
 11
233.0222436086
 21
119.303247639
  0
LINE
  5
36D
100
AcDbEntity
  8
0
100
AcDbLine
 62
7
  6
CONTINUOUS
 10
235.6112047697
 20
121.9240788483
 11
233.5856365019
 21
121.9245621602
  0
LINE
  5
36E
100
AcDbEntity
  8
0
100
AcDbLine
 62
7
  6
CONTINUOUS
 10
235.6112047697
 20
121.4173453113
 11
232.7615206779
 21
121.4217876348
  0
LINE
  5
36F
100
AcDbEntity
  8
0
100
AcDbLine
 62
250
  6
CONTINUOUS
 10
233.1611555375
 20
121.7845632886
 11
235.6112047697
 21
121.780743949
  0
LINE
  5
370
100
AcDbEntity
  8
0
100
AcDbLine
 62
250
  6
CONTINUOUS
 10
233.0222436085
 20
121.9345607501
 11
233.4359484109
 21
121.9341323803
  0
LWPOLYLINE
  5
371
100
AcDbEntity
  8
0
100
AcDbPolyline
 62
7
  6
CONTINUOUS
 90
7
 70
0
 10
233.5856365019
 20
121.9245621602
 10
233.5618009493
 20
121.9247804631
 10
233.5375049007
 20
121.9254957632
 10
233.5127585154
 20
121.9267486882
 10
233.4875738652
 20
121.9285795369
 10
233.4619650672
 20
121.9310279223
 10
233.4359484109
 20
121.9341323803
  0
LINE
  5
372
100
AcDbEntity
  8
0
100
AcDbLine
 62
250
  6
CONTINUOUS
 10
233.0222436085
 20
119.0829052316
 11
234.546192808
 21
118.8689041941
  0
LINE
  5
373
100
AcDbEntity
  8
0
100
AcDbLine
 62
250
  6
CONTINUOUS
 10
234.685432186
 20
119.158807079
 11
233.5856365019
 21
119.313246228
  0
LWPOLYLINE
  5
374
100
AcDbEntity
  8
0
100
AcDbPolyline
 62
7
  6
CONTINUOUS
 90
7
 70
0
 10
233.1611555375
 20
122.031978654
 10
233.1380382024
 20
122.0506233105
 10
233.1146885264
 20
122.0700050713
 10
233.0912611727
 20
122.0901239363
 10
233.0679233864
 20
122.1109799055
 10
233.044854235
 20
122.1325729789
 10
233.0222436085
 20
122.1549031565
  0
LWPOLYLINE
  5
375
100
AcDbEntity
  8
0
100
AcDbPolyline
 62
250
  6
CONTINUOUS
 90
16
 70
0
 10
233.4142893804
 20
122.2849717252
 10
233.4225813465
 20
122.2772448122
 10
233.4319462371
 20
122.2699074337
 10
233.4423840522
 20
122.262959739
 10
233.4538672634
 20
122.2564123522
 10
233.4664233991
 20
122.2502549304
 10
233.480135044
 20
122.2444561491
 10
233.4950532729
 20
122.2389536359
 10
233.511127011
 20
122.2338099655
 10
233.5282856185
 20
122.2291812638
 10
233.5466006004
 20
122.2250429887
 10
233.5660004518
 20
122.2214199439
 10
233.5862000183
 20
122.218542363
 10
233.6071042484
 20
122.2164871018
 10
233.6288081936
 20
122.2151775738
 10
233.6513118539
 20
122.2146138653
  0
LWPOLYLINE
  5
376
100
AcDbEntity
  8
0
100
AcDbPolyline
 62
250
  6
CONTINUOUS
 90
7
 70
0
 10
232.6112047697
 20
123.0996216643
 10
232.7370716774
 20
122.9762898229
 10
232.8661307961
 20
122.8480269609
 10
232.9983821257
 20
122.7147988429
 10
233.1338256663
 20
122.5765706156
 10
233.2724614178
 20
122.4333068733
 10
233.4142893804
 20
122.2849717252
  0
LWPOLYLINE
  5
377
100
AcDbEntity
  8
0
100
AcDbPolyline
 62
250
  6
CONTINUOUS
 90
7
 70
0
 10
232.6112047697
 20
122.9184777493
 10
232.7233848446
 20
122.8084601031
 10
232.8382131291
 20
122.6943695697
 10
232.9556896231
 20
122.5762061493
 10
233.0758143267
 20
122.4539698418
 10
233.1985872399
 20
122.3276606472
 10
233.3240083627
 20
122.1972785655
  0
LWPOLYLINE
  5
378
100
AcDbEntity
  8
0
100
AcDbPolyline
 62
7
  6
CONTINUOUS
 90
13
 70
0
 43
0.3500000006
 10
245.1932407837
 20
178.5331140747
 10
245.1932407837
 20
179.8188209839
 10
245.4075252686
 20
180.2473899536
 10
245.8360942383
 20
180.6759589233
 10
246.0503787231
 20
180.6759589233
 10
246.4789476929
 20
180.2473899536
 10
246.6932321777
 20
179.8188209839
 10
246.6932321777
 20
178.5331140747
 10
246.4789476929
 20
178.1045269775
 10
246.0503787231
 20
177.6759580078
 10
245.8360942383
 20
177.6759580078
 10
245.4075252686
 20
178.1045269775
 10
245.1932407837
 20
178.5331140747
  0
LWPOLYLINE
  5
379
100
AcDbEntity
  8
0
100
AcDbPolyline
 62
7
  6
CONTINUOUS
 90
4
 70
0
 43
0.3500000006
 10
247.5163267822
 20
170.8262323608
 10
247.5163267822
 20
171.4690858154
 10
249.0163363037
 20
171.4690858154
 10
248.1591802368
 20
168.4690848999
  0
LWPOLYLINE
  5
37A
100
AcDbEntity
  8
0
100
AcDbPolyline
 62
250
  6
CONTINUOUS
 90
22
 70
0
 10
234.685432186
 20
82.4412249502
 10
234.6786588138
 20
82.4294310907
 10
234.6717786509
 20
82.4176152691
 10
234.6648086844
 20
82.4058164052
 10
234.6578050508
 20
82.3941353985
 10
234.6507499414
 20
82.382553875
 10
234.643555683
 20
82.3709508989
 10
234.6362368117
 20
82.3593734759
 10
234.6288415432
 20
82.3479173219
 10
234.6213462259
 20
82.3365716146
 10
234.6137895332
 20
82.325426108
 10
234.6062324879
 20
82.314604112
 10
234.5987014947
 20
82.3041810313
 10
234.5912703827
 20
82.2943017746
 10
234.5840099156
 20
82.2851069669
 10
234.5769642877
 20
82.2767086716
 10
234.570217712
 20
82.2692788727
 10
234.5638954336
 20
82.2630318056
 10
234.5581210444
 20
82.2581701259
 10
234.5530158473
 20
82.2548937561
 10
234.5486997262
 20
82.2534013198
 10
234.5452985361
 20
82.253888398
  0
LINE
  5
37B
100
AcDbEntity
  8
0
100
AcDbLine
 62
7
  6
CONTINUOUS
 10
235.6112047697
 20
123.6713119734
 11
232.8007375785
 21
123.5240216291
  0
LINE
  5
37C
100
AcDbEntity
  8
0
100
AcDbLine
 62
250
  6
CONTINUOUS
 10
233.6513118539
 20
122.2146138653
 11
235.6112047697
 21
122.2204328961
  0
LINE
  5
37D
100
AcDbEntity
  8
0
100
AcDbLine
 62
7
  6
CONTINUOUS
 10
235.6112047697
 20
123.5926609483
 11
234.6093248499
 21
123.6188056717
  0
LWPOLYLINE
  5
37E
100
AcDbEntity
  8
0
100
AcDbPolyline
 62
250
  6
CONTINUOUS
 90
12
 70
0
 10
234.685432186
 20
136.296583438
 10
234.6774740018
 20
136.310399185
 10
234.6691629583
 20
136.3245975362
 10
234.6605325298
 20
136.3390853681
 10
234.6516153819
 20
136.3537746936
 10
234.6424714937
 20
136.3685210886
 10
234.6331867057
 20
136.3831307807
 10
234.6238337939
 20
136.3974442065
 10
234.6144832302
 20
136.4113156815
 10
234.6052282437
 20
136.4245612473
 10
234.5961327329
 20
136.4370381711
 10
234.5873326513
 20
136.4485041883
  0
LINE
  5
37F
100
AcDbEntity
  8
0
100
AcDbLine
 62
7
  6
CONTINUOUS
 10
234.9612047697
 20
84.3189041941
 11
234.8112047697
 21
84.1689041941
  0
LINE
  5
380
100
AcDbEntity
  8
0
100
AcDbLine
 62
7
  6
CONTINUOUS
 10
235.4612047697
 20
84.3189041941
 11
235.3112047697
 21
84.1689041941
  0
LINE
  5
381
100
AcDbEntity
  8
0
100
AcDbLine
 62
7
  6
CONTINUOUS
 10
234.9612047697
 20
134.4189041941
 11
234.8112047697
 21
134.5689041941
  0
LINE
  5
382
100
AcDbEntity
  8
0
100
AcDbLine
 62
7
  6
CONTINUOUS
 10
235.4612047697
 20
134.4189041941
 11
235.3112047697
 21
134.5689041941
  0
LWPOLYLINE
  5
383
100
AcDbEntity
  8
0
100
AcDbPolyline
 62
250
  6
CONTINUOUS
 90
8
 70
0
 10
234.5873326513
 20
136.4485041883
 10
234.5790217208
 20
136.4586593811
 10
234.5712755724
 20
136.4673636604
 10
234.5642130397
 20
136.4744387155
 10
234.5580333188
 20
136.4796678639
 10
234.5528138488
 20
136.4829935876
 10
234.548557271
 20
136.4844169685
 10
234.5452985361
 20
136.4839199902
  0
LINE
  5
384
100
AcDbEntity
  8
0
100
AcDbLine
 62
7
  6
CONTINUOUS
 10
235.6112047697
 20
134.4189041941
 11
235.4612047697
 21
134.4189041941
  0
LINE
  5
385
100
AcDbEntity
  8
0
100
AcDbLine
 62
7
  6
CONTINUOUS
 10
235.1612047697
 20
134.4189041941
 11
234.9612047697
 21
134.4189041941
  0
LWPOLYLINE
  5
386
100
AcDbEntity
  8
0
100
AcDbPolyline
 62
250
  6
CONTINUOUS
 90
14
 70
0
 10
233.5646746705
 20
135.8724056608
 10
233.5492385324
 20
135.87074391
 10
233.5347200156
 20
135.8689510578
 10
233.5210020934
 20
135.867008664
 10
233.5079657247
 20
135.8649494181
 10
233.4956780389
 20
135.8628095741
 10
233.4840719066
 20
135.8605526681
 10
233.472826898
 20
135.8581022602
 10
233.4617625074
 20
135.855450111
 10
233.4510592405
 20
135.8526040094
 10
233.4409381856
 20
135.8495113898
 10
233.4314730386
 20
135.8461544495
 10
233.4225901036
 20
135.8425502289
 10
233.4142893804
 20
135.8386983076
  0
LWPOLYLINE
  5
387
100
AcDbEntity
  8
0
100
AcDbPolyline
 62
250
  6
CONTINUOUS
 90
4
 70
0
 10
233.61501319
 20
135.8762029908
 10
233.5977166918
 20
135.8751935747
 10
233.5809114033
 20
135.8739180903
 10
233.5646746705
 20
135.8724056608
  0
LINE
  5
388
100
AcDbEntity
  8
0
100
AcDbLine
 62
7
  6
CONTINUOUS
 10
234.6093248499
 20
135.1689872492
 11
235.6112047697
 21
135.2033750937
  0
LWPOLYLINE
  5
389
100
AcDbEntity
  8
0
100
AcDbPolyline
 62
7
  6
CONTINUOUS
 90
16
 70
0
 10
233.6454795677
 20
135.8974094545
 10
233.6207623599
 20
135.8966109284
 10
233.5963819929
 20
135.8953530628
 10
233.5724229671
 20
135.8936641157
 10
233.5488736957
 20
135.891555146
 10
233.5257548674
 20
135.8890313822
 10
233.5031789937
 20
135.8861056157
 10
233.4810868079
 20
135.8827573197
 10
233.4595070186
 20
135.8789728309
 10
233.4386342722
 20
135.8747568972
 10
233.418427331
 20
135.8700745198
 10
233.398783148
 20
135.8648402913
 10
233.3796453449
 20
135.8589686788
 10
233.3606703887
 20
135.8522319638
 10
233.3420024768
 20
135.8444563243
 10
233.3239098799
 20
135.8355851197
  0
LWPOLYLINE
  5
38A
100
AcDbEntity
  8
0
100
AcDbPolyline
 62
250
  6
CONTINUOUS
 90
3
 70
0
 10
233.6513118539
 20
135.8775116422
 10
233.632878244
 20
135.876975663
 10
233.61501319
 20
135.8762029908
  0
LINE
  5
38B
100
AcDbEntity
  8
0
100
AcDbLine
 62
250
  6
CONTINUOUS
 10
235.6112047697
 20
135.9127050387
 11
233.6513118539
 21
135.8775116422
  0
LINE
  5
38C
100
AcDbEntity
  8
0
100
AcDbLine
 62
7
  6
CONTINUOUS
 10
235.6112047697
 20
135.9326903442
 11
233.6454795677
 21
135.8974094545
  0
LINE
  5
38D
100
AcDbEntity
  8
0
100
AcDbLine
 62
7
  6
CONTINUOUS
 10
235.6112047697
 20
136.5206495251
 11
234.6853677309
 21
136.519033633
  0
LINE
  5
38E
100
AcDbEntity
  8
0
100
AcDbLine
 62
250
  6
CONTINUOUS
 10
234.685432186
 20
136.296583438
 11
235.6112047697
 21
136.2970016325
  0
LINE
  5
38F
100
AcDbEntity
  8
0
100
AcDbLine
 62
7
  6
CONTINUOUS
 10
235.6112047697
 20
134.5689041941
 11
234.6610803909
 21
134.5689041941
  0
LINE
  5
390
100
AcDbEntity
  8
0
100
AcDbLine
 62
7
  6
CONTINUOUS
 10
235.6112047697
 20
135.1247240686
 11
234.6093247408
 21
135.168987254
  0
LINE
  5
391
100
AcDbEntity
  8
0
100
AcDbLine
 62
7
  6
CONTINUOUS
 10
232.6112047697
 20
134.7689041941
 11
234.5615766718
 21
134.5738670039
  0
LINE
  5
392
100
AcDbEntity
  8
SMUSSO
100
AcDbLine
 62
7
  6
CONTINUOUS
 10
241.7618139427
 20
64.5627357375
 11
242.7612047697
 21
65.5976352342
  0
LINE
  5
393
100
AcDbEntity
  8
SMUSSO
100
AcDbLine
 62
7
  6
CONTINUOUS
 10
242.7612047697
 20
153.1401731539
 11
241.7618139427
 21
154.1750726506
  0
LINE
  5
394
100
AcDbEntity
  8
SMUSSO
100
AcDbLine
 62
7
  6
CONTINUOUS
 10
242.7612047697
 20
65.9921667839
 11
241.776752312
 21
65.5489187242
  0
LWPOLYLINE
  5
395
100
AcDbEntity
  8
0
100
AcDbPolyline
 62
7
  6
CONTINUOUS
 90
8
 70
0
 43
0.3500000006
 10
253.3020441284
 20
168.4690848999
 10
254.1591820679
 20
168.4690848999
 10
254.5877510376
 20
168.8976719971
 10
254.5877510376
 20
169.7548099365
 10
254.1591820679
 20
170.1833789063
 10
253.3020441284
 20
170.1833789063
 10
253.3020441284
 20
171.4690858154
 10
254.5877510376
 20
171.4690858154
  0
LWPOLYLINE
  5
396
100
AcDbEntity
  8
0
100
AcDbPolyline
 62
7
  6
CONTINUOUS
 90
8
 70
0
 43
0.3500000006
 10
250.9789581299
 20
177.6759580078
 10
251.8360960693
 20
177.6759580078
 10
252.2646650391
 20
178.1045269775
 10
252.2646650391
 20
178.9616830444
 10
251.8360960693
 20
179.3902520142
 10
250.9789581299
 20
179.3902520142
 10
250.9789581299
 20
180.6759589233
 10
252.2646650391
 20
180.6759589233
  0
LINE
  5
397
100
AcDbEntity
  8
SMUSSO
100
AcDbLine
 62
7
  6
CONTINUOUS
 10
241.7618139427
 20
153.1744638485
 11
236.2112047697
 21
153.368295392
  0
LINE
  5
398
100
AcDbEntity
  8
SMUSSO
100
AcDbLine
 62
7
  6
CONTINUOUS
 10
241.7618139427
 20
154.1750726506
 11
236.2112047697
 21
154.3689041941
  0
LINE
  5
399
100
AcDbEntity
  8
0
100
AcDbLine
 62
250
  6
CONTINUOUS
 10
235.6112047697
 20
150.5728017137
 11
236.2112047697
 21
150.5308456265
  0
LINE
  5
39A
100
AcDbEntity
  8
0
100
AcDbLine
 62
7
  6
CONTINUOUS
 10
235.6112047697
 20
152.1689041941
 11
236.2112047697
 21
152.1269481069
  0
LINE
  5
39B
100
AcDbEntity
  8
SMUSSO
100
AcDbLine
 62
7
  6
CONTINUOUS
 10
242.7612047697
 20
152.7456416043
 11
241.776752312
 21
153.188889664
  0
LWPOLYLINE
  5
39C
100
AcDbEntity
  8
0
100
AcDbPolyline
 62
7
  6
CONTINUOUS
 90
10
 70
0
 43
0.3500000006
 10
250.5163276978
 20
168.9690941162
 10
250.5877498169
 20
168.8262317505
 10
250.5877498169
 20
168.7548096313
 10
250.4449055786
 20
168.6119472656
 10
250.373465332
 20
168.6119472656
 10
250.3020432129
 20
168.6833875122
 10
250.3020432129
 20
168.7548096313
 10
250.373465332
 20
168.8976719971
 10
250.4449055786
 20
168.9690941162
 10
250.5163276978
 20
168.9690941162
  0
LWPOLYLINE
  5
39D
100
AcDbEntity
  8
0
100
AcDbPolyline
 62
7
  6
CONTINUOUS
 90
10
 70
0
 43
0.3500000006
 10
248.1932416992
 20
178.1759672241
 10
248.2646638184
 20
178.0331048584
 10
248.2646638184
 20
177.9616827393
 10
248.1218014526
 20
177.8188203735
 10
248.0503793335
 20
177.8188203735
 10
247.9789572144
 20
177.8902424927
 10
247.9789572144
 20
177.9616827393
 10
248.0503793335
 20
178.1045269775
 10
248.1218014526
 20
178.1759672241
 10
248.1932416992
 20
178.1759672241
  0
ARC
  5
39E
100
AcDbEntity
  8
0
100
AcDbCircle
 62
7
  6
CONTINUOUS
 10
234.6610803909
 20
83.1689041941
 40
1.0
100
AcDbArc
 50
90.0
 51
95.7105931375
  0
ARC
  5
39F
100
AcDbEntity
  8
0
100
AcDbCircle
 62
7
  6
CONTINUOUS
 10
234.6610803909
 20
135.5689041941
 40
1.0
100
AcDbArc
 50
264.2894068625
 51
270.0
  0
ARC
  5
3A0
100
AcDbEntity
  8
0
100
AcDbCircle
 62
7
  6
CONTINUOUS
 10
234.6858915569
 20
82.5189046386
 40
0.3
100
AcDbArc
 50
242.0510127541
 51
269.8999998573
  0
ARC
  5
3A1
100
AcDbEntity
  8
0
100
AcDbCircle
 62
7
  6
CONTINUOUS
 10
234.6858915569
 20
136.2189037495
 40
0.3
100
AcDbArc
 50
90.1000001427
 51
117.9489872459
  0
ARC
  5
3A2
100
AcDbEntity
  8
0
100
AcDbCircle
 62
7
  6
CONTINUOUS
 10
232.8112047697
 20
95.413512666
 40
0.2
100
AcDbArc
 50
180.0
 51
267.0
  0
ARC
  5
3A3
100
AcDbEntity
  8
0
100
AcDbCircle
 62
7
  6
CONTINUOUS
 10
232.8112047697
 20
100.8242957222
 40
0.2
100
AcDbArc
 50
93.0
 51
180.0
  0
ARC
  5
3A4
100
AcDbEntity
  8
0
100
AcDbCircle
 62
7
  6
CONTINUOUS
 10
232.8112047697
 20
123.3242957222
 40
0.2
100
AcDbArc
 50
93.0
 51
180.0
  0
ARC
  5
3A5
100
AcDbEntity
  8
0
100
AcDbCircle
 62
7
  6
CONTINUOUS
 10
232.8112047697
 20
117.913512666
 40
0.2
100
AcDbArc
 50
180.0
 51
267.0
  0
ELLIPSE
  5
3A6
100
AcDbEntity
  8
RACCORDO
100
AcDbEllipse
 62
7
  6
CONTINUOUS
 10
188.2934336562
 20
131.467683245
 30
0.0
 11
0.3552779753
 21
0.3552779753
 31
0.0
 40
0.9951458158
 41
-0.782965171
 42
0.782965171
  0
ELLIPSE
  5
3A7
100
AcDbEntity
  8
RACCORDO
100
AcDbEllipse
 62
7
  6
CONTINUOUS
 10
188.2934336562
 20
87.2701251431
 30
0.0
 11
0.3552779753
 21
-0.3552779753
 31
0.0
 40
0.9951458158
 41
-0.782965171
 42
0.782965171
  0
ELLIPSE
  5
3A8
100
AcDbEntity
  8
RACCORDO
100
AcDbEllipse
 62
7
  6
CONTINUOUS
 10
144.0958755543
 20
87.2701251431
 30
0.0
 11
-0.3552779753
 21
-0.3552779753
 31
0.0
 40
0.9951458158
 41
-0.782965171
 42
0.782965171
  0
ELLIPSE
  5
3A9
100
AcDbEntity
  8
RACCORDO
100
AcDbEllipse
 62
7
  6
CONTINUOUS
 10
144.0958755543
 20
131.467683245
 30
0.0
 11
-0.3552779753
 21
0.3552779753
 31
0.0
 40
0.9951458158
 41
-0.782965171
 42
0.782965171
  0
ELLIPSE
  5
3AA
100
AcDbEntity
  8
RACCORDO
100
AcDbEllipse
 62
7
  6
CONTINUOUS
 10
73.0958755543
 20
87.2701251431
 30
0.0
 11
-0.3552779753
 21
-0.3552779753
 31
0.0
 40
0.9951458158
 41
-0.782965171
 42
0.782965171
  0
ELLIPSE
  5
3AB
100
AcDbEntity
  8
RACCORDO
100
AcDbEllipse
 62
7
  6
CONTINUOUS
 10
117.2934336562
 20
87.2701251431
 30
0.0
 11
0.3552779753
 21
-0.3552779753
 31
0.0
 40
0.9951458158
 41
-0.782965171
 42
0.782965171
  0
ELLIPSE
  5
3AC
100
AcDbEntity
  8
RACCORDO
100
AcDbEllipse
 62
7
  6
CONTINUOUS
 10
117.2934336562
 20
131.467683245
 30
0.0
 11
0.3552779753
 21
0.3552779753
 31
0.0
 40
0.9951458158
 41
-0.782965171
 42
0.782965171
  0
ELLIPSE
  5
3AD
100
AcDbEntity
  8
RACCORDO
100
AcDbEllipse
 62
7
  6
CONTINUOUS
 10
73.0958755543
 20
131.467683245
 30
0.0
 11
-0.3552779753
 21
0.3552779753
 31
0.0
 40
0.9951458158
 41
-0.782965171
 42
0.782965171
  0
ELLIPSE
  5
3AE
100
AcDbEntity
  8
0
100
AcDbEllipse
 62
7
  6
CONTINUOUS
 10
139.4624127048
 20
109.3689041941
 30
0.0
 11
530.7034459343
 21
-0.0
 31
0.0
 40
0.0494155445
 41
1.3905371885
 42
1.394000135
  0
ELLIPSE
  5
3AF
100
AcDbEntity
  8
0
100
AcDbEllipse
 62
7
  6
CONTINUOUS
 10
139.4624127048
 20
109.3689041941
 30
0.0
 11
530.7034459343
 21
-0.0
 31
0.0
 40
0.0494155445
 41
-1.394000135
 42
-1.3905371885
  0
ELLIPSE
  5
3B0
100
AcDbEntity
  8
0
100
AcDbEllipse
 62
7
  6
CONTINUOUS
 10
233.2581486227
 20
96.7167847841
 30
0.0
 11
0.6148281169
 21
-0.5564245427
 31
0.0
 40
0.3617787886
 41
2.7623787424
 42
3.4580053002
  0
ELLIPSE
  5
3B1
100
AcDbEntity
  8
0
100
AcDbEllipse
 62
7
  6
CONTINUOUS
 10
233.2581486227
 20
99.5210236041
 30
0.0
 11
0.6148281169
 21
0.5564245427
 31
0.0
 40
0.3617787886
 41
2.825180007
 42
3.5208065648
  0
ELLIPSE
  5
3B2
100
AcDbEntity
  8
0
100
AcDbEllipse
 62
7
  6
CONTINUOUS
 10
233.2581486227
 20
119.2167847841
 30
0.0
 11
0.6148281169
 21
-0.5564245427
 31
0.0
 40
0.3617787886
 41
2.7623787424
 42
3.4580053002
  0
ELLIPSE
  5
3B3
100
AcDbEntity
  8
0
100
AcDbEllipse
 62
7
  6
CONTINUOUS
 10
233.2581486227
 20
122.0210236041
 30
0.0
 11
0.6148281169
 21
0.5564245427
 31
0.0
 40
0.3617787886
 41
2.825180007
 42
3.5208065648
  0
ELLIPSE
  5
3B4
100
AcDbEntity
  8
0
100
AcDbEllipse
 62
7
  6
CONTINUOUS
 10
233.7343390989
 20
122.2351475484
 30
0.0
 11
0.6456053626
 21
0.0903841008
 31
0.0
 40
0.4601920703
 41
-2.723751082
 42
-2.1145161426
  0
ELLIPSE
  5
3B5
100
AcDbEntity
  8
0
100
AcDbEllipse
 62
7
  6
CONTINUOUS
 10
233.7343390989
 20
119.0026608398
 30
0.0
 11
0.6456053626
 21
-0.0903841008
 31
0.0
 40
0.4601920703
 41
2.1145161426
 42
2.723751082
  0
ELLIPSE
  5
3B6
100
AcDbEntity
  8
0
100
AcDbEllipse
 62
7
  6
CONTINUOUS
 10
233.7343390989
 20
118.7351475484
 30
0.0
 11
0.6456053626
 21
0.0903841008
 31
0.0
 40
0.4601920703
 41
-2.723751082
 42
-1.8666217978
  0
ELLIPSE
  5
3B7
100
AcDbEntity
  8
0
100
AcDbEllipse
 62
7
  6
CONTINUOUS
 10
233.7343390989
 20
100.0026608398
 30
0.0
 11
0.6456053626
 21
-0.0903841008
 31
0.0
 40
0.4601920703
 41
1.8666217978
 42
2.723751082
  0
ELLIPSE
  5
3B8
100
AcDbEntity
  8
0
100
AcDbEllipse
 62
7
  6
CONTINUOUS
 10
233.7343390989
 20
99.7351475484
 30
0.0
 11
0.6456053626
 21
0.0903841008
 31
0.0
 40
0.4601920703
 41
-2.723751082
 42
-2.1145161426
  0
ELLIPSE
  5
3B9
100
AcDbEntity
  8
0
100
AcDbEllipse
 62
7
  6
CONTINUOUS
 10
233.7343390989
 20
96.5026608398
 30
0.0
 11
0.6456053626
 21
-0.0903841008
 31
0.0
 40
0.4601920703
 41
2.1145161426
 42
2.723751082
  0
ENDSEC
  0
SECTION
  2
OBJECTS
  0
DICTIONARY
  5
C
100
AcDbDictionary
280
0
281
1
  3
ACAD_GROUP
350
D
  3
ACAD_MLINESTYLE
350
17
  3
ACAD_LAYOUT
350
1A
  3
ACAD_PLOTSETTINGS
350
19
  3
ACAD_PLOTSTYLENAME
350
E
  0
DICTIONARY
  5
D
102
{ACAD_REACTORS
330
C
102
}
100
AcDbDictionary
280
0
281
1
  0
ACDBDICTIONARYWDFLT
  5
E
102
{ACAD_REACTORS
330
C
102
}
100
AcDbDictionary
281
1
  3
Normal
350
F
100
AcDbDictionaryWithDefault
340
F
  0
DICTIONARY
  5
17
102
{ACAD_REACTORS
330
C
102
}
100
AcDbDictionary
280
0
281
1
  3
Standard
350
18
  0
DICTIONARY
  5
19
102
{ACAD_REACTORS
330
C
102
}
100
AcDbDictionary
281
1
  0
DICTIONARY
  5
1A
102
{ACAD_REACTORS
330
C
102
}
100
AcDbDictionary
281
1
  3
Model
350
3BA
  3
Layout1
350
3BB
  0
ACDBPLACEHOLDER
  5
F
102
{ACAD_REACTORS
330
E
102
}
  0
MLINESTYLE
  5
18
102
{ACAD_REACTORS
330
17
102
}
100
AcDbMlineStyle
  2
STANDARD
 70
0
  3

 62
256
 51
90.0
 52
90.0
 71
2
 49
0.5
 62
256
  6
BYLAYER
 49
-0.5
 62
256
  6
BYLAYER
  0
LAYOUT
  5
3BA
102
{ACAD_REACTORS
330
1A
102
}
100
AcDbPlotSettings
  1

  2
none_device
  4
ISO_A4_(297.00_x_210.00_MM)
  6

 40
0.0
 41
0.0
 42
0.0
 43
0.0
 44
297.0
 45
210.0
 46
0.0
 47
0.0
 48
0.0
 49
0.0
140
0.0
141
0.0
142
1.0
143
1.0
 70
1024
 72
1
 73
0
 74
0
  7

 75
0
147
1.0
148
0.0
149
0.0
100
AcDbLayout
  1
Model
 70
0
 71
0
 10
0.0
 20
0.0
 11
297.0
 21
210.0
 12
0.0
 22
0.0
 32
0.0
 14
0.0
 24
0.0
 34
0.0
 15
0.0
 25
0.0
 35
0.0
146
0.0
 13
0.0
 23
0.0
 33
0.0
 16
1.0
 26
0.0
 36
0.0
 17
0.0
 27
1.0
 37
0.0
 76
0
330
21F
345
0
346
0
  0
LAYOUT
  5
3BB
102
{ACAD_REACTORS
330
1A
102
}
100
AcDbPlotSettings
  1

  2
none_device
  4
ISO_A4_(297.00_x_210.00_MM)
  6

 40
0.0
 41
0.0
 42
0.0
 43
0.0
 44
297.0
 45
210.0
 46
0.0
 47
0.0
 48
0.0
 49
0.0
140
0.0
141
0.0
142
1.0
143
1.0
 70
0
 72
1
 73
0
 74
0
  7

 75
0
147
1.0
148
0.0
149
0.0
100
AcDbLayout
  1
Layout1
 70
0
 71
1
 10
0.0
 20
0.0
 11
297.0
 21
210.0
 12
0.0
 22
0.0
 32
0.0
 14
0.0
 24
0.0
 34
0.0
 15
0.0
 25
0.0
 35
0.0
146
0.0
 13
0.0
 23
0.0
 33
0.0
 16
1.0
 26
0.0
 36
0.0
 17
0.0
 27
1.0
 37
0.0
 76
0
330
220
345
0
346
0
  0
ENDSEC
  0
EOF
