  0
SECTION
  2
HEADER
  9
$ACADVER
  1
AC1024
  9
$DWGCODEPAGE
  3
ANSI_1252
  9
$EXTMAX
 10
297.0
 20
210.0
 30
0.0
  9
$EXTMIN
 10
0.0
 20
0.0
 30
0.0
  9
$LIMMIN
 10
0.0
 20
0.0
  9
$LIMMAX
 10
297.0
 20
210.0
  9
$VIEWCTR
 10
148.5
 20
105.0
  9
$VIEWSIZE
 40
210.0
  9
$CLAYER
  8
0
  9
$LTSCALE
 40
16.335
  9
$CELTYPE
  6
BYLAYER
  9
$DIMSCALE
 40
1.0
  9
$DIMASZ
 40
3.0
  9
$DIMEXO
 40
0.5
  9
$DIMDLI
 40
11.286
  9
$DIMEXE
 40
1.5
  9
$DIMCEN
 40
2.673
  9
$DIMLFAC
 40
1.0
  9
$DIMBLK
  1
_FILLED
  9
$DIMALT
 70
0
  9
$DIMALTF
 40
0.0393700787
  9
$DIMTXT
 40
3.0
  9
$DIMTOL
 70
1
  9
$DIMLIM
 70
0
  9
$DIMTFAC
 40
1.0
  9
$DIMTP
 40
0.01
  9
$DIMTM
 40
0.01
  9
$DIMGAP
 40
0.625
  9
$DIMDSEP
 70
44
  9
$AUNITS
 70
0
  9
$PDMODE
 70
3
  9
$PDSIZE
 40
3.0
  9
$HANDSEED
  5
3D5
  9
$TILEMODE
 70
1
  9
$MEASUREMENT
 70
1
  9
$INSUNITS
 70
4
  0
ENDSEC
  0
SECTION
  2
CLASSES
  0
CLASS
  1
ACDBDICTIONARYWDFLT
  2
AcDbDictionaryWithDefault
  3
AutoCAD 2000
 90
0
 91
1
280
0
281
0
  0
CLASS
  1
ACDBPLACEHOLDER
  2
AcDbPlaceHolder
  3
AutoCAD 2000
 90
0
 91
1
280
0
281
0
  0
CLASS
  1
LAYOUT
  2
AcDbLayout
  3
AutoCAD 2000
 90
0
 91
0
280
0
281
0
  0
ENDSEC
  0
SECTION
  2
TABLES
  0
TABLE
  2
VPORT
  5
8
100
AcDbSymbolTable
 70
2
  0
VPORT
  5
1F4
100
AcDbSymbolTableRecord
100
AcDbViewportTableRecord
  2
*ACTIVE
 70
0
 10
0.0
 20
0.0
 11
1.0
 21
1.0
 12
148.5
 22
105.0
 13
0.0
 23
0.0
 14
1.0
 24
1.0
 15
0.0
 25
0.0
 16
0.0
 26
0.0
 36
1.0
 17
0.0
 27
0.0
 37
0.0
 40
210.0
 41
1.4142857143
 42
50.0
 43
0.0
 44
0.0
 50
0.0
 51
0.0
 71
0
 72
100
 73
1
 74
1
 75
0
 76
0
 77
0
 78
0
  0
ENDTAB
  0
TABLE
  2
LTYPE
  5
5
100
AcDbSymbolTable
 70
6
  0
LTYPE
  5
14
100
AcDbSymbolTableRecord
100
AcDbLinetypeTableRecord
  2
BYBLOCK
 70
0
  3

 72
65
 73
0
 40
0.0
  0
LTYPE
  5
15
100
AcDbSymbolTableRecord
100
AcDbLinetypeTableRecord
  2
BYLAYER
 70
0
  3

 72
65
 73
0
 40
0.0
  0
LTYPE
  5
16
100
AcDbSymbolTableRecord
100
AcDbLinetypeTableRecord
  2
CONTINUOUS
 70
64
  3
Solid line
 72
65
 73
0
 40
0.0
  0
LTYPE
  5
1F5
100
AcDbSymbolTableRecord
100
AcDbLinetypeTableRecord
  2
CENTER
 70
64
  3
____ _ ____ _ ____ _ ____ _ ____ _ ____ _ ____
 72
65
 73
4
 40
0.6
 49
0.375
 74
0
 49
-0.075
 74
0
 49
0.075
 74
0
 49
-0.075
 74
0
  0
LTYPE
  5
1F6
100
AcDbSymbolTableRecord
100
AcDbLinetypeTableRecord
  2
HIDDEN
 70
64
  3
- - - - - - - - - - - - - - - - - - - -
 72
65
 73
2
 40
0.2
 49
0.1
 74
0
 49
-0.1
 74
0
  0
LTYPE
  5
1F7
100
AcDbSymbolTableRecord
100
AcDbLinetypeTableRecord
  2
PHANTOM
 70
64
  3
_____ _ _ _____ _ _ _____ _ _ _____
 72
65
 73
6
 40
0.8
 49
0.45
 74
0
 49
-0.05
 74
0
 49
0.1
 74
0
 49
-0.05
 74
0
 49
0.1
 74
0
 49
-0.05
 74
0
  0
LTYPE
  5
1F8
100
AcDbSymbolTableRecord
100
AcDbLinetypeTableRecord
  2
DOT
 70
64
  3
. . . . . . . . . . . . . . . . . . . .
 72
65
 73
2
 40
0.2
 49
0.1
 74
0
 49
-0.1
 74
0
  0
LTYPE
  5
1F9
100
AcDbSymbolTableRecord
100
AcDbLinetypeTableRecord
  2
DASHED
 70
64
  3
- - - - - - - - - - - - - - - - - - - -
 72
65
 73
2
 40
0.2
 49
0.1
 74
0
 49
-0.1
 74
0
  0
ENDTAB
  0
TABLE
  2
LAYER
  5
2
100
AcDbSymbolTable
 70
36
  0
LAYER
  5
10
100
AcDbSymbolTableRecord
100
AcDbLayerTableRecord
  2
0
 70
0
 62
7
  6
CONTINUOUS
370
-3
390
F
  0
LAYER
  5
1FA
100
AcDbSymbolTableRecord
100
AcDbLayerTableRecord
  2
DEFAULT_1
 70
0
 62
7
  6
CENTER
370
-3
390
F
  0
LAYER
  5
1FB
100
AcDbSymbolTableRecord
100
AcDbLayerTableRecord
  2
DEFAULT_2
 70
0
 62
7
  6
HIDDEN
370
-3
390
F
  0
LAYER
  5
1FC
100
AcDbSymbolTableRecord
100
AcDbLayerTableRecord
  2
DEFAULT_3
 70
0
 62
7
  6
PHANTOM
370
-3
390
F
  0
LAYER
  5
1FD
100
AcDbSymbolTableRecord
100
AcDbLayerTableRecord
  2
ASSI
 70
0
 62
7
  6
CONTINUOUS
370
-3
390
F
  0
LAYER
  5
1FE
100
AcDbSymbolTableRecord
100
AcDbLayerTableRecord
  2
COORDINATE
 70
0
 62
7
  6
CONTINUOUS
370
-3
390
F
  0
LAYER
  5
1FF
100
AcDbSymbolTableRecord
100
AcDbLayerTableRecord
  2
COORD_ORIGINE
 70
0
 62
7
  6
CONTINUOUS
370
-3
390
F
  0
LAYER
  5
200
100
AcDbSymbolTableRecord
100
AcDbLayerTableRecord
  2
COPY_PUBLISH
 70
0
 62
7
  6
CONTINUOUS
370
-3
390
F
  0
LAYER
  5
201
100
AcDbSymbolTableRecord
100
AcDbLayerTableRecord
  2
COSMETIC
 70
0
 62
7
  6
CONTINUOUS
370
-3
390
F
  0
LAYER
  5
202
100
AcDbSymbolTableRecord
100
AcDbLayerTableRecord
  2
COSMETICI
 70
0
 62
7
  6
CONTINUOUS
370
-3
390
F
  0
LAYER
  5
203
100
AcDbSymbolTableRecord
100
AcDbLayerTableRecord
  2
CURVE
 70
0
 62
7
  6
CONTINUOUS
370
-3
390
F
  0
LAYER
  5
204
100
AcDbSymbolTableRecord
100
AcDbLayerTableRecord
  2
CURVE_TASSELLI
 70
0
 62
7
  6
CONTINUOUS
370
-3
390
F
  0
LAYER
  5
205
100
AcDbSymbolTableRecord
100
AcDbLayerTableRecord
  2
DRAFT
 70
0
 62
7
  6
CONTINUOUS
370
-3
390
F
  0
LAYER
  5
206
100
AcDbSymbolTableRecord
100
AcDbLayerTableRecord
  2
IMPORT_IGES
 70
0
 62
7
  6
CONTINUOUS
370
-3
390
F
  0
LAYER
  5
207
100
AcDbSymbolTableRecord
100
AcDbLayerTableRecord
  2
INTFCLR_2
 70
0
 62
7
  6
CONTINUOUS
370
-3
390
F
  0
LAYER
  5
208
100
AcDbSymbolTableRecord
100
AcDbLayerTableRecord
  2
INTF_1
 70
0
 62
7
  6
CONTINUOUS
370
-3
390
F
  0
LAYER
  5
209
100
AcDbSymbolTableRecord
100
AcDbLayerTableRecord
  2
INTF_21
 70
0
 62
7
  6
CONTINUOUS
370
-3
390
F
  0
LAYER
  5
20A
100
AcDbSymbolTableRecord
100
AcDbLayerTableRecord
  2
INTF_7
 70
0
 62
7
  6
CONTINUOUS
370
-3
390
F
  0
LAYER
  5
20B
100
AcDbSymbolTableRecord
100
AcDbLayerTableRecord
  2
INTF_CYAN
 70
0
 62
7
  6
CONTINUOUS
370
-3
390
F
  0
LAYER
  5
20C
100
AcDbSymbolTableRecord
100
AcDbLayerTableRecord
  2
NOTE
 70
0
 62
7
  6
CONTINUOUS
370
-3
390
F
  0
LAYER
  5
20D
100
AcDbSymbolTableRecord
100
AcDbLayerTableRecord
  2
PIANI
 70
0
 62
7
  6
CONTINUOUS
370
-3
390
F
  0
LAYER
  5
20E
100
AcDbSymbolTableRecord
100
AcDbLayerTableRecord
  2
PIANI_ORIGINE
 70
0
 62
7
  6
CONTINUOUS
370
-3
390
F
  0
LAYER
  5
20F
100
AcDbSymbolTableRecord
100
AcDbLayerTableRecord
  2
PIANI_RIFERIMENTO
 70
0
 62
7
  6
CONTINUOUS
370
-3
390
F
  0
LAYER
  5
210
100
AcDbSymbolTableRecord
100
AcDbLayerTableRecord
  2
PUNTI
 70
0
 62
7
  6
CONTINUOUS
370
-3
390
F
  0
LAYER
  5
211
100
AcDbSymbolTableRecord
100
AcDbLayerTableRecord
  2
RACCORDO
 70
0
 62
7
  6
CONTINUOUS
370
-3
390
F
  0
LAYER
  5
212
100
AcDbSymbolTableRecord
100
AcDbLayerTableRecord
  2
RGB__255__255__255__
 70
0
 62
7
  6
CONTINUOUS
370
-3
390
F
  0
LAYER
  5
213
100
AcDbSymbolTableRecord
100
AcDbLayerTableRecord
  2
RGB____0____0____0__
 70
0
 62
7
  6
CONTINUOUS
370
-3
390
F
  0
LAYER
  5
214
100
AcDbSymbolTableRecord
100
AcDbLayerTableRecord
  2
SIMBOLI
 70
0
 62
7
  6
CONTINUOUS
370
-3
390
F
  0
LAYER
  5
215
100
AcDbSymbolTableRecord
100
AcDbLayerTableRecord
  2
SMUSSO
 70
0
 62
7
  6
CONTINUOUS
370
-3
390
F
  0
LAYER
  5
216
100
AcDbSymbolTableRecord
100
AcDbLayerTableRecord
  2
SUPERFICI
 70
0
 62
7
  6
CONTINUOUS
370
-3
390
F
  0
LAYER
  5
217
100
AcDbSymbolTableRecord
100
AcDbLayerTableRecord
  2
TRASH
 70
0
 62
7
  6
CONTINUOUS
370
-3
390
F
  0
LAYER
  5
218
100
AcDbSymbolTableRecord
100
AcDbLayerTableRecord
  2
XSEC_DATUMS
 70
0
 62
7
  6
CONTINUOUS
370
-3
390
F
  0
ENDTAB
  0
TABLE
  2
STYLE
  5
3
100
AcDbSymbolTable
 70
1
  0
STYLE
  5
11
100
AcDbSymbolTableRecord
100
AcDbTextStyleTableRecord
  2
STANDARD
 70
0
 40
0.0
 41
0.8
 50
0.0
 71
0
 42
0.2
  3
txt
  4

  0
STYLE
  5
219
100
AcDbSymbolTableRecord
100
AcDbTextStyleTableRecord
  2
TEXTSTYLE_1
 70
0
 40
0.0
 41
0.8
 50
0.0
 71
0
 42
0.2
  3
gdt
  4

  0
ENDTAB
  0
TABLE
  2
VIEW
  5
6
100
AcDbSymbolTable
 70
0
  0
ENDTAB
  0
TABLE
  2
UCS
  5
7
100
AcDbSymbolTable
 70
0
  0
ENDTAB
  0
TABLE
  2
APPID
  5
9
100
AcDbSymbolTable
 70
1
  0
APPID
  5
21A
100
AcDbSymbolTableRecord
100
AcDbRegAppTableRecord
  2
ACAD
 70
0
  0
ENDTAB
  0
TABLE
  2
BLOCK_RECORD
  5
1
100
AcDbSymbolTable
 70
0
  0
BLOCK_RECORD
  5
21B
100
AcDbSymbolTableRecord
100
AcDbBlockTableRecord
  2
*Model_Space
  0
BLOCK_RECORD
  5
21C
100
AcDbSymbolTableRecord
100
AcDbBlockTableRecord
  2
*Paper_Space
  0
BLOCK_RECORD
  5
21D
100
AcDbSymbolTableRecord
100
AcDbBlockTableRecord
  2
_FILLED
  0
BLOCK_RECORD
  5
21E
100
AcDbSymbolTableRecord
100
AcDbBlockTableRecord
  2
*D0
  0
BLOCK_RECORD
  5
21F
100
AcDbSymbolTableRecord
100
AcDbBlockTableRecord
  2
*D1
  0
BLOCK_RECORD
  5
220
100
AcDbSymbolTableRecord
100
AcDbBlockTableRecord
  2
*D2
  0
ENDTAB
  0
TABLE
  2
DIMSTYLE
  5
A
100
AcDbSymbolTable
 70
1
100
AcDbDimStyleTable
 71
0
  0
DIMSTYLE
105
221
100
AcDbSymbolTableRecord
100
AcDbDimStyleTableRecord
  2
STANDARD
 70
0
  3

  4

 40
1.0
 41
3.0
 42
0.5
 43
0.38
 44
1.5
 45
0.0
 46
0.0
 47
0.01
 48
0.01
140
3.0
141
0.09
142
0.0
143
25.4
144
1.0
145
0.0
146
1.0
147
0.625
 71
1
 72
0
 73
0
 74
0
 75
0
 76
0
 77
1
 78
8
 79
2
170
0
171
1
172
0
173
0
174
0
175
0
176
0
177
0
178
0
270
2
179
2
271
2
272
2
273
2
274
2
275
0
280
0
281
0
282
0
283
1
284
8
285
0
286
0
287
3
288
0
340
11
278
44
341
21D
342
21D
343
21D
344
21D
  0
DIMSTYLE
105
222
100
AcDbSymbolTableRecord
100
AcDbDimStyleTableRecord
  2
DIMSTYLE_1
 70
0
  3

  4

 40
1.0
 41
3.0
 42
0.5
 43
0.38
 44
1.5
 45
0.0
 46
0.0
 47
0.0
 48
0.0
140
3.0
141
0.09
142
0.0
143
25.4
144
1.0
145
0.0
146
1.0
147
0.75
 71
0
 72
0
 73
0
 74
0
 75
0
 76
0
 77
1
 78
8
 79
2
170
0
171
1
172
0
173
0
174
0
175
0
176
0
177
0
178
0
270
2
179
2
271
2
272
2
273
2
274
2
275
0
280
0
281
0
282
0
283
1
284
8
285
0
286
0
287
3
288
0
340
11
278
44
341
21D
342
21D
343
21D
344
21D
  0
ENDTAB
  0
ENDSEC
  0
SECTION
  2
BLOCKS
  0
BLOCK
  5
20
100
AcDbEntity
  8
0
100
AcDbBlockBegin
  2
*Model_Space
 70
0
 10
0.0
 20
0.0
 30
0.0
  3
*Model_Space
  1

  0
ENDBLK
  5
21
100
AcDbEntity
  8
0
100
AcDbBlockEnd
  0
BLOCK
  5
1C
100
AcDbEntity
  8
0
100
AcDbBlockBegin
  2
*Paper_Space
 70
0
 10
0.0
 20
0.0
 30
0.0
  3
*Paper_Space
  1

  0
ENDBLK
  5
1D
100
AcDbEntity
  8
0
100
AcDbBlockEnd
  0
BLOCK
  5
223
100
AcDbEntity
  8
0
100
AcDbBlockBegin
  2
_FILLED
 70
64
 10
0.0
 20
0.0
  3
_FILLED
  1

  0
SOLID
  5
224
100
AcDbEntity
  8
0
  6
BYBLOCK
 62
0
100
AcDbTrace
 10
0.0
 20
0.0
 11
-1.0
 21
0.3166666667
 12
-1.0
 22
-0.3166666667
 13
-1.0
 23
-0.3166666667
  0
ENDBLK
  5
225
100
AcDbEntity
  8
0
  6
BYBLOCK
 62
0
100
AcDbBlockEnd
  0
BLOCK
  5
226
100
AcDbEntity
  8
0
100
AcDbBlockBegin
 62
7
  6
CONTINUOUS
  2
*D0
 70
65
 10
0.0
 20
0.0
  3
*D0
  1

  0
LINE
  5
227
100
AcDbEntity
  8
0
100
AcDbLine
 62
7
  6
CONTINUOUS
 10
238.6609970575
 20
151.5131809018
 11
238.6609970575
 21
171.8152742032
  0
LINE
  5
228
100
AcDbEntity
  8
0
100
AcDbLine
 62
7
  6
CONTINUOUS
 10
6.6609970575
 20
151.5131809018
 11
6.6609970575
 21
171.8152742032
  0
LINE
  5
229
100
AcDbEntity
  8
0
100
AcDbLine
 62
7
  6
CONTINUOUS
 10
238.6609970575
 20
170.3152742032
 11
122.6609970575
 21
170.3152742032
  0
LINE
  5
22A
100
AcDbEntity
  8
0
100
AcDbLine
 62
7
  6
CONTINUOUS
 10
6.6609970575
 20
170.3152742032
 11
122.6609970575
 21
170.3152742032
  0
INSERT
  5
22B
100
AcDbEntity
  8
0
100
AcDbBlockReference
 62
7
  6
CONTINUOUS
  2
_FILLED
 10
238.6609970575
 20
170.3152742032
 41
3.0
 42
3.0
 43
3.0
  0
INSERT
  5
22C
100
AcDbEntity
  8
0
100
AcDbBlockReference
 62
7
  6
CONTINUOUS
  2
_FILLED
 10
6.6609970575
 20
170.3152742032
 41
3.0
 42
3.0
 43
3.0
 50
180.0
  0
ENDBLK
  5
22D
100
AcDbEntity
  8
0
  6
BYBLOCK
 62
0
100
AcDbBlockEnd
  0
BLOCK
  5
22E
100
AcDbEntity
  8
0
100
AcDbBlockBegin
 62
7
  6
CONTINUOUS
  2
*D1
 70
65
 10
0.0
 20
0.0
  3
*D1
  1

  0
LINE
  5
22F
100
AcDbEntity
  8
0
100
AcDbLine
 62
7
  6
CONTINUOUS
 10
275.3328312714
 20
150.8905271141
 11
275.3328312714
 21
163.9269047577
  0
LINE
  5
230
100
AcDbEntity
  8
0
100
AcDbLine
 62
7
  6
CONTINUOUS
 10
268.1828312714
 20
148.7176872235
 11
268.1828312714
 21
163.9269047577
  0
LINE
  5
231
100
AcDbEntity
  8
0
100
AcDbLine
 62
7
  6
CONTINUOUS
 10
275.3328312714
 20
162.4269047577
 11
285.9975249205
 21
162.4269047577
  0
LINE
  5
232
100
AcDbEntity
  8
0
100
AcDbLine
 62
7
  6
CONTINUOUS
 10
285.9975249205
 20
162.4269047577
 11
271.7578312714
 21
162.4269047577
  0
LINE
  5
233
100
AcDbEntity
  8
0
100
AcDbLine
 62
7
  6
CONTINUOUS
 10
268.1828312714
 20
162.4269047577
 11
264.1828312714
 21
162.4269047577
  0
LINE
  5
234
100
AcDbEntity
  8
0
100
AcDbLine
 62
7
  6
CONTINUOUS
 10
264.1828312714
 20
162.4269047577
 11
271.7578312714
 21
162.4269047577
  0
INSERT
  5
235
100
AcDbEntity
  8
0
100
AcDbBlockReference
 62
7
  6
CONTINUOUS
  2
_FILLED
 10
275.3328312714
 20
162.4269047577
 41
3.0
 42
3.0
 43
3.0
 50
180.0
  0
INSERT
  5
236
100
AcDbEntity
  8
0
100
AcDbBlockReference
 62
7
  6
CONTINUOUS
  2
_FILLED
 10
268.1828312714
 20
162.4269047577
 41
3.0
 42
3.0
 43
3.0
  0
ENDBLK
  5
237
100
AcDbEntity
  8
0
  6
BYBLOCK
 62
0
100
AcDbBlockEnd
  0
BLOCK
  5
238
100
AcDbEntity
  8
0
100
AcDbBlockBegin
 62
7
  6
CONTINUOUS
  2
*D2
 70
65
 10
0.0
 20
0.0
  3
*D2
  1

  0
LINE
  5
239
100
AcDbEntity
  8
0
100
AcDbLine
 62
7
  6
CONTINUOUS
 10
275.3328312714
 20
150.8905271141
 11
275.3328312714
 21
172.2069915648
  0
LINE
  5
23A
100
AcDbEntity
  8
0
100
AcDbLine
 62
7
  6
CONTINUOUS
 10
265.1828312714
 20
133.4347524312
 11
265.1828312714
 21
172.2069915648
  0
LINE
  5
23B
100
AcDbEntity
  8
0
100
AcDbLine
 62
7
  6
CONTINUOUS
 10
275.3328312714
 20
170.7069915648
 11
270.2578312714
 21
170.7069915648
  0
LINE
  5
23C
100
AcDbEntity
  8
0
100
AcDbLine
 62
7
  6
CONTINUOUS
 10
270.2578312714
 20
170.7069915648
 11
287.1988371504
 21
170.7069915648
  0
LINE
  5
23D
100
AcDbEntity
  8
0
100
AcDbLine
 62
7
  6
CONTINUOUS
 10
265.1828312714
 20
170.7069915648
 11
270.2578312714
 21
170.7069915648
  0
INSERT
  5
23E
100
AcDbEntity
  8
0
100
AcDbBlockReference
 62
7
  6
CONTINUOUS
  2
_FILLED
 10
275.3328312714
 20
170.7069915648
 41
3.0
 42
3.0
 43
3.0
  0
INSERT
  5
23F
100
AcDbEntity
  8
0
100
AcDbBlockReference
 62
7
  6
CONTINUOUS
  2
_FILLED
 10
265.1828312714
 20
170.7069915648
 41
3.0
 42
3.0
 43
3.0
 50
180.0
  0
ENDBLK
  5
240
100
AcDbEntity
  8
0
  6
BYBLOCK
 62
0
100
AcDbBlockEnd
  0
ENDSEC
  0
SECTION
  2
ENTITIES
  0
DIMENSION
  5
241
100
AcDbEntity
  8
0
100
AcDbDimension
 62
7
  6
CONTINUOUS
  2
*D0
 10
6.6609970575
 20
170.3152742032
 11
119.2324256289
 21
170.3152742032
 70
160
 71
2
 72
2
 41
0.9
 42
232.0
  3
DIMSTYLE_1
100
AcDbAlignedDimension
 13
238.6609970575
 23
151.0131809018
 14
6.6609970575
 24
151.0131809018
 50
180.0
100
AcDbRotatedDimension
  0
DIMENSION
  5
242
100
AcDbEntity
  8
0
100
AcDbDimension
 62
7
  6
CONTINUOUS
  2
*D1
 10
268.1828312714
 20
162.4269047577
 11
278.0689534919
 21
162.4269047577
 70
160
 71
1
 72
2
 41
0.9
 42
7.15
  3
DIMSTYLE_1
100
AcDbAlignedDimension
 13
275.3328312714
 23
150.3905271141
 14
268.1828312714
 24
148.2176872235
 50
180.0
100
AcDbRotatedDimension
  0
DIMENSION
  5
243
100
AcDbEntity
  8
0
100
AcDbDimension
 62
7
  6
CONTINUOUS
  2
*D2
 10
265.1828312714
 20
170.7069915648
 11
277.5559800075
 21
170.7069915648
 70
160
 71
1
 72
2
 41
0.9
 42
10.15
  3
DIMSTYLE_1
100
AcDbAlignedDimension
 13
275.3328312714
 23
150.3905271141
 14
265.1828312714
 24
132.9347524312
 50
180.0
100
AcDbRotatedDimension
  0
LINE
  5
244
100
AcDbEntity
  8
SMUSSO
100
AcDbLine
 62
7
  6
CONTINUOUS
 10
6.6609970575
 20
151.0131809018
 11
6.6609970575
 21
63.014398506
  0
LINE
  5
245
100
AcDbEntity
  8
SMUSSO
100
AcDbLine
 62
7
  6
CONTINUOUS
 10
6.8548286009
 20
150.8193493583
 11
6.8548286009
 21
63.2082300495
  0
LINE
  5
246
100
AcDbEntity
  8
SMUSSO
100
AcDbLine
 62
7
  6
CONTINUOUS
 10
7.8897280976
 20
150.3905271141
 11
7.8897280976
 21
63.6370522937
  0
LINE
  5
247
100
AcDbEntity
  8
SMUSSO
100
AcDbLine
 62
7
  6
CONTINUOUS
 10
7.8410115875
 20
151.8044890262
 11
7.855437403
 21
151.8199581604
  0
LINE
  5
248
100
AcDbEntity
  8
SMUSSO
100
AcDbLine
 62
7
  6
CONTINUOUS
 10
6.6609970575
 20
151.0131809018
 11
7.6616058596
 21
152.0137897039
  0
LINE
  5
249
100
AcDbEntity
  8
SMUSSO
100
AcDbLine
 62
7
  6
CONTINUOUS
 10
7.8410115875
 20
151.8044890262
 11
6.8702977351
 21
150.8337751738
  0
LINE
  5
24A
100
AcDbEntity
  8
SMUSSO
100
AcDbLine
 62
7
  6
CONTINUOUS
 10
8.2842596473
 20
150.7850586637
 11
7.8897280976
 21
150.3905271141
  0
LINE
  5
24B
100
AcDbEntity
  8
SMUSSO
100
AcDbLine
 62
7
  6
CONTINUOUS
 10
6.8548286009
 20
150.8193493583
 11
6.8702977351
 21
150.8337751738
  0
LINE
  5
24C
100
AcDbEntity
  8
SMUSSO
100
AcDbLine
 62
7
  6
CONTINUOUS
 10
6.8702977351
 20
63.193804234
 11
6.8548286009
 21
63.2082300495
  0
LINE
  5
24D
100
AcDbEntity
  8
SMUSSO
100
AcDbLine
 62
7
  6
CONTINUOUS
 10
7.6616058596
 20
62.0137897039
 11
6.6609970575
 21
63.014398506
  0
LINE
  5
24E
100
AcDbEntity
  8
SMUSSO
100
AcDbLine
 62
7
  6
CONTINUOUS
 10
6.8702977351
 20
63.193804234
 11
7.8410115875
 21
62.2230903816
  0
LINE
  5
24F
100
AcDbEntity
  8
SMUSSO
100
AcDbLine
 62
7
  6
CONTINUOUS
 10
7.8897280976
 20
63.6370522937
 11
8.2842596473
 21
63.2425207441
  0
LINE
  5
250
100
AcDbEntity
  8
SMUSSO
100
AcDbLine
 62
7
  6
CONTINUOUS
 10
7.855437403
 20
62.2076212474
 11
7.8410115875
 21
62.2230903816
  0
LINE
  5
251
100
AcDbEntity
  8
0
100
AcDbLine
 62
250
  6
CONTINUOUS
 10
28.8045672283
 20
84.8556547099
 11
28.8045672283
 21
129.1719246979
  0
LINE
  5
252
100
AcDbEntity
  8
0
100
AcDbLine
 62
250
  6
CONTINUOUS
 10
29.0040800383
 20
84.8556547099
 11
29.0040800383
 21
129.1719246979
  0
LINE
  5
253
100
AcDbEntity
  8
RACCORDO
100
AcDbLine
 62
7
  6
CONTINUOUS
 10
29.0609970575
 20
129.1150076788
 11
29.0609970575
 21
84.912571729
  0
LINE
  5
254
100
AcDbEntity
  8
0
100
AcDbLine
 62
250
  6
CONTINUOUS
 10
29.5028620635
 20
129.8702195331
 11
29.5028620635
 21
129.670706723
  0
LINE
  5
255
100
AcDbEntity
  8
0
100
AcDbLine
 62
250
  6
CONTINUOUS
 10
29.5028620635
 20
84.1573598747
 11
29.5028620635
 21
84.3568726848
  0
LWPOLYLINE
  5
256
100
AcDbEntity
  8
0
100
AcDbPolyline
 62
250
  6
CONTINUOUS
 90
25
 70
0
 10
29.0040800383
 20
129.1719246979
 10
29.0050470962
 20
129.2040764661
 10
29.0080828305
 20
129.2361557185
 10
29.0131883441
 20
129.2680295728
 10
29.020364935
 20
129.2996012524
 10
29.0295920334
 20
129.3306986591
 10
29.0408040371
 20
129.3610818429
 10
29.0539358691
 20
129.3906027173
 10
29.0689338263
 20
129.4191668875
 10
29.0857114091
 20
129.4466302989
 10
29.1041641448
 20
129.4728552453
 10
29.1242240825
 20
129.4977759581
 10
29.1458570581
 20
129.5213584034
 10
29.1689207451
 20
129.5434548283
 10
29.1933715546
 20
129.5640293313
 10
29.2193642529
 20
129.5831692757
 10
29.2469380152
 20
129.600811162
 10
29.2759073605
 20
129.6167469055
 10
29.3061031486
 20
129.6308194594
 10
29.3374926185
 20
129.6429499289
 10
29.3698759436
 20
129.6530008287
 10
29.4027913529
 20
129.6608146226
 10
29.4359745364
 20
129.6663589871
 10
29.4693816063
 20
129.6696553888
 10
29.5028620635
 20
129.670706723
  0
LWPOLYLINE
  5
257
100
AcDbEntity
  8
0
100
AcDbPolyline
 62
250
  6
CONTINUOUS
 90
25
 70
0
 10
28.8045672283
 20
129.1719246979
 10
28.8060236684
 20
129.2171636851
 10
28.8103525559
 20
129.2619342936
 10
28.8175538906
 20
129.3062365232
 10
28.8276910279
 20
129.3503008538
 10
28.8407006126
 20
129.3938968056
 10
28.8563925784
 20
129.4363329391
 10
28.8748101721
 20
129.4775506163
 10
28.8959101471
 20
129.5176084753
 10
28.9193726974
 20
129.5559909903
 10
28.9451885544
 20
129.5926350252
 10
28.9733669867
 20
129.6276037161
 10
29.003615995
 20
129.6605709466
 10
29.0358450908
 20
129.6914923737
 10
29.0701447625
 20
129.7204123403
 10
29.106494476
 20
129.7471377576
 10
29.145057605
 20
129.7717854328
 10
29.1856707757
 20
129.7942385586
 10
29.2278233326
 20
129.8139536253
 10
29.2716851461
 20
129.8308768047
 10
29.3170863457
 20
129.8450619249
 10
29.363006664
 20
129.8561269604
 10
29.4091060118
 20
129.8639445693
 10
29.4557244783
 20
129.8686420936
 10
29.5028620635
 20
129.8702195331
  0
LINE
  5
258
100
AcDbEntity
  8
SMUSSO
100
AcDbLine
 62
7
  6
CONTINUOUS
 10
8.2842596473
 20
63.2425207441
 11
7.8410115875
 21
62.2230903816
  0
LINE
  5
259
100
AcDbEntity
  8
SMUSSO
100
AcDbLine
 62
7
  6
CONTINUOUS
 10
8.2842596473
 20
150.7850586637
 11
7.8410115875
 21
151.8044890262
  0
LINE
  5
25A
100
AcDbEntity
  8
0
100
AcDbLine
 62
250
  6
CONTINUOUS
 10
73.8191320515
 20
129.8702195331
 11
73.8191320515
 21
129.670706723
  0
LINE
  5
25B
100
AcDbEntity
  8
0
100
AcDbLine
 62
250
  6
CONTINUOUS
 10
73.8191320515
 20
84.1573598747
 11
73.8191320515
 21
84.3568726848
  0
LINE
  5
25C
100
AcDbEntity
  8
SMUSSO
100
AcDbLine
 62
7
  6
CONTINUOUS
 10
6.8548286009
 20
63.2082300495
 11
6.6609970575
 21
63.014398506
  0
LINE
  5
25D
100
AcDbEntity
  8
0
100
AcDbLine
 62
250
  6
CONTINUOUS
 10
73.8191320515
 20
129.670706723
 11
73.7622150323
 21
129.6137897039
  0
LINE
  5
25E
100
AcDbEntity
  8
0
100
AcDbLine
 62
250
  6
CONTINUOUS
 10
29.0040800383
 20
84.8556547099
 11
29.0609970575
 21
84.912571729
  0
LINE
  5
25F
100
AcDbEntity
  8
0
100
AcDbLine
 62
250
  6
CONTINUOUS
 10
74.3179140766
 20
129.1719246979
 11
74.2609970575
 21
129.1150076788
  0
LINE
  5
260
100
AcDbEntity
  8
0
100
AcDbLine
 62
250
  6
CONTINUOUS
 10
29.5028620635
 20
84.3568726848
 11
29.5597790826
 21
84.4137897039
  0
LINE
  5
261
100
AcDbEntity
  8
SMUSSO
100
AcDbLine
 62
7
  6
CONTINUOUS
 10
7.855437403
 20
62.2076212474
 11
7.6616058596
 21
62.0137897039
  0
LWPOLYLINE
  5
262
100
AcDbEntity
  8
0
100
AcDbPolyline
 62
7
  6
CONTINUOUS
 90
5
 70
0
 43
0.3500000006
 10
122.4467155151
 20
172.7795548096
 10
122.803853302
 20
172.9938392944
 10
122.803853302
 20
173.6367108765
 10
122.4467155151
 20
174.0652798462
 10
121.589568512
 20
174.0652798462
  0
LINE
  5
263
100
AcDbEntity
  8
SMUSSO
100
AcDbLine
 62
7
  6
CONTINUOUS
 10
6.8548286009
 20
150.8193493583
 11
6.6609970575
 21
151.0131809018
  0
LINE
  5
264
100
AcDbEntity
  8
0
100
AcDbLine
 62
250
  6
CONTINUOUS
 10
29.0040800383
 20
129.1719246979
 11
29.0609970575
 21
129.1150076788
  0
LINE
  5
265
100
AcDbEntity
  8
0
100
AcDbLine
 62
250
  6
CONTINUOUS
 10
73.8191320515
 20
84.3568726848
 11
73.7622150323
 21
84.4137897039
  0
LINE
  5
266
100
AcDbEntity
  8
0
100
AcDbLine
 62
250
  6
CONTINUOUS
 10
29.5028620635
 20
129.670706723
 11
29.5597790826
 21
129.6137897039
  0
LINE
  5
267
100
AcDbEntity
  8
0
100
AcDbLine
 62
250
  6
CONTINUOUS
 10
74.3179140766
 20
84.8556547099
 11
74.2609970575
 21
84.912571729
  0
LINE
  5
268
100
AcDbEntity
  8
SMUSSO
100
AcDbLine
 62
7
  6
CONTINUOUS
 10
7.855437403
 20
151.8199581604
 11
7.6616058596
 21
152.0137897039
  0
LINE
  5
269
100
AcDbEntity
  8
RACCORDO
100
AcDbLine
 62
7
  6
CONTINUOUS
 10
74.2609970575
 20
84.912571729
 11
74.2609970575
 21
129.1150076788
  0
LINE
  5
26A
100
AcDbEntity
  8
0
100
AcDbLine
 62
250
  6
CONTINUOUS
 10
74.3179140766
 20
129.1719246979
 11
74.3179140766
 21
84.8556547099
  0
LINE
  5
26B
100
AcDbEntity
  8
0
100
AcDbLine
 62
250
  6
CONTINUOUS
 10
74.5174268866
 20
129.1719246979
 11
74.5174268866
 21
84.8556547099
  0
LWPOLYLINE
  5
26C
100
AcDbEntity
  8
0
100
AcDbPolyline
 62
250
  6
CONTINUOUS
 90
25
 70
0
 10
74.3179140766
 20
84.8556547099
 10
74.3169470188
 20
84.8235029417
 10
74.3139112844
 20
84.7914236893
 10
74.3088057708
 20
84.759549835
 10
74.3016291799
 20
84.7279781554
 10
74.2924020815
 20
84.6968807487
 10
74.2811900779
 20
84.6664975649
 10
74.2680582458
 20
84.6369766905
 10
74.2530602887
 20
84.6084125203
 10
74.2362827058
 20
84.5809491089
 10
74.2178299702
 20
84.5547241625
 10
74.1977700324
 20
84.5298034497
 10
74.1761370568
 20
84.5062210044
 10
74.1530733698
 20
84.4841245795
 10
74.1286225604
 20
84.4635500765
 10
74.102629862
 20
84.4444101321
 10
74.0750560997
 20
84.4267682458
 10
74.0460867544
 20
84.4108325023
 10
74.0158909663
 20
84.3967599484
 10
73.9845014964
 20
84.3846294789
 10
73.9521181713
 20
84.3745785791
 10
73.919202762
 20
84.3667647852
 10
73.8860195785
 20
84.3612204207
 10
73.8526125086
 20
84.3579240191
 10
73.8191320515
 20
84.3568726848
  0
LWPOLYLINE
  5
26D
100
AcDbEntity
  8
0
100
AcDbPolyline
 62
250
  6
CONTINUOUS
 90
25
 70
0
 10
74.5174268866
 20
84.8556547099
 10
74.5159704465
 20
84.8104157227
 10
74.5116415591
 20
84.7656451143
 10
74.5044402243
 20
84.7213428846
 10
74.494303087
 20
84.677278554
 10
74.4812935024
 20
84.6336826022
 10
74.4656015365
 20
84.5912464687
 10
74.4471839428
 20
84.5500287915
 10
74.4260839678
 20
84.5099709326
 10
74.4026214175
 20
84.4715884175
 10
74.3768055605
 20
84.4349443826
 10
74.3486271282
 20
84.3999756917
 10
74.3183781199
 20
84.3670084613
 10
74.2861490241
 20
84.3360870341
 10
74.2518493524
 20
84.3071670675
 10
74.215499639
 20
84.2804416502
 10
74.17693651
 20
84.2557939751
 10
74.1363233392
 20
84.2333408492
 10
74.0941707824
 20
84.2136257825
 10
74.0503089688
 20
84.1967026031
 10
74.0049077692
 20
84.1825174829
 10
73.9589874509
 20
84.1714524474
 10
73.9128881031
 20
84.1636348385
 10
73.8662696366
 20
84.1589373142
 10
73.8191320515
 20
84.1573598747
  0
LINE
  5
26E
100
AcDbEntity
  8
SMUSSO
100
AcDbLine
 62
7
  6
CONTINUOUS
 10
7.6616058596
 20
62.0137897039
 11
237.6603882553
 21
62.0137897039
  0
LINE
  5
26F
100
AcDbEntity
  8
SMUSSO
100
AcDbLine
 62
7
  6
CONTINUOUS
 10
7.855437403
 20
62.2076212474
 11
237.4665567119
 21
62.2076212474
  0
LINE
  5
270
100
AcDbEntity
  8
SMUSSO
100
AcDbLine
 62
7
  6
CONTINUOUS
 10
8.2842596473
 20
63.2425207441
 11
237.0377344677
 21
63.2425207441
  0
LWPOLYLINE
  5
271
100
AcDbEntity
  8
0
100
AcDbPolyline
 62
250
  6
CONTINUOUS
 90
25
 70
0
 10
29.5028620635
 20
84.3568726848
 10
29.4707102953
 20
84.3578397426
 10
29.4386310428
 20
84.360875477
 10
29.4067571886
 20
84.3659809906
 10
29.375185509
 20
84.3731575814
 10
29.3440881022
 20
84.3823846799
 10
29.3137049185
 20
84.3935966835
 10
29.284184044
 20
84.4067285155
 10
29.2556198739
 20
84.4217264727
 10
29.2281564624
 20
84.4385040556
 10
29.2019315161
 20
84.4569567912
 10
29.1770108032
 20
84.477016729
 10
29.153428358
 20
84.4986497045
 10
29.1313319331
 20
84.5217133916
 10
29.1107574301
 20
84.546164201
 10
29.0916174856
 20
84.5721568993
 10
29.0739755994
 20
84.5997306617
 10
29.0580398558
 20
84.628700007
 10
29.043967302
 20
84.6588957951
 10
29.0318368324
 20
84.690285265
 10
29.0217859326
 20
84.7226685901
 10
29.0139721388
 20
84.7555839994
 10
29.0084277743
 20
84.7887671828
 10
29.0051313726
 20
84.8221742527
 10
29.0040800383
 20
84.8556547099
  0
LWPOLYLINE
  5
272
100
AcDbEntity
  8
0
100
AcDbPolyline
 62
250
  6
CONTINUOUS
 90
25
 70
0
 10
29.5028620635
 20
84.1573598747
 10
29.4576230762
 20
84.1588163149
 10
29.4128524678
 20
84.1631452023
 10
29.3685502382
 20
84.170346537
 10
29.3244859076
 20
84.1804836744
 10
29.2808899558
 20
84.193493259
 10
29.2384538223
 20
84.2091852249
 10
29.197236145
 20
84.2276028186
 10
29.1571782861
 20
84.2487027935
 10
29.1187957711
 20
84.2721653439
 10
29.0821517362
 20
84.2979812008
 10
29.0471830452
 20
84.3261596332
 10
29.0142158148
 20
84.3564086415
 10
28.9832943877
 20
84.3886377372
 10
28.9543744211
 20
84.422937409
 10
28.9276490037
 20
84.4592871224
 10
28.9030013286
 20
84.4978502514
 10
28.8805482028
 20
84.5384634222
 10
28.8608331361
 20
84.580615979
 10
28.8439099567
 20
84.6244777925
 10
28.8297248365
 20
84.6698789922
 10
28.818659801
 20
84.7157993105
 10
28.810842192
 20
84.7618986583
 10
28.8061446678
 20
84.8085171248
 10
28.8045672283
 20
84.8556547099
  0
LINE
  5
273
100
AcDbEntity
  8
0
100
AcDbLine
 62
250
  6
CONTINUOUS
 10
99.8045672283
 20
84.8556547099
 11
99.8045672283
 21
129.1719246979
  0
LINE
  5
274
100
AcDbEntity
  8
0
100
AcDbLine
 62
250
  6
CONTINUOUS
 10
100.0040800383
 20
84.8556547099
 11
100.0040800383
 21
129.1719246979
  0
LINE
  5
275
100
AcDbEntity
  8
RACCORDO
100
AcDbLine
 62
7
  6
CONTINUOUS
 10
100.0609970575
 20
129.1150076788
 11
100.0609970575
 21
84.912571729
  0
LINE
  5
276
100
AcDbEntity
  8
0
100
AcDbLine
 62
250
  6
CONTINUOUS
 10
100.5028620635
 20
129.8702195331
 11
100.5028620635
 21
129.670706723
  0
LINE
  5
277
100
AcDbEntity
  8
0
100
AcDbLine
 62
250
  6
CONTINUOUS
 10
100.5028620635
 20
84.1573598747
 11
100.5028620635
 21
84.3568726848
  0
LWPOLYLINE
  5
278
100
AcDbEntity
  8
0
100
AcDbPolyline
 62
250
  6
CONTINUOUS
 90
25
 70
0
 10
100.0040800383
 20
129.1719246979
 10
100.0050470962
 20
129.2040764661
 10
100.0080828305
 20
129.2361557185
 10
100.0131883441
 20
129.2680295728
 10
100.020364935
 20
129.2996012524
 10
100.0295920334
 20
129.3306986591
 10
100.0408040371
 20
129.3610818429
 10
100.0539358691
 20
129.3906027173
 10
100.0689338263
 20
129.4191668875
 10
100.0857114091
 20
129.4466302989
 10
100.1041641448
 20
129.4728552453
 10
100.1242240825
 20
129.4977759581
 10
100.1458570581
 20
129.5213584034
 10
100.1689207451
 20
129.5434548283
 10
100.1933715546
 20
129.5640293313
 10
100.2193642529
 20
129.5831692757
 10
100.2469380152
 20
129.600811162
 10
100.2759073605
 20
129.6167469055
 10
100.3061031486
 20
129.6308194594
 10
100.3374926185
 20
129.6429499289
 10
100.3698759436
 20
129.6530008287
 10
100.4027913529
 20
129.6608146226
 10
100.4359745364
 20
129.6663589871
 10
100.4693816063
 20
129.6696553888
 10
100.5028620635
 20
129.670706723
  0
LWPOLYLINE
  5
279
100
AcDbEntity
  8
0
100
AcDbPolyline
 62
250
  6
CONTINUOUS
 90
25
 70
0
 10
99.8045672283
 20
129.1719246979
 10
99.8060236684
 20
129.2171636851
 10
99.8103525559
 20
129.2619342936
 10
99.8175538906
 20
129.3062365232
 10
99.8276910279
 20
129.3503008538
 10
99.8407006126
 20
129.3938968056
 10
99.8563925784
 20
129.4363329391
 10
99.8748101721
 20
129.4775506163
 10
99.8959101471
 20
129.5176084753
 10
99.9193726974
 20
129.5559909903
 10
99.9451885544
 20
129.5926350252
 10
99.9733669867
 20
129.6276037161
 10
100.003615995
 20
129.6605709466
 10
100.0358450908
 20
129.6914923737
 10
100.0701447625
 20
129.7204123403
 10
100.106494476
 20
129.7471377576
 10
100.145057605
 20
129.7717854328
 10
100.1856707757
 20
129.7942385586
 10
100.2278233326
 20
129.8139536253
 10
100.2716851461
 20
129.8308768047
 10
100.3170863457
 20
129.8450619249
 10
100.363006664
 20
129.8561269604
 10
100.4091060118
 20
129.8639445693
 10
100.4557244783
 20
129.8686420936
 10
100.5028620635
 20
129.8702195331
  0
LINE
  5
27A
100
AcDbEntity
  8
0
100
AcDbLine
 62
250
  6
CONTINUOUS
 10
215.8191320515
 20
84.1573598747
 11
171.5028620635
 21
84.1573598747
  0
LINE
  5
27B
100
AcDbEntity
  8
0
100
AcDbLine
 62
250
  6
CONTINUOUS
 10
144.8191320515
 20
84.1573598747
 11
100.5028620635
 21
84.1573598747
  0
LINE
  5
27C
100
AcDbEntity
  8
0
100
AcDbLine
 62
250
  6
CONTINUOUS
 10
73.8191320515
 20
84.1573598747
 11
29.5028620635
 21
84.1573598747
  0
LINE
  5
27D
100
AcDbEntity
  8
0
100
AcDbLine
 62
250
  6
CONTINUOUS
 10
215.8191320515
 20
84.3568726848
 11
171.5028620635
 21
84.3568726848
  0
LINE
  5
27E
100
AcDbEntity
  8
0
100
AcDbLine
 62
250
  6
CONTINUOUS
 10
144.8191320515
 20
84.3568726848
 11
100.5028620635
 21
84.3568726848
  0
LINE
  5
27F
100
AcDbEntity
  8
0
100
AcDbLine
 62
250
  6
CONTINUOUS
 10
73.8191320515
 20
84.3568726848
 11
29.5028620635
 21
84.3568726848
  0
LINE
  5
280
100
AcDbEntity
  8
RACCORDO
100
AcDbLine
 62
7
  6
CONTINUOUS
 10
29.5597790826
 20
84.4137897039
 11
73.7622150323
 21
84.4137897039
  0
LINE
  5
281
100
AcDbEntity
  8
RACCORDO
100
AcDbLine
 62
7
  6
CONTINUOUS
 10
100.5597790826
 20
84.4137897039
 11
144.7622150323
 21
84.4137897039
  0
LINE
  5
282
100
AcDbEntity
  8
RACCORDO
100
AcDbLine
 62
7
  6
CONTINUOUS
 10
171.5597790826
 20
84.4137897039
 11
215.7622150323
 21
84.4137897039
  0
LINE
  5
283
100
AcDbEntity
  8
0
100
AcDbLine
 62
250
  6
CONTINUOUS
 10
216.5174268866
 20
84.8556547099
 11
216.3179140766
 21
84.8556547099
  0
LINE
  5
284
100
AcDbEntity
  8
0
100
AcDbLine
 62
250
  6
CONTINUOUS
 10
145.5174268866
 20
84.8556547099
 11
145.3179140766
 21
84.8556547099
  0
LINE
  5
285
100
AcDbEntity
  8
0
100
AcDbLine
 62
250
  6
CONTINUOUS
 10
74.5174268866
 20
84.8556547099
 11
74.3179140766
 21
84.8556547099
  0
LINE
  5
286
100
AcDbEntity
  8
0
100
AcDbLine
 62
250
  6
CONTINUOUS
 10
28.8045672283
 20
84.8556547099
 11
29.0040800383
 21
84.8556547099
  0
LINE
  5
287
100
AcDbEntity
  8
0
100
AcDbLine
 62
250
  6
CONTINUOUS
 10
99.8045672283
 20
84.8556547099
 11
100.0040800383
 21
84.8556547099
  0
LINE
  5
288
100
AcDbEntity
  8
0
100
AcDbLine
 62
250
  6
CONTINUOUS
 10
170.8045672283
 20
84.8556547099
 11
171.0040800383
 21
84.8556547099
  0
LWPOLYLINE
  5
289
100
AcDbEntity
  8
0
100
AcDbPolyline
 62
250
  6
CONTINUOUS
 90
25
 70
0
 10
100.5028620635
 20
84.3568726848
 10
100.4707102953
 20
84.3578397426
 10
100.4386310428
 20
84.360875477
 10
100.4067571886
 20
84.3659809906
 10
100.375185509
 20
84.3731575814
 10
100.3440881022
 20
84.3823846799
 10
100.3137049185
 20
84.3935966835
 10
100.284184044
 20
84.4067285155
 10
100.2556198739
 20
84.4217264727
 10
100.2281564624
 20
84.4385040556
 10
100.2019315161
 20
84.4569567912
 10
100.1770108032
 20
84.477016729
 10
100.153428358
 20
84.4986497045
 10
100.1313319331
 20
84.5217133916
 10
100.1107574301
 20
84.546164201
 10
100.0916174856
 20
84.5721568993
 10
100.0739755994
 20
84.5997306617
 10
100.0580398558
 20
84.628700007
 10
100.043967302
 20
84.6588957951
 10
100.0318368324
 20
84.690285265
 10
100.0217859326
 20
84.7226685901
 10
100.0139721388
 20
84.7555839994
 10
100.0084277743
 20
84.7887671828
 10
100.0051313726
 20
84.8221742527
 10
100.0040800383
 20
84.8556547099
  0
LWPOLYLINE
  5
28A
100
AcDbEntity
  8
0
100
AcDbPolyline
 62
250
  6
CONTINUOUS
 90
25
 70
0
 10
171.5028620635
 20
84.3568726848
 10
171.4707102953
 20
84.3578397426
 10
171.4386310428
 20
84.360875477
 10
171.4067571886
 20
84.3659809906
 10
171.375185509
 20
84.3731575814
 10
171.3440881022
 20
84.3823846799
 10
171.3137049185
 20
84.3935966835
 10
171.284184044
 20
84.4067285155
 10
171.2556198739
 20
84.4217264727
 10
171.2281564624
 20
84.4385040556
 10
171.2019315161
 20
84.4569567912
 10
171.1770108032
 20
84.477016729
 10
171.153428358
 20
84.4986497045
 10
171.1313319331
 20
84.5217133916
 10
171.1107574301
 20
84.546164201
 10
171.0916174856
 20
84.5721568993
 10
171.0739755994
 20
84.5997306617
 10
171.0580398558
 20
84.628700007
 10
171.043967302
 20
84.6588957951
 10
171.0318368324
 20
84.690285265
 10
171.0217859326
 20
84.7226685901
 10
171.0139721388
 20
84.7555839994
 10
171.0084277743
 20
84.7887671828
 10
171.0051313726
 20
84.8221742527
 10
171.0040800383
 20
84.8556547099
  0
LWPOLYLINE
  5
28B
100
AcDbEntity
  8
0
100
AcDbPolyline
 62
250
  6
CONTINUOUS
 90
25
 70
0
 10
100.5028620635
 20
84.1573598747
 10
100.4576230762
 20
84.1588163149
 10
100.4128524678
 20
84.1631452023
 10
100.3685502382
 20
84.170346537
 10
100.3244859076
 20
84.1804836744
 10
100.2808899558
 20
84.193493259
 10
100.2384538223
 20
84.2091852249
 10
100.197236145
 20
84.2276028186
 10
100.1571782861
 20
84.2487027935
 10
100.1187957711
 20
84.2721653439
 10
100.0821517362
 20
84.2979812008
 10
100.0471830452
 20
84.3261596332
 10
100.0142158148
 20
84.3564086415
 10
99.9832943877
 20
84.3886377372
 10
99.9543744211
 20
84.422937409
 10
99.9276490037
 20
84.4592871224
 10
99.9030013286
 20
84.4978502514
 10
99.8805482028
 20
84.5384634222
 10
99.8608331361
 20
84.580615979
 10
99.8439099567
 20
84.6244777925
 10
99.8297248365
 20
84.6698789922
 10
99.818659801
 20
84.7157993105
 10
99.810842192
 20
84.7618986583
 10
99.8061446678
 20
84.8085171248
 10
99.8045672283
 20
84.8556547099
  0
LWPOLYLINE
  5
28C
100
AcDbEntity
  8
0
100
AcDbPolyline
 62
250
  6
CONTINUOUS
 90
25
 70
0
 10
171.5028620635
 20
84.1573598747
 10
171.4576230762
 20
84.1588163149
 10
171.4128524678
 20
84.1631452023
 10
171.3685502382
 20
84.170346537
 10
171.3244859076
 20
84.1804836744
 10
171.2808899558
 20
84.193493259
 10
171.2384538223
 20
84.2091852249
 10
171.197236145
 20
84.2276028186
 10
171.1571782861
 20
84.2487027935
 10
171.1187957711
 20
84.2721653439
 10
171.0821517362
 20
84.2979812008
 10
171.0471830452
 20
84.3261596332
 10
171.0142158148
 20
84.3564086415
 10
170.9832943877
 20
84.3886377372
 10
170.9543744211
 20
84.422937409
 10
170.9276490037
 20
84.4592871224
 10
170.9030013286
 20
84.4978502514
 10
170.8805482028
 20
84.5384634222
 10
170.8608331361
 20
84.580615979
 10
170.8439099567
 20
84.6244777925
 10
170.8297248365
 20
84.6698789922
 10
170.818659801
 20
84.7157993105
 10
170.810842192
 20
84.7618986583
 10
170.8061446678
 20
84.8085171248
 10
170.8045672283
 20
84.8556547099
  0
LINE
  5
28D
100
AcDbEntity
  8
0
100
AcDbLine
 62
250
  6
CONTINUOUS
 10
144.8191320515
 20
129.670706723
 11
144.7622150323
 21
129.6137897039
  0
LINE
  5
28E
100
AcDbEntity
  8
0
100
AcDbLine
 62
250
  6
CONTINUOUS
 10
100.0040800383
 20
84.8556547099
 11
100.0609970575
 21
84.912571729
  0
LINE
  5
28F
100
AcDbEntity
  8
0
100
AcDbLine
 62
250
  6
CONTINUOUS
 10
145.3179140766
 20
129.1719246979
 11
145.2609970575
 21
129.1150076788
  0
LINE
  5
290
100
AcDbEntity
  8
0
100
AcDbLine
 62
250
  6
CONTINUOUS
 10
100.5028620635
 20
84.3568726848
 11
100.5597790826
 21
84.4137897039
  0
LINE
  5
291
100
AcDbEntity
  8
SMUSSO
100
AcDbLine
 62
7
  6
CONTINUOUS
 10
7.8897280976
 20
63.6370522937
 11
6.8702977351
 21
63.193804234
  0
LINE
  5
292
100
AcDbEntity
  8
SMUSSO
100
AcDbLine
 62
7
  6
CONTINUOUS
 10
7.8897280976
 20
150.3905271141
 11
6.8702977351
 21
150.8337751738
  0
LINE
  5
293
100
AcDbEntity
  8
0
100
AcDbLine
 62
250
  6
CONTINUOUS
 10
100.0040800383
 20
129.1719246979
 11
100.0609970575
 21
129.1150076788
  0
LINE
  5
294
100
AcDbEntity
  8
0
100
AcDbLine
 62
250
  6
CONTINUOUS
 10
144.8191320515
 20
84.3568726848
 11
144.7622150323
 21
84.4137897039
  0
LINE
  5
295
100
AcDbEntity
  8
0
100
AcDbLine
 62
250
  6
CONTINUOUS
 10
100.5028620635
 20
129.670706723
 11
100.5597790826
 21
129.6137897039
  0
LINE
  5
296
100
AcDbEntity
  8
0
100
AcDbLine
 62
250
  6
CONTINUOUS
 10
145.3179140766
 20
84.8556547099
 11
145.2609970575
 21
84.912571729
  0
LINE
  5
297
100
AcDbEntity
  8
SMUSSO
100
AcDbLine
 62
7
  6
CONTINUOUS
 10
237.4322660173
 20
150.3905271141
 11
238.4516963798
 21
150.8337751738
  0
LINE
  5
298
100
AcDbEntity
  8
SMUSSO
100
AcDbLine
 62
7
  6
CONTINUOUS
 10
237.4322660173
 20
63.6370522937
 11
238.4516963798
 21
63.193804234
  0
LINE
  5
299
100
AcDbEntity
  8
0
100
AcDbLine
 62
250
  6
CONTINUOUS
 10
144.8191320515
 20
129.8702195331
 11
144.8191320515
 21
129.670706723
  0
LINE
  5
29A
100
AcDbEntity
  8
0
100
AcDbLine
 62
250
  6
CONTINUOUS
 10
144.8191320515
 20
84.1573598747
 11
144.8191320515
 21
84.3568726848
  0
LINE
  5
29B
100
AcDbEntity
  8
RACCORDO
100
AcDbLine
 62
7
  6
CONTINUOUS
 10
145.2609970575
 20
84.912571729
 11
145.2609970575
 21
129.1150076788
  0
LINE
  5
29C
100
AcDbEntity
  8
0
100
AcDbLine
 62
250
  6
CONTINUOUS
 10
145.3179140766
 20
129.1719246979
 11
145.3179140766
 21
84.8556547099
  0
LINE
  5
29D
100
AcDbEntity
  8
0
100
AcDbLine
 62
250
  6
CONTINUOUS
 10
145.5174268866
 20
129.1719246979
 11
145.5174268866
 21
84.8556547099
  0
LWPOLYLINE
  5
29E
100
AcDbEntity
  8
0
100
AcDbPolyline
 62
250
  6
CONTINUOUS
 90
25
 70
0
 10
145.3179140766
 20
84.8556547099
 10
145.3169470188
 20
84.8235029417
 10
145.3139112844
 20
84.7914236893
 10
145.3088057708
 20
84.759549835
 10
145.3016291799
 20
84.7279781554
 10
145.2924020815
 20
84.6968807487
 10
145.2811900779
 20
84.6664975649
 10
145.2680582458
 20
84.6369766905
 10
145.2530602887
 20
84.6084125203
 10
145.2362827058
 20
84.5809491089
 10
145.2178299702
 20
84.5547241625
 10
145.1977700324
 20
84.5298034497
 10
145.1761370568
 20
84.5062210044
 10
145.1530733698
 20
84.4841245795
 10
145.1286225604
 20
84.4635500765
 10
145.102629862
 20
84.4444101321
 10
145.0750560997
 20
84.4267682458
 10
145.0460867544
 20
84.4108325023
 10
145.0158909663
 20
84.3967599484
 10
144.9845014964
 20
84.3846294789
 10
144.9521181713
 20
84.3745785791
 10
144.919202762
 20
84.3667647852
 10
144.8860195785
 20
84.3612204207
 10
144.8526125086
 20
84.3579240191
 10
144.8191320515
 20
84.3568726848
  0
LWPOLYLINE
  5
29F
100
AcDbEntity
  8
0
100
AcDbPolyline
 62
250
  6
CONTINUOUS
 90
25
 70
0
 10
145.5174268866
 20
84.8556547099
 10
145.5159704465
 20
84.8104157227
 10
145.5116415591
 20
84.7656451143
 10
145.5044402243
 20
84.7213428846
 10
145.494303087
 20
84.677278554
 10
145.4812935024
 20
84.6336826022
 10
145.4656015365
 20
84.5912464687
 10
145.4471839428
 20
84.5500287915
 10
145.4260839678
 20
84.5099709326
 10
145.4026214175
 20
84.4715884175
 10
145.3768055605
 20
84.4349443826
 10
145.3486271282
 20
84.3999756917
 10
145.3183781199
 20
84.3670084613
 10
145.2861490241
 20
84.3360870341
 10
145.2518493524
 20
84.3071670675
 10
145.215499639
 20
84.2804416502
 10
145.17693651
 20
84.2557939751
 10
145.1363233392
 20
84.2333408492
 10
145.0941707824
 20
84.2136257825
 10
145.0503089688
 20
84.1967026031
 10
145.0049077692
 20
84.1825174829
 10
144.9589874509
 20
84.1714524474
 10
144.9128881031
 20
84.1636348385
 10
144.8662696366
 20
84.1589373142
 10
144.8191320515
 20
84.1573598747
  0
LINE
  5
2A0
100
AcDbEntity
  8
0
100
AcDbLine
 62
250
  6
CONTINUOUS
 10
216.5174268866
 20
129.1719246979
 11
216.3179140766
 21
129.1719246979
  0
LINE
  5
2A1
100
AcDbEntity
  8
0
100
AcDbLine
 62
250
  6
CONTINUOUS
 10
145.5174268866
 20
129.1719246979
 11
145.3179140766
 21
129.1719246979
  0
LINE
  5
2A2
100
AcDbEntity
  8
0
100
AcDbLine
 62
250
  6
CONTINUOUS
 10
74.5174268866
 20
129.1719246979
 11
74.3179140766
 21
129.1719246979
  0
LINE
  5
2A3
100
AcDbEntity
  8
0
100
AcDbLine
 62
250
  6
CONTINUOUS
 10
28.8045672283
 20
129.1719246979
 11
29.0040800383
 21
129.1719246979
  0
LINE
  5
2A4
100
AcDbEntity
  8
0
100
AcDbLine
 62
250
  6
CONTINUOUS
 10
99.8045672283
 20
129.1719246979
 11
100.0040800383
 21
129.1719246979
  0
LINE
  5
2A5
100
AcDbEntity
  8
0
100
AcDbLine
 62
250
  6
CONTINUOUS
 10
170.8045672283
 20
129.1719246979
 11
171.0040800383
 21
129.1719246979
  0
LINE
  5
2A6
100
AcDbEntity
  8
RACCORDO
100
AcDbLine
 62
7
  6
CONTINUOUS
 10
215.7622150323
 20
129.6137897039
 11
171.5597790826
 21
129.6137897039
  0
LINE
  5
2A7
100
AcDbEntity
  8
RACCORDO
100
AcDbLine
 62
7
  6
CONTINUOUS
 10
144.7622150323
 20
129.6137897039
 11
100.5597790826
 21
129.6137897039
  0
LINE
  5
2A8
100
AcDbEntity
  8
RACCORDO
100
AcDbLine
 62
7
  6
CONTINUOUS
 10
73.7622150323
 20
129.6137897039
 11
29.5597790826
 21
129.6137897039
  0
LINE
  5
2A9
100
AcDbEntity
  8
0
100
AcDbLine
 62
250
  6
CONTINUOUS
 10
29.5028620635
 20
129.670706723
 11
73.8191320515
 21
129.670706723
  0
LINE
  5
2AA
100
AcDbEntity
  8
0
100
AcDbLine
 62
250
  6
CONTINUOUS
 10
100.5028620635
 20
129.670706723
 11
144.8191320515
 21
129.670706723
  0
LINE
  5
2AB
100
AcDbEntity
  8
0
100
AcDbLine
 62
250
  6
CONTINUOUS
 10
171.5028620635
 20
129.670706723
 11
215.8191320515
 21
129.670706723
  0
LINE
  5
2AC
100
AcDbEntity
  8
0
100
AcDbLine
 62
250
  6
CONTINUOUS
 10
29.5028620635
 20
129.8702195331
 11
73.8191320515
 21
129.8702195331
  0
LINE
  5
2AD
100
AcDbEntity
  8
0
100
AcDbLine
 62
250
  6
CONTINUOUS
 10
100.5028620635
 20
129.8702195331
 11
144.8191320515
 21
129.8702195331
  0
LINE
  5
2AE
100
AcDbEntity
  8
0
100
AcDbLine
 62
250
  6
CONTINUOUS
 10
171.5028620635
 20
129.8702195331
 11
215.8191320515
 21
129.8702195331
  0
LWPOLYLINE
  5
2AF
100
AcDbEntity
  8
0
100
AcDbPolyline
 62
250
  6
CONTINUOUS
 90
25
 70
0
 10
73.8191320515
 20
129.670706723
 10
73.8512838196
 20
129.6697396652
 10
73.8833630721
 20
129.6667039308
 10
73.9152369264
 20
129.6615984172
 10
73.946808606
 20
129.6544218264
 10
73.9779060127
 20
129.6451947279
 10
74.0082891964
 20
129.6339827243
 10
74.0378100709
 20
129.6208508923
 10
74.066374241
 20
129.6058529351
 10
74.0938376525
 20
129.5890753523
 10
74.1200625988
 20
129.5706226166
 10
74.1449833117
 20
129.5505626788
 10
74.168565757
 20
129.5289297033
 10
74.1906621819
 20
129.5058660162
 10
74.2112366848
 20
129.4814152068
 10
74.2303766293
 20
129.4554225085
 10
74.2480185155
 20
129.4278487461
 10
74.2639542591
 20
129.3988794008
 10
74.278026813
 20
129.3686836127
 10
74.2901572825
 20
129.3372941428
 10
74.3002081823
 20
129.3049108177
 10
74.3080219762
 20
129.2719954084
 10
74.3135663407
 20
129.238812225
 10
74.3168627423
 20
129.2054051551
 10
74.3179140766
 20
129.1719246979
  0
LWPOLYLINE
  5
2B0
100
AcDbEntity
  8
0
100
AcDbPolyline
 62
250
  6
CONTINUOUS
 90
25
 70
0
 10
144.8191320515
 20
129.670706723
 10
144.8512838196
 20
129.6697396652
 10
144.8833630721
 20
129.6667039308
 10
144.9152369264
 20
129.6615984172
 10
144.946808606
 20
129.6544218264
 10
144.9779060127
 20
129.6451947279
 10
145.0082891964
 20
129.6339827243
 10
145.0378100709
 20
129.6208508923
 10
145.066374241
 20
129.6058529351
 10
145.0938376525
 20
129.5890753523
 10
145.1200625988
 20
129.5706226166
 10
145.1449833117
 20
129.5505626788
 10
145.168565757
 20
129.5289297033
 10
145.1906621819
 20
129.5058660162
 10
145.2112366848
 20
129.4814152068
 10
145.2303766293
 20
129.4554225085
 10
145.2480185155
 20
129.4278487461
 10
145.2639542591
 20
129.3988794008
 10
145.278026813
 20
129.3686836127
 10
145.2901572825
 20
129.3372941428
 10
145.3002081823
 20
129.3049108177
 10
145.3080219762
 20
129.2719954084
 10
145.3135663407
 20
129.238812225
 10
145.3168627423
 20
129.2054051551
 10
145.3179140766
 20
129.1719246979
  0
LWPOLYLINE
  5
2B1
100
AcDbEntity
  8
0
100
AcDbPolyline
 62
250
  6
CONTINUOUS
 90
25
 70
0
 10
215.8191320515
 20
129.670706723
 10
215.8512838196
 20
129.6697396652
 10
215.8833630721
 20
129.6667039308
 10
215.9152369264
 20
129.6615984172
 10
215.946808606
 20
129.6544218264
 10
215.9779060127
 20
129.6451947279
 10
216.0082891964
 20
129.6339827243
 10
216.0378100709
 20
129.6208508923
 10
216.066374241
 20
129.6058529351
 10
216.0938376525
 20
129.5890753523
 10
216.1200625988
 20
129.5706226166
 10
216.1449833117
 20
129.5505626788
 10
216.168565757
 20
129.5289297033
 10
216.1906621819
 20
129.5058660162
 10
216.2112366848
 20
129.4814152068
 10
216.2303766293
 20
129.4554225085
 10
216.2480185155
 20
129.4278487461
 10
216.2639542591
 20
129.3988794008
 10
216.278026813
 20
129.3686836127
 10
216.2901572825
 20
129.3372941428
 10
216.3002081823
 20
129.3049108177
 10
216.3080219762
 20
129.2719954084
 10
216.3135663407
 20
129.238812225
 10
216.3168627423
 20
129.2054051551
 10
216.3179140766
 20
129.1719246979
  0
LWPOLYLINE
  5
2B2
100
AcDbEntity
  8
0
100
AcDbPolyline
 62
250
  6
CONTINUOUS
 90
25
 70
0
 10
73.8191320515
 20
129.8702195331
 10
73.8643710387
 20
129.8687630929
 10
73.9091416471
 20
129.8644342055
 10
73.9534438767
 20
129.8572328708
 10
73.9975082073
 20
129.8470957334
 10
74.0411041591
 20
129.8340861488
 10
74.0835402927
 20
129.8183941829
 10
74.1247579699
 20
129.7999765892
 10
74.1648158288
 20
129.7788766143
 10
74.2031983439
 20
129.7554140639
 10
74.2398423787
 20
129.729598207
 10
74.2748110697
 20
129.7014197746
 10
74.3077783001
 20
129.6711707664
 10
74.3386997273
 20
129.6389416706
 10
74.3676196939
 20
129.6046419989
 10
74.3943451112
 20
129.5682922854
 10
74.4189927863
 20
129.5297291564
 10
74.4414459122
 20
129.4891159856
 10
74.4611609789
 20
129.4469634288
 10
74.4780841582
 20
129.4031016153
 10
74.4922692785
 20
129.3577004156
 10
74.503334314
 20
129.3117800973
 10
74.5111519229
 20
129.2656807495
 10
74.5158494471
 20
129.219062283
 10
74.5174268866
 20
129.1719246979
  0
LWPOLYLINE
  5
2B3
100
AcDbEntity
  8
0
100
AcDbPolyline
 62
250
  6
CONTINUOUS
 90
25
 70
0
 10
144.8191320515
 20
129.8702195331
 10
144.8643710387
 20
129.8687630929
 10
144.9091416471
 20
129.8644342055
 10
144.9534438767
 20
129.8572328708
 10
144.9975082073
 20
129.8470957334
 10
145.0411041591
 20
129.8340861488
 10
145.0835402927
 20
129.8183941829
 10
145.1247579699
 20
129.7999765892
 10
145.1648158288
 20
129.7788766143
 10
145.2031983439
 20
129.7554140639
 10
145.2398423787
 20
129.729598207
 10
145.2748110697
 20
129.7014197746
 10
145.3077783001
 20
129.6711707664
 10
145.3386997273
 20
129.6389416706
 10
145.3676196939
 20
129.6046419989
 10
145.3943451112
 20
129.5682922854
 10
145.4189927863
 20
129.5297291564
 10
145.4414459122
 20
129.4891159856
 10
145.4611609789
 20
129.4469634288
 10
145.4780841582
 20
129.4031016153
 10
145.4922692785
 20
129.3577004156
 10
145.503334314
 20
129.3117800973
 10
145.5111519229
 20
129.2656807495
 10
145.5158494471
 20
129.219062283
 10
145.5174268866
 20
129.1719246979
  0
LWPOLYLINE
  5
2B4
100
AcDbEntity
  8
0
100
AcDbPolyline
 62
250
  6
CONTINUOUS
 90
25
 70
0
 10
215.8191320515
 20
129.8702195331
 10
215.8643710387
 20
129.8687630929
 10
215.9091416471
 20
129.8644342055
 10
215.9534438767
 20
129.8572328708
 10
215.9975082073
 20
129.8470957334
 10
216.0411041591
 20
129.8340861488
 10
216.0835402927
 20
129.8183941829
 10
216.1247579699
 20
129.7999765892
 10
216.1648158288
 20
129.7788766143
 10
216.2031983439
 20
129.7554140639
 10
216.2398423787
 20
129.729598207
 10
216.2748110697
 20
129.7014197746
 10
216.3077783001
 20
129.6711707664
 10
216.3386997273
 20
129.6389416706
 10
216.3676196939
 20
129.6046419989
 10
216.3943451112
 20
129.5682922854
 10
216.4189927863
 20
129.5297291564
 10
216.4414459122
 20
129.4891159856
 10
216.4611609789
 20
129.4469634288
 10
216.4780841582
 20
129.4031016153
 10
216.4922692785
 20
129.3577004156
 10
216.503334314
 20
129.3117800973
 10
216.5111519229
 20
129.2656807495
 10
216.5158494471
 20
129.219062283
 10
216.5174268866
 20
129.1719246979
  0
LINE
  5
2B5
100
AcDbEntity
  8
0
100
AcDbLine
 62
250
  6
CONTINUOUS
 10
170.8045672283
 20
84.8556547099
 11
170.8045672283
 21
129.1719246979
  0
LINE
  5
2B6
100
AcDbEntity
  8
0
100
AcDbLine
 62
250
  6
CONTINUOUS
 10
171.0040800383
 20
84.8556547099
 11
171.0040800383
 21
129.1719246979
  0
LINE
  5
2B7
100
AcDbEntity
  8
RACCORDO
100
AcDbLine
 62
7
  6
CONTINUOUS
 10
171.0609970575
 20
129.1150076788
 11
171.0609970575
 21
84.912571729
  0
LINE
  5
2B8
100
AcDbEntity
  8
0
100
AcDbLine
 62
250
  6
CONTINUOUS
 10
171.5028620635
 20
129.8702195331
 11
171.5028620635
 21
129.670706723
  0
LINE
  5
2B9
100
AcDbEntity
  8
0
100
AcDbLine
 62
250
  6
CONTINUOUS
 10
171.5028620635
 20
84.1573598747
 11
171.5028620635
 21
84.3568726848
  0
LWPOLYLINE
  5
2BA
100
AcDbEntity
  8
0
100
AcDbPolyline
 62
250
  6
CONTINUOUS
 90
25
 70
0
 10
171.0040800383
 20
129.1719246979
 10
171.0050470962
 20
129.2040764661
 10
171.0080828305
 20
129.2361557185
 10
171.0131883441
 20
129.2680295728
 10
171.020364935
 20
129.2996012524
 10
171.0295920334
 20
129.3306986591
 10
171.0408040371
 20
129.3610818429
 10
171.0539358691
 20
129.3906027173
 10
171.0689338263
 20
129.4191668875
 10
171.0857114091
 20
129.4466302989
 10
171.1041641448
 20
129.4728552453
 10
171.1242240825
 20
129.4977759581
 10
171.1458570581
 20
129.5213584034
 10
171.1689207451
 20
129.5434548283
 10
171.1933715546
 20
129.5640293313
 10
171.2193642529
 20
129.5831692757
 10
171.2469380152
 20
129.600811162
 10
171.2759073605
 20
129.6167469055
 10
171.3061031486
 20
129.6308194594
 10
171.3374926185
 20
129.6429499289
 10
171.3698759436
 20
129.6530008287
 10
171.4027913529
 20
129.6608146226
 10
171.4359745364
 20
129.6663589871
 10
171.4693816063
 20
129.6696553888
 10
171.5028620635
 20
129.670706723
  0
LWPOLYLINE
  5
2BB
100
AcDbEntity
  8
0
100
AcDbPolyline
 62
250
  6
CONTINUOUS
 90
25
 70
0
 10
170.8045672283
 20
129.1719246979
 10
170.8060236684
 20
129.2171636851
 10
170.8103525559
 20
129.2619342936
 10
170.8175538906
 20
129.3062365232
 10
170.8276910279
 20
129.3503008538
 10
170.8407006126
 20
129.3938968056
 10
170.8563925784
 20
129.4363329391
 10
170.8748101721
 20
129.4775506163
 10
170.8959101471
 20
129.5176084753
 10
170.9193726974
 20
129.5559909903
 10
170.9451885544
 20
129.5926350252
 10
170.9733669867
 20
129.6276037161
 10
171.003615995
 20
129.6605709466
 10
171.0358450908
 20
129.6914923737
 10
171.0701447625
 20
129.7204123403
 10
171.106494476
 20
129.7471377576
 10
171.145057605
 20
129.7717854328
 10
171.1856707757
 20
129.7942385586
 10
171.2278233326
 20
129.8139536253
 10
171.2716851461
 20
129.8308768047
 10
171.3170863457
 20
129.8450619249
 10
171.363006664
 20
129.8561269604
 10
171.4091060118
 20
129.8639445693
 10
171.4557244783
 20
129.8686420936
 10
171.5028620635
 20
129.8702195331
  0
LINE
  5
2BC
100
AcDbEntity
  8
SMUSSO
100
AcDbLine
 62
7
  6
CONTINUOUS
 10
237.4665567119
 20
151.8199581604
 11
237.6603882553
 21
152.0137897039
  0
LINE
  5
2BD
100
AcDbEntity
  8
0
100
AcDbLine
 62
250
  6
CONTINUOUS
 10
215.8191320515
 20
129.670706723
 11
215.7622150323
 21
129.6137897039
  0
LINE
  5
2BE
100
AcDbEntity
  8
0
100
AcDbLine
 62
250
  6
CONTINUOUS
 10
171.0040800383
 20
84.8556547099
 11
171.0609970575
 21
84.912571729
  0
LINE
  5
2BF
100
AcDbEntity
  8
0
100
AcDbLine
 62
250
  6
CONTINUOUS
 10
216.3179140766
 20
129.1719246979
 11
216.2609970575
 21
129.1150076788
  0
LINE
  5
2C0
100
AcDbEntity
  8
0
100
AcDbLine
 62
250
  6
CONTINUOUS
 10
171.5028620635
 20
84.3568726848
 11
171.5597790826
 21
84.4137897039
  0
LINE
  5
2C1
100
AcDbEntity
  8
SMUSSO
100
AcDbLine
 62
7
  6
CONTINUOUS
 10
237.0377344677
 20
150.7850586637
 11
8.2842596473
 21
150.7850586637
  0
LINE
  5
2C2
100
AcDbEntity
  8
SMUSSO
100
AcDbLine
 62
7
  6
CONTINUOUS
 10
237.4665567119
 20
151.8199581604
 11
7.855437403
 21
151.8199581604
  0
LINE
  5
2C3
100
AcDbEntity
  8
SMUSSO
100
AcDbLine
 62
7
  6
CONTINUOUS
 10
237.6603882553
 20
152.0137897039
 11
7.6616058596
 21
152.0137897039
  0
LINE
  5
2C4
100
AcDbEntity
  8
SMUSSO
100
AcDbLine
 62
7
  6
CONTINUOUS
 10
237.4665567119
 20
62.2076212474
 11
237.6603882553
 21
62.0137897039
  0
LINE
  5
2C5
100
AcDbEntity
  8
0
100
AcDbLine
 62
250
  6
CONTINUOUS
 10
215.8191320515
 20
84.3568726848
 11
215.7622150323
 21
84.4137897039
  0
LINE
  5
2C6
100
AcDbEntity
  8
0
100
AcDbLine
 62
250
  6
CONTINUOUS
 10
171.0040800383
 20
129.1719246979
 11
171.0609970575
 21
129.1150076788
  0
LINE
  5
2C7
100
AcDbEntity
  8
0
100
AcDbLine
 62
250
  6
CONTINUOUS
 10
216.3179140766
 20
84.8556547099
 11
216.2609970575
 21
84.912571729
  0
LINE
  5
2C8
100
AcDbEntity
  8
0
100
AcDbLine
 62
250
  6
CONTINUOUS
 10
171.5028620635
 20
129.670706723
 11
171.5597790826
 21
129.6137897039
  0
LINE
  5
2C9
100
AcDbEntity
  8
SMUSSO
100
AcDbLine
 62
7
  6
CONTINUOUS
 10
238.467165514
 20
150.8193493583
 11
238.6609970575
 21
151.0131809018
  0
LINE
  5
2CA
100
AcDbEntity
  8
SMUSSO
100
AcDbLine
 62
7
  6
CONTINUOUS
 10
238.467165514
 20
63.2082300495
 11
238.6609970575
 21
63.014398506
  0
LWPOLYLINE
  5
2CB
100
AcDbEntity
  8
0
100
AcDbPolyline
 62
7
  6
CONTINUOUS
 90
7
 70
0
 43
0.3500000006
 10
125.2324228821
 20
171.0652789307
 10
123.7324224243
 20
171.0652789307
 10
125.2324228821
 20
173.2081237793
 10
125.2324228821
 20
173.6367108765
 10
124.8038539124
 20
174.0652798462
 10
124.1610004578
 20
174.0652798462
 10
123.7324224243
 20
173.4224082642
  0
LWPOLYLINE
  5
2CC
100
AcDbEntity
  8
0
100
AcDbPolyline
 62
7
  6
CONTINUOUS
 90
7
 70
0
 43
0.3500000006
 10
120.7324215088
 20
171.0652789307
 10
119.2324301147
 20
171.0652789307
 10
120.7324215088
 20
173.2081237793
 10
120.7324215088
 20
173.6367108765
 10
120.3038525391
 20
174.0652798462
 10
119.6609990845
 20
174.0652798462
 10
119.2324301147
 20
173.4224082642
  0
LWPOLYLINE
  5
2CD
100
AcDbEntity
  8
0
100
AcDbPolyline
 62
7
  6
CONTINUOUS
 90
6
 70
0
 43
0.3500000006
 10
121.589568512
 20
171.0652789307
 10
122.661
 20
171.0652789307
 10
122.8752844849
 20
171.2795634155
 10
122.8752844849
 20
172.3509858398
 10
122.4467155151
 20
172.7795548096
 10
122.0181374817
 20
172.7795548096
  0
LINE
  5
2CE
100
AcDbEntity
  8
SMUSSO
100
AcDbLine
 62
7
  6
CONTINUOUS
 10
237.0377344677
 20
150.7850586637
 11
237.4809825274
 21
151.8044890262
  0
LINE
  5
2CF
100
AcDbEntity
  8
SMUSSO
100
AcDbLine
 62
7
  6
CONTINUOUS
 10
237.0377344677
 20
63.2425207441
 11
237.4809825274
 21
62.2230903816
  0
LINE
  5
2D0
100
AcDbEntity
  8
0
100
AcDbLine
 62
250
  6
CONTINUOUS
 10
215.8191320515
 20
129.8702195331
 11
215.8191320515
 21
129.670706723
  0
LINE
  5
2D1
100
AcDbEntity
  8
0
100
AcDbLine
 62
250
  6
CONTINUOUS
 10
215.8191320515
 20
84.1573598747
 11
215.8191320515
 21
84.3568726848
  0
LINE
  5
2D2
100
AcDbEntity
  8
RACCORDO
100
AcDbLine
 62
7
  6
CONTINUOUS
 10
216.2609970575
 20
84.912571729
 11
216.2609970575
 21
129.1150076788
  0
LINE
  5
2D3
100
AcDbEntity
  8
0
100
AcDbLine
 62
250
  6
CONTINUOUS
 10
216.3179140766
 20
129.1719246979
 11
216.3179140766
 21
84.8556547099
  0
LINE
  5
2D4
100
AcDbEntity
  8
0
100
AcDbLine
 62
250
  6
CONTINUOUS
 10
216.5174268866
 20
129.1719246979
 11
216.5174268866
 21
84.8556547099
  0
LWPOLYLINE
  5
2D5
100
AcDbEntity
  8
0
100
AcDbPolyline
 62
250
  6
CONTINUOUS
 90
25
 70
0
 10
216.3179140766
 20
84.8556547099
 10
216.3169470188
 20
84.8235029417
 10
216.3139112844
 20
84.7914236893
 10
216.3088057708
 20
84.759549835
 10
216.3016291799
 20
84.7279781554
 10
216.2924020815
 20
84.6968807487
 10
216.2811900779
 20
84.6664975649
 10
216.2680582458
 20
84.6369766905
 10
216.2530602887
 20
84.6084125203
 10
216.2362827058
 20
84.5809491089
 10
216.2178299702
 20
84.5547241625
 10
216.1977700324
 20
84.5298034497
 10
216.1761370568
 20
84.5062210044
 10
216.1530733698
 20
84.4841245795
 10
216.1286225604
 20
84.4635500765
 10
216.102629862
 20
84.4444101321
 10
216.0750560997
 20
84.4267682458
 10
216.0460867544
 20
84.4108325023
 10
216.0158909663
 20
84.3967599484
 10
215.9845014964
 20
84.3846294789
 10
215.9521181713
 20
84.3745785791
 10
215.919202762
 20
84.3667647852
 10
215.8860195785
 20
84.3612204207
 10
215.8526125086
 20
84.3579240191
 10
215.8191320515
 20
84.3568726848
  0
LWPOLYLINE
  5
2D6
100
AcDbEntity
  8
0
100
AcDbPolyline
 62
250
  6
CONTINUOUS
 90
25
 70
0
 10
216.5174268866
 20
84.8556547099
 10
216.5159704465
 20
84.8104157227
 10
216.5116415591
 20
84.7656451143
 10
216.5044402243
 20
84.7213428846
 10
216.494303087
 20
84.677278554
 10
216.4812935024
 20
84.6336826022
 10
216.4656015365
 20
84.5912464687
 10
216.4471839428
 20
84.5500287915
 10
216.4260839678
 20
84.5099709326
 10
216.4026214175
 20
84.4715884175
 10
216.3768055605
 20
84.4349443826
 10
216.3486271282
 20
84.3999756917
 10
216.3183781199
 20
84.3670084613
 10
216.2861490241
 20
84.3360870341
 10
216.2518493524
 20
84.3071670675
 10
216.215499639
 20
84.2804416502
 10
216.17693651
 20
84.2557939751
 10
216.1363233392
 20
84.2333408492
 10
216.0941707824
 20
84.2136257825
 10
216.0503089688
 20
84.1967026031
 10
216.0049077692
 20
84.1825174829
 10
215.9589874509
 20
84.1714524474
 10
215.9128881031
 20
84.1636348385
 10
215.8662696366
 20
84.1589373142
 10
215.8191320515
 20
84.1573598747
  0
LINE
  5
2D7
100
AcDbEntity
  8
SMUSSO
100
AcDbLine
 62
7
  6
CONTINUOUS
 10
237.4322660173
 20
63.6370522937
 11
237.4322660173
 21
150.3905271141
  0
LINE
  5
2D8
100
AcDbEntity
  8
SMUSSO
100
AcDbLine
 62
7
  6
CONTINUOUS
 10
238.467165514
 20
63.2082300495
 11
238.467165514
 21
150.8193493583
  0
LINE
  5
2D9
100
AcDbEntity
  8
SMUSSO
100
AcDbLine
 62
7
  6
CONTINUOUS
 10
238.6609970575
 20
63.014398506
 11
238.6609970575
 21
151.0131809018
  0
LINE
  5
2DA
100
AcDbEntity
  8
SMUSSO
100
AcDbLine
 62
7
  6
CONTINUOUS
 10
237.4809825274
 20
62.2230903816
 11
237.4665567119
 21
62.2076212474
  0
LINE
  5
2DB
100
AcDbEntity
  8
SMUSSO
100
AcDbLine
 62
7
  6
CONTINUOUS
 10
237.0377344677
 20
63.2425207441
 11
237.4322660173
 21
63.6370522937
  0
LINE
  5
2DC
100
AcDbEntity
  8
SMUSSO
100
AcDbLine
 62
7
  6
CONTINUOUS
 10
237.4809825274
 20
62.2230903816
 11
238.4516963798
 21
63.193804234
  0
LINE
  5
2DD
100
AcDbEntity
  8
SMUSSO
100
AcDbLine
 62
7
  6
CONTINUOUS
 10
238.6609970575
 20
63.014398506
 11
237.6603882553
 21
62.0137897039
  0
LINE
  5
2DE
100
AcDbEntity
  8
SMUSSO
100
AcDbLine
 62
7
  6
CONTINUOUS
 10
238.467165514
 20
63.2082300495
 11
238.4516963798
 21
63.193804234
  0
LINE
  5
2DF
100
AcDbEntity
  8
SMUSSO
100
AcDbLine
 62
7
  6
CONTINUOUS
 10
238.4516963798
 20
150.8337751738
 11
238.467165514
 21
150.8193493583
  0
LINE
  5
2E0
100
AcDbEntity
  8
SMUSSO
100
AcDbLine
 62
7
  6
CONTINUOUS
 10
237.4322660173
 20
150.3905271141
 11
237.0377344677
 21
150.7850586637
  0
LINE
  5
2E1
100
AcDbEntity
  8
SMUSSO
100
AcDbLine
 62
7
  6
CONTINUOUS
 10
238.4516963798
 20
150.8337751738
 11
237.4809825274
 21
151.8044890262
  0
LINE
  5
2E2
100
AcDbEntity
  8
SMUSSO
100
AcDbLine
 62
7
  6
CONTINUOUS
 10
237.6603882553
 20
152.0137897039
 11
238.6609970575
 21
151.0131809018
  0
LINE
  5
2E3
100
AcDbEntity
  8
SMUSSO
100
AcDbLine
 62
7
  6
CONTINUOUS
 10
237.4665567119
 20
151.8199581604
 11
237.4809825274
 21
151.8044890262
  0
LINE
  5
2E4
100
AcDbEntity
  8
SMUSSO
100
AcDbLine
 62
7
  6
CONTINUOUS
 10
274.3334404444
 20
62.2076212474
 11
268.7828312714
 21
62.0137897039
  0
LWPOLYLINE
  5
2E5
100
AcDbEntity
  8
0
100
AcDbPolyline
 62
7
  6
CONTINUOUS
 90
3
 70
0
 43
0.3500000006
 10
277.5559806519
 20
173.5998396606
 10
278.4131185913
 20
174.4569957275
 10
278.4131185913
 20
171.456994812
  0
LINE
  5
2E6
100
AcDbEntity
  8
0
100
AcDbLine
 62
7
  6
CONTINUOUS
 10
268.7828312714
 20
64.2557457911
 11
268.1828312714
 21
64.2137897039
  0
LINE
  5
2E7
100
AcDbEntity
  8
SMUSSO
100
AcDbLine
 62
7
  6
CONTINUOUS
 10
274.3334404444
 20
63.2082300495
 11
268.7828312714
 21
63.014398506
  0
LINE
  5
2E8
100
AcDbEntity
  8
0
100
AcDbLine
 62
250
  6
CONTINUOUS
 10
268.7828312714
 20
65.8518482715
 11
268.1828312714
 21
65.8098921843
  0
LWPOLYLINE
  5
2E9
100
AcDbEntity
  8
0
100
AcDbPolyline
 62
7
  6
CONTINUOUS
 90
3
 70
0
 43
0.3500000006
 10
283.341697998
 20
173.5998396606
 10
284.1988359375
 20
174.4569957275
 10
284.1988359375
 20
171.456994812
  0
LWPOLYLINE
  5
2EA
100
AcDbEntity
  8
0
100
AcDbPolyline
 62
7
  6
CONTINUOUS
 90
3
 70
0
 43
0.3500000006
 10
282.1403743286
 20
165.3197682495
 10
282.9975303955
 20
166.176906189
 10
282.9975303955
 20
163.1769052734
  0
LINE
  5
2EB
100
AcDbEntity
  8
SMUSSO
100
AcDbLine
 62
7
  6
CONTINUOUS
 10
274.3334404444
 20
150.8193493583
 11
274.3483788137
 21
150.8337751738
  0
LINE
  5
2EC
100
AcDbEntity
  8
0
100
AcDbLine
 62
250
  6
CONTINUOUS
 10
267.2570586877
 20
80.08611046
 11
268.1828312714
 21
80.0856922655
  0
LINE
  5
2ED
100
AcDbEntity
  8
0
100
AcDbLine
 62
7
  6
CONTINUOUS
 10
267.2569942326
 20
79.863660265
 11
268.1828312714
 21
79.8620443729
  0
LWPOLYLINE
  5
2EE
100
AcDbEntity
  8
0
100
AcDbPolyline
 62
250
  6
CONTINUOUS
 90
14
 70
0
 10
266.1363011722
 20
80.5102882372
 10
266.1208650341
 20
80.5119499879
 10
266.1063465173
 20
80.5137428402
 10
266.0926285951
 20
80.515685234
 10
266.0795922264
 20
80.5177444799
 10
266.0673045406
 20
80.5198843238
 10
266.0556984083
 20
80.5221412298
 10
266.0444533997
 20
80.5245916377
 10
266.0333890091
 20
80.527243787
 10
266.0226857422
 20
80.5300898886
 10
266.0125646873
 20
80.5331825082
 10
266.0030995403
 20
80.5365394485
 10
265.9942166052
 20
80.5401436691
 10
265.9859158821
 20
80.5439955904
  0
LINE
  5
2EF
100
AcDbEntity
  8
SMUSSO
100
AcDbLine
 62
7
  6
CONTINUOUS
 10
274.3483788137
 20
63.193804234
 11
274.3334404444
 21
63.2082300495
  0
LINE
  5
2F0
100
AcDbEntity
  8
0
100
AcDbLine
 62
250
  6
CONTINUOUS
 10
265.182831272
 20
133.0544628746
 11
265.9859158821
 21
133.4835838174
  0
LINE
  5
2F1
100
AcDbEntity
  8
0
100
AcDbLine
 62
7
  6
CONTINUOUS
 10
265.1828312714
 20
133.1021540443
 11
267.1178193097
 21
134.1292801955
  0
LINE
  5
2F2
100
AcDbEntity
  8
0
100
AcDbLine
 62
250
  6
CONTINUOUS
 10
267.2570586877
 20
133.9414689478
 11
266.5151594826
 21
133.5476556218
  0
LWPOLYLINE
  5
2F3
100
AcDbEntity
  8
0
100
AcDbPolyline
 62
250
  6
CONTINUOUS
 90
12
 70
0
 10
265.9859158821
 20
133.4835838174
 10
265.9942078482
 20
133.4875138324
 10
266.0035727388
 20
133.4912720476
 10
266.0140105539
 20
133.4948587877
 10
266.0254937651
 20
133.4982687251
 10
266.0380499008
 20
133.5015077898
 10
266.0517615457
 20
133.5045931444
 10
266.0666797746
 20
133.507556369
 10
266.0827535127
 20
133.5103663169
 10
266.0999121202
 20
133.5129461071
 10
266.1182271021
 20
133.5153093702
 10
266.1376269535
 20
133.5174429793
  0
LWPOLYLINE
  5
2F4
100
AcDbEntity
  8
0
100
AcDbPolyline
 62
250
  6
CONTINUOUS
 90
10
 70
0
 10
265.8956348637
 20
133.4805229002
 10
265.9044038772
 20
133.4846047233
 10
265.913602963
 20
133.4877718827
 10
265.92318558
 20
133.4900083534
 10
265.9331032674
 20
133.4913028309
 10
265.9433058253
 20
133.4916487556
 10
265.9537415834
 20
133.491044355
 10
265.9643577413
 20
133.4894926919
 10
265.9751006204
 20
133.48700164
 10
265.9859158821
 20
133.4835838174
  0
LINE
  5
2F5
100
AcDbEntity
  8
0
100
AcDbLine
 62
7
  6
CONTINUOUS
 10
265.1828312714
 20
81.6137897039
 11
267.1332031735
 21
81.8088268941
  0
LINE
  5
2F6
100
AcDbEntity
  8
0
100
AcDbLine
 62
7
  6
CONTINUOUS
 10
268.1828312714
 20
81.2579698294
 11
267.1809512425
 21
81.213706644
  0
LINE
  5
2F7
100
AcDbEntity
  8
0
100
AcDbLine
 62
7
  6
CONTINUOUS
 10
268.1828312714
 20
81.8137897039
 11
267.2327068926
 21
81.8137897039
  0
LINE
  5
2F8
100
AcDbEntity
  8
0
100
AcDbLine
 62
7
  6
CONTINUOUS
 10
268.1828312714
 20
81.9637897039
 11
268.0328312714
 21
81.9637897039
  0
LINE
  5
2F9
100
AcDbEntity
  8
0
100
AcDbLine
 62
7
  6
CONTINUOUS
 10
267.7328312714
 20
81.9637897039
 11
267.5328312714
 21
81.9637897039
  0
LINE
  5
2FA
100
AcDbEntity
  8
0
100
AcDbLine
 62
7
  6
CONTINUOUS
 10
266.2228399034
 20
80.4851683849
 11
268.1828312714
 21
80.4500035538
  0
LINE
  5
2FB
100
AcDbEntity
  8
0
100
AcDbLine
 62
250
  6
CONTINUOUS
 10
268.1828312714
 20
80.4699888593
 11
266.2229383556
 21
80.5051822558
  0
LWPOLYLINE
  5
2FC
100
AcDbEntity
  8
0
100
AcDbPolyline
 62
250
  6
CONTINUOUS
 90
3
 70
0
 10
266.2229383556
 20
80.5051822558
 10
266.2045047457
 20
80.505718235
 10
266.1866396917
 20
80.5064909072
  0
LINE
  5
2FD
100
AcDbEntity
  8
0
100
AcDbLine
 62
7
  6
CONTINUOUS
 10
267.1809513516
 20
81.2137066488
 11
268.1828312714
 21
81.1793188043
  0
LWPOLYLINE
  5
2FE
100
AcDbEntity
  8
0
100
AcDbPolyline
 62
250
  6
CONTINUOUS
 90
4
 70
0
 10
266.1866396917
 20
80.5064909072
 10
266.1693431935
 20
80.5075003233
 10
266.152537905
 20
80.5087758077
 10
266.1363011722
 20
80.5102882372
  0
LWPOLYLINE
  5
2FF
100
AcDbEntity
  8
0
100
AcDbPolyline
 62
250
  6
CONTINUOUS
 90
9
 70
0
 10
265.9044035984
 20
80.5429748367
 10
265.9136024925
 20
80.5398077899
 10
265.9231849942
 20
80.5375713939
 10
265.9331026109
 20
80.5362769659
 10
265.9433051539
 20
80.5359310563
 10
265.953740993
 20
80.5365354152
 10
265.9643573172
 20
80.5380869841
 10
265.9751004022
 20
80.5405779111
 10
265.9859158821
 20
80.5439955904
  0
LINE
  5
300
100
AcDbEntity
  8
0
100
AcDbLine
 62
250
  6
CONTINUOUS
 10
265.8956348634
 20
80.5470565078
 11
265.9006324571
 21
80.5444631761
  0
LWPOLYLINE
  5
301
100
AcDbEntity
  8
0
100
AcDbPolyline
 62
7
  6
CONTINUOUS
 90
15
 70
0
 10
265.8954174308
 20
80.5471721134
 10
265.9006324571
 20
80.5444631761
 10
265.9202671624
 20
80.5353257121
 10
265.9410462968
 20
80.5272269734
 10
265.9626276276
 20
80.5201423991
 10
265.9851115087
 20
80.5138676252
 10
266.0087468338
 20
80.5082662162
 10
266.0333045226
 20
80.503315307
 10
266.0587884255
 20
80.4989652976
 10
266.0853364032
 20
80.4951640782
 10
266.1127196934
 20
80.4919368929
 10
266.1408796653
 20
80.4892872982
 10
266.1698930558
 20
80.4872270423
 10
266.1996579073
 20
80.4857980906
 10
266.2228400393
 20
80.485168388
  0
LINE
  5
302
100
AcDbEntity
  8
0
100
AcDbLine
 62
7
  6
CONTINUOUS
 10
267.1178193097
 20
79.8982992123
 11
265.1828312714
 21
80.9254253635
  0
LINE
  5
303
100
AcDbEntity
  8
0
100
AcDbLine
 62
250
  6
CONTINUOUS
 10
266.5151594826
 20
80.479923786
 11
267.2570586877
 21
80.08611046
  0
LINE
  5
304
100
AcDbEntity
  8
0
100
AcDbLine
 62
250
  6
CONTINUOUS
 10
265.9859158821
 20
80.5439955904
 11
265.1828312728
 21
80.9731165328
  0
LINE
  5
305
100
AcDbEntity
  8
0
100
AcDbLine
 62
7
  6
CONTINUOUS
 10
267.8828312714
 20
132.2137897039
 11
267.7328312714
 21
132.0637897039
  0
LINE
  5
306
100
AcDbEntity
  8
0
100
AcDbLine
 62
7
  6
CONTINUOUS
 10
267.8828312714
 20
81.8137897039
 11
267.7328312714
 21
81.9637897039
  0
LINE
  5
307
100
AcDbEntity
  8
0
100
AcDbLine
 62
250
  6
CONTINUOUS
 10
265.5938701102
 20
119.57944626
 11
265.1828312714
 21
119.2063184412
  0
LINE
  5
308
100
AcDbEntity
  8
0
100
AcDbLine
 62
250
  6
CONTINUOUS
 10
265.7327820392
 20
119.4294487984
 11
265.3331471796
 21
119.0666731446
  0
LINE
  5
309
100
AcDbEntity
  8
0
100
AcDbLine
 62
7
  6
CONTINUOUS
 10
268.1828312714
 20
92.7900329497
 11
267.1809513516
 21
92.7638882263
  0
LWPOLYLINE
  5
30A
100
AcDbEntity
  8
0
100
AcDbPolyline
 62
7
  6
CONTINUOUS
 90
7
 70
0
 10
266.1572630036
 20
94.4581317378
 10
266.133427451
 20
94.4579134348
 10
266.1091314024
 20
94.4571981348
 10
266.0843850171
 20
94.4559452098
 10
266.0592003669
 20
94.4541143611
 10
266.0335915689
 20
94.4516659757
 10
266.0075749126
 20
94.4485615177
  0
LINE
  5
30B
100
AcDbEntity
  8
0
100
AcDbLine
 62
250
  6
CONTINUOUS
 10
265.7327820392
 20
94.5981306094
 11
268.1828312714
 21
94.601949949
  0
LINE
  5
30C
100
AcDbEntity
  8
0
100
AcDbLine
 62
7
  6
CONTINUOUS
 10
268.1828312714
 20
94.9653485867
 11
265.3331471796
 21
94.9609062632
  0
LINE
  5
30D
100
AcDbEntity
  8
0
100
AcDbLine
 62
7
  6
CONTINUOUS
 10
268.1828312714
 20
94.4586150497
 11
266.1572630036
 21
94.4581317378
  0
LINE
  5
30E
100
AcDbEntity
  8
0
100
AcDbLine
 62
250
  6
CONTINUOUS
 10
265.5938701102
 20
94.4481331478
 11
266.0075749126
 21
94.4485615177
  0
LINE
  5
30F
100
AcDbEntity
  8
0
100
AcDbLine
 62
250
  6
CONTINUOUS
 10
266.2229383556
 20
94.1680800327
 11
268.1828312714
 21
94.1622610018
  0
LINE
  5
310
100
AcDbEntity
  8
0
100
AcDbLine
 62
250
  6
CONTINUOUS
 10
266.2260797712
 20
94.448468122
 11
268.1828312714
 21
94.4425969744
  0
LINE
  5
311
100
AcDbEntity
  8
0
100
AcDbLine
 62
7
  6
CONTINUOUS
 10
268.1828312714
 20
92.7113819246
 11
265.3723640802
 21
92.8586722689
  0
LINE
  5
312
100
AcDbEntity
  8
0
100
AcDbLine
 62
250
  6
CONTINUOUS
 10
265.8956348644
 20
94.1854153325
 11
265.5938701102
 21
94.2277907414
  0
LINE
  5
313
100
AcDbEntity
  8
0
100
AcDbLine
 62
250
  6
CONTINUOUS
 10
266.1572630036
 20
94.4581317378
 11
266.2260797712
 21
94.448468122
  0
LINE
  5
314
100
AcDbEntity
  8
0
100
AcDbLine
 62
250
  6
CONTINUOUS
 10
265.1828312714
 20
94.8212609666
 11
265.5938701102
 21
94.4481331478
  0
LINE
  5
315
100
AcDbEntity
  8
0
100
AcDbLine
 62
250
  6
CONTINUOUS
 10
265.3331471796
 20
94.9609062632
 11
265.7327820392
 21
94.5981306094
  0
LWPOLYLINE
  5
316
100
AcDbEntity
  8
0
100
AcDbPolyline
 62
7
  6
CONTINUOUS
 90
3
 70
0
 43
0.3500000006
 10
282.3416976929
 20
171.742701416
 10
282.2702574463
 20
171.5284169312
 10
282.127413208
 20
171.2427103271
  0
LWPOLYLINE
  5
317
100
AcDbEntity
  8
0
100
AcDbPolyline
 62
250
  6
CONTINUOUS
 90
10
 70
0
 10
265.5938701102
 20
116.9481331478
 10
265.6069704491
 20
116.9660481704
 10
265.6208592685
 20
116.9839080908
 10
265.635460619
 20
117.00160619
 10
265.6507058815
 20
117.019049363
 10
265.6664967708
 20
117.0361155778
 10
265.6827020434
 20
117.0526584505
 10
265.6992110019
 20
117.0685651837
 10
265.7159378031
 20
117.0837532681
 10
265.7327820392
 20
117.0981306094
  0
LWPOLYLINE
  5
318
100
AcDbEntity
  8
0
100
AcDbPolyline
 62
250
  6
CONTINUOUS
 90
10
 70
0
 10
265.8956348634
 20
119.8421640763
 10
265.9044035957
 20
119.8525981919
 10
265.9136024875
 20
119.8629795053
 10
265.9231849875
 20
119.8732554816
 10
265.9331026032
 20
119.8833741186
 10
265.9433051461
 20
119.8932842108
 10
265.9537409859
 20
119.9029356077
 10
265.9643573116
 20
119.9122794681
 10
265.9751003989
 20
119.9212685069
 10
265.9859158821
 20
119.929857235
  0
LWPOLYLINE
  5
319
100
AcDbEntity
  8
0
100
AcDbPolyline
 62
7
  6
CONTINUOUS
 90
7
 70
0
 10
265.7327820392
 20
116.850715244
 10
265.7096647041
 20
116.8320705874
 10
265.6863150281
 20
116.8126888267
 10
265.6628876744
 20
116.7925699617
 10
265.6395498881
 20
116.7717139925
 10
265.6164807367
 20
116.7501209191
 10
265.5938701102
 20
116.7277907414
  0
LWPOLYLINE
  5
31A
100
AcDbEntity
  8
0
100
AcDbPolyline
 62
250
  6
CONTINUOUS
 90
19
 70
0
 10
267.2570586877
 20
116.8036925888
 10
267.2491005035
 20
116.7995074448
 10
267.24078946
 20
116.7941902069
 10
267.2321590315
 20
116.7876272396
 10
267.2232418836
 20
116.7796967085
 10
267.2140979954
 20
116.77030166
 10
267.2048132073
 20
116.7593864796
 10
267.1954602956
 20
116.7468881169
 10
267.1861097319
 20
116.7327358627
 10
267.1768547454
 20
116.7168982494
 10
267.1677592346
 20
116.69929077
 10
267.158959153
 20
116.6799658043
 10
267.1506482224
 20
116.6591691818
 10
267.1429020741
 20
116.6369318168
 10
267.1358395414
 20
116.6134040464
 10
267.1296598205
 20
116.5891196978
 10
267.1244403505
 20
116.5643909373
 10
267.1201837727
 20
116.5392625364
 10
267.1169250378
 20
116.5139152823
  0
LINE
  5
31B
100
AcDbEntity
  8
0
100
AcDbLine
 62
250
  6
CONTINUOUS
 10
265.5938701102
 20
115.9415460331
 11
265.1828312714
 21
115.7267411741
  0
LINE
  5
31C
100
AcDbEntity
  8
0
100
AcDbLine
 62
250
  6
CONTINUOUS
 10
265.7327820392
 20
115.7294175887
 11
265.2106901865
 21
115.4565775155
  0
LINE
  5
31D
100
AcDbEntity
  8
0
100
AcDbLine
 62
250
  6
CONTINUOUS
 10
267.2570586877
 20
97.223886819
 11
266.1572630036
 21
97.06944767
  0
LINE
  5
31E
100
AcDbEntity
  8
0
100
AcDbLine
 62
250
  6
CONTINUOUS
 10
265.5938701102
 20
97.2997886664
 11
267.1178193097
 21
97.5137897039
  0
LINE
  5
31F
100
AcDbEntity
  8
0
100
AcDbLine
 62
250
  6
CONTINUOUS
 10
265.7327820392
 20
98.2981618191
 11
268.1828312714
 21
98.3040660066
  0
LINE
  5
320
100
AcDbEntity
  8
0
100
AcDbLine
 62
250
  6
CONTINUOUS
 10
267.2570586877
 20
97.8036925888
 11
268.1828312714
 21
97.8052533121
  0
LINE
  5
321
100
AcDbEntity
  8
0
100
AcDbLine
 62
7
  6
CONTINUOUS
 10
266.1575398278
 20
97.9580928647
 11
268.1828312714
 21
97.9585951711
  0
LINE
  5
322
100
AcDbEntity
  8
0
100
AcDbLine
 62
250
  6
CONTINUOUS
 10
265.5938701102
 20
98.0860333747
 11
268.1828312714
 21
98.0919375621
  0
LINE
  5
323
100
AcDbEntity
  8
0
100
AcDbLine
 62
7
  6
CONTINUOUS
 10
266.1572630036
 20
97.06944767
 11
268.1828312714
 21
97.0689643581
  0
LINE
  5
324
100
AcDbEntity
  8
0
100
AcDbLine
 62
7
  6
CONTINUOUS
 10
268.1828312714
 20
96.5622308211
 11
265.3331471796
 21
96.5666731446
  0
LINE
  5
325
100
AcDbEntity
  8
0
100
AcDbLine
 62
250
  6
CONTINUOUS
 10
265.7327820392
 20
96.9294487984
 11
268.1828312714
 21
96.9256294588
  0
LINE
  5
326
100
AcDbEntity
  8
0
100
AcDbLine
 62
250
  6
CONTINUOUS
 10
265.5938701103
 20
97.079446259
 11
266.0075749126
 21
97.0790178901
  0
LINE
  5
327
100
AcDbEntity
  8
0
100
AcDbLine
 62
250
  6
CONTINUOUS
 10
267.2570586877
 20
97.223886819
 11
268.1828312714
 21
97.2223260957
  0
LWPOLYLINE
  5
328
100
AcDbEntity
  8
0
100
AcDbPolyline
 62
7
  6
CONTINUOUS
 90
7
 70
0
 10
266.0075749126
 20
97.0790178901
 10
266.033523557
 20
97.0759202297
 10
266.0590913404
 20
97.0734737953
 10
266.0842621878
 20
97.0716416794
 10
266.109022114
 20
97.0703858606
 10
266.1333591067
 20
97.0696675777
 10
266.1572630036
 20
97.06944767
  0
LINE
  5
329
100
AcDbEntity
  8
0
100
AcDbLine
 62
250
  6
CONTINUOUS
 10
267.1178193097
 20
97.5137897039
 11
265.5938701102
 21
97.7277907414
  0
LINE
  5
32A
100
AcDbEntity
  8
0
100
AcDbLine
 62
250
  6
CONTINUOUS
 10
266.1575398278
 20
97.9580928647
 11
267.2570586877
 21
97.8036925888
  0
LWPOLYLINE
  5
32B
100
AcDbEntity
  8
0
100
AcDbPolyline
 62
250
  6
CONTINUOUS
 90
22
 70
0
 10
267.2570586877
 20
97.223886819
 10
267.2502853155
 20
97.22739967
 10
267.2434051526
 20
97.2316244495
 10
267.2364351861
 20
97.2365873075
 10
267.2294315525
 20
97.2422812206
 10
267.2223764431
 20
97.2487522238
 10
267.2151821847
 20
97.2561335231
 10
267.2078633134
 20
97.2644880629
 10
267.2004680449
 20
97.2738455265
 10
267.1929727276
 20
97.2843331281
 10
267.1854160349
 20
97.2960146747
 10
267.1778589896
 20
97.3089217953
 10
267.1703279964
 20
97.3231513883
 10
267.1628968843
 20
97.3387254405
 10
267.1556364173
 20
97.3556716232
 10
267.1485907894
 20
97.3740987927
 10
267.1418442137
 20
97.3940451587
 10
267.1355219353
 20
97.41544085
 10
267.1297475461
 20
97.438208363
 10
267.124642349
 20
97.4622517848
 10
267.1203262279
 20
97.4874560159
 10
267.1169250378
 20
97.5136641255
  0
LINE
  5
32C
100
AcDbEntity
  8
0
100
AcDbLine
 62
250
  6
CONTINUOUS
 10
265.1828312714
 20
98.3008382338
 11
265.5938701102
 21
98.0860333747
  0
LINE
  5
32D
100
AcDbEntity
  8
0
100
AcDbLine
 62
250
  6
CONTINUOUS
 10
265.2106901865
 20
98.5710018923
 11
265.7327820392
 21
98.2981618191
  0
LWPOLYLINE
  5
32E
100
AcDbEntity
  8
0
100
AcDbPolyline
 62
7
  6
CONTINUOUS
 90
7
 70
0
 10
265.5938701102
 20
97.2997886664
 10
265.6165104997
 20
97.2774307501
 10
265.6395990234
 20
97.2558210335
 10
265.6629442629
 20
97.2349595166
 10
265.6863661538
 20
97.2148461994
 10
265.7096969668
 20
97.1954810818
 10
265.7327820392
 20
97.1768641639
  0
LWPOLYLINE
  5
32F
100
AcDbEntity
  8
0
100
AcDbPolyline
 62
250
  6
CONTINUOUS
 90
10
 70
0
 10
265.8956348637
 20
94.1854153305
 10
265.9044038772
 20
94.1749815805
 10
265.913602963
 20
94.1646005239
 10
265.92318558
 20
94.1543247048
 10
265.9331032674
 20
94.1442061546
 10
265.9433058253
 20
94.1342960689
 10
265.9537415834
 20
94.1246445636
 10
265.9643577413
 20
94.1153004936
 10
265.9751006204
 20
94.1063111905
 10
265.9859158821
 20
94.0977221728
  0
LWPOLYLINE
  5
330
100
AcDbEntity
  8
0
100
AcDbPolyline
 62
250
  6
CONTINUOUS
 90
10
 70
0
 10
265.5938701102
 20
97.07944626
 10
265.6070256536
 20
97.061458065
 10
265.6209611533
 20
97.0435441729
 10
265.6355977397
 20
97.0258117984
 10
265.6508645987
 20
97.008353603
 10
265.6666612322
 20
96.9912911271
 10
265.6828541377
 20
96.9747701359
 10
265.6993314689
 20
96.9589015402
 10
265.7160074327
 20
96.9437648253
 10
265.7327820392
 20
96.9294487984
  0
LWPOLYLINE
  5
331
100
AcDbEntity
  8
0
100
AcDbPolyline
 62
7
  6
CONTINUOUS
 90
3
 70
0
 43
0.3500000006
 10
281.1403740234
 20
163.4626118774
 10
281.0689519043
 20
163.2483273926
 10
280.9260895386
 20
162.9626207886
  0
LINE
  5
332
100
AcDbEntity
  8
0
100
AcDbLine
 62
7
  6
CONTINUOUS
 10
268.1828312714
 20
98.8161974832
 11
265.3723640802
 21
98.6689071389
  0
LWPOLYLINE
  5
333
100
AcDbEntity
  8
0
100
AcDbPolyline
 62
250
  6
CONTINUOUS
 90
5
 70
0
 10
266.2260797695
 20
119.5791112861
 10
266.2256579225
 20
119.5864997797
 10
266.2252467127
 20
119.5964437029
 10
266.2248517957
 20
119.6088062944
 10
266.2244786006
 20
119.6234175242
  0
LWPOLYLINE
  5
334
100
AcDbEntity
  8
0
100
AcDbPolyline
 62
250
  6
CONTINUOUS
 90
3
 70
0
 10
266.2228398985
 20
80.485168385
 10
266.2227983124
 20
80.4861511762
 10
266.2227952047
 20
80.4898378849
  0
LINE
  5
335
100
AcDbEntity
  8
0
100
AcDbLine
 62
250
  6
CONTINUOUS
 10
266.2244786006
 20
119.6234175242
 11
266.223817544
 21
119.6585539208
  0
LINE
  5
336
100
AcDbEntity
  8
0
100
AcDbLine
 62
250
  6
CONTINUOUS
 10
266.223817544
 20
119.6585539208
 11
266.2232997846
 21
119.6999265482
  0
LINE
  5
337
100
AcDbEntity
  8
0
100
AcDbLine
 62
250
  6
CONTINUOUS
 10
266.2232997846
 20
119.6999265482
 11
266.2229537184
 21
119.7452671222
  0
LINE
  5
338
100
AcDbEntity
  8
0
100
AcDbLine
 62
250
  6
CONTINUOUS
 10
266.2227958105
 20
94.2123250327
 11
266.2229383556
 21
94.1680800327
  0
LINE
  5
339
100
AcDbEntity
  8
0
100
AcDbLine
 62
250
  6
CONTINUOUS
 10
266.2229537184
 20
119.7452671222
 11
266.2227952047
 21
119.8152539519
  0
LINE
  5
33A
100
AcDbEntity
  8
0
100
AcDbLine
 62
7
  6
CONTINUOUS
 10
265.1828312714
 20
80.9254253635
 11
265.1828312714
 21
81.6137897039
  0
LINE
  5
33B
100
AcDbEntity
  8
0
100
AcDbLine
 62
7
  6
CONTINUOUS
 10
265.1828312714
 20
93.0583981758
 11
265.1828312714
 21
98.469181232
  0
LINE
  5
33C
100
AcDbEntity
  8
0
100
AcDbLine
 62
7
  6
CONTINUOUS
 10
265.1828312714
 20
115.5583981758
 11
265.1828312714
 21
120.969181232
  0
LINE
  5
33D
100
AcDbEntity
  8
0
100
AcDbLine
 62
7
  6
CONTINUOUS
 10
265.1828312714
 20
132.4137897039
 11
265.1828312714
 21
133.1021540443
  0
LINE
  5
33E
100
AcDbEntity
  8
0
100
AcDbLine
 62
250
  6
CONTINUOUS
 10
265.3723640802
 20
81.197579512
 11
265.3723640802
 21
81.6327429848
  0
LINE
  5
33F
100
AcDbEntity
  8
0
100
AcDbLine
 62
250
  6
CONTINUOUS
 10
265.3723640802
 20
132.394836423
 11
265.3723640802
 21
132.8299998958
  0
LINE
  5
340
100
AcDbEntity
  8
0
100
AcDbLine
 62
250
  6
CONTINUOUS
 10
265.5938701102
 20
119.7997886664
 11
265.5938701102
 21
119.57944626
  0
LINE
  5
341
100
AcDbEntity
  8
0
100
AcDbLine
 62
250
  6
CONTINUOUS
 10
265.5938701102
 20
116.2997886664
 11
265.5938701102
 21
115.9415460331
  0
LINE
  5
342
100
AcDbEntity
  8
0
100
AcDbLine
 62
250
  6
CONTINUOUS
 10
265.5938701102
 20
97.2997886664
 11
265.5938701102
 21
97.07944626
  0
LINE
  5
343
100
AcDbEntity
  8
0
100
AcDbLine
 62
250
  6
CONTINUOUS
 10
265.5938701102
 20
94.2277907414
 11
265.5938701102
 21
94.4481331478
  0
LINE
  5
344
100
AcDbEntity
  8
0
100
AcDbLine
 62
250
  6
CONTINUOUS
 10
265.5938701102
 20
97.7277907414
 11
265.5938701102
 21
98.0860333747
  0
LINE
  5
345
100
AcDbEntity
  8
0
100
AcDbLine
 62
250
  6
CONTINUOUS
 10
265.5938701102
 20
116.7277907414
 11
265.5938701102
 21
116.9481331478
  0
LINE
  5
346
100
AcDbEntity
  8
0
100
AcDbLine
 62
250
  6
CONTINUOUS
 10
267.2569940249
 20
134.1635674206
 11
267.2570586877
 21
133.9414689478
  0
LINE
  5
347
100
AcDbEntity
  8
0
100
AcDbLine
 62
250
  6
CONTINUOUS
 10
267.2570087474
 20
116.7832945088
 11
267.2570586877
 21
116.223886819
  0
LINE
  5
348
100
AcDbEntity
  8
0
100
AcDbLine
 62
250
  6
CONTINUOUS
 10
267.2570586877
 20
80.08611046
 11
267.2569941776
 21
79.8640136647
  0
LINE
  5
349
100
AcDbEntity
  8
0
100
AcDbLine
 62
250
  6
CONTINUOUS
 10
265.7326830188
 20
115.8894503294
 11
265.7327820392
 21
115.7294175887
  0
LINE
  5
34A
100
AcDbEntity
  8
0
100
AcDbLine
 62
250
  6
CONTINUOUS
 10
265.7327820392
 20
119.6768641639
 11
265.7327820392
 21
119.4294487984
  0
LINE
  5
34B
100
AcDbEntity
  8
0
100
AcDbLine
 62
250
  6
CONTINUOUS
 10
265.7327820392
 20
97.1768641639
 11
265.7327820392
 21
96.9294487984
  0
LINE
  5
34C
100
AcDbEntity
  8
0
100
AcDbLine
 62
250
  6
CONTINUOUS
 10
265.7327820392
 20
117.0981306094
 11
265.7327820392
 21
116.850715244
  0
LINE
  5
34D
100
AcDbEntity
  8
0
100
AcDbLine
 62
250
  6
CONTINUOUS
 10
265.7327820392
 20
94.5981306094
 11
265.7327820392
 21
94.350715244
  0
LINE
  5
34E
100
AcDbEntity
  8
0
100
AcDbLine
 62
250
  6
CONTINUOUS
 10
265.7327820392
 20
116.1768641639
 11
265.7326830188
 21
115.8894503294
  0
LWPOLYLINE
  5
34F
100
AcDbEntity
  8
0
100
AcDbPolyline
 62
250
  6
CONTINUOUS
 90
3
 70
0
 10
265.7327820392
 20
98.2981618191
 10
265.7327256841
 20
98.2788699551
 10
265.7327820392
 20
97.850715244
  0
LINE
  5
350
100
AcDbEntity
  8
0
100
AcDbLine
 62
250
  6
CONTINUOUS
 10
267.2570586877
 20
116.8036925888
 11
267.2570087474
 21
116.7832945088
  0
LINE
  5
351
100
AcDbEntity
  8
0
100
AcDbLine
 62
250
  6
CONTINUOUS
 10
267.2570586877
 20
97.8036925888
 11
267.2570586877
 21
97.223886819
  0
LINE
  5
352
100
AcDbEntity
  8
0
100
AcDbLine
 62
250
  6
CONTINUOUS
 10
266.2229549268
 20
94.2823114826
 11
266.2227958105
 21
94.2123250327
  0
LINE
  5
353
100
AcDbEntity
  8
0
100
AcDbLine
 62
250
  6
CONTINUOUS
 10
266.2227952047
 20
119.8152539519
 11
266.2229383556
 21
119.8594993751
  0
LINE
  5
354
100
AcDbEntity
  8
0
100
AcDbLine
 62
250
  6
CONTINUOUS
 10
266.2233011473
 20
94.327652037
 11
266.2229549268
 21
94.2823114826
  0
LINE
  5
355
100
AcDbEntity
  8
0
100
AcDbLine
 62
250
  6
CONTINUOUS
 10
266.2227952047
 20
80.4898378849
 11
266.2229383556
 21
80.5051822558
  0
LINE
  5
356
100
AcDbEntity
  8
0
100
AcDbLine
 62
250
  6
CONTINUOUS
 10
266.22381885
 20
94.3690248143
 11
266.2233011473
 21
94.327652037
  0
LWPOLYLINE
  5
357
100
AcDbEntity
  8
0
100
AcDbPolyline
 62
250
  6
CONTINUOUS
 90
4
 70
0
 10
266.2228409335
 20
133.5424110414
 10
266.2227991708
 20
133.5414281883
 10
266.2227958105
 20
133.5377414411
 10
266.2229383556
 20
133.522397152
  0
LWPOLYLINE
  5
358
100
AcDbEntity
  8
0
100
AcDbPolyline
 62
250
  6
CONTINUOUS
 90
6
 70
0
 10
266.2260797694
 20
94.448468122
 10
266.2256582456
 20
94.4410795581
 10
266.2252473205
 20
94.4311355349
 10
266.2248526462
 20
94.4187728234
 10
266.224479651
 20
94.4041614615
 10
266.22381885
 20
94.3690248143
  0
LWPOLYLINE
  5
359
100
AcDbEntity
  8
0
100
AcDbPolyline
 62
7
  6
CONTINUOUS
 90
25
 70
0
 10
265.1828312714
 20
81.0928269766
 10
265.183234568
 20
81.0996985349
 10
265.1844311704
 20
81.1064358308
 10
265.1863989846
 20
81.1130388641
 10
265.1891077233
 20
81.1195193562
 10
265.1925330471
 20
81.1258655858
 10
265.196669914
 20
81.1320423893
 10
265.2015005066
 20
81.1380527037
 10
265.2070006608
 20
81.143893592
 10
265.2131722288
 20
81.1495210796
 10
265.2199966479
 20
81.154937534
 10
265.2274513159
 20
81.1601405877
 10
265.2355430946
 20
81.1650791638
 10
265.2442572097
 20
81.1697581695
 10
265.2535638523
 20
81.1741726975
 10
265.2634518971
 20
81.1782569499
 10
265.273899659
 20
81.182012058
 10
265.2848684955
 20
81.1854368904
 10
265.2963185866
 20
81.188462255
 10
265.3082184538
 20
81.1910845382
 10
265.3205167597
 20
81.1933073537
 10
265.3331362012
 20
81.195072351
 10
265.34601503
 20
81.1963600801
 10
265.3591095796
 20
81.1971899911
 10
265.3723640802
 20
81.1975620839
  0
LINE
  5
35A
100
AcDbEntity
  8
0
100
AcDbLine
 62
7
  6
CONTINUOUS
 10
268.1828312714
 20
64.2137897039
 11
268.1828312714
 21
149.8137897039
  0
LINE
  5
35B
100
AcDbEntity
  8
SMUSSO
100
AcDbLine
 62
7
  6
CONTINUOUS
 10
268.7828312714
 20
62.0137897039
 11
268.7828312714
 21
152.0137897039
  0
LWPOLYLINE
  5
35C
100
AcDbEntity
  8
0
100
AcDbPolyline
 62
250
  6
CONTINUOUS
 90
10
 70
0
 10
265.5938701102
 20
98.0860333747
 10
265.6056167244
 20
98.1131328548
 10
265.6186119794
 20
98.1399037783
 10
265.6327193617
 20
98.1660843758
 10
265.6477703971
 20
98.1913855545
 10
265.6636315559
 20
98.2156047925
 10
265.6802170671
 20
98.2386116862
 10
265.6973940918
 20
98.2602031405
 10
265.7149729957
 20
98.2801224983
 10
265.7327820392
 20
98.2981618191
  0
LWPOLYLINE
  5
35D
100
AcDbEntity
  8
0
100
AcDbPolyline
 62
250
  6
CONTINUOUS
 90
10
 70
0
 10
265.5938701102
 20
115.9415460331
 10
265.6055638869
 20
115.9145616092
 10
265.6185235983
 20
115.8878483415
 10
265.6326210208
 20
115.8616686876
 10
265.6477144573
 20
115.8362834729
 10
265.6636571673
 20
115.811937337
 10
265.6803000553
 20
115.7888581065
 10
265.6974828102
 20
115.7672703228
 10
265.7150342849
 20
115.7473911731
 10
265.7327820392
 20
115.7294175887
  0
LWPOLYLINE
  5
35E
100
AcDbEntity
  8
0
100
AcDbPolyline
 62
250
  6
CONTINUOUS
 90
16
 70
0
 10
265.8956348644
 20
94.1854153325
 10
265.9060691173
 20
94.2102114955
 10
265.9182910244
 20
94.2343798636
 10
265.9322311458
 20
94.2577458136
 10
265.9477420442
 20
94.2799352562
 10
265.964806696
 20
94.3010365094
 10
265.9836147872
 20
94.3215300743
 10
266.0042360555
 20
94.3413426878
 10
266.0265629791
 20
94.3601410005
 10
266.0505923657
 20
94.3779042946
 10
266.0763631247
 20
94.3943865882
 10
266.1037544837
 20
94.4093014136
 10
266.1325288435
 20
94.4224816861
 10
266.1625508193
 20
94.4336399938
 10
266.1937762538
 20
94.4424100889
 10
266.2260797712
 20
94.448468122
  0
LWPOLYLINE
  5
35F
100
AcDbEntity
  8
0
100
AcDbPolyline
 62
7
  6
CONTINUOUS
 90
7
 70
0
 10
265.5938701102
 20
116.2997886664
 10
265.6165104997
 20
116.2774307501
 10
265.6395990234
 20
116.2558210335
 10
265.6629442629
 20
116.2349595166
 10
265.6863661538
 20
116.2148461994
 10
265.7096969668
 20
116.1954810818
 10
265.7327820392
 20
116.1768641639
  0
LINE
  5
360
100
AcDbEntity
  8
SMUSSO
100
AcDbLine
 62
7
  6
CONTINUOUS
 10
274.3334404444
 20
150.8193493583
 11
274.3334404444
 21
63.2082300495
  0
LINE
  5
361
100
AcDbEntity
  8
SMUSSO
100
AcDbLine
 62
7
  6
CONTINUOUS
 10
274.3483788137
 20
151.8044890262
 11
274.3483788137
 21
150.8337751738
  0
LINE
  5
362
100
AcDbEntity
  8
SMUSSO
100
AcDbLine
 62
7
  6
CONTINUOUS
 10
274.3483788137
 20
63.193804234
 11
274.3483788137
 21
62.2230903816
  0
LINE
  5
363
100
AcDbEntity
  8
SMUSSO
100
AcDbLine
 62
7
  6
CONTINUOUS
 10
275.3328312714
 20
150.7850586637
 11
275.3328312714
 21
63.2425207441
  0
LWPOLYLINE
  5
364
100
AcDbEntity
  8
0
100
AcDbPolyline
 62
250
  6
CONTINUOUS
 90
10
 70
0
 10
265.5938701102
 20
94.4481331478
 10
265.6069704491
 20
94.4660481704
 10
265.6208592685
 20
94.4839080908
 10
265.635460619
 20
94.50160619
 10
265.6507058815
 20
94.519049363
 10
265.6664967708
 20
94.5361155778
 10
265.6827020434
 20
94.5526584505
 10
265.6992110019
 20
94.5685651837
 10
265.7159378031
 20
94.5837532681
 10
265.7327820392
 20
94.5981306094
  0
LWPOLYLINE
  5
365
100
AcDbEntity
  8
0
100
AcDbPolyline
 62
250
  6
CONTINUOUS
 90
7
 70
0
 10
265.1828312714
 20
93.4642161486
 10
265.2950113463
 20
93.5742337949
 10
265.4098396308
 20
93.6883243282
 10
265.5273161248
 20
93.8064877487
 10
265.6474408284
 20
93.9287240562
 10
265.7702137416
 20
94.0550332508
 10
265.8956348644
 20
94.1854153325
  0
LWPOLYLINE
  5
366
100
AcDbEntity
  8
0
100
AcDbPolyline
 62
250
  6
CONTINUOUS
 90
7
 70
0
 10
265.1828312714
 20
93.2830722337
 10
265.3086981791
 20
93.406404075
 10
265.4377572978
 20
93.5346669371
 10
265.5700086274
 20
93.6678950551
 10
265.705452168
 20
93.8061232824
 10
265.8440879195
 20
93.9493870247
 10
265.9859158821
 20
94.0977221728
  0
LINE
  5
367
100
AcDbEntity
  8
0
100
AcDbLine
 62
250
  6
CONTINUOUS
 10
265.5938701102
 20
97.07944626
 11
265.1828312714
 21
96.7063184412
  0
LINE
  5
368
100
AcDbEntity
  8
0
100
AcDbLine
 62
250
  6
CONTINUOUS
 10
265.7327820392
 20
96.9294487984
 11
265.3331471796
 21
96.5666731446
  0
LWPOLYLINE
  5
369
100
AcDbEntity
  8
0
100
AcDbPolyline
 62
7
  6
CONTINUOUS
 90
7
 70
0
 10
265.7327820392
 20
97.850715244
 10
265.7096647041
 20
97.8320705874
 10
265.6863150281
 20
97.8126888267
 10
265.6628876744
 20
97.7925699617
 10
265.6395498881
 20
97.7717139925
 10
265.6164807367
 20
97.7501209191
 10
265.5938701102
 20
97.7277907414
  0
LINE
  5
36A
100
AcDbEntity
  8
0
100
AcDbLine
 62
250
  6
CONTINUOUS
 10
265.1828312714
 20
117.3212609666
 11
265.5938701102
 21
116.9481331478
  0
LINE
  5
36B
100
AcDbEntity
  8
0
100
AcDbLine
 62
250
  6
CONTINUOUS
 10
265.3331471796
 20
117.4609062632
 11
265.7327820392
 21
117.0981306094
  0
LWPOLYLINE
  5
36C
100
AcDbEntity
  8
0
100
AcDbPolyline
 62
7
  6
CONTINUOUS
 90
7
 70
0
 10
265.5938701102
 20
119.7997886664
 10
265.6165104997
 20
119.7774307501
 10
265.6395990234
 20
119.7558210335
 10
265.6629442629
 20
119.7349595166
 10
265.6863661538
 20
119.7148461994
 10
265.7096969668
 20
119.6954810818
 10
265.7327820392
 20
119.6768641639
  0
LWPOLYLINE
  5
36D
100
AcDbEntity
  8
0
100
AcDbPolyline
 62
250
  6
CONTINUOUS
 90
4
 70
0
 10
265.5557410947
 20
120.3741281773
 10
265.4651433472
 20
120.4653128697
 10
265.3727494592
 20
120.557476871
 10
265.1828312715
 20
120.7445071741
  0
LWPOLYLINE
  5
36E
100
AcDbEntity
  8
0
100
AcDbPolyline
 62
250
  6
CONTINUOUS
 90
7
 70
0
 10
265.8956348644
 20
119.8421640753
 10
265.7835694605
 20
119.9590394195
 10
265.6688099786
 20
120.0772445689
 10
265.5513564188
 20
120.1967795235
 10
265.431208781
 20
120.3176442832
 10
265.3083670652
 20
120.4398388482
 10
265.1828312714
 20
120.5633632184
  0
LWPOLYLINE
  5
36F
100
AcDbEntity
  8
0
100
AcDbPolyline
 62
250
  6
CONTINUOUS
 90
5
 70
0
 10
265.9859158821
 20
119.929857235
 10
265.902750778
 20
120.0172742626
 10
265.8181335466
 20
120.1054294319
 10
265.7320641878
 20
120.1943168922
 10
265.5557410947
 20
120.3741281773
  0
LWPOLYLINE
  5
370
100
AcDbEntity
  8
0
100
AcDbPolyline
 62
250
  6
CONTINUOUS
 90
10
 70
0
 10
265.5938701102
 20
119.57944626
 10
265.6070256536
 20
119.561458065
 10
265.6209611533
 20
119.5435441729
 10
265.6355977397
 20
119.5258117984
 10
265.6508645987
 20
119.508353603
 10
265.6666612322
 20
119.4912911271
 10
265.6828541377
 20
119.4747701359
 10
265.6993314689
 20
119.4589015402
 10
265.7160074327
 20
119.4437648253
 10
265.7327820392
 20
119.4294487984
  0
LWPOLYLINE
  5
371
100
AcDbEntity
  8
0
100
AcDbPolyline
 62
7
  6
CONTINUOUS
 90
4
 70
0
 43
0.3500000006
 10
278.0689509888
 20
165.5340527344
 10
278.0689509888
 20
166.176906189
 10
279.5689605103
 20
166.176906189
 10
278.7118044434
 20
163.1769052734
  0
LWPOLYLINE
  5
372
100
AcDbEntity
  8
0
100
AcDbPolyline
 62
7
  6
CONTINUOUS
 90
13
 70
0
 43
0.3500000006
 10
279.2702746582
 20
172.3141327515
 10
279.2702746582
 20
173.5998396606
 10
279.4845591431
 20
174.0284267578
 10
279.9131281128
 20
174.4569957275
 10
280.1274125977
 20
174.4569957275
 10
280.5559815674
 20
174.0284267578
 10
280.7702660522
 20
173.5998396606
 10
280.7702660522
 20
172.3141327515
 10
280.5559815674
 20
171.8855637817
 10
280.1274125977
 20
171.456994812
 10
279.9131281128
 20
171.456994812
 10
279.4845591431
 20
171.8855637817
 10
279.2702746582
 20
172.3141327515
  0
LWPOLYLINE
  5
373
100
AcDbEntity
  8
0
100
AcDbPolyline
 62
250
  6
CONTINUOUS
 90
16
 70
0
 10
265.9859158821
 20
94.0977221728
 10
265.9942078482
 20
94.1054490858
 10
266.0035727388
 20
94.1127864643
 10
266.0140105539
 20
94.119734159
 10
266.0254937651
 20
94.1262815458
 10
266.0380499008
 20
94.1324389676
 10
266.0517615457
 20
94.1382377489
 10
266.0666797746
 20
94.1437402621
 10
266.0827535127
 20
94.1488839325
 10
266.0999121202
 20
94.1535126342
 10
266.1182271021
 20
94.1576509093
 10
266.1376269535
 20
94.1612739541
 10
266.15782652
 20
94.164151535
 10
266.1787307501
 20
94.1662067962
 10
266.2004346953
 20
94.1675163242
 10
266.2229383556
 20
94.1680800327
  0
LWPOLYLINE
  5
374
100
AcDbEntity
  8
0
100
AcDbPolyline
 62
7
  6
CONTINUOUS
 90
7
 70
0
 10
265.7327820392
 20
94.350715244
 10
265.7096647041
 20
94.3320705874
 10
265.6863150281
 20
94.3126888267
 10
265.6628876744
 20
94.2925699617
 10
265.6395498881
 20
94.2717139925
 10
265.6164807367
 20
94.2501209191
 10
265.5938701102
 20
94.2277907414
  0
LWPOLYLINE
  5
375
100
AcDbEntity
  8
0
100
AcDbPolyline
 62
250
  6
CONTINUOUS
 90
19
 70
0
 10
267.2570586877
 20
97.8036925888
 10
267.2491005035
 20
97.7995074448
 10
267.24078946
 20
97.7941902069
 10
267.2321590315
 20
97.7876272396
 10
267.2232418836
 20
97.7796967085
 10
267.2140979954
 20
97.77030166
 10
267.2048132073
 20
97.7593864796
 10
267.1954602956
 20
97.7468881169
 10
267.1861097319
 20
97.7327358627
 10
267.1768547454
 20
97.7168982494
 10
267.1677592346
 20
97.69929077
 10
267.158959153
 20
97.6799658043
 10
267.1506482224
 20
97.6591691818
 10
267.1429020741
 20
97.6369318168
 10
267.1358395414
 20
97.6134040464
 10
267.1296598205
 20
97.5891196978
 10
267.1244403505
 20
97.5643909373
 10
267.1201837727
 20
97.5392625364
 10
267.1169250378
 20
97.5139152823
  0
LINE
  5
376
100
AcDbEntity
  8
0
100
AcDbLine
 62
7
  6
CONTINUOUS
 10
266.1575398278
 20
116.0694865431
 11
268.1828312714
 21
116.0689842367
  0
LINE
  5
377
100
AcDbEntity
  8
0
100
AcDbLine
 62
250
  6
CONTINUOUS
 10
267.2570586877
 20
116.223886819
 11
268.1828312714
 21
116.2223260957
  0
LINE
  5
378
100
AcDbEntity
  8
0
100
AcDbLine
 62
250
  6
CONTINUOUS
 10
265.7327820392
 20
115.7294175887
 11
268.1828312714
 21
115.7235134013
  0
LINE
  5
379
100
AcDbEntity
  8
0
100
AcDbLine
 62
250
  6
CONTINUOUS
 10
265.5938701102
 20
115.9415460331
 11
268.1828312714
 21
115.9356418457
  0
LINE
  5
37A
100
AcDbEntity
  8
0
100
AcDbLine
 62
7
  6
CONTINUOUS
 10
268.1828312714
 20
115.2113819246
 11
265.3723640802
 21
115.3586722689
  0
LINE
  5
37B
100
AcDbEntity
  8
0
100
AcDbLine
 62
250
  6
CONTINUOUS
 10
267.1178193097
 20
116.5137897039
 11
265.5938701102
 21
116.7277907414
  0
LINE
  5
37C
100
AcDbEntity
  8
0
100
AcDbLine
 62
250
  6
CONTINUOUS
 10
266.1572630036
 20
116.9581317378
 11
267.2570586877
 21
116.8036925888
  0
LWPOLYLINE
  5
37D
100
AcDbEntity
  8
0
100
AcDbPolyline
 62
250
  6
CONTINUOUS
 90
22
 70
0
 10
267.2570586877
 20
116.223886819
 10
267.2502853155
 20
116.22739967
 10
267.2434051526
 20
116.2316244495
 10
267.2364351861
 20
116.2365873075
 10
267.2294315525
 20
116.2422812206
 10
267.2223764431
 20
116.2487522238
 10
267.2151821847
 20
116.2561335231
 10
267.2078633134
 20
116.2644880629
 10
267.2004680449
 20
116.2738455265
 10
267.1929727276
 20
116.2843331281
 10
267.1854160349
 20
116.2960146747
 10
267.1778589896
 20
116.3089217953
 10
267.1703279964
 20
116.3231513883
 10
267.1628968843
 20
116.3387254405
 10
267.1556364173
 20
116.3556716232
 10
267.1485907894
 20
116.3740987927
 10
267.1418442137
 20
116.3940451587
 10
267.1355219353
 20
116.41544085
 10
267.1297475461
 20
116.438208363
 10
267.124642349
 20
116.4622517848
 10
267.1203262279
 20
116.4874560159
 10
267.1169250378
 20
116.5136641255
  0
LWPOLYLINE
  5
37E
100
AcDbEntity
  8
0
100
AcDbPolyline
 62
250
  6
CONTINUOUS
 90
19
 70
0
 10
267.2570586877
 20
80.08611046
 10
267.2491005035
 20
80.0722947129
 10
267.24078946
 20
80.0580963618
 10
267.2321590315
 20
80.0436085299
 10
267.2232418836
 20
80.0289192044
 10
267.2140979954
 20
80.0141728093
 10
267.2048132073
 20
79.9995631173
 10
267.1954602956
 20
79.9852496914
 10
267.1861097319
 20
79.9713782165
 10
267.1768547454
 20
79.9581326507
 10
267.1677592346
 20
79.9456557269
 10
267.158959153
 20
79.9341897097
 10
267.1506482224
 20
79.9240345169
 10
267.1429020741
 20
79.9153302376
 10
267.1358395414
 20
79.9082551825
 10
267.1296598205
 20
79.9030260341
 10
267.1244403505
 20
79.8997003104
 10
267.1201837727
 20
79.8982769295
 10
267.1169250378
 20
79.8987739078
  0
LINE
  5
37F
100
AcDbEntity
  8
0
100
AcDbLine
 62
250
  6
CONTINUOUS
 10
267.2570586877
 20
116.223886819
 11
266.1575398278
 21
116.0694865431
  0
LINE
  5
380
100
AcDbEntity
  8
0
100
AcDbLine
 62
250
  6
CONTINUOUS
 10
265.5938701102
 20
116.2997886664
 11
267.1178193097
 21
116.5137897039
  0
LWPOLYLINE
  5
381
100
AcDbEntity
  8
0
100
AcDbPolyline
 62
7
  6
CONTINUOUS
 90
7
 70
0
 10
266.1572630036
 20
116.9581317378
 10
266.133427451
 20
116.9579134348
 10
266.1091314024
 20
116.9571981348
 10
266.0843850171
 20
116.9559452098
 10
266.0592003669
 20
116.9541143611
 10
266.0335915689
 20
116.9516659757
 10
266.0075749126
 20
116.9485615177
  0
LINE
  5
382
100
AcDbEntity
  8
0
100
AcDbLine
 62
250
  6
CONTINUOUS
 10
267.2570586877
 20
116.8036925888
 11
268.1828312714
 21
116.8052533121
  0
LINE
  5
383
100
AcDbEntity
  8
0
100
AcDbLine
 62
250
  6
CONTINUOUS
 10
265.7327820392
 20
117.0981306094
 11
268.1828312714
 21
117.101949949
  0
LINE
  5
384
100
AcDbEntity
  8
0
100
AcDbLine
 62
7
  6
CONTINUOUS
 10
268.1828312714
 20
117.4653485867
 11
265.3331471796
 21
117.4609062632
  0
LINE
  5
385
100
AcDbEntity
  8
0
100
AcDbLine
 62
7
  6
CONTINUOUS
 10
268.1828312714
 20
116.958615049
 11
266.1572630036
 21
116.9581317378
  0
LINE
  5
386
100
AcDbEntity
  8
0
100
AcDbLine
 62
250
  6
CONTINUOUS
 10
265.5938701102
 20
116.9481331478
 11
266.0075749126
 21
116.9485615177
  0
LINE
  5
387
100
AcDbEntity
  8
0
100
AcDbLine
 62
7
  6
CONTINUOUS
 10
268.1828312714
 20
119.0622308211
 11
265.3331471796
 21
119.0666731446
  0
LINE
  5
388
100
AcDbEntity
  8
0
100
AcDbLine
 62
250
  6
CONTINUOUS
 10
265.7327820392
 20
119.4294487984
 11
268.1828312714
 21
119.4256294588
  0
LWPOLYLINE
  5
389
100
AcDbEntity
  8
0
100
AcDbPolyline
 62
7
  6
CONTINUOUS
 90
7
 70
0
 10
266.0075749126
 20
119.5790178901
 10
266.033523557
 20
119.5759202297
 10
266.0590913404
 20
119.5734737953
 10
266.0842621878
 20
119.5716416794
 10
266.109022114
 20
119.5703858606
 10
266.1333591067
 20
119.5696675777
 10
266.1572630036
 20
119.56944767
  0
LWPOLYLINE
  5
38A
100
AcDbEntity
  8
0
100
AcDbPolyline
 62
250
  6
CONTINUOUS
 90
19
 70
0
 10
266.2260797712
 20
119.5791112858
 10
266.1995585736
 20
119.5838931038
 10
266.173832765
 20
119.5904963299
 10
266.1489721818
 20
119.5987134999
 10
266.1249651697
 20
119.6083335756
 10
266.1019250871
 20
119.6191617678
 10
266.0800901546
 20
119.6310173413
 10
266.0596279351
 20
119.6436367574
 10
266.0403993127
 20
119.6569043581
 10
266.0221863839
 20
119.6709233427
 10
266.0051283052
 20
119.6854455033
 10
265.9891067355
 20
119.7004878241
 10
265.9735888665
 20
119.7166984227
 10
265.9584540481
 20
119.7341563946
 10
265.9439732178
 20
119.7527249688
 10
265.9303061716
 20
119.7728316625
 10
265.9176131387
 20
119.7945871528
 10
265.9060082105
 20
119.8177416087
 10
265.8956348644
 20
119.8421640753
  0
LWPOLYLINE
  5
38B
100
AcDbEntity
  8
0
100
AcDbPolyline
 62
250
  6
CONTINUOUS
 90
14
 70
0
 10
267.2570586877
 20
133.9414689478
 10
267.2502853155
 20
133.9532628073
 10
267.2434051526
 20
133.9650786289
 10
267.2364351861
 20
133.9768774928
 10
267.2294315525
 20
133.9885584995
 10
267.2223764431
 20
134.000140023
 10
267.2151821847
 20
134.0117429991
 10
267.2078633134
 20
134.023320422
 10
267.2004680449
 20
134.0347765761
 10
267.1929727276
 20
134.0461222834
 10
267.1854160349
 20
134.05726779
 10
267.1778589896
 20
134.068089786
 10
267.1703279964
 20
134.0785128667
 10
267.1628968843
 20
134.0883921233
  0
LINE
  5
38C
100
AcDbEntity
  8
0
100
AcDbLine
 62
250
  6
CONTINUOUS
 10
266.2260797712
 20
119.5791112858
 11
266.1572630036
 21
119.56944767
  0
LINE
  5
38D
100
AcDbEntity
  8
0
100
AcDbLine
 62
250
  6
CONTINUOUS
 10
265.5938701102
 20
119.7997886664
 11
265.8956348644
 21
119.8421640753
  0
LINE
  5
38E
100
AcDbEntity
  8
0
100
AcDbLine
 62
7
  6
CONTINUOUS
 10
265.3723640802
 20
121.1689071389
 11
268.1828312714
 21
121.3161974832
  0
LINE
  5
38F
100
AcDbEntity
  8
0
100
AcDbLine
 62
250
  6
CONTINUOUS
 10
268.1828312714
 20
119.5849824334
 11
266.2260797712
 21
119.5791112858
  0
LINE
  5
390
100
AcDbEntity
  8
0
100
AcDbLine
 62
250
  6
CONTINUOUS
 10
268.1828312714
 20
119.8653183458
 11
266.2229383556
 21
119.8594993751
  0
LINE
  5
391
100
AcDbEntity
  8
0
100
AcDbLine
 62
7
  6
CONTINUOUS
 10
266.1572630036
 20
119.56944767
 11
268.1828312714
 21
119.5689643587
  0
LINE
  5
392
100
AcDbEntity
  8
0
100
AcDbLine
 62
250
  6
CONTINUOUS
 10
265.5938701103
 20
119.579446259
 11
266.0075749126
 21
119.5790178901
  0
LWPOLYLINE
  5
393
100
AcDbEntity
  8
0
100
AcDbPolyline
 62
250
  6
CONTINUOUS
 90
19
 70
0
 10
266.2229383556
 20
119.8594993751
 10
266.2045047457
 20
119.859867576
 10
266.1866396917
 20
119.8607468911
 10
266.1693431935
 20
119.8621372771
 10
266.152537905
 20
119.8640959015
 10
266.1363011722
 20
119.8665654643
 10
266.1208650341
 20
119.8693742317
 10
266.1063465173
 20
119.8724890531
 10
266.0926285951
 20
119.8759429623
 10
266.0795922264
 20
119.87966354
 10
266.0673045406
 20
119.8835785472
 10
266.0556984083
 20
119.8877601196
 10
266.0444533997
 20
119.8923523694
 10
266.0333890091
 20
119.8973644829
 10
266.0226857422
 20
119.9027870409
 10
266.0125646873
 20
119.9087361593
 10
266.0030995403
 20
119.9152504046
 10
265.9942166052
 20
119.922290832
 10
265.9859158821
 20
119.929857235
  0
LINE
  5
394
100
AcDbEntity
  8
0
100
AcDbLine
 62
7
  6
CONTINUOUS
 10
267.1809513516
 20
121.2636911815
 11
268.1828312714
 21
121.2375464581
  0
LWPOLYLINE
  5
395
100
AcDbEntity
  8
0
100
AcDbPolyline
 62
250
  6
CONTINUOUS
 90
9
 70
0
 10
267.1628968843
 20
134.0883921233
 10
267.1556364173
 20
134.0975869311
 10
267.1485907894
 20
134.1059852264
 10
267.1418442137
 20
134.1134150253
 10
267.1355219353
 20
134.1196620923
 10
267.1297475461
 20
134.1245237721
 10
267.124642349
 20
134.1278001419
 10
267.1203262279
 20
134.1292925782
 10
267.1169250378
 20
134.1288055
  0
LINE
  5
396
100
AcDbEntity
  8
0
100
AcDbLine
 62
7
  6
CONTINUOUS
 10
267.5328312714
 20
81.9637897039
 11
267.3828312714
 21
81.8137897039
  0
LINE
  5
397
100
AcDbEntity
  8
0
100
AcDbLine
 62
7
  6
CONTINUOUS
 10
268.0328312714
 20
81.9637897039
 11
267.8828312714
 21
81.8137897039
  0
LINE
  5
398
100
AcDbEntity
  8
0
100
AcDbLine
 62
7
  6
CONTINUOUS
 10
267.5328312714
 20
132.0637897039
 11
267.3828312714
 21
132.2137897039
  0
LINE
  5
399
100
AcDbEntity
  8
0
100
AcDbLine
 62
7
  6
CONTINUOUS
 10
268.0328312714
 20
132.0637897039
 11
267.8828312714
 21
132.2137897039
  0
LWPOLYLINE
  5
39A
100
AcDbEntity
  8
0
100
AcDbPolyline
 62
250
  6
CONTINUOUS
 90
5
 70
0
 10
266.1376269535
 20
133.5174429793
 10
266.15782652
 20
133.5192300561
 10
266.1787307501
 20
133.5206318193
 10
266.2004346953
 20
133.5216874811
 10
266.2229383556
 20
133.522397152
  0
LINE
  5
39B
100
AcDbEntity
  8
0
100
AcDbLine
 62
7
  6
CONTINUOUS
 10
268.1828312714
 20
132.8482606035
 11
267.1809513516
 21
132.813872759
  0
LWPOLYLINE
  5
39C
100
AcDbEntity
  8
0
100
AcDbPolyline
 62
7
  6
CONTINUOUS
 90
17
 70
0
 10
266.2228409899
 20
133.5424110415
 10
266.21114351
 20
133.5421467105
 10
266.1864176147
 20
133.5412322835
 10
266.1620428193
 20
133.539860715
 10
266.1380991934
 20
133.5380592325
 10
266.1145670642
 20
133.5358385419
 10
266.0914773021
 20
133.533198115
 10
266.0689627805
 20
133.5301539377
 10
266.0469777742
 20
133.5266914216
 10
266.0255389275
 20
133.5227845784
 10
266.0048014154
 20
133.5184419585
 10
265.9846934855
 20
133.5136063389
 10
265.9651120954
 20
133.5081815842
 10
265.9460075221
 20
133.5020911716
 10
265.9270713902
 20
133.4950710249
 10
265.9084447613
 20
133.4869453602
 10
265.8956240298
 20
133.4805170751
  0
LINE
  5
39D
100
AcDbEntity
  8
0
100
AcDbLine
 62
250
  6
CONTINUOUS
 10
266.2229383556
 20
133.522397152
 11
268.1828312714
 21
133.5575905129
  0
LINE
  5
39E
100
AcDbEntity
  8
0
100
AcDbLine
 62
7
  6
CONTINUOUS
 10
268.1828312714
 20
133.577575854
 11
266.2228409335
 21
133.5424110414
  0
LINE
  5
39F
100
AcDbEntity
  8
0
100
AcDbLine
 62
7
  6
CONTINUOUS
 10
267.2569942326
 20
134.1639191428
 11
268.1828312714
 21
134.1655350349
  0
LINE
  5
3A0
100
AcDbEntity
  8
0
100
AcDbLine
 62
250
  6
CONTINUOUS
 10
267.2570586877
 20
133.9414689478
 11
268.1828312714
 21
133.9418871423
  0
LINE
  5
3A1
100
AcDbEntity
  8
0
100
AcDbLine
 62
7
  6
CONTINUOUS
 10
268.1828312714
 20
132.0637897039
 11
268.0328312714
 21
132.0637897039
  0
LINE
  5
3A2
100
AcDbEntity
  8
0
100
AcDbLine
 62
7
  6
CONTINUOUS
 10
267.7328312714
 20
132.0637897039
 11
267.5328312714
 21
132.0637897039
  0
LINE
  5
3A3
100
AcDbEntity
  8
0
100
AcDbLine
 62
7
  6
CONTINUOUS
 10
267.2327068926
 20
132.2137897039
 11
268.1828312714
 21
132.2137897039
  0
LWPOLYLINE
  5
3A4
100
AcDbEntity
  8
0
100
AcDbPolyline
 62
7
  6
CONTINUOUS
 90
25
 70
0
 10
265.3723640802
 20
132.8300135281
 10
265.3590345386
 20
132.830388698
 10
265.3458531597
 20
132.8312303233
 10
265.3328772673
 20
132.8325384042
 10
265.3201453794
 20
132.8343336292
 10
265.3077287375
 20
132.8365953098
 10
265.2957270332
 20
132.83926138
 10
265.2841931337
 20
132.8423379817
 10
265.2731578882
 20
132.8458189731
 10
265.2626763602
 20
132.8496238629
 10
265.2527891191
 20
132.853750269
 10
265.2435098934
 20
132.8582005734
 10
265.2348473134
 20
132.8629014311
 10
265.2268300211
 20
132.8678447194
 10
265.2194647292
 20
132.8730385609
 10
265.2127329175
 20
132.8784339787
 10
265.2066549438
 20
132.8840261368
 10
265.2012450668
 20
132.8898198712
 10
265.1964914368
 20
132.8957807127
 10
265.1924174541
 20
132.9019058254
 10
265.1890416383
 20
132.9081980452
 10
265.1863666309
 20
132.9146314118
 10
265.184418715
 20
132.9211972716
 10
265.1832319458
 20
132.927904278
 10
265.1828312714
 20
132.9347524312
  0
LINE
  5
3A5
100
AcDbEntity
  8
0
100
AcDbLine
 62
7
  6
CONTINUOUS
 10
268.1828312714
 20
132.7696095784
 11
267.1809513516
 21
132.813872759
  0
LINE
  5
3A6
100
AcDbEntity
  8
0
100
AcDbLine
 62
7
  6
CONTINUOUS
 10
265.1828312714
 20
132.4137897039
 11
267.1332031735
 21
132.2187525137
  0
LINE
  5
3A7
100
AcDbEntity
  8
SMUSSO
100
AcDbLine
 62
7
  6
CONTINUOUS
 10
274.3334404444
 20
62.2076212474
 11
275.3328312714
 21
63.2425207441
  0
LINE
  5
3A8
100
AcDbEntity
  8
SMUSSO
100
AcDbLine
 62
7
  6
CONTINUOUS
 10
275.3328312714
 20
150.7850586637
 11
274.3334404444
 21
151.8199581604
  0
LWPOLYLINE
  5
3A9
100
AcDbEntity
  8
0
100
AcDbPolyline
 62
7
  6
CONTINUOUS
 90
10
 70
0
 43
0.3500000006
 10
281.0689519043
 20
163.6768963623
 10
281.1403740234
 20
163.534052124
 10
281.1403740234
 20
163.4626118774
 10
280.9975297852
 20
163.3197676392
 10
280.9260895386
 20
163.3197676392
 10
280.8546674194
 20
163.3911897583
 10
280.8546674194
 20
163.4626118774
 10
280.9260895386
 20
163.6054742432
 10
280.9975297852
 20
163.6768963623
 10
281.0689519043
 20
163.6768963623
  0
LINE
  5
3AA
100
AcDbEntity
  8
SMUSSO
100
AcDbLine
 62
7
  6
CONTINUOUS
 10
275.3328312714
 20
63.6370522937
 11
274.3483788137
 21
63.193804234
  0
LWPOLYLINE
  5
3AB
100
AcDbEntity
  8
0
100
AcDbPolyline
 62
7
  6
CONTINUOUS
 90
8
 70
0
 43
0.3500000006
 10
283.854668335
 20
163.1769052734
 10
284.7118062744
 20
163.1769052734
 10
285.1403752441
 20
163.6054742432
 10
285.1403752441
 20
164.4626121826
 10
284.7118062744
 20
164.8911992798
 10
283.854668335
 20
164.8911992798
 10
283.854668335
 20
166.176906189
 10
285.1403752441
 20
166.176906189
  0
LWPOLYLINE
  5
3AC
100
AcDbEntity
  8
0
100
AcDbPolyline
 62
7
  6
CONTINUOUS
 90
8
 70
0
 43
0.3500000006
 10
285.055973877
 20
171.456994812
 10
285.9131299438
 20
171.456994812
 10
286.3416989136
 20
171.8855637817
 10
286.3416989136
 20
172.7427017212
 10
285.9131299438
 20
173.1712706909
 10
285.055973877
 20
173.1712706909
 10
285.055973877
 20
174.4569957275
 10
286.3416989136
 20
174.4569957275
  0
LINE
  5
3AD
100
AcDbEntity
  8
SMUSSO
100
AcDbLine
 62
7
  6
CONTINUOUS
 10
274.3334404444
 20
150.8193493583
 11
268.7828312714
 21
151.0131809018
  0
LINE
  5
3AE
100
AcDbEntity
  8
SMUSSO
100
AcDbLine
 62
7
  6
CONTINUOUS
 10
274.3334404444
 20
151.8199581604
 11
268.7828312714
 21
152.0137897039
  0
LINE
  5
3AF
100
AcDbEntity
  8
0
100
AcDbLine
 62
250
  6
CONTINUOUS
 10
268.7828312714
 20
148.1757311363
 11
268.1828312714
 21
148.2176872235
  0
LINE
  5
3B0
100
AcDbEntity
  8
0
100
AcDbLine
 62
7
  6
CONTINUOUS
 10
268.7828312714
 20
149.7718336167
 11
268.1828312714
 21
149.8137897039
  0
LINE
  5
3B1
100
AcDbEntity
  8
SMUSSO
100
AcDbLine
 62
7
  6
CONTINUOUS
 10
275.3328312714
 20
150.3905271141
 11
274.3483788137
 21
150.8337751738
  0
LWPOLYLINE
  5
3B2
100
AcDbEntity
  8
0
100
AcDbPolyline
 62
7
  6
CONTINUOUS
 90
10
 70
0
 43
0.3500000006
 10
282.2702574463
 20
171.9569859009
 10
282.3416976929
 20
171.8141416626
 10
282.3416976929
 20
171.742701416
 10
282.1988353271
 20
171.5998571777
 10
282.127413208
 20
171.5998571777
 10
282.0559729614
 20
171.6712792969
 10
282.0559729614
 20
171.742701416
 10
282.127413208
 20
171.8855637817
 10
282.1988353271
 20
171.9569859009
 10
282.2702574463
 20
171.9569859009
  0
ARC
  5
3B3
100
AcDbEntity
  8
0
100
AcDbCircle
 62
7
  6
CONTINUOUS
 10
267.2327068926
 20
80.8137897039
 40
1.0
100
AcDbArc
 50
90.0
 51
95.7105931375
  0
ARC
  5
3B4
100
AcDbEntity
  8
0
100
AcDbCircle
 62
7
  6
CONTINUOUS
 10
267.2327068926
 20
133.2137897039
 40
1.0
100
AcDbArc
 50
264.2894068625
 51
270.0
  0
ARC
  5
3B5
100
AcDbEntity
  8
0
100
AcDbCircle
 62
7
  6
CONTINUOUS
 10
267.2575180586
 20
80.1637901484
 40
0.3
100
AcDbArc
 50
242.0510127541
 51
269.8999998573
  0
ARC
  5
3B6
100
AcDbEntity
  8
0
100
AcDbCircle
 62
7
  6
CONTINUOUS
 10
267.2575180586
 20
133.8637892594
 40
0.3
100
AcDbArc
 50
90.1000001427
 51
117.9489872459
  0
ARC
  5
3B7
100
AcDbEntity
  8
0
100
AcDbCircle
 62
7
  6
CONTINUOUS
 10
265.3828312714
 20
98.469181232
 40
0.2
100
AcDbArc
 50
93.0
 51
180.0
  0
ARC
  5
3B8
100
AcDbEntity
  8
0
100
AcDbCircle
 62
7
  6
CONTINUOUS
 10
265.3828312714
 20
93.0583981758
 40
0.2
100
AcDbArc
 50
180.0
 51
267.0
  0
ARC
  5
3B9
100
AcDbEntity
  8
0
100
AcDbCircle
 62
7
  6
CONTINUOUS
 10
265.3828312714
 20
120.969181232
 40
0.2
100
AcDbArc
 50
93.0
 51
180.0
  0
ARC
  5
3BA
100
AcDbEntity
  8
0
100
AcDbCircle
 62
7
  6
CONTINUOUS
 10
265.3828312714
 20
115.5583981758
 40
0.2
100
AcDbArc
 50
180.0
 51
267.0
  0
ELLIPSE
  5
3BB
100
AcDbEntity
  8
RACCORDO
100
AcDbEllipse
 62
7
  6
CONTINUOUS
 10
29.5622180065
 20
84.9150106529
 30
0.0
 11
-0.3552779753
 21
-0.3552779753
 31
0.0
 40
0.9951458158
 41
-0.782965171
 42
0.782965171
  0
ELLIPSE
  5
3BC
100
AcDbEntity
  8
RACCORDO
100
AcDbEllipse
 62
7
  6
CONTINUOUS
 10
29.5622180065
 20
129.1125687549
 30
0.0
 11
-0.3552779753
 21
0.3552779753
 31
0.0
 40
0.9951458158
 41
-0.782965171
 42
0.782965171
  0
ELLIPSE
  5
3BD
100
AcDbEntity
  8
RACCORDO
100
AcDbEllipse
 62
7
  6
CONTINUOUS
 10
73.7597761084
 20
129.1125687549
 30
0.0
 11
0.3552779753
 21
0.3552779753
 31
0.0
 40
0.9951458158
 41
-0.782965171
 42
0.782965171
  0
ELLIPSE
  5
3BE
100
AcDbEntity
  8
RACCORDO
100
AcDbEllipse
 62
7
  6
CONTINUOUS
 10
73.7597761084
 20
84.9150106529
 30
0.0
 11
0.3552779753
 21
-0.3552779753
 31
0.0
 40
0.9951458158
 41
-0.782965171
 42
0.782965171
  0
ELLIPSE
  5
3BF
100
AcDbEntity
  8
RACCORDO
100
AcDbEllipse
 62
7
  6
CONTINUOUS
 10
100.5622180065
 20
129.1125687549
 30
0.0
 11
-0.3552779753
 21
0.3552779753
 31
0.0
 40
0.9951458158
 41
-0.782965171
 42
0.782965171
  0
ELLIPSE
  5
3C0
100
AcDbEntity
  8
RACCORDO
100
AcDbEllipse
 62
7
  6
CONTINUOUS
 10
144.7597761084
 20
129.1125687549
 30
0.0
 11
0.3552779753
 21
0.3552779753
 31
0.0
 40
0.9951458158
 41
-0.782965171
 42
0.782965171
  0
ELLIPSE
  5
3C1
100
AcDbEntity
  8
RACCORDO
100
AcDbEllipse
 62
7
  6
CONTINUOUS
 10
144.7597761084
 20
84.9150106529
 30
0.0
 11
0.3552779753
 21
-0.3552779753
 31
0.0
 40
0.9951458158
 41
-0.782965171
 42
0.782965171
  0
ELLIPSE
  5
3C2
100
AcDbEntity
  8
RACCORDO
100
AcDbEllipse
 62
7
  6
CONTINUOUS
 10
100.5622180065
 20
84.9150106529
 30
0.0
 11
-0.3552779753
 21
-0.3552779753
 31
0.0
 40
0.9951458158
 41
-0.782965171
 42
0.782965171
  0
ELLIPSE
  5
3C3
100
AcDbEntity
  8
RACCORDO
100
AcDbEllipse
 62
7
  6
CONTINUOUS
 10
171.5622180065
 20
129.1125687549
 30
0.0
 11
-0.3552779753
 21
0.3552779753
 31
0.0
 40
0.9951458158
 41
-0.782965171
 42
0.782965171
  0
ELLIPSE
  5
3C4
100
AcDbEntity
  8
RACCORDO
100
AcDbEllipse
 62
7
  6
CONTINUOUS
 10
171.5622180065
 20
84.9150106529
 30
0.0
 11
-0.3552779753
 21
-0.3552779753
 31
0.0
 40
0.9951458158
 41
-0.782965171
 42
0.782965171
  0
ELLIPSE
  5
3C5
100
AcDbEntity
  8
RACCORDO
100
AcDbEllipse
 62
7
  6
CONTINUOUS
 10
215.7597761084
 20
84.9150106529
 30
0.0
 11
0.3552779753
 21
-0.3552779753
 31
0.0
 40
0.9951458158
 41
-0.782965171
 42
0.782965171
  0
ELLIPSE
  5
3C6
100
AcDbEntity
  8
RACCORDO
100
AcDbEllipse
 62
7
  6
CONTINUOUS
 10
215.7597761084
 20
129.1125687549
 30
0.0
 11
0.3552779753
 21
0.3552779753
 31
0.0
 40
0.9951458158
 41
-0.782965171
 42
0.782965171
  0
ELLIPSE
  5
3C7
100
AcDbEntity
  8
0
100
AcDbEllipse
 62
7
  6
CONTINUOUS
 10
172.0340392065
 20
107.0137897039
 30
0.0
 11
530.7034459343
 21
0.0
 31
0.0
 40
0.0494155445
 41
1.3905371885
 42
1.394000135
  0
ELLIPSE
  5
3C8
100
AcDbEntity
  8
0
100
AcDbEllipse
 62
7
  6
CONTINUOUS
 10
172.0340392065
 20
107.0137897039
 30
0.0
 11
530.7034459343
 21
-0.0
 31
0.0
 40
0.0494155445
 41
-1.394000135
 42
-1.3905371885
  0
ELLIPSE
  5
3C9
100
AcDbEntity
  8
0
100
AcDbEllipse
 62
7
  6
CONTINUOUS
 10
266.3059656006
 20
94.1475463496
 30
0.0
 11
0.6456053626
 21
-0.0903841008
 31
0.0
 40
0.4601920703
 41
2.1145161426
 42
2.723751082
  0
ELLIPSE
  5
3CA
100
AcDbEntity
  8
0
100
AcDbEllipse
 62
7
  6
CONTINUOUS
 10
266.3059656006
 20
97.3800330582
 30
0.0
 11
0.6456053626
 21
0.0903841008
 31
0.0
 40
0.4601920703
 41
-2.723751082
 42
-2.1145161426
  0
ELLIPSE
  5
3CB
100
AcDbEntity
  8
0
100
AcDbEllipse
 62
7
  6
CONTINUOUS
 10
266.3059656006
 20
97.6475463496
 30
0.0
 11
0.6456053626
 21
-0.0903841008
 31
0.0
 40
0.4601920703
 41
1.8666217978
 42
2.723751082
  0
ELLIPSE
  5
3CC
100
AcDbEntity
  8
0
100
AcDbEllipse
 62
7
  6
CONTINUOUS
 10
266.3059656006
 20
116.3800330582
 30
0.0
 11
0.6456053626
 21
0.0903841008
 31
0.0
 40
0.4601920703
 41
-2.723751082
 42
-1.8666217978
  0
ELLIPSE
  5
3CD
100
AcDbEntity
  8
0
100
AcDbEllipse
 62
7
  6
CONTINUOUS
 10
266.3059656006
 20
116.6475463496
 30
0.0
 11
0.6456053626
 21
-0.0903841008
 31
0.0
 40
0.4601920703
 41
2.1145161426
 42
2.723751082
  0
ELLIPSE
  5
3CE
100
AcDbEntity
  8
0
100
AcDbEllipse
 62
7
  6
CONTINUOUS
 10
266.3059656006
 20
119.8800330582
 30
0.0
 11
0.6456053626
 21
0.0903841008
 31
0.0
 40
0.4601920703
 41
-2.723751082
 42
-2.1145161426
  0
ELLIPSE
  5
3CF
100
AcDbEntity
  8
0
100
AcDbEllipse
 62
7
  6
CONTINUOUS
 10
265.8297751244
 20
94.3616702939
 30
0.0
 11
0.6148281169
 21
-0.5564245427
 31
0.0
 40
0.3617787886
 41
2.7623787424
 42
3.4580053002
  0
ELLIPSE
  5
3D0
100
AcDbEntity
  8
0
100
AcDbEllipse
 62
7
  6
CONTINUOUS
 10
265.8297751244
 20
97.1659091139
 30
0.0
 11
0.6148281169
 21
0.5564245427
 31
0.0
 40
0.3617787886
 41
2.825180007
 42
3.5208065648
  0
ELLIPSE
  5
3D1
100
AcDbEntity
  8
0
100
AcDbEllipse
 62
7
  6
CONTINUOUS
 10
265.8297751244
 20
116.8616702939
 30
0.0
 11
0.6148281169
 21
-0.5564245427
 31
0.0
 40
0.3617787886
 41
2.7623787424
 42
3.4580053002
  0
ELLIPSE
  5
3D2
100
AcDbEntity
  8
0
100
AcDbEllipse
 62
7
  6
CONTINUOUS
 10
265.8297751244
 20
119.6659091139
 30
0.0
 11
0.6148281169
 21
0.5564245427
 31
0.0
 40
0.3617787886
 41
2.825180007
 42
3.5208065648
  0
ENDSEC
  0
SECTION
  2
OBJECTS
  0
DICTIONARY
  5
C
100
AcDbDictionary
280
0
281
1
  3
ACAD_GROUP
350
D
  3
ACAD_MLINESTYLE
350
17
  3
ACAD_LAYOUT
350
1A
  3
ACAD_PLOTSETTINGS
350
19
  3
ACAD_PLOTSTYLENAME
350
E
  0
DICTIONARY
  5
D
102
{ACAD_REACTORS
330
C
102
}
100
AcDbDictionary
280
0
281
1
  0
ACDBDICTIONARYWDFLT
  5
E
102
{ACAD_REACTORS
330
C
102
}
100
AcDbDictionary
281
1
  3
Normal
350
F
100
AcDbDictionaryWithDefault
340
F
  0
DICTIONARY
  5
17
102
{ACAD_REACTORS
330
C
102
}
100
AcDbDictionary
280
0
281
1
  3
Standard
350
18
  0
DICTIONARY
  5
19
102
{ACAD_REACTORS
330
C
102
}
100
AcDbDictionary
281
1
  0
DICTIONARY
  5
1A
102
{ACAD_REACTORS
330
C
102
}
100
AcDbDictionary
281
1
  3
Model
350
3D3
  3
Layout1
350
3D4
  0
ACDBPLACEHOLDER
  5
F
102
{ACAD_REACTORS
330
E
102
}
  0
MLINESTYLE
  5
18
102
{ACAD_REACTORS
330
17
102
}
100
AcDbMlineStyle
  2
STANDARD
 70
0
  3

 62
256
 51
90.0
 52
90.0
 71
2
 49
0.5
 62
256
  6
BYLAYER
 49
-0.5
 62
256
  6
BYLAYER
  0
LAYOUT
  5
3D3
102
{ACAD_REACTORS
330
1A
102
}
100
AcDbPlotSettings
  1

  2
none_device
  4
ISO_A4_(297.00_x_210.00_MM)
  6

 40
0.0
 41
0.0
 42
0.0
 43
0.0
 44
297.0
 45
210.0
 46
0.0
 47
0.0
 48
0.0
 49
0.0
140
0.0
141
0.0
142
1.0
143
1.0
 70
1024
 72
1
 73
0
 74
0
  7

 75
0
147
1.0
148
0.0
149
0.0
100
AcDbLayout
  1
Model
 70
0
 71
0
 10
0.0
 20
0.0
 11
297.0
 21
210.0
 12
0.0
 22
0.0
 32
0.0
 14
0.0
 24
0.0
 34
0.0
 15
0.0
 25
0.0
 35
0.0
146
0.0
 13
0.0
 23
0.0
 33
0.0
 16
1.0
 26
0.0
 36
0.0
 17
0.0
 27
1.0
 37
0.0
 76
0
330
21B
345
0
346
0
  0
LAYOUT
  5
3D4
102
{ACAD_REACTORS
330
1A
102
}
100
AcDbPlotSettings
  1

  2
none_device
  4
ISO_A4_(297.00_x_210.00_MM)
  6

 40
0.0
 41
0.0
 42
0.0
 43
0.0
 44
297.0
 45
210.0
 46
0.0
 47
0.0
 48
0.0
 49
0.0
140
0.0
141
0.0
142
1.0
143
1.0
 70
0
 72
1
 73
0
 74
0
  7

 75
0
147
1.0
148
0.0
149
0.0
100
AcDbLayout
  1
Layout1
 70
0
 71
1
 10
0.0
 20
0.0
 11
297.0
 21
210.0
 12
0.0
 22
0.0
 32
0.0
 14
0.0
 24
0.0
 34
0.0
 15
0.0
 25
0.0
 35
0.0
146
0.0
 13
0.0
 23
0.0
 33
0.0
 16
1.0
 26
0.0
 36
0.0
 17
0.0
 27
1.0
 37
0.0
 76
0
330
21C
345
0
346
0
  0
ENDSEC
  0
EOF
