  0
SECTION
  2
HEADER
  9
$ACADVER
  1
AC1024
  9
$DWGCODEPAGE
  3
ANSI_1252
  9
$EXTMAX
 10
297.0
 20
210.0
 30
0.0
  9
$EXTMIN
 10
0.0
 20
0.0
 30
0.0
  9
$LIMMIN
 10
0.0
 20
0.0
  9
$LIMMAX
 10
297.0
 20
210.0
  9
$VIEWCTR
 10
148.5
 20
105.0
  9
$VIEWSIZE
 40
210.0
  9
$CLAYER
  8
0
  9
$LTSCALE
 40
16.335
  9
$CELTYPE
  6
BYLAYER
  9
$DIMSCALE
 40
1.0
  9
$DIMASZ
 40
3.0
  9
$DIMEXO
 40
0.5
  9
$DIMDLI
 40
11.286
  9
$DIMEXE
 40
1.5
  9
$DIMCEN
 40
2.673
  9
$DIMLFAC
 40
1.0
  9
$DIMBLK
  1
_FILLED
  9
$DIMALT
 70
0
  9
$DIMALTF
 40
0.0393700787
  9
$DIMTXT
 40
3.0
  9
$DIMTOL
 70
1
  9
$DIMLIM
 70
0
  9
$DIMTFAC
 40
1.0
  9
$DIMTP
 40
0.01
  9
$DIMTM
 40
0.01
  9
$DIMGAP
 40
0.625
  9
$DIMDSEP
 70
44
  9
$AUNITS
 70
0
  9
$PDMODE
 70
3
  9
$PDSIZE
 40
3.0
  9
$HANDSEED
  5
36A
  9
$TILEMODE
 70
1
  9
$MEASUREMENT
 70
1
  9
$INSUNITS
 70
4
  0
ENDSEC
  0
SECTION
  2
CLASSES
  0
CLASS
  1
ACDBDICTIONARYWDFLT
  2
AcDbDictionaryWithDefault
  3
AutoCAD 2000
 90
0
 91
1
280
0
281
0
  0
CLASS
  1
ACDBPLACEHOLDER
  2
AcDbPlaceHolder
  3
AutoCAD 2000
 90
0
 91
1
280
0
281
0
  0
CLASS
  1
LAYOUT
  2
AcDbLayout
  3
AutoCAD 2000
 90
0
 91
0
280
0
281
0
  0
ENDSEC
  0
SECTION
  2
TABLES
  0
TABLE
  2
VPORT
  5
8
100
AcDbSymbolTable
 70
2
  0
VPORT
  5
1F4
100
AcDbSymbolTableRecord
100
AcDbViewportTableRecord
  2
*ACTIVE
 70
0
 10
0.0
 20
0.0
 11
1.0
 21
1.0
 12
148.5
 22
105.0
 13
0.0
 23
0.0
 14
1.0
 24
1.0
 15
0.0
 25
0.0
 16
0.0
 26
0.0
 36
1.0
 17
0.0
 27
0.0
 37
0.0
 40
210.0
 41
1.4142857143
 42
50.0
 43
0.0
 44
0.0
 50
0.0
 51
0.0
 71
0
 72
100
 73
1
 74
1
 75
0
 76
0
 77
0
 78
0
  0
ENDTAB
  0
TABLE
  2
LTYPE
  5
5
100
AcDbSymbolTable
 70
6
  0
LTYPE
  5
14
100
AcDbSymbolTableRecord
100
AcDbLinetypeTableRecord
  2
BYBLOCK
 70
0
  3

 72
65
 73
0
 40
0.0
  0
LTYPE
  5
15
100
AcDbSymbolTableRecord
100
AcDbLinetypeTableRecord
  2
BYLAYER
 70
0
  3

 72
65
 73
0
 40
0.0
  0
LTYPE
  5
16
100
AcDbSymbolTableRecord
100
AcDbLinetypeTableRecord
  2
CONTINUOUS
 70
64
  3
Solid line
 72
65
 73
0
 40
0.0
  0
LTYPE
  5
1F5
100
AcDbSymbolTableRecord
100
AcDbLinetypeTableRecord
  2
CENTER
 70
64
  3
____ _ ____ _ ____ _ ____ _ ____ _ ____ _ ____
 72
65
 73
4
 40
0.6
 49
0.375
 74
0
 49
-0.075
 74
0
 49
0.075
 74
0
 49
-0.075
 74
0
  0
LTYPE
  5
1F6
100
AcDbSymbolTableRecord
100
AcDbLinetypeTableRecord
  2
HIDDEN
 70
64
  3
- - - - - - - - - - - - - - - - - - - -
 72
65
 73
2
 40
0.2
 49
0.1
 74
0
 49
-0.1
 74
0
  0
LTYPE
  5
1F7
100
AcDbSymbolTableRecord
100
AcDbLinetypeTableRecord
  2
PHANTOM
 70
64
  3
_____ _ _ _____ _ _ _____ _ _ _____
 72
65
 73
6
 40
0.8
 49
0.45
 74
0
 49
-0.05
 74
0
 49
0.1
 74
0
 49
-0.05
 74
0
 49
0.1
 74
0
 49
-0.05
 74
0
  0
LTYPE
  5
1F8
100
AcDbSymbolTableRecord
100
AcDbLinetypeTableRecord
  2
DOT
 70
64
  3
. . . . . . . . . . . . . . . . . . . .
 72
65
 73
2
 40
0.2
 49
0.1
 74
0
 49
-0.1
 74
0
  0
LTYPE
  5
1F9
100
AcDbSymbolTableRecord
100
AcDbLinetypeTableRecord
  2
DASHED
 70
64
  3
- - - - - - - - - - - - - - - - - - - -
 72
65
 73
2
 40
0.2
 49
0.1
 74
0
 49
-0.1
 74
0
  0
ENDTAB
  0
TABLE
  2
LAYER
  5
2
100
AcDbSymbolTable
 70
36
  0
LAYER
  5
10
100
AcDbSymbolTableRecord
100
AcDbLayerTableRecord
  2
0
 70
0
 62
7
  6
CONTINUOUS
370
-3
390
F
  0
LAYER
  5
1FA
100
AcDbSymbolTableRecord
100
AcDbLayerTableRecord
  2
DEFAULT_1
 70
0
 62
7
  6
CENTER
370
-3
390
F
  0
LAYER
  5
1FB
100
AcDbSymbolTableRecord
100
AcDbLayerTableRecord
  2
DEFAULT_2
 70
0
 62
7
  6
HIDDEN
370
-3
390
F
  0
LAYER
  5
1FC
100
AcDbSymbolTableRecord
100
AcDbLayerTableRecord
  2
DEFAULT_3
 70
0
 62
7
  6
PHANTOM
370
-3
390
F
  0
LAYER
  5
1FD
100
AcDbSymbolTableRecord
100
AcDbLayerTableRecord
  2
ASSI
 70
0
 62
7
  6
CONTINUOUS
370
-3
390
F
  0
LAYER
  5
1FE
100
AcDbSymbolTableRecord
100
AcDbLayerTableRecord
  2
COORDINATE
 70
0
 62
7
  6
CONTINUOUS
370
-3
390
F
  0
LAYER
  5
1FF
100
AcDbSymbolTableRecord
100
AcDbLayerTableRecord
  2
COORD_ORIGINE
 70
0
 62
7
  6
CONTINUOUS
370
-3
390
F
  0
LAYER
  5
200
100
AcDbSymbolTableRecord
100
AcDbLayerTableRecord
  2
COPY_PUBLISH
 70
0
 62
7
  6
CONTINUOUS
370
-3
390
F
  0
LAYER
  5
201
100
AcDbSymbolTableRecord
100
AcDbLayerTableRecord
  2
COSMETIC
 70
0
 62
7
  6
CONTINUOUS
370
-3
390
F
  0
LAYER
  5
202
100
AcDbSymbolTableRecord
100
AcDbLayerTableRecord
  2
COSMETICI
 70
0
 62
7
  6
CONTINUOUS
370
-3
390
F
  0
LAYER
  5
203
100
AcDbSymbolTableRecord
100
AcDbLayerTableRecord
  2
CURVE
 70
0
 62
7
  6
CONTINUOUS
370
-3
390
F
  0
LAYER
  5
204
100
AcDbSymbolTableRecord
100
AcDbLayerTableRecord
  2
CURVE_COSTRUZIONE
 70
0
 62
7
  6
CONTINUOUS
370
-3
390
F
  0
LAYER
  5
205
100
AcDbSymbolTableRecord
100
AcDbLayerTableRecord
  2
CURVE_TASSELLI
 70
0
 62
7
  6
CONTINUOUS
370
-3
390
F
  0
LAYER
  5
206
100
AcDbSymbolTableRecord
100
AcDbLayerTableRecord
  2
DRAFT
 70
0
 62
7
  6
CONTINUOUS
370
-3
390
F
  0
LAYER
  5
207
100
AcDbSymbolTableRecord
100
AcDbLayerTableRecord
  2
IMPORT_IGES
 70
0
 62
7
  6
CONTINUOUS
370
-3
390
F
  0
LAYER
  5
208
100
AcDbSymbolTableRecord
100
AcDbLayerTableRecord
  2
INTFCLR_2
 70
0
 62
7
  6
CONTINUOUS
370
-3
390
F
  0
LAYER
  5
209
100
AcDbSymbolTableRecord
100
AcDbLayerTableRecord
  2
INTF_1
 70
0
 62
7
  6
CONTINUOUS
370
-3
390
F
  0
LAYER
  5
20A
100
AcDbSymbolTableRecord
100
AcDbLayerTableRecord
  2
INTF_7
 70
0
 62
7
  6
CONTINUOUS
370
-3
390
F
  0
LAYER
  5
20B
100
AcDbSymbolTableRecord
100
AcDbLayerTableRecord
  2
INTF_CYAN
 70
0
 62
7
  6
CONTINUOUS
370
-3
390
F
  0
LAYER
  5
20C
100
AcDbSymbolTableRecord
100
AcDbLayerTableRecord
  2
NOTE
 70
0
 62
7
  6
CONTINUOUS
370
-3
390
F
  0
LAYER
  5
20D
100
AcDbSymbolTableRecord
100
AcDbLayerTableRecord
  2
PIANI
 70
0
 62
7
  6
CONTINUOUS
370
-3
390
F
  0
LAYER
  5
20E
100
AcDbSymbolTableRecord
100
AcDbLayerTableRecord
  2
PIANI_ORIGINE
 70
0
 62
7
  6
CONTINUOUS
370
-3
390
F
  0
LAYER
  5
20F
100
AcDbSymbolTableRecord
100
AcDbLayerTableRecord
  2
PIANI_RIFERIMENTO
 70
0
 62
7
  6
CONTINUOUS
370
-3
390
F
  0
LAYER
  5
210
100
AcDbSymbolTableRecord
100
AcDbLayerTableRecord
  2
PUNTI
 70
0
 62
7
  6
CONTINUOUS
370
-3
390
F
  0
LAYER
  5
211
100
AcDbSymbolTableRecord
100
AcDbLayerTableRecord
  2
RACCORDO
 70
0
 62
7
  6
CONTINUOUS
370
-3
390
F
  0
LAYER
  5
212
100
AcDbSymbolTableRecord
100
AcDbLayerTableRecord
  2
RGB__255__255__255__
 70
0
 62
7
  6
CONTINUOUS
370
-3
390
F
  0
LAYER
  5
213
100
AcDbSymbolTableRecord
100
AcDbLayerTableRecord
  2
RGB____0____0____0__
 70
0
 62
7
  6
CONTINUOUS
370
-3
390
F
  0
LAYER
  5
214
100
AcDbSymbolTableRecord
100
AcDbLayerTableRecord
  2
SIMBOLI
 70
0
 62
7
  6
CONTINUOUS
370
-3
390
F
  0
LAYER
  5
215
100
AcDbSymbolTableRecord
100
AcDbLayerTableRecord
  2
SMUSSO
 70
0
 62
7
  6
CONTINUOUS
370
-3
390
F
  0
LAYER
  5
216
100
AcDbSymbolTableRecord
100
AcDbLayerTableRecord
  2
SNAPLINE
 70
0
 62
7
  6
CONTINUOUS
370
-3
390
F
  0
LAYER
  5
217
100
AcDbSymbolTableRecord
100
AcDbLayerTableRecord
  2
SUPERFICI
 70
0
 62
7
  6
CONTINUOUS
370
-3
390
F
  0
LAYER
  5
218
100
AcDbSymbolTableRecord
100
AcDbLayerTableRecord
  2
TRASH
 70
0
 62
7
  6
CONTINUOUS
370
-3
390
F
  0
LAYER
  5
219
100
AcDbSymbolTableRecord
100
AcDbLayerTableRecord
  2
WHITE
 70
0
 62
7
  6
CONTINUOUS
370
-3
390
F
  0
LAYER
  5
21A
100
AcDbSymbolTableRecord
100
AcDbLayerTableRecord
  2
XSEC_DATUMS
 70
0
 62
7
  6
CONTINUOUS
370
-3
390
F
  0
ENDTAB
  0
TABLE
  2
STYLE
  5
3
100
AcDbSymbolTable
 70
1
  0
STYLE
  5
11
100
AcDbSymbolTableRecord
100
AcDbTextStyleTableRecord
  2
STANDARD
 70
0
 40
0.0
 41
0.8
 50
0.0
 71
0
 42
0.2
  3
txt
  4

  0
STYLE
  5
21B
100
AcDbSymbolTableRecord
100
AcDbTextStyleTableRecord
  2
TEXTSTYLE_1
 70
0
 40
0.0
 41
0.8
 50
0.0
 71
0
 42
0.2
  3
gdt
  4

  0
ENDTAB
  0
TABLE
  2
VIEW
  5
6
100
AcDbSymbolTable
 70
0
  0
ENDTAB
  0
TABLE
  2
UCS
  5
7
100
AcDbSymbolTable
 70
0
  0
ENDTAB
  0
TABLE
  2
APPID
  5
9
100
AcDbSymbolTable
 70
1
  0
APPID
  5
21C
100
AcDbSymbolTableRecord
100
AcDbRegAppTableRecord
  2
ACAD
 70
0
  0
ENDTAB
  0
TABLE
  2
BLOCK_RECORD
  5
1
100
AcDbSymbolTable
 70
0
  0
BLOCK_RECORD
  5
21D
100
AcDbSymbolTableRecord
100
AcDbBlockTableRecord
  2
*Model_Space
  0
BLOCK_RECORD
  5
21E
100
AcDbSymbolTableRecord
100
AcDbBlockTableRecord
  2
*Paper_Space
  0
BLOCK_RECORD
  5
21F
100
AcDbSymbolTableRecord
100
AcDbBlockTableRecord
  2
_FILLED
  0
BLOCK_RECORD
  5
220
100
AcDbSymbolTableRecord
100
AcDbBlockTableRecord
  2
*D0
  0
BLOCK_RECORD
  5
221
100
AcDbSymbolTableRecord
100
AcDbBlockTableRecord
  2
*D1
  0
BLOCK_RECORD
  5
222
100
AcDbSymbolTableRecord
100
AcDbBlockTableRecord
  2
*D2
  0
BLOCK_RECORD
  5
223
100
AcDbSymbolTableRecord
100
AcDbBlockTableRecord
  2
*D3
  0
ENDTAB
  0
TABLE
  2
DIMSTYLE
  5
A
100
AcDbSymbolTable
 70
1
100
AcDbDimStyleTable
 71
0
  0
DIMSTYLE
105
224
100
AcDbSymbolTableRecord
100
AcDbDimStyleTableRecord
  2
STANDARD
 70
0
  3

  4

 40
1.0
 41
3.0
 42
0.5
 43
0.38
 44
1.5
 45
0.0
 46
0.0
 47
0.01
 48
0.01
140
3.0
141
0.09
142
0.0
143
25.4
144
1.0
145
0.0
146
1.0
147
0.625
 71
1
 72
0
 73
0
 74
0
 75
0
 76
0
 77
1
 78
8
 79
2
170
0
171
1
172
0
173
0
174
0
175
0
176
0
177
0
178
0
270
2
179
2
271
2
272
2
273
2
274
2
275
0
280
0
281
0
282
0
283
1
284
8
285
0
286
0
287
3
288
0
340
11
278
44
341
21F
342
21F
343
21F
344
21F
  0
DIMSTYLE
105
225
100
AcDbSymbolTableRecord
100
AcDbDimStyleTableRecord
  2
DIMSTYLE_1
 70
0
  3

  4

 40
1.0
 41
3.0
 42
0.5
 43
0.38
 44
1.5
 45
0.0
 46
0.0
 47
0.0
 48
0.0
140
3.0
141
0.09
142
0.0
143
25.4
144
1.0
145
0.0
146
1.0
147
0.75
 71
0
 72
0
 73
0
 74
0
 75
0
 76
0
 77
1
 78
8
 79
2
170
0
171
1
172
0
173
0
174
0
175
0
176
0
177
0
178
0
270
2
179
2
271
2
272
2
273
2
274
2
275
0
280
0
281
0
282
0
283
1
284
8
285
0
286
0
287
3
288
0
340
11
278
44
341
21F
342
21F
343
21F
344
21F
  0
ENDTAB
  0
ENDSEC
  0
SECTION
  2
BLOCKS
  0
BLOCK
  5
20
100
AcDbEntity
  8
0
100
AcDbBlockBegin
  2
*Model_Space
 70
0
 10
0.0
 20
0.0
 30
0.0
  3
*Model_Space
  1

  0
ENDBLK
  5
21
100
AcDbEntity
  8
0
100
AcDbBlockEnd
  0
BLOCK
  5
1C
100
AcDbEntity
  8
0
100
AcDbBlockBegin
  2
*Paper_Space
 70
0
 10
0.0
 20
0.0
 30
0.0
  3
*Paper_Space
  1

  0
ENDBLK
  5
1D
100
AcDbEntity
  8
0
100
AcDbBlockEnd
  0
BLOCK
  5
226
100
AcDbEntity
  8
0
100
AcDbBlockBegin
  2
_FILLED
 70
64
 10
0.0
 20
0.0
  3
_FILLED
  1

  0
SOLID
  5
227
100
AcDbEntity
  8
0
  6
BYBLOCK
 62
0
100
AcDbTrace
 10
0.0
 20
0.0
 11
-1.0
 21
0.3166666667
 12
-1.0
 22
-0.3166666667
 13
-1.0
 23
-0.3166666667
  0
ENDBLK
  5
228
100
AcDbEntity
  8
0
  6
BYBLOCK
 62
0
100
AcDbBlockEnd
  0
BLOCK
  5
229
100
AcDbEntity
  8
0
100
AcDbBlockBegin
 62
7
  6
CONTINUOUS
  2
*D0
 70
65
 10
0.0
 20
0.0
  3
*D0
  1

  0
MTEXT
  5
22A
100
AcDbEntity
  8
0
100
AcDbMText
 62
7
  6
CONTINUOUS
  7
STANDARD
 71
3
 72
1
 10
-78.71641533
 20
58.75
 30
0.0
 11
1.0
 21
0.0
 31
0.0
 73
2
 44
0.9
  1
{\ftxt;\W0.0001;\H0.0001;\~}{\ftxt;\W2.7857142857;\H3.0; }{\ftxt;\W0.0001;\H0.0001;\~}
 40
3.0
 41
12.5357142857
  0
LINE
  5
22B
100
AcDbEntity
  8
0
100
AcDbLine
 62
7
  6
CONTINUOUS
 10
-68.9791959678
 20
43.5383103281
 11
-68.9791959678
 21
56.5
  0
LINE
  5
22C
100
AcDbEntity
  8
0
100
AcDbLine
 62
7
  6
CONTINUOUS
 10
-77.5291959678
 20
44.5
 11
-77.5291959678
 21
56.5
  0
LINE
  5
22D
100
AcDbEntity
  8
0
100
AcDbLine
 62
7
  6
CONTINUOUS
 10
-68.9791959678
 20
55.0
 11
-73.2541959678
 21
55.0
  0
LINE
  5
22E
100
AcDbEntity
  8
0
100
AcDbLine
 62
7
  6
CONTINUOUS
 10
-77.5291959678
 20
55.0
 11
-73.2541959678
 21
55.0
  0
LINE
  5
22F
100
AcDbEntity
  8
0
100
AcDbLine
 62
7
  6
CONTINUOUS
 10
-73.2541959678
 20
55.0
 11
-87.0735581871
 21
55.0
  0
INSERT
  5
230
100
AcDbEntity
  8
0
100
AcDbBlockReference
 62
7
  6
CONTINUOUS
  2
_FILLED
 10
-68.9791959678
 20
55.0
 41
3.0
 42
3.0
 43
3.0
  0
INSERT
  5
231
100
AcDbEntity
  8
0
100
AcDbBlockReference
 62
7
  6
CONTINUOUS
  2
_FILLED
 10
-77.5291959678
 20
55.0
 41
3.0
 42
3.0
 43
3.0
 50
180.0
  0
ENDBLK
  5
232
100
AcDbEntity
  8
0
  6
BYBLOCK
 62
0
100
AcDbBlockEnd
  0
BLOCK
  5
233
100
AcDbEntity
  8
0
100
AcDbBlockBegin
 62
7
  6
CONTINUOUS
  2
*D1
 70
65
 10
0.0
 20
0.0
  3
*D1
  1

  0
MTEXT
  5
234
100
AcDbEntity
  8
0
100
AcDbMText
 62
7
  6
CONTINUOUS
  7
STANDARD
 71
3
 72
1
 10
-79.0292256678
 20
66.75
 30
0.0
 11
1.0
 21
0.0
 31
0.0
 73
2
 44
0.9
  1
{\ftxt;\W0.0001;\H0.0001;\~}{\ftxt;\W3.1428571429;\H3.0; }{\ftxt;\W0.0001;\H0.0001;\~}
 40
3.0
 41
14.1428571429
  0
LINE
  5
235
100
AcDbEntity
  8
0
100
AcDbLine
 62
7
  6
CONTINUOUS
 10
-77.5291959678
 20
44.5
 11
-77.5291959678
 21
64.5
  0
LINE
  5
236
100
AcDbEntity
  8
0
100
AcDbLine
 62
7
  6
CONTINUOUS
 10
-65.9791959678
 20
26.5463167932
 11
-65.9791959678
 21
64.5
  0
LINE
  5
237
100
AcDbEntity
  8
0
100
AcDbLine
 62
7
  6
CONTINUOUS
 10
-77.5291959678
 20
63.0
 11
-71.7541959678
 21
63.0
  0
LINE
  5
238
100
AcDbEntity
  8
0
100
AcDbLine
 62
7
  6
CONTINUOUS
 10
-71.7541959678
 20
63.0
 11
-88.4577970964
 21
63.0
  0
LINE
  5
239
100
AcDbEntity
  8
0
100
AcDbLine
 62
7
  6
CONTINUOUS
 10
-65.9791959678
 20
63.0
 11
-71.7541959678
 21
63.0
  0
INSERT
  5
23A
100
AcDbEntity
  8
0
100
AcDbBlockReference
 62
7
  6
CONTINUOUS
  2
_FILLED
 10
-77.5291959678
 20
63.0
 41
3.0
 42
3.0
 43
3.0
 50
180.0
  0
INSERT
  5
23B
100
AcDbEntity
  8
0
100
AcDbBlockReference
 62
7
  6
CONTINUOUS
  2
_FILLED
 10
-65.9791959678
 20
63.0
 41
3.0
 42
3.0
 43
3.0
  0
ENDBLK
  5
23C
100
AcDbEntity
  8
0
  6
BYBLOCK
 62
0
100
AcDbBlockEnd
  0
BLOCK
  5
23D
100
AcDbEntity
  8
0
100
AcDbBlockBegin
 62
7
  6
CONTINUOUS
  2
*D2
 70
65
 10
0.0
 20
0.0
  3
*D2
  1

  0
MTEXT
  5
23E
100
AcDbEntity
  8
0
100
AcDbMText
 62
7
  6
CONTINUOUS
  7
STANDARD
 71
2
 72
1
 10
-0.05
 20
58.75
 30
0.0
 11
1.0
 21
0.0
 31
0.0
 73
2
 44
0.9
  1
{\ftxt;\W0.0001;\H0.0001;\~}{\ftxt;\W1.5714285714;\H3.0; }{\ftxt;\W0.0001;\H0.0001;\~}
 40
3.0
 41
7.0714285714
  0
LINE
  5
23F
100
AcDbEntity
  8
0
100
AcDbLine
 62
7
  6
CONTINUOUS
 10
-45.05
 20
44.5
 11
-45.05
 21
56.5
  0
LINE
  5
240
100
AcDbEntity
  8
0
100
AcDbLine
 62
7
  6
CONTINUOUS
 10
44.95
 20
44.5
 11
44.95
 21
56.5
  0
LINE
  5
241
100
AcDbEntity
  8
0
100
AcDbLine
 62
7
  6
CONTINUOUS
 10
-45.05
 20
55.0
 11
-0.05
 21
55.0
  0
LINE
  5
242
100
AcDbEntity
  8
0
100
AcDbLine
 62
7
  6
CONTINUOUS
 10
44.95
 20
55.0
 11
-0.05
 21
55.0
  0
INSERT
  5
243
100
AcDbEntity
  8
0
100
AcDbBlockReference
 62
7
  6
CONTINUOUS
  2
_FILLED
 10
-45.05
 20
55.0
 41
3.0
 42
3.0
 43
3.0
 50
180.0
  0
INSERT
  5
244
100
AcDbEntity
  8
0
100
AcDbBlockReference
 62
7
  6
CONTINUOUS
  2
_FILLED
 10
44.95
 20
55.0
 41
3.0
 42
3.0
 43
3.0
  0
ENDBLK
  5
245
100
AcDbEntity
  8
0
  6
BYBLOCK
 62
0
100
AcDbBlockEnd
  0
BLOCK
  5
246
100
AcDbEntity
  8
0
100
AcDbBlockBegin
 62
7
  6
CONTINUOUS
  2
*D3
 70
65
 10
0.0
 20
0.0
  3
*D3
  1

  0
MTEXT
  5
247
100
AcDbEntity
  8
0
100
AcDbMText
 62
7
  6
CONTINUOUS
  7
STANDARD
 71
2
 72
1
 10
51.3
 20
0.0
 30
0.0
 11
0.0
 21
1.0
 31
0.0
 73
2
 44
0.9
  1
{\ftxt;\W0.0001;\H0.0001;\~}{\ftxt;\W1.5714285714;\H3.0; }{\ftxt;\W0.0001;\H0.0001;\~}
 40
3.0
 41
7.0714285714
  0
LINE
  5
248
100
AcDbEntity
  8
0
100
AcDbLine
 62
7
  6
CONTINUOUS
 10
44.45
 20
45.0
 11
56.55
 21
45.0
  0
LINE
  5
249
100
AcDbEntity
  8
0
100
AcDbLine
 62
7
  6
CONTINUOUS
 10
44.45
 20
-45.0
 11
56.55
 21
-45.0
  0
LINE
  5
24A
100
AcDbEntity
  8
0
100
AcDbLine
 62
7
  6
CONTINUOUS
 10
55.05
 20
45.0
 11
55.05
 21
0.0
  0
LINE
  5
24B
100
AcDbEntity
  8
0
100
AcDbLine
 62
7
  6
CONTINUOUS
 10
55.05
 20
-45.0
 11
55.05
 21
0.0
  0
INSERT
  5
24C
100
AcDbEntity
  8
0
100
AcDbBlockReference
 62
7
  6
CONTINUOUS
  2
_FILLED
 10
55.05
 20
45.0
 41
3.0
 42
3.0
 43
3.0
 50
90.0
  0
INSERT
  5
24D
100
AcDbEntity
  8
0
100
AcDbBlockReference
 62
7
  6
CONTINUOUS
  2
_FILLED
 10
55.05
 20
-45.0
 41
3.0
 42
3.0
 43
3.0
 50
270.0
  0
ENDBLK
  5
24E
100
AcDbEntity
  8
0
  6
BYBLOCK
 62
0
100
AcDbBlockEnd
  0
ENDSEC
  0
SECTION
  2
ENTITIES
  0
DIMENSION
  5
24F
100
AcDbEntity
  8
0
100
AcDbDimension
 62
7
  6
CONTINUOUS
  2
*D0
 10
-77.5291959678
 20
55.0
 11
-83.3235593719
 21
55.0
 70
160
 71
3
 72
2
 41
0.9
 42
8.55
  1
{\ftxt;\W0.0001;\H0.0001;\~}{\ftxt;\W2.7857142857;\H3.0; }{\ftxt;\W0.0001;\H0.0001;\~}
  3
DIMSTYLE_1
100
AcDbAlignedDimension
 13
-68.9791959678
 23
43.0383103281
 14
-77.5291959678
 24
44.0
 50
180.0
100
AcDbRotatedDimension
  0
DIMENSION
  5
250
100
AcDbEntity
  8
0
100
AcDbDimension
 62
7
  6
CONTINUOUS
  2
*D1
 10
-65.9791959678
 20
63.0
 11
-84.1720822449
 21
63.0
 70
160
 71
3
 72
2
 41
0.9
 42
11.55
  1
{\ftxt;\W0.0001;\H0.0001;\~}{\ftxt;\W3.1428571429;\H3.0; }{\ftxt;\W0.0001;\H0.0001;\~}
  3
DIMSTYLE_1
100
AcDbAlignedDimension
 13
-77.5291959678
 23
44.0
 14
-65.9791959678
 24
26.0463167932
100
AcDbRotatedDimension
  0
DIMENSION
  5
251
100
AcDbEntity
  8
0
100
AcDbDimension
 62
7
  6
CONTINUOUS
  2
*D2
 10
44.95
 20
55.0
 11
-0.4785714633
 21
55.0
 70
160
 71
2
 72
2
 41
0.9
 42
90.0
  1
{\ftxt;\W0.0001;\H0.0001;\~}{\ftxt;\W1.5714285714;\H3.0; }{\ftxt;\W0.0001;\H0.0001;\~}
  3
DIMSTYLE_1
100
AcDbAlignedDimension
 13
-45.05
 23
44.0
 14
44.95
 24
44.0
100
AcDbRotatedDimension
  0
DIMENSION
  5
252
100
AcDbEntity
  8
0
100
AcDbDimension
 62
7
  6
CONTINUOUS
  2
*D3
 10
55.05
 20
-45.0
 11
55.05
 21
-0.4285727201
 70
160
 71
2
 72
2
 41
0.9
 42
90.0
  1
{\ftxt;\W0.0001;\H0.0001;\~}{\ftxt;\W1.5714285714;\H3.0; }{\ftxt;\W0.0001;\H0.0001;\~}
  3
DIMSTYLE_1
100
AcDbAlignedDimension
 13
43.95
 23
45.0
 14
43.95
 24
-45.0
 50
270.0
100
AcDbRotatedDimension
  0
LINE
  5
253
100
AcDbEntity
  8
SMUSSO
100
AcDbLine
 62
7
  6
CONTINUOUS
 10
-45.05
 20
44.0
 11
-44.05
 21
45.0
  0
LINE
  5
254
100
AcDbEntity
  8
SMUSSO
100
AcDbLine
 62
7
  6
CONTINUOUS
 10
-44.05
 20
-45.0
 11
-45.05
 21
-44.0
  0
LINE
  5
255
100
AcDbEntity
  8
SMUSSO
100
AcDbLine
 62
7
  6
CONTINUOUS
 10
-45.05
 20
44.0
 11
-45.05
 21
-44.0
  0
LINE
  5
256
100
AcDbEntity
  8
SMUSSO
100
AcDbLine
 62
7
  6
CONTINUOUS
 10
-44.05
 20
44.0
 11
-44.05
 21
-44.0
  0
LINE
  5
257
100
AcDbEntity
  8
SMUSSO
100
AcDbLine
 62
7
  6
CONTINUOUS
 10
-44.05
 20
-45.0
 11
43.95
 21
-45.0
  0
LINE
  5
258
100
AcDbEntity
  8
SMUSSO
100
AcDbLine
 62
7
  6
CONTINUOUS
 10
-44.05
 20
-44.0
 11
43.95
 21
-44.0
  0
LWPOLYLINE
  5
259
100
AcDbEntity
  8
0
100
AcDbPolyline
 62
7
  6
CONTINUOUS
 90
10
 70
0
 43
0.3500000006
 10
-1.9785714254
 20
55.7499985657
 10
-1.1214286001
 20
56.6071455688
 10
-0.9071428406
 20
57.4642835083
 10
-0.9071428406
 20
58.3214305115
 10
-1.3357142887
 20
58.7499994812
 10
-1.9785714254
 20
58.7499994812
 10
-2.4071429443
 20
58.3214305115
 10
-2.4071429443
 20
57.4642835083
 10
-1.9785714254
 20
57.0357145386
 10
-1.0499999664
 20
57.0357145386
  0
LINE
  5
25A
100
AcDbEntity
  8
0
100
AcDbLine
 62
7
  6
CONTINUOUS
 10
-34.4
 20
-21.4
 11
-34.4
 21
21.4
  0
LINE
  5
25B
100
AcDbEntity
  8
0
100
AcDbLine
 62
7
  6
CONTINUOUS
 10
-33.9
 20
-21.4
 11
-33.9
 21
21.4
  0
LINE
  5
25C
100
AcDbEntity
  8
0
100
AcDbLine
 62
250
  6
CONTINUOUS
 10
-32.7
 20
23.1
 11
-32.7
 21
22.6
  0
LINE
  5
25D
100
AcDbEntity
  8
0
100
AcDbLine
 62
250
  6
CONTINUOUS
 10
-32.7
 20
-23.1
 11
-32.7
 21
-22.6
  0
LINE
  5
25E
100
AcDbEntity
  8
0
100
AcDbLine
 62
7
  6
CONTINUOUS
 10
32.6
 20
-23.1
 11
-32.7
 21
-23.1
  0
LINE
  5
25F
100
AcDbEntity
  8
0
100
AcDbLine
 62
7
  6
CONTINUOUS
 10
32.6
 20
-22.6
 11
-32.7
 21
-22.6
  0
LINE
  5
260
100
AcDbEntity
  8
0
100
AcDbLine
 62
250
  6
CONTINUOUS
 10
-34.4
 20
-21.4
 11
-33.9
 21
-21.4
  0
LINE
  5
261
100
AcDbEntity
  8
0
100
AcDbLine
 62
250
  6
CONTINUOUS
 10
34.3
 20
-21.4
 11
33.8
 21
-21.4
  0
LWPOLYLINE
  5
262
100
AcDbEntity
  8
0
100
AcDbPolyline
 62
7
  6
CONTINUOUS
 90
13
 70
0
 43
0.3500000006
 10
-0.050000002
 20
56.6071455688
 10
-0.050000002
 20
57.8928615417
 10
0.1642857088
 20
58.3214305115
 10
0.5928571569
 20
58.7499994812
 10
0.8071428809
 20
58.7499994812
 10
1.2357142582
 20
58.3214305115
 10
1.4500000176
 20
57.8928615417
 10
1.4500000176
 20
56.6071455688
 10
1.2357142582
 20
56.1785675354
 10
0.8071428809
 20
55.7499985657
 10
0.5928571569
 20
55.7499985657
 10
0.1642857088
 20
56.1785675354
 10
-0.050000002
 20
56.6071455688
  0
LINE
  5
263
100
AcDbEntity
  8
SMUSSO
100
AcDbLine
 62
7
  6
CONTINUOUS
 10
44.45
 20
44.5
 11
43.95
 21
44.0
  0
LINE
  5
264
100
AcDbEntity
  8
SMUSSO
100
AcDbLine
 62
7
  6
CONTINUOUS
 10
-44.55
 20
-44.5
 11
-44.05
 21
-44.0
  0
LWPOLYLINE
  5
265
100
AcDbEntity
  8
0
100
AcDbPolyline
 62
7
  6
CONTINUOUS
 90
13
 70
0
 43
0.3500000006
 10
53.4428559723
 20
-0.0000003204
 10
52.1571445313
 20
-0.0000003204
 10
51.7285710297
 20
0.2142864304
 10
51.3000020599
 20
0.642857666
 10
51.3000020599
 20
0.8571421509
 10
51.7285710297
 20
1.2857133865
 10
52.1571445313
 20
1.5000001373
 10
53.4428559723
 20
1.5000001373
 10
53.8714294739
 20
1.2857133865
 10
54.2999984436
 20
0.8571421509
 10
54.2999984436
 20
0.642857666
 10
53.8714294739
 20
0.2142864304
 10
53.4428559723
 20
-0.0000003204
  0
LINE
  5
266
100
AcDbEntity
  8
SMUSSO
100
AcDbLine
 62
7
  6
CONTINUOUS
 10
44.45
 20
-44.5
 11
43.95
 21
-44.0
  0
LINE
  5
267
100
AcDbEntity
  8
SMUSSO
100
AcDbLine
 62
7
  6
CONTINUOUS
 10
-44.05
 20
44.0
 11
-44.55
 21
44.5
  0
LINE
  5
268
100
AcDbEntity
  8
0
100
AcDbLine
 62
250
  6
CONTINUOUS
 10
-34.4
 20
21.4
 11
-33.9
 21
21.4
  0
LINE
  5
269
100
AcDbEntity
  8
0
100
AcDbLine
 62
250
  6
CONTINUOUS
 10
34.3
 20
21.4
 11
33.8
 21
21.4
  0
LINE
  5
26A
100
AcDbEntity
  8
0
100
AcDbLine
 62
7
  6
CONTINUOUS
 10
-32.7
 20
22.6
 11
32.6
 21
22.6
  0
LINE
  5
26B
100
AcDbEntity
  8
0
100
AcDbLine
 62
7
  6
CONTINUOUS
 10
-32.7
 20
23.1
 11
32.6
 21
23.1
  0
LINE
  5
26C
100
AcDbEntity
  8
0
100
AcDbLine
 62
250
  6
CONTINUOUS
 10
32.6
 20
23.1
 11
32.6
 21
22.6
  0
LINE
  5
26D
100
AcDbEntity
  8
0
100
AcDbLine
 62
250
  6
CONTINUOUS
 10
32.6
 20
-23.1
 11
32.6
 21
-22.6
  0
LINE
  5
26E
100
AcDbEntity
  8
0
100
AcDbLine
 62
7
  6
CONTINUOUS
 10
33.8
 20
21.4
 11
33.8
 21
-21.4
  0
LINE
  5
26F
100
AcDbEntity
  8
0
100
AcDbLine
 62
7
  6
CONTINUOUS
 10
34.3
 20
21.4
 11
34.3
 21
-21.4
  0
LWPOLYLINE
  5
270
100
AcDbEntity
  8
0
100
AcDbPolyline
 62
7
  6
CONTINUOUS
 90
10
 70
0
 43
0.3500000006
 10
54.2999984436
 20
-1.9285708809
 10
53.4428559723
 20
-1.0714295425
 10
52.585713501
 20
-0.8571427917
 10
51.7285710297
 20
-0.8571427917
 10
51.3000020599
 20
-1.2857140274
 10
51.3000020599
 20
-1.9285708809
 10
51.7285710297
 20
-2.3571432495
 10
52.585713501
 20
-2.3571432495
 10
53.0142870026
 20
-1.9285708809
 10
53.0142870026
 20
-1.0000006256
  0
LINE
  5
271
100
AcDbEntity
  8
SMUSSO
100
AcDbLine
 62
7
  6
CONTINUOUS
 10
43.95
 20
-44.0
 11
43.95
 21
44.0
  0
LINE
  5
272
100
AcDbEntity
  8
SMUSSO
100
AcDbLine
 62
7
  6
CONTINUOUS
 10
44.95
 20
-44.0
 11
44.95
 21
44.0
  0
LINE
  5
273
100
AcDbEntity
  8
SMUSSO
100
AcDbLine
 62
7
  6
CONTINUOUS
 10
43.95
 20
44.0
 11
-44.05
 21
44.0
  0
LINE
  5
274
100
AcDbEntity
  8
SMUSSO
100
AcDbLine
 62
7
  6
CONTINUOUS
 10
43.95
 20
45.0
 11
-44.05
 21
45.0
  0
LINE
  5
275
100
AcDbEntity
  8
SMUSSO
100
AcDbLine
 62
7
  6
CONTINUOUS
 10
44.95
 20
-44.0
 11
43.95
 21
-45.0
  0
LINE
  5
276
100
AcDbEntity
  8
SMUSSO
100
AcDbLine
 62
7
  6
CONTINUOUS
 10
43.95
 20
45.0
 11
44.95
 21
44.0
  0
LWPOLYLINE
  5
277
100
AcDbEntity
  8
0
100
AcDbPolyline
 62
7
  6
CONTINUOUS
 90
3
 70
0
 43
0.3500000006
 10
-88.4577991333
 20
65.8928549194
 10
-87.6006521301
 20
66.7500019226
 10
-87.6006521301
 20
63.7500010071
  0
LWPOLYLINE
  5
278
100
AcDbEntity
  8
0
100
AcDbPolyline
 62
7
  6
CONTINUOUS
 90
3
 70
0
 43
0.3500000006
 10
-86.7435141907
 20
65.8928549194
 10
-85.8863671875
 20
66.7500019226
 10
-85.8863671875
 20
63.7500010071
  0
LINE
  5
279
100
AcDbEntity
  8
SMUSSO
100
AcDbLine
 62
7
  6
CONTINUOUS
 10
-76.5291959678
 20
-45.0
 11
-74.0291959678
 21
-45.0
  0
LINE
  5
27A
100
AcDbEntity
  8
0
100
AcDbLine
 62
250
  6
CONTINUOUS
 10
-70.4781523225
 20
-43.3404067067
 11
-68.9791959678
 21
-43.0383103281
  0
LINE
  5
27B
100
AcDbEntity
  8
ASSI
100
AcDbLine
 62
250
  6
CONTINUOUS
 10
-70.4781523225
 20
-43.3404067067
 11
-68.9791959678
 21
-43.0383103281
  0
LINE
  5
27C
100
AcDbEntity
  8
0
100
AcDbLine
 62
7
  6
CONTINUOUS
 10
-73.3791959678
 20
-44.3506196883
 11
-70.4791959678
 21
-44.3
  0
LINE
  5
27D
100
AcDbEntity
  8
ASSI
100
AcDbLine
 62
7
  6
CONTINUOUS
 10
-73.3791959678
 20
-44.3506196883
 11
-70.4791959678
 21
-44.3
  0
LINE
  5
27E
100
AcDbEntity
  8
SMUSSO
100
AcDbLine
 62
7
  6
CONTINUOUS
 10
-76.5291959678
 20
-44.0
 11
-74.0291959678
 21
-44.0
  0
LINE
  5
27F
100
AcDbEntity
  8
0
100
AcDbLine
 62
250
  6
CONTINUOUS
 10
-73.3791959678
 20
-43.3
 11
-70.4791959678
 21
-43.3
  0
LINE
  5
280
100
AcDbEntity
  8
ASSI
100
AcDbLine
 62
250
  6
CONTINUOUS
 10
-73.3791959678
 20
-43.3
 11
-70.4791959678
 21
-43.3
  0
LINE
  5
281
100
AcDbEntity
  8
RACCORDO
100
AcDbLine
 62
7
  6
CONTINUOUS
 10
-73.3791959678
 20
-41.0
 11
-73.5291959678
 21
-41.0
  0
LINE
  5
282
100
AcDbEntity
  8
RACCORDO
100
AcDbLine
 62
250
  6
CONTINUOUS
 10
-73.3791959678
 20
-39.0
 11
-73.5291959678
 21
-39.0
  0
LINE
  5
283
100
AcDbEntity
  8
0
100
AcDbLine
 62
250
  6
CONTINUOUS
 10
-70.9607019678
 20
-36.161141
 11
-72.8606619678
 21
-36.161141
  0
LINE
  5
284
100
AcDbEntity
  8
SMUSSO
100
AcDbLine
 62
7
  6
CONTINUOUS
 10
-76.5291959678
 20
45.0
 11
-77.5291959678
 21
44.0
  0
LINE
  5
285
100
AcDbEntity
  8
0
100
AcDbLine
 62
250
  6
CONTINUOUS
 10
-71.5528249678
 20
-37.077819
 11
-72.8605479678
 21
-37.439964
  0
LINE
  5
286
100
AcDbEntity
  8
0
100
AcDbLine
 62
250
  6
CONTINUOUS
 10
-70.9607019678
 20
-33.624309
 11
-72.8605479678
 21
-33.801966
  0
LINE
  5
287
100
AcDbEntity
  8
0
100
AcDbLine
 62
250
  6
CONTINUOUS
 10
-72.1960939678
 20
-34.093739
 11
-70.9607019678
 21
-34.012262
  0
LINE
  5
288
100
AcDbEntity
  8
0
100
AcDbLine
 62
250
  6
CONTINUOUS
 10
-72.8606619678
 20
-35.764569
 11
-70.9607019678
 21
-35.764569
  0
LINE
  5
289
100
AcDbEntity
  8
0
100
AcDbLine
 62
250
  6
CONTINUOUS
 10
-70.9607019678
 20
-35.171691
 11
-72.2012659678
 21
-35.08611
  0
LINE
  5
28A
100
AcDbEntity
  8
0
100
AcDbLine
 62
250
  6
CONTINUOUS
 10
-72.8605479678
 20
-35.379536
 11
-70.9607019678
 21
-35.551081
  0
LINE
  5
28B
100
AcDbEntity
  8
0
100
AcDbLine
 62
250
  6
CONTINUOUS
 10
-72.8605479678
 20
-36.704611
 11
-71.5528249678
 21
-37.077819
  0
LINE
  5
28C
100
AcDbEntity
  8
0
100
AcDbLine
 62
250
  6
CONTINUOUS
 10
-70.9607019678
 20
-36.918996
 11
-72.8605479678
 21
-36.30831
  0
LINE
  5
28D
100
AcDbEntity
  8
SMUSSO
100
AcDbLine
 62
7
  6
CONTINUOUS
 10
-76.5291959678
 20
-45.0
 11
-77.5291959678
 21
-44.0
  0
LWPOLYLINE
  5
28E
100
AcDbEntity
  8
0
100
AcDbPolyline
 62
7
  6
CONTINUOUS
 90
3
 70
0
 43
0.3500000006
 10
-84.3149355469
 20
64.0357166748
 10
-84.3863667297
 20
63.8214321899
 10
-84.5292290955
 20
63.5357165222
  0
LINE
  5
28F
100
AcDbEntity
  8
SMUSSO
100
AcDbLine
 62
7
  6
CONTINUOUS
 10
-74.0291959678
 20
44.0
 11
-73.5291959678
 21
44.5
  0
LINE
  5
290
100
AcDbEntity
  8
0
100
AcDbLine
 62
250
  6
CONTINUOUS
 10
-71.3399789678
 20
-32.520272
 11
-70.9607019678
 21
-32.417539
  0
LINE
  5
291
100
AcDbEntity
  8
0
100
AcDbLine
 62
250
  6
CONTINUOUS
 10
-72.3385189678
 20
-32.781757
 11
-71.6334619678
 21
-32.599527
  0
LINE
  5
292
100
AcDbEntity
  8
0
100
AcDbLine
 62
250
  6
CONTINUOUS
 10
-70.9607022218
 20
-31.8831153973
 11
-72.8383514265
 21
-31.8831153973
  0
LINE
  5
293
100
AcDbEntity
  8
0
100
AcDbLine
 62
250
  6
CONTINUOUS
 10
-72.536890391
 20
-31.5012884969
 11
-72.0153457035
 21
-31.5012884969
  0
LINE
  5
294
100
AcDbEntity
  8
0
100
AcDbLine
 62
250
  6
CONTINUOUS
 10
-71.7041968843
 20
-31.4881387551
 11
-70.9607022218
 21
-31.4881387551
  0
LINE
  5
295
100
AcDbEntity
  8
0
100
AcDbLine
 62
250
  6
CONTINUOUS
 10
-71.8587597753
 20
-30.8635473914
 11
-71.8475333436
 21
-30.8635473914
  0
LINE
  5
296
100
AcDbEntity
  8
0
100
AcDbLine
 62
250
  6
CONTINUOUS
 10
-71.6334619678
 20
-32.979217
 11
-72.3385189678
 21
-32.781757
  0
LINE
  5
297
100
AcDbEntity
  8
0
100
AcDbLine
 62
250
  6
CONTINUOUS
 10
-70.9607019678
 20
-33.169767
 11
-71.3399789678
 21
-33.060338
  0
LINE
  5
298
100
AcDbEntity
  8
0
100
AcDbLine
 62
250
  6
CONTINUOUS
 10
-72.8605479678
 20
-32.966124
 11
-70.9607019678
 21
-33.562037
  0
LINE
  5
299
100
AcDbEntity
  8
0
100
AcDbLine
 62
250
  6
CONTINUOUS
 10
-72.8605479678
 20
-34.194336
 11
-71.8057479678
 21
-34.590908
  0
LINE
  5
29A
100
AcDbEntity
  8
0
100
AcDbLine
 62
250
  6
CONTINUOUS
 10
-70.9607019678
 20
-34.565264
 11
-72.1960939678
 21
-34.093739
  0
LINE
  5
29B
100
AcDbEntity
  8
SMUSSO
100
AcDbLine
 62
7
  6
CONTINUOUS
 10
-73.5291959678
 20
-44.5
 11
-74.0291959678
 21
-44.0
  0
LWPOLYLINE
  5
29C
100
AcDbEntity
  8
0
100
AcDbPolyline
 62
7
  6
CONTINUOUS
 90
3
 70
0
 43
0.3500000006
 10
-84.002128418
 20
56.0357142334
 10
-84.0735596008
 20
55.8214297485
 10
-84.2164129028
 20
55.5357140808
  0
LINE
  5
29D
100
AcDbEntity
  8
0
100
AcDbLine
 62
7
  6
CONTINUOUS
 10
-68.0533588074
 20
-27.1501294387
 11
-68.9791959678
 21
-27.151745331
  0
LINE
  5
29E
100
AcDbEntity
  8
ASSI
100
AcDbLine
 62
7
  6
CONTINUOUS
 10
-68.0533588074
 20
-27.1501294387
 11
-68.9791959678
 21
-27.151745331
  0
LINE
  5
29F
100
AcDbEntity
  8
0
100
AcDbLine
 62
250
  6
CONTINUOUS
 10
-68.0534233841
 20
-26.9276792439
 11
-68.9791959678
 21
-26.9280974384
  0
LINE
  5
2A0
100
AcDbEntity
  8
ASSI
100
AcDbLine
 62
250
  6
CONTINUOUS
 10
-68.0534233841
 20
-26.9276792439
 11
-68.9791959678
 21
-26.9280974384
  0
LINE
  5
2A1
100
AcDbEntity
  8
0
100
AcDbLine
 62
7
  6
CONTINUOUS
 10
-66.5291467356
 20
-26.3415638603
 11
-68.9791959678
 21
-26.3558178298
  0
LINE
  5
2A2
100
AcDbEntity
  8
ASSI
100
AcDbLine
 62
7
  6
CONTINUOUS
 10
-66.5291467356
 20
-26.3415638603
 11
-68.9791959678
 21
-26.3558178298
  0
LINE
  5
2A3
100
AcDbEntity
  8
0
100
AcDbLine
 62
250
  6
CONTINUOUS
 10
-66.5291467356
 20
-26.2536973817
 11
-68.9791959678
 21
-26.2679513512
  0
LINE
  5
2A4
100
AcDbEntity
  8
ASSI
100
AcDbLine
 62
250
  6
CONTINUOUS
 10
-66.5291467356
 20
-26.2536973817
 11
-68.9791959678
 21
-26.2679513512
  0
LINE
  5
2A5
100
AcDbEntity
  8
0
100
AcDbLine
 62
7
  6
CONTINUOUS
 10
-68.0290715889
 20
-25.2
 11
-68.9791959678
 21
-25.2
  0
LINE
  5
2A6
100
AcDbEntity
  8
ASSI
100
AcDbLine
 62
7
  6
CONTINUOUS
 10
-68.0290715889
 20
-25.2
 11
-68.9791959678
 21
-25.2
  0
LINE
  5
2A7
100
AcDbEntity
  8
0
100
AcDbLine
 62
7
  6
CONTINUOUS
 10
-68.9791959678
 20
-25.05
 11
-68.8291959678
 21
-25.05
  0
LINE
  5
2A8
100
AcDbEntity
  8
ASSI
100
AcDbLine
 62
7
  6
CONTINUOUS
 10
-68.9791959678
 20
-25.05
 11
-68.8291959678
 21
-25.05
  0
LINE
  5
2A9
100
AcDbEntity
  8
0
100
AcDbLine
 62
7
  6
CONTINUOUS
 10
-68.5291959678
 20
-25.05
 11
-68.3291959678
 21
-25.05
  0
LINE
  5
2AA
100
AcDbEntity
  8
ASSI
100
AcDbLine
 62
7
  6
CONTINUOUS
 10
-68.5291959678
 20
-25.05
 11
-68.3291959678
 21
-25.05
  0
LINE
  5
2AB
100
AcDbEntity
  8
0
100
AcDbLine
 62
7
  6
CONTINUOUS
 10
-68.9791959678
 20
-25.7558198745
 11
-66.1687287765
 21
-25.8799866677
  0
LINE
  5
2AC
100
AcDbEntity
  8
ASSI
100
AcDbLine
 62
7
  6
CONTINUOUS
 10
-68.9791959678
 20
-25.7558198745
 11
-66.1687287765
 21
-25.8799866677
  0
LINE
  5
2AD
100
AcDbEntity
  8
0
100
AcDbLine
 62
7
  6
CONTINUOUS
 10
-65.9791959678
 20
-25.4
 11
-67.9295678699
 21
-25.2049628098
  0
LINE
  5
2AE
100
AcDbEntity
  8
ASSI
100
AcDbLine
 62
7
  6
CONTINUOUS
 10
-65.9791959678
 20
-25.4
 11
-67.9295678699
 21
-25.2049628098
  0
LWPOLYLINE
  5
2AF
100
AcDbEntity
  8
0
100
AcDbPolyline
 62
7
  6
CONTINUOUS
 90
4
 70
0
 43
0.3500000006
 10
-87.0735605164
 20
56.1785675354
 10
-87.0735605164
 20
57.0357145386
 10
-86.6449824829
 20
57.4642835083
 10
-86.0021290283
 20
57.4642835083
  0
LINE
  5
2B0
100
AcDbEntity
  8
0
100
AcDbLine
 62
7
  6
CONTINUOUS
 10
-68.8291959678
 20
25.05
 11
-68.6791959678
 21
25.2
  0
LINE
  5
2B1
100
AcDbEntity
  8
ASSI
100
AcDbLine
 62
7
  6
CONTINUOUS
 10
-68.8291959678
 20
25.05
 11
-68.6791959678
 21
25.2
  0
LINE
  5
2B2
100
AcDbEntity
  8
0
100
AcDbLine
 62
7
  6
CONTINUOUS
 10
-68.3291959678
 20
25.05
 11
-68.1791959678
 21
25.2
  0
LINE
  5
2B3
100
AcDbEntity
  8
ASSI
100
AcDbLine
 62
7
  6
CONTINUOUS
 10
-68.3291959678
 20
25.05
 11
-68.1791959678
 21
25.2
  0
LINE
  5
2B4
100
AcDbEntity
  8
0
100
AcDbLine
 62
7
  6
CONTINUOUS
 10
-68.8291959678
 20
-25.05
 11
-68.6791959678
 21
-25.2
  0
LINE
  5
2B5
100
AcDbEntity
  8
ASSI
100
AcDbLine
 62
7
  6
CONTINUOUS
 10
-68.8291959678
 20
-25.05
 11
-68.6791959678
 21
-25.2
  0
LINE
  5
2B6
100
AcDbEntity
  8
0
100
AcDbLine
 62
7
  6
CONTINUOUS
 10
-68.3291959678
 20
-25.05
 11
-68.1791959678
 21
-25.2
  0
LINE
  5
2B7
100
AcDbEntity
  8
ASSI
100
AcDbLine
 62
7
  6
CONTINUOUS
 10
-68.3291959678
 20
-25.05
 11
-68.1791959678
 21
-25.2
  0
LINE
  5
2B8
100
AcDbEntity
  8
SMUSSO
100
AcDbLine
 62
7
  6
CONTINUOUS
 10
-77.5291959678
 20
-44.0
 11
-77.5291959678
 21
44.0
  0
LINE
  5
2B9
100
AcDbEntity
  8
SMUSSO
100
AcDbLine
 62
7
  6
CONTINUOUS
 10
-76.5291959678
 20
-44.0
 11
-76.5291959678
 21
44.0
  0
LINE
  5
2BA
100
AcDbEntity
  8
SMUSSO
100
AcDbLine
 62
7
  6
CONTINUOUS
 10
-74.0291959678
 20
44.0
 11
-74.0291959678
 21
-44.0
  0
LINE
  5
2BB
100
AcDbEntity
  8
SMUSSO
100
AcDbLine
 62
7
  6
CONTINUOUS
 10
-73.5291959678
 20
44.5
 11
-73.5291959678
 21
-44.5
  0
LINE
  5
2BC
100
AcDbEntity
  8
0
100
AcDbLine
 62
7
  6
CONTINUOUS
 10
-73.3791959678
 20
-44.3506196883
 11
-73.3791959678
 21
44.3506196883
  0
LINE
  5
2BD
100
AcDbEntity
  8
ASSI
100
AcDbLine
 62
7
  6
CONTINUOUS
 10
-73.3791959678
 20
-44.3506196883
 11
-73.3791959678
 21
44.3506196883
  0
LINE
  5
2BE
100
AcDbEntity
  8
0
100
AcDbLine
 62
250
  6
CONTINUOUS
 10
-72.8606619678
 20
-36.161141
 11
-72.8606619678
 21
-35.764569
  0
LINE
  5
2BF
100
AcDbEntity
  8
0
100
AcDbLine
 62
250
  6
CONTINUOUS
 10
-72.8605479678
 20
-32.582488
 11
-72.8605479678
 21
-32.966124
  0
LINE
  5
2C0
100
AcDbEntity
  8
0
100
AcDbLine
 62
250
  6
CONTINUOUS
 10
-72.8605479678
 20
-33.801966
 11
-72.8605479678
 21
-34.194336
  0
LINE
  5
2C1
100
AcDbEntity
  8
0
100
AcDbLine
 62
250
  6
CONTINUOUS
 10
-72.8605479678
 20
-34.983292
 11
-72.8605479678
 21
-35.379536
  0
LINE
  5
2C2
100
AcDbEntity
  8
0
100
AcDbLine
 62
250
  6
CONTINUOUS
 10
-72.8605479678
 20
-36.30831
 11
-72.8605479678
 21
-36.704611
  0
LINE
  5
2C3
100
AcDbEntity
  8
0
100
AcDbLine
 62
250
  6
CONTINUOUS
 10
-72.8605479678
 20
-37.439964
 11
-72.8605479678
 21
-37.870764
  0
LINE
  5
2C4
100
AcDbEntity
  8
0
100
AcDbLine
 62
250
  6
CONTINUOUS
 10
-72.0153457035
 20
-31.5012884969
 11
-72.0153457035
 21
-31.2746513441
  0
LINE
  5
2C5
100
AcDbEntity
  8
0
100
AcDbLine
 62
250
  6
CONTINUOUS
 10
-71.7041968843
 20
-31.2755061485
 11
-71.7041968843
 21
-31.4881387551
  0
LINE
  5
2C6
100
AcDbEntity
  8
0
100
AcDbLine
 62
250
  6
CONTINUOUS
 10
-71.6334619678
 20
-32.599527
 11
-71.6334619678
 21
-32.979217
  0
LINE
  5
2C7
100
AcDbEntity
  8
0
100
AcDbLine
 62
250
  6
CONTINUOUS
 10
-71.3399789678
 20
-33.060338
 11
-71.3399789678
 21
-32.520272
  0
LINE
  5
2C8
100
AcDbEntity
  8
0
100
AcDbLine
 62
250
  6
CONTINUOUS
 10
-70.9607022218
 20
-30.4993864496
 11
-70.9607022218
 21
-30.8808429347
  0
LINE
  5
2C9
100
AcDbEntity
  8
0
100
AcDbLine
 62
250
  6
CONTINUOUS
 10
-70.9607022218
 20
-31.4881387551
 11
-70.9607022218
 21
-31.8831153973
  0
LINE
  5
2CA
100
AcDbEntity
  8
0
100
AcDbLine
 62
250
  6
CONTINUOUS
 10
-70.9607019678
 20
-37.268476
 11
-70.9607019678
 21
-36.918996
  0
LINE
  5
2CB
100
AcDbEntity
  8
0
100
AcDbLine
 62
250
  6
CONTINUOUS
 10
-70.9607019678
 20
-35.551081
 11
-70.9607019678
 21
-35.171691
  0
LINE
  5
2CC
100
AcDbEntity
  8
0
100
AcDbLine
 62
250
  6
CONTINUOUS
 10
-70.9607019678
 20
-34.620883
 11
-70.9607019678
 21
-34.565264
  0
LINE
  5
2CD
100
AcDbEntity
  8
0
100
AcDbLine
 62
250
  6
CONTINUOUS
 10
-70.9607019678
 20
-34.012262
 11
-70.9607019678
 21
-33.624309
  0
LINE
  5
2CE
100
AcDbEntity
  8
0
100
AcDbLine
 62
250
  6
CONTINUOUS
 10
-70.9607019678
 20
-33.562037
 11
-70.9607019678
 21
-33.169767
  0
LINE
  5
2CF
100
AcDbEntity
  8
0
100
AcDbLine
 62
250
  6
CONTINUOUS
 10
-70.9607019678
 20
-32.417539
 11
-70.9607019678
 21
-31.999568
  0
LINE
  5
2D0
100
AcDbEntity
  8
0
100
AcDbLine
 62
250
  6
CONTINUOUS
 10
-70.9607019678
 20
-35.764569
 11
-70.9607019678
 21
-36.161141
  0
LINE
  5
2D1
100
AcDbEntity
  8
0
100
AcDbLine
 62
7
  6
CONTINUOUS
 10
-70.4791959678
 20
43.3
 11
-70.4791959678
 21
-43.3
  0
LINE
  5
2D2
100
AcDbEntity
  8
ASSI
100
AcDbLine
 62
7
  6
CONTINUOUS
 10
-70.4791959678
 20
43.3
 11
-70.4791959678
 21
-43.3
  0
LINE
  5
2D3
100
AcDbEntity
  8
0
100
AcDbLine
 62
7
  6
CONTINUOUS
 10
-68.9791959678
 20
43.1
 11
-68.9791959678
 21
-43.1
  0
LINE
  5
2D4
100
AcDbEntity
  8
ASSI
100
AcDbLine
 62
7
  6
CONTINUOUS
 10
-68.9791959678
 20
43.1
 11
-68.9791959678
 21
-43.1
  0
LINE
  5
2D5
100
AcDbEntity
  8
0
100
AcDbLine
 62
250
  6
CONTINUOUS
 10
-68.0533589213
 20
-27.1500750698
 11
-68.0534233841
 21
-26.9276792439
  0
LINE
  5
2D6
100
AcDbEntity
  8
ASSI
100
AcDbLine
 62
250
  6
CONTINUOUS
 10
-68.0533589213
 20
-27.1500750698
 11
-68.0534233841
 21
-26.9276792439
  0
LINE
  5
2D7
100
AcDbEntity
  8
0
100
AcDbLine
 62
250
  6
CONTINUOUS
 10
-66.1687287765
 20
25.8799866677
 11
-66.1687287765
 21
25.3810467191
  0
LINE
  5
2D8
100
AcDbEntity
  8
ASSI
100
AcDbLine
 62
250
  6
CONTINUOUS
 10
-66.1687287765
 20
25.8799866677
 11
-66.1687287765
 21
25.3810467191
  0
LINE
  5
2D9
100
AcDbEntity
  8
0
100
AcDbLine
 62
250
  6
CONTINUOUS
 10
-66.1687287765
 20
-25.3810467191
 11
-66.1687287765
 21
-25.8799866677
  0
LINE
  5
2DA
100
AcDbEntity
  8
ASSI
100
AcDbLine
 62
250
  6
CONTINUOUS
 10
-66.1687287765
 20
-25.3810467191
 11
-66.1687287765
 21
-25.8799866677
  0
LINE
  5
2DB
100
AcDbEntity
  8
0
100
AcDbLine
 62
7
  6
CONTINUOUS
 10
-65.9791959678
 20
26.0883643404
 11
-65.9791959678
 21
25.4
  0
LINE
  5
2DC
100
AcDbEntity
  8
ASSI
100
AcDbLine
 62
7
  6
CONTINUOUS
 10
-65.9791959678
 20
26.0883643404
 11
-65.9791959678
 21
25.4
  0
LINE
  5
2DD
100
AcDbEntity
  8
0
100
AcDbLine
 62
7
  6
CONTINUOUS
 10
-65.9791959678
 20
-25.4
 11
-65.9791959678
 21
-26.087438511
  0
LINE
  5
2DE
100
AcDbEntity
  8
ASSI
100
AcDbLine
 62
7
  6
CONTINUOUS
 10
-65.9791959678
 20
-25.4
 11
-65.9791959678
 21
-26.087438511
  0
LINE
  5
2DF
100
AcDbEntity
  8
0
100
AcDbLine
 62
250
  6
CONTINUOUS
 10
-68.0534233841
 20
26.9276792439
 11
-68.0533589668
 21
27.1500742266
  0
LINE
  5
2E0
100
AcDbEntity
  8
ASSI
100
AcDbLine
 62
250
  6
CONTINUOUS
 10
-68.0534233841
 20
26.9276792439
 11
-68.0533589668
 21
27.1500742266
  0
LWPOLYLINE
  5
2E1
100
AcDbEntity
  8
0
100
AcDbPolyline
 62
7
  6
CONTINUOUS
 90
10
 70
0
 43
0.3500000006
 10
-84.0735596008
 20
56.2499987183
 10
-84.002128418
 20
56.1071454163
 10
-84.002128418
 20
56.0357142334
 10
-84.1449907837
 20
55.8928609314
 10
-84.2164129028
 20
55.8928609314
 10
-84.2878440857
 20
55.9642830505
 10
-84.2878440857
 20
56.0357142334
 10
-84.2164129028
 20
56.1785675354
 10
-84.1449907837
 20
56.2499987183
 10
-84.0735596008
 20
56.2499987183
  0
LWPOLYLINE
  5
2E2
100
AcDbEntity
  8
0
100
AcDbPolyline
 62
7
  6
CONTINUOUS
 90
10
 70
0
 43
0.3500000006
 10
-84.3863667297
 20
64.2500011597
 10
-84.3149355469
 20
64.1071387939
 10
-84.3149355469
 20
64.0357166748
 10
-84.4577979126
 20
63.8928543091
 10
-84.5292290955
 20
63.8928543091
 10
-84.6006512146
 20
63.9642854919
 10
-84.6006512146
 20
64.0357166748
 10
-84.5292290955
 20
64.1785699768
 10
-84.4577979126
 20
64.2500011597
 10
-84.3863667297
 20
64.2500011597
  0
LINE
  5
2E3
100
AcDbEntity
  8
0
100
AcDbLine
 62
7
  6
CONTINUOUS
 10
-68.6791959678
 20
-25.2
 11
-68.5291959678
 21
-25.05
  0
LINE
  5
2E4
100
AcDbEntity
  8
ASSI
100
AcDbLine
 62
7
  6
CONTINUOUS
 10
-68.6791959678
 20
-25.2
 11
-68.5291959678
 21
-25.05
  0
LINE
  5
2E5
100
AcDbEntity
  8
0
100
AcDbLine
 62
7
  6
CONTINUOUS
 10
-68.6791959678
 20
25.2
 11
-68.5291959678
 21
25.05
  0
LINE
  5
2E6
100
AcDbEntity
  8
ASSI
100
AcDbLine
 62
7
  6
CONTINUOUS
 10
-68.6791959678
 20
25.2
 11
-68.5291959678
 21
25.05
  0
LINE
  5
2E7
100
AcDbEntity
  8
0
100
AcDbLine
 62
250
  6
CONTINUOUS
 10
-68.0534233841
 20
-26.9276792439
 11
-66.9539045242
 21
-26.3440350289
  0
LINE
  5
2E8
100
AcDbEntity
  8
ASSI
100
AcDbLine
 62
250
  6
CONTINUOUS
 10
-68.0534233841
 20
-26.9276792439
 11
-66.9539045242
 21
-26.3440350289
  0
LINE
  5
2E9
100
AcDbEntity
  8
0
100
AcDbLine
 62
250
  6
CONTINUOUS
 10
-66.5291467356
 20
-26.2536973817
 11
-66.0070548828
 21
-25.9765617175
  0
LINE
  5
2EA
100
AcDbEntity
  8
ASSI
100
AcDbLine
 62
250
  6
CONTINUOUS
 10
-66.5291467356
 20
-26.2536973817
 11
-66.0070548828
 21
-25.9765617175
  0
LINE
  5
2EB
100
AcDbEntity
  8
0
100
AcDbLine
 62
7
  6
CONTINUOUS
 10
-65.9791959678
 20
-26.0883643404
 11
-67.914184006
 21
-27.1154904916
  0
LINE
  5
2EC
100
AcDbEntity
  8
ASSI
100
AcDbLine
 62
7
  6
CONTINUOUS
 10
-65.9791959678
 20
-26.0883643404
 11
-67.914184006
 21
-27.1154904916
  0
LINE
  5
2ED
100
AcDbEntity
  8
0
100
AcDbLine
 62
7
  6
CONTINUOUS
 10
-65.9791959678
 20
25.4
 11
-67.9295678699
 21
25.2049628098
  0
LINE
  5
2EE
100
AcDbEntity
  8
ASSI
100
AcDbLine
 62
7
  6
CONTINUOUS
 10
-65.9791959678
 20
25.4
 11
-67.9295678699
 21
25.2049628098
  0
LINE
  5
2EF
100
AcDbEntity
  8
0
100
AcDbLine
 62
7
  6
CONTINUOUS
 10
-68.9791959678
 20
25.7558198745
 11
-66.1687287765
 21
25.8799866677
  0
LINE
  5
2F0
100
AcDbEntity
  8
ASSI
100
AcDbLine
 62
7
  6
CONTINUOUS
 10
-68.9791959678
 20
25.7558198745
 11
-66.1687287765
 21
25.8799866677
  0
LINE
  5
2F1
100
AcDbEntity
  8
0
100
AcDbLine
 62
7
  6
CONTINUOUS
 10
-68.9791959678
 20
25.05
 11
-68.8291959678
 21
25.05
  0
LINE
  5
2F2
100
AcDbEntity
  8
ASSI
100
AcDbLine
 62
7
  6
CONTINUOUS
 10
-68.9791959678
 20
25.05
 11
-68.8291959678
 21
25.05
  0
LINE
  5
2F3
100
AcDbEntity
  8
0
100
AcDbLine
 62
7
  6
CONTINUOUS
 10
-68.5291959678
 20
25.05
 11
-68.3291959678
 21
25.05
  0
LINE
  5
2F4
100
AcDbEntity
  8
ASSI
100
AcDbLine
 62
7
  6
CONTINUOUS
 10
-68.5291959678
 20
25.05
 11
-68.3291959678
 21
25.05
  0
LINE
  5
2F5
100
AcDbEntity
  8
0
100
AcDbLine
 62
7
  6
CONTINUOUS
 10
-68.9791959678
 20
25.2
 11
-68.0290715889
 21
25.2
  0
LINE
  5
2F6
100
AcDbEntity
  8
ASSI
100
AcDbLine
 62
7
  6
CONTINUOUS
 10
-68.9791959678
 20
25.2
 11
-68.0290715889
 21
25.2
  0
LINE
  5
2F7
100
AcDbEntity
  8
0
100
AcDbLine
 62
250
  6
CONTINUOUS
 10
-68.0534233841
 20
26.9276792439
 11
-68.9791959678
 21
26.9280974384
  0
LINE
  5
2F8
100
AcDbEntity
  8
ASSI
100
AcDbLine
 62
250
  6
CONTINUOUS
 10
-68.0534233841
 20
26.9276792439
 11
-68.9791959678
 21
26.9280974384
  0
LINE
  5
2F9
100
AcDbEntity
  8
0
100
AcDbLine
 62
7
  6
CONTINUOUS
 10
-68.0533588074
 20
27.1501294387
 11
-68.9791959678
 21
27.151745331
  0
LINE
  5
2FA
100
AcDbEntity
  8
ASSI
100
AcDbLine
 62
7
  6
CONTINUOUS
 10
-68.0533588074
 20
27.1501294387
 11
-68.9791959678
 21
27.151745331
  0
LINE
  5
2FB
100
AcDbEntity
  8
0
100
AcDbLine
 62
250
  6
CONTINUOUS
 10
-66.5291467356
 20
26.2536973817
 11
-68.9791959678
 21
26.2679513512
  0
LINE
  5
2FC
100
AcDbEntity
  8
ASSI
100
AcDbLine
 62
250
  6
CONTINUOUS
 10
-66.5291467356
 20
26.2536973817
 11
-68.9791959678
 21
26.2679513512
  0
LINE
  5
2FD
100
AcDbEntity
  8
0
100
AcDbLine
 62
7
  6
CONTINUOUS
 10
-66.5291467356
 20
26.3415638603
 11
-68.9791959678
 21
26.3558178298
  0
LINE
  5
2FE
100
AcDbEntity
  8
ASSI
100
AcDbLine
 62
7
  6
CONTINUOUS
 10
-66.5291467356
 20
26.3415638603
 11
-68.9791959678
 21
26.3558178298
  0
LINE
  5
2FF
100
AcDbEntity
  8
0
100
AcDbLine
 62
250
  6
CONTINUOUS
 10
-66.9539045242
 20
26.3440350289
 11
-68.0534233841
 21
26.9276792439
  0
LINE
  5
300
100
AcDbEntity
  8
ASSI
100
AcDbLine
 62
250
  6
CONTINUOUS
 10
-66.9539045242
 20
26.3440350289
 11
-68.0534233841
 21
26.9276792439
  0
LINE
  5
301
100
AcDbEntity
  8
0
100
AcDbLine
 62
250
  6
CONTINUOUS
 10
-66.0070548828
 20
25.9765617175
 11
-66.5291467356
 21
26.2536973817
  0
LINE
  5
302
100
AcDbEntity
  8
ASSI
100
AcDbLine
 62
250
  6
CONTINUOUS
 10
-66.0070548828
 20
25.9765617175
 11
-66.5291467356
 21
26.2536973817
  0
LINE
  5
303
100
AcDbEntity
  8
0
100
AcDbLine
 62
7
  6
CONTINUOUS
 10
-65.9791959678
 20
26.0883643404
 11
-67.914184006
 21
27.1154904916
  0
LINE
  5
304
100
AcDbEntity
  8
ASSI
100
AcDbLine
 62
7
  6
CONTINUOUS
 10
-65.9791959678
 20
26.0883643404
 11
-67.914184006
 21
27.1154904916
  0
LINE
  5
305
100
AcDbEntity
  8
SMUSSO
100
AcDbLine
 62
7
  6
CONTINUOUS
 10
-76.5291959678
 20
-44.0
 11
-77.0291959678
 21
-44.5
  0
LINE
  5
306
100
AcDbEntity
  8
SMUSSO
100
AcDbLine
 62
7
  6
CONTINUOUS
 10
-74.0291959678
 20
-45.0
 11
-73.5291959678
 21
-44.5
  0
LINE
  5
307
100
AcDbEntity
  8
SMUSSO
100
AcDbLine
 62
7
  6
CONTINUOUS
 10
-77.0291959678
 20
44.5
 11
-76.5291959678
 21
44.0
  0
LINE
  5
308
100
AcDbEntity
  8
SMUSSO
100
AcDbLine
 62
7
  6
CONTINUOUS
 10
-73.5291959678
 20
44.5
 11
-74.0291959678
 21
45.0
  0
LINE
  5
309
100
AcDbEntity
  8
0
100
AcDbLine
 62
250
  6
CONTINUOUS
 10
-72.2012659678
 20
-35.08611
 11
-70.9607019678
 21
-34.620883
  0
LINE
  5
30A
100
AcDbEntity
  8
0
100
AcDbLine
 62
250
  6
CONTINUOUS
 10
-71.8057479678
 20
-34.590908
 11
-72.8605479678
 21
-34.983292
  0
LINE
  5
30B
100
AcDbEntity
  8
0
100
AcDbLine
 62
250
  6
CONTINUOUS
 10
-70.9607019678
 20
-31.999568
 11
-72.8605479678
 21
-32.582488
  0
LINE
  5
30C
100
AcDbEntity
  8
0
100
AcDbLine
 62
7
  6
CONTINUOUS
 10
-70.4781523225
 20
-44.2991650838
 11
-68.9791959678
 21
-43.1
  0
LINE
  5
30D
100
AcDbEntity
  8
ASSI
100
AcDbLine
 62
7
  6
CONTINUOUS
 10
-70.4781523225
 20
-44.2991650838
 11
-68.9791959678
 21
-43.1
  0
LINE
  5
30E
100
AcDbEntity
  8
0
100
AcDbLine
 62
250
  6
CONTINUOUS
 10
-72.8605479678
 20
-37.870764
 11
-70.9607019678
 21
-37.268476
  0
LINE
  5
30F
100
AcDbEntity
  8
0
100
AcDbLine
 62
7
  6
CONTINUOUS
 10
-70.4781523225
 20
44.2991650838
 11
-68.9791959678
 21
43.1
  0
LINE
  5
310
100
AcDbEntity
  8
ASSI
100
AcDbLine
 62
7
  6
CONTINUOUS
 10
-70.4781523225
 20
44.2991650838
 11
-68.9791959678
 21
43.1
  0
LINE
  5
311
100
AcDbEntity
  8
RACCORDO
100
AcDbLine
 62
250
  6
CONTINUOUS
 10
-73.3791959678
 20
37.0
 11
-73.5291959678
 21
37.0
  0
LINE
  5
312
100
AcDbEntity
  8
RACCORDO
100
AcDbLine
 62
7
  6
CONTINUOUS
 10
-73.3791959678
 20
39.0
 11
-73.5291959678
 21
39.0
  0
LWPOLYLINE
  5
313
100
AcDbEntity
  8
0
100
AcDbPolyline
 62
7
  6
CONTINUOUS
 90
13
 70
0
 43
0.3500000006
 10
-86.6449824829
 20
57.4642835083
 10
-86.9306981506
 20
57.6785679932
 10
-86.9306981506
 20
58.3214305115
 10
-86.6449824829
 20
58.7499994812
 10
-86.0021290283
 20
58.7499994812
 10
-85.7164133606
 20
58.3214305115
 10
-85.7164133606
 20
57.6785679932
 10
-86.0021290283
 20
57.4642835083
 10
-85.5735600586
 20
57.0357145386
 10
-85.5735600586
 20
56.1785675354
 10
-86.0021290283
 20
55.7499985657
 10
-86.6449824829
 20
55.7499985657
 10
-87.0735605164
 20
56.1785675354
  0
LINE
  5
314
100
AcDbEntity
  8
RACCORDO
100
AcDbLine
 62
7
  6
CONTINUOUS
 10
-73.3791959678
 20
41.0
 11
-73.5291959678
 21
41.0
  0
LINE
  5
315
100
AcDbEntity
  8
0
100
AcDbLine
 62
250
  6
CONTINUOUS
 10
-73.3791959678
 20
43.3
 11
-70.4791959678
 21
43.3
  0
LINE
  5
316
100
AcDbEntity
  8
ASSI
100
AcDbLine
 62
250
  6
CONTINUOUS
 10
-73.3791959678
 20
43.3
 11
-70.4791959678
 21
43.3
  0
LINE
  5
317
100
AcDbEntity
  8
SMUSSO
100
AcDbLine
 62
7
  6
CONTINUOUS
 10
-76.5291959678
 20
44.0
 11
-74.0291959678
 21
44.0
  0
LINE
  5
318
100
AcDbEntity
  8
SMUSSO
100
AcDbLine
 62
7
  6
CONTINUOUS
 10
-76.5291959678
 20
45.0
 11
-74.0291959678
 21
45.0
  0
LWPOLYLINE
  5
319
100
AcDbEntity
  8
0
100
AcDbPolyline
 62
7
  6
CONTINUOUS
 90
8
 70
0
 43
0.3500000006
 10
-83.0021281128
 20
55.7499985657
 10
-82.1449901733
 20
55.7499985657
 10
-81.7164121399
 20
56.1785675354
 10
-81.7164121399
 20
57.0357145386
 10
-82.1449901733
 20
57.4642835083
 10
-83.0021281128
 20
57.4642835083
 10
-83.0021281128
 20
58.7499994812
 10
-81.7164121399
 20
58.7499994812
  0
LWPOLYLINE
  5
31A
100
AcDbEntity
  8
0
100
AcDbPolyline
 62
7
  6
CONTINUOUS
 90
8
 70
0
 43
0.3500000006
 10
-80.8592742004
 20
55.7499985657
 10
-80.0021271973
 20
55.7499985657
 10
-79.5735582275
 20
56.1785675354
 10
-79.5735582275
 20
57.0357145386
 10
-80.0021271973
 20
57.4642835083
 10
-80.8592742004
 20
57.4642835083
 10
-80.8592742004
 20
58.7499994812
 10
-79.5735582275
 20
58.7499994812
  0
LWPOLYLINE
  5
31B
100
AcDbEntity
  8
0
100
AcDbPolyline
 62
7
  6
CONTINUOUS
 90
8
 70
0
 43
0.3500000006
 10
-83.3149443054
 20
63.7500010071
 10
-82.4577973022
 20
63.7500010071
 10
-82.0292283325
 20
64.1785699768
 10
-82.0292283325
 20
65.03571698
 10
-82.4577973022
 20
65.4642859497
 10
-83.3149443054
 20
65.4642859497
 10
-83.3149443054
 20
66.7500019226
 10
-82.0292283325
 20
66.7500019226
  0
LWPOLYLINE
  5
31C
100
AcDbEntity
  8
0
100
AcDbPolyline
 62
7
  6
CONTINUOUS
 90
8
 70
0
 43
0.3500000006
 10
-81.1720813293
 20
63.7500010071
 10
-80.3149433899
 20
63.7500010071
 10
-79.8863653564
 20
64.1785699768
 10
-79.8863653564
 20
65.03571698
 10
-80.3149433899
 20
65.4642859497
 10
-81.1720813293
 20
65.4642859497
 10
-81.1720813293
 20
66.7500019226
 10
-79.8863653564
 20
66.7500019226
  0
LINE
  5
31D
100
AcDbEntity
  8
0
100
AcDbLine
 62
7
  6
CONTINUOUS
 10
-73.3791959678
 20
44.3506196883
 11
-70.4791959678
 21
44.3
  0
LINE
  5
31E
100
AcDbEntity
  8
ASSI
100
AcDbLine
 62
7
  6
CONTINUOUS
 10
-73.3791959678
 20
44.3506196883
 11
-70.4791959678
 21
44.3
  0
LINE
  5
31F
100
AcDbEntity
  8
0
100
AcDbLine
 62
250
  6
CONTINUOUS
 10
-70.4781523225
 20
43.3404067067
 11
-68.9791959678
 21
43.0383103281
  0
LINE
  5
320
100
AcDbEntity
  8
ASSI
100
AcDbLine
 62
250
  6
CONTINUOUS
 10
-70.4781523225
 20
43.3404067067
 11
-68.9791959678
 21
43.0383103281
  0
ARC
  5
321
100
AcDbEntity
  8
0
100
AcDbCircle
 62
7
  6
CONTINUOUS
 10
32.6
 20
21.4
 40
1.7
100
AcDbArc
 50
0.0
 51
90.0
  0
ARC
  5
322
100
AcDbEntity
  8
0
100
AcDbCircle
 62
7
  6
CONTINUOUS
 10
-32.7
 20
21.4
 40
1.7
100
AcDbArc
 50
90.0
 51
180.0
  0
ARC
  5
323
100
AcDbEntity
  8
0
100
AcDbCircle
 62
7
  6
CONTINUOUS
 10
-32.7
 20
-21.4
 40
1.7
100
AcDbArc
 50
180.0
 51
270.0
  0
ARC
  5
324
100
AcDbEntity
  8
0
100
AcDbCircle
 62
7
  6
CONTINUOUS
 10
32.6
 20
-21.4
 40
1.7
100
AcDbArc
 50
270.0
 51
360.0
  0
ARC
  5
325
100
AcDbEntity
  8
0
100
AcDbCircle
 62
7
  6
CONTINUOUS
 10
-32.7
 20
21.4
 40
1.2
100
AcDbArc
 50
90.0
 51
180.0
  0
ARC
  5
326
100
AcDbEntity
  8
0
100
AcDbCircle
 62
7
  6
CONTINUOUS
 10
-32.7
 20
-21.4
 40
1.2
100
AcDbArc
 50
180.0
 51
270.0
  0
ARC
  5
327
100
AcDbEntity
  8
0
100
AcDbCircle
 62
7
  6
CONTINUOUS
 10
32.6
 20
-21.4
 40
1.2
100
AcDbArc
 50
270.0
 51
360.0
  0
ARC
  5
328
100
AcDbEntity
  8
0
100
AcDbCircle
 62
7
  6
CONTINUOUS
 10
32.6
 20
21.4
 40
1.2
100
AcDbArc
 50
0.0
 51
90.0
  0
ARC
  5
329
100
AcDbEntity
  8
0
100
AcDbCircle
 62
7
  6
CONTINUOUS
 10
-68.0290715889
 20
26.2
 40
1.0
100
AcDbArc
 50
270.0
 51
275.7105931375
  0
ARC
  5
32A
100
AcDbEntity
  8
0
100
AcDbCircle
 62
7
  6
CONTINUOUS
 10
-68.0290715889
 20
-26.2
 40
1.0
100
AcDbArc
 50
84.2894068625
 51
90.0
  0
ARC
  5
32B
100
AcDbEntity
  8
ASSI
100
AcDbCircle
 62
7
  6
CONTINUOUS
 10
-68.0290715889
 20
26.2
 40
1.0
100
AcDbArc
 50
270.0
 51
275.7105931375
  0
ARC
  5
32C
100
AcDbEntity
  8
ASSI
100
AcDbCircle
 62
7
  6
CONTINUOUS
 10
-68.0290715889
 20
-26.2
 40
1.0
100
AcDbArc
 50
84.2894068625
 51
90.0
  0
ARC
  5
32D
100
AcDbEntity
  8
0
100
AcDbCircle
 62
7
  6
CONTINUOUS
 10
-68.0538826335
 20
-26.849999491
 40
0.3
100
AcDbArc
 50
270.0999999936
 51
297.9489609005
  0
ARC
  5
32E
100
AcDbEntity
  8
0
100
AcDbCircle
 62
7
  6
CONTINUOUS
 10
-68.0538826335
 20
26.849999491
 40
0.3
100
AcDbArc
 50
62.0510390995
 51
89.9000000064
  0
ARC
  5
32F
100
AcDbEntity
  8
0
100
AcDbCircle
 62
7
  6
CONTINUOUS
 10
-66.530892055
 20
-26.0415689373
 40
0.3
100
AcDbArc
 50
270.3333333333
 51
297.9601595782
  0
ARC
  5
330
100
AcDbEntity
  8
0
100
AcDbCircle
 62
7
  6
CONTINUOUS
 10
-66.530892055
 20
26.0415689373
 40
0.3
100
AcDbArc
 50
62.0398404207
 51
89.6666666667
  0
ARC
  5
331
100
AcDbEntity
  8
ASSI
100
AcDbCircle
 62
7
  6
CONTINUOUS
 10
-68.0538826335
 20
-26.849999491
 40
0.3
100
AcDbArc
 50
270.0999999936
 51
297.9489609005
  0
ARC
  5
332
100
AcDbEntity
  8
ASSI
100
AcDbCircle
 62
7
  6
CONTINUOUS
 10
-68.0538826335
 20
26.849999491
 40
0.3
100
AcDbArc
 50
62.0510390995
 51
89.9000000064
  0
ARC
  5
333
100
AcDbEntity
  8
ASSI
100
AcDbCircle
 62
7
  6
CONTINUOUS
 10
-66.530892055
 20
-26.0415689373
 40
0.3
100
AcDbArc
 50
270.3333333333
 51
297.9601595782
  0
ARC
  5
334
100
AcDbEntity
  8
ASSI
100
AcDbCircle
 62
7
  6
CONTINUOUS
 10
-66.530892055
 20
26.0415689373
 40
0.3
100
AcDbArc
 50
62.0398404207
 51
89.6666666667
  0
SPLINE
  5
335
100
AcDbEntity
  8
0
100
AcDbSpline
 62
7
  6
CONTINUOUS
 70
0
 71
3
 72
18
 73
14
 74
0
 42
0.0000001
 43
0.0000001
 44
0.0000000001
 40
0.0
 40
0.0
 40
0.0
 40
0.0
 40
0.1917501427
 40
0.3754565595
 40
0.5446832798
 40
0.6936389099
 40
0.817166663
 40
0.8680467139
 40
0.9110789516
 40
0.945929282
 40
0.9723603198
 40
0.990270012
 40
1.0
 40
1.0
 40
1.0
 40
1.0
 10
-70.4781523225
 20
43.3404067067
 30
0.0
 10
-70.474981147
 20
43.4017695438
 30
0.0
 10
-70.4692835947
 20
43.5219485627
 30
0.0
 10
-70.4627365363
 20
43.6963675885
 30
0.0
 10
-70.4585926645
 20
43.8571465477
 30
0.0
 10
-70.4570500689
 20
43.9986819536
 30
0.0
 10
-70.4579561496
 20
44.102318931
 30
0.0
 10
-70.4602911669
 20
44.1719467969
 30
0.0
 10
-70.4625462567
 20
44.2131804697
 30
0.0
 10
-70.4653945171
 20
44.2464101674
 30
0.0
 10
-70.4686752196
 20
44.2717891156
 30
0.0
 10
-70.4724330575
 20
44.2883198423
 30
0.0
 10
-70.4757176571
 20
44.2972173514
 30
0.0
 10
-70.4781523225
 20
44.2991650838
 30
0.0
  0
SPLINE
  5
336
100
AcDbEntity
  8
0
100
AcDbSpline
 62
7
  6
CONTINUOUS
 70
0
 71
3
 72
18
 73
14
 74
0
 42
0.0000001
 43
0.0000001
 44
0.0000000001
 40
0.0
 40
0.0
 40
0.0
 40
0.0
 40
0.009729988
 40
0.0276396801
 40
0.0540707176
 40
0.0889210475
 40
0.1319532851
 40
0.182833336
 40
0.3063610902
 40
0.455316722
 40
0.6245434425
 40
0.8082498577
 40
1.0
 40
1.0
 40
1.0
 40
1.0
 10
-70.4781523225
 20
-44.2991650838
 30
0.0
 10
-70.4757176571
 20
-44.2972173514
 30
0.0
 10
-70.4724330575
 20
-44.2883198423
 30
0.0
 10
-70.4686752197
 20
-44.2717891158
 30
0.0
 10
-70.4653945172
 20
-44.2464101679
 30
0.0
 10
-70.4625462567
 20
-44.2131804704
 30
0.0
 10
-70.460291167
 20
-44.1719467979
 30
0.0
 10
-70.4579561495
 20
-44.1023189317
 30
0.0
 10
-70.4570500689
 20
-43.9986819533
 30
0.0
 10
-70.4585926645
 20
-43.8571465465
 30
0.0
 10
-70.4627365364
 20
-43.6963675871
 30
0.0
 10
-70.4692835947
 20
-43.5219485619
 30
0.0
 10
-70.474981147
 20
-43.4017695437
 30
0.0
 10
-70.4781523225
 20
-43.3404067067
 30
0.0
  0
SPLINE
  5
337
100
AcDbEntity
  8
0
100
AcDbSpline
 62
250
  6
CONTINUOUS
 70
0
 71
3
 72
9
 73
5
 74
0
 42
0.0000001
 43
0.0000001
 44
0.0000000001
 40
0.0
 40
0.0
 40
0.0
 40
0.0
 40
0.5637833222
 40
1.0
 40
1.0
 40
1.0
 40
1.0
 10
-68.0534233841
 20
26.9276792439
 30
0.0
 10
-68.036601827
 20
26.9572424755
 30
0.0
 10
-68.0055295474
 20
27.0089600021
 30
0.0
 10
-67.9716213132
 20
27.0589978903
 30
0.0
 10
-67.9552942356
 20
27.0796387634
 30
0.0
  0
SPLINE
  5
338
100
AcDbEntity
  8
0
100
AcDbSpline
 62
250
  6
CONTINUOUS
 70
0
 71
3
 72
10
 73
6
 74
0
 42
0.0000001
 43
0.0000001
 44
0.0000000001
 40
0.0
 40
0.0
 40
0.0
 40
0.0
 40
0.6924460877
 40
0.8884016716
 40
1.0
 40
1.0
 40
1.0
 40
1.0
 10
-67.9552942356
 20
27.0796387634
 30
0.0
 10
-67.9471928652
 20
27.089880606
 30
0.0
 10
-67.9360737445
 20
27.1028525793
 30
0.0
 10
-67.9216484593
 20
27.1145299103
 30
0.0
 10
-67.9151468689
 20
27.1160059374
 30
0.0
 10
-67.9132897341
 20
27.1150157961
 30
0.0
  0
SPLINE
  5
339
100
AcDbEntity
  8
0
100
AcDbSpline
 62
7
  6
CONTINUOUS
 70
0
 71
3
 72
9
 73
5
 74
0
 42
0.0000001
 43
0.0000001
 44
0.0000000001
 40
0.0
 40
0.0
 40
0.0
 40
0.0
 40
0.2171201313
 40
1.0
 40
1.0
 40
1.0
 40
1.0
 10
-65.9791959678
 20
26.0463167932
 30
0.0
 10
-65.9791959678
 20
26.0430884804
 30
0.0
 10
-65.9806754758
 20
26.0282086012
 30
0.0
 10
-65.9867084571
 20
26.0142370373
 30
0.0
 10
-65.9919070128
 20
26.0038218733
 30
0.0
  0
SPLINE
  5
33A
100
AcDbEntity
  8
0
100
AcDbSpline
 62
7
  6
CONTINUOUS
 70
0
 71
3
 72
9
 73
5
 74
0
 42
0.0000001
 43
0.0000001
 44
0.0000000001
 40
0.0
 40
0.0
 40
0.0
 40
0.0
 40
0.2349024502
 40
1.0
 40
1.0
 40
1.0
 40
1.0
 10
-65.9919070128
 20
26.0038218733
 30
0.0
 10
-65.9929977045
 20
26.0016367023
 30
0.0
 10
-65.9977807421
 20
25.9924038454
 30
0.0
 10
-66.0029905177
 20
25.9833996157
 30
0.0
 10
-66.0070548828
 20
25.9765617175
 30
0.0
  0
SPLINE
  5
33B
100
AcDbEntity
  8
0
100
AcDbSpline
 62
250
  6
CONTINUOUS
 70
0
 71
3
 72
9
 73
5
 74
0
 42
0.0000001
 43
0.0000001
 44
0.0000000001
 40
0.0
 40
0.0
 40
0.0
 40
0.0
 40
0.5590803942
 40
1.0
 40
1.0
 40
1.0
 40
1.0
 10
-68.0534233841
 20
-26.9276792439
 30
0.0
 10
-68.0372516419
 20
-26.9561130894
 30
0.0
 10
-68.0071971203
 20
-27.0063206884
 30
0.0
 10
-67.9744634112
 20
-27.0549241747
 30
0.0
 10
-67.9586931425
 20
-27.0753401812
 30
0.0
  0
SPLINE
  5
33C
100
AcDbEntity
  8
0
100
AcDbSpline
 62
250
  6
CONTINUOUS
 70
0
 71
3
 72
10
 73
6
 74
0
 42
0.0000001
 43
0.0000001
 44
0.0000000001
 40
0.0
 40
0.0
 40
0.0
 40
0.0
 40
0.6950720124
 40
0.8909531812
 40
1.0
 40
1.0
 40
1.0
 40
1.0
 10
-67.9586931425
 20
-27.0753401812
 30
0.0
 10
-67.9499059661
 20
-27.0867159576
 30
0.0
 10
-67.9378376184
 20
-27.1011663008
 30
0.0
 10
-67.9223418637
 20
-27.1142235827
 30
0.0
 10
-67.9152837635
 20
-27.1160691119
 30
0.0
 10
-67.9132897341
 20
-27.1150157961
 30
0.0
  0
SPLINE
  5
33D
100
AcDbEntity
  8
0
100
AcDbSpline
 62
250
  6
CONTINUOUS
 70
0
 71
3
 72
9
 73
5
 74
0
 42
0.0000001
 43
0.0000001
 44
0.0000000001
 40
0.0
 40
0.0
 40
0.0
 40
0.0
 40
0.4631330765
 40
1.0
 40
1.0
 40
1.0
 40
1.0
 10
-66.3902348065
 20
-26.3065510847
 30
0.0
 10
-66.3977295103
 20
-26.3105294071
 30
0.0
 10
-66.4162646843
 20
-26.3149384264
 30
0.0
 10
-66.434672508
 20
-26.311631072
 30
0.0
 10
-66.4440772258
 20
-26.3087503043
 30
0.0
  0
SPLINE
  5
33E
100
AcDbEntity
  8
0
100
AcDbSpline
 62
250
  6
CONTINUOUS
 70
0
 71
3
 72
9
 73
5
 74
0
 42
0.0000001
 43
0.0000001
 44
0.0000000001
 40
0.0
 40
0.0
 40
0.0
 40
0.0
 40
0.2256050966
 40
1.0
 40
1.0
 40
1.0
 40
1.0
 10
-66.4440772258
 20
-26.3087503043
 30
0.0
 10
-66.4479550695
 20
-26.3075624784
 30
0.0
 10
-66.4648695968
 20
-26.30139862
 30
0.0
 10
-66.4805456509
 20
-26.292188763
 30
0.0
 10
-66.4919727811
 20
-26.2842375518
 30
0.0
  0
SPLINE
  5
33F
100
AcDbEntity
  8
0
100
AcDbSpline
 62
250
  6
CONTINUOUS
 70
0
 71
3
 72
9
 73
5
 74
0
 42
0.0000001
 43
0.0000001
 44
0.0000000001
 40
0.0
 40
0.0
 40
0.0
 40
0.0
 40
0.2366799371
 40
1.0
 40
1.0
 40
1.0
 40
1.0
 10
-66.4919727811
 20
-26.2842375518
 30
0.0
 10
-66.495090016
 20
-26.2820685213
 30
0.0
 10
-66.5080579192
 20
-26.2726134799
 30
0.0
 10
-66.5202459116
 20
-26.2621106016
 30
0.0
 10
-66.5291467356
 20
-26.2536973817
 30
0.0
  0
SPLINE
  5
340
100
AcDbEntity
  8
0
100
AcDbSpline
 62
250
  6
CONTINUOUS
 70
0
 71
3
 72
9
 73
5
 74
0
 42
0.0000001
 43
0.0000001
 44
0.0000000001
 40
0.0
 40
0.0
 40
0.0
 40
0.0
 40
0.4630987682
 40
1.0
 40
1.0
 40
1.0
 40
1.0
 10
-66.3902348065
 20
26.3065510847
 30
0.0
 10
-66.3977353176
 20
26.3105324897
 30
0.0
 10
-66.4162881913
 20
26.3149410034
 30
0.0
 10
-66.4347104721
 20
26.3116237691
 30
0.0
 10
-66.4441226307
 20
26.3087366358
 30
0.0
  0
SPLINE
  5
341
100
AcDbEntity
  8
0
100
AcDbSpline
 62
250
  6
CONTINUOUS
 70
0
 71
3
 72
9
 73
5
 74
0
 42
0.0000001
 43
0.0000001
 44
0.0000000001
 40
0.0
 40
0.0
 40
0.0
 40
0.0
 40
0.2256099368
 40
1.0
 40
1.0
 40
1.0
 40
1.0
 10
-66.4441226307
 20
26.3087366358
 30
0.0
 10
-66.4479995918
 20
26.307547397
 30
0.0
 10
-66.4649097409
 20
26.3013783348
 30
0.0
 10
-66.4805814566
 20
26.2921662857
 30
0.0
 10
-66.4920058124
 20
26.2842143459
 30
0.0
  0
SPLINE
  5
342
100
AcDbEntity
  8
0
100
AcDbSpline
 62
250
  6
CONTINUOUS
 70
0
 71
3
 72
9
 73
5
 74
0
 42
0.0000001
 43
0.0000001
 44
0.0000000001
 40
0.0
 40
0.0
 40
0.0
 40
0.0
 40
0.2366954975
 40
1.0
 40
1.0
 40
1.0
 40
1.0
 10
-66.4920058124
 20
26.2842143459
 30
0.0
 10
-66.4951203005
 20
26.2820465018
 30
0.0
 10
-66.5080761366
 20
26.2725977534
 30
0.0
 10
-66.5202535504
 20
26.2621033813
 30
0.0
 10
-66.5291467356
 20
26.2536973817
 30
0.0
  0
SPLINE
  5
343
100
AcDbEntity
  8
0
100
AcDbSpline
 62
250
  6
CONTINUOUS
 70
0
 71
3
 72
17
 73
13
 74
0
 42
0.0000001
 43
0.0000001
 44
0.0000000001
 40
0.0
 40
0.0
 40
0.0
 40
0.0
 40
0.0041509426
 40
0.0165131528
 40
0.0370394731
 40
0.0656738303
 40
0.147033967
 40
0.259883893
 40
0.4031301725
 40
0.5755840393
 40
0.7753335906
 40
1.0
 40
1.0
 40
1.0
 40
1.0
 10
-66.5291467356
 20
-26.3415638603
 30
0.0
 10
-66.5290251581
 20
-26.341563153
 30
0.0
 10
-66.5292422785
 20
-26.3407901078
 30
0.0
 10
-66.528988536
 20
-26.3399838662
 30
0.0
 10
-66.5290957584
 20
-26.3380251079
 30
0.0
 10
-66.5289886354
 20
-26.3342971317
 30
0.0
 10
-66.5290267014
 20
-26.3277000543
 30
0.0
 10
-66.5289922623
 20
-26.3178494928
 30
0.0
 10
-66.5290136342
 20
-26.3052846155
 30
0.0
 10
-66.529038104
 20
-26.2901918491
 30
0.0
 10
-66.5290850569
 20
-26.2727082659
 30
0.0
 10
-66.5291243101
 20
-26.2602777389
 30
0.0
 10
-66.5291467356
 20
-26.2536973817
 30
0.0
  0
SPLINE
  5
344
100
AcDbEntity
  8
0
100
AcDbSpline
 62
7
  6
CONTINUOUS
 70
0
 71
3
 72
9
 73
5
 74
0
 42
0.0000001
 43
0.0000001
 44
0.0000000001
 40
0.0
 40
0.0
 40
0.0
 40
0.0
 40
0.5701358378
 40
1.0
 40
1.0
 40
1.0
 40
1.0
 10
-66.0070548828
 20
-25.9765617175
 30
0.0
 10
-65.9997054744
 20
-25.9889263811
 30
0.0
 10
-65.9871053926
 20
-26.0106368735
 30
0.0
 10
-65.9791959678
 20
-26.0354717374
 30
0.0
 10
-65.9791959678
 20
-26.0463167932
 30
0.0
  0
SPLINE
  5
345
100
AcDbEntity
  8
0
100
AcDbSpline
 62
250
  6
CONTINUOUS
 70
0
 71
3
 72
17
 73
13
 74
0
 42
0.0000001
 43
0.0000001
 44
0.0000000001
 40
0.0
 40
0.0
 40
0.0
 40
0.0
 40
0.2246664094
 40
0.4244159606
 40
0.5968698275
 40
0.740116107
 40
0.852966033
 40
0.9343261697
 40
0.9629605269
 40
0.9834868471
 40
0.9958490574
 40
1.0
 40
1.0
 40
1.0
 40
1.0
 10
-66.5291467356
 20
26.2536973817
 30
0.0
 10
-66.5291243101
 20
26.2602777389
 30
0.0
 10
-66.5290850569
 20
26.2727082659
 30
0.0
 10
-66.529038104
 20
26.2901918491
 30
0.0
 10
-66.5290136342
 20
26.3052846155
 30
0.0
 10
-66.5289922623
 20
26.3178494928
 30
0.0
 10
-66.5290267014
 20
26.3277000543
 30
0.0
 10
-66.5289886354
 20
26.3342971317
 30
0.0
 10
-66.5290957584
 20
26.3380251079
 30
0.0
 10
-66.528988536
 20
26.3399838662
 30
0.0
 10
-66.5292422785
 20
26.3407901078
 30
0.0
 10
-66.5290251581
 20
26.341563153
 30
0.0
 10
-66.5291467356
 20
26.3415638603
 30
0.0
  0
SPLINE
  5
346
100
AcDbEntity
  8
ASSI
100
AcDbSpline
 62
7
  6
CONTINUOUS
 70
0
 71
3
 72
9
 73
5
 74
0
 42
0.0000001
 43
0.0000001
 44
0.0000000001
 40
0.0
 40
0.0
 40
0.0
 40
0.0
 40
0.2171201313
 40
1.0
 40
1.0
 40
1.0
 40
1.0
 10
-65.9791959678
 20
26.0463167932
 30
0.0
 10
-65.9791959678
 20
26.0430884804
 30
0.0
 10
-65.9806754758
 20
26.0282086012
 30
0.0
 10
-65.9867084571
 20
26.0142370373
 30
0.0
 10
-65.9919070128
 20
26.0038218733
 30
0.0
  0
SPLINE
  5
347
100
AcDbEntity
  8
ASSI
100
AcDbSpline
 62
7
  6
CONTINUOUS
 70
0
 71
3
 72
9
 73
5
 74
0
 42
0.0000001
 43
0.0000001
 44
0.0000000001
 40
0.0
 40
0.0
 40
0.0
 40
0.0
 40
0.2349024502
 40
1.0
 40
1.0
 40
1.0
 40
1.0
 10
-65.9919070128
 20
26.0038218733
 30
0.0
 10
-65.9929977045
 20
26.0016367023
 30
0.0
 10
-65.9977807421
 20
25.9924038454
 30
0.0
 10
-66.0029905177
 20
25.9833996157
 30
0.0
 10
-66.0070548828
 20
25.9765617175
 30
0.0
  0
SPLINE
  5
348
100
AcDbEntity
  8
ASSI
100
AcDbSpline
 62
250
  6
CONTINUOUS
 70
0
 71
3
 72
17
 73
13
 74
0
 42
0.0000001
 43
0.0000001
 44
0.0000000001
 40
0.0
 40
0.0
 40
0.0
 40
0.0
 40
0.2246664094
 40
0.4244159606
 40
0.5968698275
 40
0.740116107
 40
0.852966033
 40
0.9343261697
 40
0.9629605269
 40
0.9834868471
 40
0.9958490574
 40
1.0
 40
1.0
 40
1.0
 40
1.0
 10
-66.5291467356
 20
26.2536973817
 30
0.0
 10
-66.5291243101
 20
26.2602777389
 30
0.0
 10
-66.5290850569
 20
26.2727082659
 30
0.0
 10
-66.529038104
 20
26.2901918491
 30
0.0
 10
-66.5290136342
 20
26.3052846155
 30
0.0
 10
-66.5289922623
 20
26.3178494928
 30
0.0
 10
-66.5290267014
 20
26.3277000543
 30
0.0
 10
-66.5289886354
 20
26.3342971317
 30
0.0
 10
-66.5290957584
 20
26.3380251079
 30
0.0
 10
-66.528988536
 20
26.3399838662
 30
0.0
 10
-66.5292422785
 20
26.3407901078
 30
0.0
 10
-66.5290251581
 20
26.341563153
 30
0.0
 10
-66.5291467356
 20
26.3415638603
 30
0.0
  0
SPLINE
  5
349
100
AcDbEntity
  8
ASSI
100
AcDbSpline
 62
250
  6
CONTINUOUS
 70
0
 71
3
 72
9
 73
5
 74
0
 42
0.0000001
 43
0.0000001
 44
0.0000000001
 40
0.0
 40
0.0
 40
0.0
 40
0.0
 40
0.5590803942
 40
1.0
 40
1.0
 40
1.0
 40
1.0
 10
-68.0534233841
 20
-26.9276792439
 30
0.0
 10
-68.0372516419
 20
-26.9561130894
 30
0.0
 10
-68.0071971203
 20
-27.0063206884
 30
0.0
 10
-67.9744634112
 20
-27.0549241747
 30
0.0
 10
-67.9586931425
 20
-27.0753401812
 30
0.0
  0
SPLINE
  5
34A
100
AcDbEntity
  8
ASSI
100
AcDbSpline
 62
250
  6
CONTINUOUS
 70
0
 71
3
 72
10
 73
6
 74
0
 42
0.0000001
 43
0.0000001
 44
0.0000000001
 40
0.0
 40
0.0
 40
0.0
 40
0.0
 40
0.6950720124
 40
0.8909531812
 40
1.0
 40
1.0
 40
1.0
 40
1.0
 10
-67.9586931425
 20
-27.0753401812
 30
0.0
 10
-67.9499059661
 20
-27.0867159576
 30
0.0
 10
-67.9378376184
 20
-27.1011663008
 30
0.0
 10
-67.9223418637
 20
-27.1142235827
 30
0.0
 10
-67.9152837635
 20
-27.1160691119
 30
0.0
 10
-67.9132897341
 20
-27.1150157961
 30
0.0
  0
SPLINE
  5
34B
100
AcDbEntity
  8
ASSI
100
AcDbSpline
 62
250
  6
CONTINUOUS
 70
0
 71
3
 72
9
 73
5
 74
0
 42
0.0000001
 43
0.0000001
 44
0.0000000001
 40
0.0
 40
0.0
 40
0.0
 40
0.0
 40
0.4631330765
 40
1.0
 40
1.0
 40
1.0
 40
1.0
 10
-66.3902348065
 20
-26.3065510847
 30
0.0
 10
-66.3977295103
 20
-26.3105294071
 30
0.0
 10
-66.4162646843
 20
-26.3149384264
 30
0.0
 10
-66.434672508
 20
-26.311631072
 30
0.0
 10
-66.4440772258
 20
-26.3087503043
 30
0.0
  0
SPLINE
  5
34C
100
AcDbEntity
  8
ASSI
100
AcDbSpline
 62
250
  6
CONTINUOUS
 70
0
 71
3
 72
9
 73
5
 74
0
 42
0.0000001
 43
0.0000001
 44
0.0000000001
 40
0.0
 40
0.0
 40
0.0
 40
0.0
 40
0.2256050966
 40
1.0
 40
1.0
 40
1.0
 40
1.0
 10
-66.4440772258
 20
-26.3087503043
 30
0.0
 10
-66.4479550695
 20
-26.3075624784
 30
0.0
 10
-66.4648695968
 20
-26.30139862
 30
0.0
 10
-66.4805456509
 20
-26.292188763
 30
0.0
 10
-66.4919727811
 20
-26.2842375518
 30
0.0
  0
SPLINE
  5
34D
100
AcDbEntity
  8
ASSI
100
AcDbSpline
 62
250
  6
CONTINUOUS
 70
0
 71
3
 72
9
 73
5
 74
0
 42
0.0000001
 43
0.0000001
 44
0.0000000001
 40
0.0
 40
0.0
 40
0.0
 40
0.0
 40
0.2366799371
 40
1.0
 40
1.0
 40
1.0
 40
1.0
 10
-66.4919727811
 20
-26.2842375518
 30
0.0
 10
-66.495090016
 20
-26.2820685213
 30
0.0
 10
-66.5080579192
 20
-26.2726134799
 30
0.0
 10
-66.5202459116
 20
-26.2621106016
 30
0.0
 10
-66.5291467356
 20
-26.2536973817
 30
0.0
  0
SPLINE
  5
34E
100
AcDbEntity
  8
ASSI
100
AcDbSpline
 62
7
  6
CONTINUOUS
 70
0
 71
3
 72
9
 73
5
 74
0
 42
0.0000001
 43
0.0000001
 44
0.0000000001
 40
0.0
 40
0.0
 40
0.0
 40
0.0
 40
0.5701358378
 40
1.0
 40
1.0
 40
1.0
 40
1.0
 10
-66.0070548828
 20
-25.9765617175
 30
0.0
 10
-65.9997054744
 20
-25.9889263811
 30
0.0
 10
-65.9871053926
 20
-26.0106368735
 30
0.0
 10
-65.9791959678
 20
-26.0354717374
 30
0.0
 10
-65.9791959678
 20
-26.0463167932
 30
0.0
  0
SPLINE
  5
34F
100
AcDbEntity
  8
ASSI
100
AcDbSpline
 62
250
  6
CONTINUOUS
 70
0
 71
3
 72
9
 73
5
 74
0
 42
0.0000001
 43
0.0000001
 44
0.0000000001
 40
0.0
 40
0.0
 40
0.0
 40
0.0
 40
0.4630987682
 40
1.0
 40
1.0
 40
1.0
 40
1.0
 10
-66.3902348065
 20
26.3065510847
 30
0.0
 10
-66.3977353176
 20
26.3105324897
 30
0.0
 10
-66.4162881913
 20
26.3149410034
 30
0.0
 10
-66.4347104721
 20
26.3116237691
 30
0.0
 10
-66.4441226307
 20
26.3087366358
 30
0.0
  0
SPLINE
  5
350
100
AcDbEntity
  8
ASSI
100
AcDbSpline
 62
250
  6
CONTINUOUS
 70
0
 71
3
 72
9
 73
5
 74
0
 42
0.0000001
 43
0.0000001
 44
0.0000000001
 40
0.0
 40
0.0
 40
0.0
 40
0.0
 40
0.2256099368
 40
1.0
 40
1.0
 40
1.0
 40
1.0
 10
-66.4441226307
 20
26.3087366358
 30
0.0
 10
-66.4479995918
 20
26.307547397
 30
0.0
 10
-66.4649097409
 20
26.3013783348
 30
0.0
 10
-66.4805814566
 20
26.2921662857
 30
0.0
 10
-66.4920058124
 20
26.2842143459
 30
0.0
  0
SPLINE
  5
351
100
AcDbEntity
  8
ASSI
100
AcDbSpline
 62
250
  6
CONTINUOUS
 70
0
 71
3
 72
9
 73
5
 74
0
 42
0.0000001
 43
0.0000001
 44
0.0000000001
 40
0.0
 40
0.0
 40
0.0
 40
0.0
 40
0.2366954975
 40
1.0
 40
1.0
 40
1.0
 40
1.0
 10
-66.4920058124
 20
26.2842143459
 30
0.0
 10
-66.4951203005
 20
26.2820465018
 30
0.0
 10
-66.5080761366
 20
26.2725977534
 30
0.0
 10
-66.5202535504
 20
26.2621033813
 30
0.0
 10
-66.5291467356
 20
26.2536973817
 30
0.0
  0
SPLINE
  5
352
100
AcDbEntity
  8
ASSI
100
AcDbSpline
 62
250
  6
CONTINUOUS
 70
0
 71
3
 72
17
 73
13
 74
0
 42
0.0000001
 43
0.0000001
 44
0.0000000001
 40
0.0
 40
0.0
 40
0.0
 40
0.0
 40
0.0041509426
 40
0.0165131528
 40
0.0370394731
 40
0.0656738303
 40
0.147033967
 40
0.259883893
 40
0.4031301725
 40
0.5755840393
 40
0.7753335906
 40
1.0
 40
1.0
 40
1.0
 40
1.0
 10
-66.5291467356
 20
-26.3415638603
 30
0.0
 10
-66.5290251581
 20
-26.341563153
 30
0.0
 10
-66.5292422785
 20
-26.3407901078
 30
0.0
 10
-66.528988536
 20
-26.3399838662
 30
0.0
 10
-66.5290957584
 20
-26.3380251079
 30
0.0
 10
-66.5289886354
 20
-26.3342971317
 30
0.0
 10
-66.5290267014
 20
-26.3277000543
 30
0.0
 10
-66.5289922623
 20
-26.3178494928
 30
0.0
 10
-66.5290136342
 20
-26.3052846155
 30
0.0
 10
-66.529038104
 20
-26.2901918491
 30
0.0
 10
-66.5290850569
 20
-26.2727082659
 30
0.0
 10
-66.5291243101
 20
-26.2602777389
 30
0.0
 10
-66.5291467356
 20
-26.2536973817
 30
0.0
  0
SPLINE
  5
353
100
AcDbEntity
  8
ASSI
100
AcDbSpline
 62
7
  6
CONTINUOUS
 70
0
 71
3
 72
18
 73
14
 74
0
 42
0.0000001
 43
0.0000001
 44
0.0000000001
 40
0.0
 40
0.0
 40
0.0
 40
0.0
 40
0.1917501427
 40
0.3754565595
 40
0.5446832798
 40
0.6936389099
 40
0.817166663
 40
0.8680467139
 40
0.9110789516
 40
0.945929282
 40
0.9723603198
 40
0.990270012
 40
1.0
 40
1.0
 40
1.0
 40
1.0
 10
-70.4781523225
 20
43.3404067067
 30
0.0
 10
-70.474981147
 20
43.4017695438
 30
0.0
 10
-70.4692835947
 20
43.5219485627
 30
0.0
 10
-70.4627365363
 20
43.6963675885
 30
0.0
 10
-70.4585926645
 20
43.8571465477
 30
0.0
 10
-70.4570500689
 20
43.9986819536
 30
0.0
 10
-70.4579561496
 20
44.102318931
 30
0.0
 10
-70.4602911669
 20
44.1719467969
 30
0.0
 10
-70.4625462567
 20
44.2131804697
 30
0.0
 10
-70.4653945171
 20
44.2464101674
 30
0.0
 10
-70.4686752196
 20
44.2717891156
 30
0.0
 10
-70.4724330575
 20
44.2883198423
 30
0.0
 10
-70.4757176571
 20
44.2972173514
 30
0.0
 10
-70.4781523225
 20
44.2991650838
 30
0.0
  0
SPLINE
  5
354
100
AcDbEntity
  8
ASSI
100
AcDbSpline
 62
7
  6
CONTINUOUS
 70
0
 71
3
 72
18
 73
14
 74
0
 42
0.0000001
 43
0.0000001
 44
0.0000000001
 40
0.0
 40
0.0
 40
0.0
 40
0.0
 40
0.009729988
 40
0.0276396801
 40
0.0540707176
 40
0.0889210475
 40
0.1319532851
 40
0.182833336
 40
0.3063610902
 40
0.455316722
 40
0.6245434425
 40
0.8082498577
 40
1.0
 40
1.0
 40
1.0
 40
1.0
 10
-70.4781523225
 20
-44.2991650838
 30
0.0
 10
-70.4757176571
 20
-44.2972173514
 30
0.0
 10
-70.4724330575
 20
-44.2883198423
 30
0.0
 10
-70.4686752197
 20
-44.2717891158
 30
0.0
 10
-70.4653945172
 20
-44.2464101679
 30
0.0
 10
-70.4625462567
 20
-44.2131804704
 30
0.0
 10
-70.460291167
 20
-44.1719467979
 30
0.0
 10
-70.4579561495
 20
-44.1023189317
 30
0.0
 10
-70.4570500689
 20
-43.9986819533
 30
0.0
 10
-70.4585926645
 20
-43.8571465465
 30
0.0
 10
-70.4627365364
 20
-43.6963675871
 30
0.0
 10
-70.4692835947
 20
-43.5219485619
 30
0.0
 10
-70.474981147
 20
-43.4017695437
 30
0.0
 10
-70.4781523225
 20
-43.3404067067
 30
0.0
  0
SPLINE
  5
355
100
AcDbEntity
  8
ASSI
100
AcDbSpline
 62
250
  6
CONTINUOUS
 70
0
 71
3
 72
9
 73
5
 74
0
 42
0.0000001
 43
0.0000001
 44
0.0000000001
 40
0.0
 40
0.0
 40
0.0
 40
0.0
 40
0.5637833222
 40
1.0
 40
1.0
 40
1.0
 40
1.0
 10
-68.0534233841
 20
26.9276792439
 30
0.0
 10
-68.036601827
 20
26.9572424755
 30
0.0
 10
-68.0055295474
 20
27.0089600021
 30
0.0
 10
-67.9716213132
 20
27.0589978903
 30
0.0
 10
-67.9552942356
 20
27.0796387634
 30
0.0
  0
SPLINE
  5
356
100
AcDbEntity
  8
ASSI
100
AcDbSpline
 62
250
  6
CONTINUOUS
 70
0
 71
3
 72
10
 73
6
 74
0
 42
0.0000001
 43
0.0000001
 44
0.0000000001
 40
0.0
 40
0.0
 40
0.0
 40
0.0
 40
0.6924460877
 40
0.8884016716
 40
1.0
 40
1.0
 40
1.0
 40
1.0
 10
-67.9552942356
 20
27.0796387634
 30
0.0
 10
-67.9471928652
 20
27.089880606
 30
0.0
 10
-67.9360737445
 20
27.1028525793
 30
0.0
 10
-67.9216484593
 20
27.1145299103
 30
0.0
 10
-67.9151468689
 20
27.1160059374
 30
0.0
 10
-67.9132897341
 20
27.1150157961
 30
0.0
  0
SPLINE
  5
357
100
AcDbEntity
  8
0
100
AcDbSpline
 62
250
  6
CONTINUOUS
 70
0
 71
3
 72
19
 73
15
 74
0
 42
0.0000001
 43
0.0000001
 44
0.0000000001
 40
0.0
 40
0.0
 40
0.0
 40
0.0
 40
0.1
 40
0.2
 40
0.25
 40
0.3
 40
0.4
 40
0.5
 40
0.6
 40
0.7
 40
0.75
 40
0.8
 40
0.9
 40
1.0
 40
1.0
 40
1.0
 40
1.0
 10
-72.3104766144
 20
-30.9665924606
 30
0.0
 10
-72.3219643213
 20
-30.966766778
 30
0.0
 10
-72.3442259425
 20
-30.9688109123
 30
0.0
 10
-72.3719668214
 20
-30.9752826391
 30
0.0
 10
-72.3936340144
 20
-30.9827594345
 30
0.0
 10
-72.4149757744
 20
-30.991811914
 30
0.0
 10
-72.4404224806
 20
-31.0058816416
 30
0.0
 10
-72.4689720967
 20
-31.0277121033
 30
0.0
 10
-72.4937122817
 20
-31.0542504701
 30
0.0
 10
-72.5106432639
 20
-31.0792467414
 30
0.0
 10
-72.5221615437
 20
-31.1009254272
 30
0.0
 10
-72.5321666484
 20
-31.1233891903
 30
0.0
 10
-72.5419129814
 20
-31.1530209703
 30
0.0
 10
-72.5465729269
 20
-31.1776757761
 30
0.0
 10
-72.5480752515
 20
-31.1906198896
 30
0.0
  0
SPLINE
  5
358
100
AcDbEntity
  8
0
100
AcDbSpline
 62
250
  6
CONTINUOUS
 70
0
 71
3
 72
16
 73
12
 74
0
 42
0.0000001
 43
0.0000001
 44
0.0000000001
 40
0.0
 40
0.0
 40
0.0
 40
0.0
 40
0.125
 40
0.25
 40
0.3125
 40
0.375
 40
0.5
 40
0.625
 40
0.75
 40
0.875
 40
1.0
 40
1.0
 40
1.0
 40
1.0
 10
-71.5369969547
 20
-31.0543291296
 30
0.0
 10
-71.5497381227
 20
-31.0591210119
 30
0.0
 10
-71.5734505849
 20
-31.0699213512
 30
0.0
 10
-71.6010702523
 20
-31.0869312726
 30
0.0
 10
-71.6212929136
 20
-31.1023486401
 30
0.0
 10
-71.6402941896
 20
-31.1190369749
 30
0.0
 10
-71.6611311241
 20
-31.1418315854
 30
0.0
 10
-71.6812076246
 20
-31.1727376034
 30
0.0
 10
-71.6948638119
 20
-31.2063880694
 30
0.0
 10
-71.7025057317
 20
-31.2407288936
 30
0.0
 10
-71.7041968843
 20
-31.2635934599
 30
0.0
 10
-71.7041968843
 20
-31.2755061485
 30
0.0
  0
SPLINE
  5
359
100
AcDbEntity
  8
0
100
AcDbSpline
 62
250
  6
CONTINUOUS
 70
0
 71
3
 72
12
 73
8
 74
0
 42
0.0000001
 43
0.0000001
 44
0.0000000001
 40
0.0
 40
0.0
 40
0.0
 40
0.0
 40
0.1666666667
 40
0.3333333333
 40
0.5
 40
0.6666666667
 40
1.0
 40
1.0
 40
1.0
 40
1.0
 10
-70.9607022218
 20
-30.8808429347
 30
0.0
 10
-70.9954379976
 20
-30.8908296097
 30
0.0
 10
-71.0639608918
 20
-30.9108910347
 30
0.0
 10
-71.1640631868
 20
-30.9403977304
 30
0.0
 10
-71.2618571808
 20
-30.9682803792
 30
0.0
 10
-71.38887278
 20
-31.0040962472
 30
0.0
 10
-71.4794128934
 20
-31.032689034
 30
0.0
 10
-71.5369570939
 20
-31.0543141626
 30
0.0
  0
SPLINE
  5
35A
100
AcDbEntity
  8
0
100
AcDbSpline
 62
250
  6
CONTINUOUS
 70
0
 71
3
 72
10
 73
6
 74
0
 42
0.0000001
 43
0.0000001
 44
0.0000000001
 40
0.0
 40
0.0
 40
0.0
 40
0.0
 40
0.3333333333
 40
0.6666666667
 40
1.0
 40
1.0
 40
1.0
 40
1.0
 10
-71.474869188
 20
-30.6349473604
 30
0.0
 10
-71.4159278285
 20
-30.6188892902
 30
0.0
 10
-71.2991252147
 20
-30.587912854
 30
0.0
 10
-71.1276632959
 20
-30.5433507383
 30
0.0
 10
-71.0158190252
 20
-30.5143560173
 30
0.0
 10
-70.9607022218
 20
-30.4993864496
 30
0.0
  0
SPLINE
  5
35B
100
AcDbEntity
  8
0
100
AcDbSpline
 62
250
  6
CONTINUOUS
 70
0
 71
3
 72
12
 73
8
 74
0
 42
0.0000001
 43
0.0000001
 44
0.0000000001
 40
0.0
 40
0.0
 40
0.0
 40
0.0
 40
0.3333333333
 40
0.5
 40
0.6666666667
 40
0.8333333333
 40
1.0
 40
1.0
 40
1.0
 40
1.0
 10
-72.5480752513
 20
-31.1906198897
 30
0.0
 10
-72.5520310397
 20
-31.2247031861
 30
0.0
 10
-72.5553390277
 20
-31.2760351048
 30
0.0
 10
-72.5545819301
 20
-31.3446469132
 30
0.0
 10
-72.5514279403
 20
-31.3963465432
 30
0.0
 10
-72.5454505871
 20
-31.4486332572
 30
0.0
 10
-72.5399006456
 20
-31.4836469553
 30
0.0
 10
-72.536890391
 20
-31.5012884969
 30
0.0
  0
SPLINE
  5
35C
100
AcDbEntity
  8
0
100
AcDbSpline
 62
250
  6
CONTINUOUS
 70
0
 71
3
 72
15
 73
11
 74
0
 42
0.0000001
 43
0.0000001
 44
0.0000000001
 40
0.0
 40
0.0
 40
0.0
 40
0.0
 40
0.1666666667
 40
0.3333333333
 40
0.5
 40
0.5833333333
 40
0.6666666667
 40
0.75
 40
0.8333333333
 40
1.0
 40
1.0
 40
1.0
 40
1.0
 10
-72.0153457035
 20
-31.2746513441
 30
0.0
 10
-72.0160429765
 20
-31.243433514
 30
0.0
 10
-72.0219706904
 20
-31.1854781707
 30
0.0
 10
-72.0432908222
 20
-31.1135922955
 30
0.0
 10
-72.0743902172
 20
-31.062212285
 30
0.0
 10
-72.1109210582
 20
-31.0283093724
 30
0.0
 10
-72.1432791653
 20
-31.0068690982
 30
0.0
 10
-72.1790405156
 20
-30.9898520087
 30
0.0
 10
-72.2322353617
 20
-30.9724933524
 30
0.0
 10
-72.2776573878
 20
-30.9660914132
 30
0.0
 10
-72.3105287632
 20
-30.9665932672
 30
0.0
  0
SPLINE
  5
35D
100
AcDbEntity
  8
0
100
AcDbSpline
 62
250
  6
CONTINUOUS
 70
0
 71
3
 72
16
 73
12
 74
0
 42
0.0000001
 43
0.0000001
 44
0.0000000001
 40
0.0
 40
0.0
 40
0.0
 40
0.0
 40
0.1111111111
 40
0.2222222222
 40
0.3333333333
 40
0.4444444444
 40
0.5555555556
 40
0.6666666667
 40
0.7777777778
 40
0.8888888889
 40
1.0
 40
1.0
 40
1.0
 40
1.0
 10
-71.8475333436
 20
-30.8635473914
 30
0.0
 10
-71.8415216393
 20
-30.8484710171
 30
0.0
 10
-71.826324928
 20
-30.8202676794
 30
0.0
 10
-71.7946195465
 20
-30.7824715727
 30
0.0
 10
-71.7577741131
 20
-30.7509354429
 30
0.0
 10
-71.7173009453
 20
-30.7242522616
 30
0.0
 10
-71.6754625435
 20
-30.7021340274
 30
0.0
 10
-71.6313313467
 20
-30.68290862
 30
0.0
 10
-71.584156214
 20
-30.6658164885
 30
0.0
 10
-71.5327695345
 20
-30.6504289433
 30
0.0
 10
-71.4946683638
 20
-30.6403414771
 30
0.0
 10
-71.4748691879
 20
-30.6349473606
 30
0.0
  0
SPLINE
  5
35E
100
AcDbEntity
  8
0
100
AcDbSpline
 62
250
  6
CONTINUOUS
 70
0
 71
3
 72
34
 73
30
 74
0
 42
0.0000001
 43
0.0000001
 44
0.0000000001
 40
0.0
 40
0.0
 40
0.0
 40
0.0
 40
0.0277777778
 40
0.0555555556
 40
0.0833333333
 40
0.1111111111
 40
0.1388888889
 40
0.1666666667
 40
0.1944444444
 40
0.2222222222
 40
0.25
 40
0.2777777778
 40
0.3333333333
 40
0.3888888889
 40
0.4444444444
 40
0.5
 40
0.5555555556
 40
0.6111111111
 40
0.6666666667
 40
0.7222222222
 40
0.7777777778
 40
0.8055555556
 40
0.8333333333
 40
0.8611111111
 40
0.8888888889
 40
0.9166666667
 40
0.9444444444
 40
0.9722222222
 40
1.0
 40
1.0
 40
1.0
 40
1.0
 10
-72.8183490024
 20
-30.9044355375
 30
0.0
 10
-72.8132858554
 20
-30.8904006172
 30
0.0
 10
-72.8009637772
 20
-30.8628007173
 30
0.0
 10
-72.7761073792
 20
-30.8215464562
 30
0.0
 10
-72.7446824799
 20
-30.7794165489
 30
0.0
 10
-72.7078610665
 20
-30.7396140191
 30
0.0
 10
-72.6663025017
 20
-30.7035426851
 30
0.0
 10
-72.6207419544
 20
-30.6720507669
 30
0.0
 10
-72.5721423383
 20
-30.6457118259
 30
0.0
 10
-72.5220335829
 20
-30.6253107561
 30
0.0
 10
-72.473579547
 20
-30.6110731221
 30
0.0
 10
-72.4102769688
 20
-30.5985754054
 30
0.0
 10
-72.3373412472
 20
-30.5930444166
 30
0.0
 10
-72.2591445464
 20
-30.5967783865
 30
0.0
 10
-72.1891606275
 20
-30.609055895
 30
0.0
 10
-72.1279493006
 20
-30.6276211252
 30
0.0
 10
-72.0747325043
 20
-30.6505161815
 30
0.0
 10
-72.0289297453
 20
-30.6761887229
 30
0.0
 10
-71.989997855
 20
-30.7035283456
 30
0.0
 10
-71.957303763
 20
-30.7319422449
 30
0.0
 10
-71.934357955
 20
-30.7553450394
 30
0.0
 10
-71.9178882551
 20
-30.7734813909
 30
0.0
 10
-71.9063227333
 20
-30.786766767
 30
0.0
 10
-71.8955457518
 20
-30.7995876573
 30
0.0
 10
-71.8852709012
 20
-30.8119990475
 30
0.0
 10
-71.8754844255
 20
-30.8246561563
 30
0.0
 10
-71.867361275
 20
-30.8374014042
 30
0.0
 10
-71.8614901004
 20
-30.8502632268
 30
0.0
 10
-71.8593336339
 20
-30.8590999878
 30
0.0
 10
-71.8587597753
 20
-30.8635473914
 30
0.0
  0
SPLINE
  5
35F
100
AcDbEntity
  8
0
100
AcDbSpline
 62
250
  6
CONTINUOUS
 70
0
 71
3
 72
15
 73
11
 74
0
 42
0.0000001
 43
0.0000001
 44
0.0000000001
 40
0.0
 40
0.0
 40
0.0
 40
0.0
 40
0.125
 40
0.25
 40
0.375
 40
0.5
 40
0.625
 40
0.75
 40
0.875
 40
1.0
 40
1.0
 40
1.0
 40
1.0
 10
-72.8383514265
 20
-31.8831153973
 30
0.0
 10
-72.8455473757
 20
-31.8342023019
 30
0.0
 10
-72.8588818321
 20
-31.739697139
 30
0.0
 10
-72.8739628628
 20
-31.609021909
 30
0.0
 10
-72.8837234813
 20
-31.485230961
 30
0.0
 10
-72.8875515027
 20
-31.366095745
 30
0.0
 10
-72.884565814
 20
-31.2485933874
 30
0.0
 10
-72.873452375
 20
-31.1321277884
 30
0.0
 10
-72.8527045955
 20
-31.0169937319
 30
0.0
 10
-72.8317358482
 20
-30.9414897671
 30
0.0
 10
-72.8183490024
 20
-30.9044355375
 30
0.0
  0
ELLIPSE
  5
360
100
AcDbEntity
  8
0
100
AcDbEllipse
 62
7
  6
CONTINUOUS
 10
-66.1791959678
 20
-26.079798695
 30
0.0
 11
0.1417119467
 21
0.1422961243
 31
0.0
 40
0.9918061237
 41
-0.2491986107
 42
0.7350951877
  0
ELLIPSE
  5
361
100
AcDbEntity
  8
0
100
AcDbEllipse
 62
7
  6
CONTINUOUS
 10
-66.1791959678
 20
26.079798695
 30
0.0
 11
-0.1417119467
 21
0.1422961243
 31
0.0
 40
0.9918061237
 41
-3.8766878413
 42
-2.8923940429
  0
ELLIPSE
  5
362
100
AcDbEntity
  8
0
100
AcDbEllipse
 62
7
  6
CONTINUOUS
 10
-69.2558871366
 20
-43.3
 30
0.0
 11
1.2233088312
 21
-0.0
 31
0.0
 40
0.7998095528
 41
-3.1415926536
 42
-3.1002827401
  0
ELLIPSE
  5
363
100
AcDbEntity
  8
0
100
AcDbEllipse
 62
7
  6
CONTINUOUS
 10
-69.2558871366
 20
43.3
 30
0.0
 11
1.2233088312
 21
0.0
 31
0.0
 40
0.7998095528
 41
3.1002827401
 42
3.1415926536
  0
ELLIPSE
  5
364
100
AcDbEntity
  8
ASSI
100
AcDbEllipse
 62
7
  6
CONTINUOUS
 10
-66.1791959678
 20
-26.079798695
 30
0.0
 11
0.1417119467
 21
0.1422961243
 31
0.0
 40
0.9918061237
 41
-0.2491986107
 42
0.7350951877
  0
ELLIPSE
  5
365
100
AcDbEntity
  8
ASSI
100
AcDbEllipse
 62
7
  6
CONTINUOUS
 10
-66.1791959678
 20
26.079798695
 30
0.0
 11
-0.1417119467
 21
0.1422961243
 31
0.0
 40
0.9918061237
 41
-3.8766878413
 42
-2.8923940429
  0
ELLIPSE
  5
366
100
AcDbEntity
  8
ASSI
100
AcDbEllipse
 62
7
  6
CONTINUOUS
 10
-69.2558871366
 20
-43.3
 30
0.0
 11
1.2233088312
 21
-0.0
 31
0.0
 40
0.7998095528
 41
-3.1415926536
 42
-3.1002827401
  0
ELLIPSE
  5
367
100
AcDbEntity
  8
ASSI
100
AcDbEllipse
 62
7
  6
CONTINUOUS
 10
-69.2558871366
 20
43.3
 30
0.0
 11
1.2233088312
 21
0.0
 31
0.0
 40
0.7998095528
 41
3.1002827401
 42
3.1415926536
  0
ENDSEC
  0
SECTION
  2
OBJECTS
  0
DICTIONARY
  5
C
100
AcDbDictionary
280
0
281
1
  3
ACAD_GROUP
350
D
  3
ACAD_MLINESTYLE
350
17
  3
ACAD_LAYOUT
350
1A
  3
ACAD_PLOTSETTINGS
350
19
  3
ACAD_PLOTSTYLENAME
350
E
  0
DICTIONARY
  5
D
102
{ACAD_REACTORS
330
C
102
}
100
AcDbDictionary
280
0
281
1
  0
ACDBDICTIONARYWDFLT
  5
E
102
{ACAD_REACTORS
330
C
102
}
100
AcDbDictionary
281
1
  3
Normal
350
F
100
AcDbDictionaryWithDefault
340
F
  0
DICTIONARY
  5
17
102
{ACAD_REACTORS
330
C
102
}
100
AcDbDictionary
280
0
281
1
  3
Standard
350
18
  0
DICTIONARY
  5
19
102
{ACAD_REACTORS
330
C
102
}
100
AcDbDictionary
281
1
  0
DICTIONARY
  5
1A
102
{ACAD_REACTORS
330
C
102
}
100
AcDbDictionary
281
1
  3
Model
350
368
  3
Layout1
350
369
  0
ACDBPLACEHOLDER
  5
F
102
{ACAD_REACTORS
330
E
102
}
  0
MLINESTYLE
  5
18
102
{ACAD_REACTORS
330
17
102
}
100
AcDbMlineStyle
  2
STANDARD
 70
0
  3

 62
256
 51
90.0
 52
90.0
 71
2
 49
0.5
 62
256
  6
BYLAYER
 49
-0.5
 62
256
  6
BYLAYER
  0
LAYOUT
  5
368
102
{ACAD_REACTORS
330
1A
102
}
100
AcDbPlotSettings
  1

  2
none_device
  4
ISO_A4_(297.00_x_210.00_MM)
  6

 40
0.0
 41
0.0
 42
0.0
 43
0.0
 44
297.0
 45
210.0
 46
0.0
 47
0.0
 48
0.0
 49
0.0
140
0.0
141
0.0
142
1.0
143
1.0
 70
1024
 72
1
 73
0
 74
0
  7

 75
0
147
1.0
148
0.0
149
0.0
100
AcDbLayout
  1
Model
 70
0
 71
0
 10
0.0
 20
0.0
 11
297.0
 21
210.0
 12
0.0
 22
0.0
 32
0.0
 14
0.0
 24
0.0
 34
0.0
 15
0.0
 25
0.0
 35
0.0
146
0.0
 13
0.0
 23
0.0
 33
0.0
 16
1.0
 26
0.0
 36
0.0
 17
0.0
 27
1.0
 37
0.0
 76
0
330
21D
345
0
346
0
  0
LAYOUT
  5
369
102
{ACAD_REACTORS
330
1A
102
}
100
AcDbPlotSettings
  1

  2
none_device
  4
ISO_A4_(297.00_x_210.00_MM)
  6

 40
0.0
 41
0.0
 42
0.0
 43
0.0
 44
297.0
 45
210.0
 46
0.0
 47
0.0
 48
0.0
 49
0.0
140
0.0
141
0.0
142
1.0
143
1.0
 70
0
 72
1
 73
0
 74
0
  7

 75
0
147
1.0
148
0.0
149
0.0
100
AcDbLayout
  1
Layout1
 70
0
 71
1
 10
0.0
 20
0.0
 11
297.0
 21
210.0
 12
0.0
 22
0.0
 32
0.0
 14
0.0
 24
0.0
 34
0.0
 15
0.0
 25
0.0
 35
0.0
146
0.0
 13
0.0
 23
0.0
 33
0.0
 16
1.0
 26
0.0
 36
0.0
 17
0.0
 27
1.0
 37
0.0
 76
0
330
21E
345
0
346
0
  0
ENDSEC
  0
EOF
