  0
SECTION
  2
HEADER
  9
$ACADVER
  1
AC1024
  9
$DWGCODEPAGE
  3
ANSI_1252
  9
$EXTMAX
 10
297.0
 20
210.0
 30
0.0
  9
$EXTMIN
 10
0.0
 20
0.0
 30
0.0
  9
$LIMMIN
 10
0.0
 20
0.0
  9
$LIMMAX
 10
297.0
 20
210.0
  9
$VIEWCTR
 10
148.5
 20
105.0
  9
$VIEWSIZE
 40
210.0
  9
$CLAYER
  8
0
  9
$LTSCALE
 40
16.335
  9
$CELTYPE
  6
BYLAYER
  9
$DIMSCALE
 40
1.0
  9
$DIMASZ
 40
3.0
  9
$DIMEXO
 40
0.5
  9
$DIMDLI
 40
11.286
  9
$DIMEXE
 40
1.5
  9
$DIMCEN
 40
2.673
  9
$DIMLFAC
 40
1.0
  9
$DIMBLK
  1
_FILLED
  9
$DIMALT
 70
0
  9
$DIMALTF
 40
0.0393700787
  9
$DIMTXT
 40
3.0
  9
$DIMTOL
 70
1
  9
$DIMLIM
 70
0
  9
$DIMTFAC
 40
1.0
  9
$DIMTP
 40
0.01
  9
$DIMTM
 40
0.01
  9
$DIMGAP
 40
0.625
  9
$DIMDSEP
 70
44
  9
$AUNITS
 70
0
  9
$PDMODE
 70
3
  9
$PDSIZE
 40
3.0
  9
$HANDSEED
  5
359
  9
$TILEMODE
 70
1
  9
$MEASUREMENT
 70
1
  9
$INSUNITS
 70
4
  0
ENDSEC
  0
SECTION
  2
CLASSES
  0
CLASS
  1
ACDBDICTIONARYWDFLT
  2
AcDbDictionaryWithDefault
  3
AutoCAD 2000
 90
0
 91
1
280
0
281
0
  0
CLASS
  1
ACDBPLACEHOLDER
  2
AcDbPlaceHolder
  3
AutoCAD 2000
 90
0
 91
1
280
0
281
0
  0
CLASS
  1
LAYOUT
  2
AcDbLayout
  3
AutoCAD 2000
 90
0
 91
0
280
0
281
0
  0
ENDSEC
  0
SECTION
  2
TABLES
  0
TABLE
  2
VPORT
  5
8
100
AcDbSymbolTable
 70
2
  0
VPORT
  5
1F4
100
AcDbSymbolTableRecord
100
AcDbViewportTableRecord
  2
*ACTIVE
 70
0
 10
0.0
 20
0.0
 11
1.0
 21
1.0
 12
148.5
 22
105.0
 13
0.0
 23
0.0
 14
1.0
 24
1.0
 15
0.0
 25
0.0
 16
0.0
 26
0.0
 36
1.0
 17
0.0
 27
0.0
 37
0.0
 40
210.0
 41
1.4142857143
 42
50.0
 43
0.0
 44
0.0
 50
0.0
 51
0.0
 71
0
 72
100
 73
1
 74
1
 75
0
 76
0
 77
0
 78
0
  0
ENDTAB
  0
TABLE
  2
LTYPE
  5
5
100
AcDbSymbolTable
 70
6
  0
LTYPE
  5
14
100
AcDbSymbolTableRecord
100
AcDbLinetypeTableRecord
  2
BYBLOCK
 70
0
  3

 72
65
 73
0
 40
0.0
  0
LTYPE
  5
15
100
AcDbSymbolTableRecord
100
AcDbLinetypeTableRecord
  2
BYLAYER
 70
0
  3

 72
65
 73
0
 40
0.0
  0
LTYPE
  5
16
100
AcDbSymbolTableRecord
100
AcDbLinetypeTableRecord
  2
CONTINUOUS
 70
64
  3
Solid line
 72
65
 73
0
 40
0.0
  0
LTYPE
  5
1F5
100
AcDbSymbolTableRecord
100
AcDbLinetypeTableRecord
  2
CENTER
 70
64
  3
____ _ ____ _ ____ _ ____ _ ____ _ ____ _ ____
 72
65
 73
4
 40
0.6
 49
0.375
 74
0
 49
-0.075
 74
0
 49
0.075
 74
0
 49
-0.075
 74
0
  0
LTYPE
  5
1F6
100
AcDbSymbolTableRecord
100
AcDbLinetypeTableRecord
  2
HIDDEN
 70
64
  3
- - - - - - - - - - - - - - - - - - - -
 72
65
 73
2
 40
0.2
 49
0.1
 74
0
 49
-0.1
 74
0
  0
LTYPE
  5
1F7
100
AcDbSymbolTableRecord
100
AcDbLinetypeTableRecord
  2
PHANTOM
 70
64
  3
_____ _ _ _____ _ _ _____ _ _ _____
 72
65
 73
6
 40
0.8
 49
0.45
 74
0
 49
-0.05
 74
0
 49
0.1
 74
0
 49
-0.05
 74
0
 49
0.1
 74
0
 49
-0.05
 74
0
  0
LTYPE
  5
1F8
100
AcDbSymbolTableRecord
100
AcDbLinetypeTableRecord
  2
DOT
 70
64
  3
. . . . . . . . . . . . . . . . . . . .
 72
65
 73
2
 40
0.2
 49
0.1
 74
0
 49
-0.1
 74
0
  0
LTYPE
  5
1F9
100
AcDbSymbolTableRecord
100
AcDbLinetypeTableRecord
  2
DASHED
 70
64
  3
- - - - - - - - - - - - - - - - - - - -
 72
65
 73
2
 40
0.2
 49
0.1
 74
0
 49
-0.1
 74
0
  0
ENDTAB
  0
TABLE
  2
LAYER
  5
2
100
AcDbSymbolTable
 70
36
  0
LAYER
  5
10
100
AcDbSymbolTableRecord
100
AcDbLayerTableRecord
  2
0
 70
0
 62
7
  6
CONTINUOUS
370
-3
390
F
  0
LAYER
  5
1FA
100
AcDbSymbolTableRecord
100
AcDbLayerTableRecord
  2
DEFAULT_1
 70
0
 62
7
  6
CENTER
370
-3
390
F
  0
LAYER
  5
1FB
100
AcDbSymbolTableRecord
100
AcDbLayerTableRecord
  2
DEFAULT_2
 70
0
 62
7
  6
HIDDEN
370
-3
390
F
  0
LAYER
  5
1FC
100
AcDbSymbolTableRecord
100
AcDbLayerTableRecord
  2
DEFAULT_3
 70
0
 62
7
  6
PHANTOM
370
-3
390
F
  0
LAYER
  5
1FD
100
AcDbSymbolTableRecord
100
AcDbLayerTableRecord
  2
ASSI
 70
0
 62
7
  6
CONTINUOUS
370
-3
390
F
  0
LAYER
  5
1FE
100
AcDbSymbolTableRecord
100
AcDbLayerTableRecord
  2
COORDINATE
 70
0
 62
7
  6
CONTINUOUS
370
-3
390
F
  0
LAYER
  5
1FF
100
AcDbSymbolTableRecord
100
AcDbLayerTableRecord
  2
COORD_ORIGINE
 70
0
 62
7
  6
CONTINUOUS
370
-3
390
F
  0
LAYER
  5
200
100
AcDbSymbolTableRecord
100
AcDbLayerTableRecord
  2
COPY_PUBLISH
 70
0
 62
7
  6
CONTINUOUS
370
-3
390
F
  0
LAYER
  5
201
100
AcDbSymbolTableRecord
100
AcDbLayerTableRecord
  2
COSMETIC
 70
0
 62
7
  6
CONTINUOUS
370
-3
390
F
  0
LAYER
  5
202
100
AcDbSymbolTableRecord
100
AcDbLayerTableRecord
  2
COSMETICI
 70
0
 62
7
  6
CONTINUOUS
370
-3
390
F
  0
LAYER
  5
203
100
AcDbSymbolTableRecord
100
AcDbLayerTableRecord
  2
CURVE
 70
0
 62
7
  6
CONTINUOUS
370
-3
390
F
  0
LAYER
  5
204
100
AcDbSymbolTableRecord
100
AcDbLayerTableRecord
  2
CURVE_COSTRUZIONE
 70
0
 62
7
  6
CONTINUOUS
370
-3
390
F
  0
LAYER
  5
205
100
AcDbSymbolTableRecord
100
AcDbLayerTableRecord
  2
CURVE_TASSELLI
 70
0
 62
7
  6
CONTINUOUS
370
-3
390
F
  0
LAYER
  5
206
100
AcDbSymbolTableRecord
100
AcDbLayerTableRecord
  2
DRAFT
 70
0
 62
7
  6
CONTINUOUS
370
-3
390
F
  0
LAYER
  5
207
100
AcDbSymbolTableRecord
100
AcDbLayerTableRecord
  2
IMPORT_IGES
 70
0
 62
7
  6
CONTINUOUS
370
-3
390
F
  0
LAYER
  5
208
100
AcDbSymbolTableRecord
100
AcDbLayerTableRecord
  2
INTFCLR_2
 70
0
 62
7
  6
CONTINUOUS
370
-3
390
F
  0
LAYER
  5
209
100
AcDbSymbolTableRecord
100
AcDbLayerTableRecord
  2
INTF_1
 70
0
 62
7
  6
CONTINUOUS
370
-3
390
F
  0
LAYER
  5
20A
100
AcDbSymbolTableRecord
100
AcDbLayerTableRecord
  2
INTF_7
 70
0
 62
7
  6
CONTINUOUS
370
-3
390
F
  0
LAYER
  5
20B
100
AcDbSymbolTableRecord
100
AcDbLayerTableRecord
  2
INTF_CYAN
 70
0
 62
7
  6
CONTINUOUS
370
-3
390
F
  0
LAYER
  5
20C
100
AcDbSymbolTableRecord
100
AcDbLayerTableRecord
  2
NOTE
 70
0
 62
7
  6
CONTINUOUS
370
-3
390
F
  0
LAYER
  5
20D
100
AcDbSymbolTableRecord
100
AcDbLayerTableRecord
  2
PIANI
 70
0
 62
7
  6
CONTINUOUS
370
-3
390
F
  0
LAYER
  5
20E
100
AcDbSymbolTableRecord
100
AcDbLayerTableRecord
  2
PIANI_ORIGINE
 70
0
 62
7
  6
CONTINUOUS
370
-3
390
F
  0
LAYER
  5
20F
100
AcDbSymbolTableRecord
100
AcDbLayerTableRecord
  2
PIANI_RIFERIMENTO
 70
0
 62
7
  6
CONTINUOUS
370
-3
390
F
  0
LAYER
  5
210
100
AcDbSymbolTableRecord
100
AcDbLayerTableRecord
  2
PUNTI
 70
0
 62
7
  6
CONTINUOUS
370
-3
390
F
  0
LAYER
  5
211
100
AcDbSymbolTableRecord
100
AcDbLayerTableRecord
  2
RACCORDO
 70
0
 62
7
  6
CONTINUOUS
370
-3
390
F
  0
LAYER
  5
212
100
AcDbSymbolTableRecord
100
AcDbLayerTableRecord
  2
RGB__255__255__255__
 70
0
 62
7
  6
CONTINUOUS
370
-3
390
F
  0
LAYER
  5
213
100
AcDbSymbolTableRecord
100
AcDbLayerTableRecord
  2
RGB____0____0____0__
 70
0
 62
7
  6
CONTINUOUS
370
-3
390
F
  0
LAYER
  5
214
100
AcDbSymbolTableRecord
100
AcDbLayerTableRecord
  2
SIMBOLI
 70
0
 62
7
  6
CONTINUOUS
370
-3
390
F
  0
LAYER
  5
215
100
AcDbSymbolTableRecord
100
AcDbLayerTableRecord
  2
SMUSSO
 70
0
 62
7
  6
CONTINUOUS
370
-3
390
F
  0
LAYER
  5
216
100
AcDbSymbolTableRecord
100
AcDbLayerTableRecord
  2
SNAPLINE
 70
0
 62
7
  6
CONTINUOUS
370
-3
390
F
  0
LAYER
  5
217
100
AcDbSymbolTableRecord
100
AcDbLayerTableRecord
  2
SUPERFICI
 70
0
 62
7
  6
CONTINUOUS
370
-3
390
F
  0
LAYER
  5
218
100
AcDbSymbolTableRecord
100
AcDbLayerTableRecord
  2
TRASH
 70
0
 62
7
  6
CONTINUOUS
370
-3
390
F
  0
LAYER
  5
219
100
AcDbSymbolTableRecord
100
AcDbLayerTableRecord
  2
WHITE
 70
0
 62
7
  6
CONTINUOUS
370
-3
390
F
  0
LAYER
  5
21A
100
AcDbSymbolTableRecord
100
AcDbLayerTableRecord
  2
XSEC_DATUMS
 70
0
 62
7
  6
CONTINUOUS
370
-3
390
F
  0
ENDTAB
  0
TABLE
  2
STYLE
  5
3
100
AcDbSymbolTable
 70
1
  0
STYLE
  5
11
100
AcDbSymbolTableRecord
100
AcDbTextStyleTableRecord
  2
STANDARD
 70
0
 40
0.0
 41
0.8
 50
0.0
 71
0
 42
0.2
  3
txt
  4

  0
STYLE
  5
21B
100
AcDbSymbolTableRecord
100
AcDbTextStyleTableRecord
  2
TEXTSTYLE_1
 70
0
 40
0.0
 41
0.8
 50
0.0
 71
0
 42
0.2
  3
gdt
  4

  0
ENDTAB
  0
TABLE
  2
VIEW
  5
6
100
AcDbSymbolTable
 70
0
  0
ENDTAB
  0
TABLE
  2
UCS
  5
7
100
AcDbSymbolTable
 70
0
  0
ENDTAB
  0
TABLE
  2
APPID
  5
9
100
AcDbSymbolTable
 70
1
  0
APPID
  5
21C
100
AcDbSymbolTableRecord
100
AcDbRegAppTableRecord
  2
ACAD
 70
0
  0
ENDTAB
  0
TABLE
  2
BLOCK_RECORD
  5
1
100
AcDbSymbolTable
 70
0
  0
BLOCK_RECORD
  5
21D
100
AcDbSymbolTableRecord
100
AcDbBlockTableRecord
  2
*Model_Space
  0
BLOCK_RECORD
  5
21E
100
AcDbSymbolTableRecord
100
AcDbBlockTableRecord
  2
*Paper_Space
  0
BLOCK_RECORD
  5
21F
100
AcDbSymbolTableRecord
100
AcDbBlockTableRecord
  2
_FILLED
  0
BLOCK_RECORD
  5
220
100
AcDbSymbolTableRecord
100
AcDbBlockTableRecord
  2
*D0
  0
BLOCK_RECORD
  5
221
100
AcDbSymbolTableRecord
100
AcDbBlockTableRecord
  2
*D1
  0
BLOCK_RECORD
  5
222
100
AcDbSymbolTableRecord
100
AcDbBlockTableRecord
  2
*D2
  0
BLOCK_RECORD
  5
223
100
AcDbSymbolTableRecord
100
AcDbBlockTableRecord
  2
*D3
  0
ENDTAB
  0
TABLE
  2
DIMSTYLE
  5
A
100
AcDbSymbolTable
 70
1
100
AcDbDimStyleTable
 71
0
  0
DIMSTYLE
105
224
100
AcDbSymbolTableRecord
100
AcDbDimStyleTableRecord
  2
STANDARD
 70
0
  3

  4

 40
1.0
 41
3.0
 42
0.5
 43
0.38
 44
1.5
 45
0.0
 46
0.0
 47
0.01
 48
0.01
140
3.0
141
0.09
142
0.0
143
25.4
144
1.0
145
0.0
146
1.0
147
0.625
 71
1
 72
0
 73
0
 74
0
 75
0
 76
0
 77
1
 78
8
 79
2
170
0
171
1
172
0
173
0
174
0
175
0
176
0
177
0
178
0
270
2
179
2
271
2
272
2
273
2
274
2
275
0
280
0
281
0
282
0
283
1
284
8
285
0
286
0
287
3
288
0
340
11
278
44
341
21F
342
21F
343
21F
344
21F
  0
DIMSTYLE
105
225
100
AcDbSymbolTableRecord
100
AcDbDimStyleTableRecord
  2
DIMSTYLE_1
 70
0
  3

  4

 40
1.0
 41
3.0
 42
0.5
 43
0.38
 44
1.5
 45
0.0
 46
0.0
 47
0.0
 48
0.0
140
3.0
141
0.09
142
0.0
143
25.4
144
1.0
145
0.0
146
1.0
147
0.75
 71
0
 72
0
 73
0
 74
0
 75
0
 76
0
 77
1
 78
8
 79
2
170
0
171
1
172
0
173
0
174
0
175
0
176
0
177
0
178
0
270
2
179
2
271
2
272
2
273
2
274
2
275
0
280
0
281
0
282
0
283
1
284
8
285
0
286
0
287
3
288
0
340
11
278
44
341
21F
342
21F
343
21F
344
21F
  0
ENDTAB
  0
ENDSEC
  0
SECTION
  2
BLOCKS
  0
BLOCK
  5
20
100
AcDbEntity
  8
0
100
AcDbBlockBegin
  2
*Model_Space
 70
0
 10
0.0
 20
0.0
 30
0.0
  3
*Model_Space
  1

  0
ENDBLK
  5
21
100
AcDbEntity
  8
0
100
AcDbBlockEnd
  0
BLOCK
  5
1C
100
AcDbEntity
  8
0
100
AcDbBlockBegin
  2
*Paper_Space
 70
0
 10
0.0
 20
0.0
 30
0.0
  3
*Paper_Space
  1

  0
ENDBLK
  5
1D
100
AcDbEntity
  8
0
100
AcDbBlockEnd
  0
BLOCK
  5
226
100
AcDbEntity
  8
0
100
AcDbBlockBegin
  2
_FILLED
 70
64
 10
0.0
 20
0.0
  3
_FILLED
  1

  0
SOLID
  5
227
100
AcDbEntity
  8
0
  6
BYBLOCK
 62
0
100
AcDbTrace
 10
0.0
 20
0.0
 11
-1.0
 21
0.3166666667
 12
-1.0
 22
-0.3166666667
 13
-1.0
 23
-0.3166666667
  0
ENDBLK
  5
228
100
AcDbEntity
  8
0
  6
BYBLOCK
 62
0
100
AcDbBlockEnd
  0
BLOCK
  5
229
100
AcDbEntity
  8
0
100
AcDbBlockBegin
 62
7
  6
CONTINUOUS
  2
*D0
 70
65
 10
0.0
 20
0.0
  3
*D0
  1

  0
MTEXT
  5
22A
100
AcDbEntity
  8
0
100
AcDbMText
 62
7
  6
CONTINUOUS
  7
STANDARD
 71
1
 72
1
 10
-65.9436456245
 20
58.7499999991
 30
0.0
 11
1.0
 21
0.0
 31
0.0
 73
2
 44
0.9
  1
{\ftxt;\W0.0001;\H0.0001;\~}{\ftxt;\W2.7857142857;\H3.0; }{\ftxt;\W0.0001;\H0.0001;\~}
 40
3.0
 41
12.5357142857
  0
LINE
  5
22B
100
AcDbEntity
  8
0
100
AcDbLine
 62
7
  6
CONTINUOUS
 10
-77.8984405597
 20
44.5
 11
-77.8984405597
 21
56.4999999991
  0
LINE
  5
22C
100
AcDbEntity
  8
0
100
AcDbLine
 62
7
  6
CONTINUOUS
 10
-70.3484405597
 20
43.5383103281
 11
-70.3484405597
 21
56.4999999991
  0
LINE
  5
22D
100
AcDbEntity
  8
0
100
AcDbLine
 62
7
  6
CONTINUOUS
 10
-77.8984405597
 20
54.9999999991
 11
-74.1234405597
 21
54.9999999991
  0
LINE
  5
22E
100
AcDbEntity
  8
0
100
AcDbLine
 62
7
  6
CONTINUOUS
 10
-70.3484405597
 20
54.9999999991
 11
-74.1234405597
 21
54.9999999991
  0
LINE
  5
22F
100
AcDbEntity
  8
0
100
AcDbLine
 62
7
  6
CONTINUOUS
 10
-74.1234405597
 20
54.9999999991
 11
-57.5865027674
 21
54.9999999991
  0
INSERT
  5
230
100
AcDbEntity
  8
0
100
AcDbBlockReference
 62
7
  6
CONTINUOUS
  2
_FILLED
 10
-77.8984405597
 20
54.9999999991
 41
3.0
 42
3.0
 43
3.0
 50
180.0
  0
INSERT
  5
231
100
AcDbEntity
  8
0
100
AcDbBlockReference
 62
7
  6
CONTINUOUS
  2
_FILLED
 10
-70.3484405597
 20
54.9999999991
 41
3.0
 42
3.0
 43
3.0
  0
ENDBLK
  5
232
100
AcDbEntity
  8
0
  6
BYBLOCK
 62
0
100
AcDbBlockEnd
  0
BLOCK
  5
233
100
AcDbEntity
  8
0
100
AcDbBlockBegin
 62
7
  6
CONTINUOUS
  2
*D1
 70
65
 10
0.0
 20
0.0
  3
*D1
  1

  0
MTEXT
  5
234
100
AcDbEntity
  8
0
100
AcDbMText
 62
7
  6
CONTINUOUS
  7
STANDARD
 71
1
 72
1
 10
-66.7147443509
 20
66.7499999991
 30
0.0
 11
1.0
 21
0.0
 31
0.0
 73
2
 44
0.9
  1
{\ftxt;\W0.0001;\H0.0001;\~}{\ftxt;\W3.3571428571;\H3.0; }{\ftxt;\W0.0001;\H0.0001;\~}
 40
3.0
 41
15.1071428571
  0
LINE
  5
235
100
AcDbEntity
  8
0
100
AcDbLine
 62
7
  6
CONTINUOUS
 10
-77.8984405597
 20
44.5
 11
-77.8984405597
 21
64.4999999991
  0
LINE
  5
236
100
AcDbEntity
  8
0
100
AcDbLine
 62
7
  6
CONTINUOUS
 10
-67.3484405597
 20
26.5463167932
 11
-67.3484405597
 21
64.4999999991
  0
LINE
  5
237
100
AcDbEntity
  8
0
100
AcDbLine
 62
7
  6
CONTINUOUS
 10
-77.8984405597
 20
62.9999999991
 11
-72.6234405597
 21
62.9999999991
  0
LINE
  5
238
100
AcDbEntity
  8
0
100
AcDbLine
 62
7
  6
CONTINUOUS
 10
-67.3484405597
 20
62.9999999991
 11
-72.6234405597
 21
62.9999999991
  0
LINE
  5
239
100
AcDbEntity
  8
0
100
AcDbLine
 62
7
  6
CONTINUOUS
 10
-72.6234405597
 20
62.9999999991
 11
-56.6433157795
 21
62.9999999991
  0
INSERT
  5
23A
100
AcDbEntity
  8
0
100
AcDbBlockReference
 62
7
  6
CONTINUOUS
  2
_FILLED
 10
-77.8984405597
 20
62.9999999991
 41
3.0
 42
3.0
 43
3.0
 50
180.0
  0
INSERT
  5
23B
100
AcDbEntity
  8
0
100
AcDbBlockReference
 62
7
  6
CONTINUOUS
  2
_FILLED
 10
-67.3484405597
 20
62.9999999991
 41
3.0
 42
3.0
 43
3.0
  0
ENDBLK
  5
23C
100
AcDbEntity
  8
0
  6
BYBLOCK
 62
0
100
AcDbBlockEnd
  0
BLOCK
  5
23D
100
AcDbEntity
  8
0
100
AcDbBlockBegin
 62
7
  6
CONTINUOUS
  2
*D2
 70
65
 10
0.0
 20
0.0
  3
*D2
  1

  0
MTEXT
  5
23E
100
AcDbEntity
  8
0
100
AcDbMText
 62
7
  6
CONTINUOUS
  7
STANDARD
 71
2
 72
1
 10
-0.0500000004
 20
58.7499999991
 30
0.0
 11
1.0
 21
0.0
 31
0.0
 73
2
 44
0.9
  1
{\ftxt;\W0.0001;\H0.0001;\~}{\ftxt;\W1.5714285714;\H3.0; }{\ftxt;\W0.0001;\H0.0001;\~}
 40
3.0
 41
7.0714285714
  0
LINE
  5
23F
100
AcDbEntity
  8
0
100
AcDbLine
 62
7
  6
CONTINUOUS
 10
-45.0500000004
 20
44.5
 11
-45.0500000004
 21
56.4999999991
  0
LINE
  5
240
100
AcDbEntity
  8
0
100
AcDbLine
 62
7
  6
CONTINUOUS
 10
44.9499999996
 20
44.5
 11
44.9499999996
 21
56.4999999991
  0
LINE
  5
241
100
AcDbEntity
  8
0
100
AcDbLine
 62
7
  6
CONTINUOUS
 10
-45.0500000004
 20
54.9999999991
 11
-0.0500000004
 21
54.9999999991
  0
LINE
  5
242
100
AcDbEntity
  8
0
100
AcDbLine
 62
7
  6
CONTINUOUS
 10
44.9499999996
 20
54.9999999991
 11
-0.0500000004
 21
54.9999999991
  0
INSERT
  5
243
100
AcDbEntity
  8
0
100
AcDbBlockReference
 62
7
  6
CONTINUOUS
  2
_FILLED
 10
-45.0500000004
 20
54.9999999991
 41
3.0
 42
3.0
 43
3.0
 50
180.0
  0
INSERT
  5
244
100
AcDbEntity
  8
0
100
AcDbBlockReference
 62
7
  6
CONTINUOUS
  2
_FILLED
 10
44.9499999996
 20
54.9999999991
 41
3.0
 42
3.0
 43
3.0
  0
ENDBLK
  5
245
100
AcDbEntity
  8
0
  6
BYBLOCK
 62
0
100
AcDbBlockEnd
  0
BLOCK
  5
246
100
AcDbEntity
  8
0
100
AcDbBlockBegin
 62
7
  6
CONTINUOUS
  2
*D3
 70
65
 10
0.0
 20
0.0
  3
*D3
  1

  0
MTEXT
  5
247
100
AcDbEntity
  8
0
100
AcDbMText
 62
7
  6
CONTINUOUS
  7
STANDARD
 71
2
 72
1
 10
51.2999999996
 20
0.0
 30
0.0
 11
0.0
 21
1.0
 31
0.0
 73
2
 44
0.9
  1
{\ftxt;\W0.0001;\H0.0001;\~}{\ftxt;\W1.5714285714;\H3.0; }{\ftxt;\W0.0001;\H0.0001;\~}
 40
3.0
 41
7.0714285714
  0
LINE
  5
248
100
AcDbEntity
  8
0
100
AcDbLine
 62
7
  6
CONTINUOUS
 10
44.4499999996
 20
45.0
 11
56.5499999996
 21
45.0
  0
LINE
  5
249
100
AcDbEntity
  8
0
100
AcDbLine
 62
7
  6
CONTINUOUS
 10
44.4499999996
 20
-45.0
 11
56.5499999996
 21
-45.0
  0
LINE
  5
24A
100
AcDbEntity
  8
0
100
AcDbLine
 62
7
  6
CONTINUOUS
 10
55.0499999996
 20
45.0
 11
55.0499999996
 21
0.0
  0
LINE
  5
24B
100
AcDbEntity
  8
0
100
AcDbLine
 62
7
  6
CONTINUOUS
 10
55.0499999996
 20
-45.0
 11
55.0499999996
 21
0.0
  0
INSERT
  5
24C
100
AcDbEntity
  8
0
100
AcDbBlockReference
 62
7
  6
CONTINUOUS
  2
_FILLED
 10
55.0499999996
 20
45.0
 41
3.0
 42
3.0
 43
3.0
 50
90.0
  0
INSERT
  5
24D
100
AcDbEntity
  8
0
100
AcDbBlockReference
 62
7
  6
CONTINUOUS
  2
_FILLED
 10
55.0499999996
 20
-45.0
 41
3.0
 42
3.0
 43
3.0
 50
270.0
  0
ENDBLK
  5
24E
100
AcDbEntity
  8
0
  6
BYBLOCK
 62
0
100
AcDbBlockEnd
  0
ENDSEC
  0
SECTION
  2
ENTITIES
  0
DIMENSION
  5
24F
100
AcDbEntity
  8
0
100
AcDbDimension
 62
7
  6
CONTINUOUS
  2
*D0
 10
-70.3484405597
 20
54.9999999991
 11
-62.1936449203
 21
54.9999999991
 70
160
 71
1
 72
2
 41
0.9
 42
7.55
  1
{\ftxt;\W0.0001;\H0.0001;\~}{\ftxt;\W2.7857142857;\H3.0; }{\ftxt;\W0.0001;\H0.0001;\~}
  3
DIMSTYLE_1
100
AcDbAlignedDimension
 13
-77.8984405597
 23
44.0
 14
-70.3484405597
 24
43.0383103281
100
AcDbRotatedDimension
  0
DIMENSION
  5
250
100
AcDbEntity
  8
0
100
AcDbDimension
 62
7
  6
CONTINUOUS
  2
*D1
 10
-67.3484405597
 20
62.9999999991
 11
-62.1076007538
 21
62.9999999991
 70
160
 71
1
 72
2
 41
0.9
 42
10.55
  1
{\ftxt;\W0.0001;\H0.0001;\~}{\ftxt;\W3.3571428571;\H3.0; }{\ftxt;\W0.0001;\H0.0001;\~}
  3
DIMSTYLE_1
100
AcDbAlignedDimension
 13
-77.8984405597
 23
44.0
 14
-67.3484405597
 24
26.0463167932
100
AcDbRotatedDimension
  0
DIMENSION
  5
251
100
AcDbEntity
  8
0
100
AcDbDimension
 62
7
  6
CONTINUOUS
  2
*D2
 10
44.9499999996
 20
54.9999999991
 11
-0.4785714633
 21
54.9999999991
 70
160
 71
2
 72
2
 41
0.9
 42
90.0
  1
{\ftxt;\W0.0001;\H0.0001;\~}{\ftxt;\W1.5714285714;\H3.0; }{\ftxt;\W0.0001;\H0.0001;\~}
  3
DIMSTYLE_1
100
AcDbAlignedDimension
 13
-45.0500000004
 23
44.0
 14
44.9499999996
 24
44.0
100
AcDbRotatedDimension
  0
DIMENSION
  5
252
100
AcDbEntity
  8
0
100
AcDbDimension
 62
7
  6
CONTINUOUS
  2
*D3
 10
55.0499999996
 20
-45.0
 11
55.0499999996
 21
-0.4285727197
 70
160
 71
2
 72
2
 41
0.9
 42
90.0
  1
{\ftxt;\W0.0001;\H0.0001;\~}{\ftxt;\W1.5714285714;\H3.0; }{\ftxt;\W0.0001;\H0.0001;\~}
  3
DIMSTYLE_1
100
AcDbAlignedDimension
 13
43.9499999996
 23
45.0
 14
43.9499999996
 24
-45.0
 50
270.0
100
AcDbRotatedDimension
  0
LINE
  5
253
100
AcDbEntity
  8
SMUSSO
100
AcDbLine
 62
7
  6
CONTINUOUS
 10
-45.0500000004
 20
44.0
 11
-45.0500000004
 21
-44.0
  0
LINE
  5
254
100
AcDbEntity
  8
SMUSSO
100
AcDbLine
 62
7
  6
CONTINUOUS
 10
-44.0500000004
 20
44.0
 11
-44.0500000004
 21
-44.0
  0
LINE
  5
255
100
AcDbEntity
  8
SMUSSO
100
AcDbLine
 62
250
  6
CONTINUOUS
 10
-44.0500000004
 20
-44.0
 11
-44.0500000004
 21
-45.0
  0
LINE
  5
256
100
AcDbEntity
  8
SMUSSO
100
AcDbLine
 62
250
  6
CONTINUOUS
 10
-44.0500000004
 20
44.0
 11
-44.0500000004
 21
45.0
  0
LINE
  5
257
100
AcDbEntity
  8
SMUSSO
100
AcDbLine
 62
7
  6
CONTINUOUS
 10
-44.0500000004
 20
-45.0
 11
43.9499999996
 21
-45.0
  0
LINE
  5
258
100
AcDbEntity
  8
SMUSSO
100
AcDbLine
 62
7
  6
CONTINUOUS
 10
-44.0500000004
 20
-44.0
 11
43.9499999996
 21
-44.0
  0
LINE
  5
259
100
AcDbEntity
  8
SMUSSO
100
AcDbLine
 62
250
  6
CONTINUOUS
 10
43.9499999996
 20
-44.0
 11
44.9499999996
 21
-44.0
  0
LINE
  5
25A
100
AcDbEntity
  8
SMUSSO
100
AcDbLine
 62
250
  6
CONTINUOUS
 10
-44.0500000004
 20
-44.0
 11
-45.0500000004
 21
-44.0
  0
LWPOLYLINE
  5
25B
100
AcDbEntity
  8
0
100
AcDbPolyline
 62
7
  6
CONTINUOUS
 90
10
 70
0
 43
0.3500000006
 10
-1.9785714254
 20
55.7499985657
 10
-1.1214286001
 20
56.6071455688
 10
-0.9071428406
 20
57.4642835083
 10
-0.9071428406
 20
58.3214305115
 10
-1.3357142887
 20
58.7499994812
 10
-1.9785714254
 20
58.7499994812
 10
-2.4071429443
 20
58.3214305115
 10
-2.4071429443
 20
57.4642835083
 10
-1.9785714254
 20
57.0357145386
 10
-1.0499999664
 20
57.0357145386
  0
LINE
  5
25C
100
AcDbEntity
  8
RACCORDO
100
AcDbLine
 62
7
  6
CONTINUOUS
 10
-34.0500000004
 20
21.55
 11
-34.0500000004
 21
-21.55
  0
LINE
  5
25D
100
AcDbEntity
  8
RACCORDO
100
AcDbLine
 62
7
  6
CONTINUOUS
 10
-32.8500000004
 20
-22.75
 11
32.7499999996
 21
-22.75
  0
LWPOLYLINE
  5
25E
100
AcDbEntity
  8
0
100
AcDbPolyline
 62
7
  6
CONTINUOUS
 90
13
 70
0
 43
0.3500000006
 10
-0.050000002
 20
56.6071455688
 10
-0.050000002
 20
57.8928615417
 10
0.1642857088
 20
58.3214305115
 10
0.5928571569
 20
58.7499994812
 10
0.8071428809
 20
58.7499994812
 10
1.2357142582
 20
58.3214305115
 10
1.4500000176
 20
57.8928615417
 10
1.4500000176
 20
56.6071455688
 10
1.2357142582
 20
56.1785675354
 10
0.8071428809
 20
55.7499985657
 10
0.5928571569
 20
55.7499985657
 10
0.1642857088
 20
56.1785675354
 10
-0.050000002
 20
56.6071455688
  0
LWPOLYLINE
  5
25F
100
AcDbEntity
  8
0
100
AcDbPolyline
 62
7
  6
CONTINUOUS
 90
13
 70
0
 43
0.3500000006
 10
53.4428559723
 20
-0.0000003204
 10
52.1571445313
 20
-0.0000003204
 10
51.7285710297
 20
0.2142864304
 10
51.3000020599
 20
0.642857666
 10
51.3000020599
 20
0.8571421509
 10
51.7285710297
 20
1.2857133865
 10
52.1571445313
 20
1.5000001373
 10
53.4428559723
 20
1.5000001373
 10
53.8714294739
 20
1.2857133865
 10
54.2999984436
 20
0.8571421509
 10
54.2999984436
 20
0.642857666
 10
53.8714294739
 20
0.2142864304
 10
53.4428559723
 20
-0.0000003204
  0
LINE
  5
260
100
AcDbEntity
  8
RACCORDO
100
AcDbLine
 62
7
  6
CONTINUOUS
 10
32.7499999996
 20
22.75
 11
-32.8500000004
 21
22.75
  0
LINE
  5
261
100
AcDbEntity
  8
RACCORDO
100
AcDbLine
 62
7
  6
CONTINUOUS
 10
33.9499999996
 20
-21.55
 11
33.9499999996
 21
21.55
  0
LWPOLYLINE
  5
262
100
AcDbEntity
  8
0
100
AcDbPolyline
 62
7
  6
CONTINUOUS
 90
10
 70
0
 43
0.3500000006
 10
54.2999984436
 20
-1.9285708809
 10
53.4428559723
 20
-1.0714295425
 10
52.585713501
 20
-0.8571427917
 10
51.7285710297
 20
-0.8571427917
 10
51.3000020599
 20
-1.2857140274
 10
51.3000020599
 20
-1.9285708809
 10
51.7285710297
 20
-2.3571432495
 10
52.585713501
 20
-2.3571432495
 10
53.0142870026
 20
-1.9285708809
 10
53.0142870026
 20
-1.0000006256
  0
LINE
  5
263
100
AcDbEntity
  8
SMUSSO
100
AcDbLine
 62
250
  6
CONTINUOUS
 10
43.9499999996
 20
-44.0
 11
43.9499999996
 21
-45.0
  0
LINE
  5
264
100
AcDbEntity
  8
SMUSSO
100
AcDbLine
 62
7
  6
CONTINUOUS
 10
43.9499999996
 20
-44.0
 11
43.9499999996
 21
44.0
  0
LINE
  5
265
100
AcDbEntity
  8
SMUSSO
100
AcDbLine
 62
250
  6
CONTINUOUS
 10
43.9499999996
 20
44.0
 11
43.9499999996
 21
45.0
  0
LINE
  5
266
100
AcDbEntity
  8
SMUSSO
100
AcDbLine
 62
7
  6
CONTINUOUS
 10
44.9499999996
 20
-44.0
 11
44.9499999996
 21
44.0
  0
LINE
  5
267
100
AcDbEntity
  8
SMUSSO
100
AcDbLine
 62
250
  6
CONTINUOUS
 10
43.9499999996
 20
44.0
 11
44.9499999996
 21
44.0
  0
LINE
  5
268
100
AcDbEntity
  8
SMUSSO
100
AcDbLine
 62
7
  6
CONTINUOUS
 10
43.9499999996
 20
44.0
 11
-44.0500000004
 21
44.0
  0
LINE
  5
269
100
AcDbEntity
  8
SMUSSO
100
AcDbLine
 62
250
  6
CONTINUOUS
 10
-44.0500000004
 20
44.0
 11
-45.0500000004
 21
44.0
  0
LINE
  5
26A
100
AcDbEntity
  8
SMUSSO
100
AcDbLine
 62
7
  6
CONTINUOUS
 10
43.9499999996
 20
45.0
 11
-44.0500000004
 21
45.0
  0
LINE
  5
26B
100
AcDbEntity
  8
SMUSSO
100
AcDbLine
 62
7
  6
CONTINUOUS
 10
-76.8984405597
 20
-45.0
 11
-75.3984405597
 21
-45.0
  0
LWPOLYLINE
  5
26C
100
AcDbEntity
  8
0
100
AcDbPolyline
 62
7
  6
CONTINUOUS
 90
3
 70
0
 43
0.3500000006
 10
-66.7147443695
 20
65.8928549194
 10
-65.8576018982
 20
66.7500019226
 10
-65.8576018982
 20
63.7500010071
  0
LINE
  5
26D
100
AcDbEntity
  8
0
100
AcDbLine
 62
250
  6
CONTINUOUS
 10
-71.8473969144
 20
-43.3404067067
 11
-70.3484405597
 21
-43.0383103281
  0
LINE
  5
26E
100
AcDbEntity
  8
ASSI
100
AcDbLine
 62
250
  6
CONTINUOUS
 10
-71.8473969144
 20
-43.3404067067
 11
-70.3484405597
 21
-43.0383103281
  0
LINE
  5
26F
100
AcDbEntity
  8
0
100
AcDbLine
 62
7
  6
CONTINUOUS
 10
-74.7484405597
 20
-44.3506196883
 11
-71.8484405597
 21
-44.3
  0
LINE
  5
270
100
AcDbEntity
  8
ASSI
100
AcDbLine
 62
7
  6
CONTINUOUS
 10
-74.7484405597
 20
-44.3506196883
 11
-71.8484405597
 21
-44.3
  0
LINE
  5
271
100
AcDbEntity
  8
SMUSSO
100
AcDbLine
 62
250
  6
CONTINUOUS
 10
-74.8984405597
 20
-44.0
 11
-77.8984405597
 21
-44.0
  0
LINE
  5
272
100
AcDbEntity
  8
0
100
AcDbLine
 62
250
  6
CONTINUOUS
 10
-74.7484405597
 20
-43.3
 11
-71.8484405597
 21
-43.3
  0
LINE
  5
273
100
AcDbEntity
  8
ASSI
100
AcDbLine
 62
250
  6
CONTINUOUS
 10
-74.7484405597
 20
-43.3
 11
-71.8484405597
 21
-43.3
  0
LINE
  5
274
100
AcDbEntity
  8
RACCORDO
100
AcDbLine
 62
7
  6
CONTINUOUS
 10
-74.7484405597
 20
-41.0
 11
-74.8984405597
 21
-41.0
  0
LINE
  5
275
100
AcDbEntity
  8
RACCORDO
100
AcDbLine
 62
250
  6
CONTINUOUS
 10
-74.7484405597
 20
-39.0
 11
-74.8984405597
 21
-39.0
  0
LINE
  5
276
100
AcDbEntity
  8
0
100
AcDbLine
 62
250
  6
CONTINUOUS
 10
-72.3299465597
 20
-36.161141
 11
-74.2299065597
 21
-36.161141
  0
LINE
  5
277
100
AcDbEntity
  8
SMUSSO
100
AcDbLine
 62
7
  6
CONTINUOUS
 10
-77.8984405597
 20
44.0
 11
-76.8984405597
 21
45.0
  0
LINE
  5
278
100
AcDbEntity
  8
0
100
AcDbLine
 62
250
  6
CONTINUOUS
 10
-72.9220695597
 20
-37.077819
 11
-74.2297925597
 21
-37.439964
  0
LINE
  5
279
100
AcDbEntity
  8
0
100
AcDbLine
 62
250
  6
CONTINUOUS
 10
-72.3299465597
 20
-33.624309
 11
-74.2297925597
 21
-33.801966
  0
LINE
  5
27A
100
AcDbEntity
  8
0
100
AcDbLine
 62
250
  6
CONTINUOUS
 10
-73.5653385597
 20
-34.093739
 11
-72.3299465597
 21
-34.012262
  0
LINE
  5
27B
100
AcDbEntity
  8
0
100
AcDbLine
 62
250
  6
CONTINUOUS
 10
-74.2299065597
 20
-35.764569
 11
-72.3299465597
 21
-35.764569
  0
LINE
  5
27C
100
AcDbEntity
  8
0
100
AcDbLine
 62
250
  6
CONTINUOUS
 10
-72.3299465597
 20
-35.171691
 11
-73.5705105597
 21
-35.08611
  0
LINE
  5
27D
100
AcDbEntity
  8
0
100
AcDbLine
 62
250
  6
CONTINUOUS
 10
-74.2297925597
 20
-35.379536
 11
-72.3299465597
 21
-35.551081
  0
LINE
  5
27E
100
AcDbEntity
  8
0
100
AcDbLine
 62
250
  6
CONTINUOUS
 10
-74.2297925597
 20
-36.704611
 11
-72.9220695597
 21
-37.077819
  0
LINE
  5
27F
100
AcDbEntity
  8
0
100
AcDbLine
 62
250
  6
CONTINUOUS
 10
-72.3299465597
 20
-36.918996
 11
-74.2297925597
 21
-36.30831
  0
LINE
  5
280
100
AcDbEntity
  8
SMUSSO
100
AcDbLine
 62
7
  6
CONTINUOUS
 10
-77.8984405597
 20
-44.0
 11
-76.8984405597
 21
-45.0
  0
LINE
  5
281
100
AcDbEntity
  8
0
100
AcDbLine
 62
250
  6
CONTINUOUS
 10
-72.7092235597
 20
-32.520272
 11
-72.3299465597
 21
-32.417539
  0
LINE
  5
282
100
AcDbEntity
  8
0
100
AcDbLine
 62
250
  6
CONTINUOUS
 10
-73.7077635597
 20
-32.781757
 11
-73.0027065597
 21
-32.599527
  0
LINE
  5
283
100
AcDbEntity
  8
0
100
AcDbLine
 62
250
  6
CONTINUOUS
 10
-72.3299468137
 20
-31.8831153973
 11
-74.2075960185
 21
-31.8831153973
  0
LINE
  5
284
100
AcDbEntity
  8
0
100
AcDbLine
 62
250
  6
CONTINUOUS
 10
-73.906134983
 20
-31.5012884969
 11
-73.3845902955
 21
-31.5012884969
  0
LINE
  5
285
100
AcDbEntity
  8
0
100
AcDbLine
 62
250
  6
CONTINUOUS
 10
-73.0734414762
 20
-31.4881387551
 11
-72.3299468137
 21
-31.4881387551
  0
LINE
  5
286
100
AcDbEntity
  8
0
100
AcDbLine
 62
250
  6
CONTINUOUS
 10
-73.2280043673
 20
-30.8635473914
 11
-73.2167779355
 21
-30.8635473914
  0
LINE
  5
287
100
AcDbEntity
  8
0
100
AcDbLine
 62
250
  6
CONTINUOUS
 10
-73.0027065597
 20
-32.979217
 11
-73.7077635597
 21
-32.781757
  0
LINE
  5
288
100
AcDbEntity
  8
0
100
AcDbLine
 62
250
  6
CONTINUOUS
 10
-72.3299465597
 20
-33.169767
 11
-72.7092235597
 21
-33.060338
  0
LINE
  5
289
100
AcDbEntity
  8
0
100
AcDbLine
 62
250
  6
CONTINUOUS
 10
-74.2297925597
 20
-32.966124
 11
-72.3299465597
 21
-33.562037
  0
LINE
  5
28A
100
AcDbEntity
  8
0
100
AcDbLine
 62
250
  6
CONTINUOUS
 10
-74.2297925597
 20
-34.194336
 11
-73.1749925597
 21
-34.590908
  0
LINE
  5
28B
100
AcDbEntity
  8
0
100
AcDbLine
 62
250
  6
CONTINUOUS
 10
-72.3299465597
 20
-34.565264
 11
-73.5653385597
 21
-34.093739
  0
LINE
  5
28C
100
AcDbEntity
  8
0
100
AcDbLine
 62
7
  6
CONTINUOUS
 10
-69.4226033994
 20
-27.1501294387
 11
-70.3484405597
 21
-27.151745331
  0
LINE
  5
28D
100
AcDbEntity
  8
ASSI
100
AcDbLine
 62
7
  6
CONTINUOUS
 10
-69.4226033994
 20
-27.1501294387
 11
-70.3484405597
 21
-27.151745331
  0
LINE
  5
28E
100
AcDbEntity
  8
0
100
AcDbLine
 62
250
  6
CONTINUOUS
 10
-69.422667976
 20
-26.9276792439
 11
-70.3484405597
 21
-26.9280974384
  0
LINE
  5
28F
100
AcDbEntity
  8
ASSI
100
AcDbLine
 62
250
  6
CONTINUOUS
 10
-69.422667976
 20
-26.9276792439
 11
-70.3484405597
 21
-26.9280974384
  0
LINE
  5
290
100
AcDbEntity
  8
0
100
AcDbLine
 62
7
  6
CONTINUOUS
 10
-67.8983913275
 20
-26.3415638603
 11
-70.3484405597
 21
-26.3558178298
  0
LINE
  5
291
100
AcDbEntity
  8
ASSI
100
AcDbLine
 62
7
  6
CONTINUOUS
 10
-67.8983913275
 20
-26.3415638603
 11
-70.3484405597
 21
-26.3558178298
  0
LINE
  5
292
100
AcDbEntity
  8
0
100
AcDbLine
 62
250
  6
CONTINUOUS
 10
-67.8983913275
 20
-26.2536973817
 11
-70.3484405597
 21
-26.2679513512
  0
LINE
  5
293
100
AcDbEntity
  8
ASSI
100
AcDbLine
 62
250
  6
CONTINUOUS
 10
-67.8983913275
 20
-26.2536973817
 11
-70.3484405597
 21
-26.2679513512
  0
LINE
  5
294
100
AcDbEntity
  8
0
100
AcDbLine
 62
7
  6
CONTINUOUS
 10
-69.3983161808
 20
-25.2
 11
-70.3484405597
 21
-25.2
  0
LINE
  5
295
100
AcDbEntity
  8
ASSI
100
AcDbLine
 62
7
  6
CONTINUOUS
 10
-69.3983161808
 20
-25.2
 11
-70.3484405597
 21
-25.2
  0
LINE
  5
296
100
AcDbEntity
  8
0
100
AcDbLine
 62
7
  6
CONTINUOUS
 10
-70.3484405597
 20
-25.05
 11
-70.1984405597
 21
-25.05
  0
LINE
  5
297
100
AcDbEntity
  8
ASSI
100
AcDbLine
 62
7
  6
CONTINUOUS
 10
-70.3484405597
 20
-25.05
 11
-70.1984405597
 21
-25.05
  0
LINE
  5
298
100
AcDbEntity
  8
0
100
AcDbLine
 62
7
  6
CONTINUOUS
 10
-69.8984405597
 20
-25.05
 11
-69.6984405597
 21
-25.05
  0
LINE
  5
299
100
AcDbEntity
  8
ASSI
100
AcDbLine
 62
7
  6
CONTINUOUS
 10
-69.8984405597
 20
-25.05
 11
-69.6984405597
 21
-25.05
  0
LINE
  5
29A
100
AcDbEntity
  8
0
100
AcDbLine
 62
7
  6
CONTINUOUS
 10
-70.3484405597
 20
-25.7558198745
 11
-67.5379733685
 21
-25.8799866677
  0
LINE
  5
29B
100
AcDbEntity
  8
ASSI
100
AcDbLine
 62
7
  6
CONTINUOUS
 10
-70.3484405597
 20
-25.7558198745
 11
-67.5379733685
 21
-25.8799866677
  0
LINE
  5
29C
100
AcDbEntity
  8
0
100
AcDbLine
 62
7
  6
CONTINUOUS
 10
-67.3484405597
 20
-25.4
 11
-69.2988124618
 21
-25.2049628098
  0
LINE
  5
29D
100
AcDbEntity
  8
ASSI
100
AcDbLine
 62
7
  6
CONTINUOUS
 10
-67.3484405597
 20
-25.4
 11
-69.2988124618
 21
-25.2049628098
  0
LINE
  5
29E
100
AcDbEntity
  8
0
100
AcDbLine
 62
7
  6
CONTINUOUS
 10
-70.1984405597
 20
25.05
 11
-70.0484405597
 21
25.2
  0
LINE
  5
29F
100
AcDbEntity
  8
ASSI
100
AcDbLine
 62
7
  6
CONTINUOUS
 10
-70.1984405597
 20
25.05
 11
-70.0484405597
 21
25.2
  0
LINE
  5
2A0
100
AcDbEntity
  8
0
100
AcDbLine
 62
7
  6
CONTINUOUS
 10
-69.6984405597
 20
25.05
 11
-69.5484405597
 21
25.2
  0
LINE
  5
2A1
100
AcDbEntity
  8
ASSI
100
AcDbLine
 62
7
  6
CONTINUOUS
 10
-69.6984405597
 20
25.05
 11
-69.5484405597
 21
25.2
  0
LINE
  5
2A2
100
AcDbEntity
  8
0
100
AcDbLine
 62
7
  6
CONTINUOUS
 10
-70.1984405597
 20
-25.05
 11
-70.0484405597
 21
-25.2
  0
LINE
  5
2A3
100
AcDbEntity
  8
ASSI
100
AcDbLine
 62
7
  6
CONTINUOUS
 10
-70.1984405597
 20
-25.05
 11
-70.0484405597
 21
-25.2
  0
LINE
  5
2A4
100
AcDbEntity
  8
0
100
AcDbLine
 62
7
  6
CONTINUOUS
 10
-69.6984405597
 20
-25.05
 11
-69.5484405597
 21
-25.2
  0
LINE
  5
2A5
100
AcDbEntity
  8
ASSI
100
AcDbLine
 62
7
  6
CONTINUOUS
 10
-69.6984405597
 20
-25.05
 11
-69.5484405597
 21
-25.2
  0
LWPOLYLINE
  5
2A6
100
AcDbEntity
  8
0
100
AcDbPolyline
 62
7
  6
CONTINUOUS
 90
3
 70
0
 43
0.3500000006
 10
-61.9290318604
 20
64.0357166748
 10
-62.0004585114
 20
63.8214321899
 10
-62.1433163452
 20
63.5357165222
  0
LWPOLYLINE
  5
2A7
100
AcDbEntity
  8
0
100
AcDbPolyline
 62
7
  6
CONTINUOUS
 90
3
 70
0
 43
0.3500000006
 10
-62.8722162323
 20
56.0357142334
 10
-62.9436474152
 20
55.8214297485
 10
-63.0865007172
 20
55.5357140808
  0
LINE
  5
2A8
100
AcDbEntity
  8
SMUSSO
100
AcDbLine
 62
7
  6
CONTINUOUS
 10
-77.8984405597
 20
-44.0
 11
-77.8984405597
 21
44.0
  0
LINE
  5
2A9
100
AcDbEntity
  8
SMUSSO
100
AcDbLine
 62
7
  6
CONTINUOUS
 10
-76.8984405597
 20
-45.0
 11
-76.8984405597
 21
45.0
  0
LINE
  5
2AA
100
AcDbEntity
  8
SMUSSO
100
AcDbLine
 62
7
  6
CONTINUOUS
 10
-75.3984405597
 20
45.0
 11
-75.3984405597
 21
-45.0
  0
LINE
  5
2AB
100
AcDbEntity
  8
SMUSSO
100
AcDbLine
 62
7
  6
CONTINUOUS
 10
-74.8984405597
 20
44.5
 11
-74.8984405597
 21
-44.5
  0
LINE
  5
2AC
100
AcDbEntity
  8
0
100
AcDbLine
 62
7
  6
CONTINUOUS
 10
-74.7484405597
 20
-44.3506196883
 11
-74.7484405597
 21
44.3506196883
  0
LINE
  5
2AD
100
AcDbEntity
  8
ASSI
100
AcDbLine
 62
7
  6
CONTINUOUS
 10
-74.7484405597
 20
-44.3506196883
 11
-74.7484405597
 21
44.3506196883
  0
LINE
  5
2AE
100
AcDbEntity
  8
0
100
AcDbLine
 62
250
  6
CONTINUOUS
 10
-74.2299065597
 20
-36.161141
 11
-74.2299065597
 21
-35.764569
  0
LINE
  5
2AF
100
AcDbEntity
  8
0
100
AcDbLine
 62
250
  6
CONTINUOUS
 10
-74.2297925597
 20
-32.582488
 11
-74.2297925597
 21
-32.966124
  0
LINE
  5
2B0
100
AcDbEntity
  8
0
100
AcDbLine
 62
250
  6
CONTINUOUS
 10
-74.2297925597
 20
-33.801966
 11
-74.2297925597
 21
-34.194336
  0
LINE
  5
2B1
100
AcDbEntity
  8
0
100
AcDbLine
 62
250
  6
CONTINUOUS
 10
-74.2297925597
 20
-34.983292
 11
-74.2297925597
 21
-35.379536
  0
LINE
  5
2B2
100
AcDbEntity
  8
0
100
AcDbLine
 62
250
  6
CONTINUOUS
 10
-74.2297925597
 20
-36.30831
 11
-74.2297925597
 21
-36.704611
  0
LINE
  5
2B3
100
AcDbEntity
  8
0
100
AcDbLine
 62
250
  6
CONTINUOUS
 10
-74.2297925597
 20
-37.439964
 11
-74.2297925597
 21
-37.870764
  0
LINE
  5
2B4
100
AcDbEntity
  8
0
100
AcDbLine
 62
250
  6
CONTINUOUS
 10
-73.3845902955
 20
-31.5012884969
 11
-73.3845902955
 21
-31.2746513441
  0
LINE
  5
2B5
100
AcDbEntity
  8
0
100
AcDbLine
 62
250
  6
CONTINUOUS
 10
-73.0734414762
 20
-31.2755061485
 11
-73.0734414762
 21
-31.4881387551
  0
LINE
  5
2B6
100
AcDbEntity
  8
0
100
AcDbLine
 62
250
  6
CONTINUOUS
 10
-73.0027065597
 20
-32.599527
 11
-73.0027065597
 21
-32.979217
  0
LINE
  5
2B7
100
AcDbEntity
  8
0
100
AcDbLine
 62
250
  6
CONTINUOUS
 10
-72.7092235597
 20
-33.060338
 11
-72.7092235597
 21
-32.520272
  0
LINE
  5
2B8
100
AcDbEntity
  8
0
100
AcDbLine
 62
250
  6
CONTINUOUS
 10
-72.3299468137
 20
-30.4993864496
 11
-72.3299468137
 21
-30.8808429347
  0
LINE
  5
2B9
100
AcDbEntity
  8
0
100
AcDbLine
 62
250
  6
CONTINUOUS
 10
-72.3299468137
 20
-31.4881387551
 11
-72.3299468137
 21
-31.8831153973
  0
LINE
  5
2BA
100
AcDbEntity
  8
0
100
AcDbLine
 62
250
  6
CONTINUOUS
 10
-72.3299465597
 20
-37.268476
 11
-72.3299465597
 21
-36.918996
  0
LINE
  5
2BB
100
AcDbEntity
  8
0
100
AcDbLine
 62
250
  6
CONTINUOUS
 10
-72.3299465597
 20
-35.551081
 11
-72.3299465597
 21
-35.171691
  0
LINE
  5
2BC
100
AcDbEntity
  8
0
100
AcDbLine
 62
250
  6
CONTINUOUS
 10
-72.3299465597
 20
-34.620883
 11
-72.3299465597
 21
-34.565264
  0
LINE
  5
2BD
100
AcDbEntity
  8
0
100
AcDbLine
 62
250
  6
CONTINUOUS
 10
-72.3299465597
 20
-34.012262
 11
-72.3299465597
 21
-33.624309
  0
LINE
  5
2BE
100
AcDbEntity
  8
0
100
AcDbLine
 62
250
  6
CONTINUOUS
 10
-72.3299465597
 20
-33.562037
 11
-72.3299465597
 21
-33.169767
  0
LINE
  5
2BF
100
AcDbEntity
  8
0
100
AcDbLine
 62
250
  6
CONTINUOUS
 10
-72.3299465597
 20
-32.417539
 11
-72.3299465597
 21
-31.999568
  0
LINE
  5
2C0
100
AcDbEntity
  8
0
100
AcDbLine
 62
250
  6
CONTINUOUS
 10
-72.3299465597
 20
-35.764569
 11
-72.3299465597
 21
-36.161141
  0
LINE
  5
2C1
100
AcDbEntity
  8
0
100
AcDbLine
 62
250
  6
CONTINUOUS
 10
-69.4226035132
 20
-27.1500750698
 11
-69.422667976
 21
-26.9276792439
  0
LINE
  5
2C2
100
AcDbEntity
  8
ASSI
100
AcDbLine
 62
250
  6
CONTINUOUS
 10
-69.4226035132
 20
-27.1500750698
 11
-69.422667976
 21
-26.9276792439
  0
LINE
  5
2C3
100
AcDbEntity
  8
0
100
AcDbLine
 62
7
  6
CONTINUOUS
 10
-71.8484405597
 20
43.3
 11
-71.8484405597
 21
-43.3
  0
LINE
  5
2C4
100
AcDbEntity
  8
ASSI
100
AcDbLine
 62
7
  6
CONTINUOUS
 10
-71.8484405597
 20
43.3
 11
-71.8484405597
 21
-43.3
  0
LINE
  5
2C5
100
AcDbEntity
  8
0
100
AcDbLine
 62
7
  6
CONTINUOUS
 10
-70.3484405597
 20
43.1
 11
-70.3484405597
 21
-43.1
  0
LINE
  5
2C6
100
AcDbEntity
  8
ASSI
100
AcDbLine
 62
7
  6
CONTINUOUS
 10
-70.3484405597
 20
43.1
 11
-70.3484405597
 21
-43.1
  0
LINE
  5
2C7
100
AcDbEntity
  8
0
100
AcDbLine
 62
250
  6
CONTINUOUS
 10
-69.422667976
 20
26.9276792439
 11
-69.4226035587
 21
27.1500742266
  0
LINE
  5
2C8
100
AcDbEntity
  8
ASSI
100
AcDbLine
 62
250
  6
CONTINUOUS
 10
-69.422667976
 20
26.9276792439
 11
-69.4226035587
 21
27.1500742266
  0
LINE
  5
2C9
100
AcDbEntity
  8
0
100
AcDbLine
 62
250
  6
CONTINUOUS
 10
-67.5379733685
 20
25.8799866677
 11
-67.5379733685
 21
25.3810467191
  0
LINE
  5
2CA
100
AcDbEntity
  8
ASSI
100
AcDbLine
 62
250
  6
CONTINUOUS
 10
-67.5379733685
 20
25.8799866677
 11
-67.5379733685
 21
25.3810467191
  0
LINE
  5
2CB
100
AcDbEntity
  8
0
100
AcDbLine
 62
250
  6
CONTINUOUS
 10
-67.5379733685
 20
-25.3810467191
 11
-67.5379733685
 21
-25.8799866677
  0
LINE
  5
2CC
100
AcDbEntity
  8
ASSI
100
AcDbLine
 62
250
  6
CONTINUOUS
 10
-67.5379733685
 20
-25.3810467191
 11
-67.5379733685
 21
-25.8799866677
  0
LINE
  5
2CD
100
AcDbEntity
  8
0
100
AcDbLine
 62
7
  6
CONTINUOUS
 10
-67.3484405597
 20
26.0883643404
 11
-67.3484405597
 21
25.4
  0
LINE
  5
2CE
100
AcDbEntity
  8
ASSI
100
AcDbLine
 62
7
  6
CONTINUOUS
 10
-67.3484405597
 20
26.0883643404
 11
-67.3484405597
 21
25.4
  0
LINE
  5
2CF
100
AcDbEntity
  8
0
100
AcDbLine
 62
7
  6
CONTINUOUS
 10
-67.3484405597
 20
-25.4
 11
-67.3484405597
 21
-26.087438511
  0
LINE
  5
2D0
100
AcDbEntity
  8
ASSI
100
AcDbLine
 62
7
  6
CONTINUOUS
 10
-67.3484405597
 20
-25.4
 11
-67.3484405597
 21
-26.087438511
  0
LWPOLYLINE
  5
2D1
100
AcDbEntity
  8
0
100
AcDbPolyline
 62
7
  6
CONTINUOUS
 90
4
 70
0
 43
0.3500000006
 10
-65.9436437988
 20
58.1071460266
 10
-65.9436437988
 20
58.7499994812
 10
-64.4436478729
 20
58.7499994812
 10
-65.3007903442
 20
55.7499985657
  0
LWPOLYLINE
  5
2D2
100
AcDbEntity
  8
0
100
AcDbPolyline
 62
7
  6
CONTINUOUS
 90
13
 70
0
 43
0.3500000006
 10
-65.0004594269
 20
64.6071389465
 10
-65.0004594269
 20
65.8928549194
 10
-64.786174942
 20
66.3214329529
 10
-64.3576014404
 20
66.7500019226
 10
-64.1433169556
 20
66.7500019226
 10
-63.714743454
 20
66.3214329529
 10
-63.5004589691
 20
65.8928549194
 10
-63.5004589691
 20
64.6071389465
 10
-63.714743454
 20
64.1785699768
 10
-64.1433169556
 20
63.7500010071
 10
-64.3576014404
 20
63.7500010071
 10
-64.786174942
 20
64.1785699768
 10
-65.0004594269
 20
64.6071389465
  0
LINE
  5
2D3
100
AcDbEntity
  8
0
100
AcDbLine
 62
7
  6
CONTINUOUS
 10
-70.0484405597
 20
-25.2
 11
-69.8984405597
 21
-25.05
  0
LINE
  5
2D4
100
AcDbEntity
  8
ASSI
100
AcDbLine
 62
7
  6
CONTINUOUS
 10
-70.0484405597
 20
-25.2
 11
-69.8984405597
 21
-25.05
  0
LINE
  5
2D5
100
AcDbEntity
  8
0
100
AcDbLine
 62
7
  6
CONTINUOUS
 10
-70.0484405597
 20
25.2
 11
-69.8984405597
 21
25.05
  0
LINE
  5
2D6
100
AcDbEntity
  8
ASSI
100
AcDbLine
 62
7
  6
CONTINUOUS
 10
-70.0484405597
 20
25.2
 11
-69.8984405597
 21
25.05
  0
LINE
  5
2D7
100
AcDbEntity
  8
0
100
AcDbLine
 62
250
  6
CONTINUOUS
 10
-69.422667976
 20
-26.9276792439
 11
-68.3231491161
 21
-26.3440350289
  0
LINE
  5
2D8
100
AcDbEntity
  8
ASSI
100
AcDbLine
 62
250
  6
CONTINUOUS
 10
-69.422667976
 20
-26.9276792439
 11
-68.3231491161
 21
-26.3440350289
  0
LINE
  5
2D9
100
AcDbEntity
  8
0
100
AcDbLine
 62
250
  6
CONTINUOUS
 10
-67.8983913275
 20
-26.2536973817
 11
-67.3762994748
 21
-25.9765617175
  0
LINE
  5
2DA
100
AcDbEntity
  8
ASSI
100
AcDbLine
 62
250
  6
CONTINUOUS
 10
-67.8983913275
 20
-26.2536973817
 11
-67.3762994748
 21
-25.9765617175
  0
LINE
  5
2DB
100
AcDbEntity
  8
0
100
AcDbLine
 62
7
  6
CONTINUOUS
 10
-67.3484405597
 20
-26.0883643404
 11
-69.283428598
 21
-27.1154904916
  0
LINE
  5
2DC
100
AcDbEntity
  8
ASSI
100
AcDbLine
 62
7
  6
CONTINUOUS
 10
-67.3484405597
 20
-26.0883643404
 11
-69.283428598
 21
-27.1154904916
  0
LINE
  5
2DD
100
AcDbEntity
  8
0
100
AcDbLine
 62
7
  6
CONTINUOUS
 10
-67.3484405597
 20
25.4
 11
-69.2988124618
 21
25.2049628098
  0
LINE
  5
2DE
100
AcDbEntity
  8
ASSI
100
AcDbLine
 62
7
  6
CONTINUOUS
 10
-67.3484405597
 20
25.4
 11
-69.2988124618
 21
25.2049628098
  0
LINE
  5
2DF
100
AcDbEntity
  8
0
100
AcDbLine
 62
7
  6
CONTINUOUS
 10
-70.3484405597
 20
25.7558198745
 11
-67.5379733685
 21
25.8799866677
  0
LINE
  5
2E0
100
AcDbEntity
  8
ASSI
100
AcDbLine
 62
7
  6
CONTINUOUS
 10
-70.3484405597
 20
25.7558198745
 11
-67.5379733685
 21
25.8799866677
  0
LINE
  5
2E1
100
AcDbEntity
  8
0
100
AcDbLine
 62
7
  6
CONTINUOUS
 10
-70.3484405597
 20
25.05
 11
-70.1984405597
 21
25.05
  0
LINE
  5
2E2
100
AcDbEntity
  8
ASSI
100
AcDbLine
 62
7
  6
CONTINUOUS
 10
-70.3484405597
 20
25.05
 11
-70.1984405597
 21
25.05
  0
LINE
  5
2E3
100
AcDbEntity
  8
0
100
AcDbLine
 62
7
  6
CONTINUOUS
 10
-69.8984405597
 20
25.05
 11
-69.6984405597
 21
25.05
  0
LINE
  5
2E4
100
AcDbEntity
  8
ASSI
100
AcDbLine
 62
7
  6
CONTINUOUS
 10
-69.8984405597
 20
25.05
 11
-69.6984405597
 21
25.05
  0
LINE
  5
2E5
100
AcDbEntity
  8
0
100
AcDbLine
 62
7
  6
CONTINUOUS
 10
-70.3484405597
 20
25.2
 11
-69.3983161808
 21
25.2
  0
LINE
  5
2E6
100
AcDbEntity
  8
ASSI
100
AcDbLine
 62
7
  6
CONTINUOUS
 10
-70.3484405597
 20
25.2
 11
-69.3983161808
 21
25.2
  0
LINE
  5
2E7
100
AcDbEntity
  8
0
100
AcDbLine
 62
250
  6
CONTINUOUS
 10
-69.422667976
 20
26.9276792439
 11
-70.3484405597
 21
26.9280974384
  0
LINE
  5
2E8
100
AcDbEntity
  8
ASSI
100
AcDbLine
 62
250
  6
CONTINUOUS
 10
-69.422667976
 20
26.9276792439
 11
-70.3484405597
 21
26.9280974384
  0
LINE
  5
2E9
100
AcDbEntity
  8
0
100
AcDbLine
 62
7
  6
CONTINUOUS
 10
-69.4226033994
 20
27.1501294387
 11
-70.3484405597
 21
27.151745331
  0
LINE
  5
2EA
100
AcDbEntity
  8
ASSI
100
AcDbLine
 62
7
  6
CONTINUOUS
 10
-69.4226033994
 20
27.1501294387
 11
-70.3484405597
 21
27.151745331
  0
LINE
  5
2EB
100
AcDbEntity
  8
0
100
AcDbLine
 62
250
  6
CONTINUOUS
 10
-67.8983913275
 20
26.2536973817
 11
-70.3484405597
 21
26.2679513512
  0
LINE
  5
2EC
100
AcDbEntity
  8
ASSI
100
AcDbLine
 62
250
  6
CONTINUOUS
 10
-67.8983913275
 20
26.2536973817
 11
-70.3484405597
 21
26.2679513512
  0
LINE
  5
2ED
100
AcDbEntity
  8
0
100
AcDbLine
 62
7
  6
CONTINUOUS
 10
-67.8983913275
 20
26.3415638603
 11
-70.3484405597
 21
26.3558178298
  0
LINE
  5
2EE
100
AcDbEntity
  8
ASSI
100
AcDbLine
 62
7
  6
CONTINUOUS
 10
-67.8983913275
 20
26.3415638603
 11
-70.3484405597
 21
26.3558178298
  0
LINE
  5
2EF
100
AcDbEntity
  8
0
100
AcDbLine
 62
250
  6
CONTINUOUS
 10
-68.3231491161
 20
26.3440350289
 11
-69.422667976
 21
26.9276792439
  0
LINE
  5
2F0
100
AcDbEntity
  8
ASSI
100
AcDbLine
 62
250
  6
CONTINUOUS
 10
-68.3231491161
 20
26.3440350289
 11
-69.422667976
 21
26.9276792439
  0
LINE
  5
2F1
100
AcDbEntity
  8
0
100
AcDbLine
 62
250
  6
CONTINUOUS
 10
-67.3762994748
 20
25.9765617175
 11
-67.8983913275
 21
26.2536973817
  0
LINE
  5
2F2
100
AcDbEntity
  8
ASSI
100
AcDbLine
 62
250
  6
CONTINUOUS
 10
-67.3762994748
 20
25.9765617175
 11
-67.8983913275
 21
26.2536973817
  0
LINE
  5
2F3
100
AcDbEntity
  8
0
100
AcDbLine
 62
7
  6
CONTINUOUS
 10
-67.3484405597
 20
26.0883643404
 11
-69.283428598
 21
27.1154904916
  0
LINE
  5
2F4
100
AcDbEntity
  8
ASSI
100
AcDbLine
 62
7
  6
CONTINUOUS
 10
-67.3484405597
 20
26.0883643404
 11
-69.283428598
 21
27.1154904916
  0
LINE
  5
2F5
100
AcDbEntity
  8
SMUSSO
100
AcDbLine
 62
7
  6
CONTINUOUS
 10
-74.8984405597
 20
-44.5
 11
-75.3984405597
 21
-45.0
  0
LINE
  5
2F6
100
AcDbEntity
  8
SMUSSO
100
AcDbLine
 62
7
  6
CONTINUOUS
 10
-74.8984405597
 20
44.5
 11
-75.3984405597
 21
45.0
  0
LINE
  5
2F7
100
AcDbEntity
  8
0
100
AcDbLine
 62
250
  6
CONTINUOUS
 10
-73.5705105597
 20
-35.08611
 11
-72.3299465597
 21
-34.620883
  0
LINE
  5
2F8
100
AcDbEntity
  8
0
100
AcDbLine
 62
250
  6
CONTINUOUS
 10
-73.1749925597
 20
-34.590908
 11
-74.2297925597
 21
-34.983292
  0
LINE
  5
2F9
100
AcDbEntity
  8
0
100
AcDbLine
 62
250
  6
CONTINUOUS
 10
-72.3299465597
 20
-31.999568
 11
-74.2297925597
 21
-32.582488
  0
LINE
  5
2FA
100
AcDbEntity
  8
0
100
AcDbLine
 62
7
  6
CONTINUOUS
 10
-71.8473969144
 20
-44.2991650838
 11
-70.3484405597
 21
-43.1
  0
LINE
  5
2FB
100
AcDbEntity
  8
ASSI
100
AcDbLine
 62
7
  6
CONTINUOUS
 10
-71.8473969144
 20
-44.2991650838
 11
-70.3484405597
 21
-43.1
  0
LINE
  5
2FC
100
AcDbEntity
  8
0
100
AcDbLine
 62
250
  6
CONTINUOUS
 10
-74.2297925597
 20
-37.870764
 11
-72.3299465597
 21
-37.268476
  0
LINE
  5
2FD
100
AcDbEntity
  8
0
100
AcDbLine
 62
7
  6
CONTINUOUS
 10
-71.8473969144
 20
44.2991650838
 11
-70.3484405597
 21
43.1
  0
LINE
  5
2FE
100
AcDbEntity
  8
ASSI
100
AcDbLine
 62
7
  6
CONTINUOUS
 10
-71.8473969144
 20
44.2991650838
 11
-70.3484405597
 21
43.1
  0
LWPOLYLINE
  5
2FF
100
AcDbEntity
  8
0
100
AcDbPolyline
 62
7
  6
CONTINUOUS
 90
10
 70
0
 43
0.3500000006
 10
-62.9436474152
 20
56.2499987183
 10
-62.8722162323
 20
56.1071454163
 10
-62.8722162323
 20
56.0357142334
 10
-63.0150740662
 20
55.8928609314
 10
-63.0865007172
 20
55.8928609314
 10
-63.1579319
 20
55.9642830505
 10
-63.1579319
 20
56.0357142334
 10
-63.0865007172
 20
56.1785675354
 10
-63.0150740662
 20
56.2499987183
 10
-62.9436474152
 20
56.2499987183
  0
LINE
  5
300
100
AcDbEntity
  8
RACCORDO
100
AcDbLine
 62
250
  6
CONTINUOUS
 10
-74.7484405597
 20
37.0
 11
-74.8984405597
 21
37.0
  0
LINE
  5
301
100
AcDbEntity
  8
RACCORDO
100
AcDbLine
 62
7
  6
CONTINUOUS
 10
-74.7484405597
 20
39.0
 11
-74.8984405597
 21
39.0
  0
LWPOLYLINE
  5
302
100
AcDbEntity
  8
0
100
AcDbPolyline
 62
7
  6
CONTINUOUS
 90
10
 70
0
 43
0.3500000006
 10
-62.0004585114
 20
64.2500011597
 10
-61.9290318604
 20
64.1071387939
 10
-61.9290318604
 20
64.0357166748
 10
-62.0718851624
 20
63.8928543091
 10
-62.1433163452
 20
63.8928543091
 10
-62.2147429962
 20
63.9642854919
 10
-62.2147429962
 20
64.0357166748
 10
-62.1433163452
 20
64.1785699768
 10
-62.0718851624
 20
64.2500011597
 10
-62.0004585114
 20
64.2500011597
  0
LINE
  5
303
100
AcDbEntity
  8
RACCORDO
100
AcDbLine
 62
7
  6
CONTINUOUS
 10
-74.7484405597
 20
41.0
 11
-74.8984405597
 21
41.0
  0
LINE
  5
304
100
AcDbEntity
  8
0
100
AcDbLine
 62
250
  6
CONTINUOUS
 10
-74.7484405597
 20
43.3
 11
-71.8484405597
 21
43.3
  0
LINE
  5
305
100
AcDbEntity
  8
ASSI
100
AcDbLine
 62
250
  6
CONTINUOUS
 10
-74.7484405597
 20
43.3
 11
-71.8484405597
 21
43.3
  0
LINE
  5
306
100
AcDbEntity
  8
SMUSSO
100
AcDbLine
 62
250
  6
CONTINUOUS
 10
-74.8984405597
 20
44.0
 11
-77.8984405597
 21
44.0
  0
LINE
  5
307
100
AcDbEntity
  8
SMUSSO
100
AcDbLine
 62
7
  6
CONTINUOUS
 10
-76.8984405597
 20
45.0
 11
-75.3984405597
 21
45.0
  0
LWPOLYLINE
  5
308
100
AcDbEntity
  8
0
100
AcDbPolyline
 62
7
  6
CONTINUOUS
 90
8
 70
0
 43
0.3500000006
 10
-61.8722159271
 20
55.7499985657
 10
-61.0150734558
 20
55.7499985657
 10
-60.5865044861
 20
56.1785675354
 10
-60.5865044861
 20
57.0357145386
 10
-61.0150734558
 20
57.4642835083
 10
-61.8722159271
 20
57.4642835083
 10
-61.8722159271
 20
58.7499994812
 10
-60.5865044861
 20
58.7499994812
  0
LWPOLYLINE
  5
309
100
AcDbEntity
  8
0
100
AcDbPolyline
 62
7
  6
CONTINUOUS
 90
8
 70
0
 43
0.3500000006
 10
-59.7293620148
 20
55.7499985657
 10
-58.8722150116
 20
55.7499985657
 10
-58.4436460419
 20
56.1785675354
 10
-58.4436460419
 20
57.0357145386
 10
-58.8722150116
 20
57.4642835083
 10
-59.7293620148
 20
57.4642835083
 10
-59.7293620148
 20
58.7499994812
 10
-58.4436460419
 20
58.7499994812
  0
LWPOLYLINE
  5
30A
100
AcDbEntity
  8
0
100
AcDbPolyline
 62
7
  6
CONTINUOUS
 90
8
 70
0
 43
0.3500000006
 10
-60.9290315552
 20
63.7500010071
 10
-60.0718890839
 20
63.7500010071
 10
-59.6433155823
 20
64.1785699768
 10
-59.6433155823
 20
65.03571698
 10
-60.0718890839
 20
65.4642859497
 10
-60.9290315552
 20
65.4642859497
 10
-60.9290315552
 20
66.7500019226
 10
-59.6433155823
 20
66.7500019226
  0
LWPOLYLINE
  5
30B
100
AcDbEntity
  8
0
100
AcDbPolyline
 62
7
  6
CONTINUOUS
 90
8
 70
0
 43
0.3500000006
 10
-58.786173111
 20
63.7500010071
 10
-57.9290306396
 20
63.7500010071
 10
-57.5004571381
 20
64.1785699768
 10
-57.5004571381
 20
65.03571698
 10
-57.9290306396
 20
65.4642859497
 10
-58.786173111
 20
65.4642859497
 10
-58.786173111
 20
66.7500019226
 10
-57.5004571381
 20
66.7500019226
  0
LINE
  5
30C
100
AcDbEntity
  8
0
100
AcDbLine
 62
7
  6
CONTINUOUS
 10
-74.7484405597
 20
44.3506196883
 11
-71.8484405597
 21
44.3
  0
LINE
  5
30D
100
AcDbEntity
  8
ASSI
100
AcDbLine
 62
7
  6
CONTINUOUS
 10
-74.7484405597
 20
44.3506196883
 11
-71.8484405597
 21
44.3
  0
LINE
  5
30E
100
AcDbEntity
  8
0
100
AcDbLine
 62
250
  6
CONTINUOUS
 10
-71.8473969144
 20
43.3404067067
 11
-70.3484405597
 21
43.0383103281
  0
LINE
  5
30F
100
AcDbEntity
  8
ASSI
100
AcDbLine
 62
250
  6
CONTINUOUS
 10
-71.8473969144
 20
43.3404067067
 11
-70.3484405597
 21
43.0383103281
  0
ARC
  5
310
100
AcDbEntity
  8
RACCORDO
100
AcDbCircle
 62
7
  6
CONTINUOUS
 10
-32.8500000004
 20
21.55
 40
1.2
100
AcDbArc
 50
90.0
 51
180.0
  0
ARC
  5
311
100
AcDbEntity
  8
RACCORDO
100
AcDbCircle
 62
7
  6
CONTINUOUS
 10
-32.8500000004
 20
-21.55
 40
1.2
100
AcDbArc
 50
180.0
 51
270.0
  0
ARC
  5
312
100
AcDbEntity
  8
RACCORDO
100
AcDbCircle
 62
7
  6
CONTINUOUS
 10
32.7499999996
 20
-21.55
 40
1.2
100
AcDbArc
 50
270.0
 51
360.0
  0
ARC
  5
313
100
AcDbEntity
  8
RACCORDO
100
AcDbCircle
 62
7
  6
CONTINUOUS
 10
32.7499999996
 20
21.55
 40
1.2
100
AcDbArc
 50
0.0
 51
90.0
  0
ARC
  5
314
100
AcDbEntity
  8
SMUSSO
100
AcDbCircle
 62
7
  6
CONTINUOUS
 10
43.9499999996
 20
44.0
 40
1.0
100
AcDbArc
 50
0.0
 51
90.0
  0
ARC
  5
315
100
AcDbEntity
  8
SMUSSO
100
AcDbCircle
 62
7
  6
CONTINUOUS
 10
-44.0500000004
 20
44.0
 40
1.0
100
AcDbArc
 50
90.0
 51
180.0
  0
ARC
  5
316
100
AcDbEntity
  8
SMUSSO
100
AcDbCircle
 62
7
  6
CONTINUOUS
 10
-44.0500000004
 20
-44.0
 40
1.0
100
AcDbArc
 50
180.0
 51
270.0
  0
ARC
  5
317
100
AcDbEntity
  8
SMUSSO
100
AcDbCircle
 62
7
  6
CONTINUOUS
 10
43.9499999996
 20
-44.0
 40
1.0
100
AcDbArc
 50
270.0
 51
360.0
  0
ARC
  5
318
100
AcDbEntity
  8
0
100
AcDbCircle
 62
7
  6
CONTINUOUS
 10
-69.3983161808
 20
26.2
 40
1.0
100
AcDbArc
 50
270.0
 51
275.7105931375
  0
ARC
  5
319
100
AcDbEntity
  8
0
100
AcDbCircle
 62
7
  6
CONTINUOUS
 10
-69.3983161808
 20
-26.2
 40
1.0
100
AcDbArc
 50
84.2894068625
 51
90.0
  0
ARC
  5
31A
100
AcDbEntity
  8
ASSI
100
AcDbCircle
 62
7
  6
CONTINUOUS
 10
-69.3983161808
 20
26.2
 40
1.0
100
AcDbArc
 50
270.0
 51
275.7105931375
  0
ARC
  5
31B
100
AcDbEntity
  8
ASSI
100
AcDbCircle
 62
7
  6
CONTINUOUS
 10
-69.3983161808
 20
-26.2
 40
1.0
100
AcDbArc
 50
84.2894068625
 51
90.0
  0
ARC
  5
31C
100
AcDbEntity
  8
0
100
AcDbCircle
 62
7
  6
CONTINUOUS
 10
-69.4231272255
 20
-26.849999491
 40
0.3
100
AcDbArc
 50
270.0999999936
 51
297.9489609005
  0
ARC
  5
31D
100
AcDbEntity
  8
0
100
AcDbCircle
 62
7
  6
CONTINUOUS
 10
-69.4231272255
 20
26.849999491
 40
0.3
100
AcDbArc
 50
62.0510390995
 51
89.9000000064
  0
ARC
  5
31E
100
AcDbEntity
  8
0
100
AcDbCircle
 62
7
  6
CONTINUOUS
 10
-67.9001366469
 20
-26.0415689373
 40
0.3
100
AcDbArc
 50
270.3333333333
 51
297.9601595782
  0
ARC
  5
31F
100
AcDbEntity
  8
0
100
AcDbCircle
 62
7
  6
CONTINUOUS
 10
-67.9001366469
 20
26.0415689373
 40
0.3
100
AcDbArc
 50
62.0398404207
 51
89.6666666667
  0
ARC
  5
320
100
AcDbEntity
  8
ASSI
100
AcDbCircle
 62
7
  6
CONTINUOUS
 10
-69.4231272255
 20
-26.849999491
 40
0.3
100
AcDbArc
 50
270.0999999936
 51
297.9489609005
  0
ARC
  5
321
100
AcDbEntity
  8
ASSI
100
AcDbCircle
 62
7
  6
CONTINUOUS
 10
-69.4231272255
 20
26.849999491
 40
0.3
100
AcDbArc
 50
62.0510390995
 51
89.9000000064
  0
ARC
  5
322
100
AcDbEntity
  8
ASSI
100
AcDbCircle
 62
7
  6
CONTINUOUS
 10
-67.9001366469
 20
-26.0415689373
 40
0.3
100
AcDbArc
 50
270.3333333333
 51
297.9601595782
  0
ARC
  5
323
100
AcDbEntity
  8
ASSI
100
AcDbCircle
 62
7
  6
CONTINUOUS
 10
-67.9001366469
 20
26.0415689373
 40
0.3
100
AcDbArc
 50
62.0398404207
 51
89.6666666667
  0
SPLINE
  5
324
100
AcDbEntity
  8
0
100
AcDbSpline
 62
7
  6
CONTINUOUS
 70
0
 71
3
 72
18
 73
14
 74
0
 42
0.0000001
 43
0.0000001
 44
0.0000000001
 40
0.0
 40
0.0
 40
0.0
 40
0.0
 40
0.1917501427
 40
0.3754565595
 40
0.5446832798
 40
0.6936389099
 40
0.817166663
 40
0.8680467139
 40
0.9110789516
 40
0.945929282
 40
0.9723603198
 40
0.990270012
 40
1.0
 40
1.0
 40
1.0
 40
1.0
 10
-71.8473969144
 20
43.3404067067
 30
0.0
 10
-71.844225739
 20
43.4017695438
 30
0.0
 10
-71.8385281866
 20
43.5219485627
 30
0.0
 10
-71.8319811283
 20
43.6963675885
 30
0.0
 10
-71.8278372564
 20
43.8571465477
 30
0.0
 10
-71.8262946608
 20
43.9986819536
 30
0.0
 10
-71.8272007415
 20
44.102318931
 30
0.0
 10
-71.8295357588
 20
44.1719467969
 30
0.0
 10
-71.8317908486
 20
44.2131804697
 30
0.0
 10
-71.834639109
 20
44.2464101674
 30
0.0
 10
-71.8379198116
 20
44.2717891156
 30
0.0
 10
-71.8416776494
 20
44.2883198423
 30
0.0
 10
-71.844962249
 20
44.2972173514
 30
0.0
 10
-71.8473969144
 20
44.2991650838
 30
0.0
  0
SPLINE
  5
325
100
AcDbEntity
  8
0
100
AcDbSpline
 62
7
  6
CONTINUOUS
 70
0
 71
3
 72
18
 73
14
 74
0
 42
0.0000001
 43
0.0000001
 44
0.0000000001
 40
0.0
 40
0.0
 40
0.0
 40
0.0
 40
0.009729988
 40
0.0276396801
 40
0.0540707176
 40
0.0889210475
 40
0.1319532851
 40
0.182833336
 40
0.3063610902
 40
0.455316722
 40
0.6245434425
 40
0.8082498577
 40
1.0
 40
1.0
 40
1.0
 40
1.0
 10
-71.8473969144
 20
-44.2991650838
 30
0.0
 10
-71.844962249
 20
-44.2972173514
 30
0.0
 10
-71.8416776494
 20
-44.2883198423
 30
0.0
 10
-71.8379198116
 20
-44.2717891158
 30
0.0
 10
-71.8346391091
 20
-44.2464101679
 30
0.0
 10
-71.8317908486
 20
-44.2131804704
 30
0.0
 10
-71.8295357589
 20
-44.1719467979
 30
0.0
 10
-71.8272007415
 20
-44.1023189317
 30
0.0
 10
-71.8262946608
 20
-43.9986819533
 30
0.0
 10
-71.8278372564
 20
-43.8571465465
 30
0.0
 10
-71.8319811283
 20
-43.6963675871
 30
0.0
 10
-71.8385281867
 20
-43.5219485619
 30
0.0
 10
-71.844225739
 20
-43.4017695437
 30
0.0
 10
-71.8473969144
 20
-43.3404067067
 30
0.0
  0
SPLINE
  5
326
100
AcDbEntity
  8
0
100
AcDbSpline
 62
250
  6
CONTINUOUS
 70
0
 71
3
 72
9
 73
5
 74
0
 42
0.0000001
 43
0.0000001
 44
0.0000000001
 40
0.0
 40
0.0
 40
0.0
 40
0.0
 40
0.5637833222
 40
1.0
 40
1.0
 40
1.0
 40
1.0
 10
-69.422667976
 20
26.9276792439
 30
0.0
 10
-69.4058464189
 20
26.9572424755
 30
0.0
 10
-69.3747741393
 20
27.0089600021
 30
0.0
 10
-69.3408659051
 20
27.0589978903
 30
0.0
 10
-69.3245388276
 20
27.0796387634
 30
0.0
  0
SPLINE
  5
327
100
AcDbEntity
  8
0
100
AcDbSpline
 62
250
  6
CONTINUOUS
 70
0
 71
3
 72
10
 73
6
 74
0
 42
0.0000001
 43
0.0000001
 44
0.0000000001
 40
0.0
 40
0.0
 40
0.0
 40
0.0
 40
0.6924460877
 40
0.8884016716
 40
1.0
 40
1.0
 40
1.0
 40
1.0
 10
-69.3245388276
 20
27.0796387634
 30
0.0
 10
-69.3164374571
 20
27.089880606
 30
0.0
 10
-69.3053183365
 20
27.1028525793
 30
0.0
 10
-69.2908930512
 20
27.1145299103
 30
0.0
 10
-69.2843914609
 20
27.1160059374
 30
0.0
 10
-69.2825343261
 20
27.1150157961
 30
0.0
  0
SPLINE
  5
328
100
AcDbEntity
  8
0
100
AcDbSpline
 62
7
  6
CONTINUOUS
 70
0
 71
3
 72
9
 73
5
 74
0
 42
0.0000001
 43
0.0000001
 44
0.0000000001
 40
0.0
 40
0.0
 40
0.0
 40
0.0
 40
0.2171201313
 40
1.0
 40
1.0
 40
1.0
 40
1.0
 10
-67.3484405597
 20
26.0463167932
 30
0.0
 10
-67.3484405597
 20
26.0430884804
 30
0.0
 10
-67.3499200677
 20
26.0282086012
 30
0.0
 10
-67.355953049
 20
26.0142370373
 30
0.0
 10
-67.3611516048
 20
26.0038218733
 30
0.0
  0
SPLINE
  5
329
100
AcDbEntity
  8
0
100
AcDbSpline
 62
7
  6
CONTINUOUS
 70
0
 71
3
 72
9
 73
5
 74
0
 42
0.0000001
 43
0.0000001
 44
0.0000000001
 40
0.0
 40
0.0
 40
0.0
 40
0.0
 40
0.2349024502
 40
1.0
 40
1.0
 40
1.0
 40
1.0
 10
-67.3611516048
 20
26.0038218733
 30
0.0
 10
-67.3622422965
 20
26.0016367023
 30
0.0
 10
-67.367025334
 20
25.9924038454
 30
0.0
 10
-67.3722351097
 20
25.9833996157
 30
0.0
 10
-67.3762994748
 20
25.9765617175
 30
0.0
  0
SPLINE
  5
32A
100
AcDbEntity
  8
0
100
AcDbSpline
 62
250
  6
CONTINUOUS
 70
0
 71
3
 72
9
 73
5
 74
0
 42
0.0000001
 43
0.0000001
 44
0.0000000001
 40
0.0
 40
0.0
 40
0.0
 40
0.0
 40
0.5590803942
 40
1.0
 40
1.0
 40
1.0
 40
1.0
 10
-69.422667976
 20
-26.9276792439
 30
0.0
 10
-69.4064962338
 20
-26.9561130894
 30
0.0
 10
-69.3764417122
 20
-27.0063206884
 30
0.0
 10
-69.3437080031
 20
-27.0549241747
 30
0.0
 10
-69.3279377344
 20
-27.0753401812
 30
0.0
  0
SPLINE
  5
32B
100
AcDbEntity
  8
0
100
AcDbSpline
 62
250
  6
CONTINUOUS
 70
0
 71
3
 72
10
 73
6
 74
0
 42
0.0000001
 43
0.0000001
 44
0.0000000001
 40
0.0
 40
0.0
 40
0.0
 40
0.0
 40
0.6950720124
 40
0.8909531812
 40
1.0
 40
1.0
 40
1.0
 40
1.0
 10
-69.3279377344
 20
-27.0753401812
 30
0.0
 10
-69.319150558
 20
-27.0867159576
 30
0.0
 10
-69.3070822103
 20
-27.1011663008
 30
0.0
 10
-69.2915864556
 20
-27.1142235827
 30
0.0
 10
-69.2845283555
 20
-27.1160691119
 30
0.0
 10
-69.2825343261
 20
-27.1150157961
 30
0.0
  0
SPLINE
  5
32C
100
AcDbEntity
  8
0
100
AcDbSpline
 62
250
  6
CONTINUOUS
 70
0
 71
3
 72
9
 73
5
 74
0
 42
0.0000001
 43
0.0000001
 44
0.0000000001
 40
0.0
 40
0.0
 40
0.0
 40
0.0
 40
0.4631330765
 40
1.0
 40
1.0
 40
1.0
 40
1.0
 10
-67.7594793985
 20
-26.3065510847
 30
0.0
 10
-67.7669741023
 20
-26.3105294071
 30
0.0
 10
-67.7855092763
 20
-26.3149384264
 30
0.0
 10
-67.8039171
 20
-26.311631072
 30
0.0
 10
-67.8133218177
 20
-26.3087503043
 30
0.0
  0
SPLINE
  5
32D
100
AcDbEntity
  8
0
100
AcDbSpline
 62
250
  6
CONTINUOUS
 70
0
 71
3
 72
9
 73
5
 74
0
 42
0.0000001
 43
0.0000001
 44
0.0000000001
 40
0.0
 40
0.0
 40
0.0
 40
0.0
 40
0.2256050966
 40
1.0
 40
1.0
 40
1.0
 40
1.0
 10
-67.8133218177
 20
-26.3087503043
 30
0.0
 10
-67.8171996614
 20
-26.3075624784
 30
0.0
 10
-67.8341141887
 20
-26.30139862
 30
0.0
 10
-67.8497902428
 20
-26.292188763
 30
0.0
 10
-67.861217373
 20
-26.2842375518
 30
0.0
  0
SPLINE
  5
32E
100
AcDbEntity
  8
0
100
AcDbSpline
 62
250
  6
CONTINUOUS
 70
0
 71
3
 72
9
 73
5
 74
0
 42
0.0000001
 43
0.0000001
 44
0.0000000001
 40
0.0
 40
0.0
 40
0.0
 40
0.0
 40
0.2366799371
 40
1.0
 40
1.0
 40
1.0
 40
1.0
 10
-67.861217373
 20
-26.2842375518
 30
0.0
 10
-67.8643346079
 20
-26.2820685213
 30
0.0
 10
-67.8773025111
 20
-26.2726134799
 30
0.0
 10
-67.8894905035
 20
-26.2621106016
 30
0.0
 10
-67.8983913275
 20
-26.2536973817
 30
0.0
  0
SPLINE
  5
32F
100
AcDbEntity
  8
0
100
AcDbSpline
 62
250
  6
CONTINUOUS
 70
0
 71
3
 72
9
 73
5
 74
0
 42
0.0000001
 43
0.0000001
 44
0.0000000001
 40
0.0
 40
0.0
 40
0.0
 40
0.0
 40
0.4630987682
 40
1.0
 40
1.0
 40
1.0
 40
1.0
 10
-67.7594793985
 20
26.3065510847
 30
0.0
 10
-67.7669799095
 20
26.3105324897
 30
0.0
 10
-67.7855327832
 20
26.3149410034
 30
0.0
 10
-67.803955064
 20
26.3116237691
 30
0.0
 10
-67.8133672226
 20
26.3087366358
 30
0.0
  0
SPLINE
  5
330
100
AcDbEntity
  8
0
100
AcDbSpline
 62
250
  6
CONTINUOUS
 70
0
 71
3
 72
9
 73
5
 74
0
 42
0.0000001
 43
0.0000001
 44
0.0000000001
 40
0.0
 40
0.0
 40
0.0
 40
0.0
 40
0.2256099368
 40
1.0
 40
1.0
 40
1.0
 40
1.0
 10
-67.8133672226
 20
26.3087366358
 30
0.0
 10
-67.8172441837
 20
26.307547397
 30
0.0
 10
-67.8341543328
 20
26.3013783348
 30
0.0
 10
-67.8498260486
 20
26.2921662857
 30
0.0
 10
-67.8612504044
 20
26.2842143459
 30
0.0
  0
SPLINE
  5
331
100
AcDbEntity
  8
0
100
AcDbSpline
 62
250
  6
CONTINUOUS
 70
0
 71
3
 72
9
 73
5
 74
0
 42
0.0000001
 43
0.0000001
 44
0.0000000001
 40
0.0
 40
0.0
 40
0.0
 40
0.0
 40
0.2366954975
 40
1.0
 40
1.0
 40
1.0
 40
1.0
 10
-67.8612504044
 20
26.2842143459
 30
0.0
 10
-67.8643648924
 20
26.2820465018
 30
0.0
 10
-67.8773207285
 20
26.2725977534
 30
0.0
 10
-67.8894981423
 20
26.2621033813
 30
0.0
 10
-67.8983913275
 20
26.2536973817
 30
0.0
  0
SPLINE
  5
332
100
AcDbEntity
  8
0
100
AcDbSpline
 62
250
  6
CONTINUOUS
 70
0
 71
3
 72
17
 73
13
 74
0
 42
0.0000001
 43
0.0000001
 44
0.0000000001
 40
0.0
 40
0.0
 40
0.0
 40
0.0
 40
0.0041509426
 40
0.0165131528
 40
0.0370394731
 40
0.0656738303
 40
0.147033967
 40
0.259883893
 40
0.4031301725
 40
0.5755840393
 40
0.7753335906
 40
1.0
 40
1.0
 40
1.0
 40
1.0
 10
-67.8983913275
 20
-26.3415638603
 30
0.0
 10
-67.89826975
 20
-26.341563153
 30
0.0
 10
-67.8984868705
 20
-26.3407901078
 30
0.0
 10
-67.898233128
 20
-26.3399838662
 30
0.0
 10
-67.8983403503
 20
-26.3380251079
 30
0.0
 10
-67.8982332274
 20
-26.3342971317
 30
0.0
 10
-67.8982712933
 20
-26.3277000543
 30
0.0
 10
-67.8982368542
 20
-26.3178494928
 30
0.0
 10
-67.8982582261
 20
-26.3052846155
 30
0.0
 10
-67.898282696
 20
-26.2901918491
 30
0.0
 10
-67.8983296489
 20
-26.2727082659
 30
0.0
 10
-67.8983689021
 20
-26.2602777389
 30
0.0
 10
-67.8983913275
 20
-26.2536973817
 30
0.0
  0
SPLINE
  5
333
100
AcDbEntity
  8
0
100
AcDbSpline
 62
7
  6
CONTINUOUS
 70
0
 71
3
 72
9
 73
5
 74
0
 42
0.0000001
 43
0.0000001
 44
0.0000000001
 40
0.0
 40
0.0
 40
0.0
 40
0.0
 40
0.5701358378
 40
1.0
 40
1.0
 40
1.0
 40
1.0
 10
-67.3762994748
 20
-25.9765617175
 30
0.0
 10
-67.3689500663
 20
-25.9889263811
 30
0.0
 10
-67.3563499845
 20
-26.0106368735
 30
0.0
 10
-67.3484405597
 20
-26.0354717374
 30
0.0
 10
-67.3484405597
 20
-26.0463167932
 30
0.0
  0
SPLINE
  5
334
100
AcDbEntity
  8
0
100
AcDbSpline
 62
250
  6
CONTINUOUS
 70
0
 71
3
 72
17
 73
13
 74
0
 42
0.0000001
 43
0.0000001
 44
0.0000000001
 40
0.0
 40
0.0
 40
0.0
 40
0.0
 40
0.2246664094
 40
0.4244159606
 40
0.5968698275
 40
0.740116107
 40
0.852966033
 40
0.9343261697
 40
0.9629605269
 40
0.9834868471
 40
0.9958490574
 40
1.0
 40
1.0
 40
1.0
 40
1.0
 10
-67.8983913275
 20
26.2536973817
 30
0.0
 10
-67.8983689021
 20
26.2602777389
 30
0.0
 10
-67.8983296489
 20
26.2727082659
 30
0.0
 10
-67.898282696
 20
26.2901918491
 30
0.0
 10
-67.8982582261
 20
26.3052846155
 30
0.0
 10
-67.8982368542
 20
26.3178494928
 30
0.0
 10
-67.8982712933
 20
26.3277000543
 30
0.0
 10
-67.8982332274
 20
26.3342971317
 30
0.0
 10
-67.8983403503
 20
26.3380251079
 30
0.0
 10
-67.898233128
 20
26.3399838662
 30
0.0
 10
-67.8984868705
 20
26.3407901078
 30
0.0
 10
-67.89826975
 20
26.341563153
 30
0.0
 10
-67.8983913275
 20
26.3415638603
 30
0.0
  0
SPLINE
  5
335
100
AcDbEntity
  8
ASSI
100
AcDbSpline
 62
7
  6
CONTINUOUS
 70
0
 71
3
 72
9
 73
5
 74
0
 42
0.0000001
 43
0.0000001
 44
0.0000000001
 40
0.0
 40
0.0
 40
0.0
 40
0.0
 40
0.2171201313
 40
1.0
 40
1.0
 40
1.0
 40
1.0
 10
-67.3484405597
 20
26.0463167932
 30
0.0
 10
-67.3484405597
 20
26.0430884804
 30
0.0
 10
-67.3499200677
 20
26.0282086012
 30
0.0
 10
-67.355953049
 20
26.0142370373
 30
0.0
 10
-67.3611516048
 20
26.0038218733
 30
0.0
  0
SPLINE
  5
336
100
AcDbEntity
  8
ASSI
100
AcDbSpline
 62
7
  6
CONTINUOUS
 70
0
 71
3
 72
9
 73
5
 74
0
 42
0.0000001
 43
0.0000001
 44
0.0000000001
 40
0.0
 40
0.0
 40
0.0
 40
0.0
 40
0.2349024502
 40
1.0
 40
1.0
 40
1.0
 40
1.0
 10
-67.3611516048
 20
26.0038218733
 30
0.0
 10
-67.3622422965
 20
26.0016367023
 30
0.0
 10
-67.367025334
 20
25.9924038454
 30
0.0
 10
-67.3722351097
 20
25.9833996157
 30
0.0
 10
-67.3762994748
 20
25.9765617175
 30
0.0
  0
SPLINE
  5
337
100
AcDbEntity
  8
ASSI
100
AcDbSpline
 62
250
  6
CONTINUOUS
 70
0
 71
3
 72
17
 73
13
 74
0
 42
0.0000001
 43
0.0000001
 44
0.0000000001
 40
0.0
 40
0.0
 40
0.0
 40
0.0
 40
0.2246664094
 40
0.4244159606
 40
0.5968698275
 40
0.740116107
 40
0.852966033
 40
0.9343261697
 40
0.9629605269
 40
0.9834868471
 40
0.9958490574
 40
1.0
 40
1.0
 40
1.0
 40
1.0
 10
-67.8983913275
 20
26.2536973817
 30
0.0
 10
-67.8983689021
 20
26.2602777389
 30
0.0
 10
-67.8983296489
 20
26.2727082659
 30
0.0
 10
-67.898282696
 20
26.2901918491
 30
0.0
 10
-67.8982582261
 20
26.3052846155
 30
0.0
 10
-67.8982368542
 20
26.3178494928
 30
0.0
 10
-67.8982712933
 20
26.3277000543
 30
0.0
 10
-67.8982332274
 20
26.3342971317
 30
0.0
 10
-67.8983403503
 20
26.3380251079
 30
0.0
 10
-67.898233128
 20
26.3399838662
 30
0.0
 10
-67.8984868705
 20
26.3407901078
 30
0.0
 10
-67.89826975
 20
26.341563153
 30
0.0
 10
-67.8983913275
 20
26.3415638603
 30
0.0
  0
SPLINE
  5
338
100
AcDbEntity
  8
ASSI
100
AcDbSpline
 62
250
  6
CONTINUOUS
 70
0
 71
3
 72
9
 73
5
 74
0
 42
0.0000001
 43
0.0000001
 44
0.0000000001
 40
0.0
 40
0.0
 40
0.0
 40
0.0
 40
0.5590803942
 40
1.0
 40
1.0
 40
1.0
 40
1.0
 10
-69.422667976
 20
-26.9276792439
 30
0.0
 10
-69.4064962338
 20
-26.9561130894
 30
0.0
 10
-69.3764417122
 20
-27.0063206884
 30
0.0
 10
-69.3437080031
 20
-27.0549241747
 30
0.0
 10
-69.3279377344
 20
-27.0753401812
 30
0.0
  0
SPLINE
  5
339
100
AcDbEntity
  8
ASSI
100
AcDbSpline
 62
250
  6
CONTINUOUS
 70
0
 71
3
 72
10
 73
6
 74
0
 42
0.0000001
 43
0.0000001
 44
0.0000000001
 40
0.0
 40
0.0
 40
0.0
 40
0.0
 40
0.6950720124
 40
0.8909531812
 40
1.0
 40
1.0
 40
1.0
 40
1.0
 10
-69.3279377344
 20
-27.0753401812
 30
0.0
 10
-69.319150558
 20
-27.0867159576
 30
0.0
 10
-69.3070822103
 20
-27.1011663008
 30
0.0
 10
-69.2915864556
 20
-27.1142235827
 30
0.0
 10
-69.2845283555
 20
-27.1160691119
 30
0.0
 10
-69.2825343261
 20
-27.1150157961
 30
0.0
  0
SPLINE
  5
33A
100
AcDbEntity
  8
ASSI
100
AcDbSpline
 62
250
  6
CONTINUOUS
 70
0
 71
3
 72
9
 73
5
 74
0
 42
0.0000001
 43
0.0000001
 44
0.0000000001
 40
0.0
 40
0.0
 40
0.0
 40
0.0
 40
0.4631330765
 40
1.0
 40
1.0
 40
1.0
 40
1.0
 10
-67.7594793985
 20
-26.3065510847
 30
0.0
 10
-67.7669741023
 20
-26.3105294071
 30
0.0
 10
-67.7855092763
 20
-26.3149384264
 30
0.0
 10
-67.8039171
 20
-26.311631072
 30
0.0
 10
-67.8133218177
 20
-26.3087503043
 30
0.0
  0
SPLINE
  5
33B
100
AcDbEntity
  8
ASSI
100
AcDbSpline
 62
250
  6
CONTINUOUS
 70
0
 71
3
 72
9
 73
5
 74
0
 42
0.0000001
 43
0.0000001
 44
0.0000000001
 40
0.0
 40
0.0
 40
0.0
 40
0.0
 40
0.2256050966
 40
1.0
 40
1.0
 40
1.0
 40
1.0
 10
-67.8133218177
 20
-26.3087503043
 30
0.0
 10
-67.8171996614
 20
-26.3075624784
 30
0.0
 10
-67.8341141887
 20
-26.30139862
 30
0.0
 10
-67.8497902428
 20
-26.292188763
 30
0.0
 10
-67.861217373
 20
-26.2842375518
 30
0.0
  0
SPLINE
  5
33C
100
AcDbEntity
  8
ASSI
100
AcDbSpline
 62
250
  6
CONTINUOUS
 70
0
 71
3
 72
9
 73
5
 74
0
 42
0.0000001
 43
0.0000001
 44
0.0000000001
 40
0.0
 40
0.0
 40
0.0
 40
0.0
 40
0.2366799371
 40
1.0
 40
1.0
 40
1.0
 40
1.0
 10
-67.861217373
 20
-26.2842375518
 30
0.0
 10
-67.8643346079
 20
-26.2820685213
 30
0.0
 10
-67.8773025111
 20
-26.2726134799
 30
0.0
 10
-67.8894905035
 20
-26.2621106016
 30
0.0
 10
-67.8983913275
 20
-26.2536973817
 30
0.0
  0
SPLINE
  5
33D
100
AcDbEntity
  8
ASSI
100
AcDbSpline
 62
7
  6
CONTINUOUS
 70
0
 71
3
 72
9
 73
5
 74
0
 42
0.0000001
 43
0.0000001
 44
0.0000000001
 40
0.0
 40
0.0
 40
0.0
 40
0.0
 40
0.5701358378
 40
1.0
 40
1.0
 40
1.0
 40
1.0
 10
-67.3762994748
 20
-25.9765617175
 30
0.0
 10
-67.3689500663
 20
-25.9889263811
 30
0.0
 10
-67.3563499845
 20
-26.0106368735
 30
0.0
 10
-67.3484405597
 20
-26.0354717374
 30
0.0
 10
-67.3484405597
 20
-26.0463167932
 30
0.0
  0
SPLINE
  5
33E
100
AcDbEntity
  8
ASSI
100
AcDbSpline
 62
250
  6
CONTINUOUS
 70
0
 71
3
 72
9
 73
5
 74
0
 42
0.0000001
 43
0.0000001
 44
0.0000000001
 40
0.0
 40
0.0
 40
0.0
 40
0.0
 40
0.4630987682
 40
1.0
 40
1.0
 40
1.0
 40
1.0
 10
-67.7594793985
 20
26.3065510847
 30
0.0
 10
-67.7669799095
 20
26.3105324897
 30
0.0
 10
-67.7855327832
 20
26.3149410034
 30
0.0
 10
-67.803955064
 20
26.3116237691
 30
0.0
 10
-67.8133672226
 20
26.3087366358
 30
0.0
  0
SPLINE
  5
33F
100
AcDbEntity
  8
ASSI
100
AcDbSpline
 62
250
  6
CONTINUOUS
 70
0
 71
3
 72
9
 73
5
 74
0
 42
0.0000001
 43
0.0000001
 44
0.0000000001
 40
0.0
 40
0.0
 40
0.0
 40
0.0
 40
0.2256099368
 40
1.0
 40
1.0
 40
1.0
 40
1.0
 10
-67.8133672226
 20
26.3087366358
 30
0.0
 10
-67.8172441837
 20
26.307547397
 30
0.0
 10
-67.8341543328
 20
26.3013783348
 30
0.0
 10
-67.8498260486
 20
26.2921662857
 30
0.0
 10
-67.8612504044
 20
26.2842143459
 30
0.0
  0
SPLINE
  5
340
100
AcDbEntity
  8
ASSI
100
AcDbSpline
 62
250
  6
CONTINUOUS
 70
0
 71
3
 72
9
 73
5
 74
0
 42
0.0000001
 43
0.0000001
 44
0.0000000001
 40
0.0
 40
0.0
 40
0.0
 40
0.0
 40
0.2366954975
 40
1.0
 40
1.0
 40
1.0
 40
1.0
 10
-67.8612504044
 20
26.2842143459
 30
0.0
 10
-67.8643648924
 20
26.2820465018
 30
0.0
 10
-67.8773207285
 20
26.2725977534
 30
0.0
 10
-67.8894981423
 20
26.2621033813
 30
0.0
 10
-67.8983913275
 20
26.2536973817
 30
0.0
  0
SPLINE
  5
341
100
AcDbEntity
  8
ASSI
100
AcDbSpline
 62
250
  6
CONTINUOUS
 70
0
 71
3
 72
17
 73
13
 74
0
 42
0.0000001
 43
0.0000001
 44
0.0000000001
 40
0.0
 40
0.0
 40
0.0
 40
0.0
 40
0.0041509426
 40
0.0165131528
 40
0.0370394731
 40
0.0656738303
 40
0.147033967
 40
0.259883893
 40
0.4031301725
 40
0.5755840393
 40
0.7753335906
 40
1.0
 40
1.0
 40
1.0
 40
1.0
 10
-67.8983913275
 20
-26.3415638603
 30
0.0
 10
-67.89826975
 20
-26.341563153
 30
0.0
 10
-67.8984868705
 20
-26.3407901078
 30
0.0
 10
-67.898233128
 20
-26.3399838662
 30
0.0
 10
-67.8983403503
 20
-26.3380251079
 30
0.0
 10
-67.8982332274
 20
-26.3342971317
 30
0.0
 10
-67.8982712933
 20
-26.3277000543
 30
0.0
 10
-67.8982368542
 20
-26.3178494928
 30
0.0
 10
-67.8982582261
 20
-26.3052846155
 30
0.0
 10
-67.898282696
 20
-26.2901918491
 30
0.0
 10
-67.8983296489
 20
-26.2727082659
 30
0.0
 10
-67.8983689021
 20
-26.2602777389
 30
0.0
 10
-67.8983913275
 20
-26.2536973817
 30
0.0
  0
SPLINE
  5
342
100
AcDbEntity
  8
ASSI
100
AcDbSpline
 62
7
  6
CONTINUOUS
 70
0
 71
3
 72
18
 73
14
 74
0
 42
0.0000001
 43
0.0000001
 44
0.0000000001
 40
0.0
 40
0.0
 40
0.0
 40
0.0
 40
0.1917501427
 40
0.3754565595
 40
0.5446832798
 40
0.6936389099
 40
0.817166663
 40
0.8680467139
 40
0.9110789516
 40
0.945929282
 40
0.9723603198
 40
0.990270012
 40
1.0
 40
1.0
 40
1.0
 40
1.0
 10
-71.8473969144
 20
43.3404067067
 30
0.0
 10
-71.844225739
 20
43.4017695438
 30
0.0
 10
-71.8385281866
 20
43.5219485627
 30
0.0
 10
-71.8319811283
 20
43.6963675885
 30
0.0
 10
-71.8278372564
 20
43.8571465477
 30
0.0
 10
-71.8262946608
 20
43.9986819536
 30
0.0
 10
-71.8272007415
 20
44.102318931
 30
0.0
 10
-71.8295357588
 20
44.1719467969
 30
0.0
 10
-71.8317908486
 20
44.2131804697
 30
0.0
 10
-71.834639109
 20
44.2464101674
 30
0.0
 10
-71.8379198116
 20
44.2717891156
 30
0.0
 10
-71.8416776494
 20
44.2883198423
 30
0.0
 10
-71.844962249
 20
44.2972173514
 30
0.0
 10
-71.8473969144
 20
44.2991650838
 30
0.0
  0
SPLINE
  5
343
100
AcDbEntity
  8
ASSI
100
AcDbSpline
 62
7
  6
CONTINUOUS
 70
0
 71
3
 72
18
 73
14
 74
0
 42
0.0000001
 43
0.0000001
 44
0.0000000001
 40
0.0
 40
0.0
 40
0.0
 40
0.0
 40
0.009729988
 40
0.0276396801
 40
0.0540707176
 40
0.0889210475
 40
0.1319532851
 40
0.182833336
 40
0.3063610902
 40
0.455316722
 40
0.6245434425
 40
0.8082498577
 40
1.0
 40
1.0
 40
1.0
 40
1.0
 10
-71.8473969144
 20
-44.2991650838
 30
0.0
 10
-71.844962249
 20
-44.2972173514
 30
0.0
 10
-71.8416776494
 20
-44.2883198423
 30
0.0
 10
-71.8379198116
 20
-44.2717891158
 30
0.0
 10
-71.8346391091
 20
-44.2464101679
 30
0.0
 10
-71.8317908486
 20
-44.2131804704
 30
0.0
 10
-71.8295357589
 20
-44.1719467979
 30
0.0
 10
-71.8272007415
 20
-44.1023189317
 30
0.0
 10
-71.8262946608
 20
-43.9986819533
 30
0.0
 10
-71.8278372564
 20
-43.8571465465
 30
0.0
 10
-71.8319811283
 20
-43.6963675871
 30
0.0
 10
-71.8385281867
 20
-43.5219485619
 30
0.0
 10
-71.844225739
 20
-43.4017695437
 30
0.0
 10
-71.8473969144
 20
-43.3404067067
 30
0.0
  0
SPLINE
  5
344
100
AcDbEntity
  8
ASSI
100
AcDbSpline
 62
250
  6
CONTINUOUS
 70
0
 71
3
 72
9
 73
5
 74
0
 42
0.0000001
 43
0.0000001
 44
0.0000000001
 40
0.0
 40
0.0
 40
0.0
 40
0.0
 40
0.5637833222
 40
1.0
 40
1.0
 40
1.0
 40
1.0
 10
-69.422667976
 20
26.9276792439
 30
0.0
 10
-69.4058464189
 20
26.9572424755
 30
0.0
 10
-69.3747741393
 20
27.0089600021
 30
0.0
 10
-69.3408659051
 20
27.0589978903
 30
0.0
 10
-69.3245388276
 20
27.0796387634
 30
0.0
  0
SPLINE
  5
345
100
AcDbEntity
  8
ASSI
100
AcDbSpline
 62
250
  6
CONTINUOUS
 70
0
 71
3
 72
10
 73
6
 74
0
 42
0.0000001
 43
0.0000001
 44
0.0000000001
 40
0.0
 40
0.0
 40
0.0
 40
0.0
 40
0.6924460877
 40
0.8884016716
 40
1.0
 40
1.0
 40
1.0
 40
1.0
 10
-69.3245388276
 20
27.0796387634
 30
0.0
 10
-69.3164374571
 20
27.089880606
 30
0.0
 10
-69.3053183365
 20
27.1028525793
 30
0.0
 10
-69.2908930512
 20
27.1145299103
 30
0.0
 10
-69.2843914609
 20
27.1160059374
 30
0.0
 10
-69.2825343261
 20
27.1150157961
 30
0.0
  0
SPLINE
  5
346
100
AcDbEntity
  8
0
100
AcDbSpline
 62
250
  6
CONTINUOUS
 70
0
 71
3
 72
19
 73
15
 74
0
 42
0.0000001
 43
0.0000001
 44
0.0000000001
 40
0.0
 40
0.0
 40
0.0
 40
0.0
 40
0.1
 40
0.2
 40
0.25
 40
0.3
 40
0.4
 40
0.5
 40
0.6
 40
0.7
 40
0.75
 40
0.8
 40
0.9
 40
1.0
 40
1.0
 40
1.0
 40
1.0
 10
-73.6797212064
 20
-30.9665924606
 30
0.0
 10
-73.6912089133
 20
-30.966766778
 30
0.0
 10
-73.7134705344
 20
-30.9688109123
 30
0.0
 10
-73.7412114133
 20
-30.9752826391
 30
0.0
 10
-73.7628786063
 20
-30.9827594345
 30
0.0
 10
-73.7842203664
 20
-30.991811914
 30
0.0
 10
-73.8096670725
 20
-31.0058816416
 30
0.0
 10
-73.8382166886
 20
-31.0277121033
 30
0.0
 10
-73.8629568736
 20
-31.0542504701
 30
0.0
 10
-73.8798878559
 20
-31.0792467414
 30
0.0
 10
-73.8914061356
 20
-31.1009254272
 30
0.0
 10
-73.9014112403
 20
-31.1233891903
 30
0.0
 10
-73.9111575733
 20
-31.1530209703
 30
0.0
 10
-73.9158175188
 20
-31.1776757761
 30
0.0
 10
-73.9173198434
 20
-31.1906198896
 30
0.0
  0
SPLINE
  5
347
100
AcDbEntity
  8
0
100
AcDbSpline
 62
250
  6
CONTINUOUS
 70
0
 71
3
 72
16
 73
12
 74
0
 42
0.0000001
 43
0.0000001
 44
0.0000000001
 40
0.0
 40
0.0
 40
0.0
 40
0.0
 40
0.125
 40
0.25
 40
0.3125
 40
0.375
 40
0.5
 40
0.625
 40
0.75
 40
0.875
 40
1.0
 40
1.0
 40
1.0
 40
1.0
 10
-72.9062415466
 20
-31.0543291296
 30
0.0
 10
-72.9189827146
 20
-31.0591210119
 30
0.0
 10
-72.9426951768
 20
-31.0699213512
 30
0.0
 10
-72.9703148442
 20
-31.0869312726
 30
0.0
 10
-72.9905375056
 20
-31.1023486401
 30
0.0
 10
-73.0095387815
 20
-31.1190369749
 30
0.0
 10
-73.0303757161
 20
-31.1418315854
 30
0.0
 10
-73.0504522165
 20
-31.1727376034
 30
0.0
 10
-73.0641084039
 20
-31.2063880694
 30
0.0
 10
-73.0717503237
 20
-31.2407288936
 30
0.0
 10
-73.0734414762
 20
-31.2635934599
 30
0.0
 10
-73.0734414762
 20
-31.2755061485
 30
0.0
  0
SPLINE
  5
348
100
AcDbEntity
  8
0
100
AcDbSpline
 62
250
  6
CONTINUOUS
 70
0
 71
3
 72
12
 73
8
 74
0
 42
0.0000001
 43
0.0000001
 44
0.0000000001
 40
0.0
 40
0.0
 40
0.0
 40
0.0
 40
0.1666666667
 40
0.3333333333
 40
0.5
 40
0.6666666667
 40
1.0
 40
1.0
 40
1.0
 40
1.0
 10
-72.3299468137
 20
-30.8808429347
 30
0.0
 10
-72.3646825895
 20
-30.8908296097
 30
0.0
 10
-72.4332054837
 20
-30.9108910347
 30
0.0
 10
-72.5333077788
 20
-30.9403977304
 30
0.0
 10
-72.6311017727
 20
-30.9682803792
 30
0.0
 10
-72.7581173719
 20
-31.0040962472
 30
0.0
 10
-72.8486574853
 20
-31.032689034
 30
0.0
 10
-72.9062016858
 20
-31.0543141626
 30
0.0
  0
SPLINE
  5
349
100
AcDbEntity
  8
0
100
AcDbSpline
 62
250
  6
CONTINUOUS
 70
0
 71
3
 72
10
 73
6
 74
0
 42
0.0000001
 43
0.0000001
 44
0.0000000001
 40
0.0
 40
0.0
 40
0.0
 40
0.0
 40
0.3333333333
 40
0.6666666667
 40
1.0
 40
1.0
 40
1.0
 40
1.0
 10
-72.84411378
 20
-30.6349473604
 30
0.0
 10
-72.7851724204
 20
-30.6188892902
 30
0.0
 10
-72.6683698066
 20
-30.587912854
 30
0.0
 10
-72.4969078878
 20
-30.5433507383
 30
0.0
 10
-72.3850636171
 20
-30.5143560173
 30
0.0
 10
-72.3299468137
 20
-30.4993864496
 30
0.0
  0
SPLINE
  5
34A
100
AcDbEntity
  8
0
100
AcDbSpline
 62
250
  6
CONTINUOUS
 70
0
 71
3
 72
12
 73
8
 74
0
 42
0.0000001
 43
0.0000001
 44
0.0000000001
 40
0.0
 40
0.0
 40
0.0
 40
0.0
 40
0.3333333333
 40
0.5
 40
0.6666666667
 40
0.8333333333
 40
1.0
 40
1.0
 40
1.0
 40
1.0
 10
-73.9173198433
 20
-31.1906198897
 30
0.0
 10
-73.9212756316
 20
-31.2247031861
 30
0.0
 10
-73.9245836197
 20
-31.2760351048
 30
0.0
 10
-73.923826522
 20
-31.3446469132
 30
0.0
 10
-73.9206725322
 20
-31.3963465432
 30
0.0
 10
-73.914695179
 20
-31.4486332572
 30
0.0
 10
-73.9091452376
 20
-31.4836469553
 30
0.0
 10
-73.906134983
 20
-31.5012884969
 30
0.0
  0
SPLINE
  5
34B
100
AcDbEntity
  8
0
100
AcDbSpline
 62
250
  6
CONTINUOUS
 70
0
 71
3
 72
15
 73
11
 74
0
 42
0.0000001
 43
0.0000001
 44
0.0000000001
 40
0.0
 40
0.0
 40
0.0
 40
0.0
 40
0.1666666667
 40
0.3333333333
 40
0.5
 40
0.5833333333
 40
0.6666666667
 40
0.75
 40
0.8333333333
 40
1.0
 40
1.0
 40
1.0
 40
1.0
 10
-73.3845902955
 20
-31.2746513441
 30
0.0
 10
-73.3852875685
 20
-31.243433514
 30
0.0
 10
-73.3912152823
 20
-31.1854781707
 30
0.0
 10
-73.4125354141
 20
-31.1135922955
 30
0.0
 10
-73.4436348091
 20
-31.062212285
 30
0.0
 10
-73.4801656501
 20
-31.0283093724
 30
0.0
 10
-73.5125237572
 20
-31.0068690982
 30
0.0
 10
-73.5482851075
 20
-30.9898520087
 30
0.0
 10
-73.6014799537
 20
-30.9724933524
 30
0.0
 10
-73.6469019797
 20
-30.9660914132
 30
0.0
 10
-73.6797733552
 20
-30.9665932672
 30
0.0
  0
SPLINE
  5
34C
100
AcDbEntity
  8
0
100
AcDbSpline
 62
250
  6
CONTINUOUS
 70
0
 71
3
 72
16
 73
12
 74
0
 42
0.0000001
 43
0.0000001
 44
0.0000000001
 40
0.0
 40
0.0
 40
0.0
 40
0.0
 40
0.1111111111
 40
0.2222222222
 40
0.3333333333
 40
0.4444444444
 40
0.5555555556
 40
0.6666666667
 40
0.7777777778
 40
0.8888888889
 40
1.0
 40
1.0
 40
1.0
 40
1.0
 10
-73.2167779355
 20
-30.8635473914
 30
0.0
 10
-73.2107662313
 20
-30.8484710171
 30
0.0
 10
-73.1955695199
 20
-30.8202676794
 30
0.0
 10
-73.1638641384
 20
-30.7824715727
 30
0.0
 10
-73.127018705
 20
-30.7509354429
 30
0.0
 10
-73.0865455373
 20
-30.7242522616
 30
0.0
 10
-73.0447071355
 20
-30.7021340274
 30
0.0
 10
-73.0005759386
 20
-30.68290862
 30
0.0
 10
-72.9534008059
 20
-30.6658164885
 30
0.0
 10
-72.9020141264
 20
-30.6504289433
 30
0.0
 10
-72.8639129557
 20
-30.6403414771
 30
0.0
 10
-72.8441137799
 20
-30.6349473606
 30
0.0
  0
SPLINE
  5
34D
100
AcDbEntity
  8
0
100
AcDbSpline
 62
250
  6
CONTINUOUS
 70
0
 71
3
 72
34
 73
30
 74
0
 42
0.0000001
 43
0.0000001
 44
0.0000000001
 40
0.0
 40
0.0
 40
0.0
 40
0.0
 40
0.0277777778
 40
0.0555555556
 40
0.0833333333
 40
0.1111111111
 40
0.1388888889
 40
0.1666666667
 40
0.1944444444
 40
0.2222222222
 40
0.25
 40
0.2777777778
 40
0.3333333333
 40
0.3888888889
 40
0.4444444444
 40
0.5
 40
0.5555555556
 40
0.6111111111
 40
0.6666666667
 40
0.7222222222
 40
0.7777777778
 40
0.8055555556
 40
0.8333333333
 40
0.8611111111
 40
0.8888888889
 40
0.9166666667
 40
0.9444444444
 40
0.9722222222
 40
1.0
 40
1.0
 40
1.0
 40
1.0
 10
-74.1875935944
 20
-30.9044355375
 30
0.0
 10
-74.1825304473
 20
-30.8904006172
 30
0.0
 10
-74.1702083692
 20
-30.8628007173
 30
0.0
 10
-74.1453519712
 20
-30.8215464562
 30
0.0
 10
-74.1139270718
 20
-30.7794165489
 30
0.0
 10
-74.0771056585
 20
-30.7396140191
 30
0.0
 10
-74.0355470936
 20
-30.7035426851
 30
0.0
 10
-73.9899865463
 20
-30.6720507669
 30
0.0
 10
-73.9413869302
 20
-30.6457118259
 30
0.0
 10
-73.8912781748
 20
-30.6253107561
 30
0.0
 10
-73.842824139
 20
-30.6110731221
 30
0.0
 10
-73.7795215608
 20
-30.5985754054
 30
0.0
 10
-73.7065858391
 20
-30.5930444166
 30
0.0
 10
-73.6283891383
 20
-30.5967783865
 30
0.0
 10
-73.5584052194
 20
-30.609055895
 30
0.0
 10
-73.4971938925
 20
-30.6276211252
 30
0.0
 10
-73.4439770963
 20
-30.6505161815
 30
0.0
 10
-73.3981743372
 20
-30.6761887229
 30
0.0
 10
-73.3592424469
 20
-30.7035283456
 30
0.0
 10
-73.3265483549
 20
-30.7319422449
 30
0.0
 10
-73.303602547
 20
-30.7553450394
 30
0.0
 10
-73.2871328471
 20
-30.7734813909
 30
0.0
 10
-73.2755673253
 20
-30.786766767
 30
0.0
 10
-73.2647903437
 20
-30.7995876573
 30
0.0
 10
-73.2545154932
 20
-30.8119990475
 30
0.0
 10
-73.2447290175
 20
-30.8246561563
 30
0.0
 10
-73.236605867
 20
-30.8374014042
 30
0.0
 10
-73.2307346923
 20
-30.8502632268
 30
0.0
 10
-73.2285782258
 20
-30.8590999878
 30
0.0
 10
-73.2280043673
 20
-30.8635473914
 30
0.0
  0
SPLINE
  5
34E
100
AcDbEntity
  8
0
100
AcDbSpline
 62
250
  6
CONTINUOUS
 70
0
 71
3
 72
15
 73
11
 74
0
 42
0.0000001
 43
0.0000001
 44
0.0000000001
 40
0.0
 40
0.0
 40
0.0
 40
0.0
 40
0.125
 40
0.25
 40
0.375
 40
0.5
 40
0.625
 40
0.75
 40
0.875
 40
1.0
 40
1.0
 40
1.0
 40
1.0
 10
-74.2075960185
 20
-31.8831153973
 30
0.0
 10
-74.2147919677
 20
-31.8342023019
 30
0.0
 10
-74.228126424
 20
-31.739697139
 30
0.0
 10
-74.2432074547
 20
-31.609021909
 30
0.0
 10
-74.2529680732
 20
-31.485230961
 30
0.0
 10
-74.2567960947
 20
-31.366095745
 30
0.0
 10
-74.2538104059
 20
-31.2485933874
 30
0.0
 10
-74.2426969669
 20
-31.1321277884
 30
0.0
 10
-74.2219491874
 20
-31.0169937319
 30
0.0
 10
-74.2009804401
 20
-30.9414897671
 30
0.0
 10
-74.1875935944
 20
-30.9044355375
 30
0.0
  0
ELLIPSE
  5
34F
100
AcDbEntity
  8
0
100
AcDbEllipse
 62
7
  6
CONTINUOUS
 10
-67.5484405597
 20
-26.079798695
 30
0.0
 11
0.1417119467
 21
0.1422961243
 31
0.0
 40
0.9918061237
 41
-0.2491986107
 42
0.7350951877
  0
ELLIPSE
  5
350
100
AcDbEntity
  8
0
100
AcDbEllipse
 62
7
  6
CONTINUOUS
 10
-67.5484405597
 20
26.079798695
 30
0.0
 11
-0.1417119467
 21
0.1422961243
 31
0.0
 40
0.9918061237
 41
-3.8766878413
 42
-2.8923940429
  0
ELLIPSE
  5
351
100
AcDbEntity
  8
0
100
AcDbEllipse
 62
7
  6
CONTINUOUS
 10
-70.6251317286
 20
-43.3
 30
0.0
 11
1.2233088312
 21
-0.0
 31
0.0
 40
0.7998095528
 41
-3.1415926536
 42
-3.1002827401
  0
ELLIPSE
  5
352
100
AcDbEntity
  8
0
100
AcDbEllipse
 62
7
  6
CONTINUOUS
 10
-70.6251317286
 20
43.3
 30
0.0
 11
1.2233088312
 21
0.0
 31
0.0
 40
0.7998095528
 41
3.1002827401
 42
3.1415926536
  0
ELLIPSE
  5
353
100
AcDbEntity
  8
ASSI
100
AcDbEllipse
 62
7
  6
CONTINUOUS
 10
-67.5484405597
 20
-26.079798695
 30
0.0
 11
0.1417119467
 21
0.1422961243
 31
0.0
 40
0.9918061237
 41
-0.2491986107
 42
0.7350951877
  0
ELLIPSE
  5
354
100
AcDbEntity
  8
ASSI
100
AcDbEllipse
 62
7
  6
CONTINUOUS
 10
-67.5484405597
 20
26.079798695
 30
0.0
 11
-0.1417119467
 21
0.1422961243
 31
0.0
 40
0.9918061237
 41
-3.8766878413
 42
-2.8923940429
  0
ELLIPSE
  5
355
100
AcDbEntity
  8
ASSI
100
AcDbEllipse
 62
7
  6
CONTINUOUS
 10
-70.6251317286
 20
-43.3
 30
0.0
 11
1.2233088312
 21
-0.0
 31
0.0
 40
0.7998095528
 41
-3.1415926536
 42
-3.1002827401
  0
ELLIPSE
  5
356
100
AcDbEntity
  8
ASSI
100
AcDbEllipse
 62
7
  6
CONTINUOUS
 10
-70.6251317286
 20
43.3
 30
0.0
 11
1.2233088312
 21
0.0
 31
0.0
 40
0.7998095528
 41
3.1002827401
 42
3.1415926536
  0
ENDSEC
  0
SECTION
  2
OBJECTS
  0
DICTIONARY
  5
C
100
AcDbDictionary
280
0
281
1
  3
ACAD_GROUP
350
D
  3
ACAD_MLINESTYLE
350
17
  3
ACAD_LAYOUT
350
1A
  3
ACAD_PLOTSETTINGS
350
19
  3
ACAD_PLOTSTYLENAME
350
E
  0
DICTIONARY
  5
D
102
{ACAD_REACTORS
330
C
102
}
100
AcDbDictionary
280
0
281
1
  0
ACDBDICTIONARYWDFLT
  5
E
102
{ACAD_REACTORS
330
C
102
}
100
AcDbDictionary
281
1
  3
Normal
350
F
100
AcDbDictionaryWithDefault
340
F
  0
DICTIONARY
  5
17
102
{ACAD_REACTORS
330
C
102
}
100
AcDbDictionary
280
0
281
1
  3
Standard
350
18
  0
DICTIONARY
  5
19
102
{ACAD_REACTORS
330
C
102
}
100
AcDbDictionary
281
1
  0
DICTIONARY
  5
1A
102
{ACAD_REACTORS
330
C
102
}
100
AcDbDictionary
281
1
  3
Model
350
357
  3
Layout1
350
358
  0
ACDBPLACEHOLDER
  5
F
102
{ACAD_REACTORS
330
E
102
}
  0
MLINESTYLE
  5
18
102
{ACAD_REACTORS
330
17
102
}
100
AcDbMlineStyle
  2
STANDARD
 70
0
  3

 62
256
 51
90.0
 52
90.0
 71
2
 49
0.5
 62
256
  6
BYLAYER
 49
-0.5
 62
256
  6
BYLAYER
  0
LAYOUT
  5
357
102
{ACAD_REACTORS
330
1A
102
}
100
AcDbPlotSettings
  1

  2
none_device
  4
ISO_A4_(297.00_x_210.00_MM)
  6

 40
0.0
 41
0.0
 42
0.0
 43
0.0
 44
297.0
 45
210.0
 46
0.0
 47
0.0
 48
0.0
 49
0.0
140
0.0
141
0.0
142
1.0
143
1.0
 70
1024
 72
1
 73
0
 74
0
  7

 75
0
147
1.0
148
0.0
149
0.0
100
AcDbLayout
  1
Model
 70
0
 71
0
 10
0.0
 20
0.0
 11
297.0
 21
210.0
 12
0.0
 22
0.0
 32
0.0
 14
0.0
 24
0.0
 34
0.0
 15
0.0
 25
0.0
 35
0.0
146
0.0
 13
0.0
 23
0.0
 33
0.0
 16
1.0
 26
0.0
 36
0.0
 17
0.0
 27
1.0
 37
0.0
 76
0
330
21D
345
0
346
0
  0
LAYOUT
  5
358
102
{ACAD_REACTORS
330
1A
102
}
100
AcDbPlotSettings
  1

  2
none_device
  4
ISO_A4_(297.00_x_210.00_MM)
  6

 40
0.0
 41
0.0
 42
0.0
 43
0.0
 44
297.0
 45
210.0
 46
0.0
 47
0.0
 48
0.0
 49
0.0
140
0.0
141
0.0
142
1.0
143
1.0
 70
0
 72
1
 73
0
 74
0
  7

 75
0
147
1.0
148
0.0
149
0.0
100
AcDbLayout
  1
Layout1
 70
0
 71
1
 10
0.0
 20
0.0
 11
297.0
 21
210.0
 12
0.0
 22
0.0
 32
0.0
 14
0.0
 24
0.0
 34
0.0
 15
0.0
 25
0.0
 35
0.0
146
0.0
 13
0.0
 23
0.0
 33
0.0
 16
1.0
 26
0.0
 36
0.0
 17
0.0
 27
1.0
 37
0.0
 76
0
330
21E
345
0
346
0
  0
ENDSEC
  0
EOF
