  0
SECTION
  2
HEADER
  9
$ACADVER
  1
AC1021
  9
$DWGCODEPAGE
  3
ANSI_1252
  9
$EXTMAX
 10
297.0
 20
210.0
 30
0.0
  9
$EXTMIN
 10
0.0
 20
0.0
 30
0.0
  9
$LIMMIN
 10
0.0
 20
0.0
  9
$LIMMAX
 10
297.0
 20
210.0
  9
$VIEWCTR
 10
148.5
 20
105.0
  9
$VIEWSIZE
 40
210.0
  9
$CLAYER
  8
0
  9
$LTSCALE
 40
16.335
  9
$CELTYPE
  6
BYLAYER
  9
$DIMSCALE
 40
1.0
  9
$DIMASZ
 40
3.0
  9
$DIMEXO
 40
0.5
  9
$DIMDLI
 40
11.286
  9
$DIMEXE
 40
1.5
  9
$DIMCEN
 40
2.673
  9
$DIMLFAC
 40
1.0
  9
$DIMBLK
  1
_FILLED
  9
$DIMALT
 70
0
  9
$DIMALTF
 40
25.4
  9
$DIMTXT
 40
3.0
  9
$DIMTOL
 70
1
  9
$DIMLIM
 70
0
  9
$DIMTFAC
 40
1.0
  9
$DIMTP
 40
0.01
  9
$DIMTM
 40
0.01
  9
$DIMGAP
 40
0.625
  9
$DIMDSEP
 70
44
  9
$AUNITS
 70
0
  9
$PDMODE
 70
3
  9
$PDSIZE
 40
3.0
  9
$HANDSEED
  5
41B
  9
$TILEMODE
 70
1
  9
$MEASUREMENT
 70
1
  9
$INSUNITS
 70
4
  0
ENDSEC
  0
SECTION
  2
CLASSES
  0
CLASS
  1
ACDBDICTIONARYWDFLT
  2
AcDbDictionaryWithDefault
  3
AutoCAD 2000
 90
0
 91
1
280
0
281
0
  0
CLASS
  1
ACDBPLACEHOLDER
  2
AcDbPlaceHolder
  3
AutoCAD 2000
 90
0
 91
1
280
0
281
0
  0
CLASS
  1
LAYOUT
  2
AcDbLayout
  3
AutoCAD 2000
 90
0
 91
0
280
0
281
0
  0
ENDSEC
  0
SECTION
  2
TABLES
  0
TABLE
  2
VPORT
  5
8
100
AcDbSymbolTable
 70
2
  0
VPORT
  5
1F4
100
AcDbSymbolTableRecord
100
AcDbViewportTableRecord
  2
*ACTIVE
 70
0
 10
0.0
 20
0.0
 11
1.0
 21
1.0
 12
148.5
 22
105.0
 13
0.0
 23
0.0
 14
1.0
 24
1.0
 15
0.0
 25
0.0
 16
0.0
 26
0.0
 36
1.0
 17
0.0
 27
0.0
 37
0.0
 40
210.0
 41
1.4142857143
 42
50.0
 43
0.0
 44
0.0
 50
0.0
 51
0.0
 71
0
 72
100
 73
1
 74
1
 75
0
 76
0
 77
0
 78
0
  0
ENDTAB
  0
TABLE
  2
LTYPE
  5
5
100
AcDbSymbolTable
 70
6
  0
LTYPE
  5
14
100
AcDbSymbolTableRecord
100
AcDbLinetypeTableRecord
  2
BYBLOCK
 70
0
  3

 72
65
 73
0
 40
0.0
  0
LTYPE
  5
15
100
AcDbSymbolTableRecord
100
AcDbLinetypeTableRecord
  2
BYLAYER
 70
0
  3

 72
65
 73
0
 40
0.0
  0
LTYPE
  5
16
100
AcDbSymbolTableRecord
100
AcDbLinetypeTableRecord
  2
CONTINUOUS
 70
64
  3
Solid line
 72
65
 73
0
 40
0.0
  0
LTYPE
  5
1F5
100
AcDbSymbolTableRecord
100
AcDbLinetypeTableRecord
  2
CENTER
 70
64
  3
____ _ ____ _ ____ _ ____ _ ____ _ ____ _ ____
 72
65
 73
4
 40
0.6
 49
0.375
 74
0
 49
-0.075
 74
0
 49
0.075
 74
0
 49
-0.075
 74
0
  0
LTYPE
  5
1F6
100
AcDbSymbolTableRecord
100
AcDbLinetypeTableRecord
  2
HIDDEN
 70
64
  3
- - - - - - - - - - - - - - - - - - - -
 72
65
 73
2
 40
0.2
 49
0.1
 74
0
 49
-0.1
 74
0
  0
LTYPE
  5
1F7
100
AcDbSymbolTableRecord
100
AcDbLinetypeTableRecord
  2
PHANTOM
 70
64
  3
_____ _ _ _____ _ _ _____ _ _ _____
 72
65
 73
6
 40
0.8
 49
0.45
 74
0
 49
-0.05
 74
0
 49
0.1
 74
0
 49
-0.05
 74
0
 49
0.1
 74
0
 49
-0.05
 74
0
  0
LTYPE
  5
1F8
100
AcDbSymbolTableRecord
100
AcDbLinetypeTableRecord
  2
DOT
 70
64
  3
. . . . . . . . . . . . . . . . . . . .
 72
65
 73
2
 40
0.2
 49
0.1
 74
0
 49
-0.1
 74
0
  0
LTYPE
  5
1F9
100
AcDbSymbolTableRecord
100
AcDbLinetypeTableRecord
  2
DASHED
 70
64
  3
- - - - - - - - - - - - - - - - - - - -
 72
65
 73
2
 40
0.2
 49
0.1
 74
0
 49
-0.1
 74
0
  0
ENDTAB
  0
TABLE
  2
LAYER
  5
2
100
AcDbSymbolTable
 70
36
  0
LAYER
  5
10
100
AcDbSymbolTableRecord
100
AcDbLayerTableRecord
  2
0
 70
0
 62
7
  6
CONTINUOUS
370
-3
390
F
  0
LAYER
  5
1FA
100
AcDbSymbolTableRecord
100
AcDbLayerTableRecord
  2
DEFAULT_1
 70
0
 62
7
  6
CENTER
370
-3
390
F
  0
LAYER
  5
1FB
100
AcDbSymbolTableRecord
100
AcDbLayerTableRecord
  2
DEFAULT_2
 70
0
 62
7
  6
HIDDEN
370
-3
390
F
  0
LAYER
  5
1FC
100
AcDbSymbolTableRecord
100
AcDbLayerTableRecord
  2
DEFAULT_3
 70
0
 62
7
  6
PHANTOM
370
-3
390
F
  0
LAYER
  5
1FD
100
AcDbSymbolTableRecord
100
AcDbLayerTableRecord
  2
ASSI
 70
0
 62
7
  6
CONTINUOUS
370
-3
390
F
  0
LAYER
  5
1FE
100
AcDbSymbolTableRecord
100
AcDbLayerTableRecord
  2
COORDINATE
 70
0
 62
7
  6
CONTINUOUS
370
-3
390
F
  0
LAYER
  5
1FF
100
AcDbSymbolTableRecord
100
AcDbLayerTableRecord
  2
COORD_ORIGINE
 70
0
 62
7
  6
CONTINUOUS
370
-3
390
F
  0
LAYER
  5
200
100
AcDbSymbolTableRecord
100
AcDbLayerTableRecord
  2
COPY_PUBLISH
 70
0
 62
7
  6
CONTINUOUS
370
-3
390
F
  0
LAYER
  5
201
100
AcDbSymbolTableRecord
100
AcDbLayerTableRecord
  2
COSMETIC
 70
0
 62
7
  6
CONTINUOUS
370
-3
390
F
  0
LAYER
  5
202
100
AcDbSymbolTableRecord
100
AcDbLayerTableRecord
  2
COSMETICI
 70
0
 62
7
  6
CONTINUOUS
370
-3
390
F
  0
LAYER
  5
203
100
AcDbSymbolTableRecord
100
AcDbLayerTableRecord
  2
CURVE
 70
0
 62
7
  6
CONTINUOUS
370
-3
390
F
  0
LAYER
  5
204
100
AcDbSymbolTableRecord
100
AcDbLayerTableRecord
  2
CURVE_COSTRUZIONE
 70
0
 62
7
  6
CONTINUOUS
370
-3
390
F
  0
LAYER
  5
205
100
AcDbSymbolTableRecord
100
AcDbLayerTableRecord
  2
CURVE_TASSELLI
 70
0
 62
7
  6
CONTINUOUS
370
-3
390
F
  0
LAYER
  5
206
100
AcDbSymbolTableRecord
100
AcDbLayerTableRecord
  2
DRAFT
 70
0
 62
7
  6
CONTINUOUS
370
-3
390
F
  0
LAYER
  5
207
100
AcDbSymbolTableRecord
100
AcDbLayerTableRecord
  2
IMPORT_IGES
 70
0
 62
7
  6
CONTINUOUS
370
-3
390
F
  0
LAYER
  5
208
100
AcDbSymbolTableRecord
100
AcDbLayerTableRecord
  2
INTFCLR_2
 70
0
 62
7
  6
CONTINUOUS
370
-3
390
F
  0
LAYER
  5
209
100
AcDbSymbolTableRecord
100
AcDbLayerTableRecord
  2
INTF_1
 70
0
 62
7
  6
CONTINUOUS
370
-3
390
F
  0
LAYER
  5
20A
100
AcDbSymbolTableRecord
100
AcDbLayerTableRecord
  2
INTF_7
 70
0
 62
7
  6
CONTINUOUS
370
-3
390
F
  0
LAYER
  5
20B
100
AcDbSymbolTableRecord
100
AcDbLayerTableRecord
  2
INTF_CYAN
 70
0
 62
7
  6
CONTINUOUS
370
-3
390
F
  0
LAYER
  5
20C
100
AcDbSymbolTableRecord
100
AcDbLayerTableRecord
  2
NOTE
 70
0
 62
7
  6
CONTINUOUS
370
-3
390
F
  0
LAYER
  5
20D
100
AcDbSymbolTableRecord
100
AcDbLayerTableRecord
  2
PIANI
 70
0
 62
7
  6
CONTINUOUS
370
-3
390
F
  0
LAYER
  5
20E
100
AcDbSymbolTableRecord
100
AcDbLayerTableRecord
  2
PIANI_ORIGINE
 70
0
 62
7
  6
CONTINUOUS
370
-3
390
F
  0
LAYER
  5
20F
100
AcDbSymbolTableRecord
100
AcDbLayerTableRecord
  2
PIANI_RIFERIMENTO
 70
0
 62
7
  6
CONTINUOUS
370
-3
390
F
  0
LAYER
  5
210
100
AcDbSymbolTableRecord
100
AcDbLayerTableRecord
  2
PUNTI
 70
0
 62
7
  6
CONTINUOUS
370
-3
390
F
  0
LAYER
  5
211
100
AcDbSymbolTableRecord
100
AcDbLayerTableRecord
  2
RACCORDO
 70
0
 62
7
  6
CONTINUOUS
370
-3
390
F
  0
LAYER
  5
212
100
AcDbSymbolTableRecord
100
AcDbLayerTableRecord
  2
RGB__255__255__255__
 70
0
 62
7
  6
CONTINUOUS
370
-3
390
F
  0
LAYER
  5
213
100
AcDbSymbolTableRecord
100
AcDbLayerTableRecord
  2
RGB____0____0____0__
 70
0
 62
7
  6
CONTINUOUS
370
-3
390
F
  0
LAYER
  5
214
100
AcDbSymbolTableRecord
100
AcDbLayerTableRecord
  2
SIMBOLI
 70
0
 62
7
  6
CONTINUOUS
370
-3
390
F
  0
LAYER
  5
215
100
AcDbSymbolTableRecord
100
AcDbLayerTableRecord
  2
SMUSSO
 70
0
 62
7
  6
CONTINUOUS
370
-3
390
F
  0
LAYER
  5
216
100
AcDbSymbolTableRecord
100
AcDbLayerTableRecord
  2
SNAPLINE
 70
0
 62
7
  6
CONTINUOUS
370
-3
390
F
  0
LAYER
  5
217
100
AcDbSymbolTableRecord
100
AcDbLayerTableRecord
  2
SUPERFICI
 70
0
 62
7
  6
CONTINUOUS
370
-3
390
F
  0
LAYER
  5
218
100
AcDbSymbolTableRecord
100
AcDbLayerTableRecord
  2
TRASH
 70
0
 62
7
  6
CONTINUOUS
370
-3
390
F
  0
LAYER
  5
219
100
AcDbSymbolTableRecord
100
AcDbLayerTableRecord
  2
XSEC_DATUMS
 70
0
 62
7
  6
CONTINUOUS
370
-3
390
F
  0
ENDTAB
  0
TABLE
  2
STYLE
  5
3
100
AcDbSymbolTable
 70
1
  0
STYLE
  5
11
100
AcDbSymbolTableRecord
100
AcDbTextStyleTableRecord
  2
STANDARD
 70
0
 40
0.0
 41
0.8
 50
0.0
 71
0
 42
0.2
  3
txt
  4

  0
STYLE
  5
21A
100
AcDbSymbolTableRecord
100
AcDbTextStyleTableRecord
  2
TEXTSTYLE_1
 70
0
 40
0.0
 41
0.8
 50
0.0
 71
0
 42
0.2
  3
gdt
  4

  0
ENDTAB
  0
TABLE
  2
VIEW
  5
6
100
AcDbSymbolTable
 70
0
  0
ENDTAB
  0
TABLE
  2
UCS
  5
7
100
AcDbSymbolTable
 70
0
  0
ENDTAB
  0
TABLE
  2
APPID
  5
9
100
AcDbSymbolTable
 70
1
  0
APPID
  5
21B
100
AcDbSymbolTableRecord
100
AcDbRegAppTableRecord
  2
ACAD
 70
0
  0
ENDTAB
  0
TABLE
  2
BLOCK_RECORD
  5
1
100
AcDbSymbolTable
 70
0
  0
BLOCK_RECORD
  5
21C
100
AcDbSymbolTableRecord
100
AcDbBlockTableRecord
  2
*Model_Space
  0
BLOCK_RECORD
  5
21D
100
AcDbSymbolTableRecord
100
AcDbBlockTableRecord
  2
*Paper_Space
  0
BLOCK_RECORD
  5
21E
100
AcDbSymbolTableRecord
100
AcDbBlockTableRecord
  2
_FILLED
  0
BLOCK_RECORD
  5
21F
100
AcDbSymbolTableRecord
100
AcDbBlockTableRecord
  2
*D0
  0
BLOCK_RECORD
  5
220
100
AcDbSymbolTableRecord
100
AcDbBlockTableRecord
  2
*D1
  0
BLOCK_RECORD
  5
221
100
AcDbSymbolTableRecord
100
AcDbBlockTableRecord
  2
*D2
  0
BLOCK_RECORD
  5
222
100
AcDbSymbolTableRecord
100
AcDbBlockTableRecord
  2
*D3
  0
ENDTAB
  0
TABLE
  2
DIMSTYLE
  5
A
100
AcDbSymbolTable
 70
1
100
AcDbDimStyleTable
 71
0
  0
DIMSTYLE
105
223
100
AcDbSymbolTableRecord
100
AcDbDimStyleTableRecord
  2
STANDARD
 70
0
  3

  4

 40
1.0
 41
3.0
 42
0.5
 43
0.38
 44
1.5
 45
0.0
 46
0.0
 47
0.01
 48
0.01
140
3.0
141
0.09
142
0.0
143
25.4
144
1.0
145
0.0
146
1.0
147
0.625
 71
1.0
 72
0.0
 73
0
 74
0
 75
0
 76
0
 77
1
 78
8
 79
2
170
0
171
1
172
0
173
0
174
0
175
0
176
0
177
0
178
0
270
2
179
2
271
2
272
2
273
2
274
2
275
0
280
0
281
0
282
0
283
1
284
8
285
0
286
0
287
3
288
0
340
11
278
44
341
21E
342
21E
343
21E
344
21E
  0
DIMSTYLE
105
224
100
AcDbSymbolTableRecord
100
AcDbDimStyleTableRecord
  2
DIMSTYLE_1
 70
0
  3

  4

 40
1.0
 41
3.0
 42
0.5
 43
0.38
 44
1.5
 45
0.0
 46
0.0
 47
0.0
 48
0.0
140
3.0
141
0.09
142
0.0
143
25.4
144
1.0
145
0.0
146
1.0
147
0.75
 71
0.0
 72
0.0
 73
0
 74
0
 75
0
 76
0
 77
1
 78
8
 79
2
170
0
171
1
172
0
173
0
174
0
175
0
176
0
177
0
178
0
270
2
179
2
271
2
272
2
273
2
274
2
275
0
280
0
281
0
282
0
283
1
284
8
285
0
286
0
287
3
288
0
340
11
278
44
341
21E
342
21E
343
21E
344
21E
  0
ENDTAB
  0
ENDSEC
  0
SECTION
  2
BLOCKS
  0
BLOCK
  5
20
100
AcDbEntity
  8
0
100
AcDbBlockBegin
  2
*Model_Space
 70
0
 10
0.0
 20
0.0
 30
0.0
  3
*Model_Space
  1

  0
ENDBLK
  5
21
100
AcDbEntity
  8
0
100
AcDbBlockEnd
  0
BLOCK
  5
1C
100
AcDbEntity
  8
0
100
AcDbBlockBegin
  2
*Paper_Space
 70
0
 10
0.0
 20
0.0
 30
0.0
  3
*Paper_Space
  1

  0
ENDBLK
  5
1D
100
AcDbEntity
  8
0
100
AcDbBlockEnd
  0
BLOCK
  5
225
100
AcDbEntity
  8
0
100
AcDbBlockBegin
  2
_FILLED
 70
64
 10
0.0
 20
0.0
  3
_FILLED
  1

  0
SOLID
  5
226
100
AcDbEntity
  8
0
  6
BYBLOCK
 62
0
100
AcDbTrace
 10
0.0
 20
0.0
 11
-1.0
 21
0.3166666667
 12
-1.0
 22
-0.3166666667
 13
-1.0
 23
-0.3166666667
  0
ENDBLK
  5
227
100
AcDbEntity
  8
0
  6
BYBLOCK
 62
0
100
AcDbBlockEnd
  0
BLOCK
  5
228
100
AcDbEntity
  8
0
100
AcDbBlockBegin
 62
7
  6
CONTINUOUS
  2
*D0
 70
65
 10
0.0
 20
0.0
  3
*D0
  1

  0
LINE
  5
229
100
AcDbEntity
  8
0
100
AcDbLine
 62
7
  6
CONTINUOUS
 10
95.855703125
 20
147.8258229847
 11
95.855703125
 21
162.32265625
  0
LINE
  5
22A
100
AcDbEntity
  8
0
100
AcDbLine
 62
7
  6
CONTINUOUS
 10
88.705703125
 20
149.6993936602
 11
88.705703125
 21
162.32265625
  0
LINE
  5
22B
100
AcDbEntity
  8
0
100
AcDbLine
 62
7
  6
CONTINUOUS
 10
95.855703125
 20
160.82265625
 11
92.280703125
 21
160.82265625
  0
LINE
  5
22C
100
AcDbEntity
  8
0
100
AcDbLine
 62
7
  6
CONTINUOUS
 10
92.280703125
 20
160.82265625
 11
108.5024041004
 21
160.82265625
  0
LINE
  5
22D
100
AcDbEntity
  8
0
100
AcDbLine
 62
7
  6
CONTINUOUS
 10
88.705703125
 20
160.82265625
 11
92.280703125
 21
160.82265625
  0
INSERT
  5
22E
100
AcDbEntity
  8
0
100
AcDbBlockReference
 62
7
  6
CONTINUOUS
  2
_FILLED
 10
95.855703125
 20
160.82265625
 41
3.0
 42
3.0
 43
3.0
  0
INSERT
  5
22F
100
AcDbEntity
  8
0
100
AcDbBlockReference
 62
7
  6
CONTINUOUS
  2
_FILLED
 10
88.705703125
 20
160.82265625
 41
3.0
 42
3.0
 43
3.0
 50
180.0
  0
ENDBLK
  5
230
100
AcDbEntity
  8
0
  6
BYBLOCK
 62
0
100
AcDbBlockEnd
  0
BLOCK
  5
231
100
AcDbEntity
  8
0
100
AcDbBlockBegin
 62
7
  6
CONTINUOUS
  2
*D1
 70
65
 10
0.0
 20
0.0
  3
*D1
  1

  0
LINE
  5
232
100
AcDbEntity
  8
0
100
AcDbLine
 62
7
  6
CONTINUOUS
 10
88.705703125
 20
149.6993936602
 11
88.705703125
 21
170.32265625
  0
LINE
  5
233
100
AcDbEntity
  8
0
100
AcDbLine
 62
7
  6
CONTINUOUS
 10
98.855703125
 20
132.3689730432
 11
98.855703125
 21
170.32265625
  0
LINE
  5
234
100
AcDbEntity
  8
0
100
AcDbLine
 62
7
  6
CONTINUOUS
 10
88.705703125
 20
168.82265625
 11
93.780703125
 21
168.82265625
  0
LINE
  5
235
100
AcDbEntity
  8
0
100
AcDbLine
 62
7
  6
CONTINUOUS
 10
98.855703125
 20
168.82265625
 11
93.780703125
 21
168.82265625
  0
LINE
  5
236
100
AcDbEntity
  8
0
100
AcDbLine
 62
7
  6
CONTINUOUS
 10
93.780703125
 20
168.82265625
 11
109.5243425076
 21
168.82265625
  0
INSERT
  5
237
100
AcDbEntity
  8
0
100
AcDbBlockReference
 62
7
  6
CONTINUOUS
  2
_FILLED
 10
88.705703125
 20
168.82265625
 41
3.0
 42
3.0
 43
3.0
 50
180.0
  0
INSERT
  5
238
100
AcDbEntity
  8
0
100
AcDbBlockReference
 62
7
  6
CONTINUOUS
  2
_FILLED
 10
98.855703125
 20
168.82265625
 41
3.0
 42
3.0
 43
3.0
  0
ENDBLK
  5
239
100
AcDbEntity
  8
0
  6
BYBLOCK
 62
0
100
AcDbBlockEnd
  0
BLOCK
  5
23A
100
AcDbEntity
  8
0
100
AcDbBlockBegin
 62
7
  6
CONTINUOUS
  2
*D2
 70
65
 10
0.0
 20
0.0
  3
*D2
  1

  0
LINE
  5
23B
100
AcDbEntity
  8
0
100
AcDbLine
 62
7
  6
CONTINUOUS
 10
127.1671875
 20
150.3220474479
 11
127.1671875
 21
162.32265625
  0
LINE
  5
23C
100
AcDbEntity
  8
0
100
AcDbLine
 62
7
  6
CONTINUOUS
 10
217.1671875
 20
150.3220474479
 11
217.1671875
 21
162.32265625
  0
LINE
  5
23D
100
AcDbEntity
  8
0
100
AcDbLine
 62
7
  6
CONTINUOUS
 10
127.1671875
 20
160.82265625
 11
172.1671875
 21
160.82265625
  0
LINE
  5
23E
100
AcDbEntity
  8
0
100
AcDbLine
 62
7
  6
CONTINUOUS
 10
217.1671875
 20
160.82265625
 11
172.1671875
 21
160.82265625
  0
INSERT
  5
23F
100
AcDbEntity
  8
0
100
AcDbBlockReference
 62
7
  6
CONTINUOUS
  2
_FILLED
 10
127.1671875
 20
160.82265625
 41
3.0
 42
3.0
 43
3.0
 50
180.0
  0
INSERT
  5
240
100
AcDbEntity
  8
0
100
AcDbBlockReference
 62
7
  6
CONTINUOUS
  2
_FILLED
 10
217.1671875
 20
160.82265625
 41
3.0
 42
3.0
 43
3.0
  0
ENDBLK
  5
241
100
AcDbEntity
  8
0
  6
BYBLOCK
 62
0
100
AcDbBlockEnd
  0
BLOCK
  5
242
100
AcDbEntity
  8
0
100
AcDbBlockBegin
 62
7
  6
CONTINUOUS
  2
*D3
 70
65
 10
0.0
 20
0.0
  3
*D3
  1

  0
LINE
  5
243
100
AcDbEntity
  8
0
100
AcDbLine
 62
7
  6
CONTINUOUS
 10
216.6665786979
 20
150.82265625
 11
228.6671875
 21
150.82265625
  0
LINE
  5
244
100
AcDbEntity
  8
0
100
AcDbLine
 62
7
  6
CONTINUOUS
 10
216.6665786979
 20
60.82265625
 11
228.6671875
 21
60.82265625
  0
LINE
  5
245
100
AcDbEntity
  8
0
100
AcDbLine
 62
7
  6
CONTINUOUS
 10
227.1671875
 20
150.82265625
 11
227.1671875
 21
105.82265625
  0
LINE
  5
246
100
AcDbEntity
  8
0
100
AcDbLine
 62
7
  6
CONTINUOUS
 10
227.1671875
 20
60.82265625
 11
227.1671875
 21
105.82265625
  0
INSERT
  5
247
100
AcDbEntity
  8
0
100
AcDbBlockReference
 62
7
  6
CONTINUOUS
  2
_FILLED
 10
227.1671875
 20
150.82265625
 41
3.0
 42
3.0
 43
3.0
 50
90.0
  0
INSERT
  5
248
100
AcDbEntity
  8
0
100
AcDbBlockReference
 62
7
  6
CONTINUOUS
  2
_FILLED
 10
227.1671875
 20
60.82265625
 41
3.0
 42
3.0
 43
3.0
 50
270.0
  0
ENDBLK
  5
249
100
AcDbEntity
  8
0
  6
BYBLOCK
 62
0
100
AcDbBlockEnd
  0
ENDSEC
  0
SECTION
  2
ENTITIES
  0
DIMENSION
  5
24A
100
AcDbEntity
  8
0
100
AcDbDimension
 62
7
  6
CONTINUOUS
  2
*D0
 10
88.705703125
 20
160.82265625
 11
100.5738326719
 21
160.82265625
 70
160
 71
1
 72
2
 41
0.9
 42
7.15
  3
DIMSTYLE_1
100
AcDbAlignedDimension
 13
95.855703125
 23
147.3258229847
 14
88.705703125
 24
149.1993936602
 50
180.0
100
AcDbRotatedDimension
  0
DIMENSION
  5
24B
100
AcDbEntity
  8
0
100
AcDbDimension
 62
7
  6
CONTINUOUS
  2
*D1
 10
98.855703125
 20
168.82265625
 11
99.8814853648
 21
168.82265625
 70
160
 71
1
 72
2
 41
0.9
 42
10.15
  3
DIMSTYLE_1
100
AcDbAlignedDimension
 13
88.705703125
 23
149.1993936602
 14
98.855703125
 24
131.8689730432
100
AcDbRotatedDimension
  0
DIMENSION
  5
24C
100
AcDbEntity
  8
0
100
AcDbDimension
 62
7
  6
CONTINUOUS
  2
*D2
 10
217.1671875
 20
160.82265625
 11
169.8100446429
 21
160.82265625
 70
160
 71
2
 72
2
 41
0.9
 42
90.0
  3
DIMSTYLE_1
100
AcDbAlignedDimension
 13
127.1671875
 23
149.8220474479
 14
217.1671875
 24
149.8220474479
100
AcDbRotatedDimension
  0
DIMENSION
  5
24D
100
AcDbEntity
  8
0
100
AcDbDimension
 62
7
  6
CONTINUOUS
  2
*D3
 10
227.1671875
 20
60.82265625
 11
227.1671875
 21
103.4655133929
 70
160
 71
2
 72
2
 41
0.9
 42
90.0
  3
DIMSTYLE_1
100
AcDbAlignedDimension
 13
216.1665786979
 23
150.82265625
 14
216.1665786979
 24
60.82265625
 50
270.0
100
AcDbRotatedDimension
  0
LINE
  5
24E
100
AcDbEntity
  8
SMUSSO
100
AcDbLine
 62
7
  6
CONTINUOUS
 10
128.3472020301
 20
150.6133555723
 11
128.3616278456
 21
150.6288247065
  0
LINE
  5
24F
100
AcDbEntity
  8
ASSI
100
AcDbLine
 62
7
  6
CONTINUOUS
 10
128.3472020301
 20
150.6133555723
 11
128.3616278456
 21
150.6288247065
  0
LINE
  5
250
100
AcDbEntity
  8
SMUSSO
100
AcDbLine
 62
7
  6
CONTINUOUS
 10
127.1671875
 20
149.8220474479
 11
128.1677963021
 21
150.82265625
  0
LINE
  5
251
100
AcDbEntity
  8
ASSI
100
AcDbLine
 62
7
  6
CONTINUOUS
 10
127.1671875
 20
149.8220474479
 11
128.1677963021
 21
150.82265625
  0
LINE
  5
252
100
AcDbEntity
  8
SMUSSO
100
AcDbLine
 62
7
  6
CONTINUOUS
 10
128.3472020301
 20
150.6133555723
 11
127.3764881777
 21
149.6426417199
  0
LINE
  5
253
100
AcDbEntity
  8
ASSI
100
AcDbLine
 62
7
  6
CONTINUOUS
 10
128.3472020301
 20
150.6133555723
 11
127.3764881777
 21
149.6426417199
  0
LINE
  5
254
100
AcDbEntity
  8
SMUSSO
100
AcDbLine
 62
7
  6
CONTINUOUS
 10
128.7904500898
 20
149.5939252098
 11
128.3959185402
 21
149.1993936602
  0
LINE
  5
255
100
AcDbEntity
  8
ASSI
100
AcDbLine
 62
7
  6
CONTINUOUS
 10
128.7904500898
 20
149.5939252098
 11
128.3959185402
 21
149.1993936602
  0
LINE
  5
256
100
AcDbEntity
  8
SMUSSO
100
AcDbLine
 62
7
  6
CONTINUOUS
 10
127.3610190435
 20
149.6282159044
 11
127.3764881777
 21
149.6426417199
  0
LINE
  5
257
100
AcDbEntity
  8
ASSI
100
AcDbLine
 62
7
  6
CONTINUOUS
 10
127.3610190435
 20
149.6282159044
 11
127.3764881777
 21
149.6426417199
  0
LINE
  5
258
100
AcDbEntity
  8
SMUSSO
100
AcDbLine
 62
7
  6
CONTINUOUS
 10
127.3764881777
 20
62.0026707801
 11
127.3610190435
 21
62.0170965956
  0
LINE
  5
259
100
AcDbEntity
  8
ASSI
100
AcDbLine
 62
7
  6
CONTINUOUS
 10
127.3764881777
 20
62.0026707801
 11
127.3610190435
 21
62.0170965956
  0
LINE
  5
25A
100
AcDbEntity
  8
SMUSSO
100
AcDbLine
 62
7
  6
CONTINUOUS
 10
128.1677963021
 20
60.82265625
 11
127.1671875
 21
61.8232650521
  0
LINE
  5
25B
100
AcDbEntity
  8
ASSI
100
AcDbLine
 62
7
  6
CONTINUOUS
 10
128.1677963021
 20
60.82265625
 11
127.1671875
 21
61.8232650521
  0
LINE
  5
25C
100
AcDbEntity
  8
SMUSSO
100
AcDbLine
 62
7
  6
CONTINUOUS
 10
127.3764881777
 20
62.0026707801
 11
128.3472020301
 21
61.0319569277
  0
LINE
  5
25D
100
AcDbEntity
  8
ASSI
100
AcDbLine
 62
7
  6
CONTINUOUS
 10
127.3764881777
 20
62.0026707801
 11
128.3472020301
 21
61.0319569277
  0
LINE
  5
25E
100
AcDbEntity
  8
SMUSSO
100
AcDbLine
 62
7
  6
CONTINUOUS
 10
128.3959185402
 20
62.4459188398
 11
128.7904500898
 21
62.0513872902
  0
LINE
  5
25F
100
AcDbEntity
  8
ASSI
100
AcDbLine
 62
7
  6
CONTINUOUS
 10
128.3959185402
 20
62.4459188398
 11
128.7904500898
 21
62.0513872902
  0
LINE
  5
260
100
AcDbEntity
  8
SMUSSO
100
AcDbLine
 62
7
  6
CONTINUOUS
 10
128.3616278456
 20
61.0164877935
 11
128.3472020301
 21
61.0319569277
  0
LINE
  5
261
100
AcDbEntity
  8
ASSI
100
AcDbLine
 62
7
  6
CONTINUOUS
 10
128.3616278456
 20
61.0164877935
 11
128.3472020301
 21
61.0319569277
  0
LINE
  5
262
100
AcDbEntity
  8
SMUSSO
100
AcDbLine
 62
7
  6
CONTINUOUS
 10
127.1671875
 20
149.8220474479
 11
127.1671875
 21
61.8232650521
  0
LINE
  5
263
100
AcDbEntity
  8
ASSI
100
AcDbLine
 62
7
  6
CONTINUOUS
 10
127.1671875
 20
149.8220474479
 11
127.1671875
 21
61.8232650521
  0
LINE
  5
264
100
AcDbEntity
  8
SMUSSO
100
AcDbLine
 62
7
  6
CONTINUOUS
 10
127.3610190435
 20
149.6282159044
 11
127.3610190435
 21
62.0170965956
  0
LINE
  5
265
100
AcDbEntity
  8
ASSI
100
AcDbLine
 62
7
  6
CONTINUOUS
 10
127.3610190435
 20
149.6282159044
 11
127.3610190435
 21
62.0170965956
  0
LINE
  5
266
100
AcDbEntity
  8
SMUSSO
100
AcDbLine
 62
7
  6
CONTINUOUS
 10
128.3959185402
 20
149.1993936602
 11
128.3959185402
 21
62.4459188398
  0
LINE
  5
267
100
AcDbEntity
  8
ASSI
100
AcDbLine
 62
7
  6
CONTINUOUS
 10
128.3959185402
 20
149.1993936602
 11
128.3959185402
 21
62.4459188398
  0
LINE
  5
268
100
AcDbEntity
  8
SMUSSO
100
AcDbLine
 62
7
  6
CONTINUOUS
 10
128.1677963021
 20
60.82265625
 11
216.1665786979
 21
60.82265625
  0
LINE
  5
269
100
AcDbEntity
  8
ASSI
100
AcDbLine
 62
7
  6
CONTINUOUS
 10
128.1677963021
 20
60.82265625
 11
216.1665786979
 21
60.82265625
  0
LINE
  5
26A
100
AcDbEntity
  8
SMUSSO
100
AcDbLine
 62
7
  6
CONTINUOUS
 10
128.3616278456
 20
61.0164877935
 11
215.9727471544
 21
61.0164877935
  0
LINE
  5
26B
100
AcDbEntity
  8
ASSI
100
AcDbLine
 62
7
  6
CONTINUOUS
 10
128.3616278456
 20
61.0164877935
 11
215.9727471544
 21
61.0164877935
  0
LINE
  5
26C
100
AcDbEntity
  8
SMUSSO
100
AcDbLine
 62
7
  6
CONTINUOUS
 10
128.7904500898
 20
62.0513872902
 11
215.5439249102
 21
62.0513872902
  0
LINE
  5
26D
100
AcDbEntity
  8
ASSI
100
AcDbLine
 62
7
  6
CONTINUOUS
 10
128.7904500898
 20
62.0513872902
 11
215.5439249102
 21
62.0513872902
  0
LWPOLYLINE
  5
26E
100
AcDbEntity
  8
0
100
AcDbPolyline
 62
7
  6
CONTINUOUS
 90
10
 70
0
 43
0.3500000006
 10
170.2386090088
 20
161.5726629639
 10
171.0957650757
 20
162.4298009033
 10
171.3100495605
 20
163.2869388428
 10
171.3100495605
 20
164.1440767822
 10
170.8814805908
 20
164.5726638794
 10
170.2386090088
 20
164.5726638794
 10
169.8100400391
 20
164.1440767822
 10
169.8100400391
 20
163.2869388428
 10
170.2386090088
 20
162.858369873
 10
171.1671871948
 20
162.858369873
  0
LINE
  5
26F
100
AcDbEntity
  8
0
100
AcDbLine
 62
250
  6
CONTINUOUS
 10
138.0188015837
 20
83.6225651688
 11
138.0188015837
 21
128.0227473312
  0
LINE
  5
270
100
AcDbEntity
  8
ASSI
100
AcDbLine
 62
250
  6
CONTINUOUS
 10
138.0188015837
 20
83.6225651688
 11
138.0188015837
 21
128.0227473312
  0
LINE
  5
271
100
AcDbEntity
  8
0
100
AcDbLine
 62
250
  6
CONTINUOUS
 10
138.2183143937
 20
83.6225651688
 11
138.2183143937
 21
128.0227473312
  0
LINE
  5
272
100
AcDbEntity
  8
ASSI
100
AcDbLine
 62
250
  6
CONTINUOUS
 10
138.2183143937
 20
83.6225651688
 11
138.2183143937
 21
128.0227473312
  0
LINE
  5
273
100
AcDbEntity
  8
RACCORDO
100
AcDbLine
 62
7
  6
CONTINUOUS
 10
138.3171875
 20
127.9238742249
 11
138.3171875
 21
83.7214382751
  0
LINE
  5
274
100
AcDbEntity
  8
ASSI
100
AcDbLine
 62
7
  6
CONTINUOUS
 10
138.3171875
 20
127.9238742249
 11
138.3171875
 21
83.7214382751
  0
LINE
  5
275
100
AcDbEntity
  8
0
100
AcDbLine
 62
250
  6
CONTINUOUS
 10
138.7170964188
 20
128.7210421663
 11
138.7170964188
 21
128.5215293563
  0
LINE
  5
276
100
AcDbEntity
  8
ASSI
100
AcDbLine
 62
250
  6
CONTINUOUS
 10
138.7170964188
 20
128.7210421663
 11
138.7170964188
 21
128.5215293563
  0
LINE
  5
277
100
AcDbEntity
  8
0
100
AcDbLine
 62
250
  6
CONTINUOUS
 10
138.7170964188
 20
82.9242703337
 11
138.7170964188
 21
83.1237831437
  0
LINE
  5
278
100
AcDbEntity
  8
ASSI
100
AcDbLine
 62
250
  6
CONTINUOUS
 10
138.7170964188
 20
82.9242703337
 11
138.7170964188
 21
83.1237831437
  0
LWPOLYLINE
  5
279
100
AcDbEntity
  8
0
100
AcDbPolyline
 62
250
  6
CONTINUOUS
 90
22
 70
0
 10
138.2183143937
 20
128.0227473312
 10
138.2196337436
 20
128.0601249688
 10
138.2237365275
 20
128.0972832355
 10
138.2306008043
 20
128.1340168121
 10
138.2401910778
 20
128.1701314971
 10
138.2524546034
 20
128.2054174929
 10
138.2673155774
 20
128.239652647
 10
138.2846809168
 20
128.2726365984
 10
138.3044549563
 20
128.3042017414
 10
138.3265350441
 20
128.3341858829
 10
138.3507923429
 20
128.3624162486
 10
138.3770967896
 20
128.3887446983
 10
138.4053355168
 20
128.4130518989
 10
138.4353644691
 20
128.4351998765
 10
138.4670161381
 20
128.455052912
 10
138.5001354889
 20
128.4725015054
 10
138.5346210914
 20
128.4874647945
 10
138.570212744
 20
128.4998051678
 10
138.6064899658
 20
128.5093921944
 10
138.6431649134
 20
128.5161969544
 10
138.6801022278
 20
128.520238244
 10
138.7170964188
 20
128.5215293563
  0
LWPOLYLINE
  5
27A
100
AcDbEntity
  8
ASSI
100
AcDbPolyline
 62
250
  6
CONTINUOUS
 90
22
 70
0
 10
138.2183143937
 20
128.0227473312
 10
138.2196337436
 20
128.0601249688
 10
138.2237365275
 20
128.0972832355
 10
138.2306008043
 20
128.1340168121
 10
138.2401910778
 20
128.1701314971
 10
138.2524546034
 20
128.2054174929
 10
138.2673155774
 20
128.239652647
 10
138.2846809168
 20
128.2726365984
 10
138.3044549563
 20
128.3042017414
 10
138.3265350441
 20
128.3341858829
 10
138.3507923429
 20
128.3624162486
 10
138.3770967896
 20
128.3887446983
 10
138.4053355168
 20
128.4130518989
 10
138.4353644691
 20
128.4351998765
 10
138.4670161381
 20
128.455052912
 10
138.5001354889
 20
128.4725015054
 10
138.5346210914
 20
128.4874647945
 10
138.570212744
 20
128.4998051678
 10
138.6064899658
 20
128.5093921944
 10
138.6431649134
 20
128.5161969544
 10
138.6801022278
 20
128.520238244
 10
138.7170964188
 20
128.5215293563
  0
LWPOLYLINE
  5
27B
100
AcDbEntity
  8
0
100
AcDbPolyline
 62
250
  6
CONTINUOUS
 90
22
 70
0
 10
138.0188015837
 20
128.0227473312
 10
138.0208334556
 20
128.0754512838
 10
138.0266562585
 20
128.1272879148
 10
138.0362699923
 20
128.1782572243
 10
138.0497747497
 20
128.2286424333
 10
138.0670704379
 20
128.2781603207
 10
138.0878567794
 20
128.3259612228
 10
138.1121854484
 20
128.3719984374
 10
138.1400047706
 20
128.4163186667
 10
138.1708594453
 20
128.4582123532
 10
138.2047834296
 20
128.4976373627
 10
138.2417427665
 20
128.5346358293
 10
138.2811802837
 20
128.5686245977
 10
138.3231406075
 20
128.5995723615
 10
138.3675791118
 20
128.627510427
 10
138.4138047458
 20
128.6519495577
 10
138.4619652983
 20
128.6728409736
 10
138.5119129806
 20
128.6902334548
 10
138.5625133755
 20
128.7037841043
 10
138.613388344
 20
128.7133786233
 10
138.6649160251
 20
128.7191313106
 10
138.7170964188
 20
128.7210421663
  0
LWPOLYLINE
  5
27C
100
AcDbEntity
  8
ASSI
100
AcDbPolyline
 62
250
  6
CONTINUOUS
 90
22
 70
0
 10
138.0188015837
 20
128.0227473312
 10
138.0208334556
 20
128.0754512838
 10
138.0266562585
 20
128.1272879148
 10
138.0362699923
 20
128.1782572243
 10
138.0497747497
 20
128.2286424333
 10
138.0670704379
 20
128.2781603207
 10
138.0878567794
 20
128.3259612228
 10
138.1121854484
 20
128.3719984374
 10
138.1400047706
 20
128.4163186667
 10
138.1708594453
 20
128.4582123532
 10
138.2047834296
 20
128.4976373627
 10
138.2417427665
 20
128.5346358293
 10
138.2811802837
 20
128.5686245977
 10
138.3231406075
 20
128.5995723615
 10
138.3675791118
 20
128.627510427
 10
138.4138047458
 20
128.6519495577
 10
138.4619652983
 20
128.6728409736
 10
138.5119129806
 20
128.6902334548
 10
138.5625133755
 20
128.7037841043
 10
138.613388344
 20
128.7133786233
 10
138.6649160251
 20
128.7191313106
 10
138.7170964188
 20
128.7210421663
  0
LWPOLYLINE
  5
27D
100
AcDbEntity
  8
CURVE
100
AcDbPolyline
 62
250
  6
CONTINUOUS
 90
73
 70
0
 10
175.972542633
 20
79.798993359
 10
175.9777359068
 20
79.8000393871
 10
175.9827727015
 20
79.801713684
 10
175.9876802047
 20
79.8038646626
 10
175.992485604
 20
79.8063407357
 10
175.9972160868
 20
79.8089903162
 10
176.0118162469
 20
79.8175917491
 10
176.0259850948
 20
79.8265397521
 10
176.0397661061
 20
79.8359628411
 10
176.0536865622
 20
79.8463371769
 10
176.0672399432
 20
79.8572832984
 10
176.0804295013
 20
79.868723875
 10
176.0932584888
 20
79.8805815759
 10
176.1084704569
 20
79.8955710512
 10
176.1231336093
 20
79.9110626303
 10
176.1372343531
 20
79.9270494446
 10
176.1507590954
 20
79.9435246253
 10
176.162729114
 20
79.9591695863
 10
176.1741837871
 20
79.9752053509
 10
176.1851109087
 20
79.9916118293
 10
176.1954982726
 20
80.0083689316
 10
176.2053336728
 20
80.0254565679
 10
176.2157475468
 20
80.0450951233
 10
176.2254350445
 20
80.0651011172
 10
176.2343870425
 20
80.0854473078
 10
176.2425944175
 20
80.1061064529
 10
176.2500480462
 20
80.1270513107
 10
176.2563552596
 20
80.1469554666
 10
176.261994519
 20
80.1670614211
 10
176.2669706247
 20
80.1873430342
 10
176.2712883767
 20
80.2077741664
 10
176.2749525755
 20
80.2283286777
 10
176.2779680213
 20
80.2489804285
 10
176.2805514738
 20
80.2718546259
 10
176.2823750689
 20
80.2947947762
 10
176.2834631738
 20
80.3177802452
 10
176.2838369634
 20
80.3425000592
 10
176.2833992897
 20
80.3672209476
 10
176.2821594038
 20
80.3919154962
 10
176.280576256
 20
80.4117986686
 10
176.2784543498
 20
80.431629117
 10
176.2757709849
 20
80.4513891002
 10
176.2727032363
 20
80.4699671185
 10
176.2691068701
 20
80.4884520092
 10
176.2649741234
 20
80.506829292
 10
176.2597529636
 20
80.5270741072
 10
176.2538591678
 20
80.5471396545
 10
176.2472899518
 20
80.5669969586
 10
176.2400425316
 20
80.5866170445
 10
176.2321141228
 20
80.6059709371
 10
176.224294039
 20
80.6233549685
 10
176.2159141335
 20
80.6404750154
 10
176.2069826078
 20
80.6573122958
 10
176.1975076635
 20
80.6738480274
 10
176.1874975022
 20
80.6900634279
 10
176.1753776473
 20
80.7082312535
 10
176.1625832956
 20
80.7259303923
 10
176.1491322621
 20
80.7431376323
 10
176.1350423615
 20
80.7598297612
 10
176.1205688018
 20
80.7757340878
 10
176.1055149682
 20
80.7911002719
 10
176.0899022103
 20
80.8059116531
 10
176.0737518773
 20
80.820151571
 10
176.0570853184
 20
80.8338033652
 10
176.0399238831
 20
80.8468503754
 10
176.0222889207
 20
80.8592759412
 10
176.0091470507
 20
80.8679251828
 10
175.9957640069
 20
80.8761888334
 10
175.9821388585
 20
80.8840203281
 10
175.9682706746
 20
80.8913731019
 10
175.9541585243
 20
80.89820059
 10
175.9398014768
 20
80.9044562275
 10
175.9251986012
 20
80.9100934495
  0
LWPOLYLINE
  5
27E
100
AcDbEntity
  8
IMPORT_IGES
100
AcDbPolyline
 62
7
  6
CONTINUOUS
 90
73
 70
0
 10
175.972542633
 20
79.798993359
 10
175.9777359068
 20
79.8000393871
 10
175.9827727015
 20
79.801713684
 10
175.9876802047
 20
79.8038646626
 10
175.992485604
 20
79.8063407357
 10
175.9972160868
 20
79.8089903162
 10
176.0118162469
 20
79.8175917491
 10
176.0259850948
 20
79.8265397521
 10
176.0397661061
 20
79.8359628411
 10
176.0536865622
 20
79.8463371769
 10
176.0672399432
 20
79.8572832984
 10
176.0804295013
 20
79.868723875
 10
176.0932584888
 20
79.8805815759
 10
176.1084704569
 20
79.8955710512
 10
176.1231336093
 20
79.9110626303
 10
176.1372343531
 20
79.9270494446
 10
176.1507590954
 20
79.9435246253
 10
176.162729114
 20
79.9591695863
 10
176.1741837871
 20
79.9752053509
 10
176.1851109087
 20
79.9916118293
 10
176.1954982726
 20
80.0083689316
 10
176.2053336728
 20
80.0254565679
 10
176.2157475468
 20
80.0450951233
 10
176.2254350445
 20
80.0651011172
 10
176.2343870425
 20
80.0854473078
 10
176.2425944175
 20
80.1061064529
 10
176.2500480462
 20
80.1270513107
 10
176.2563552596
 20
80.1469554666
 10
176.261994519
 20
80.1670614211
 10
176.2669706247
 20
80.1873430342
 10
176.2712883767
 20
80.2077741664
 10
176.2749525755
 20
80.2283286777
 10
176.2779680213
 20
80.2489804285
 10
176.2805514738
 20
80.2718546259
 10
176.2823750689
 20
80.2947947762
 10
176.2834631738
 20
80.3177802452
 10
176.2838369634
 20
80.3425000592
 10
176.2833992897
 20
80.3672209476
 10
176.2821594038
 20
80.3919154962
 10
176.280576256
 20
80.4117986686
 10
176.2784543498
 20
80.431629117
 10
176.2757709849
 20
80.4513891002
 10
176.2727032363
 20
80.4699671185
 10
176.2691068701
 20
80.4884520092
 10
176.2649741234
 20
80.506829292
 10
176.2597529636
 20
80.5270741072
 10
176.2538591678
 20
80.5471396545
 10
176.2472899518
 20
80.5669969586
 10
176.2400425316
 20
80.5866170445
 10
176.2321141228
 20
80.6059709371
 10
176.224294039
 20
80.6233549685
 10
176.2159141335
 20
80.6404750154
 10
176.2069826078
 20
80.6573122958
 10
176.1975076635
 20
80.6738480274
 10
176.1874975022
 20
80.6900634279
 10
176.1753776473
 20
80.7082312535
 10
176.1625832956
 20
80.7259303923
 10
176.1491322621
 20
80.7431376323
 10
176.1350423615
 20
80.7598297612
 10
176.1205688018
 20
80.7757340878
 10
176.1055149682
 20
80.7911002719
 10
176.0899022103
 20
80.8059116531
 10
176.0737518773
 20
80.820151571
 10
176.0570853184
 20
80.8338033652
 10
176.0399238831
 20
80.8468503754
 10
176.0222889207
 20
80.8592759412
 10
176.0091470507
 20
80.8679251828
 10
175.9957640069
 20
80.8761888334
 10
175.9821388585
 20
80.8840203281
 10
175.9682706746
 20
80.8913731019
 10
175.9541585243
 20
80.89820059
 10
175.9398014768
 20
80.9044562275
 10
175.9251986012
 20
80.9100934495
  0
LWPOLYLINE
  5
27F
100
AcDbEntity
  8
CURVE
100
AcDbPolyline
 62
250
  6
CONTINUOUS
 90
23
 70
0
 10
175.2341077068
 20
80.5841949507
 10
175.2508091391
 20
80.5869768791
 10
175.2675401677
 20
80.589618737
 10
175.2842990884
 20
80.5921062865
 10
175.3010841973
 20
80.5944252893
 10
175.3178937901
 20
80.5965615073
 10
175.3347261629
 20
80.5985007026
 10
175.3515796116
 20
80.6002286369
 10
175.368452432
 20
80.6017310722
 10
175.3853429202
 20
80.6029937703
 10
175.4022493719
 20
80.6040024932
 10
175.4191700833
 20
80.6047430028
 10
175.4350691111
 20
80.6051843667
 10
175.4509754433
 20
80.6053823549
 10
175.4668853146
 20
80.6053426165
 10
175.4827949599
 20
80.6050708006
 10
175.4987006138
 20
80.6045725565
 10
175.5145985113
 20
80.6038535332
 10
175.5304848869
 20
80.60291938
 10
175.5463559756
 20
80.601775746
 10
175.562208012
 20
80.6004282803
 10
175.578037231
 20
80.5988826322
 10
175.5938398674
 20
80.5971444507
  0
LWPOLYLINE
  5
280
100
AcDbEntity
  8
IMPORT_IGES
100
AcDbPolyline
 62
7
  6
CONTINUOUS
 90
23
 70
0
 10
175.2341077068
 20
80.5841949507
 10
175.2508091391
 20
80.5869768791
 10
175.2675401677
 20
80.589618737
 10
175.2842990884
 20
80.5921062865
 10
175.3010841973
 20
80.5944252893
 10
175.3178937901
 20
80.5965615073
 10
175.3347261629
 20
80.5985007026
 10
175.3515796116
 20
80.6002286369
 10
175.368452432
 20
80.6017310722
 10
175.3853429202
 20
80.6029937703
 10
175.4022493719
 20
80.6040024932
 10
175.4191700833
 20
80.6047430028
 10
175.4350691111
 20
80.6051843667
 10
175.4509754433
 20
80.6053823549
 10
175.4668853146
 20
80.6053426165
 10
175.4827949599
 20
80.6050708006
 10
175.4987006138
 20
80.6045725565
 10
175.5145985113
 20
80.6038535332
 10
175.5304848869
 20
80.60291938
 10
175.5463559756
 20
80.601775746
 10
175.562208012
 20
80.6004282803
 10
175.578037231
 20
80.5988826322
 10
175.5938398674
 20
80.5971444507
  0
LINE
  5
281
100
AcDbEntity
  8
CURVE
100
AcDbLine
 62
250
  6
CONTINUOUS
 10
174.6571536725
 20
78.7591406793
 11
174.1731893136
 21
78.7591406793
  0
LINE
  5
282
100
AcDbEntity
  8
IMPORT_IGES
100
AcDbLine
 62
7
  6
CONTINUOUS
 10
174.6571536725
 20
78.7591406793
 11
174.1731893136
 21
78.7591406793
  0
LINE
  5
283
100
AcDbEntity
  8
CURVE
100
AcDbLine
 62
250
  6
CONTINUOUS
 10
173.302190496
 20
78.7591406793
 11
172.8479848024
 21
78.7591406793
  0
LINE
  5
284
100
AcDbEntity
  8
IMPORT_IGES
100
AcDbLine
 62
7
  6
CONTINUOUS
 10
173.302190496
 20
78.7591406793
 11
172.8479848024
 21
78.7591406793
  0
LINE
  5
285
100
AcDbEntity
  8
CURVE
100
AcDbLine
 62
250
  6
CONTINUOUS
 10
172.7758803295
 20
78.7591406793
 11
172.3266728261
 21
78.7591406793
  0
LINE
  5
286
100
AcDbEntity
  8
IMPORT_IGES
100
AcDbLine
 62
7
  6
CONTINUOUS
 10
172.7758803295
 20
78.7591406793
 11
172.3266728261
 21
78.7591406793
  0
LINE
  5
287
100
AcDbEntity
  8
CURVE
100
AcDbLine
 62
250
  6
CONTINUOUS
 10
171.6863565695
 20
78.7591406793
 11
171.6219562867
 21
78.7591406793
  0
LINE
  5
288
100
AcDbEntity
  8
IMPORT_IGES
100
AcDbLine
 62
7
  6
CONTINUOUS
 10
171.6863565695
 20
78.7591406793
 11
171.6219562867
 21
78.7591406793
  0
LINE
  5
289
100
AcDbEntity
  8
CURVE
100
AcDbLine
 62
250
  6
CONTINUOUS
 10
170.9841805062
 20
78.7591406793
 11
170.544887669
 21
78.7591406793
  0
LINE
  5
28A
100
AcDbEntity
  8
IMPORT_IGES
100
AcDbLine
 62
7
  6
CONTINUOUS
 10
170.9841805062
 20
78.7591406793
 11
170.544887669
 21
78.7591406793
  0
LINE
  5
28B
100
AcDbEntity
  8
CURVE
100
AcDbLine
 62
250
  6
CONTINUOUS
 10
168.9609904076
 20
78.7591406793
 11
168.556330807
 21
78.7591406793
  0
LINE
  5
28C
100
AcDbEntity
  8
IMPORT_IGES
100
AcDbLine
 62
7
  6
CONTINUOUS
 10
168.9609904076
 20
78.7591406793
 11
168.556330807
 21
78.7591406793
  0
LINE
  5
28D
100
AcDbEntity
  8
CURVE
100
AcDbLine
 62
250
  6
CONTINUOUS
 10
169.8385043678
 20
78.7591406793
 11
170.2976925374
 21
78.7591406793
  0
LINE
  5
28E
100
AcDbEntity
  8
IMPORT_IGES
100
AcDbLine
 62
7
  6
CONTINUOUS
 10
169.8385043678
 20
78.7591406793
 11
170.2976925374
 21
78.7591406793
  0
LINE
  5
28F
100
AcDbEntity
  8
CURVE
100
AcDbLine
 62
250
  6
CONTINUOUS
 10
174.7919936318
 20
78.7591402626
 11
175.2493336794
 21
78.7591402626
  0
LINE
  5
290
100
AcDbEntity
  8
IMPORT_IGES
100
AcDbLine
 62
7
  6
CONTINUOUS
 10
174.7919936318
 20
78.7591402626
 11
175.2493336794
 21
78.7591402626
  0
LINE
  5
291
100
AcDbEntity
  8
CURVE
100
AcDbLine
 62
250
  6
CONTINUOUS
 10
175.9525162725
 20
78.7591402626
 11
176.3942014469
 21
78.7591402626
  0
LINE
  5
292
100
AcDbEntity
  8
IMPORT_IGES
100
AcDbLine
 62
7
  6
CONTINUOUS
 10
175.9525162725
 20
78.7591402626
 11
176.3942014469
 21
78.7591402626
  0
LINE
  5
293
100
AcDbEntity
  8
CURVE
100
AcDbLine
 62
250
  6
CONTINUOUS
 10
174.054235319
 20
79.1983015165
 11
173.4288979188
 21
79.1983015165
  0
LINE
  5
294
100
AcDbEntity
  8
IMPORT_IGES
100
AcDbLine
 62
7
  6
CONTINUOUS
 10
174.054235319
 20
79.1983015165
 11
173.4288979188
 21
79.1983015165
  0
LINE
  5
295
100
AcDbEntity
  8
CURVE
100
AcDbLine
 62
250
  6
CONTINUOUS
 10
173.5228274384
 20
79.5381229296
 11
173.9624670374
 21
79.5381229296
  0
LINE
  5
296
100
AcDbEntity
  8
IMPORT_IGES
100
AcDbLine
 62
7
  6
CONTINUOUS
 10
173.5228274384
 20
79.5381229296
 11
173.9624670374
 21
79.5381229296
  0
LINE
  5
297
100
AcDbEntity
  8
CURVE
100
AcDbLine
 62
250
  6
CONTINUOUS
 10
175.2493336794
 20
79.6200263204
 11
175.4955391408
 21
79.6200263204
  0
LINE
  5
298
100
AcDbEntity
  8
IMPORT_IGES
100
AcDbLine
 62
7
  6
CONTINUOUS
 10
175.2493336794
 20
79.6200263204
 11
175.4955391408
 21
79.6200263204
  0
LINE
  5
299
100
AcDbEntity
  8
CURVE
100
AcDbLine
 62
250
  6
CONTINUOUS
 10
175.4965289115
 20
79.9803028549
 11
175.2341077068
 21
79.9803028549
  0
LINE
  5
29A
100
AcDbEntity
  8
IMPORT_IGES
100
AcDbLine
 62
7
  6
CONTINUOUS
 10
175.4965289115
 20
79.9803028549
 11
175.2341077068
 21
79.9803028549
  0
LWPOLYLINE
  5
29B
100
AcDbEntity
  8
CURVE
100
AcDbPolyline
 62
250
  6
CONTINUOUS
 90
46
 70
0
 10
175.4955391408
 20
79.6200263204
 10
175.5030506589
 20
79.6199205097
 10
175.5105740796
 20
79.6196030912
 10
175.51810108
 20
79.6190740856
 10
175.5256233369
 20
79.6183335135
 10
175.5331325275
 20
79.6173813956
 10
175.5406203286
 20
79.6162177524
 10
175.5480784174
 20
79.6148426045
 10
175.5554984706
 20
79.6132559727
 10
175.5628721654
 20
79.6114578774
 10
175.5701911787
 20
79.6094483394
 10
175.5774471876
 20
79.6072273792
 10
175.5846318689
 20
79.6047950175
 10
175.5917368998
 20
79.6021512749
 10
175.598753957
 20
79.599296172
 10
175.6056747178
 20
79.5962297294
 10
175.612490859
 20
79.5929519678
 10
175.6190247832
 20
79.5895556657
 10
175.625448153
 20
79.5859639623
 10
175.6317576518
 20
79.5821820822
 10
175.637949963
 20
79.5782152499
 10
175.6440217702
 20
79.5740686898
 10
175.6499697567
 20
79.5697476267
 10
175.6557906059
 20
79.565257285
 10
175.6614810015
 20
79.5606028893
 10
175.6670376267
 20
79.5557896641
 10
175.672457165
 20
79.5508228339
 10
175.6777363
 20
79.5457076234
 10
175.682871715
 20
79.5404492571
 10
175.6878600934
 20
79.5350529594
 10
175.6930745988
 20
79.5290821581
 10
175.6981161869
 20
79.5229645385
 10
175.7029869697
 20
79.5167077689
 10
175.7076890592
 20
79.5103195177
 10
175.7122245672
 20
79.5038074533
 10
175.7165956056
 20
79.4971792441
 10
175.7208042865
 20
79.4904425583
 10
175.7248527217
 20
79.4836050644
 10
175.7287430232
 20
79.4766744308
 10
175.7324773028
 20
79.4696583258
 10
175.7360576725
 20
79.4625644178
 10
175.7394862443
 20
79.4554003751
 10
175.74276513
 20
79.4481738661
 10
175.7458964416
 20
79.4408925592
 10
175.7488822909
 20
79.4335641228
 10
175.75172479
 20
79.4261962252
  0
LWPOLYLINE
  5
29C
100
AcDbEntity
  8
IMPORT_IGES
100
AcDbPolyline
 62
7
  6
CONTINUOUS
 90
46
 70
0
 10
175.4955391408
 20
79.6200263204
 10
175.5030506589
 20
79.6199205097
 10
175.5105740796
 20
79.6196030912
 10
175.51810108
 20
79.6190740856
 10
175.5256233369
 20
79.6183335135
 10
175.5331325275
 20
79.6173813956
 10
175.5406203286
 20
79.6162177524
 10
175.5480784174
 20
79.6148426045
 10
175.5554984706
 20
79.6132559727
 10
175.5628721654
 20
79.6114578774
 10
175.5701911787
 20
79.6094483394
 10
175.5774471876
 20
79.6072273792
 10
175.5846318689
 20
79.6047950175
 10
175.5917368998
 20
79.6021512749
 10
175.598753957
 20
79.599296172
 10
175.6056747178
 20
79.5962297294
 10
175.612490859
 20
79.5929519678
 10
175.6190247832
 20
79.5895556657
 10
175.625448153
 20
79.5859639623
 10
175.6317576518
 20
79.5821820822
 10
175.637949963
 20
79.5782152499
 10
175.6440217702
 20
79.5740686898
 10
175.6499697567
 20
79.5697476267
 10
175.6557906059
 20
79.565257285
 10
175.6614810015
 20
79.5606028893
 10
175.6670376267
 20
79.5557896641
 10
175.672457165
 20
79.5508228339
 10
175.6777363
 20
79.5457076234
 10
175.682871715
 20
79.5404492571
 10
175.6878600934
 20
79.5350529594
 10
175.6930745988
 20
79.5290821581
 10
175.6981161869
 20
79.5229645385
 10
175.7029869697
 20
79.5167077689
 10
175.7076890592
 20
79.5103195177
 10
175.7122245672
 20
79.5038074533
 10
175.7165956056
 20
79.4971792441
 10
175.7208042865
 20
79.4904425583
 10
175.7248527217
 20
79.4836050644
 10
175.7287430232
 20
79.4766744308
 10
175.7324773028
 20
79.4696583258
 10
175.7360576725
 20
79.4625644178
 10
175.7394862443
 20
79.4554003751
 10
175.74276513
 20
79.4481738661
 10
175.7458964416
 20
79.4408925592
 10
175.7488822909
 20
79.4335641228
 10
175.75172479
 20
79.4261962252
  0
LINE
  5
29D
100
AcDbEntity
  8
SMUSSO
100
AcDbLine
 62
7
  6
CONTINUOUS
 10
128.7904500898
 20
62.0513872902
 11
128.3472020301
 21
61.0319569277
  0
LINE
  5
29E
100
AcDbEntity
  8
ASSI
100
AcDbLine
 62
7
  6
CONTINUOUS
 10
128.7904500898
 20
62.0513872902
 11
128.3472020301
 21
61.0319569277
  0
LINE
  5
29F
100
AcDbEntity
  8
SMUSSO
100
AcDbLine
 62
7
  6
CONTINUOUS
 10
215.9384564598
 20
149.1993936602
 11
216.9578868223
 21
149.6426417199
  0
LINE
  5
2A0
100
AcDbEntity
  8
ASSI
100
AcDbLine
 62
7
  6
CONTINUOUS
 10
215.9384564598
 20
149.1993936602
 11
216.9578868223
 21
149.6426417199
  0
LINE
  5
2A1
100
AcDbEntity
  8
CURVE
100
AcDbLine
 62
250
  6
CONTINUOUS
 10
167.858946553
 20
80.9589551507
 11
168.3577661493
 21
80.9589551507
  0
LINE
  5
2A2
100
AcDbEntity
  8
IMPORT_IGES
100
AcDbLine
 62
7
  6
CONTINUOUS
 10
167.858946553
 20
80.9589551507
 11
168.3577661493
 21
80.9589551507
  0
LINE
  5
2A3
100
AcDbEntity
  8
CURVE
100
AcDbLine
 62
250
  6
CONTINUOUS
 10
169.2092247773
 20
80.9589551507
 11
169.6680997088
 21
80.9589551507
  0
LINE
  5
2A4
100
AcDbEntity
  8
IMPORT_IGES
100
AcDbLine
 62
7
  6
CONTINUOUS
 10
169.2092247773
 20
80.9589551507
 11
169.6680997088
 21
80.9589551507
  0
LINE
  5
2A5
100
AcDbEntity
  8
CURVE
100
AcDbLine
 62
250
  6
CONTINUOUS
 10
170.7435183266
 20
80.9589551507
 11
171.2023262105
 21
80.9589551507
  0
LINE
  5
2A6
100
AcDbEntity
  8
IMPORT_IGES
100
AcDbLine
 62
7
  6
CONTINUOUS
 10
170.7435183266
 20
80.9589551507
 11
171.2023262105
 21
80.9589551507
  0
LINE
  5
2A7
100
AcDbEntity
  8
CURVE
100
AcDbLine
 62
250
  6
CONTINUOUS
 10
172.1158520738
 20
80.9589551507
 11
172.5701730055
 21
80.9589551507
  0
LINE
  5
2A8
100
AcDbEntity
  8
IMPORT_IGES
100
AcDbLine
 62
7
  6
CONTINUOUS
 10
172.1158520738
 20
80.9589551507
 11
172.5701730055
 21
80.9589551507
  0
LINE
  5
2A9
100
AcDbEntity
  8
CURVE
100
AcDbLine
 62
250
  6
CONTINUOUS
 10
173.5379875329
 20
80.9589551507
 11
173.9821957985
 21
80.9589551507
  0
LINE
  5
2AA
100
AcDbEntity
  8
IMPORT_IGES
100
AcDbLine
 62
7
  6
CONTINUOUS
 10
173.5379875329
 20
80.9589551507
 11
173.9821957985
 21
80.9589551507
  0
LINE
  5
2AB
100
AcDbEntity
  8
CURVE
100
AcDbLine
 62
250
  6
CONTINUOUS
 10
170.2976925374
 20
80.9590871507
 11
169.8385043678
 21
80.9590871507
  0
LINE
  5
2AC
100
AcDbEntity
  8
IMPORT_IGES
100
AcDbLine
 62
7
  6
CONTINUOUS
 10
170.2976925374
 20
80.9590871507
 11
169.8385043678
 21
80.9590871507
  0
LINE
  5
2AD
100
AcDbEntity
  8
0
100
AcDbLine
 62
250
  6
CONTINUOUS
 10
205.6172785812
 20
82.9242703337
 11
138.7170964188
 21
82.9242703337
  0
LINE
  5
2AE
100
AcDbEntity
  8
ASSI
100
AcDbLine
 62
250
  6
CONTINUOUS
 10
205.6172785812
 20
82.9242703337
 11
138.7170964188
 21
82.9242703337
  0
LINE
  5
2AF
100
AcDbEntity
  8
0
100
AcDbLine
 62
250
  6
CONTINUOUS
 10
205.6172785812
 20
83.1237831437
 11
138.7170964188
 21
83.1237831437
  0
LINE
  5
2B0
100
AcDbEntity
  8
ASSI
100
AcDbLine
 62
250
  6
CONTINUOUS
 10
205.6172785812
 20
83.1237831437
 11
138.7170964188
 21
83.1237831437
  0
LINE
  5
2B1
100
AcDbEntity
  8
RACCORDO
100
AcDbLine
 62
7
  6
CONTINUOUS
 10
138.8159695251
 20
83.22265625
 11
205.5184054749
 21
83.22265625
  0
LINE
  5
2B2
100
AcDbEntity
  8
ASSI
100
AcDbLine
 62
7
  6
CONTINUOUS
 10
138.8159695251
 20
83.22265625
 11
205.5184054749
 21
83.22265625
  0
LINE
  5
2B3
100
AcDbEntity
  8
0
100
AcDbLine
 62
250
  6
CONTINUOUS
 10
206.3155734163
 20
83.6225651688
 11
206.1160606063
 21
83.6225651688
  0
LINE
  5
2B4
100
AcDbEntity
  8
ASSI
100
AcDbLine
 62
250
  6
CONTINUOUS
 10
206.3155734163
 20
83.6225651688
 11
206.1160606063
 21
83.6225651688
  0
LINE
  5
2B5
100
AcDbEntity
  8
0
100
AcDbLine
 62
250
  6
CONTINUOUS
 10
138.0188015837
 20
83.6225651688
 11
138.2183143937
 21
83.6225651688
  0
LINE
  5
2B6
100
AcDbEntity
  8
ASSI
100
AcDbLine
 62
250
  6
CONTINUOUS
 10
138.0188015837
 20
83.6225651688
 11
138.2183143937
 21
83.6225651688
  0
LWPOLYLINE
  5
2B7
100
AcDbEntity
  8
0
100
AcDbPolyline
 62
250
  6
CONTINUOUS
 90
22
 70
0
 10
138.7170964188
 20
83.1237831437
 10
138.6797187812
 20
83.1251024936
 10
138.6425605145
 20
83.1292052775
 10
138.6058269379
 20
83.1360695543
 10
138.5697122529
 20
83.1456598278
 10
138.5344262571
 20
83.1579233534
 10
138.500191103
 20
83.1727843274
 10
138.4672071516
 20
83.1901496668
 10
138.4356420086
 20
83.2099237063
 10
138.4056578671
 20
83.2320037941
 10
138.3774275014
 20
83.2562610929
 10
138.3510990517
 20
83.2825655396
 10
138.3267918511
 20
83.3108042668
 10
138.3046438735
 20
83.3408332191
 10
138.284790838
 20
83.3724848881
 10
138.2673422446
 20
83.4056042389
 10
138.2523789555
 20
83.4400898414
 10
138.2400385822
 20
83.475681494
 10
138.2304515556
 20
83.5119587158
 10
138.2236467956
 20
83.5486336634
 10
138.219605506
 20
83.5855709778
 10
138.2183143937
 20
83.6225651688
  0
LWPOLYLINE
  5
2B8
100
AcDbEntity
  8
ASSI
100
AcDbPolyline
 62
250
  6
CONTINUOUS
 90
22
 70
0
 10
138.7170964188
 20
83.1237831437
 10
138.6797187812
 20
83.1251024936
 10
138.6425605145
 20
83.1292052775
 10
138.6058269379
 20
83.1360695543
 10
138.5697122529
 20
83.1456598278
 10
138.5344262571
 20
83.1579233534
 10
138.500191103
 20
83.1727843274
 10
138.4672071516
 20
83.1901496668
 10
138.4356420086
 20
83.2099237063
 10
138.4056578671
 20
83.2320037941
 10
138.3774275014
 20
83.2562610929
 10
138.3510990517
 20
83.2825655396
 10
138.3267918511
 20
83.3108042668
 10
138.3046438735
 20
83.3408332191
 10
138.284790838
 20
83.3724848881
 10
138.2673422446
 20
83.4056042389
 10
138.2523789555
 20
83.4400898414
 10
138.2400385822
 20
83.475681494
 10
138.2304515556
 20
83.5119587158
 10
138.2236467956
 20
83.5486336634
 10
138.219605506
 20
83.5855709778
 10
138.2183143937
 20
83.6225651688
  0
LWPOLYLINE
  5
2B9
100
AcDbEntity
  8
0
100
AcDbPolyline
 62
250
  6
CONTINUOUS
 90
22
 70
0
 10
138.7170964188
 20
82.9242703337
 10
138.6643924662
 20
82.9263022056
 10
138.6125558352
 20
82.9321250085
 10
138.5615865257
 20
82.9417387423
 10
138.5112013167
 20
82.9552434997
 10
138.4616834293
 20
82.9725391879
 10
138.4138825272
 20
82.9933255294
 10
138.3678453126
 20
83.0176541984
 10
138.3235250833
 20
83.0454735206
 10
138.2816313968
 20
83.0763281953
 10
138.2422063873
 20
83.1102521796
 10
138.2052079207
 20
83.1472115165
 10
138.1712191523
 20
83.1866490337
 10
138.1402713885
 20
83.2286093575
 10
138.112333323
 20
83.2730478618
 10
138.0878941923
 20
83.3192734958
 10
138.0670027764
 20
83.3674340483
 10
138.0496102952
 20
83.4173817306
 10
138.0360596457
 20
83.4679821255
 10
138.0264651267
 20
83.518857094
 10
138.0207124394
 20
83.5703847751
 10
138.0188015837
 20
83.6225651688
  0
LWPOLYLINE
  5
2BA
100
AcDbEntity
  8
ASSI
100
AcDbPolyline
 62
250
  6
CONTINUOUS
 90
22
 70
0
 10
138.7170964188
 20
82.9242703337
 10
138.6643924662
 20
82.9263022056
 10
138.6125558352
 20
82.9321250085
 10
138.5615865257
 20
82.9417387423
 10
138.5112013167
 20
82.9552434997
 10
138.4616834293
 20
82.9725391879
 10
138.4138825272
 20
82.9933255294
 10
138.3678453126
 20
83.0176541984
 10
138.3235250833
 20
83.0454735206
 10
138.2816313968
 20
83.0763281953
 10
138.2422063873
 20
83.1102521796
 10
138.2052079207
 20
83.1472115165
 10
138.1712191523
 20
83.1866490337
 10
138.1402713885
 20
83.2286093575
 10
138.112333323
 20
83.2730478618
 10
138.0878941923
 20
83.3192734958
 10
138.0670027764
 20
83.3674340483
 10
138.0496102952
 20
83.4173817306
 10
138.0360596457
 20
83.4679821255
 10
138.0264651267
 20
83.518857094
 10
138.0207124394
 20
83.5703847751
 10
138.0188015837
 20
83.6225651688
  0
LWPOLYLINE
  5
2BB
100
AcDbEntity
  8
CURVE
100
AcDbPolyline
 62
250
  6
CONTINUOUS
 90
49
 70
0
 10
175.5938398674
 20
80.5971444507
 10
175.6022556462
 20
80.5960538167
 10
175.6106719988
 20
80.594735697
 10
175.6190796556
 20
80.5931907312
 10
175.6274693474
 20
80.5914195588
 10
175.6358318044
 20
80.5894228193
 10
175.6441577574
 20
80.5872011521
 10
175.6524379367
 20
80.5847551969
 10
175.660663073
 20
80.5820855931
 10
175.6688238968
 20
80.5791929803
 10
175.6769111386
 20
80.5760779979
 10
175.6849155289
 20
80.5727412855
 10
175.6928277982
 20
80.5691834827
 10
175.7006386772
 20
80.5654052288
 10
175.7083388962
 20
80.5614071635
 10
175.715919186
 20
80.5571899262
 10
175.7233702768
 20
80.5527541564
 10
175.7306828994
 20
80.5481004938
 10
175.7378477842
 20
80.5432295778
 10
175.7448556618
 20
80.5381420478
 10
175.7516972627
 20
80.5328385435
 10
175.7583633173
 20
80.5273197044
 10
175.7648445564
 20
80.5215861699
 10
175.7711317103
 20
80.5156385796
 10
175.7772155096
 20
80.509477573
 10
175.7830567042
 20
80.503140263
 10
175.7886848975
 20
80.4966024053
 10
175.7940974263
 20
80.4898739418
 10
175.7992916276
 20
80.4829648142
 10
175.8042648384
 20
80.4758849643
 10
175.8090143956
 20
80.468644334
 10
175.8135376361
 20
80.461252865
 10
175.8178318969
 20
80.453720499
 10
175.8218945149
 20
80.4460571779
 10
175.8257228271
 20
80.4382728435
 10
175.8293141704
 20
80.4303774374
 10
175.8326658818
 20
80.4223809016
 10
175.8357752981
 20
80.4142931778
 10
175.8386397565
 20
80.4061242078
 10
175.8412565937
 20
80.3978839334
 10
175.8436231468
 20
80.3895822963
 10
175.8457367527
 20
80.3812292383
 10
175.8475947483
 20
80.3728347012
 10
175.8491944706
 20
80.3644086269
 10
175.8505332565
 20
80.355960957
 10
175.8516084429
 20
80.3475016334
 10
175.8524173669
 20
80.3390405979
 10
175.8529573654
 20
80.3305877922
 10
175.8532257752
 20
80.3221531581
  0
LWPOLYLINE
  5
2BC
100
AcDbEntity
  8
IMPORT_IGES
100
AcDbPolyline
 62
7
  6
CONTINUOUS
 90
49
 70
0
 10
175.5938398674
 20
80.5971444507
 10
175.6022556462
 20
80.5960538167
 10
175.6106719988
 20
80.594735697
 10
175.6190796556
 20
80.5931907312
 10
175.6274693474
 20
80.5914195588
 10
175.6358318044
 20
80.5894228193
 10
175.6441577574
 20
80.5872011521
 10
175.6524379367
 20
80.5847551969
 10
175.660663073
 20
80.5820855931
 10
175.6688238968
 20
80.5791929803
 10
175.6769111386
 20
80.5760779979
 10
175.6849155289
 20
80.5727412855
 10
175.6928277982
 20
80.5691834827
 10
175.7006386772
 20
80.5654052288
 10
175.7083388962
 20
80.5614071635
 10
175.715919186
 20
80.5571899262
 10
175.7233702768
 20
80.5527541564
 10
175.7306828994
 20
80.5481004938
 10
175.7378477842
 20
80.5432295778
 10
175.7448556618
 20
80.5381420478
 10
175.7516972627
 20
80.5328385435
 10
175.7583633173
 20
80.5273197044
 10
175.7648445564
 20
80.5215861699
 10
175.7711317103
 20
80.5156385796
 10
175.7772155096
 20
80.509477573
 10
175.7830567042
 20
80.503140263
 10
175.7886848975
 20
80.4966024053
 10
175.7940974263
 20
80.4898739418
 10
175.7992916276
 20
80.4829648142
 10
175.8042648384
 20
80.4758849643
 10
175.8090143956
 20
80.468644334
 10
175.8135376361
 20
80.461252865
 10
175.8178318969
 20
80.453720499
 10
175.8218945149
 20
80.4460571779
 10
175.8257228271
 20
80.4382728435
 10
175.8293141704
 20
80.4303774374
 10
175.8326658818
 20
80.4223809016
 10
175.8357752981
 20
80.4142931778
 10
175.8386397565
 20
80.4061242078
 10
175.8412565937
 20
80.3978839334
 10
175.8436231468
 20
80.3895822963
 10
175.8457367527
 20
80.3812292383
 10
175.8475947483
 20
80.3728347012
 10
175.8491944706
 20
80.3644086269
 10
175.8505332565
 20
80.355960957
 10
175.8516084429
 20
80.3475016334
 10
175.8524173669
 20
80.3390405979
 10
175.8529573654
 20
80.3305877922
 10
175.8532257752
 20
80.3221531581
  0
LWPOLYLINE
  5
2BD
100
AcDbEntity
  8
CURVE
100
AcDbPolyline
 62
250
  6
CONTINUOUS
 90
30
 70
0
 10
175.9251986012
 20
80.9100934495
 10
175.8986162143
 20
80.9192481407
 10
175.871775702
 20
80.9276269743
 10
175.84470058
 20
80.9352645379
 10
175.8174143639
 20
80.942195419
 10
175.7899405693
 20
80.9484542053
 10
175.762302712
 20
80.9540754844
 10
175.7345243075
 20
80.9590938438
 10
175.7066288715
 20
80.9635438712
 10
175.6786399196
 20
80.967460154
 10
175.6505809674
 20
80.97087728
 10
175.6224755306
 20
80.9738298367
 10
175.5943471249
 20
80.9763524117
 10
175.5530032212
 20
80.979341934
 10
175.5116622375
 20
80.9815266689
 10
175.470325913
 20
80.9829558508
 10
175.428995987
 20
80.983678714
 10
175.3876741987
 20
80.9837444926
 10
175.3463622874
 20
80.9832024209
 10
175.3050619922
 20
80.9821017332
 10
175.2637750525
 20
80.9804916637
 10
175.2111636698
 20
80.9777672445
 10
175.1585838013
 20
80.9743300261
 10
175.1060424293
 20
80.9702150437
 10
175.0535465362
 20
80.9654573327
 10
175.0011031041
 20
80.9600919284
 10
174.9487191153
 20
80.9541538661
 10
174.8964015521
 20
80.947678181
 10
174.8441573969
 20
80.9406999085
 10
174.7919936318
 20
80.9332540839
  0
LWPOLYLINE
  5
2BE
100
AcDbEntity
  8
IMPORT_IGES
100
AcDbPolyline
 62
7
  6
CONTINUOUS
 90
30
 70
0
 10
175.9251986012
 20
80.9100934495
 10
175.8986162143
 20
80.9192481407
 10
175.871775702
 20
80.9276269743
 10
175.84470058
 20
80.9352645379
 10
175.8174143639
 20
80.942195419
 10
175.7899405693
 20
80.9484542053
 10
175.762302712
 20
80.9540754844
 10
175.7345243075
 20
80.9590938438
 10
175.7066288715
 20
80.9635438712
 10
175.6786399196
 20
80.967460154
 10
175.6505809674
 20
80.97087728
 10
175.6224755306
 20
80.9738298367
 10
175.5943471249
 20
80.9763524117
 10
175.5530032212
 20
80.979341934
 10
175.5116622375
 20
80.9815266689
 10
175.470325913
 20
80.9829558508
 10
175.428995987
 20
80.983678714
 10
175.3876741987
 20
80.9837444926
 10
175.3463622874
 20
80.9832024209
 10
175.3050619922
 20
80.9821017332
 10
175.2637750525
 20
80.9804916637
 10
175.2111636698
 20
80.9777672445
 10
175.1585838013
 20
80.9743300261
 10
175.1060424293
 20
80.9702150437
 10
175.0535465362
 20
80.9654573327
 10
175.0011031041
 20
80.9600919284
 10
174.9487191153
 20
80.9541538661
 10
174.8964015521
 20
80.947678181
 10
174.8441573969
 20
80.9406999085
 10
174.7919936318
 20
80.9332540839
  0
LINE
  5
2BF
100
AcDbEntity
  8
SMUSSO
100
AcDbLine
 62
7
  6
CONTINUOUS
 10
215.9384564598
 20
62.4459188398
 11
216.9578868223
 21
62.0026707801
  0
LINE
  5
2C0
100
AcDbEntity
  8
ASSI
100
AcDbLine
 62
7
  6
CONTINUOUS
 10
215.9384564598
 20
62.4459188398
 11
216.9578868223
 21
62.0026707801
  0
LINE
  5
2C1
100
AcDbEntity
  8
SMUSSO
100
AcDbLine
 62
7
  6
CONTINUOUS
 10
128.7904500898
 20
149.5939252098
 11
128.3472020301
 21
150.6133555723
  0
LINE
  5
2C2
100
AcDbEntity
  8
ASSI
100
AcDbLine
 62
7
  6
CONTINUOUS
 10
128.7904500898
 20
149.5939252098
 11
128.3472020301
 21
150.6133555723
  0
LINE
  5
2C3
100
AcDbEntity
  8
0
100
AcDbLine
 62
250
  6
CONTINUOUS
 10
138.2183143937
 20
83.6225651688
 11
138.3171875
 21
83.7214382751
  0
LINE
  5
2C4
100
AcDbEntity
  8
ASSI
100
AcDbLine
 62
250
  6
CONTINUOUS
 10
138.2183143937
 20
83.6225651688
 11
138.3171875
 21
83.7214382751
  0
LINE
  5
2C5
100
AcDbEntity
  8
0
100
AcDbLine
 62
250
  6
CONTINUOUS
 10
138.2183143937
 20
128.0227473312
 11
138.3171875
 21
127.9238742249
  0
LINE
  5
2C6
100
AcDbEntity
  8
ASSI
100
AcDbLine
 62
250
  6
CONTINUOUS
 10
138.2183143937
 20
128.0227473312
 11
138.3171875
 21
127.9238742249
  0
LINE
  5
2C7
100
AcDbEntity
  8
CURVE
100
AcDbLine
 62
250
  6
CONTINUOUS
 10
171.6219562867
 20
78.7591406793
 11
171.0832737397
 21
80.195578233
  0
LINE
  5
2C8
100
AcDbEntity
  8
IMPORT_IGES
100
AcDbLine
 62
7
  6
CONTINUOUS
 10
171.6219562867
 20
78.7591406793
 11
171.0832737397
 21
80.195578233
  0
LINE
  5
2C9
100
AcDbEntity
  8
CURVE
100
AcDbLine
 62
250
  6
CONTINUOUS
 10
171.2023262105
 20
80.9589551507
 11
171.6566639042
 21
79.7376115872
  0
LINE
  5
2CA
100
AcDbEntity
  8
IMPORT_IGES
100
AcDbLine
 62
7
  6
CONTINUOUS
 10
171.2023262105
 20
80.9589551507
 11
171.6566639042
 21
79.7376115872
  0
LINE
  5
2CB
100
AcDbEntity
  8
CURVE
100
AcDbLine
 62
250
  6
CONTINUOUS
 10
168.556330807
 20
78.7591406793
 11
167.858946553
 21
80.9589551507
  0
LINE
  5
2CC
100
AcDbEntity
  8
IMPORT_IGES
100
AcDbLine
 62
7
  6
CONTINUOUS
 10
168.556330807
 20
78.7591406793
 11
167.858946553
 21
80.9589551507
  0
LINE
  5
2CD
100
AcDbEntity
  8
CURVE
100
AcDbLine
 62
250
  6
CONTINUOUS
 10
168.3577661493
 20
80.9589551507
 11
168.7770913684
 21
79.4447549338
  0
LINE
  5
2CE
100
AcDbEntity
  8
IMPORT_IGES
100
AcDbLine
 62
7
  6
CONTINUOUS
 10
168.3577661493
 20
80.9589551507
 11
168.7770913684
 21
79.4447549338
  0
LINE
  5
2CF
100
AcDbEntity
  8
0
100
AcDbLine
 62
250
  6
CONTINUOUS
 10
138.7170964188
 20
83.1237831437
 11
138.8159695251
 21
83.22265625
  0
LINE
  5
2D0
100
AcDbEntity
  8
ASSI
100
AcDbLine
 62
250
  6
CONTINUOUS
 10
138.7170964188
 20
83.1237831437
 11
138.8159695251
 21
83.22265625
  0
LINE
  5
2D1
100
AcDbEntity
  8
0
100
AcDbLine
 62
250
  6
CONTINUOUS
 10
138.7170964188
 20
128.5215293563
 11
138.8159695251
 21
128.42265625
  0
LINE
  5
2D2
100
AcDbEntity
  8
ASSI
100
AcDbLine
 62
250
  6
CONTINUOUS
 10
138.7170964188
 20
128.5215293563
 11
138.8159695251
 21
128.42265625
  0
LWPOLYLINE
  5
2D3
100
AcDbEntity
  8
CURVE
100
AcDbPolyline
 62
250
  6
CONTINUOUS
 90
6
 70
0
 10
175.75172479
 20
79.4261962252
 10
175.7592992326
 20
79.4054198058
 10
175.7665081048
 20
79.384514866
 10
175.7734149466
 20
79.3635042716
 10
175.7800832979
 20
79.3424108889
 10
175.7865766988
 20
79.3212575838
  0
LWPOLYLINE
  5
2D4
100
AcDbEntity
  8
IMPORT_IGES
100
AcDbPolyline
 62
7
  6
CONTINUOUS
 90
6
 70
0
 10
175.75172479
 20
79.4261962252
 10
175.7592992326
 20
79.4054198058
 10
175.7665081048
 20
79.384514866
 10
175.7734149466
 20
79.3635042716
 10
175.7800832979
 20
79.3424108889
 10
175.7865766988
 20
79.3212575838
  0
LINE
  5
2D5
100
AcDbEntity
  8
CURVE
100
AcDbLine
 62
250
  6
CONTINUOUS
 10
173.9821957985
 20
80.9589551507
 11
174.6571536725
 21
78.7591406793
  0
LINE
  5
2D6
100
AcDbEntity
  8
IMPORT_IGES
100
AcDbLine
 62
7
  6
CONTINUOUS
 10
173.9821957985
 20
80.9589551507
 11
174.6571536725
 21
78.7591406793
  0
LINE
  5
2D7
100
AcDbEntity
  8
CURVE
100
AcDbLine
 62
250
  6
CONTINUOUS
 10
175.7865766988
 20
79.3212575838
 11
175.8665155089
 21
79.0543517457
  0
LINE
  5
2D8
100
AcDbEntity
  8
IMPORT_IGES
100
AcDbLine
 62
7
  6
CONTINUOUS
 10
175.7865766988
 20
79.3212575838
 11
175.8665155089
 21
79.0543517457
  0
LWPOLYLINE
  5
2D9
100
AcDbEntity
  8
CURVE
100
AcDbPolyline
 62
250
  6
CONTINUOUS
 90
3
 70
0
 10
175.8665155089
 20
79.0543517457
 10
175.92654072
 20
78.84899907
 10
175.9525162725
 20
78.7591402626
  0
LWPOLYLINE
  5
2DA
100
AcDbEntity
  8
IMPORT_IGES
100
AcDbPolyline
 62
7
  6
CONTINUOUS
 90
3
 70
0
 10
175.8665155089
 20
79.0543517457
 10
175.92654072
 20
78.84899907
 10
175.9525162725
 20
78.7591402626
  0
LINE
  5
2DB
100
AcDbEntity
  8
CURVE
100
AcDbLine
 62
250
  6
CONTINUOUS
 10
174.1731893136
 20
78.7591406793
 11
174.054235319
 21
79.1983015165
  0
LINE
  5
2DC
100
AcDbEntity
  8
IMPORT_IGES
100
AcDbLine
 62
7
  6
CONTINUOUS
 10
174.1731893136
 20
78.7591406793
 11
174.054235319
 21
79.1983015165
  0
LINE
  5
2DD
100
AcDbEntity
  8
CURVE
100
AcDbLine
 62
250
  6
CONTINUOUS
 10
173.9624670374
 20
79.5381229296
 11
173.7514639994
 21
80.3545020353
  0
LINE
  5
2DE
100
AcDbEntity
  8
IMPORT_IGES
100
AcDbLine
 62
7
  6
CONTINUOUS
 10
173.9624670374
 20
79.5381229296
 11
173.7514639994
 21
80.3545020353
  0
LINE
  5
2DF
100
AcDbEntity
  8
CURVE
100
AcDbLine
 62
250
  6
CONTINUOUS
 10
172.5701730055
 20
80.9589551507
 11
172.7758803295
 21
78.7591406793
  0
LINE
  5
2E0
100
AcDbEntity
  8
IMPORT_IGES
100
AcDbLine
 62
7
  6
CONTINUOUS
 10
172.5701730055
 20
80.9589551507
 11
172.7758803295
 21
78.7591406793
  0
LINE
  5
2E1
100
AcDbEntity
  8
CURVE
100
AcDbLine
 62
250
  6
CONTINUOUS
 10
172.3266728261
 20
78.7591406793
 11
172.2323315923
 21
80.1895900428
  0
LINE
  5
2E2
100
AcDbEntity
  8
IMPORT_IGES
100
AcDbLine
 62
7
  6
CONTINUOUS
 10
172.3266728261
 20
78.7591406793
 11
172.2323315923
 21
80.1895900428
  0
LINE
  5
2E3
100
AcDbEntity
  8
CURVE
100
AcDbLine
 62
250
  6
CONTINUOUS
 10
169.8385043678
 20
80.9590871507
 11
169.8385043678
 21
78.7591406793
  0
LINE
  5
2E4
100
AcDbEntity
  8
IMPORT_IGES
100
AcDbLine
 62
7
  6
CONTINUOUS
 10
169.8385043678
 20
80.9590871507
 11
169.8385043678
 21
78.7591406793
  0
LINE
  5
2E5
100
AcDbEntity
  8
CURVE
100
AcDbLine
 62
250
  6
CONTINUOUS
 10
170.2976925374
 20
78.7591406793
 11
170.2976925374
 21
80.9590871507
  0
LINE
  5
2E6
100
AcDbEntity
  8
IMPORT_IGES
100
AcDbLine
 62
7
  6
CONTINUOUS
 10
170.2976925374
 20
78.7591406793
 11
170.2976925374
 21
80.9590871507
  0
LWPOLYLINE
  5
2E7
100
AcDbEntity
  8
0
100
AcDbPolyline
 62
7
  6
CONTINUOUS
 90
13
 70
0
 43
0.3500000006
 10
172.1671875
 20
162.4298009033
 10
172.1671875
 20
163.7155078125
 10
172.3814719849
 20
164.1440767822
 10
172.8100409546
 20
164.5726638794
 10
173.0243254395
 20
164.5726638794
 10
173.4528944092
 20
164.1440767822
 10
173.667178894
 20
163.7155078125
 10
173.667178894
 20
162.4298009033
 10
173.4528944092
 20
162.0012319336
 10
173.0243254395
 20
161.5726629639
 10
172.8100409546
 20
161.5726629639
 10
172.3814719849
 20
162.0012319336
 10
172.1671875
 20
162.4298009033
  0
LINE
  5
2E8
100
AcDbEntity
  8
SMUSSO
100
AcDbLine
 62
7
  6
CONTINUOUS
 10
127.3610190435
 20
62.0170965956
 11
127.1671875
 21
61.8232650521
  0
LINE
  5
2E9
100
AcDbEntity
  8
ASSI
100
AcDbLine
 62
7
  6
CONTINUOUS
 10
127.3610190435
 20
62.0170965956
 11
127.1671875
 21
61.8232650521
  0
LINE
  5
2EA
100
AcDbEntity
  8
SMUSSO
100
AcDbLine
 62
7
  6
CONTINUOUS
 10
215.9727471544
 20
150.6288247065
 11
216.1665786979
 21
150.82265625
  0
LINE
  5
2EB
100
AcDbEntity
  8
ASSI
100
AcDbLine
 62
7
  6
CONTINUOUS
 10
215.9727471544
 20
150.6288247065
 11
216.1665786979
 21
150.82265625
  0
LWPOLYLINE
  5
2EC
100
AcDbEntity
  8
0
100
AcDbPolyline
 62
7
  6
CONTINUOUS
 90
13
 70
0
 43
0.3500000006
 10
225.560043457
 20
105.8226595459
 10
224.2743365479
 20
105.8226595459
 10
223.8457675781
 20
106.0369440308
 10
223.417180481
 20
106.4655130005
 10
223.417180481
 20
106.6797974854
 10
223.8457675781
 20
107.1083664551
 10
224.2743365479
 20
107.3226600037
 10
225.560043457
 20
107.3226600037
 10
225.9886124268
 20
107.1083664551
 10
226.4171813965
 20
106.6797974854
 10
226.4171813965
 20
106.4655130005
 10
225.9886124268
 20
106.0369440308
 10
225.560043457
 20
105.8226595459
  0
LINE
  5
2ED
100
AcDbEntity
  8
SMUSSO
100
AcDbLine
 62
7
  6
CONTINUOUS
 10
127.3610190435
 20
149.6282159044
 11
127.1671875
 21
149.8220474479
  0
LINE
  5
2EE
100
AcDbEntity
  8
ASSI
100
AcDbLine
 62
7
  6
CONTINUOUS
 10
127.3610190435
 20
149.6282159044
 11
127.1671875
 21
149.8220474479
  0
LINE
  5
2EF
100
AcDbEntity
  8
SMUSSO
100
AcDbLine
 62
7
  6
CONTINUOUS
 10
215.9727471544
 20
61.0164877935
 11
216.1665786979
 21
60.82265625
  0
LINE
  5
2F0
100
AcDbEntity
  8
ASSI
100
AcDbLine
 62
7
  6
CONTINUOUS
 10
215.9727471544
 20
61.0164877935
 11
216.1665786979
 21
60.82265625
  0
LWPOLYLINE
  5
2F1
100
AcDbEntity
  8
CURVE
100
AcDbPolyline
 62
250
  6
CONTINUOUS
 90
38
 70
0
 10
176.2200341822
 20
79.4169849201
 10
176.2155793782
 20
79.4325717071
 10
176.2110152823
 20
79.4481264372
 10
176.2063187279
 20
79.4636381295
 10
176.2014665482
 20
79.4790958026
 10
176.1964355765
 20
79.4944884756
 10
176.1912026462
 20
79.5098051671
 10
176.1857445904
 20
79.5250348962
 10
176.1800382425
 20
79.5401666817
 10
176.1740604357
 20
79.5551895424
 10
176.1677880034
 20
79.5700924971
 10
176.1611977789
 20
79.5848645649
 10
176.1542665953
 20
79.5994947645
 10
176.1493038688
 20
79.6094386255
 10
176.1441603053
 20
79.6192973958
 10
176.1388263164
 20
79.6290578696
 10
176.1332923134
 20
79.6387068413
 10
176.1275487078
 20
79.6482311051
 10
176.1215859109
 20
79.6576174553
 10
176.1153943342
 20
79.6668526863
 10
176.1089643892
 20
79.6759235923
 10
176.1022864872
 20
79.6848169675
 10
176.0953510396
 20
79.6935196064
 10
176.0881484579
 20
79.7020183031
 10
176.0806691535
 20
79.710299852
 10
176.07357029
 20
79.7176825978
 10
176.0662391866
 20
79.7248577903
 10
176.0586837924
 20
79.7318111219
 10
176.0509120563
 20
79.7385282847
 10
176.0429319274
 20
79.7449949709
 10
176.0347513546
 20
79.7511968727
 10
176.026378287
 20
79.7571196825
 10
176.0178206735
 20
79.7627490923
 10
176.0090864631
 20
79.7680707945
 10
176.0001836049
 20
79.7730704811
 10
175.9911200478
 20
79.7777338446
 10
175.9819037408
 20
79.7820465769
 10
175.972542633
 20
79.7859943705
  0
LWPOLYLINE
  5
2F2
100
AcDbEntity
  8
IMPORT_IGES
100
AcDbPolyline
 62
7
  6
CONTINUOUS
 90
38
 70
0
 10
176.2200341822
 20
79.4169849201
 10
176.2155793782
 20
79.4325717071
 10
176.2110152823
 20
79.4481264372
 10
176.2063187279
 20
79.4636381295
 10
176.2014665482
 20
79.4790958026
 10
176.1964355765
 20
79.4944884756
 10
176.1912026462
 20
79.5098051671
 10
176.1857445904
 20
79.5250348962
 10
176.1800382425
 20
79.5401666817
 10
176.1740604357
 20
79.5551895424
 10
176.1677880034
 20
79.5700924971
 10
176.1611977789
 20
79.5848645649
 10
176.1542665953
 20
79.5994947645
 10
176.1493038688
 20
79.6094386255
 10
176.1441603053
 20
79.6192973958
 10
176.1388263164
 20
79.6290578696
 10
176.1332923134
 20
79.6387068413
 10
176.1275487078
 20
79.6482311051
 10
176.1215859109
 20
79.6576174553
 10
176.1153943342
 20
79.6668526863
 10
176.1089643892
 20
79.6759235923
 10
176.1022864872
 20
79.6848169675
 10
176.0953510396
 20
79.6935196064
 10
176.0881484579
 20
79.7020183031
 10
176.0806691535
 20
79.710299852
 10
176.07357029
 20
79.7176825978
 10
176.0662391866
 20
79.7248577903
 10
176.0586837924
 20
79.7318111219
 10
176.0509120563
 20
79.7385282847
 10
176.0429319274
 20
79.7449949709
 10
176.0347513546
 20
79.7511968727
 10
176.026378287
 20
79.7571196825
 10
176.0178206735
 20
79.7627490923
 10
176.0090864631
 20
79.7680707945
 10
176.0001836049
 20
79.7730704811
 10
175.9911200478
 20
79.7777338446
 10
175.9819037408
 20
79.7820465769
 10
175.972542633
 20
79.7859943705
  0
LINE
  5
2F3
100
AcDbEntity
  8
CURVE
100
AcDbLine
 62
250
  6
CONTINUOUS
 10
176.2287085816
 20
79.3857591002
 11
176.2200341822
 21
79.4169849201
  0
LINE
  5
2F4
100
AcDbEntity
  8
IMPORT_IGES
100
AcDbLine
 62
7
  6
CONTINUOUS
 10
176.2287085816
 20
79.3857591002
 11
176.2200341822
 21
79.4169849201
  0
LINE
  5
2F5
100
AcDbEntity
  8
CURVE
100
AcDbLine
 62
250
  6
CONTINUOUS
 10
176.2586703607
 20
79.2750780812
 11
176.2287085816
 21
79.3857591002
  0
LINE
  5
2F6
100
AcDbEntity
  8
IMPORT_IGES
100
AcDbLine
 62
7
  6
CONTINUOUS
 10
176.2586703607
 20
79.2750780812
 11
176.2287085816
 21
79.3857591002
  0
LINE
  5
2F7
100
AcDbEntity
  8
CURVE
100
AcDbLine
 62
250
  6
CONTINUOUS
 10
176.3942014469
 20
78.7591402626
 11
176.3732512933
 21
78.8376776452
  0
LINE
  5
2F8
100
AcDbEntity
  8
IMPORT_IGES
100
AcDbLine
 62
7
  6
CONTINUOUS
 10
176.3942014469
 20
78.7591402626
 11
176.3732512933
 21
78.8376776452
  0
LINE
  5
2F9
100
AcDbEntity
  8
CURVE
100
AcDbLine
 62
250
  6
CONTINUOUS
 10
176.3007043792
 20
79.1159306557
 11
176.2586703607
 21
79.2750780812
  0
LINE
  5
2FA
100
AcDbEntity
  8
IMPORT_IGES
100
AcDbLine
 62
7
  6
CONTINUOUS
 10
176.3007043792
 20
79.1159306557
 11
176.2586703607
 21
79.2750780812
  0
LINE
  5
2FB
100
AcDbEntity
  8
CURVE
100
AcDbLine
 62
250
  6
CONTINUOUS
 10
176.3732512933
 20
78.8376776452
 11
176.3007043792
 21
79.1159306557
  0
LINE
  5
2FC
100
AcDbEntity
  8
IMPORT_IGES
100
AcDbLine
 62
7
  6
CONTINUOUS
 10
176.3732512933
 20
78.8376776452
 11
176.3007043792
 21
79.1159306557
  0
LWPOLYLINE
  5
2FD
100
AcDbEntity
  8
CURVE
100
AcDbPolyline
 62
250
  6
CONTINUOUS
 90
58
 70
0
 10
175.8532257752
 20
80.3221531581
 10
175.8532949522
 20
80.3119542604
 10
175.853180719
 20
80.3017259226
 10
175.8528716961
 20
80.2914790493
 10
175.8523565042
 20
80.281224545
 10
175.8516237638
 20
80.2709733145
 10
175.8506620954
 20
80.2607362622
 10
175.8494601195
 20
80.2505242929
 10
175.8480064567
 20
80.2403483111
 10
175.8462897276
 20
80.2302192214
 10
175.8442985526
 20
80.2201479286
 10
175.8420215523
 20
80.2101453371
 10
175.8394473473
 20
80.2002223516
 10
175.8365645582
 20
80.1903898767
 10
175.8333618053
 20
80.180658817
 10
175.8298277094
 20
80.1710400772
 10
175.8259508909
 20
80.1615445618
 10
175.8220935478
 20
80.1529684037
 10
175.8179456765
 20
80.1445163309
 10
175.8135135987
 20
80.1361999859
 10
175.8088036358
 20
80.1280310115
 10
175.8038221095
 20
80.1200210502
 10
175.7985753412
 20
80.1121817447
 10
175.7930696526
 20
80.1045247375
 10
175.7873113651
 20
80.0970616713
 10
175.7813068004
 20
80.0898041888
 10
175.7750622799
 20
80.0827639325
 10
175.7685841252
 20
80.075952545
 10
175.761878658
 20
80.069381669
 10
175.7549521996
 20
80.0630629472
 10
175.7478110717
 20
80.057008022
 10
175.7401356415
 20
80.0509786883
 10
175.7322440889
 20
80.0452435754
 10
175.7241472902
 20
80.0397968085
 10
175.7158561219
 20
80.0346325122
 10
175.7073814603
 20
80.0297448116
 10
175.6987341817
 20
80.0251278314
 10
175.6899251627
 20
80.0207756966
 10
175.6809652796
 20
80.0166825321
 10
175.6718654087
 20
80.0128424627
 10
175.6626364265
 20
80.0092496134
 10
175.6532892093
 20
80.005898109
 10
175.6438346335
 20
80.0027820744
 10
175.6342835756
 20
79.9998956345
 10
175.6246469118
 20
79.9972329141
 10
175.6149355187
 20
79.9947880383
 10
175.6051602725
 20
79.9925551318
 10
175.5953320497
 20
79.9905283195
 10
175.5854617266
 20
79.9887017264
 10
175.5755601797
 20
79.9870694772
 10
175.5656382853
 20
79.985625697
 10
175.5557069198
 20
79.9843645105
 10
175.5457769596
 20
79.9832800427
 10
175.535859281
 20
79.9823664185
 10
175.5259647606
 20
79.9816177627
 10
175.5161042746
 20
79.9810282003
 10
175.5062886994
 20
79.980591856
 10
175.4965289115
 20
79.9803028549
  0
LWPOLYLINE
  5
2FE
100
AcDbEntity
  8
IMPORT_IGES
100
AcDbPolyline
 62
7
  6
CONTINUOUS
 90
58
 70
0
 10
175.8532257752
 20
80.3221531581
 10
175.8532949522
 20
80.3119542604
 10
175.853180719
 20
80.3017259226
 10
175.8528716961
 20
80.2914790493
 10
175.8523565042
 20
80.281224545
 10
175.8516237638
 20
80.2709733145
 10
175.8506620954
 20
80.2607362622
 10
175.8494601195
 20
80.2505242929
 10
175.8480064567
 20
80.2403483111
 10
175.8462897276
 20
80.2302192214
 10
175.8442985526
 20
80.2201479286
 10
175.8420215523
 20
80.2101453371
 10
175.8394473473
 20
80.2002223516
 10
175.8365645582
 20
80.1903898767
 10
175.8333618053
 20
80.180658817
 10
175.8298277094
 20
80.1710400772
 10
175.8259508909
 20
80.1615445618
 10
175.8220935478
 20
80.1529684037
 10
175.8179456765
 20
80.1445163309
 10
175.8135135987
 20
80.1361999859
 10
175.8088036358
 20
80.1280310115
 10
175.8038221095
 20
80.1200210502
 10
175.7985753412
 20
80.1121817447
 10
175.7930696526
 20
80.1045247375
 10
175.7873113651
 20
80.0970616713
 10
175.7813068004
 20
80.0898041888
 10
175.7750622799
 20
80.0827639325
 10
175.7685841252
 20
80.075952545
 10
175.761878658
 20
80.069381669
 10
175.7549521996
 20
80.0630629472
 10
175.7478110717
 20
80.057008022
 10
175.7401356415
 20
80.0509786883
 10
175.7322440889
 20
80.0452435754
 10
175.7241472902
 20
80.0397968085
 10
175.7158561219
 20
80.0346325122
 10
175.7073814603
 20
80.0297448116
 10
175.6987341817
 20
80.0251278314
 10
175.6899251627
 20
80.0207756966
 10
175.6809652796
 20
80.0166825321
 10
175.6718654087
 20
80.0128424627
 10
175.6626364265
 20
80.0092496134
 10
175.6532892093
 20
80.005898109
 10
175.6438346335
 20
80.0027820744
 10
175.6342835756
 20
79.9998956345
 10
175.6246469118
 20
79.9972329141
 10
175.6149355187
 20
79.9947880383
 10
175.6051602725
 20
79.9925551318
 10
175.5953320497
 20
79.9905283195
 10
175.5854617266
 20
79.9887017264
 10
175.5755601797
 20
79.9870694772
 10
175.5656382853
 20
79.985625697
 10
175.5557069198
 20
79.9843645105
 10
175.5457769596
 20
79.9832800427
 10
175.535859281
 20
79.9823664185
 10
175.5259647606
 20
79.9816177627
 10
175.5161042746
 20
79.9810282003
 10
175.5062886994
 20
79.980591856
 10
175.4965289115
 20
79.9803028549
  0
LINE
  5
2FF
100
AcDbEntity
  8
CURVE
100
AcDbLine
 62
250
  6
CONTINUOUS
 10
174.7919936318
 20
80.9332540839
 11
174.7919936318
 21
78.7591402626
  0
LINE
  5
300
100
AcDbEntity
  8
IMPORT_IGES
100
AcDbLine
 62
7
  6
CONTINUOUS
 10
174.7919936318
 20
80.9332540839
 11
174.7919936318
 21
78.7591402626
  0
LINE
  5
301
100
AcDbEntity
  8
CURVE
100
AcDbLine
 62
250
  6
CONTINUOUS
 10
175.2341077068
 20
79.9803028549
 11
175.2341077068
 21
80.5841949507
  0
LINE
  5
302
100
AcDbEntity
  8
IMPORT_IGES
100
AcDbLine
 62
7
  6
CONTINUOUS
 10
175.2341077068
 20
79.9803028549
 11
175.2341077068
 21
80.5841949507
  0
LINE
  5
303
100
AcDbEntity
  8
CURVE
100
AcDbLine
 62
250
  6
CONTINUOUS
 10
175.2493336794
 20
78.7591402626
 11
175.2493336794
 21
79.6200263204
  0
LINE
  5
304
100
AcDbEntity
  8
IMPORT_IGES
100
AcDbLine
 62
7
  6
CONTINUOUS
 10
175.2493336794
 20
78.7591402626
 11
175.2493336794
 21
79.6200263204
  0
LINE
  5
305
100
AcDbEntity
  8
CURVE
100
AcDbLine
 62
250
  6
CONTINUOUS
 10
175.972542633
 20
79.7859943705
 11
175.972542633
 21
79.798993359
  0
LINE
  5
306
100
AcDbEntity
  8
IMPORT_IGES
100
AcDbLine
 62
7
  6
CONTINUOUS
 10
175.972542633
 20
79.7859943705
 11
175.972542633
 21
79.798993359
  0
LINE
  5
307
100
AcDbEntity
  8
CURVE
100
AcDbLine
 62
250
  6
CONTINUOUS
 10
171.0832737397
 20
80.195578233
 11
170.9841805062
 21
78.7591406793
  0
LINE
  5
308
100
AcDbEntity
  8
IMPORT_IGES
100
AcDbLine
 62
7
  6
CONTINUOUS
 10
171.0832737397
 20
80.195578233
 11
170.9841805062
 21
78.7591406793
  0
LINE
  5
309
100
AcDbEntity
  8
CURVE
100
AcDbLine
 62
250
  6
CONTINUOUS
 10
170.544887669
 20
78.7591406793
 11
170.7435183266
 21
80.9589551507
  0
LINE
  5
30A
100
AcDbEntity
  8
IMPORT_IGES
100
AcDbLine
 62
7
  6
CONTINUOUS
 10
170.544887669
 20
78.7591406793
 11
170.7435183266
 21
80.9589551507
  0
LINE
  5
30B
100
AcDbEntity
  8
CURVE
100
AcDbLine
 62
250
  6
CONTINUOUS
 10
168.7770913684
 20
79.4447549338
 11
169.2092247773
 21
80.9589551507
  0
LINE
  5
30C
100
AcDbEntity
  8
IMPORT_IGES
100
AcDbLine
 62
7
  6
CONTINUOUS
 10
168.7770913684
 20
79.4447549338
 11
169.2092247773
 21
80.9589551507
  0
LINE
  5
30D
100
AcDbEntity
  8
SMUSSO
100
AcDbLine
 62
7
  6
CONTINUOUS
 10
128.3616278456
 20
61.0164877935
 11
128.1677963021
 21
60.82265625
  0
LINE
  5
30E
100
AcDbEntity
  8
ASSI
100
AcDbLine
 62
7
  6
CONTINUOUS
 10
128.3616278456
 20
61.0164877935
 11
128.1677963021
 21
60.82265625
  0
LINE
  5
30F
100
AcDbEntity
  8
SMUSSO
100
AcDbLine
 62
7
  6
CONTINUOUS
 10
216.9733559565
 20
149.6282159044
 11
217.1671875
 21
149.8220474479
  0
LINE
  5
310
100
AcDbEntity
  8
ASSI
100
AcDbLine
 62
7
  6
CONTINUOUS
 10
216.9733559565
 20
149.6282159044
 11
217.1671875
 21
149.8220474479
  0
LINE
  5
311
100
AcDbEntity
  8
SMUSSO
100
AcDbLine
 62
7
  6
CONTINUOUS
 10
128.3616278456
 20
150.6288247065
 11
128.1677963021
 21
150.82265625
  0
LINE
  5
312
100
AcDbEntity
  8
ASSI
100
AcDbLine
 62
7
  6
CONTINUOUS
 10
128.3616278456
 20
150.6288247065
 11
128.1677963021
 21
150.82265625
  0
LINE
  5
313
100
AcDbEntity
  8
SMUSSO
100
AcDbLine
 62
7
  6
CONTINUOUS
 10
216.9733559565
 20
62.0170965956
 11
217.1671875
 21
61.8232650521
  0
LINE
  5
314
100
AcDbEntity
  8
ASSI
100
AcDbLine
 62
7
  6
CONTINUOUS
 10
216.9733559565
 20
62.0170965956
 11
217.1671875
 21
61.8232650521
  0
LINE
  5
315
100
AcDbEntity
  8
CURVE
100
AcDbLine
 62
250
  6
CONTINUOUS
 10
173.7514639994
 20
80.3545020353
 11
173.5228274384
 21
79.5381229296
  0
LINE
  5
316
100
AcDbEntity
  8
IMPORT_IGES
100
AcDbLine
 62
7
  6
CONTINUOUS
 10
173.7514639994
 20
80.3545020353
 11
173.5228274384
 21
79.5381229296
  0
LINE
  5
317
100
AcDbEntity
  8
CURVE
100
AcDbLine
 62
250
  6
CONTINUOUS
 10
173.4288979188
 20
79.1983015165
 11
173.302190496
 21
78.7591406793
  0
LINE
  5
318
100
AcDbEntity
  8
IMPORT_IGES
100
AcDbLine
 62
7
  6
CONTINUOUS
 10
173.4288979188
 20
79.1983015165
 11
173.302190496
 21
78.7591406793
  0
LINE
  5
319
100
AcDbEntity
  8
CURVE
100
AcDbLine
 62
250
  6
CONTINUOUS
 10
172.8479848024
 20
78.7591406793
 11
173.5379875329
 21
80.9589551507
  0
LINE
  5
31A
100
AcDbEntity
  8
IMPORT_IGES
100
AcDbLine
 62
7
  6
CONTINUOUS
 10
172.8479848024
 20
78.7591406793
 11
173.5379875329
 21
80.9589551507
  0
LINE
  5
31B
100
AcDbEntity
  8
CURVE
100
AcDbLine
 62
250
  6
CONTINUOUS
 10
169.6680997088
 20
80.9589551507
 11
168.9609904076
 21
78.7591406793
  0
LINE
  5
31C
100
AcDbEntity
  8
IMPORT_IGES
100
AcDbLine
 62
7
  6
CONTINUOUS
 10
169.6680997088
 20
80.9589551507
 11
168.9609904076
 21
78.7591406793
  0
LINE
  5
31D
100
AcDbEntity
  8
CURVE
100
AcDbLine
 62
250
  6
CONTINUOUS
 10
171.6566639042
 20
79.7376115872
 11
172.1158520738
 21
80.9589551507
  0
LINE
  5
31E
100
AcDbEntity
  8
IMPORT_IGES
100
AcDbLine
 62
7
  6
CONTINUOUS
 10
171.6566639042
 20
79.7376115872
 11
172.1158520738
 21
80.9589551507
  0
LINE
  5
31F
100
AcDbEntity
  8
0
100
AcDbLine
 62
250
  6
CONTINUOUS
 10
205.6172785812
 20
128.5215293563
 11
205.5184054749
 21
128.42265625
  0
LINE
  5
320
100
AcDbEntity
  8
ASSI
100
AcDbLine
 62
250
  6
CONTINUOUS
 10
205.6172785812
 20
128.5215293563
 11
205.5184054749
 21
128.42265625
  0
LINE
  5
321
100
AcDbEntity
  8
0
100
AcDbLine
 62
250
  6
CONTINUOUS
 10
206.1160606063
 20
128.0227473312
 11
206.0171875
 21
127.9238742249
  0
LINE
  5
322
100
AcDbEntity
  8
ASSI
100
AcDbLine
 62
250
  6
CONTINUOUS
 10
206.1160606063
 20
128.0227473312
 11
206.0171875
 21
127.9238742249
  0
LINE
  5
323
100
AcDbEntity
  8
0
100
AcDbLine
 62
250
  6
CONTINUOUS
 10
205.6172785812
 20
83.1237831437
 11
205.5184054749
 21
83.22265625
  0
LINE
  5
324
100
AcDbEntity
  8
ASSI
100
AcDbLine
 62
250
  6
CONTINUOUS
 10
205.6172785812
 20
83.1237831437
 11
205.5184054749
 21
83.22265625
  0
LINE
  5
325
100
AcDbEntity
  8
0
100
AcDbLine
 62
250
  6
CONTINUOUS
 10
206.1160606063
 20
83.6225651688
 11
206.0171875
 21
83.7214382751
  0
LINE
  5
326
100
AcDbEntity
  8
ASSI
100
AcDbLine
 62
250
  6
CONTINUOUS
 10
206.1160606063
 20
83.6225651688
 11
206.0171875
 21
83.7214382751
  0
LINE
  5
327
100
AcDbEntity
  8
CURVE
100
AcDbLine
 62
250
  6
CONTINUOUS
 10
172.2323315923
 20
80.1895900428
 11
171.6863565695
 21
78.7591406793
  0
LINE
  5
328
100
AcDbEntity
  8
IMPORT_IGES
100
AcDbLine
 62
7
  6
CONTINUOUS
 10
172.2323315923
 20
80.1895900428
 11
171.6863565695
 21
78.7591406793
  0
LINE
  5
329
100
AcDbEntity
  8
CURVE
100
AcDbLine
 62
7
  6
CONTINUOUS
 10
167.9460133087
 20
80.6843135766
 11
168.2206548829
 21
80.9589551507
  0
LINE
  5
32A
100
AcDbEntity
  8
CURVE
100
AcDbLine
 62
7
  6
CONTINUOUS
 10
168.0471166013
 20
80.3653954411
 11
168.419121104
 21
80.7373999438
  0
LINE
  5
32B
100
AcDbEntity
  8
CURVE
100
AcDbLine
 62
7
  6
CONTINUOUS
 10
168.1482198938
 20
80.0464773056
 11
168.5102114895
 21
80.4084689013
  0
LINE
  5
32C
100
AcDbEntity
  8
CURVE
100
AcDbLine
 62
7
  6
CONTINUOUS
 10
168.2493231863
 20
79.7275591701
 11
168.601301875
 21
80.0795378587
  0
LINE
  5
32D
100
AcDbEntity
  8
CURVE
100
AcDbLine
 62
7
  6
CONTINUOUS
 10
169.1008009764
 20
80.5790369602
 11
169.480719167
 21
80.9589551507
  0
LINE
  5
32E
100
AcDbEntity
  8
CURVE
100
AcDbLine
 62
7
  6
CONTINUOUS
 10
168.3504264789
 20
79.4086410346
 11
168.6923922605
 21
79.7506068162
  0
LINE
  5
32F
100
AcDbEntity
  8
CURVE
100
AcDbLine
 62
7
  6
CONTINUOUS
 10
168.9330615262
 20
79.9912760819
 11
169.5578954048
 21
80.6161099605
  0
LINE
  5
330
100
AcDbEntity
  8
CURVE
100
AcDbLine
 62
7
  6
CONTINUOUS
 10
169.8385043678
 20
80.8967189235
 11
169.900872595
 21
80.9590871507
  0
LINE
  5
331
100
AcDbEntity
  8
CURVE
100
AcDbLine
 62
7
  6
CONTINUOUS
 10
168.4515297714
 20
79.0897228991
 11
169.3589270724
 21
79.9971202001
  0
LINE
  5
332
100
AcDbEntity
  8
CURVE
100
AcDbLine
 62
7
  6
CONTINUOUS
 10
169.8385043678
 20
80.4766974955
 11
170.2976925374
 21
80.9358856651
  0
LINE
  5
333
100
AcDbEntity
  8
CURVE
100
AcDbLine
 62
7
  6
CONTINUOUS
 10
168.5526330639
 20
78.7708047636
 11
169.15995874
 21
79.3781304397
  0
LINE
  5
334
100
AcDbEntity
  8
CURVE
100
AcDbLine
 62
7
  6
CONTINUOUS
 10
169.8385043678
 20
80.0566760674
 11
170.2976925374
 21
80.515864237
  0
LINE
  5
335
100
AcDbEntity
  8
CURVE
100
AcDbLine
 62
7
  6
CONTINUOUS
 10
169.8385043678
 20
79.6366546394
 11
170.2976925374
 21
80.095842809
  0
LINE
  5
336
100
AcDbEntity
  8
CURVE
100
AcDbLine
 62
7
  6
CONTINUOUS
 10
170.7020998913
 20
80.500250163
 11
171.1608048791
 21
80.9589551507
  0
LINE
  5
337
100
AcDbEntity
  8
CURVE
100
AcDbLine
 62
7
  6
CONTINUOUS
 10
169.8385043678
 20
79.2166332114
 11
170.2976925374
 21
79.675821381
  0
LINE
  5
338
100
AcDbEntity
  8
CURVE
100
AcDbLine
 62
7
  6
CONTINUOUS
 10
170.6604100016
 20
80.0385388452
 11
171.3049512534
 21
80.6830800971
  0
LINE
  5
339
100
AcDbEntity
  8
CURVE
100
AcDbLine
 62
7
  6
CONTINUOUS
 10
169.8385043678
 20
78.7966117834
 11
170.2976925374
 21
79.255799953
  0
LINE
  5
33A
100
AcDbEntity
  8
CURVE
100
AcDbLine
 62
7
  6
CONTINUOUS
 10
170.6187201119
 20
79.5768275275
 11
171.0718481952
 21
80.0299556109
  0
LINE
  5
33B
100
AcDbEntity
  8
CURVE
100
AcDbLine
 62
7
  6
CONTINUOUS
 10
171.1253285366
 20
80.0834359522
 11
171.4188342285
 21
80.3769416441
  0
LINE
  5
33C
100
AcDbEntity
  8
CURVE
100
AcDbLine
 62
7
  6
CONTINUOUS
 10
170.2210546917
 20
78.7591406793
 11
170.2976925374
 21
78.8357785249
  0
LINE
  5
33D
100
AcDbEntity
  8
CURVE
100
AcDbLine
 62
7
  6
CONTINUOUS
 10
170.5770302222
 20
79.1151162098
 11
171.0407258576
 21
79.5788118452
  0
LINE
  5
33E
100
AcDbEntity
  8
CURVE
100
AcDbLine
 62
7
  6
CONTINUOUS
 10
171.2398826908
 20
79.7779686784
 11
171.5327172036
 21
80.0708031912
  0
LINE
  5
33F
100
AcDbEntity
  8
CURVE
100
AcDbLine
 62
7
  6
CONTINUOUS
 10
171.9320834616
 20
80.4701694492
 11
172.4208691632
 21
80.9589551507
  0
LINE
  5
340
100
AcDbEntity
  8
CURVE
100
AcDbLine
 62
7
  6
CONTINUOUS
 10
170.6410761197
 20
78.7591406793
 11
171.00960352
 21
79.1276680795
  0
LINE
  5
341
100
AcDbEntity
  8
CURVE
100
AcDbLine
 62
7
  6
CONTINUOUS
 10
171.354436845
 20
79.4725014046
 11
171.6466001787
 21
79.7646647383
  0
LINE
  5
342
100
AcDbEntity
  8
CURVE
100
AcDbLine
 62
7
  6
CONTINUOUS
 10
171.6790263131
 20
79.7970908726
 11
172.5933233217
 21
80.7113878812
  0
LINE
  5
343
100
AcDbEntity
  8
CURVE
100
AcDbLine
 62
7
  6
CONTINUOUS
 10
171.4689909992
 20
79.1670341308
 11
172.072321196
 21
79.7703643276
  0
LINE
  5
344
100
AcDbEntity
  8
CURVE
100
AcDbLine
 62
7
  6
CONTINUOUS
 10
172.2483696588
 20
79.9464127903
 11
172.6292413018
 21
80.3272844333
  0
LINE
  5
345
100
AcDbEntity
  8
CURVE
100
AcDbLine
 62
7
  6
CONTINUOUS
 10
171.5835451535
 20
78.861566857
 11
171.8130471864
 21
79.0910688899
  0
LINE
  5
346
100
AcDbEntity
  8
CURVE
100
AcDbLine
 62
7
  6
CONTINUOUS
 10
172.2743570565
 20
79.55237876
 11
172.6651592819
 21
79.9431809854
  0
LINE
  5
347
100
AcDbEntity
  8
CURVE
100
AcDbLine
 62
7
  6
CONTINUOUS
 10
173.4726594735
 20
80.750681177
 11
173.6809334472
 21
80.9589551507
  0
LINE
  5
348
100
AcDbEntity
  8
CURVE
100
AcDbLine
 62
7
  6
CONTINUOUS
 10
172.3003444543
 20
79.1583447298
 11
172.701077262
 21
79.5590775374
  0
LINE
  5
349
100
AcDbEntity
  8
CURVE
100
AcDbLine
 62
7
  6
CONTINUOUS
 10
173.2807044606
 20
80.138704736
 11
174.0100788321
 21
80.8680791076
  0
LINE
  5
34A
100
AcDbEntity
  8
CURVE
100
AcDbLine
 62
7
  6
CONTINUOUS
 10
172.3263318521
 20
78.7643106995
 11
172.7369952421
 21
79.1749740895
  0
LINE
  5
34B
100
AcDbEntity
  8
CURVE
100
AcDbLine
 62
7
  6
CONTINUOUS
 10
173.0887494476
 20
79.5267282951
 11
173.687254652
 21
80.1252334995
  0
LINE
  5
34C
100
AcDbEntity
  8
CURVE
100
AcDbLine
 62
7
  6
CONTINUOUS
 10
173.785363742
 20
80.2233425895
 11
174.1086942131
 21
80.5466730605
  0
LINE
  5
34D
100
AcDbEntity
  8
CURVE
100
AcDbLine
 62
7
  6
CONTINUOUS
 10
172.7411832599
 20
78.7591406793
 11
172.7729132222
 21
78.7908706416
  0
LINE
  5
34E
100
AcDbEntity
  8
CURVE
100
AcDbLine
 62
7
  6
CONTINUOUS
 10
172.8967944347
 20
78.9147518542
 11
173.5238629498
 21
79.5418203692
  0
LINE
  5
34F
100
AcDbEntity
  8
CURVE
100
AcDbLine
 62
7
  6
CONTINUOUS
 10
173.871627454
 20
79.8895848734
 11
174.2073095941
 21
80.2252670135
  0
LINE
  5
350
100
AcDbEntity
  8
CURVE
100
AcDbLine
 62
7
  6
CONTINUOUS
 10
174.7919936318
 20
80.8099510512
 11
174.9342695577
 21
80.9522269771
  0
LINE
  5
351
100
AcDbEntity
  8
CURVE
100
AcDbLine
 62
7
  6
CONTINUOUS
 10
173.1612046879
 20
78.7591406793
 11
173.3593636539
 21
78.9572996454
  0
LINE
  5
352
100
AcDbEntity
  8
CURVE
100
AcDbLine
 62
7
  6
CONTINUOUS
 10
173.6003655251
 20
79.1983015165
 11
173.9401869382
 21
79.5381229296
  0
LINE
  5
353
100
AcDbEntity
  8
CURVE
100
AcDbLine
 62
7
  6
CONTINUOUS
 10
173.957891166
 20
79.5558271574
 11
174.3059249751
 21
79.9038609665
  0
LINE
  5
354
100
AcDbEntity
  8
CURVE
100
AcDbLine
 62
7
  6
CONTINUOUS
 10
174.7919936318
 20
80.3899296232
 11
175.3855796922
 21
80.9835156836
  0
LINE
  5
355
100
AcDbEntity
  8
CURVE
100
AcDbLine
 62
7
  6
CONTINUOUS
 10
174.0203869531
 20
79.1983015165
 11
174.4045403561
 21
79.5824549194
  0
LINE
  5
356
100
AcDbEntity
  8
CURVE
100
AcDbLine
 62
7
  6
CONTINUOUS
 10
174.7919936318
 20
79.9699081951
 11
175.2341077068
 21
80.4120222702
  0
LINE
  5
357
100
AcDbEntity
  8
CURVE
100
AcDbLine
 62
7
  6
CONTINUOUS
 10
175.4269406382
 20
80.6048552016
 11
175.7735851965
 21
80.9514997599
  0
LINE
  5
358
100
AcDbEntity
  8
CURVE
100
AcDbLine
 62
7
  6
CONTINUOUS
 10
174.136542446
 20
78.8944355814
 11
174.5031557371
 21
79.2610488724
  0
LINE
  5
359
100
AcDbEntity
  8
CURVE
100
AcDbLine
 62
7
  6
CONTINUOUS
 10
174.7919936318
 20
79.5498867671
 11
175.2341077068
 21
79.9920008422
  0
LINE
  5
35A
100
AcDbEntity
  8
CURVE
100
AcDbLine
 62
7
  6
CONTINUOUS
 10
175.7640472087
 20
80.521940344
 11
176.0673357503
 21
80.8252288857
  0
LINE
  5
35B
100
AcDbEntity
  8
CURVE
100
AcDbLine
 62
7
  6
CONTINUOUS
 10
174.421268972
 20
78.7591406793
 11
174.6017711181
 21
78.9396428254
  0
LINE
  5
35C
100
AcDbEntity
  8
CURVE
100
AcDbLine
 62
7
  6
CONTINUOUS
 10
174.7919936318
 20
79.1298653391
 11
175.2493336794
 21
79.5872053867
  0
LINE
  5
35D
100
AcDbEntity
  8
CURVE
100
AcDbLine
 62
7
  6
CONTINUOUS
 10
175.2821546131
 20
79.6200263204
 11
175.6775867652
 21
80.0154584725
  0
LINE
  5
35E
100
AcDbEntity
  8
CURVE
100
AcDbLine
 62
7
  6
CONTINUOUS
 10
175.8272551821
 20
80.1651268894
 11
176.2420124749
 21
80.5798841823
  0
LINE
  5
35F
100
AcDbEntity
  8
CURVE
100
AcDbLine
 62
7
  6
CONTINUOUS
 10
174.8412899833
 20
78.7591402626
 11
175.2493336794
 21
79.1671839587
  0
LINE
  5
360
100
AcDbEntity
  8
CURVE
100
AcDbLine
 62
7
  6
CONTINUOUS
 10
175.6509990201
 20
79.5688492994
 11
176.265986493
 21
80.1838367723
  0
LINE
  5
361
100
AcDbEntity
  8
CURVE
100
AcDbLine
 62
7
  6
CONTINUOUS
 10
175.795072714
 20
79.2929015653
 11
176.1359664796
 21
79.6337953309
  0
LINE
  5
362
100
AcDbEntity
  8
CURVE
100
AcDbLine
 62
7
  6
CONTINUOUS
 10
175.891402672
 20
78.9692100953
 11
176.2455255262
 21
79.3233329495
  0
LINE
  5
363
100
AcDbEntity
  8
SMUSSO
100
AcDbLine
 62
7
  6
CONTINUOUS
 10
215.5439249102
 20
149.5939252098
 11
215.9871729699
 21
150.6133555723
  0
LINE
  5
364
100
AcDbEntity
  8
ASSI
100
AcDbLine
 62
7
  6
CONTINUOUS
 10
215.5439249102
 20
149.5939252098
 11
215.9871729699
 21
150.6133555723
  0
LINE
  5
365
100
AcDbEntity
  8
CURVE
100
AcDbLine
 62
7
  6
CONTINUOUS
 10
176.1013542674
 20
78.7591402626
 11
176.3332419997
 21
78.9910279949
  0
LINE
  5
366
100
AcDbEntity
  8
SMUSSO
100
AcDbLine
 62
7
  6
CONTINUOUS
 10
128.3959185402
 20
62.4459188398
 11
127.3764881777
 21
62.0026707801
  0
LINE
  5
367
100
AcDbEntity
  8
ASSI
100
AcDbLine
 62
7
  6
CONTINUOUS
 10
128.3959185402
 20
62.4459188398
 11
127.3764881777
 21
62.0026707801
  0
LINE
  5
368
100
AcDbEntity
  8
0
100
AcDbLine
 62
250
  6
CONTINUOUS
 10
206.3155734163
 20
128.0227473312
 11
206.1160606063
 21
128.0227473312
  0
LINE
  5
369
100
AcDbEntity
  8
ASSI
100
AcDbLine
 62
250
  6
CONTINUOUS
 10
206.3155734163
 20
128.0227473312
 11
206.1160606063
 21
128.0227473312
  0
LINE
  5
36A
100
AcDbEntity
  8
0
100
AcDbLine
 62
250
  6
CONTINUOUS
 10
138.0188015837
 20
128.0227473312
 11
138.2183143937
 21
128.0227473312
  0
LINE
  5
36B
100
AcDbEntity
  8
ASSI
100
AcDbLine
 62
250
  6
CONTINUOUS
 10
138.0188015837
 20
128.0227473312
 11
138.2183143937
 21
128.0227473312
  0
LINE
  5
36C
100
AcDbEntity
  8
RACCORDO
100
AcDbLine
 62
7
  6
CONTINUOUS
 10
205.5184054749
 20
128.42265625
 11
138.8159695251
 21
128.42265625
  0
LINE
  5
36D
100
AcDbEntity
  8
ASSI
100
AcDbLine
 62
7
  6
CONTINUOUS
 10
205.5184054749
 20
128.42265625
 11
138.8159695251
 21
128.42265625
  0
LINE
  5
36E
100
AcDbEntity
  8
0
100
AcDbLine
 62
250
  6
CONTINUOUS
 10
138.7170964188
 20
128.5215293563
 11
205.6172785812
 21
128.5215293563
  0
LINE
  5
36F
100
AcDbEntity
  8
ASSI
100
AcDbLine
 62
250
  6
CONTINUOUS
 10
138.7170964188
 20
128.5215293563
 11
205.6172785812
 21
128.5215293563
  0
LINE
  5
370
100
AcDbEntity
  8
0
100
AcDbLine
 62
250
  6
CONTINUOUS
 10
138.7170964188
 20
128.7210421663
 11
205.6172785812
 21
128.7210421663
  0
LINE
  5
371
100
AcDbEntity
  8
ASSI
100
AcDbLine
 62
250
  6
CONTINUOUS
 10
138.7170964188
 20
128.7210421663
 11
205.6172785812
 21
128.7210421663
  0
LWPOLYLINE
  5
372
100
AcDbEntity
  8
0
100
AcDbPolyline
 62
250
  6
CONTINUOUS
 90
22
 70
0
 10
205.6172785812
 20
128.5215293563
 10
205.6546562188
 20
128.5202100064
 10
205.6918144855
 20
128.5161072225
 10
205.7285480621
 20
128.5092429457
 10
205.7646627471
 20
128.4996526722
 10
205.7999487429
 20
128.4873891466
 10
205.834183897
 20
128.4725281726
 10
205.8671678484
 20
128.4551628332
 10
205.8987329914
 20
128.4353887937
 10
205.9287171329
 20
128.4133087059
 10
205.9569474986
 20
128.3890514071
 10
205.9832759483
 20
128.3627469604
 10
206.0075831489
 20
128.3345082332
 10
206.0297311265
 20
128.3044792809
 10
206.049584162
 20
128.2728276119
 10
206.0670327554
 20
128.2397082611
 10
206.0819960445
 20
128.2052226586
 10
206.0943364178
 20
128.169631006
 10
206.1039234444
 20
128.1333537842
 10
206.1107282044
 20
128.0966788366
 10
206.114769494
 20
128.0597415222
 10
206.1160606063
 20
128.0227473312
  0
LWPOLYLINE
  5
373
100
AcDbEntity
  8
ASSI
100
AcDbPolyline
 62
250
  6
CONTINUOUS
 90
22
 70
0
 10
205.6172785812
 20
128.5215293563
 10
205.6546562188
 20
128.5202100064
 10
205.6918144855
 20
128.5161072225
 10
205.7285480621
 20
128.5092429457
 10
205.7646627471
 20
128.4996526722
 10
205.7999487429
 20
128.4873891466
 10
205.834183897
 20
128.4725281726
 10
205.8671678484
 20
128.4551628332
 10
205.8987329914
 20
128.4353887937
 10
205.9287171329
 20
128.4133087059
 10
205.9569474986
 20
128.3890514071
 10
205.9832759483
 20
128.3627469604
 10
206.0075831489
 20
128.3345082332
 10
206.0297311265
 20
128.3044792809
 10
206.049584162
 20
128.2728276119
 10
206.0670327554
 20
128.2397082611
 10
206.0819960445
 20
128.2052226586
 10
206.0943364178
 20
128.169631006
 10
206.1039234444
 20
128.1333537842
 10
206.1107282044
 20
128.0966788366
 10
206.114769494
 20
128.0597415222
 10
206.1160606063
 20
128.0227473312
  0
LWPOLYLINE
  5
374
100
AcDbEntity
  8
0
100
AcDbPolyline
 62
250
  6
CONTINUOUS
 90
22
 70
0
 10
205.6172785812
 20
128.7210421663
 10
205.6699825338
 20
128.7190102944
 10
205.7218191648
 20
128.7131874915
 10
205.7727884743
 20
128.7035737577
 10
205.8231736833
 20
128.6900690003
 10
205.8726915707
 20
128.6727733121
 10
205.9204924728
 20
128.6519869706
 10
205.9665296874
 20
128.6276583016
 10
206.0108499168
 20
128.5998389794
 10
206.0527436032
 20
128.5689843047
 10
206.0921686127
 20
128.5350603204
 10
206.1291670793
 20
128.4981009835
 10
206.1631558477
 20
128.4586634663
 10
206.1941036115
 20
128.4167031425
 10
206.222041677
 20
128.3722646382
 10
206.2464808077
 20
128.3260390042
 10
206.2673722236
 20
128.2778784517
 10
206.2847647048
 20
128.2279307694
 10
206.2983153543
 20
128.1773303745
 10
206.3079098733
 20
128.126455406
 10
206.3136625606
 20
128.0749277249
 10
206.3155734163
 20
128.0227473312
  0
LWPOLYLINE
  5
375
100
AcDbEntity
  8
ASSI
100
AcDbPolyline
 62
250
  6
CONTINUOUS
 90
22
 70
0
 10
205.6172785812
 20
128.7210421663
 10
205.6699825338
 20
128.7190102944
 10
205.7218191648
 20
128.7131874915
 10
205.7727884743
 20
128.7035737577
 10
205.8231736833
 20
128.6900690003
 10
205.8726915707
 20
128.6727733121
 10
205.9204924728
 20
128.6519869706
 10
205.9665296874
 20
128.6276583016
 10
206.0108499168
 20
128.5998389794
 10
206.0527436032
 20
128.5689843047
 10
206.0921686127
 20
128.5350603204
 10
206.1291670793
 20
128.4981009835
 10
206.1631558477
 20
128.4586634663
 10
206.1941036115
 20
128.4167031425
 10
206.222041677
 20
128.3722646382
 10
206.2464808077
 20
128.3260390042
 10
206.2673722236
 20
128.2778784517
 10
206.2847647048
 20
128.2279307694
 10
206.2983153543
 20
128.1773303745
 10
206.3079098733
 20
128.126455406
 10
206.3136625606
 20
128.0749277249
 10
206.3155734163
 20
128.0227473312
  0
LINE
  5
376
100
AcDbEntity
  8
SMUSSO
100
AcDbLine
 62
7
  6
CONTINUOUS
 10
128.3959185402
 20
149.1993936602
 11
127.3764881777
 21
149.6426417199
  0
LINE
  5
377
100
AcDbEntity
  8
ASSI
100
AcDbLine
 62
7
  6
CONTINUOUS
 10
128.3959185402
 20
149.1993936602
 11
127.3764881777
 21
149.6426417199
  0
LINE
  5
378
100
AcDbEntity
  8
SMUSSO
100
AcDbLine
 62
7
  6
CONTINUOUS
 10
215.5439249102
 20
62.0513872902
 11
215.9871729699
 21
61.0319569277
  0
LINE
  5
379
100
AcDbEntity
  8
ASSI
100
AcDbLine
 62
7
  6
CONTINUOUS
 10
215.5439249102
 20
62.0513872902
 11
215.9871729699
 21
61.0319569277
  0
LINE
  5
37A
100
AcDbEntity
  8
0
100
AcDbLine
 62
250
  6
CONTINUOUS
 10
205.6172785812
 20
128.7210421663
 11
205.6172785812
 21
128.5215293563
  0
LINE
  5
37B
100
AcDbEntity
  8
ASSI
100
AcDbLine
 62
250
  6
CONTINUOUS
 10
205.6172785812
 20
128.7210421663
 11
205.6172785812
 21
128.5215293563
  0
LINE
  5
37C
100
AcDbEntity
  8
0
100
AcDbLine
 62
250
  6
CONTINUOUS
 10
205.6172785812
 20
82.9242703337
 11
205.6172785812
 21
83.1237831437
  0
LINE
  5
37D
100
AcDbEntity
  8
ASSI
100
AcDbLine
 62
250
  6
CONTINUOUS
 10
205.6172785812
 20
82.9242703337
 11
205.6172785812
 21
83.1237831437
  0
LINE
  5
37E
100
AcDbEntity
  8
RACCORDO
100
AcDbLine
 62
7
  6
CONTINUOUS
 10
206.0171875
 20
83.7214382751
 11
206.0171875
 21
127.9238742249
  0
LINE
  5
37F
100
AcDbEntity
  8
ASSI
100
AcDbLine
 62
7
  6
CONTINUOUS
 10
206.0171875
 20
83.7214382751
 11
206.0171875
 21
127.9238742249
  0
LINE
  5
380
100
AcDbEntity
  8
0
100
AcDbLine
 62
250
  6
CONTINUOUS
 10
206.1160606063
 20
128.0227473312
 11
206.1160606063
 21
83.6225651688
  0
LINE
  5
381
100
AcDbEntity
  8
ASSI
100
AcDbLine
 62
250
  6
CONTINUOUS
 10
206.1160606063
 20
128.0227473312
 11
206.1160606063
 21
83.6225651688
  0
LINE
  5
382
100
AcDbEntity
  8
0
100
AcDbLine
 62
250
  6
CONTINUOUS
 10
206.3155734163
 20
128.0227473312
 11
206.3155734163
 21
83.6225651688
  0
LINE
  5
383
100
AcDbEntity
  8
ASSI
100
AcDbLine
 62
250
  6
CONTINUOUS
 10
206.3155734163
 20
128.0227473312
 11
206.3155734163
 21
83.6225651688
  0
LWPOLYLINE
  5
384
100
AcDbEntity
  8
0
100
AcDbPolyline
 62
250
  6
CONTINUOUS
 90
22
 70
0
 10
206.1160606063
 20
83.6225651688
 10
206.1147412564
 20
83.5851875312
 10
206.1106384725
 20
83.5480292645
 10
206.1037741957
 20
83.5112956879
 10
206.0941839222
 20
83.4751810029
 10
206.0819203966
 20
83.4398950071
 10
206.0670594226
 20
83.405659853
 10
206.0496940832
 20
83.3726759016
 10
206.0299200437
 20
83.3411107586
 10
206.0078399559
 20
83.3111266171
 10
205.9835826571
 20
83.2828962514
 10
205.9572782104
 20
83.2565678017
 10
205.9290394832
 20
83.2322606011
 10
205.8990105309
 20
83.2101126235
 10
205.8673588619
 20
83.190259588
 10
205.8342395111
 20
83.1728109946
 10
205.7997539086
 20
83.1578477055
 10
205.764162256
 20
83.1455073322
 10
205.7278850342
 20
83.1359203056
 10
205.6912100866
 20
83.1291155456
 10
205.6542727722
 20
83.125074256
 10
205.6172785812
 20
83.1237831437
  0
LWPOLYLINE
  5
385
100
AcDbEntity
  8
ASSI
100
AcDbPolyline
 62
250
  6
CONTINUOUS
 90
22
 70
0
 10
206.1160606063
 20
83.6225651688
 10
206.1147412564
 20
83.5851875312
 10
206.1106384725
 20
83.5480292645
 10
206.1037741957
 20
83.5112956879
 10
206.0941839222
 20
83.4751810029
 10
206.0819203966
 20
83.4398950071
 10
206.0670594226
 20
83.405659853
 10
206.0496940832
 20
83.3726759016
 10
206.0299200437
 20
83.3411107586
 10
206.0078399559
 20
83.3111266171
 10
205.9835826571
 20
83.2828962514
 10
205.9572782104
 20
83.2565678017
 10
205.9290394832
 20
83.2322606011
 10
205.8990105309
 20
83.2101126235
 10
205.8673588619
 20
83.190259588
 10
205.8342395111
 20
83.1728109946
 10
205.7997539086
 20
83.1578477055
 10
205.764162256
 20
83.1455073322
 10
205.7278850342
 20
83.1359203056
 10
205.6912100866
 20
83.1291155456
 10
205.6542727722
 20
83.125074256
 10
205.6172785812
 20
83.1237831437
  0
LWPOLYLINE
  5
386
100
AcDbEntity
  8
0
100
AcDbPolyline
 62
250
  6
CONTINUOUS
 90
22
 70
0
 10
206.3155734163
 20
83.6225651688
 10
206.3135415444
 20
83.5698612162
 10
206.3077187415
 20
83.5180245852
 10
206.2981050077
 20
83.4670552757
 10
206.2846002503
 20
83.4166700667
 10
206.2673045621
 20
83.3671521793
 10
206.2465182206
 20
83.3193512772
 10
206.2221895516
 20
83.2733140626
 10
206.1943702294
 20
83.2289938332
 10
206.1635155547
 20
83.1871001468
 10
206.1295915704
 20
83.1476751373
 10
206.0926322335
 20
83.1106766707
 10
206.0531947163
 20
83.0766879023
 10
206.0112343925
 20
83.0457401385
 10
205.9667958882
 20
83.017802073
 10
205.9205702542
 20
82.9933629423
 10
205.8724097017
 20
82.9724715264
 10
205.8224620194
 20
82.9550790452
 10
205.7718616245
 20
82.9415283957
 10
205.720986656
 20
82.9319338767
 10
205.6694589749
 20
82.9261811894
 10
205.6172785812
 20
82.9242703337
  0
LWPOLYLINE
  5
387
100
AcDbEntity
  8
ASSI
100
AcDbPolyline
 62
250
  6
CONTINUOUS
 90
22
 70
0
 10
206.3155734163
 20
83.6225651688
 10
206.3135415444
 20
83.5698612162
 10
206.3077187415
 20
83.5180245852
 10
206.2981050077
 20
83.4670552757
 10
206.2846002503
 20
83.4166700667
 10
206.2673045621
 20
83.3671521793
 10
206.2465182206
 20
83.3193512772
 10
206.2221895516
 20
83.2733140626
 10
206.1943702294
 20
83.2289938332
 10
206.1635155547
 20
83.1871001468
 10
206.1295915704
 20
83.1476751373
 10
206.0926322335
 20
83.1106766707
 10
206.0531947163
 20
83.0766879023
 10
206.0112343925
 20
83.0457401385
 10
205.9667958882
 20
83.017802073
 10
205.9205702542
 20
82.9933629423
 10
205.8724097017
 20
82.9724715264
 10
205.8224620194
 20
82.9550790452
 10
205.7718616245
 20
82.9415283957
 10
205.720986656
 20
82.9319338767
 10
205.6694589749
 20
82.9261811894
 10
205.6172785812
 20
82.9242703337
  0
LWPOLYLINE
  5
388
100
AcDbEntity
  8
0
100
AcDbPolyline
 62
7
  6
CONTINUOUS
 90
10
 70
0
 43
0.3500000006
 10
226.4171813965
 20
103.8940810547
 10
225.560043457
 20
104.7512280579
 10
224.7029055176
 20
104.9655125427
 10
223.8457675781
 20
104.9655125427
 10
223.417180481
 20
104.536943573
 10
223.417180481
 20
103.8940810547
 10
223.8457675781
 20
103.465512085
 10
224.7029055176
 20
103.465512085
 10
225.1314744873
 20
103.8940810547
 10
225.1314744873
 20
104.8226592407
  0
LINE
  5
389
100
AcDbEntity
  8
SMUSSO
100
AcDbLine
 62
7
  6
CONTINUOUS
 10
215.9384564598
 20
62.4459188398
 11
215.9384564598
 21
149.1993936602
  0
LINE
  5
38A
100
AcDbEntity
  8
ASSI
100
AcDbLine
 62
7
  6
CONTINUOUS
 10
215.9384564598
 20
62.4459188398
 11
215.9384564598
 21
149.1993936602
  0
LINE
  5
38B
100
AcDbEntity
  8
SMUSSO
100
AcDbLine
 62
7
  6
CONTINUOUS
 10
216.9733559565
 20
62.0170965956
 11
216.9733559565
 21
149.6282159044
  0
LINE
  5
38C
100
AcDbEntity
  8
ASSI
100
AcDbLine
 62
7
  6
CONTINUOUS
 10
216.9733559565
 20
62.0170965956
 11
216.9733559565
 21
149.6282159044
  0
LINE
  5
38D
100
AcDbEntity
  8
SMUSSO
100
AcDbLine
 62
7
  6
CONTINUOUS
 10
217.1671875
 20
61.8232650521
 11
217.1671875
 21
149.8220474479
  0
LINE
  5
38E
100
AcDbEntity
  8
ASSI
100
AcDbLine
 62
7
  6
CONTINUOUS
 10
217.1671875
 20
61.8232650521
 11
217.1671875
 21
149.8220474479
  0
LINE
  5
38F
100
AcDbEntity
  8
SMUSSO
100
AcDbLine
 62
7
  6
CONTINUOUS
 10
215.5439249102
 20
149.5939252098
 11
128.7904500898
 21
149.5939252098
  0
LINE
  5
390
100
AcDbEntity
  8
ASSI
100
AcDbLine
 62
7
  6
CONTINUOUS
 10
215.5439249102
 20
149.5939252098
 11
128.7904500898
 21
149.5939252098
  0
LINE
  5
391
100
AcDbEntity
  8
SMUSSO
100
AcDbLine
 62
7
  6
CONTINUOUS
 10
215.9727471544
 20
150.6288247065
 11
128.3616278456
 21
150.6288247065
  0
LINE
  5
392
100
AcDbEntity
  8
ASSI
100
AcDbLine
 62
7
  6
CONTINUOUS
 10
215.9727471544
 20
150.6288247065
 11
128.3616278456
 21
150.6288247065
  0
LINE
  5
393
100
AcDbEntity
  8
SMUSSO
100
AcDbLine
 62
7
  6
CONTINUOUS
 10
216.1665786979
 20
150.82265625
 11
128.1677963021
 21
150.82265625
  0
LINE
  5
394
100
AcDbEntity
  8
ASSI
100
AcDbLine
 62
7
  6
CONTINUOUS
 10
216.1665786979
 20
150.82265625
 11
128.1677963021
 21
150.82265625
  0
LINE
  5
395
100
AcDbEntity
  8
SMUSSO
100
AcDbLine
 62
7
  6
CONTINUOUS
 10
215.9871729699
 20
61.0319569277
 11
215.9727471544
 21
61.0164877935
  0
LINE
  5
396
100
AcDbEntity
  8
ASSI
100
AcDbLine
 62
7
  6
CONTINUOUS
 10
215.9871729699
 20
61.0319569277
 11
215.9727471544
 21
61.0164877935
  0
LINE
  5
397
100
AcDbEntity
  8
SMUSSO
100
AcDbLine
 62
7
  6
CONTINUOUS
 10
215.5439249102
 20
62.0513872902
 11
215.9384564598
 21
62.4459188398
  0
LINE
  5
398
100
AcDbEntity
  8
ASSI
100
AcDbLine
 62
7
  6
CONTINUOUS
 10
215.5439249102
 20
62.0513872902
 11
215.9384564598
 21
62.4459188398
  0
LINE
  5
399
100
AcDbEntity
  8
SMUSSO
100
AcDbLine
 62
7
  6
CONTINUOUS
 10
215.9871729699
 20
61.0319569277
 11
216.9578868223
 21
62.0026707801
  0
LINE
  5
39A
100
AcDbEntity
  8
ASSI
100
AcDbLine
 62
7
  6
CONTINUOUS
 10
215.9871729699
 20
61.0319569277
 11
216.9578868223
 21
62.0026707801
  0
LINE
  5
39B
100
AcDbEntity
  8
SMUSSO
100
AcDbLine
 62
7
  6
CONTINUOUS
 10
217.1671875
 20
61.8232650521
 11
216.1665786979
 21
60.82265625
  0
LINE
  5
39C
100
AcDbEntity
  8
ASSI
100
AcDbLine
 62
7
  6
CONTINUOUS
 10
217.1671875
 20
61.8232650521
 11
216.1665786979
 21
60.82265625
  0
LINE
  5
39D
100
AcDbEntity
  8
SMUSSO
100
AcDbLine
 62
7
  6
CONTINUOUS
 10
216.9733559565
 20
62.0170965956
 11
216.9578868223
 21
62.0026707801
  0
LINE
  5
39E
100
AcDbEntity
  8
ASSI
100
AcDbLine
 62
7
  6
CONTINUOUS
 10
216.9733559565
 20
62.0170965956
 11
216.9578868223
 21
62.0026707801
  0
LINE
  5
39F
100
AcDbEntity
  8
SMUSSO
100
AcDbLine
 62
7
  6
CONTINUOUS
 10
216.9578868223
 20
149.6426417199
 11
216.9733559565
 21
149.6282159044
  0
LINE
  5
3A0
100
AcDbEntity
  8
ASSI
100
AcDbLine
 62
7
  6
CONTINUOUS
 10
216.9578868223
 20
149.6426417199
 11
216.9733559565
 21
149.6282159044
  0
LINE
  5
3A1
100
AcDbEntity
  8
SMUSSO
100
AcDbLine
 62
7
  6
CONTINUOUS
 10
215.9384564598
 20
149.1993936602
 11
215.5439249102
 21
149.5939252098
  0
LINE
  5
3A2
100
AcDbEntity
  8
ASSI
100
AcDbLine
 62
7
  6
CONTINUOUS
 10
215.9384564598
 20
149.1993936602
 11
215.5439249102
 21
149.5939252098
  0
LINE
  5
3A3
100
AcDbEntity
  8
SMUSSO
100
AcDbLine
 62
7
  6
CONTINUOUS
 10
216.9578868223
 20
149.6426417199
 11
215.9871729699
 21
150.6133555723
  0
LINE
  5
3A4
100
AcDbEntity
  8
ASSI
100
AcDbLine
 62
7
  6
CONTINUOUS
 10
216.9578868223
 20
149.6426417199
 11
215.9871729699
 21
150.6133555723
  0
LINE
  5
3A5
100
AcDbEntity
  8
SMUSSO
100
AcDbLine
 62
7
  6
CONTINUOUS
 10
216.1665786979
 20
150.82265625
 11
217.1671875
 21
149.8220474479
  0
LINE
  5
3A6
100
AcDbEntity
  8
ASSI
100
AcDbLine
 62
7
  6
CONTINUOUS
 10
216.1665786979
 20
150.82265625
 11
217.1671875
 21
149.8220474479
  0
LINE
  5
3A7
100
AcDbEntity
  8
SMUSSO
100
AcDbLine
 62
7
  6
CONTINUOUS
 10
215.9727471544
 20
150.6288247065
 11
215.9871729699
 21
150.6133555723
  0
LINE
  5
3A8
100
AcDbEntity
  8
ASSI
100
AcDbLine
 62
7
  6
CONTINUOUS
 10
215.9727471544
 20
150.6288247065
 11
215.9871729699
 21
150.6133555723
  0
LINE
  5
3A9
100
AcDbEntity
  8
SMUSSO
100
AcDbLine
 62
7
  6
CONTINUOUS
 10
89.705093952
 20
61.0164877935
 11
95.255703125
 21
60.82265625
  0
LINE
  5
3AA
100
AcDbEntity
  8
ASSI
100
AcDbLine
 62
7
  6
CONTINUOUS
 10
89.705093952
 20
61.0164877935
 11
95.255703125
 21
60.82265625
  0
LWPOLYLINE
  5
3AB
100
AcDbEntity
  8
0
100
AcDbPolyline
 62
7
  6
CONTINUOUS
 90
3
 70
0
 43
0.3500000006
 10
99.8814861145
 20
171.7155102539
 10
100.738624054
 20
172.5726481934
 10
100.738624054
 20
169.5726472778
  0
LINE
  5
3AC
100
AcDbEntity
  8
SMUSSO
100
AcDbLine
 62
7
  6
CONTINUOUS
 10
89.705093952
 20
62.0170965956
 11
95.255703125
 21
61.8232650521
  0
LINE
  5
3AD
100
AcDbEntity
  8
ASSI
100
AcDbLine
 62
7
  6
CONTINUOUS
 10
89.705093952
 20
62.0170965956
 11
95.255703125
 21
61.8232650521
  0
LINE
  5
3AE
100
AcDbEntity
  8
0
100
AcDbLine
 62
7
  6
CONTINUOUS
 10
95.255703125
 20
63.0646123372
 11
95.855703125
 21
63.02265625
  0
LINE
  5
3AF
100
AcDbEntity
  8
SMUSSO
100
AcDbLine
 62
7
  6
CONTINUOUS
 10
88.705703125
 20
149.1993936602
 11
89.6901555828
 21
149.6426417199
  0
LINE
  5
3B0
100
AcDbEntity
  8
ASSI
100
AcDbLine
 62
7
  6
CONTINUOUS
 10
88.705703125
 20
149.1993936602
 11
89.6901555828
 21
149.6426417199
  0
LINE
  5
3B1
100
AcDbEntity
  8
0
100
AcDbLine
 62
250
  6
CONTINUOUS
 10
95.255703125
 20
64.3614456025
 11
95.855703125
 21
64.3194895153
  0
LINE
  5
3B2
100
AcDbEntity
  8
SMUSSO
100
AcDbLine
 62
7
  6
CONTINUOUS
 10
88.705703125
 20
62.4459188398
 11
89.6901555828
 21
62.0026707801
  0
LINE
  5
3B3
100
AcDbEntity
  8
ASSI
100
AcDbLine
 62
7
  6
CONTINUOUS
 10
88.705703125
 20
62.4459188398
 11
89.6901555828
 21
62.0026707801
  0
LWPOLYLINE
  5
3B4
100
AcDbEntity
  8
0
100
AcDbPolyline
 62
7
  6
CONTINUOUS
 90
3
 70
0
 43
0.3500000006
 10
105.6672034607
 20
171.7155102539
 10
106.5243414001
 20
172.5726481934
 10
106.5243414001
 20
169.5726472778
  0
LINE
  5
3B5
100
AcDbEntity
  8
SMUSSO
100
AcDbLine
 62
7
  6
CONTINUOUS
 10
88.705703125
 20
149.5939252098
 11
89.705093952
 21
150.6288247065
  0
LINE
  5
3B6
100
AcDbEntity
  8
ASSI
100
AcDbLine
 62
7
  6
CONTINUOUS
 10
88.705703125
 20
149.5939252098
 11
89.705093952
 21
150.6288247065
  0
LWPOLYLINE
  5
3B7
100
AcDbEntity
  8
0
100
AcDbPolyline
 62
7
  6
CONTINUOUS
 90
3
 70
0
 43
0.3500000006
 10
104.6452598877
 20
163.7155078125
 10
105.5024068909
 20
164.5726638794
 10
105.5024068909
 20
161.5726629639
  0
LINE
  5
3B8
100
AcDbEntity
  8
SMUSSO
100
AcDbLine
 62
7
  6
CONTINUOUS
 10
88.705703125
 20
62.0513872902
 11
89.705093952
 21
61.0164877935
  0
LINE
  5
3B9
100
AcDbEntity
  8
ASSI
100
AcDbLine
 62
7
  6
CONTINUOUS
 10
88.705703125
 20
62.0513872902
 11
89.705093952
 21
61.0164877935
  0
LINE
  5
3BA
100
AcDbEntity
  8
0
100
AcDbLine
 62
7
  6
CONTINUOUS
 10
96.781540276
 20
78.6725268113
 11
95.855703125
 21
78.670910919
  0
LINE
  5
3BB
100
AcDbEntity
  8
0
100
AcDbLine
 62
250
  6
CONTINUOUS
 10
96.7814757087
 20
78.8949770061
 11
95.855703125
 21
78.8945588116
  0
LINE
  5
3BC
100
AcDbEntity
  8
0
100
AcDbLine
 62
7
  6
CONTINUOUS
 10
98.3057523572
 20
79.4810923897
 11
95.855703125
 21
79.4668384202
  0
LINE
  5
3BD
100
AcDbEntity
  8
0
100
AcDbLine
 62
250
  6
CONTINUOUS
 10
98.3057523572
 20
79.5689588683
 11
95.855703125
 21
79.5547048988
  0
LINE
  5
3BE
100
AcDbEntity
  8
0
100
AcDbLine
 62
7
  6
CONTINUOUS
 10
96.8058275039
 20
80.62265625
 11
95.855703125
 21
80.62265625
  0
LINE
  5
3BF
100
AcDbEntity
  8
0
100
AcDbLine
 62
7
  6
CONTINUOUS
 10
95.855703125
 20
80.77265625
 11
96.005703125
 21
80.77265625
  0
LINE
  5
3C0
100
AcDbEntity
  8
0
100
AcDbLine
 62
7
  6
CONTINUOUS
 10
96.305703125
 20
80.77265625
 11
96.505703125
 21
80.77265625
  0
LINE
  5
3C1
100
AcDbEntity
  8
0
100
AcDbLine
 62
7
  6
CONTINUOUS
 10
95.855703125
 20
80.0668363755
 11
98.6661703162
 21
79.9426695823
  0
LINE
  5
3C2
100
AcDbEntity
  8
0
100
AcDbLine
 62
7
  6
CONTINUOUS
 10
96.9053312229
 20
80.6176934402
 11
98.855703125
 21
80.42265625
  0
LWPOLYLINE
  5
3C3
100
AcDbEntity
  8
0
100
AcDbPolyline
 62
250
  6
CONTINUOUS
 90
4
 70
0
 10
98.3583176809
 20
132.1167531158
 10
98.3411406088
 20
132.1056503665
 10
98.3235615875
 20
132.0921442726
 10
98.3057523572
 20
132.0763536317
  0
LWPOLYLINE
  5
3C4
100
AcDbEntity
  8
0
100
AcDbPolyline
 62
250
  6
CONTINUOUS
 90
4
 70
0
 10
98.3582343496
 20
79.5286080084
 10
98.3410515935
 20
79.5397251767
 10
98.323500116
 20
79.5532191226
 10
98.3057523572
 20
79.5689588683
  0
LINE
  5
3C5
100
AcDbEntity
  8
0
100
AcDbLine
 62
7
  6
CONTINUOUS
 10
96.005703125
 20
130.87265625
 11
96.155703125
 21
131.02265625
  0
LINE
  5
3C6
100
AcDbEntity
  8
0
100
AcDbLine
 62
7
  6
CONTINUOUS
 10
96.505703125
 20
130.87265625
 11
96.655703125
 21
131.02265625
  0
LINE
  5
3C7
100
AcDbEntity
  8
0
100
AcDbLine
 62
7
  6
CONTINUOUS
 10
96.005703125
 20
80.77265625
 11
96.155703125
 21
80.62265625
  0
LINE
  5
3C8
100
AcDbEntity
  8
0
100
AcDbLine
 62
7
  6
CONTINUOUS
 10
96.505703125
 20
80.77265625
 11
96.655703125
 21
80.62265625
  0
LWPOLYLINE
  5
3C9
100
AcDbEntity
  8
0
100
AcDbPolyline
 62
250
  6
CONTINUOUS
 90
9
 70
0
 10
96.8756359615
 20
78.7480560474
 10
96.8828966345
 20
78.7388608728
 10
96.8899425207
 20
78.7304621618
 10
96.8966894284
 20
78.7230319008
 10
96.9030120471
 20
78.716784415
 10
96.9087866779
 20
78.7119224527
 10
96.9138920015
 20
78.7086459248
 10
96.9182081757
 20
78.7071534075
 10
96.9216093587
 20
78.7076404539
  0
LWPOLYLINE
  5
3CA
100
AcDbEntity
  8
0
100
AcDbPolyline
 62
7
  6
CONTINUOUS
 90
3
 70
0
 43
0.3500000006
 10
104.6672031555
 20
169.8583720093
 10
104.5957719727
 20
169.6440875244
 10
104.4529096069
 20
169.358362793
  0
LWPOLYLINE
  5
3CB
100
AcDbEntity
  8
0
100
AcDbPolyline
 62
250
  6
CONTINUOUS
 90
19
 70
0
 10
96.7814757087
 20
132.7503354939
 10
96.7894335967
 20
132.7641506179
 10
96.7977444494
 20
132.7783485738
 10
96.8063747936
 20
132.7928362302
 10
96.8152919795
 20
132.8075256239
 10
96.8244360058
 20
132.8222722721
 10
96.8337209747
 20
132.8368822742
 10
96.8430741081
 20
132.8511960487
 10
96.8524249223
 20
132.865067894
 10
96.8616801237
 20
132.8783137532
 10
96.8707758081
 20
132.8907908862
 10
96.8795760224
 20
132.9022570312
 10
96.8878870064
 20
132.9124122276
 10
96.8956331407
 20
132.9211164069
 10
96.9026956031
 20
132.9281912934
 10
96.9088751806
 20
132.933420231
 10
96.9140944522
 20
132.9367457574
 10
96.918350818
 20
132.9381690158
 10
96.9216093587
 20
132.9376720461
  0
LWPOLYLINE
  5
3CC
100
AcDbEntity
  8
0
100
AcDbPolyline
 62
7
  6
CONTINUOUS
 90
7
 70
0
 10
98.82784421
 20
79.8460945325
 10
98.8361141708
 20
79.8320423701
 10
98.8430253616
 20
79.8189607342
 10
98.8485011523
 20
79.806849625
 10
98.8524747594
 20
79.7957090423
 10
98.8548901896
 20
79.7855389863
 10
98.855703125
 20
79.7763394568
  0
LWPOLYLINE
  5
3CD
100
AcDbEntity
  8
0
100
AcDbPolyline
 62
250
  6
CONTINUOUS
 90
14
 70
0
 10
96.7814757087
 20
78.8949770061
 10
96.7882488876
 20
78.8831835927
 10
96.7951288396
 20
78.8713682076
 10
96.8020985794
 20
78.8595697663
 10
96.8091019574
 20
78.8478891807
 10
96.8161568001
 20
78.8363080545
 10
96.8233508285
 20
78.8247053996
 10
96.8306695168
 20
78.8131282159
 10
96.8380646416
 20
78.801672225
 10
96.8455598733
 20
78.7903265785
 10
96.8531165371
 20
78.7791810363
 10
96.8606736082
 20
78.7683589163
 10
96.8682046949
 20
78.7579356111
 10
96.8756359615
 20
78.7480560474
  0
LWPOLYLINE
  5
3CE
100
AcDbEntity
  8
0
100
AcDbPolyline
 62
7
  6
CONTINUOUS
 90
3
 70
0
 43
0.3500000006
 10
103.6452595825
 20
161.8583695679
 10
103.5738283997
 20
161.644085083
 10
103.4309750977
 20
161.358378479
  0
LINE
  5
3CF
100
AcDbEntity
  8
SMUSSO
100
AcDbLine
 62
7
  6
CONTINUOUS
 10
88.705703125
 20
62.0513872902
 11
88.705703125
 21
149.5939252098
  0
LINE
  5
3D0
100
AcDbEntity
  8
ASSI
100
AcDbLine
 62
7
  6
CONTINUOUS
 10
88.705703125
 20
62.0513872902
 11
88.705703125
 21
149.5939252098
  0
LINE
  5
3D1
100
AcDbEntity
  8
SMUSSO
100
AcDbLine
 62
7
  6
CONTINUOUS
 10
89.6901555828
 20
61.0319569277
 11
89.6901555828
 21
62.0026707801
  0
LINE
  5
3D2
100
AcDbEntity
  8
ASSI
100
AcDbLine
 62
7
  6
CONTINUOUS
 10
89.6901555828
 20
61.0319569277
 11
89.6901555828
 21
62.0026707801
  0
LINE
  5
3D3
100
AcDbEntity
  8
SMUSSO
100
AcDbLine
 62
7
  6
CONTINUOUS
 10
89.6901555828
 20
149.6426417199
 11
89.6901555828
 21
150.6133555723
  0
LINE
  5
3D4
100
AcDbEntity
  8
ASSI
100
AcDbLine
 62
7
  6
CONTINUOUS
 10
89.6901555828
 20
149.6426417199
 11
89.6901555828
 21
150.6133555723
  0
LINE
  5
3D5
100
AcDbEntity
  8
SMUSSO
100
AcDbLine
 62
7
  6
CONTINUOUS
 10
89.705093952
 20
62.0170965956
 11
89.705093952
 21
149.6282159044
  0
LINE
  5
3D6
100
AcDbEntity
  8
ASSI
100
AcDbLine
 62
7
  6
CONTINUOUS
 10
89.705093952
 20
62.0170965956
 11
89.705093952
 21
149.6282159044
  0
LINE
  5
3D7
100
AcDbEntity
  8
SMUSSO
100
AcDbLine
 62
7
  6
CONTINUOUS
 10
95.255703125
 20
60.82265625
 11
95.255703125
 21
150.82265625
  0
LINE
  5
3D8
100
AcDbEntity
  8
ASSI
100
AcDbLine
 62
7
  6
CONTINUOUS
 10
95.255703125
 20
60.82265625
 11
95.255703125
 21
150.82265625
  0
LINE
  5
3D9
100
AcDbEntity
  8
0
100
AcDbLine
 62
7
  6
CONTINUOUS
 10
95.855703125
 20
63.02265625
 11
95.855703125
 21
148.62265625
  0
LINE
  5
3DA
100
AcDbEntity
  8
0
100
AcDbLine
 62
250
  6
CONTINUOUS
 10
96.7815404837
 20
78.6728785382
 11
96.7814757087
 21
78.8949770061
  0
LINE
  5
3DB
100
AcDbEntity
  8
0
100
AcDbLine
 62
250
  6
CONTINUOUS
 10
96.7814757087
 20
132.7503354939
 11
96.781540331
 21
132.9724322952
  0
LWPOLYLINE
  5
3DC
100
AcDbEntity
  8
0
100
AcDbPolyline
 62
7
  6
CONTINUOUS
 90
7
 70
0
 10
98.855703125
 20
131.8689730432
 10
98.8548903403
 20
131.8597745866
 10
98.8524752385
 20
131.8496051742
 10
98.8485019532
 20
131.8384648061
 10
98.8430262997
 20
131.8263534823
 10
98.836114893
 20
131.8132712027
 10
98.82784421
 20
131.7992179675
  0
LWPOLYLINE
  5
3DD
100
AcDbEntity
  8
0
100
AcDbPolyline
 62
250
  6
CONTINUOUS
 90
3
 70
0
 10
98.3058513777
 20
132.1596615359
 10
98.3058087236
 20
132.1630781194
 10
98.3057523572
 20
132.1642201103
  0
LINE
  5
3DE
100
AcDbEntity
  8
0
100
AcDbLine
 62
250
  6
CONTINUOUS
 10
98.3058943562
 20
132.1461252971
 11
98.3058513777
 21
132.1596615359
  0
LINE
  5
3DF
100
AcDbEntity
  8
0
100
AcDbLine
 62
250
  6
CONTINUOUS
 10
98.3058943562
 20
79.4991872029
 11
98.3057523572
 21
79.5689588683
  0
LINE
  5
3E0
100
AcDbEntity
  8
0
100
AcDbLine
 62
250
  6
CONTINUOUS
 10
98.6661703162
 20
131.7026429177
 11
98.6661703162
 21
131.2037029691
  0
LINE
  5
3E1
100
AcDbEntity
  8
0
100
AcDbLine
 62
250
  6
CONTINUOUS
 10
98.6661703162
 20
80.4416095309
 11
98.6661703162
 21
79.9426695823
  0
LINE
  5
3E2
100
AcDbEntity
  8
0
100
AcDbLine
 62
7
  6
CONTINUOUS
 10
98.855703125
 20
131.9110205904
 11
98.855703125
 21
131.22265625
  0
LINE
  5
3E3
100
AcDbEntity
  8
0
100
AcDbLine
 62
7
  6
CONTINUOUS
 10
98.855703125
 20
80.42265625
 11
98.855703125
 21
79.7342919096
  0
LINE
  5
3E4
100
AcDbEntity
  8
0
100
AcDbLine
 62
250
  6
CONTINUOUS
 10
98.3057523572
 20
132.0763536317
 11
98.3058943562
 21
132.1461252971
  0
LWPOLYLINE
  5
3E5
100
AcDbEntity
  8
0
100
AcDbPolyline
 62
250
  6
CONTINUOUS
 90
4
 70
0
 10
98.3057523572
 20
79.4810923897
 10
98.3058087236
 20
79.4822343806
 10
98.3058513777
 20
79.4856509641
 10
98.3058943562
 20
79.4991872029
  0
LWPOLYLINE
  5
3E6
100
AcDbEntity
  8
0
100
AcDbPolyline
 62
7
  6
CONTINUOUS
 90
4
 70
0
 43
0.3500000006
 10
100.5738365479
 20
163.9297922974
 10
100.5738365479
 20
164.5726638794
 10
102.0738370056
 20
164.5726638794
 10
101.2166900024
 20
161.5726629639
  0
LWPOLYLINE
  5
3E7
100
AcDbEntity
  8
0
100
AcDbPolyline
 62
7
  6
CONTINUOUS
 90
13
 70
0
 43
0.3500000006
 10
101.5957710571
 20
170.4298033447
 10
101.5957710571
 20
171.7155102539
 10
101.810055542
 20
172.1440792236
 10
102.2386245117
 20
172.5726481934
 10
102.4529180603
 20
172.5726481934
 10
102.88148703
 20
172.1440792236
 10
103.0957715149
 20
171.7155102539
 10
103.0957715149
 20
170.4298033447
 10
102.88148703
 20
170.001234375
 10
102.4529180603
 20
169.5726472778
 10
102.2386245117
 20
169.5726472778
 10
101.810055542
 20
170.001234375
 10
101.5957710571
 20
170.4298033447
  0
LINE
  5
3E8
100
AcDbEntity
  8
0
100
AcDbLine
 62
7
  6
CONTINUOUS
 10
96.155703125
 20
80.62265625
 11
96.305703125
 21
80.77265625
  0
LINE
  5
3E9
100
AcDbEntity
  8
0
100
AcDbLine
 62
7
  6
CONTINUOUS
 10
96.155703125
 20
131.02265625
 11
96.305703125
 21
130.87265625
  0
LINE
  5
3EA
100
AcDbEntity
  8
0
100
AcDbLine
 62
250
  6
CONTINUOUS
 10
96.7814757087
 20
78.8949770061
 11
97.8809945686
 21
79.4786212211
  0
LINE
  5
3EB
100
AcDbEntity
  8
0
100
AcDbLine
 62
250
  6
CONTINUOUS
 10
98.3057523572
 20
79.5689588683
 11
98.82784421
 21
79.8460945325
  0
LINE
  5
3EC
100
AcDbEntity
  8
0
100
AcDbLine
 62
7
  6
CONTINUOUS
 10
96.9207150867
 20
78.7071657584
 11
98.855703125
 21
79.7342919096
  0
LWPOLYLINE
  5
3ED
100
AcDbEntity
  8
0
100
AcDbPolyline
 62
250
  6
CONTINUOUS
 90
7
 70
0
 10
98.4446642863
 20
79.5161051653
 10
98.4329705103
 20
79.511568735
 10
98.4200107999
 20
79.5096841339
 10
98.4059133787
 20
79.5104681925
 10
98.3908199442
 20
79.5139107523
 10
98.3748772366
 20
79.5199762183
 10
98.3582343496
 20
79.5286080084
  0
LINE
  5
3EE
100
AcDbEntity
  8
0
100
AcDbLine
 62
7
  6
CONTINUOUS
 10
96.9053312229
 20
131.0276190598
 11
98.855703125
 21
131.22265625
  0
LINE
  5
3EF
100
AcDbEntity
  8
0
100
AcDbLine
 62
7
  6
CONTINUOUS
 10
95.855703125
 20
131.5784761245
 11
98.6661703162
 21
131.7026429177
  0
LINE
  5
3F0
100
AcDbEntity
  8
0
100
AcDbLine
 62
7
  6
CONTINUOUS
 10
95.855703125
 20
130.87265625
 11
96.005703125
 21
130.87265625
  0
LINE
  5
3F1
100
AcDbEntity
  8
0
100
AcDbLine
 62
7
  6
CONTINUOUS
 10
96.305703125
 20
130.87265625
 11
96.505703125
 21
130.87265625
  0
LINE
  5
3F2
100
AcDbEntity
  8
0
100
AcDbLine
 62
7
  6
CONTINUOUS
 10
95.855703125
 20
131.02265625
 11
96.8058275039
 21
131.02265625
  0
LINE
  5
3F3
100
AcDbEntity
  8
0
100
AcDbLine
 62
250
  6
CONTINUOUS
 10
96.7814757087
 20
132.7503354939
 11
95.855703125
 21
132.7507536884
  0
LINE
  5
3F4
100
AcDbEntity
  8
0
100
AcDbLine
 62
7
  6
CONTINUOUS
 10
96.781540276
 20
132.9727856887
 11
95.855703125
 21
132.974401581
  0
LINE
  5
3F5
100
AcDbEntity
  8
0
100
AcDbLine
 62
250
  6
CONTINUOUS
 10
98.3057523572
 20
132.0763536317
 11
95.855703125
 21
132.0906076012
  0
LINE
  5
3F6
100
AcDbEntity
  8
0
100
AcDbLine
 62
7
  6
CONTINUOUS
 10
98.3057523572
 20
132.1642201103
 11
95.855703125
 21
132.1784740798
  0
LWPOLYLINE
  5
3F7
100
AcDbEntity
  8
0
100
AcDbPolyline
 62
250
  6
CONTINUOUS
 90
7
 70
0
 10
98.4446642863
 20
132.1292073347
 10
98.4329177029
 20
132.1337574901
 10
98.4199224901
 20
132.1356318985
 10
98.4058151614
 20
132.1348300265
 10
98.3907642117
 20
132.1313846578
 10
98.3749031513
 20
132.1253479668
 10
98.3583176809
 20
132.1167531158
  0
LINE
  5
3F8
100
AcDbEntity
  8
0
100
AcDbLine
 62
250
  6
CONTINUOUS
 10
97.8809945686
 20
132.1666912789
 11
96.7814757087
 21
132.7503354939
  0
LINE
  5
3F9
100
AcDbEntity
  8
0
100
AcDbLine
 62
250
  6
CONTINUOUS
 10
98.82784421
 20
131.7992179675
 11
98.3057523572
 21
132.0763536317
  0
LINE
  5
3FA
100
AcDbEntity
  8
0
100
AcDbLine
 62
7
  6
CONTINUOUS
 10
96.9207150867
 20
132.9381467416
 11
98.855703125
 21
131.9110205904
  0
LINE
  5
3FB
100
AcDbEntity
  8
SMUSSO
100
AcDbLine
 62
7
  6
CONTINUOUS
 10
89.705093952
 20
62.0170965956
 11
89.6901555828
 21
62.0026707801
  0
LINE
  5
3FC
100
AcDbEntity
  8
ASSI
100
AcDbLine
 62
7
  6
CONTINUOUS
 10
89.705093952
 20
62.0170965956
 11
89.6901555828
 21
62.0026707801
  0
LINE
  5
3FD
100
AcDbEntity
  8
SMUSSO
100
AcDbLine
 62
7
  6
CONTINUOUS
 10
89.6901555828
 20
149.6426417199
 11
89.705093952
 21
149.6282159044
  0
LINE
  5
3FE
100
AcDbEntity
  8
ASSI
100
AcDbLine
 62
7
  6
CONTINUOUS
 10
89.6901555828
 20
149.6426417199
 11
89.705093952
 21
149.6282159044
  0
LWPOLYLINE
  5
3FF
100
AcDbEntity
  8
0
100
AcDbPolyline
 62
7
  6
CONTINUOUS
 90
10
 70
0
 43
0.3500000006
 10
103.5738283997
 20
162.0726540527
 10
103.6452595825
 20
161.929791687
 10
103.6452595825
 20
161.8583695679
 10
103.5024062805
 20
161.7155072021
 10
103.4309750977
 20
161.7155072021
 10
103.3595439148
 20
161.7869474487
 10
103.3595439148
 20
161.8583695679
 10
103.4309750977
 20
162.0012319336
 10
103.5024062805
 20
162.0726540527
 10
103.5738283997
 20
162.0726540527
  0
LWPOLYLINE
  5
400
100
AcDbEntity
  8
0
100
AcDbPolyline
 62
7
  6
CONTINUOUS
 90
10
 70
0
 43
0.3500000006
 10
104.5957719727
 20
170.0726564941
 10
104.6672031555
 20
169.9297941284
 10
104.6672031555
 20
169.8583720093
 10
104.5243407898
 20
169.7155096436
 10
104.4529096069
 20
169.7155096436
 10
104.3814874878
 20
169.7869498901
 10
104.3814874878
 20
169.8583720093
 10
104.4529096069
 20
170.001234375
 10
104.5243407898
 20
170.0726564941
 10
104.5957719727
 20
170.0726564941
  0
LINE
  5
401
100
AcDbEntity
  8
0
100
AcDbLine
 62
250
  6
CONTINUOUS
 10
95.255703125
 20
147.2838668975
 11
95.855703125
 21
147.3258229847
  0
LINE
  5
402
100
AcDbEntity
  8
0
100
AcDbLine
 62
7
  6
CONTINUOUS
 10
95.255703125
 20
148.5807001628
 11
95.855703125
 21
148.62265625
  0
LINE
  5
403
100
AcDbEntity
  8
SMUSSO
100
AcDbLine
 62
7
  6
CONTINUOUS
 10
89.705093952
 20
149.6282159044
 11
95.255703125
 21
149.8220474479
  0
LINE
  5
404
100
AcDbEntity
  8
ASSI
100
AcDbLine
 62
7
  6
CONTINUOUS
 10
89.705093952
 20
149.6282159044
 11
95.255703125
 21
149.8220474479
  0
LINE
  5
405
100
AcDbEntity
  8
SMUSSO
100
AcDbLine
 62
7
  6
CONTINUOUS
 10
89.705093952
 20
150.6288247065
 11
95.255703125
 21
150.82265625
  0
LINE
  5
406
100
AcDbEntity
  8
ASSI
100
AcDbLine
 62
7
  6
CONTINUOUS
 10
89.705093952
 20
150.6288247065
 11
95.255703125
 21
150.82265625
  0
LWPOLYLINE
  5
407
100
AcDbEntity
  8
0
100
AcDbPolyline
 62
7
  6
CONTINUOUS
 90
8
 70
0
 43
0.3500000006
 10
106.3595448303
 20
161.5726629639
 10
107.2166918335
 20
161.5726629639
 10
107.6452608032
 20
162.0012319336
 10
107.6452608032
 20
162.858369873
 10
107.2166918335
 20
163.2869388428
 10
106.3595448303
 20
163.2869388428
 10
106.3595448303
 20
164.5726638794
 10
107.6452608032
 20
164.5726638794
  0
LWPOLYLINE
  5
408
100
AcDbEntity
  8
0
100
AcDbPolyline
 62
7
  6
CONTINUOUS
 90
8
 70
0
 43
0.3500000006
 10
107.3814884033
 20
169.5726472778
 10
108.2386263428
 20
169.5726472778
 10
108.6671953125
 20
170.001234375
 10
108.6671953125
 20
170.8583723145
 10
108.2386263428
 20
171.2869412842
 10
107.3814884033
 20
171.2869412842
 10
107.3814884033
 20
172.5726481934
 10
108.6671953125
 20
172.5726481934
  0
ARC
  5
409
100
AcDbEntity
  8
0
100
AcDbCircle
 62
7
  6
CONTINUOUS
 10
96.8058275039
 20
132.02265625
 40
1.0
100
AcDbArc
 50
270.0
 51
275.7105931375
  0
ARC
  5
40A
100
AcDbEntity
  8
0
100
AcDbCircle
 62
7
  6
CONTINUOUS
 10
96.8058275039
 20
79.62265625
 40
1.0
100
AcDbArc
 50
84.2894068625
 51
90.0
  0
ARC
  5
40B
100
AcDbEntity
  8
0
100
AcDbCircle
 62
7
  6
CONTINUOUS
 10
96.7810164499
 20
132.672655746
 40
0.3
100
AcDbArc
 50
62.0510370175
 51
89.8999998573
  0
ARC
  5
40C
100
AcDbEntity
  8
0
100
AcDbCircle
 62
7
  6
CONTINUOUS
 10
96.7810164499
 20
78.972656754
 40
0.3
100
AcDbArc
 50
270.1000001427
 51
297.9489629825
  0
ARC
  5
40D
100
AcDbEntity
  8
0
100
AcDbCircle
 62
7
  6
CONTINUOUS
 10
98.3040070378
 20
79.7810873127
 40
0.3
100
AcDbArc
 50
270.3333333333
 51
297.9601595781
  0
ARC
  5
40E
100
AcDbEntity
  8
0
100
AcDbCircle
 62
7
  6
CONTINUOUS
 10
98.3040070378
 20
131.8642251873
 40
0.3
100
AcDbArc
 50
62.0398404207
 51
89.6666666667
  0
ELLIPSE
  5
40F
100
AcDbEntity
  8
RACCORDO
100
AcDbEllipse
 62
7
  6
CONTINUOUS
 10
138.818408449
 20
83.723877199
 30
0.0
 11
-0.3552779753
 21
-0.3552779753
 31
0.0
 40
0.9951458158
 41
-0.782965171
 42
0.782965171
  0
ELLIPSE
  5
410
100
AcDbEntity
  8
RACCORDO
100
AcDbEllipse
 62
7
  6
CONTINUOUS
 10
205.515966551
 20
83.723877199
 30
0.0
 11
0.3552779753
 21
-0.3552779753
 31
0.0
 40
0.9951458158
 41
-0.782965171
 42
0.782965171
  0
ELLIPSE
  5
411
100
AcDbEntity
  8
RACCORDO
100
AcDbEllipse
 62
7
  6
CONTINUOUS
 10
205.515966551
 20
127.921435301
 30
0.0
 11
0.3552779753
 21
0.3552779753
 31
0.0
 40
0.9951458158
 41
-0.782965171
 42
0.782965171
  0
ELLIPSE
  5
412
100
AcDbEntity
  8
RACCORDO
100
AcDbEllipse
 62
7
  6
CONTINUOUS
 10
138.818408449
 20
127.921435301
 30
0.0
 11
-0.3552779753
 21
0.3552779753
 31
0.0
 40
0.9951458158
 41
-0.782965171
 42
0.782965171
  0
ELLIPSE
  5
413
100
AcDbEntity
  8
ASSI
100
AcDbEllipse
 62
7
  6
CONTINUOUS
 10
138.818408449
 20
83.723877199
 30
0.0
 11
-0.3552779753
 21
-0.3552779753
 31
0.0
 40
0.9951458158
 41
-0.782965171
 42
0.782965171
  0
ELLIPSE
  5
414
100
AcDbEntity
  8
ASSI
100
AcDbEllipse
 62
7
  6
CONTINUOUS
 10
205.515966551
 20
83.723877199
 30
0.0
 11
0.3552779753
 21
-0.3552779753
 31
0.0
 40
0.9951458158
 41
-0.782965171
 42
0.782965171
  0
ELLIPSE
  5
415
100
AcDbEntity
  8
ASSI
100
AcDbEllipse
 62
7
  6
CONTINUOUS
 10
205.515966551
 20
127.921435301
 30
0.0
 11
0.3552779753
 21
0.3552779753
 31
0.0
 40
0.9951458158
 41
-0.782965171
 42
0.782965171
  0
ELLIPSE
  5
416
100
AcDbEntity
  8
ASSI
100
AcDbEllipse
 62
7
  6
CONTINUOUS
 10
138.818408449
 20
127.921435301
 30
0.0
 11
-0.3552779753
 21
0.3552779753
 31
0.0
 40
0.9951458158
 41
-0.782965171
 42
0.782965171
  0
ELLIPSE
  5
417
100
AcDbEntity
  8
0
100
AcDbEllipse
 62
7
  6
CONTINUOUS
 10
98.655703125
 20
79.742857555
 30
0.0
 11
0.1417119467
 21
0.1422961243
 31
0.0
 40
0.9918061237
 41
-0.2491986107
 42
0.7350951877
  0
ELLIPSE
  5
418
100
AcDbEntity
  8
0
100
AcDbEllipse
 62
7
  6
CONTINUOUS
 10
98.655703125
 20
131.902454945
 30
0.0
 11
-0.1417119467
 21
0.1422961243
 31
0.0
 40
0.9918061237
 41
-3.8766878413
 42
-2.8923940429
  0
ENDSEC
  0
SECTION
  2
OBJECTS
  0
DICTIONARY
  5
C
100
AcDbDictionary
280
0
281
1
  3
ACAD_GROUP
350
D
  3
ACAD_MLINESTYLE
350
17
  3
ACAD_LAYOUT
350
1A
  3
ACAD_PLOTSETTINGS
350
19
  3
ACAD_PLOTSTYLENAME
350
E
  0
DICTIONARY
  5
D
102
{ACAD_REACTORS
330
C
102
}
100
AcDbDictionary
280
0
281
1
  0
ACDBDICTIONARYWDFLT
  5
E
102
{ACAD_REACTORS
330
C
102
}
100
AcDbDictionary
281
1
  3
Normal
350
F
100
AcDbDictionaryWithDefault
340
F
  0
DICTIONARY
  5
17
102
{ACAD_REACTORS
330
C
102
}
100
AcDbDictionary
280
0
281
1
  3
Standard
350
18
  0
DICTIONARY
  5
19
102
{ACAD_REACTORS
330
C
102
}
100
AcDbDictionary
281
1
  0
DICTIONARY
  5
1A
102
{ACAD_REACTORS
330
C
102
}
100
AcDbDictionary
281
1
  3
Model
350
419
  3
Layout1
350
41A
  0
ACDBPLACEHOLDER
  5
F
102
{ACAD_REACTORS
330
E
102
}
  0
MLINESTYLE
  5
18
102
{ACAD_REACTORS
330
17
102
}
100
AcDbMlineStyle
  2
STANDARD
 70
0
  3

 62
256
 51
90.0
 52
90.0
 71
2
 49
0.5
 62
256
  6
BYLAYER
 49
-0.5
 62
256
  6
BYLAYER
  0
LAYOUT
  5
419
102
{ACAD_REACTORS
330
1A
102
}
100
AcDbPlotSettings
  1

  2
none_device
  4
ISO_A4_(297.00_x_210.00_MM)
  6

 40
0.0
 41
0.0
 42
0.0
 43
0.0
 44
297.0
 45
210.0
 46
0.0
 47
0.0
 48
0.0
 49
0.0
140
0.0
141
0.0
142
1.0
143
1.0
 70
1024
 72
1
 73
0
 74
0
  7

 75
0
147
1.0
148
0.0
149
0.0
100
AcDbLayout
  1
Model
 70
0
 71
0
 10
0.0
 20
0.0
 11
297.0
 21
210.0
 12
0.0
 22
0.0
 32
0.0
 14
0.0
 24
0.0
 34
0.0
 15
0.0
 25
0.0
 35
0.0
146
0.0
 13
0.0
 23
0.0
 33
0.0
 16
1.0
 26
0.0
 36
0.0
 17
0.0
 27
1.0
 37
0.0
 76
0
330
21C
345
0
346
0
  0
LAYOUT
  5
41A
102
{ACAD_REACTORS
330
1A
102
}
100
AcDbPlotSettings
  1

  2
none_device
  4
ISO_A4_(297.00_x_210.00_MM)
  6

 40
0.0
 41
0.0
 42
0.0
 43
0.0
 44
297.0
 45
210.0
 46
0.0
 47
0.0
 48
0.0
 49
0.0
140
0.0
141
0.0
142
1.0
143
1.0
 70
0
 72
1
 73
0
 74
0
  7

 75
0
147
1.0
148
0.0
149
0.0
100
AcDbLayout
  1
Layout1
 70
0
 71
1
 10
0.0
 20
0.0
 11
297.0
 21
210.0
 12
0.0
 22
0.0
 32
0.0
 14
0.0
 24
0.0
 34
0.0
 15
0.0
 25
0.0
 35
0.0
146
0.0
 13
0.0
 23
0.0
 33
0.0
 16
1.0
 26
0.0
 36
0.0
 17
0.0
 27
1.0
 37
0.0
 76
0
330
21D
345
0
346
0
  0
ENDSEC
  0
EOF
