  0
SECTION
  2
HEADER
  9
$ACADVER
  1
AC1021
  9
$DWGCODEPAGE
  3
ANSI_1252
  9
$EXTMAX
 10
297.0
 20
210.0
 30
0.0
  9
$EXTMIN
 10
0.0
 20
0.0
 30
0.0
  9
$LIMMIN
 10
0.0
 20
0.0
  9
$LIMMAX
 10
297.0
 20
210.0
  9
$VIEWCTR
 10
148.5
 20
105.0
  9
$VIEWSIZE
 40
210.0
  9
$CLAYER
  8
0
  9
$LTSCALE
 40
16.335
  9
$CELTYPE
  6
BYLAYER
  9
$DIMSCALE
 40
1.0
  9
$DIMASZ
 40
3.0
  9
$DIMEXO
 40
0.5
  9
$DIMDLI
 40
11.286
  9
$DIMEXE
 40
1.5
  9
$DIMCEN
 40
2.673
  9
$DIMLFAC
 40
1.0
  9
$DIMBLK
  1
_FILLED
  9
$DIMALT
 70
0
  9
$DIMALTF
 40
25.4
  9
$DIMTXT
 40
3.0
  9
$DIMTOL
 70
1
  9
$DIMLIM
 70
0
  9
$DIMTFAC
 40
1.0
  9
$DIMTP
 40
0.01
  9
$DIMTM
 40
0.01
  9
$DIMGAP
 40
0.625
  9
$DIMDSEP
 70
44
  9
$AUNITS
 70
0
  9
$PDMODE
 70
3
  9
$PDSIZE
 40
3.0
  9
$HANDSEED
  5
368
  9
$TILEMODE
 70
1
  9
$MEASUREMENT
 70
1
  9
$INSUNITS
 70
4
  0
ENDSEC
  0
SECTION
  2
CLASSES
  0
CLASS
  1
ACDBDICTIONARYWDFLT
  2
AcDbDictionaryWithDefault
  3
AutoCAD 2000
 90
0
 91
1
280
0
281
0
  0
CLASS
  1
ACDBPLACEHOLDER
  2
AcDbPlaceHolder
  3
AutoCAD 2000
 90
0
 91
1
280
0
281
0
  0
CLASS
  1
LAYOUT
  2
AcDbLayout
  3
AutoCAD 2000
 90
0
 91
0
280
0
281
0
  0
ENDSEC
  0
SECTION
  2
TABLES
  0
TABLE
  2
VPORT
  5
8
100
AcDbSymbolTable
 70
2
  0
VPORT
  5
1F4
100
AcDbSymbolTableRecord
100
AcDbViewportTableRecord
  2
*ACTIVE
 70
0
 10
0.0
 20
0.0
 11
1.0
 21
1.0
 12
148.5
 22
105.0
 13
0.0
 23
0.0
 14
1.0
 24
1.0
 15
0.0
 25
0.0
 16
0.0
 26
0.0
 36
1.0
 17
0.0
 27
0.0
 37
0.0
 40
210.0
 41
1.4142857143
 42
50.0
 43
0.0
 44
0.0
 50
0.0
 51
0.0
 71
0
 72
100
 73
1
 74
1
 75
0
 76
0
 77
0
 78
0
  0
ENDTAB
  0
TABLE
  2
LTYPE
  5
5
100
AcDbSymbolTable
 70
6
  0
LTYPE
  5
14
100
AcDbSymbolTableRecord
100
AcDbLinetypeTableRecord
  2
BYBLOCK
 70
0
  3

 72
65
 73
0
 40
0.0
  0
LTYPE
  5
15
100
AcDbSymbolTableRecord
100
AcDbLinetypeTableRecord
  2
BYLAYER
 70
0
  3

 72
65
 73
0
 40
0.0
  0
LTYPE
  5
16
100
AcDbSymbolTableRecord
100
AcDbLinetypeTableRecord
  2
CONTINUOUS
 70
64
  3
Solid line
 72
65
 73
0
 40
0.0
  0
LTYPE
  5
1F5
100
AcDbSymbolTableRecord
100
AcDbLinetypeTableRecord
  2
CENTER
 70
64
  3
____ _ ____ _ ____ _ ____ _ ____ _ ____ _ ____
 72
65
 73
4
 40
0.6
 49
0.375
 74
0
 49
-0.075
 74
0
 49
0.075
 74
0
 49
-0.075
 74
0
  0
LTYPE
  5
1F6
100
AcDbSymbolTableRecord
100
AcDbLinetypeTableRecord
  2
HIDDEN
 70
64
  3
- - - - - - - - - - - - - - - - - - - -
 72
65
 73
2
 40
0.2
 49
0.1
 74
0
 49
-0.1
 74
0
  0
LTYPE
  5
1F7
100
AcDbSymbolTableRecord
100
AcDbLinetypeTableRecord
  2
PHANTOM
 70
64
  3
_____ _ _ _____ _ _ _____ _ _ _____
 72
65
 73
6
 40
0.8
 49
0.45
 74
0
 49
-0.05
 74
0
 49
0.1
 74
0
 49
-0.05
 74
0
 49
0.1
 74
0
 49
-0.05
 74
0
  0
LTYPE
  5
1F8
100
AcDbSymbolTableRecord
100
AcDbLinetypeTableRecord
  2
DOT
 70
64
  3
. . . . . . . . . . . . . . . . . . . .
 72
65
 73
2
 40
0.2
 49
0.1
 74
0
 49
-0.1
 74
0
  0
LTYPE
  5
1F9
100
AcDbSymbolTableRecord
100
AcDbLinetypeTableRecord
  2
DASHED
 70
64
  3
- - - - - - - - - - - - - - - - - - - -
 72
65
 73
2
 40
0.2
 49
0.1
 74
0
 49
-0.1
 74
0
  0
ENDTAB
  0
TABLE
  2
LAYER
  5
2
100
AcDbSymbolTable
 70
36
  0
LAYER
  5
10
100
AcDbSymbolTableRecord
100
AcDbLayerTableRecord
  2
0
 70
0
 62
7
  6
CONTINUOUS
370
-3
390
F
  0
LAYER
  5
1FA
100
AcDbSymbolTableRecord
100
AcDbLayerTableRecord
  2
DEFAULT_1
 70
0
 62
7
  6
CENTER
370
-3
390
F
  0
LAYER
  5
1FB
100
AcDbSymbolTableRecord
100
AcDbLayerTableRecord
  2
DEFAULT_2
 70
0
 62
7
  6
HIDDEN
370
-3
390
F
  0
LAYER
  5
1FC
100
AcDbSymbolTableRecord
100
AcDbLayerTableRecord
  2
DEFAULT_3
 70
0
 62
7
  6
PHANTOM
370
-3
390
F
  0
LAYER
  5
1FD
100
AcDbSymbolTableRecord
100
AcDbLayerTableRecord
  2
ASSI
 70
0
 62
7
  6
CONTINUOUS
370
-3
390
F
  0
LAYER
  5
1FE
100
AcDbSymbolTableRecord
100
AcDbLayerTableRecord
  2
COORDINATE
 70
0
 62
7
  6
CONTINUOUS
370
-3
390
F
  0
LAYER
  5
1FF
100
AcDbSymbolTableRecord
100
AcDbLayerTableRecord
  2
COORD_ORIGINE
 70
0
 62
7
  6
CONTINUOUS
370
-3
390
F
  0
LAYER
  5
200
100
AcDbSymbolTableRecord
100
AcDbLayerTableRecord
  2
COPY_PUBLISH
 70
0
 62
7
  6
CONTINUOUS
370
-3
390
F
  0
LAYER
  5
201
100
AcDbSymbolTableRecord
100
AcDbLayerTableRecord
  2
COSMETIC
 70
0
 62
7
  6
CONTINUOUS
370
-3
390
F
  0
LAYER
  5
202
100
AcDbSymbolTableRecord
100
AcDbLayerTableRecord
  2
COSMETICI
 70
0
 62
7
  6
CONTINUOUS
370
-3
390
F
  0
LAYER
  5
203
100
AcDbSymbolTableRecord
100
AcDbLayerTableRecord
  2
CURVE
 70
0
 62
7
  6
CONTINUOUS
370
-3
390
F
  0
LAYER
  5
204
100
AcDbSymbolTableRecord
100
AcDbLayerTableRecord
  2
CURVE_COSTRUZIONE
 70
0
 62
7
  6
CONTINUOUS
370
-3
390
F
  0
LAYER
  5
205
100
AcDbSymbolTableRecord
100
AcDbLayerTableRecord
  2
CURVE_TASSELLI
 70
0
 62
7
  6
CONTINUOUS
370
-3
390
F
  0
LAYER
  5
206
100
AcDbSymbolTableRecord
100
AcDbLayerTableRecord
  2
DRAFT
 70
0
 62
7
  6
CONTINUOUS
370
-3
390
F
  0
LAYER
  5
207
100
AcDbSymbolTableRecord
100
AcDbLayerTableRecord
  2
IMPORT_IGES
 70
0
 62
7
  6
CONTINUOUS
370
-3
390
F
  0
LAYER
  5
208
100
AcDbSymbolTableRecord
100
AcDbLayerTableRecord
  2
INTFCLR_2
 70
0
 62
7
  6
CONTINUOUS
370
-3
390
F
  0
LAYER
  5
209
100
AcDbSymbolTableRecord
100
AcDbLayerTableRecord
  2
INTF_1
 70
0
 62
7
  6
CONTINUOUS
370
-3
390
F
  0
LAYER
  5
20A
100
AcDbSymbolTableRecord
100
AcDbLayerTableRecord
  2
INTF_7
 70
0
 62
7
  6
CONTINUOUS
370
-3
390
F
  0
LAYER
  5
20B
100
AcDbSymbolTableRecord
100
AcDbLayerTableRecord
  2
INTF_CYAN
 70
0
 62
7
  6
CONTINUOUS
370
-3
390
F
  0
LAYER
  5
20C
100
AcDbSymbolTableRecord
100
AcDbLayerTableRecord
  2
NOTE
 70
0
 62
7
  6
CONTINUOUS
370
-3
390
F
  0
LAYER
  5
20D
100
AcDbSymbolTableRecord
100
AcDbLayerTableRecord
  2
PIANI
 70
0
 62
7
  6
CONTINUOUS
370
-3
390
F
  0
LAYER
  5
20E
100
AcDbSymbolTableRecord
100
AcDbLayerTableRecord
  2
PIANI_ORIGINE
 70
0
 62
7
  6
CONTINUOUS
370
-3
390
F
  0
LAYER
  5
20F
100
AcDbSymbolTableRecord
100
AcDbLayerTableRecord
  2
PIANI_RIFERIMENTO
 70
0
 62
7
  6
CONTINUOUS
370
-3
390
F
  0
LAYER
  5
210
100
AcDbSymbolTableRecord
100
AcDbLayerTableRecord
  2
PUNTI
 70
0
 62
7
  6
CONTINUOUS
370
-3
390
F
  0
LAYER
  5
211
100
AcDbSymbolTableRecord
100
AcDbLayerTableRecord
  2
RACCORDO
 70
0
 62
7
  6
CONTINUOUS
370
-3
390
F
  0
LAYER
  5
212
100
AcDbSymbolTableRecord
100
AcDbLayerTableRecord
  2
RGB__255__255__255__
 70
0
 62
7
  6
CONTINUOUS
370
-3
390
F
  0
LAYER
  5
213
100
AcDbSymbolTableRecord
100
AcDbLayerTableRecord
  2
RGB____0____0____0__
 70
0
 62
7
  6
CONTINUOUS
370
-3
390
F
  0
LAYER
  5
214
100
AcDbSymbolTableRecord
100
AcDbLayerTableRecord
  2
SIMBOLI
 70
0
 62
7
  6
CONTINUOUS
370
-3
390
F
  0
LAYER
  5
215
100
AcDbSymbolTableRecord
100
AcDbLayerTableRecord
  2
SMUSSO
 70
0
 62
7
  6
CONTINUOUS
370
-3
390
F
  0
LAYER
  5
216
100
AcDbSymbolTableRecord
100
AcDbLayerTableRecord
  2
SNAPLINE
 70
0
 62
7
  6
CONTINUOUS
370
-3
390
F
  0
LAYER
  5
217
100
AcDbSymbolTableRecord
100
AcDbLayerTableRecord
  2
SUPERFICI
 70
0
 62
7
  6
CONTINUOUS
370
-3
390
F
  0
LAYER
  5
218
100
AcDbSymbolTableRecord
100
AcDbLayerTableRecord
  2
TRASH
 70
0
 62
7
  6
CONTINUOUS
370
-3
390
F
  0
LAYER
  5
219
100
AcDbSymbolTableRecord
100
AcDbLayerTableRecord
  2
WHITE
 70
0
 62
7
  6
CONTINUOUS
370
-3
390
F
  0
LAYER
  5
21A
100
AcDbSymbolTableRecord
100
AcDbLayerTableRecord
  2
XSEC_DATUMS
 70
0
 62
7
  6
CONTINUOUS
370
-3
390
F
  0
ENDTAB
  0
TABLE
  2
STYLE
  5
3
100
AcDbSymbolTable
 70
1
  0
STYLE
  5
11
100
AcDbSymbolTableRecord
100
AcDbTextStyleTableRecord
  2
STANDARD
 70
0
 40
0.0
 41
0.8
 50
0.0
 71
0
 42
0.2
  3
txt
  4

  0
STYLE
  5
21B
100
AcDbSymbolTableRecord
100
AcDbTextStyleTableRecord
  2
TEXTSTYLE_1
 70
0
 40
0.0
 41
0.8
 50
0.0
 71
0
 42
0.2
  3
gdt
  4

  0
ENDTAB
  0
TABLE
  2
VIEW
  5
6
100
AcDbSymbolTable
 70
0
  0
ENDTAB
  0
TABLE
  2
UCS
  5
7
100
AcDbSymbolTable
 70
0
  0
ENDTAB
  0
TABLE
  2
APPID
  5
9
100
AcDbSymbolTable
 70
1
  0
APPID
  5
21C
100
AcDbSymbolTableRecord
100
AcDbRegAppTableRecord
  2
ACAD
 70
0
  0
ENDTAB
  0
TABLE
  2
BLOCK_RECORD
  5
1
100
AcDbSymbolTable
 70
0
  0
BLOCK_RECORD
  5
21D
100
AcDbSymbolTableRecord
100
AcDbBlockTableRecord
  2
*Model_Space
  0
BLOCK_RECORD
  5
21E
100
AcDbSymbolTableRecord
100
AcDbBlockTableRecord
  2
*Paper_Space
  0
BLOCK_RECORD
  5
21F
100
AcDbSymbolTableRecord
100
AcDbBlockTableRecord
  2
_FILLED
  0
BLOCK_RECORD
  5
220
100
AcDbSymbolTableRecord
100
AcDbBlockTableRecord
  2
*D0
  0
BLOCK_RECORD
  5
221
100
AcDbSymbolTableRecord
100
AcDbBlockTableRecord
  2
*D1
  0
BLOCK_RECORD
  5
222
100
AcDbSymbolTableRecord
100
AcDbBlockTableRecord
  2
*D2
  0
BLOCK_RECORD
  5
223
100
AcDbSymbolTableRecord
100
AcDbBlockTableRecord
  2
*D3
  0
ENDTAB
  0
TABLE
  2
DIMSTYLE
  5
A
100
AcDbSymbolTable
 70
1
100
AcDbDimStyleTable
 71
0
  0
DIMSTYLE
105
224
100
AcDbSymbolTableRecord
100
AcDbDimStyleTableRecord
  2
STANDARD
 70
0
  3

  4

 40
1.0
 41
3.0
 42
0.5
 43
0.38
 44
1.5
 45
0.0
 46
0.0
 47
0.01
 48
0.01
140
3.0
141
0.09
142
0.0
143
25.4
144
1.0
145
0.0
146
1.0
147
0.625
 71
1.0
 72
0.0
 73
0
 74
0
 75
0
 76
0
 77
1
 78
8
 79
2
170
0
171
1
172
0
173
0
174
0
175
0
176
0
177
0
178
0
270
2
179
2
271
2
272
2
273
2
274
2
275
0
280
0
281
0
282
0
283
1
284
8
285
0
286
0
287
3
288
0
340
11
278
44
341
21F
342
21F
343
21F
344
21F
  0
DIMSTYLE
105
225
100
AcDbSymbolTableRecord
100
AcDbDimStyleTableRecord
  2
DIMSTYLE_1
 70
0
  3

  4

 40
1.0
 41
3.0
 42
0.5
 43
0.38
 44
1.5
 45
0.0
 46
0.0
 47
0.0
 48
0.0
140
3.0
141
0.09
142
0.0
143
25.4
144
1.0
145
0.0
146
1.0
147
0.75
 71
0.0
 72
0.0
 73
0
 74
0
 75
0
 76
0
 77
1
 78
8
 79
2
170
0
171
1
172
0
173
0
174
0
175
0
176
0
177
0
178
0
270
2
179
2
271
2
272
2
273
2
274
2
275
0
280
0
281
0
282
0
283
1
284
8
285
0
286
0
287
3
288
0
340
11
278
44
341
21F
342
21F
343
21F
344
21F
  0
ENDTAB
  0
ENDSEC
  0
SECTION
  2
BLOCKS
  0
BLOCK
  5
20
100
AcDbEntity
  8
0
100
AcDbBlockBegin
  2
*Model_Space
 70
0
 10
0.0
 20
0.0
 30
0.0
  3
*Model_Space
  1

  0
ENDBLK
  5
21
100
AcDbEntity
  8
0
100
AcDbBlockEnd
  0
BLOCK
  5
1C
100
AcDbEntity
  8
0
100
AcDbBlockBegin
  2
*Paper_Space
 70
0
 10
0.0
 20
0.0
 30
0.0
  3
*Paper_Space
  1

  0
ENDBLK
  5
1D
100
AcDbEntity
  8
0
100
AcDbBlockEnd
  0
BLOCK
  5
226
100
AcDbEntity
  8
0
100
AcDbBlockBegin
  2
_FILLED
 70
64
 10
0.0
 20
0.0
  3
_FILLED
  1

  0
SOLID
  5
227
100
AcDbEntity
  8
0
  6
BYBLOCK
 62
0
100
AcDbTrace
 10
0.0
 20
0.0
 11
-1.0
 21
0.3166666667
 12
-1.0
 22
-0.3166666667
 13
-1.0
 23
-0.3166666667
  0
ENDBLK
  5
228
100
AcDbEntity
  8
0
  6
BYBLOCK
 62
0
100
AcDbBlockEnd
  0
BLOCK
  5
229
100
AcDbEntity
  8
0
100
AcDbBlockBegin
 62
7
  6
CONTINUOUS
  2
*D0
 70
65
 10
0.0
 20
0.0
  3
*D0
  1

  0
LINE
  5
22A
100
AcDbEntity
  8
0
100
AcDbLine
 62
7
  6
CONTINUOUS
 10
97.124609375
 20
147.6015625004
 11
97.124609375
 21
159.6015624996
  0
LINE
  5
22B
100
AcDbEntity
  8
0
100
AcDbLine
 62
7
  6
CONTINUOUS
 10
104.674609375
 20
146.6398728286
 11
104.674609375
 21
159.6015624996
  0
LINE
  5
22C
100
AcDbEntity
  8
0
100
AcDbLine
 62
7
  6
CONTINUOUS
 10
97.124609375
 20
158.1015624996
 11
100.899609375
 21
158.1015624996
  0
LINE
  5
22D
100
AcDbEntity
  8
0
100
AcDbLine
 62
7
  6
CONTINUOUS
 10
104.674609375
 20
158.1015624996
 11
100.899609375
 21
158.1015624996
  0
LINE
  5
22E
100
AcDbEntity
  8
0
100
AcDbLine
 62
7
  6
CONTINUOUS
 10
100.899609375
 20
158.1015624996
 11
117.4365471673
 21
158.1015624996
  0
INSERT
  5
22F
100
AcDbEntity
  8
0
100
AcDbBlockReference
 62
7
  6
CONTINUOUS
  2
_FILLED
 10
97.124609375
 20
158.1015624996
 41
3.0
 42
3.0
 43
3.0
 50
180.0
  0
INSERT
  5
230
100
AcDbEntity
  8
0
100
AcDbBlockReference
 62
7
  6
CONTINUOUS
  2
_FILLED
 10
104.674609375
 20
158.1015624996
 41
3.0
 42
3.0
 43
3.0
  0
ENDBLK
  5
231
100
AcDbEntity
  8
0
  6
BYBLOCK
 62
0
100
AcDbBlockEnd
  0
BLOCK
  5
232
100
AcDbEntity
  8
0
100
AcDbBlockBegin
 62
7
  6
CONTINUOUS
  2
*D1
 70
65
 10
0.0
 20
0.0
  3
*D1
  1

  0
LINE
  5
233
100
AcDbEntity
  8
0
100
AcDbLine
 62
7
  6
CONTINUOUS
 10
97.124609375
 20
147.6015625004
 11
97.124609375
 21
167.6015624996
  0
LINE
  5
234
100
AcDbEntity
  8
0
100
AcDbLine
 62
7
  6
CONTINUOUS
 10
107.674609375
 20
129.6478792937
 11
107.674609375
 21
167.6015624996
  0
LINE
  5
235
100
AcDbEntity
  8
0
100
AcDbLine
 62
7
  6
CONTINUOUS
 10
97.124609375
 20
166.1015624996
 11
102.399609375
 21
166.1015624996
  0
LINE
  5
236
100
AcDbEntity
  8
0
100
AcDbLine
 62
7
  6
CONTINUOUS
 10
107.674609375
 20
166.1015624996
 11
102.399609375
 21
166.1015624996
  0
LINE
  5
237
100
AcDbEntity
  8
0
100
AcDbLine
 62
7
  6
CONTINUOUS
 10
102.399609375
 20
166.1015624996
 11
118.3797341552
 21
166.1015624996
  0
INSERT
  5
238
100
AcDbEntity
  8
0
100
AcDbBlockReference
 62
7
  6
CONTINUOUS
  2
_FILLED
 10
97.124609375
 20
166.1015624996
 41
3.0
 42
3.0
 43
3.0
 50
180.0
  0
INSERT
  5
239
100
AcDbEntity
  8
0
100
AcDbBlockReference
 62
7
  6
CONTINUOUS
  2
_FILLED
 10
107.674609375
 20
166.1015624996
 41
3.0
 42
3.0
 43
3.0
  0
ENDBLK
  5
23A
100
AcDbEntity
  8
0
  6
BYBLOCK
 62
0
100
AcDbBlockEnd
  0
BLOCK
  5
23B
100
AcDbEntity
  8
0
100
AcDbBlockBegin
 62
7
  6
CONTINUOUS
  2
*D2
 70
65
 10
0.0
 20
0.0
  3
*D2
  1

  0
LINE
  5
23C
100
AcDbEntity
  8
0
100
AcDbLine
 62
7
  6
CONTINUOUS
 10
136.7042968746
 20
147.6015625004
 11
136.7042968746
 21
159.6015624996
  0
LINE
  5
23D
100
AcDbEntity
  8
0
100
AcDbLine
 62
7
  6
CONTINUOUS
 10
226.7042968746
 20
147.6015625004
 11
226.7042968746
 21
159.6015624996
  0
LINE
  5
23E
100
AcDbEntity
  8
0
100
AcDbLine
 62
7
  6
CONTINUOUS
 10
136.7042968746
 20
158.1015624996
 11
181.7042968746
 21
158.1015624996
  0
LINE
  5
23F
100
AcDbEntity
  8
0
100
AcDbLine
 62
7
  6
CONTINUOUS
 10
226.7042968746
 20
158.1015624996
 11
181.7042968746
 21
158.1015624996
  0
INSERT
  5
240
100
AcDbEntity
  8
0
100
AcDbBlockReference
 62
7
  6
CONTINUOUS
  2
_FILLED
 10
136.7042968746
 20
158.1015624996
 41
3.0
 42
3.0
 43
3.0
 50
180.0
  0
INSERT
  5
241
100
AcDbEntity
  8
0
100
AcDbBlockReference
 62
7
  6
CONTINUOUS
  2
_FILLED
 10
226.7042968746
 20
158.1015624996
 41
3.0
 42
3.0
 43
3.0
  0
ENDBLK
  5
242
100
AcDbEntity
  8
0
  6
BYBLOCK
 62
0
100
AcDbBlockEnd
  0
BLOCK
  5
243
100
AcDbEntity
  8
0
100
AcDbBlockBegin
 62
7
  6
CONTINUOUS
  2
*D3
 70
65
 10
0.0
 20
0.0
  3
*D3
  1

  0
LINE
  5
244
100
AcDbEntity
  8
0
100
AcDbLine
 62
7
  6
CONTINUOUS
 10
226.2042968746
 20
148.1015625004
 11
238.3042968746
 21
148.1015625004
  0
LINE
  5
245
100
AcDbEntity
  8
0
100
AcDbLine
 62
7
  6
CONTINUOUS
 10
226.2042968746
 20
58.1015625004
 11
238.3042968746
 21
58.1015625004
  0
LINE
  5
246
100
AcDbEntity
  8
0
100
AcDbLine
 62
7
  6
CONTINUOUS
 10
236.8042968746
 20
148.1015625004
 11
236.8042968746
 21
103.1015625004
  0
LINE
  5
247
100
AcDbEntity
  8
0
100
AcDbLine
 62
7
  6
CONTINUOUS
 10
236.8042968746
 20
58.1015625004
 11
236.8042968746
 21
103.1015625004
  0
INSERT
  5
248
100
AcDbEntity
  8
0
100
AcDbBlockReference
 62
7
  6
CONTINUOUS
  2
_FILLED
 10
236.8042968746
 20
148.1015625004
 41
3.0
 42
3.0
 43
3.0
 50
90.0
  0
INSERT
  5
249
100
AcDbEntity
  8
0
100
AcDbBlockReference
 62
7
  6
CONTINUOUS
  2
_FILLED
 10
236.8042968746
 20
58.1015625004
 41
3.0
 42
3.0
 43
3.0
 50
270.0
  0
ENDBLK
  5
24A
100
AcDbEntity
  8
0
  6
BYBLOCK
 62
0
100
AcDbBlockEnd
  0
ENDSEC
  0
SECTION
  2
ENTITIES
  0
DIMENSION
  5
24B
100
AcDbEntity
  8
0
100
AcDbDimension
 62
7
  6
CONTINUOUS
  2
*D0
 10
104.674609375
 20
158.1015624996
 11
109.0794043102
 21
158.1015624996
 70
160
 71
1
 72
2
 41
0.9
 42
7.55
  3
DIMSTYLE_1
100
AcDbAlignedDimension
 13
97.124609375
 23
147.1015625004
 14
104.674609375
 24
146.1398728286
100
AcDbRotatedDimension
  0
DIMENSION
  5
24C
100
AcDbEntity
  8
0
100
AcDbDimension
 62
7
  6
CONTINUOUS
  2
*D1
 10
107.674609375
 20
166.1015624996
 11
108.3083055838
 21
166.1015624996
 70
160
 71
1
 72
2
 41
0.9
 42
10.55
  3
DIMSTYLE_1
100
AcDbAlignedDimension
 13
97.124609375
 23
147.1015625004
 14
107.674609375
 24
129.1478792937
100
AcDbRotatedDimension
  0
DIMENSION
  5
24D
100
AcDbEntity
  8
0
100
AcDbDimension
 62
7
  6
CONTINUOUS
  2
*D2
 10
226.7042968746
 20
158.1015624996
 11
179.3471540174
 21
158.1015624996
 70
160
 71
2
 72
2
 41
0.9
 42
90.0
  3
DIMSTYLE_1
100
AcDbAlignedDimension
 13
136.7042968746
 23
147.1015625004
 14
226.7042968746
 24
147.1015625004
100
AcDbRotatedDimension
  0
DIMENSION
  5
24E
100
AcDbEntity
  8
0
100
AcDbDimension
 62
7
  6
CONTINUOUS
  2
*D3
 10
236.8042968746
 20
58.1015625004
 11
236.8042968746
 21
100.7444196433
 70
160
 71
2
 72
2
 41
0.9
 42
90.0
  3
DIMSTYLE_1
100
AcDbAlignedDimension
 13
225.7042968746
 23
148.1015625004
 14
225.7042968746
 24
58.1015625004
 50
270.0
100
AcDbRotatedDimension
  0
LINE
  5
24F
100
AcDbEntity
  8
SMUSSO
100
AcDbLine
 62
7
  6
CONTINUOUS
 10
136.7042968746
 20
147.1015625004
 11
136.7042968746
 21
59.1015625004
  0
LINE
  5
250
100
AcDbEntity
  8
SMUSSO
100
AcDbLine
 62
7
  6
CONTINUOUS
 10
137.7042968746
 20
147.1015625004
 11
137.7042968746
 21
59.1015625004
  0
LINE
  5
251
100
AcDbEntity
  8
SMUSSO
100
AcDbLine
 62
250
  6
CONTINUOUS
 10
137.7042968746
 20
59.1015625004
 11
137.7042968746
 21
58.1015625004
  0
LINE
  5
252
100
AcDbEntity
  8
SMUSSO
100
AcDbLine
 62
250
  6
CONTINUOUS
 10
137.7042968746
 20
147.1015625004
 11
137.7042968746
 21
148.1015625004
  0
LINE
  5
253
100
AcDbEntity
  8
SMUSSO
100
AcDbLine
 62
7
  6
CONTINUOUS
 10
137.7042968746
 20
58.1015625004
 11
225.7042968746
 21
58.1015625004
  0
LINE
  5
254
100
AcDbEntity
  8
SMUSSO
100
AcDbLine
 62
250
  6
CONTINUOUS
 10
137.7042968746
 20
59.1015625004
 11
136.7042968746
 21
59.1015625004
  0
LINE
  5
255
100
AcDbEntity
  8
SMUSSO
100
AcDbLine
 62
7
  6
CONTINUOUS
 10
137.7042968746
 20
59.1015625004
 11
225.7042968746
 21
59.1015625004
  0
LINE
  5
256
100
AcDbEntity
  8
SMUSSO
100
AcDbLine
 62
250
  6
CONTINUOUS
 10
225.7042968746
 20
59.1015625004
 11
226.7042968746
 21
59.1015625004
  0
LWPOLYLINE
  5
257
100
AcDbEntity
  8
0
100
AcDbPolyline
 62
7
  6
CONTINUOUS
 90
10
 70
0
 43
0.3500000006
 10
179.7757278442
 20
158.8515708618
 10
180.6328657837
 20
159.7087088013
 10
180.8471502686
 20
160.5658467407
 10
180.8471502686
 20
161.4229846802
 10
180.4185812988
 20
161.8515536499
 10
179.7757278442
 20
161.8515536499
 10
179.3471588745
 20
161.4229846802
 10
179.3471588745
 20
160.5658467407
 10
179.7757278442
 20
160.137277771
 10
180.7042879028
 20
160.137277771
  0
LINE
  5
258
100
AcDbEntity
  8
RACCORDO
100
AcDbLine
 62
7
  6
CONTINUOUS
 10
147.8542968746
 20
124.5015625004
 11
147.8542968746
 21
81.7015625004
  0
LINE
  5
259
100
AcDbEntity
  8
RACCORDO
100
AcDbLine
 62
7
  6
CONTINUOUS
 10
149.0542968746
 20
80.5015625004
 11
214.3542968746
 21
80.5015625004
  0
LWPOLYLINE
  5
25A
100
AcDbEntity
  8
0
100
AcDbPolyline
 62
7
  6
CONTINUOUS
 90
13
 70
0
 43
0.3500000006
 10
181.704288208
 20
159.7087088013
 10
181.704288208
 20
160.9944157104
 10
181.9185908203
 20
161.4229846802
 10
182.34715979
 20
161.8515536499
 10
182.5614442749
 20
161.8515536499
 10
182.9900132446
 20
161.4229846802
 10
183.2042977295
 20
160.9944157104
 10
183.2042977295
 20
159.7087088013
 10
182.9900132446
 20
159.2801398315
 10
182.5614442749
 20
158.8515708618
 10
182.34715979
 20
158.8515708618
 10
181.9185908203
 20
159.2801398315
 10
181.704288208
 20
159.7087088013
  0
LWPOLYLINE
  5
25B
100
AcDbEntity
  8
0
100
AcDbPolyline
 62
7
  6
CONTINUOUS
 90
13
 70
0
 43
0.3500000006
 10
235.1971532593
 20
103.1015583801
 10
233.9114463501
 20
103.1015583801
 10
233.4828592529
 20
103.3158519287
 10
233.0542902832
 20
103.7444208984
 10
233.0542902832
 20
103.9587053833
 10
233.4828592529
 20
104.387274353
 10
233.9114463501
 20
104.6015588379
 10
235.1971532593
 20
104.6015588379
 10
235.625722229
 20
104.387274353
 10
236.0542911987
 20
103.9587053833
 10
236.0542911987
 20
103.7444208984
 10
235.625722229
 20
103.3158519287
 10
235.1971532593
 20
103.1015583801
  0
LINE
  5
25C
100
AcDbEntity
  8
RACCORDO
100
AcDbLine
 62
7
  6
CONTINUOUS
 10
214.3542968746
 20
125.7015625004
 11
149.0542968746
 21
125.7015625004
  0
LINE
  5
25D
100
AcDbEntity
  8
RACCORDO
100
AcDbLine
 62
7
  6
CONTINUOUS
 10
215.5542968746
 20
81.7015625004
 11
215.5542968746
 21
124.5015625004
  0
LWPOLYLINE
  5
25E
100
AcDbEntity
  8
0
100
AcDbPolyline
 62
7
  6
CONTINUOUS
 90
10
 70
0
 43
0.3500000006
 10
236.0542911987
 20
101.1729889526
 10
235.1971532593
 20
102.0301359558
 10
234.3400153198
 20
102.2444204407
 10
233.4828592529
 20
102.2444204407
 10
233.0542902832
 20
101.8158514709
 10
233.0542902832
 20
101.1729889526
 10
233.4828592529
 20
100.7444199829
 10
234.3400153198
 20
100.7444199829
 10
234.7685842896
 20
101.1729889526
 10
234.7685842896
 20
102.101558075
  0
LINE
  5
25F
100
AcDbEntity
  8
SMUSSO
100
AcDbLine
 62
250
  6
CONTINUOUS
 10
225.7042968746
 20
59.1015625004
 11
225.7042968746
 21
58.1015625004
  0
LINE
  5
260
100
AcDbEntity
  8
SMUSSO
100
AcDbLine
 62
7
  6
CONTINUOUS
 10
225.7042968746
 20
59.1015625004
 11
225.7042968746
 21
147.1015625004
  0
LINE
  5
261
100
AcDbEntity
  8
SMUSSO
100
AcDbLine
 62
250
  6
CONTINUOUS
 10
225.7042968746
 20
147.1015625004
 11
225.7042968746
 21
148.1015625004
  0
LINE
  5
262
100
AcDbEntity
  8
SMUSSO
100
AcDbLine
 62
7
  6
CONTINUOUS
 10
226.7042968746
 20
59.1015625004
 11
226.7042968746
 21
147.1015625004
  0
LINE
  5
263
100
AcDbEntity
  8
SMUSSO
100
AcDbLine
 62
7
  6
CONTINUOUS
 10
225.7042968746
 20
147.1015625004
 11
137.7042968746
 21
147.1015625004
  0
LINE
  5
264
100
AcDbEntity
  8
SMUSSO
100
AcDbLine
 62
250
  6
CONTINUOUS
 10
137.7042968746
 20
147.1015625004
 11
136.7042968746
 21
147.1015625004
  0
LINE
  5
265
100
AcDbEntity
  8
SMUSSO
100
AcDbLine
 62
250
  6
CONTINUOUS
 10
225.7042968746
 20
147.1015625004
 11
226.7042968746
 21
147.1015625004
  0
LINE
  5
266
100
AcDbEntity
  8
SMUSSO
100
AcDbLine
 62
7
  6
CONTINUOUS
 10
225.7042968746
 20
148.1015625004
 11
137.7042968746
 21
148.1015625004
  0
LINE
  5
267
100
AcDbEntity
  8
SMUSSO
100
AcDbLine
 62
7
  6
CONTINUOUS
 10
98.124609375
 20
58.1015625004
 11
99.624609375
 21
58.1015625004
  0
LWPOLYLINE
  5
268
100
AcDbEntity
  8
0
100
AcDbPolyline
 62
7
  6
CONTINUOUS
 90
3
 70
0
 43
0.3500000006
 10
108.3083082275
 20
168.9944181519
 10
109.165446167
 20
169.8515560913
 10
109.165446167
 20
166.8515551758
  0
LINE
  5
269
100
AcDbEntity
  8
0
100
AcDbLine
 62
250
  6
CONTINUOUS
 10
103.1756530203
 20
59.7611557937
 11
104.674609375
 21
60.0632521723
  0
LINE
  5
26A
100
AcDbEntity
  8
ASSI
100
AcDbLine
 62
250
  6
CONTINUOUS
 10
103.1756530203
 20
59.7611557937
 11
104.674609375
 21
60.0632521723
  0
LINE
  5
26B
100
AcDbEntity
  8
0
100
AcDbLine
 62
7
  6
CONTINUOUS
 10
100.274609375
 20
58.7509428122
 11
103.174609375
 21
58.8015625004
  0
LINE
  5
26C
100
AcDbEntity
  8
ASSI
100
AcDbLine
 62
7
  6
CONTINUOUS
 10
100.274609375
 20
58.7509428122
 11
103.174609375
 21
58.8015625004
  0
LINE
  5
26D
100
AcDbEntity
  8
SMUSSO
100
AcDbLine
 62
250
  6
CONTINUOUS
 10
97.124609375
 20
59.1015625004
 11
100.124609375
 21
59.1015625004
  0
LINE
  5
26E
100
AcDbEntity
  8
0
100
AcDbLine
 62
250
  6
CONTINUOUS
 10
100.274609375
 20
59.8015625004
 11
103.174609375
 21
59.8015625004
  0
LINE
  5
26F
100
AcDbEntity
  8
ASSI
100
AcDbLine
 62
250
  6
CONTINUOUS
 10
100.274609375
 20
59.8015625004
 11
103.174609375
 21
59.8015625004
  0
LINE
  5
270
100
AcDbEntity
  8
RACCORDO
100
AcDbLine
 62
7
  6
CONTINUOUS
 10
100.274609375
 20
62.1015625004
 11
100.124609375
 21
62.1015625004
  0
LINE
  5
271
100
AcDbEntity
  8
RACCORDO
100
AcDbLine
 62
250
  6
CONTINUOUS
 10
100.274609375
 20
64.1015625004
 11
100.124609375
 21
64.1015625004
  0
LINE
  5
272
100
AcDbEntity
  8
0
100
AcDbLine
 62
250
  6
CONTINUOUS
 10
102.693103375
 20
66.9404215004
 11
100.793143375
 21
66.9404215004
  0
LINE
  5
273
100
AcDbEntity
  8
SMUSSO
100
AcDbLine
 62
7
  6
CONTINUOUS
 10
97.124609375
 20
147.1015625004
 11
98.124609375
 21
148.1015625004
  0
LINE
  5
274
100
AcDbEntity
  8
0
100
AcDbLine
 62
250
  6
CONTINUOUS
 10
102.100980375
 20
66.0237435004
 11
100.793257375
 21
65.6615985004
  0
LINE
  5
275
100
AcDbEntity
  8
0
100
AcDbLine
 62
250
  6
CONTINUOUS
 10
102.693103375
 20
69.4772535004
 11
100.793257375
 21
69.2995965004
  0
LINE
  5
276
100
AcDbEntity
  8
0
100
AcDbLine
 62
250
  6
CONTINUOUS
 10
101.457711375
 20
69.0078235004
 11
102.693103375
 21
69.0893005004
  0
LINE
  5
277
100
AcDbEntity
  8
0
100
AcDbLine
 62
250
  6
CONTINUOUS
 10
100.793143375
 20
67.3369935004
 11
102.693103375
 21
67.3369935004
  0
LINE
  5
278
100
AcDbEntity
  8
0
100
AcDbLine
 62
250
  6
CONTINUOUS
 10
102.693103375
 20
67.9298715004
 11
101.452539375
 21
68.0154525004
  0
LINE
  5
279
100
AcDbEntity
  8
0
100
AcDbLine
 62
250
  6
CONTINUOUS
 10
100.793257375
 20
67.7220265004
 11
102.693103375
 21
67.5504815004
  0
LINE
  5
27A
100
AcDbEntity
  8
0
100
AcDbLine
 62
250
  6
CONTINUOUS
 10
100.793257375
 20
66.3969515004
 11
102.100980375
 21
66.0237435004
  0
LINE
  5
27B
100
AcDbEntity
  8
0
100
AcDbLine
 62
250
  6
CONTINUOUS
 10
102.693103375
 20
66.1825665004
 11
100.793257375
 21
66.7932525004
  0
LINE
  5
27C
100
AcDbEntity
  8
SMUSSO
100
AcDbLine
 62
7
  6
CONTINUOUS
 10
97.124609375
 20
59.1015625004
 11
98.124609375
 21
58.1015625004
  0
LINE
  5
27D
100
AcDbEntity
  8
0
100
AcDbLine
 62
250
  6
CONTINUOUS
 10
102.313826375
 20
70.5812905004
 11
102.693103375
 21
70.6840235004
  0
LINE
  5
27E
100
AcDbEntity
  8
0
100
AcDbLine
 62
250
  6
CONTINUOUS
 10
101.315286375
 20
70.3198055004
 11
102.020343375
 21
70.5020355004
  0
LWPOLYLINE
  5
27F
100
AcDbEntity
  8
0
100
AcDbPolyline
 62
250
  6
CONTINUOUS
 90
53
 70
0
 10
101.3433287284
 20
72.1349700398
 10
101.3364762144
 20
72.1347642349
 10
101.3296930516
 20
72.1343580631
 10
101.3229629359
 20
72.1337546174
 10
101.3162695633
 20
72.1329569908
 10
101.3095966298
 20
72.1319682764
 10
101.3029318122
 20
72.1307911863
 10
101.2962787109
 20
72.1294269098
 10
101.2896449069
 20
72.1278762551
 10
101.2830379814
 20
72.1261400306
 10
101.2764655157
 20
72.1242190446
 10
101.2710194071
 20
72.1224773931
 10
101.2656018017
 20
72.1206068091
 10
101.2602120075
 20
72.1186061054
 10
101.2548509797
 20
72.1164747871
 10
101.2495262611
 20
72.1142151288
 10
101.2442470413
 20
72.1118300977
 10
101.2379823521
 20
72.1088051713
 10
101.2317965557
 20
72.1055996591
 10
101.2256897931
 20
72.1022092399
 10
101.2196622056
 20
72.098629592
 10
101.2137139341
 20
72.094856394
 10
101.2078475271
 20
72.0908863633
 10
101.2020751612
 20
72.0867203721
 10
101.1964114207
 20
72.0823603315
 10
101.1908708894
 20
72.0778081525
 10
101.1854681513
 20
72.0730657463
 10
101.1802161779
 20
72.068136373
 10
101.1751214904
 20
72.0630286895
 10
101.1701889973
 20
72.0577527017
 10
101.1654236072
 20
72.0523184156
 10
101.1608302288
 20
72.0467358372
 10
101.1564124593
 20
72.0410134299
 10
101.15216865
 20
72.0351534868
 10
101.1480958411
 20
72.0291567585
 10
101.1441910725
 20
72.0230239956
 10
101.1404513844
 20
72.0167559486
 10
101.1374599816
 20
72.0114312589
 10
101.1345856672
 20
72.0060224775
 10
101.131832946
 20
72.0005389386
 10
101.1292053814
 20
71.9949882233
 10
101.1267027717
 20
71.9893708988
 10
101.1243239738
 20
71.9836857792
 10
101.1216319539
 20
71.9767742301
 10
101.1191188939
 20
71.9697718221
 10
101.1167871106
 20
71.9626870292
 10
101.1146389209
 20
71.9555283254
 10
101.1126766416
 20
71.9483041847
 10
101.1109025504
 20
71.9410186339
 10
101.1093187681
 20
71.9336579106
 10
101.1079273764
 20
71.9262038053
 10
101.1067304569
 20
71.9186381086
 10
101.1057300913
 20
71.9109426108
  0
LINE
  5
280
100
AcDbEntity
  8
0
100
AcDbLine
 62
250
  6
CONTINUOUS
 10
102.693103121
 20
71.2184471032
 11
100.8154539163
 21
71.2184471032
  0
LINE
  5
281
100
AcDbEntity
  8
0
100
AcDbLine
 62
250
  6
CONTINUOUS
 10
101.1169149518
 20
71.6002740036
 11
101.6384596392
 21
71.6002740036
  0
LINE
  5
282
100
AcDbEntity
  8
0
100
AcDbLine
 62
250
  6
CONTINUOUS
 10
101.9496084585
 20
71.6134237453
 11
102.693103121
 21
71.6134237453
  0
LINE
  5
283
100
AcDbEntity
  8
0
100
AcDbLine
 62
250
  6
CONTINUOUS
 10
101.7950455675
 20
72.2380151091
 11
101.8062719992
 21
72.2380151091
  0
LINE
  5
284
100
AcDbEntity
  8
0
100
AcDbLine
 62
250
  6
CONTINUOUS
 10
102.020343375
 20
70.1223455004
 11
101.315286375
 21
70.3198055004
  0
LINE
  5
285
100
AcDbEntity
  8
0
100
AcDbLine
 62
250
  6
CONTINUOUS
 10
102.693103375
 20
69.9317955004
 11
102.313826375
 21
70.0412245004
  0
LINE
  5
286
100
AcDbEntity
  8
0
100
AcDbLine
 62
250
  6
CONTINUOUS
 10
100.793257375
 20
70.1354385004
 11
102.693103375
 21
69.5395255004
  0
LINE
  5
287
100
AcDbEntity
  8
0
100
AcDbLine
 62
250
  6
CONTINUOUS
 10
100.793257375
 20
68.9072265004
 11
101.848057375
 21
68.5106545004
  0
LINE
  5
288
100
AcDbEntity
  8
0
100
AcDbLine
 62
250
  6
CONTINUOUS
 10
102.693103375
 20
68.5362985004
 11
101.457711375
 21
69.0078235004
  0
LWPOLYLINE
  5
289
100
AcDbEntity
  8
0
100
AcDbPolyline
 62
250
  6
CONTINUOUS
 90
3
 70
0
 10
102.4246854603
 20
72.1426367698
 10
102.3603387442
 20
72.1243714386
 10
102.2972110833
 20
72.1062278996
  0
LINE
  5
28A
100
AcDbEntity
  8
0
100
AcDbLine
 62
250
  6
CONTINUOUS
 10
102.1329641014
 20
72.4541407253
 11
102.2230396081
 21
72.4785557949
  0
LINE
  5
28B
100
AcDbEntity
  8
0
100
AcDbLine
 62
250
  6
CONTINUOUS
 10
102.6098475936
 20
72.5799945365
 11
102.693103121
 21
72.6021760509
  0
LINE
  5
28C
100
AcDbEntity
  8
0
100
AcDbLine
 62
250
  6
CONTINUOUS
 10
102.2230396081
 20
72.4785557949
 11
102.3540564611
 21
72.5133325567
  0
LINE
  5
28D
100
AcDbEntity
  8
0
100
AcDbLine
 62
250
  6
CONTINUOUS
 10
102.3540564611
 20
72.5133325567
 11
102.6098475936
 21
72.5799945365
  0
LINE
  5
28E
100
AcDbEntity
  8
0
100
AcDbLine
 62
7
  6
CONTINUOUS
 10
105.6004465354
 20
75.9514330617
 11
104.674609375
 21
75.9498171694
  0
LINE
  5
28F
100
AcDbEntity
  8
ASSI
100
AcDbLine
 62
7
  6
CONTINUOUS
 10
105.6004465354
 20
75.9514330617
 11
104.674609375
 21
75.9498171694
  0
LINE
  5
290
100
AcDbEntity
  8
0
100
AcDbLine
 62
250
  6
CONTINUOUS
 10
105.6003819587
 20
76.1738832565
 11
104.674609375
 21
76.173465062
  0
LINE
  5
291
100
AcDbEntity
  8
ASSI
100
AcDbLine
 62
250
  6
CONTINUOUS
 10
105.6003819587
 20
76.1738832565
 11
104.674609375
 21
76.173465062
  0
LINE
  5
292
100
AcDbEntity
  8
0
100
AcDbLine
 62
7
  6
CONTINUOUS
 10
107.1246586072
 20
76.7599986401
 11
104.674609375
 21
76.7457446706
  0
LINE
  5
293
100
AcDbEntity
  8
ASSI
100
AcDbLine
 62
7
  6
CONTINUOUS
 10
107.1246586072
 20
76.7599986401
 11
104.674609375
 21
76.7457446706
  0
LINE
  5
294
100
AcDbEntity
  8
0
100
AcDbLine
 62
250
  6
CONTINUOUS
 10
107.1246586072
 20
76.8478651187
 11
104.674609375
 21
76.8336111493
  0
LINE
  5
295
100
AcDbEntity
  8
ASSI
100
AcDbLine
 62
250
  6
CONTINUOUS
 10
107.1246586072
 20
76.8478651187
 11
104.674609375
 21
76.8336111493
  0
LINE
  5
296
100
AcDbEntity
  8
0
100
AcDbLine
 62
7
  6
CONTINUOUS
 10
105.6247337539
 20
77.9015625004
 11
104.674609375
 21
77.9015625004
  0
LINE
  5
297
100
AcDbEntity
  8
ASSI
100
AcDbLine
 62
7
  6
CONTINUOUS
 10
105.6247337539
 20
77.9015625004
 11
104.674609375
 21
77.9015625004
  0
LINE
  5
298
100
AcDbEntity
  8
0
100
AcDbLine
 62
7
  6
CONTINUOUS
 10
104.674609375
 20
78.0515625004
 11
104.824609375
 21
78.0515625004
  0
LINE
  5
299
100
AcDbEntity
  8
ASSI
100
AcDbLine
 62
7
  6
CONTINUOUS
 10
104.674609375
 20
78.0515625004
 11
104.824609375
 21
78.0515625004
  0
LINE
  5
29A
100
AcDbEntity
  8
0
100
AcDbLine
 62
7
  6
CONTINUOUS
 10
105.124609375
 20
78.0515625004
 11
105.324609375
 21
78.0515625004
  0
LINE
  5
29B
100
AcDbEntity
  8
ASSI
100
AcDbLine
 62
7
  6
CONTINUOUS
 10
105.124609375
 20
78.0515625004
 11
105.324609375
 21
78.0515625004
  0
LINE
  5
29C
100
AcDbEntity
  8
0
100
AcDbLine
 62
7
  6
CONTINUOUS
 10
104.674609375
 20
77.3457426259
 11
107.4850765662
 21
77.2215758328
  0
LINE
  5
29D
100
AcDbEntity
  8
ASSI
100
AcDbLine
 62
7
  6
CONTINUOUS
 10
104.674609375
 20
77.3457426259
 11
107.4850765662
 21
77.2215758328
  0
LINE
  5
29E
100
AcDbEntity
  8
0
100
AcDbLine
 62
7
  6
CONTINUOUS
 10
105.7242374729
 20
77.8965996907
 11
107.674609375
 21
77.7015625004
  0
LINE
  5
29F
100
AcDbEntity
  8
ASSI
100
AcDbLine
 62
7
  6
CONTINUOUS
 10
105.7242374729
 20
77.8965996907
 11
107.674609375
 21
77.7015625004
  0
LWPOLYLINE
  5
2A0
100
AcDbEntity
  8
0
100
AcDbPolyline
 62
250
  6
CONTINUOUS
 90
3
 70
0
 10
107.2096811
 20
129.4102941727
 10
107.1938238167
 20
129.4042607149
 10
107.1772396688
 20
129.3956685435
  0
LWPOLYLINE
  5
2A1
100
AcDbEntity
  8
ASSI
100
AcDbPolyline
 62
250
  6
CONTINUOUS
 90
3
 70
0
 10
107.2096811
 20
129.4102941727
 10
107.1938238167
 20
129.4042607149
 10
107.1772396688
 20
129.3956685435
  0
LWPOLYLINE
  5
2A2
100
AcDbEntity
  8
0
100
AcDbPolyline
 62
250
  6
CONTINUOUS
 90
3
 70
0
 10
107.209726595
 20
76.79281688
 10
107.1937838898
 20
76.7988822869
 10
107.1771409637
 20
76.8075140462
  0
LWPOLYLINE
  5
2A3
100
AcDbEntity
  8
ASSI
100
AcDbPolyline
 62
250
  6
CONTINUOUS
 90
3
 70
0
 10
107.209726595
 20
76.79281688
 10
107.1937838898
 20
76.7988822869
 10
107.1771409637
 20
76.8075140462
  0
LWPOLYLINE
  5
2A4
100
AcDbEntity
  8
0
100
AcDbPolyline
 62
250
  6
CONTINUOUS
 90
4
 70
0
 10
107.1772396688
 20
129.3956685435
 10
107.1600602901
 20
129.3845661245
 10
107.1424760128
 20
129.3710572899
 10
107.1246586072
 20
129.3552598822
  0
LWPOLYLINE
  5
2A5
100
AcDbEntity
  8
ASSI
100
AcDbPolyline
 62
250
  6
CONTINUOUS
 90
4
 70
0
 10
107.1772396688
 20
129.3956685435
 10
107.1600602901
 20
129.3845661245
 10
107.1424760128
 20
129.3710572899
 10
107.1246586072
 20
129.3552598822
  0
LWPOLYLINE
  5
2A6
100
AcDbEntity
  8
0
100
AcDbPolyline
 62
250
  6
CONTINUOUS
 90
4
 70
0
 10
107.1771409637
 20
76.8075140462
 10
107.1599581296
 20
76.8186312244
 10
107.14240653
 20
76.8321252372
 10
107.1246586072
 20
76.8478651187
  0
LWPOLYLINE
  5
2A7
100
AcDbEntity
  8
ASSI
100
AcDbPolyline
 62
250
  6
CONTINUOUS
 90
4
 70
0
 10
107.1771409637
 20
76.8075140462
 10
107.1599581296
 20
76.8186312244
 10
107.14240653
 20
76.8321252372
 10
107.1246586072
 20
76.8478651187
  0
LINE
  5
2A8
100
AcDbEntity
  8
0
100
AcDbLine
 62
7
  6
CONTINUOUS
 10
104.824609375
 20
128.1515625004
 11
104.974609375
 21
128.3015625004
  0
LINE
  5
2A9
100
AcDbEntity
  8
ASSI
100
AcDbLine
 62
7
  6
CONTINUOUS
 10
104.824609375
 20
128.1515625004
 11
104.974609375
 21
128.3015625004
  0
LINE
  5
2AA
100
AcDbEntity
  8
0
100
AcDbLine
 62
7
  6
CONTINUOUS
 10
105.324609375
 20
128.1515625004
 11
105.474609375
 21
128.3015625004
  0
LINE
  5
2AB
100
AcDbEntity
  8
ASSI
100
AcDbLine
 62
7
  6
CONTINUOUS
 10
105.324609375
 20
128.1515625004
 11
105.474609375
 21
128.3015625004
  0
LINE
  5
2AC
100
AcDbEntity
  8
0
100
AcDbLine
 62
7
  6
CONTINUOUS
 10
104.824609375
 20
78.0515625004
 11
104.974609375
 21
77.9015625004
  0
LINE
  5
2AD
100
AcDbEntity
  8
ASSI
100
AcDbLine
 62
7
  6
CONTINUOUS
 10
104.824609375
 20
78.0515625004
 11
104.974609375
 21
77.9015625004
  0
LINE
  5
2AE
100
AcDbEntity
  8
0
100
AcDbLine
 62
7
  6
CONTINUOUS
 10
105.324609375
 20
78.0515625004
 11
105.474609375
 21
77.9015625004
  0
LINE
  5
2AF
100
AcDbEntity
  8
ASSI
100
AcDbLine
 62
7
  6
CONTINUOUS
 10
105.324609375
 20
78.0515625004
 11
105.474609375
 21
77.9015625004
  0
LWPOLYLINE
  5
2B0
100
AcDbEntity
  8
0
100
AcDbPolyline
 62
250
  6
CONTINUOUS
 90
8
 70
0
 10
105.6985135663
 20
130.1812028267
 10
105.7068269537
 20
130.1913580761
 10
105.7145721709
 20
130.2000576145
 10
105.7216311121
 20
130.2071247008
 10
105.7278043754
 20
130.2123436206
 10
105.7330155662
 20
130.2156593886
 10
105.7372638054
 20
130.2170760644
 10
105.7405156087
 20
130.2165782965
  0
LWPOLYLINE
  5
2B1
100
AcDbEntity
  8
ASSI
100
AcDbPolyline
 62
250
  6
CONTINUOUS
 90
8
 70
0
 10
105.6985135663
 20
130.1812028267
 10
105.7068269537
 20
130.1913580761
 10
105.7145721709
 20
130.2000576145
 10
105.7216311121
 20
130.2071247008
 10
105.7278043754
 20
130.2123436206
 10
105.7330155662
 20
130.2156593886
 10
105.7372638054
 20
130.2170760644
 10
105.7405156087
 20
130.2165782965
  0
LWPOLYLINE
  5
2B2
100
AcDbEntity
  8
0
100
AcDbPolyline
 62
250
  6
CONTINUOUS
 90
9
 70
0
 10
105.6944696358
 20
76.0270566468
 10
105.7017397913
 20
76.0178448464
 10
105.7087974626
 20
76.0094274308
 10
105.7155593809
 20
76.0019762512
 10
105.7218972728
 20
75.9957100411
 10
105.7276827741
 20
75.9908363311
 10
105.7327940691
 20
75.9875543095
 10
105.7371133594
 20
75.9860598045
 10
105.7405156087
 20
75.9865467044
  0
LWPOLYLINE
  5
2B3
100
AcDbEntity
  8
ASSI
100
AcDbPolyline
 62
250
  6
CONTINUOUS
 90
9
 70
0
 10
105.6944696358
 20
76.0270566468
 10
105.7017397913
 20
76.0178448464
 10
105.7087974626
 20
76.0094274308
 10
105.7155593809
 20
76.0019762512
 10
105.7218972728
 20
75.9957100411
 10
105.7276827741
 20
75.9908363311
 10
105.7327940691
 20
75.9875543095
 10
105.7371133594
 20
75.9860598045
 10
105.7405156087
 20
75.9865467044
  0
LWPOLYLINE
  5
2B4
100
AcDbEntity
  8
0
100
AcDbPolyline
 62
7
  6
CONTINUOUS
 90
3
 70
0
 43
0.3500000006
 10
113.0940162048
 20
167.1372799072
 10
113.0225940857
 20
166.9229954224
 10
112.87973172
 20
166.6372706909
  0
LWPOLYLINE
  5
2B5
100
AcDbEntity
  8
0
100
AcDbPolyline
 62
250
  6
CONTINUOUS
 90
12
 70
0
 10
105.6003819587
 20
130.0292417444
 10
105.6083240157
 20
130.0430294786
 10
105.6166244674
 20
130.057210248
 10
105.6252498797
 20
130.0716905431
 10
105.6341685274
 20
130.0863834117
 10
105.6433191862
 20
130.1011417481
 10
105.6526127439
 20
130.115766026
 10
105.6619761308
 20
130.1300959068
 10
105.6713385064
 20
130.1439848214
 10
105.6806036089
 20
130.1572441616
 10
105.6897072725
 20
130.1697308779
 10
105.6985135663
 20
130.1812028267
  0
LWPOLYLINE
  5
2B6
100
AcDbEntity
  8
ASSI
100
AcDbPolyline
 62
250
  6
CONTINUOUS
 90
12
 70
0
 10
105.6003819587
 20
130.0292417444
 10
105.6083240157
 20
130.0430294786
 10
105.6166244674
 20
130.057210248
 10
105.6252498797
 20
130.0716905431
 10
105.6341685274
 20
130.0863834117
 10
105.6433191862
 20
130.1011417481
 10
105.6526127439
 20
130.115766026
 10
105.6619761308
 20
130.1300959068
 10
105.6713385064
 20
130.1439848214
 10
105.6806036089
 20
130.1572441616
 10
105.6897072725
 20
130.1697308779
 10
105.6985135663
 20
130.1812028267
  0
LWPOLYLINE
  5
2B7
100
AcDbEntity
  8
0
100
AcDbPolyline
 62
250
  6
CONTINUOUS
 90
14
 70
0
 10
105.6003819587
 20
76.1738832565
 10
105.6071438789
 20
76.1621093776
 10
105.6140124899
 20
76.1503130901
 10
105.6209708902
 20
76.1385331383
 10
105.6279625522
 20
76.126871034
 10
105.6350058779
 20
76.1153073723
 10
105.6421900778
 20
76.1037187257
 10
105.6495008789
 20
76.0921517744
 10
105.6568899055
 20
76.0807025852
 10
105.6643816109
 20
76.0693592149
 10
105.6719372279
 20
76.058211754
 10
105.6794956706
 20
76.0473838314
 10
105.6870311798
 20
76.0369502195
 10
105.6944696358
 20
76.0270566468
  0
LWPOLYLINE
  5
2B8
100
AcDbEntity
  8
ASSI
100
AcDbPolyline
 62
250
  6
CONTINUOUS
 90
14
 70
0
 10
105.6003819587
 20
76.1738832565
 10
105.6071438789
 20
76.1621093776
 10
105.6140124899
 20
76.1503130901
 10
105.6209708902
 20
76.1385331383
 10
105.6279625522
 20
76.126871034
 10
105.6350058779
 20
76.1153073723
 10
105.6421900778
 20
76.1037187257
 10
105.6495008789
 20
76.0921517744
 10
105.6568899055
 20
76.0807025852
 10
105.6643816109
 20
76.0693592149
 10
105.6719372279
 20
76.058211754
 10
105.6794956706
 20
76.0473838314
 10
105.6870311798
 20
76.0369502195
 10
105.6944696358
 20
76.0270566468
  0
LWPOLYLINE
  5
2B9
100
AcDbEntity
  8
0
100
AcDbPolyline
 62
7
  6
CONTINUOUS
 90
3
 70
0
 43
0.3500000006
 10
112.1508363647
 20
159.1372774658
 10
112.0794051819
 20
158.922992981
 10
111.9365428162
 20
158.6372682495
  0
LWPOLYLINE
  5
2BA
100
AcDbEntity
  8
0
100
AcDbPolyline
 62
7
  6
CONTINUOUS
 90
3
 70
0
 10
107.6619329042
 20
129.1052603815
 10
107.655021416
 20
129.0921778587
 10
107.64675046
 20
129.0781242179
  0
LWPOLYLINE
  5
2BB
100
AcDbEntity
  8
ASSI
100
AcDbPolyline
 62
7
  6
CONTINUOUS
 90
3
 70
0
 10
107.6619329042
 20
129.1052603815
 10
107.655021416
 20
129.0921778587
 10
107.64675046
 20
129.0781242179
  0
LWPOLYLINE
  5
2BC
100
AcDbEntity
  8
0
100
AcDbPolyline
 62
7
  6
CONTINUOUS
 90
7
 70
0
 10
107.64675046
 20
77.125000783
 10
107.6550207007
 20
77.1109482047
 10
107.6619319752
 20
77.0978663194
 10
107.6674077127
 20
77.085755127
 10
107.6713811951
 20
77.0746146275
 10
107.673796498
 20
77.0644448209
 10
107.674609375
 20
77.0552457072
  0
LWPOLYLINE
  5
2BD
100
AcDbEntity
  8
ASSI
100
AcDbPolyline
 62
7
  6
CONTINUOUS
 90
7
 70
0
 10
107.64675046
 20
77.125000783
 10
107.6550207007
 20
77.1109482047
 10
107.6619319752
 20
77.0978663194
 10
107.6674077127
 20
77.085755127
 10
107.6713811951
 20
77.0746146275
 10
107.673796498
 20
77.0644448209
 10
107.674609375
 20
77.0552457072
  0
LWPOLYLINE
  5
2BE
100
AcDbEntity
  8
0
100
AcDbPolyline
 62
250
  6
CONTINUOUS
 90
33
 70
0
 10
100.8154539163
 20
71.2184471032
 10
100.8050929567
 20
71.2905480393
 10
100.8002781766
 20
71.3256207406
 10
100.7957436197
 20
71.3600182757
 10
100.7915130918
 20
71.3937370018
 10
100.7875963509
 20
71.4268286682
 10
100.7839996434
 20
71.4593588721
 10
100.7807292154
 20
71.4913932111
 10
100.7777918664
 20
71.5229921531
 10
100.7751966085
 20
71.5541956485
 10
100.7729530071
 20
71.5850385185
 10
100.7710706277
 20
71.6155555841
 10
100.7695597359
 20
71.6457837351
 10
100.7684333989
 20
71.6757681352
 10
100.7677053839
 20
71.7055560168
 10
100.7673894584
 20
71.7351946124
 10
100.7675005173
 20
71.7647248346
 10
100.7680579649
 20
71.7941623173
 10
100.7690823331
 20
71.8235163744
 10
100.7705941538
 20
71.85279632
 10
100.7726144604
 20
71.8820091482
 10
100.7751662919
 20
71.911152573
 10
100.7782731886
 20
71.9402219883
 10
100.7819586912
 20
71.9692127883
 10
100.7862452057
 20
71.9981197112
 10
100.7911506009
 20
72.0269348725
 10
100.7966916112
 20
72.0556497323
 10
100.8028849709
 20
72.0842557503
 10
100.8083281137
 20
72.1070541106
 10
100.8142531462
 20
72.1297588793
 10
100.8207137441
 20
72.1523515891
 10
100.8277635836
 20
72.1748137727
 10
100.8354563404
 20
72.197126963
  0
LINE
  5
2BF
100
AcDbEntity
  8
SMUSSO
100
AcDbLine
 62
7
  6
CONTINUOUS
 10
97.124609375
 20
59.1015625004
 11
97.124609375
 21
147.1015625004
  0
LINE
  5
2C0
100
AcDbEntity
  8
SMUSSO
100
AcDbLine
 62
7
  6
CONTINUOUS
 10
98.124609375
 20
58.1015625004
 11
98.124609375
 21
148.1015625004
  0
LINE
  5
2C1
100
AcDbEntity
  8
SMUSSO
100
AcDbLine
 62
7
  6
CONTINUOUS
 10
99.624609375
 20
148.1015625004
 11
99.624609375
 21
58.1015625004
  0
LINE
  5
2C2
100
AcDbEntity
  8
0
100
AcDbLine
 62
7
  6
CONTINUOUS
 10
103.1824776119
 20
59.6203832523
 11
103.1756530203
 21
59.7611557937
  0
LINE
  5
2C3
100
AcDbEntity
  8
ASSI
100
AcDbLine
 62
7
  6
CONTINUOUS
 10
103.1824776119
 20
59.6203832523
 11
103.1756530203
 21
59.7611557937
  0
LWPOLYLINE
  5
2C4
100
AcDbEntity
  8
0
100
AcDbPolyline
 62
250
  6
CONTINUOUS
 90
56
 70
0
 10
101.6384596392
 20
71.8269111563
 10
101.6380922969
 20
71.8385123124
 10
101.6375147493
 20
71.8499003164
 10
101.6367292835
 20
71.8610720315
 10
101.6357381864
 20
71.8720243204
 10
101.6345437451
 20
71.8827540461
 10
101.6331482465
 20
71.8932580715
 10
101.6315539777
 20
71.9035332596
 10
101.6297632256
 20
71.9135764731
 10
101.6277767337
 20
71.9233866661
 10
101.6255890718
 20
71.9329711563
 10
101.6231932661
 20
71.9423393524
 10
101.6205823427
 20
71.9515006631
 10
101.6177493279
 20
71.9604644973
 10
101.6146872478
 20
71.9692402637
 10
101.6113891288
 20
71.9778373709
 10
101.6078479969
 20
71.9862652279
 10
101.6044898222
 20
71.9936201204
 10
101.6009241088
 20
72.000842995
 10
101.597140838
 20
72.0079281283
 10
101.5931299913
 20
72.014869797
 10
101.5888815503
 20
72.0216622775
 10
101.5843854963
 20
72.0282998467
 10
101.5796318109
 20
72.0347767811
 10
101.5746104755
 20
72.0410873574
 10
101.5693114716
 20
72.0472258523
 10
101.5642990527
 20
72.0525988178
 10
101.5590605328
 20
72.0578246706
 10
101.5536028374
 20
72.0629003196
 10
101.5479328919
 20
72.0678226741
 10
101.5420576219
 20
72.072588643
 10
101.5359848742
 20
72.0771950689
 10
101.5297261814
 20
72.0816385283
 10
101.5232939972
 20
72.0859155309
 10
101.5167007755
 20
72.0900225864
 10
101.5099589703
 20
72.0939562048
 10
101.5030779843
 20
72.0977140442
 10
101.4960550163
 20
72.101298357
 10
101.4888842138
 20
72.1047125438
 10
101.4815597247
 20
72.1079600053
 10
101.4740756965
 20
72.1110441422
 10
101.4664278534
 20
72.1139672374
 10
101.4586182259
 20
72.1167271026
 10
101.4506504207
 20
72.1193204315
 10
101.4425280446
 20
72.121743918
 10
101.4342547047
 20
72.1239942559
 10
101.4258332723
 20
72.1260668612
 10
101.4172636785
 20
72.1279520383
 10
101.4085451187
 20
72.1296388139
 10
101.3996767884
 20
72.1311162145
 10
101.3906578833
 20
72.1323732668
 10
101.3814875989
 20
72.1333989972
 10
101.3721651307
 20
72.1341824325
 10
101.3626896744
 20
72.1347125992
 10
101.3530604255
 20
72.134978524
 10
101.3432765796
 20
72.1349692333
  0
LINE
  5
2C5
100
AcDbEntity
  8
SMUSSO
100
AcDbLine
 62
7
  6
CONTINUOUS
 10
100.124609375
 20
147.6015625004
 11
100.124609375
 21
58.6015625004
  0
LINE
  5
2C6
100
AcDbEntity
  8
0
100
AcDbLine
 62
7
  6
CONTINUOUS
 10
100.274609375
 20
58.7509428122
 11
100.274609375
 21
147.4521821887
  0
LINE
  5
2C7
100
AcDbEntity
  8
ASSI
100
AcDbLine
 62
7
  6
CONTINUOUS
 10
100.274609375
 20
58.7509428122
 11
100.274609375
 21
147.4521821887
  0
LINE
  5
2C8
100
AcDbEntity
  8
0
100
AcDbLine
 62
250
  6
CONTINUOUS
 10
100.793143375
 20
66.9404215004
 11
100.793143375
 21
67.3369935004
  0
LINE
  5
2C9
100
AcDbEntity
  8
0
100
AcDbLine
 62
250
  6
CONTINUOUS
 10
100.793257375
 20
70.5190745004
 11
100.793257375
 21
70.1354385004
  0
LINE
  5
2CA
100
AcDbEntity
  8
0
100
AcDbLine
 62
250
  6
CONTINUOUS
 10
100.793257375
 20
69.2995965004
 11
100.793257375
 21
68.9072265004
  0
LINE
  5
2CB
100
AcDbEntity
  8
0
100
AcDbLine
 62
250
  6
CONTINUOUS
 10
100.793257375
 20
68.1182705004
 11
100.793257375
 21
67.7220265004
  0
LINE
  5
2CC
100
AcDbEntity
  8
0
100
AcDbLine
 62
250
  6
CONTINUOUS
 10
100.793257375
 20
66.7932525004
 11
100.793257375
 21
66.3969515004
  0
LINE
  5
2CD
100
AcDbEntity
  8
0
100
AcDbLine
 62
250
  6
CONTINUOUS
 10
100.793257375
 20
65.6615985004
 11
100.793257375
 21
65.2307985004
  0
LINE
  5
2CE
100
AcDbEntity
  8
0
100
AcDbLine
 62
250
  6
CONTINUOUS
 10
101.6384596392
 20
71.6002740036
 11
101.6384596392
 21
71.8269111563
  0
LINE
  5
2CF
100
AcDbEntity
  8
0
100
AcDbLine
 62
250
  6
CONTINUOUS
 10
101.9496084585
 20
71.8260563519
 11
101.9496084585
 21
71.6134237453
  0
LINE
  5
2D0
100
AcDbEntity
  8
0
100
AcDbLine
 62
250
  6
CONTINUOUS
 10
102.020343375
 20
70.5020355004
 11
102.020343375
 21
70.1223455004
  0
LINE
  5
2D1
100
AcDbEntity
  8
0
100
AcDbLine
 62
250
  6
CONTINUOUS
 10
102.313826375
 20
70.0412245004
 11
102.313826375
 21
70.5812905004
  0
LINE
  5
2D2
100
AcDbEntity
  8
0
100
AcDbLine
 62
250
  6
CONTINUOUS
 10
102.693103121
 20
72.6021760509
 11
102.693103121
 21
72.2207195658
  0
LINE
  5
2D3
100
AcDbEntity
  8
0
100
AcDbLine
 62
250
  6
CONTINUOUS
 10
102.693103121
 20
71.6134237453
 11
102.693103121
 21
71.2184471032
  0
LINE
  5
2D4
100
AcDbEntity
  8
0
100
AcDbLine
 62
250
  6
CONTINUOUS
 10
102.693103375
 20
67.3369935004
 11
102.693103375
 21
66.9404215004
  0
LINE
  5
2D5
100
AcDbEntity
  8
0
100
AcDbLine
 62
250
  6
CONTINUOUS
 10
102.693103375
 20
65.8330865004
 11
102.693103375
 21
66.1825665004
  0
LINE
  5
2D6
100
AcDbEntity
  8
0
100
AcDbLine
 62
250
  6
CONTINUOUS
 10
102.693103375
 20
67.5504815004
 11
102.693103375
 21
67.9298715004
  0
LINE
  5
2D7
100
AcDbEntity
  8
0
100
AcDbLine
 62
250
  6
CONTINUOUS
 10
102.693103375
 20
68.4806795004
 11
102.693103375
 21
68.5362985004
  0
LINE
  5
2D8
100
AcDbEntity
  8
0
100
AcDbLine
 62
250
  6
CONTINUOUS
 10
102.693103375
 20
69.0893005004
 11
102.693103375
 21
69.4772535004
  0
LINE
  5
2D9
100
AcDbEntity
  8
0
100
AcDbLine
 62
250
  6
CONTINUOUS
 10
102.693103375
 20
69.5395255004
 11
102.693103375
 21
69.9317955004
  0
LINE
  5
2DA
100
AcDbEntity
  8
0
100
AcDbLine
 62
250
  6
CONTINUOUS
 10
102.693103375
 20
70.6840235004
 11
102.693103375
 21
71.1019945004
  0
LWPOLYLINE
  5
2DB
100
AcDbEntity
  8
0
100
AcDbPolyline
 62
7
  6
CONTINUOUS
 90
17
 70
0
 10
103.1903784156
 20
146.7868397233
 10
103.1923280571
 20
146.8513532227
 10
103.1938917561
 20
146.9132662082
 10
103.1950817052
 20
146.9724800339
 10
103.1958772945
 20
147.0290117252
 10
103.1962716541
 20
147.0827417254
 10
103.196271654
 20
147.1331626723
 10
103.1958772942
 20
147.1797431867
 10
103.1950817045
 20
147.2221346461
 10
103.1938917551
 20
147.2603327377
 10
103.1923280559
 20
147.2943502013
 10
103.1903784146
 20
147.3240651104
 10
103.1880550235
 20
147.3491874082
 10
103.1854150698
 20
147.3694910669
 10
103.1824776159
 20
147.3848729248
 10
103.1792235994
 20
147.395297504
 10
103.1756530203
 20
147.4007275842
  0
LWPOLYLINE
  5
2DC
100
AcDbEntity
  8
ASSI
100
AcDbPolyline
 62
7
  6
CONTINUOUS
 90
17
 70
0
 10
103.1903784156
 20
146.7868397233
 10
103.1923280571
 20
146.8513532227
 10
103.1938917561
 20
146.9132662082
 10
103.1950817052
 20
146.9724800339
 10
103.1958772945
 20
147.0290117252
 10
103.1962716541
 20
147.0827417254
 10
103.196271654
 20
147.1331626723
 10
103.1958772942
 20
147.1797431867
 10
103.1950817045
 20
147.2221346461
 10
103.1938917551
 20
147.2603327377
 10
103.1923280559
 20
147.2943502013
 10
103.1903784146
 20
147.3240651104
 10
103.1880550235
 20
147.3491874082
 10
103.1854150698
 20
147.3694910669
 10
103.1824776159
 20
147.3848729248
 10
103.1792235994
 20
147.395297504
 10
103.1756530203
 20
147.4007275842
  0
LINE
  5
2DD
100
AcDbEntity
  8
0
100
AcDbLine
 62
7
  6
CONTINUOUS
 10
103.1854150702
 20
146.6520362588
 11
103.1903784156
 21
146.7868397233
  0
LINE
  5
2DE
100
AcDbEntity
  8
ASSI
100
AcDbLine
 62
7
  6
CONTINUOUS
 10
103.1854150702
 20
146.6520362588
 11
103.1903784156
 21
146.7868397233
  0
LWPOLYLINE
  5
2DF
100
AcDbEntity
  8
0
100
AcDbPolyline
 62
7
  6
CONTINUOUS
 90
3
 70
0
 10
103.1756530203
 20
146.4419692072
 10
103.1792235995
 20
146.5126015313
 10
103.1854150702
 20
146.6520362588
  0
LWPOLYLINE
  5
2E0
100
AcDbEntity
  8
ASSI
100
AcDbPolyline
 62
7
  6
CONTINUOUS
 90
3
 70
0
 10
103.1756530203
 20
146.4419692072
 10
103.1792235995
 20
146.5126015313
 10
103.1854150702
 20
146.6520362588
  0
LINE
  5
2E1
100
AcDbEntity
  8
0
100
AcDbLine
 62
7
  6
CONTINUOUS
 10
103.174609375
 20
146.4015625004
 11
103.174609375
 21
59.8015625004
  0
LINE
  5
2E2
100
AcDbEntity
  8
ASSI
100
AcDbLine
 62
7
  6
CONTINUOUS
 10
103.174609375
 20
146.4015625004
 11
103.174609375
 21
59.8015625004
  0
LINE
  5
2E3
100
AcDbEntity
  8
0
100
AcDbLine
 62
7
  6
CONTINUOUS
 10
104.674609375
 20
146.2015625004
 11
104.674609375
 21
60.0015625004
  0
LINE
  5
2E4
100
AcDbEntity
  8
ASSI
100
AcDbLine
 62
7
  6
CONTINUOUS
 10
104.674609375
 20
146.2015625004
 11
104.674609375
 21
60.0015625004
  0
LINE
  5
2E5
100
AcDbEntity
  8
0
100
AcDbLine
 62
250
  6
CONTINUOUS
 10
105.6004466972
 20
75.9517848447
 11
105.6003819587
 21
76.1738832565
  0
LINE
  5
2E6
100
AcDbEntity
  8
ASSI
100
AcDbLine
 62
250
  6
CONTINUOUS
 10
105.6004466972
 20
75.9517848447
 11
105.6003819587
 21
76.1738832565
  0
LINE
  5
2E7
100
AcDbEntity
  8
0
100
AcDbLine
 62
250
  6
CONTINUOUS
 10
105.6003819587
 20
130.0292417444
 11
105.6004465747
 21
130.2513383852
  0
LINE
  5
2E8
100
AcDbEntity
  8
ASSI
100
AcDbLine
 62
250
  6
CONTINUOUS
 10
105.6003819587
 20
130.0292417444
 11
105.6004465747
 21
130.2513383852
  0
LWPOLYLINE
  5
2E9
100
AcDbEntity
  8
0
100
AcDbPolyline
 62
7
  6
CONTINUOUS
 90
5
 70
0
 10
107.674609375
 20
129.1478792937
 10
107.6737966473
 20
129.1386812425
 10
107.6713816696
 20
129.1285120734
 10
107.667408506
 20
129.1173717864
 10
107.6619329042
 20
129.1052603815
  0
LWPOLYLINE
  5
2EA
100
AcDbEntity
  8
ASSI
100
AcDbPolyline
 62
7
  6
CONTINUOUS
 90
5
 70
0
 10
107.674609375
 20
129.1478792937
 10
107.6737966473
 20
129.1386812425
 10
107.6713816696
 20
129.1285120734
 10
107.667408506
 20
129.1173717864
 10
107.6619329042
 20
129.1052603815
  0
LWPOLYLINE
  5
2EB
100
AcDbEntity
  8
0
100
AcDbPolyline
 62
250
  6
CONTINUOUS
 90
24
 70
0
 10
101.1057300915
 20
71.9109426108
 10
101.1041418435
 20
71.8963272736
 10
101.1027674503
 20
71.8816964674
 10
101.101606424
 20
71.867051619
 10
101.1006582771
 20
71.8523941552
 10
101.0999225218
 20
71.8377255028
 10
101.0993986704
 20
71.8230470886
 10
101.0990862352
 20
71.8083603394
 10
101.0989859588
 20
71.7955031523
 10
101.0990472103
 20
71.7826382363
 10
101.0992700256
 20
71.7697631516
 10
101.0996544405
 20
71.7568754583
 10
101.1002011025
 20
71.7439722215
 10
101.1009131062
 20
71.7310485252
 10
101.1017941576
 20
71.7180989584
 10
101.1028479631
 20
71.7051181099
 10
101.104076372
 20
71.6921023905
 10
101.1054738067
 20
71.6790554978
 10
101.1070328327
 20
71.6659829515
 10
101.1087460155
 20
71.6528902711
 10
101.1106047228
 20
71.6397805605
 10
101.1125955298
 20
71.6266472616
 10
101.1147038137
 20
71.6134814005
 10
101.1169149518
 20
71.6002740036
  0
LWPOLYLINE
  5
2EC
100
AcDbEntity
  8
0
100
AcDbPolyline
 62
250
  6
CONTINUOUS
 90
3
 70
0
 10
107.1247576277
 20
129.4385677863
 10
107.1247149736
 20
129.4419843698
 10
107.1246586072
 20
129.4431263608
  0
LWPOLYLINE
  5
2ED
100
AcDbEntity
  8
ASSI
100
AcDbPolyline
 62
250
  6
CONTINUOUS
 90
3
 70
0
 10
107.1247576277
 20
129.4385677863
 10
107.1247149736
 20
129.4419843698
 10
107.1246586072
 20
129.4431263608
  0
LINE
  5
2EE
100
AcDbEntity
  8
0
100
AcDbLine
 62
250
  6
CONTINUOUS
 10
107.1248006062
 20
129.4250315475
 11
107.1247576277
 21
129.4385677863
  0
LINE
  5
2EF
100
AcDbEntity
  8
ASSI
100
AcDbLine
 62
250
  6
CONTINUOUS
 10
107.1248006062
 20
129.4250315475
 11
107.1247576277
 21
129.4385677863
  0
LINE
  5
2F0
100
AcDbEntity
  8
0
100
AcDbLine
 62
250
  6
CONTINUOUS
 10
107.1248006062
 20
76.7780934533
 11
107.1246586072
 21
76.8478651187
  0
LINE
  5
2F1
100
AcDbEntity
  8
ASSI
100
AcDbLine
 62
250
  6
CONTINUOUS
 10
107.1248006062
 20
76.7780934533
 11
107.1246586072
 21
76.8478651187
  0
LINE
  5
2F2
100
AcDbEntity
  8
0
100
AcDbLine
 62
250
  6
CONTINUOUS
 10
107.4850765662
 20
128.9815491681
 11
107.4850765662
 21
128.4826092196
  0
LINE
  5
2F3
100
AcDbEntity
  8
ASSI
100
AcDbLine
 62
250
  6
CONTINUOUS
 10
107.4850765662
 20
128.9815491681
 11
107.4850765662
 21
128.4826092196
  0
LINE
  5
2F4
100
AcDbEntity
  8
0
100
AcDbLine
 62
250
  6
CONTINUOUS
 10
107.4850765662
 20
77.7205157813
 11
107.4850765662
 21
77.2215758328
  0
LINE
  5
2F5
100
AcDbEntity
  8
ASSI
100
AcDbLine
 62
250
  6
CONTINUOUS
 10
107.4850765662
 20
77.7205157813
 11
107.4850765662
 21
77.2215758328
  0
LINE
  5
2F6
100
AcDbEntity
  8
0
100
AcDbLine
 62
7
  6
CONTINUOUS
 10
107.674609375
 20
129.1899268408
 11
107.674609375
 21
128.5015625004
  0
LINE
  5
2F7
100
AcDbEntity
  8
ASSI
100
AcDbLine
 62
7
  6
CONTINUOUS
 10
107.674609375
 20
129.1899268408
 11
107.674609375
 21
128.5015625004
  0
LINE
  5
2F8
100
AcDbEntity
  8
0
100
AcDbLine
 62
7
  6
CONTINUOUS
 10
107.674609375
 20
77.7015625004
 11
107.674609375
 21
77.0141239894
  0
LINE
  5
2F9
100
AcDbEntity
  8
ASSI
100
AcDbLine
 62
7
  6
CONTINUOUS
 10
107.674609375
 20
77.7015625004
 11
107.674609375
 21
77.0141239894
  0
LINE
  5
2FA
100
AcDbEntity
  8
0
100
AcDbLine
 62
250
  6
CONTINUOUS
 10
107.1246586072
 20
129.3552598822
 11
107.1248006062
 21
129.4250315475
  0
LINE
  5
2FB
100
AcDbEntity
  8
ASSI
100
AcDbLine
 62
250
  6
CONTINUOUS
 10
107.1246586072
 20
129.3552598822
 11
107.1248006062
 21
129.4250315475
  0
LWPOLYLINE
  5
2FC
100
AcDbEntity
  8
0
100
AcDbPolyline
 62
250
  6
CONTINUOUS
 90
4
 70
0
 10
107.1246586072
 20
76.7599986401
 10
107.1247149736
 20
76.7611406311
 10
107.1247576277
 20
76.7645572146
 10
107.1248006062
 20
76.7780934533
  0
LWPOLYLINE
  5
2FD
100
AcDbEntity
  8
ASSI
100
AcDbPolyline
 62
250
  6
CONTINUOUS
 90
4
 70
0
 10
107.1246586072
 20
76.7599986401
 10
107.1247149736
 20
76.7611406311
 10
107.1247576277
 20
76.7645572146
 10
107.1248006062
 20
76.7780934533
  0
LWPOLYLINE
  5
2FE
100
AcDbEntity
  8
0
100
AcDbPolyline
 62
7
  6
CONTINUOUS
 90
4
 70
0
 43
0.3500000006
 10
109.0794042664
 20
161.2087001953
 10
109.0794042664
 20
161.8515536499
 10
110.5794047241
 20
161.8515536499
 10
109.7222577209
 20
158.8515708618
  0
LWPOLYLINE
  5
2FF
100
AcDbEntity
  8
0
100
AcDbPolyline
 62
7
  6
CONTINUOUS
 90
13
 70
0
 43
0.3500000006
 10
110.0225931702
 20
167.7087112427
 10
110.0225931702
 20
168.9944181519
 10
110.236877655
 20
169.4229871216
 10
110.6654466248
 20
169.8515560913
 10
110.8797311096
 20
169.8515560913
 10
111.3083091431
 20
169.4229871216
 10
111.5225936279
 20
168.9944181519
 10
111.5225936279
 20
167.7087112427
 10
111.3083091431
 20
167.2801422729
 10
110.8797311096
 20
166.8515551758
 10
110.6654466248
 20
166.8515551758
 10
110.236877655
 20
167.2801422729
 10
110.0225931702
 20
167.7087112427
  0
LWPOLYLINE
  5
300
100
AcDbEntity
  8
0
100
AcDbPolyline
 62
250
  6
CONTINUOUS
 90
81
 70
0
 10
100.8354563404
 20
72.197126963
 10
100.84088413
 20
72.2110913637
 10
100.8470359191
 20
72.224945941
 10
100.853903779
 20
72.2387375183
 10
100.8614823078
 20
72.2525114192
 10
100.8697762092
 20
72.266306967
 10
100.8787927138
 20
72.2801619853
 10
100.8885306123
 20
72.2940882219
 10
100.8989549373
 20
72.3079931221
 10
100.9100222819
 20
72.3217580553
 10
100.9216924036
 20
72.3352754972
 10
100.933937717
 20
72.3484823483
 10
100.9467338015
 20
72.3613266154
 10
100.9600557682
 20
72.3737597348
 10
100.9738768566
 20
72.3857468613
 10
100.9881698382
 20
72.3972565794
 10
101.0029060787
 20
72.4082591689
 10
101.0180513204
 20
72.4187316915
 10
101.0335698999
 20
72.428652904
 10
101.0494226536
 20
72.438000259
 10
101.0655564176
 20
72.4467459908
 10
101.0819145277
 20
72.4548610293
 10
101.0984302341
 20
72.462319757
 10
101.1149964426
 20
72.469110367
 10
101.1314959733
 20
72.4752245051
 10
101.1478353591
 20
72.4806632283
 10
101.1640159842
 20
72.4854652398
 10
101.1800629454
 20
72.4896786539
 10
101.1959878982
 20
72.4933486764
 10
101.2117487324
 20
72.4965088784
 10
101.227289896
 20
72.4991899221
 10
101.2455878851
 20
72.5018167271
 10
101.2634942089
 20
72.5038438956
 10
101.2810135219
 20
72.5053176252
 10
101.298150479
 20
72.5062841134
 10
101.3149097348
 20
72.5067895578
 10
101.3312966527
 20
72.5068748931
 10
101.347319431
 20
72.5065600031
 10
101.3629869769
 20
72.5058595088
 10
101.3783081973
 20
72.5047880311
 10
101.3932919995
 20
72.5033601908
 10
101.4115564696
 20
72.501097645
 10
101.4292988939
 20
72.4983363751
 10
101.4465105253
 20
72.4951116283
 10
101.4631826167
 20
72.4914586518
 10
101.4793099051
 20
72.4874119168
 10
101.4949010637
 20
72.4830027914
 10
101.5099682497
 20
72.4782618676
 10
101.5245236204
 20
72.4732197376
 10
101.5385788184
 20
72.4679059372
 10
101.5521434285
 20
72.4623457781
 10
101.5652265208
 20
72.4565635155
 10
101.5778371656
 20
72.4505834048
 10
101.5899843358
 20
72.4444285503
 10
101.6016766158
 20
72.4381174531
 10
101.6129224924
 20
72.4316674632
 10
101.6237304527
 20
72.4250959307
 10
101.6374750872
 20
72.4161716136
 10
101.6504797388
 20
72.4070840211
 10
101.6627678547
 20
72.3978551088
 10
101.6743656326
 20
72.3885118448
 10
101.6853102727
 20
72.3791012473
 10
101.6956417261
 20
72.3696753466
 10
101.7054018359
 20
72.3602826941
 10
101.7146400146
 20
72.3509579254
 10
101.7234075672
 20
72.3417321968
 10
101.7297049038
 20
72.3348949462
 10
101.7357859621
 20
72.3281339242
 10
101.7416670299
 20
72.3214547001
 10
101.7473511861
 20
72.3148731478
 10
101.7528442113
 20
72.3084034963
 10
101.7581759025
 20
72.3020430931
 10
101.7684530457
 20
72.2895224998
 10
101.7733828523
 20
72.2832279432
 10
101.7780436964
 20
72.2768916543
 10
101.7823009237
 20
72.2705294553
 10
101.7860687384
 20
72.2641416671
 10
101.7892778123
 20
72.2577195622
 10
101.7918758299
 20
72.2512337205
 10
101.7938146189
 20
72.2446598809
 10
101.7950455675
 20
72.2380151091
  0
LWPOLYLINE
  5
301
100
AcDbEntity
  8
0
100
AcDbPolyline
 62
250
  6
CONTINUOUS
 90
41
 70
0
 10
101.8062719992
 20
72.2380151091
 10
101.8094096019
 20
72.2454731042
 10
101.8128088243
 20
72.252774849
 10
101.8164668443
 20
72.2599265442
 10
101.8203808395
 20
72.2669343903
 10
101.8245479879
 20
72.2738045879
 10
101.8289654672
 20
72.2805433377
 10
101.8336280165
 20
72.2871544557
 10
101.8385206196
 20
72.2936322197
 10
101.8436258215
 20
72.2999685228
 10
101.8489261675
 20
72.3061552581
 10
101.8544042025
 20
72.3121843189
 10
101.8600424716
 20
72.3180475982
 10
101.8669983377
 20
72.3248574984
 10
101.8741477074
 20
72.3314282557
 10
101.881478482
 20
72.3377711264
 10
101.8889785631
 20
72.3438973667
 10
101.8966358521
 20
72.3498182328
 10
101.9044372502
 20
72.355543489
 10
101.9123656577
 20
72.3610769312
 10
101.9204029746
 20
72.3664208635
 10
101.9285311009
 20
72.3715775899
 10
101.9367319365
 20
72.3765494144
 10
101.9470659617
 20
72.3825112912
 10
101.9574998073
 20
72.3882139857
 10
101.9680479663
 20
72.3936836247
 10
101.9787249318
 20
72.3989463352
 10
101.9895447375
 20
72.4040258676
 10
102.0005195796
 20
72.4089364663
 10
102.0116611945
 20
72.4136899992
 10
102.0229813187
 20
72.4182983344
 10
102.0344927736
 20
72.4227724783
 10
102.0462127183
 20
72.4271199907
 10
102.0581593969
 20
72.4313475699
 10
102.0703510533
 20
72.4354619142
 10
102.0802935368
 20
72.4386777212
 10
102.0904169104
 20
72.4418369306
 10
102.1007336024
 20
72.4449511284
 10
102.111256041
 20
72.4480319005
 10
102.1219966544
 20
72.4510908329
 10
102.1329641014
 20
72.4541407253
  0
LINE
  5
302
100
AcDbEntity
  8
0
100
AcDbLine
 62
7
  6
CONTINUOUS
 10
104.974609375
 20
77.9015625004
 11
105.124609375
 21
78.0515625004
  0
LINE
  5
303
100
AcDbEntity
  8
ASSI
100
AcDbLine
 62
7
  6
CONTINUOUS
 10
104.974609375
 20
77.9015625004
 11
105.124609375
 21
78.0515625004
  0
LINE
  5
304
100
AcDbEntity
  8
0
100
AcDbLine
 62
7
  6
CONTINUOUS
 10
104.974609375
 20
128.3015625004
 11
105.124609375
 21
128.1515625004
  0
LINE
  5
305
100
AcDbEntity
  8
ASSI
100
AcDbLine
 62
7
  6
CONTINUOUS
 10
104.974609375
 20
128.3015625004
 11
105.124609375
 21
128.1515625004
  0
LWPOLYLINE
  5
306
100
AcDbEntity
  8
0
100
AcDbPolyline
 62
7
  6
CONTINUOUS
 90
19
 70
0
 10
103.1756530203
 20
58.8023974167
 10
103.1792235976
 20
58.8078274943
 10
103.1824776121
 20
58.8182520628
 10
103.1854150638
 20
58.8336338961
 10
103.1880550144
 20
58.8539375007
 10
103.1903784022
 20
58.8790597155
 10
103.1923280423
 20
58.9087745529
 10
103.1938917442
 20
58.9427919909
 10
103.1950816984
 20
58.9809901007
 10
103.1958772915
 20
59.0233816199
 10
103.1962716525
 20
59.0699622598
 10
103.1962716525
 20
59.1203833899
 10
103.1958772914
 20
59.1741135607
 10
103.1950816981
 20
59.2306453833
 10
103.1938917438
 20
59.2898593089
 10
103.1923280418
 20
59.3517723293
 10
103.1903784017
 20
59.4162857474
 10
103.188055014
 20
59.4829129763
 10
103.1824776119
 20
59.6203832523
  0
LWPOLYLINE
  5
307
100
AcDbEntity
  8
ASSI
100
AcDbPolyline
 62
7
  6
CONTINUOUS
 90
19
 70
0
 10
103.1756530203
 20
58.8023974167
 10
103.1792235976
 20
58.8078274943
 10
103.1824776121
 20
58.8182520628
 10
103.1854150638
 20
58.8336338961
 10
103.1880550144
 20
58.8539375007
 10
103.1903784022
 20
58.8790597155
 10
103.1923280423
 20
58.9087745529
 10
103.1938917442
 20
58.9427919909
 10
103.1950816984
 20
58.9809901007
 10
103.1958772915
 20
59.0233816199
 10
103.1962716525
 20
59.0699622598
 10
103.1962716525
 20
59.1203833899
 10
103.1958772914
 20
59.1741135607
 10
103.1950816981
 20
59.2306453833
 10
103.1938917438
 20
59.2898593089
 10
103.1923280418
 20
59.3517723293
 10
103.1903784017
 20
59.4162857474
 10
103.188055014
 20
59.4829129763
 10
103.1824776119
 20
59.6203832523
  0
LINE
  5
308
100
AcDbEntity
  8
0
100
AcDbLine
 62
250
  6
CONTINUOUS
 10
105.6003819587
 20
76.1738832565
 11
106.6999008186
 21
76.7575274716
  0
LINE
  5
309
100
AcDbEntity
  8
ASSI
100
AcDbLine
 62
250
  6
CONTINUOUS
 10
105.6003819587
 20
76.1738832565
 11
106.6999008186
 21
76.7575274716
  0
LINE
  5
30A
100
AcDbEntity
  8
0
100
AcDbLine
 62
250
  6
CONTINUOUS
 10
107.1246586072
 20
76.8478651187
 11
107.64675046
 21
77.125000783
  0
LINE
  5
30B
100
AcDbEntity
  8
ASSI
100
AcDbLine
 62
250
  6
CONTINUOUS
 10
107.1246586072
 20
76.8478651187
 11
107.64675046
 21
77.125000783
  0
LINE
  5
30C
100
AcDbEntity
  8
0
100
AcDbLine
 62
7
  6
CONTINUOUS
 10
105.7396213367
 20
75.9860720089
 11
107.674609375
 21
77.0131981601
  0
LINE
  5
30D
100
AcDbEntity
  8
ASSI
100
AcDbLine
 62
7
  6
CONTINUOUS
 10
105.7396213367
 20
75.9860720089
 11
107.674609375
 21
77.0131981601
  0
LWPOLYLINE
  5
30E
100
AcDbEntity
  8
0
100
AcDbPolyline
 62
250
  6
CONTINUOUS
 90
5
 70
0
 10
107.2635705363
 20
76.7950114157
 10
107.2518768949
 20
76.7904750205
 10
107.2389173057
 20
76.7885903947
 10
107.2248199786
 20
76.7893743923
 10
107.209726595
 20
76.79281688
  0
LWPOLYLINE
  5
30F
100
AcDbEntity
  8
ASSI
100
AcDbPolyline
 62
250
  6
CONTINUOUS
 90
5
 70
0
 10
107.2635705363
 20
76.7950114157
 10
107.2518768949
 20
76.7904750205
 10
107.2389173057
 20
76.7885903947
 10
107.2248199786
 20
76.7893743923
 10
107.209726595
 20
76.79281688
  0
LINE
  5
310
100
AcDbEntity
  8
0
100
AcDbLine
 62
7
  6
CONTINUOUS
 10
105.7242374729
 20
128.3065253102
 11
107.674609375
 21
128.5015625004
  0
LINE
  5
311
100
AcDbEntity
  8
ASSI
100
AcDbLine
 62
7
  6
CONTINUOUS
 10
105.7242374729
 20
128.3065253102
 11
107.674609375
 21
128.5015625004
  0
LINE
  5
312
100
AcDbEntity
  8
0
100
AcDbLine
 62
7
  6
CONTINUOUS
 10
104.674609375
 20
128.857382375
 11
107.4850765662
 21
128.9815491681
  0
LINE
  5
313
100
AcDbEntity
  8
ASSI
100
AcDbLine
 62
7
  6
CONTINUOUS
 10
104.674609375
 20
128.857382375
 11
107.4850765662
 21
128.9815491681
  0
LINE
  5
314
100
AcDbEntity
  8
0
100
AcDbLine
 62
7
  6
CONTINUOUS
 10
104.674609375
 20
128.1515625004
 11
104.824609375
 21
128.1515625004
  0
LINE
  5
315
100
AcDbEntity
  8
ASSI
100
AcDbLine
 62
7
  6
CONTINUOUS
 10
104.674609375
 20
128.1515625004
 11
104.824609375
 21
128.1515625004
  0
LINE
  5
316
100
AcDbEntity
  8
0
100
AcDbLine
 62
7
  6
CONTINUOUS
 10
105.124609375
 20
128.1515625004
 11
105.324609375
 21
128.1515625004
  0
LINE
  5
317
100
AcDbEntity
  8
ASSI
100
AcDbLine
 62
7
  6
CONTINUOUS
 10
105.124609375
 20
128.1515625004
 11
105.324609375
 21
128.1515625004
  0
LINE
  5
318
100
AcDbEntity
  8
0
100
AcDbLine
 62
7
  6
CONTINUOUS
 10
104.674609375
 20
128.3015625004
 11
105.6247337539
 21
128.3015625004
  0
LINE
  5
319
100
AcDbEntity
  8
ASSI
100
AcDbLine
 62
7
  6
CONTINUOUS
 10
104.674609375
 20
128.3015625004
 11
105.6247337539
 21
128.3015625004
  0
LINE
  5
31A
100
AcDbEntity
  8
0
100
AcDbLine
 62
250
  6
CONTINUOUS
 10
105.6003819587
 20
130.0292417444
 11
104.674609375
 21
130.0296599389
  0
LINE
  5
31B
100
AcDbEntity
  8
ASSI
100
AcDbLine
 62
250
  6
CONTINUOUS
 10
105.6003819587
 20
130.0292417444
 11
104.674609375
 21
130.0296599389
  0
LINE
  5
31C
100
AcDbEntity
  8
0
100
AcDbLine
 62
7
  6
CONTINUOUS
 10
105.6004465354
 20
130.2516919392
 11
104.674609375
 21
130.2533078315
  0
LINE
  5
31D
100
AcDbEntity
  8
ASSI
100
AcDbLine
 62
7
  6
CONTINUOUS
 10
105.6004465354
 20
130.2516919392
 11
104.674609375
 21
130.2533078315
  0
LINE
  5
31E
100
AcDbEntity
  8
0
100
AcDbLine
 62
250
  6
CONTINUOUS
 10
107.1246586072
 20
129.3552598822
 11
104.674609375
 21
129.3695138516
  0
LINE
  5
31F
100
AcDbEntity
  8
ASSI
100
AcDbLine
 62
250
  6
CONTINUOUS
 10
107.1246586072
 20
129.3552598822
 11
104.674609375
 21
129.3695138516
  0
LINE
  5
320
100
AcDbEntity
  8
0
100
AcDbLine
 62
7
  6
CONTINUOUS
 10
107.1246586072
 20
129.4431263608
 11
104.674609375
 21
129.4573803303
  0
LINE
  5
321
100
AcDbEntity
  8
ASSI
100
AcDbLine
 62
7
  6
CONTINUOUS
 10
107.1246586072
 20
129.4431263608
 11
104.674609375
 21
129.4573803303
  0
LWPOLYLINE
  5
322
100
AcDbEntity
  8
0
100
AcDbPolyline
 62
250
  6
CONTINUOUS
 90
5
 70
0
 10
107.2635705363
 20
129.4081135852
 10
107.2518259795
 20
129.4126632148
 10
107.2388331395
 20
129.4145379757
 10
107.224728451
 20
129.4137373043
 10
107.2096811
 20
129.4102941727
  0
LWPOLYLINE
  5
323
100
AcDbEntity
  8
ASSI
100
AcDbPolyline
 62
250
  6
CONTINUOUS
 90
5
 70
0
 10
107.2635705363
 20
129.4081135852
 10
107.2518259795
 20
129.4126632148
 10
107.2388331395
 20
129.4145379757
 10
107.224728451
 20
129.4137373043
 10
107.2096811
 20
129.4102941727
  0
LINE
  5
324
100
AcDbEntity
  8
0
100
AcDbLine
 62
250
  6
CONTINUOUS
 10
106.6999008186
 20
129.4455975293
 11
105.6003819587
 21
130.0292417444
  0
LINE
  5
325
100
AcDbEntity
  8
ASSI
100
AcDbLine
 62
250
  6
CONTINUOUS
 10
106.6999008186
 20
129.4455975293
 11
105.6003819587
 21
130.0292417444
  0
LINE
  5
326
100
AcDbEntity
  8
0
100
AcDbLine
 62
250
  6
CONTINUOUS
 10
107.64675046
 20
129.0781242179
 11
107.1246586072
 21
129.3552598822
  0
LINE
  5
327
100
AcDbEntity
  8
ASSI
100
AcDbLine
 62
250
  6
CONTINUOUS
 10
107.64675046
 20
129.0781242179
 11
107.1246586072
 21
129.3552598822
  0
LINE
  5
328
100
AcDbEntity
  8
0
100
AcDbLine
 62
7
  6
CONTINUOUS
 10
105.7396213367
 20
130.217052992
 11
107.674609375
 21
129.1899268408
  0
LINE
  5
329
100
AcDbEntity
  8
ASSI
100
AcDbLine
 62
7
  6
CONTINUOUS
 10
105.7396213367
 20
130.217052992
 11
107.674609375
 21
129.1899268408
  0
LINE
  5
32A
100
AcDbEntity
  8
SMUSSO
100
AcDbLine
 62
7
  6
CONTINUOUS
 10
100.124609375
 20
58.6015625004
 11
99.624609375
 21
58.1015625004
  0
LWPOLYLINE
  5
32B
100
AcDbEntity
  8
0
100
AcDbPolyline
 62
250
  6
CONTINUOUS
 90
48
 70
0
 10
102.1168083881
 20
72.0472333708
 10
102.1105093231
 20
72.0447863057
 10
102.1043443933
 20
72.042235259
 10
102.0983002444
 20
72.0395776304
 10
102.0923635221
 20
72.0368108195
 10
102.086520872
 20
72.0339322261
 10
102.08075894
 20
72.0309392498
 10
102.0739379738
 20
72.0271945704
 10
102.0672245798
 20
72.0232861755
 10
102.0606293263
 20
72.0192188053
 10
102.0541627817
 20
72.0149972
 10
102.0478355146
 20
72.0106261001
 10
102.0426756631
 20
72.0068719827
 10
102.0376191121
 20
72.0030155447
 10
102.0326651023
 20
71.9990549894
 10
102.0278145434
 20
71.994989928
 10
102.0230750193
 20
71.9908256026
 10
102.0184557829
 20
71.9865686631
 10
102.0139647488
 20
71.982224298
 10
102.0096044791
 20
71.9777918495
 10
102.0053761977
 20
71.9732691982
 10
102.0012811284
 20
71.9686542247
 10
101.9973204953
 20
71.9639448098
 10
101.9934955222
 20
71.9591388341
 10
101.9898083806
 20
71.954235155
 10
101.9862650326
 20
71.9492365366
 10
101.9828723879
 20
71.9441467199
 10
101.9796373562
 20
71.9389694458
 10
101.9765668471
 20
71.9337084552
 10
101.9736677704
 20
71.9283674891
 10
101.9709455708
 20
71.9229512497
 10
101.9683998334
 20
71.9174682853
 10
101.9660286783
 20
71.9119281056
 10
101.9638302257
 20
71.9063402203
 10
101.9618025959
 20
71.900714139
 10
101.9599439088
 20
71.8950593714
 10
101.9582518966
 20
71.8893844088
 10
101.9567227387
 20
71.8836936693
 10
101.9553522263
 20
71.8779905526
 10
101.954136151
 20
71.8722784584
 10
101.9530703038
 20
71.8665607863
 10
101.9521504762
 20
71.860840936
 10
101.9513731364
 20
71.8551194826
 10
101.9507374606
 20
71.8493857025
 10
101.9502433018
 20
71.8436260476
 10
101.9498905131
 20
71.8378269696
 10
101.9496789477
 20
71.8319749205
 10
101.9496084585
 20
71.8260563519
  0
LWPOLYLINE
  5
32C
100
AcDbEntity
  8
0
100
AcDbPolyline
 62
250
  6
CONTINUOUS
 90
8
 70
0
 10
102.2972110833
 20
72.1062278996
 10
102.2705736998
 20
72.0983358953
 10
102.2442058225
 20
72.0903183114
 10
102.2181200005
 20
72.0821437661
 10
102.1923287831
 20
72.0737808779
 10
102.1668447192
 20
72.0651982649
 10
102.1416803581
 20
72.0563645455
 10
102.1168482489
 20
72.0472483379
  0
LINE
  5
32D
100
AcDbEntity
  8
0
100
AcDbLine
 62
250
  6
CONTINUOUS
 10
102.6585244429
 20
72.2107234564
 11
102.4901268728
 21
72.1614354445
  0
LINE
  5
32E
100
AcDbEntity
  8
0
100
AcDbLine
 62
250
  6
CONTINUOUS
 10
102.693103121
 20
72.2207195658
 11
102.6585244429
 21
72.2107234564
  0
LINE
  5
32F
100
AcDbEntity
  8
0
100
AcDbLine
 62
250
  6
CONTINUOUS
 10
102.4901268728
 20
72.1614354445
 11
102.4246854603
 21
72.1426367698
  0
LINE
  5
330
100
AcDbEntity
  8
SMUSSO
100
AcDbLine
 62
7
  6
CONTINUOUS
 10
100.124609375
 20
147.6015625004
 11
99.624609375
 21
148.1015625004
  0
LINE
  5
331
100
AcDbEntity
  8
0
100
AcDbLine
 62
250
  6
CONTINUOUS
 10
101.452539375
 20
68.0154525004
 11
102.693103375
 21
68.4806795004
  0
LINE
  5
332
100
AcDbEntity
  8
0
100
AcDbLine
 62
250
  6
CONTINUOUS
 10
101.848057375
 20
68.5106545004
 11
100.793257375
 21
68.1182705004
  0
LINE
  5
333
100
AcDbEntity
  8
0
100
AcDbLine
 62
250
  6
CONTINUOUS
 10
102.693103375
 20
71.1019945004
 11
100.793257375
 21
70.5190745004
  0
LINE
  5
334
100
AcDbEntity
  8
0
100
AcDbLine
 62
7
  6
CONTINUOUS
 10
103.1752405055
 20
58.8020674048
 11
104.674609375
 21
60.0015625004
  0
LINE
  5
335
100
AcDbEntity
  8
ASSI
100
AcDbLine
 62
7
  6
CONTINUOUS
 10
103.1756530203
 20
58.8023974167
 11
104.674609375
 21
60.0015625004
  0
LINE
  5
336
100
AcDbEntity
  8
0
100
AcDbLine
 62
250
  6
CONTINUOUS
 10
100.793257375
 20
65.2307985004
 11
102.693103375
 21
65.8330865004
  0
LINE
  5
337
100
AcDbEntity
  8
0
100
AcDbLine
 62
7
  6
CONTINUOUS
 10
103.1756530203
 20
147.4007275842
 11
104.674609375
 21
146.2015625004
  0
LINE
  5
338
100
AcDbEntity
  8
ASSI
100
AcDbLine
 62
7
  6
CONTINUOUS
 10
103.1756530203
 20
147.4007275842
 11
104.674609375
 21
146.2015625004
  0
LWPOLYLINE
  5
339
100
AcDbEntity
  8
0
100
AcDbPolyline
 62
7
  6
CONTINUOUS
 90
10
 70
0
 43
0.3500000006
 10
112.0794051819
 20
159.3515619507
 10
112.1508363647
 20
159.208699585
 10
112.1508363647
 20
159.1372774658
 10
112.007973999
 20
158.9944151001
 10
111.9365428162
 20
158.9944151001
 10
111.865120697
 20
159.0658553467
 10
111.865120697
 20
159.1372774658
 10
111.9365428162
 20
159.2801398315
 10
112.007973999
 20
159.3515619507
 10
112.0794051819
 20
159.3515619507
  0
LINE
  5
33A
100
AcDbEntity
  8
RACCORDO
100
AcDbLine
 62
250
  6
CONTINUOUS
 10
100.274609375
 20
140.1015625004
 11
100.124609375
 21
140.1015625004
  0
LINE
  5
33B
100
AcDbEntity
  8
RACCORDO
100
AcDbLine
 62
7
  6
CONTINUOUS
 10
100.274609375
 20
142.1015625004
 11
100.124609375
 21
142.1015625004
  0
LWPOLYLINE
  5
33C
100
AcDbEntity
  8
0
100
AcDbPolyline
 62
7
  6
CONTINUOUS
 90
10
 70
0
 43
0.3500000006
 10
113.0225940857
 20
167.3515643921
 10
113.0940162048
 20
167.2087020264
 10
113.0940162048
 20
167.1372799072
 10
112.9511629028
 20
166.9944175415
 10
112.87973172
 20
166.9944175415
 10
112.8083096008
 20
167.0658396606
 10
112.8083096008
 20
167.1372799072
 10
112.87973172
 20
167.2801422729
 10
112.9511629028
 20
167.3515643921
 10
113.0225940857
 20
167.3515643921
  0
LINE
  5
33D
100
AcDbEntity
  8
RACCORDO
100
AcDbLine
 62
7
  6
CONTINUOUS
 10
100.274609375
 20
144.1015625004
 11
100.124609375
 21
144.1015625004
  0
LINE
  5
33E
100
AcDbEntity
  8
0
100
AcDbLine
 62
250
  6
CONTINUOUS
 10
100.274609375
 20
146.4015625004
 11
103.174609375
 21
146.4015625004
  0
LINE
  5
33F
100
AcDbEntity
  8
ASSI
100
AcDbLine
 62
250
  6
CONTINUOUS
 10
100.274609375
 20
146.4015625004
 11
103.174609375
 21
146.4015625004
  0
LINE
  5
340
100
AcDbEntity
  8
SMUSSO
100
AcDbLine
 62
250
  6
CONTINUOUS
 10
97.124609375
 20
147.1015625004
 11
100.124609375
 21
147.1015625004
  0
LINE
  5
341
100
AcDbEntity
  8
SMUSSO
100
AcDbLine
 62
7
  6
CONTINUOUS
 10
98.124609375
 20
148.1015625004
 11
99.624609375
 21
148.1015625004
  0
LWPOLYLINE
  5
342
100
AcDbEntity
  8
0
100
AcDbPolyline
 62
7
  6
CONTINUOUS
 90
8
 70
0
 43
0.3500000006
 10
113.1508366699
 20
158.8515708618
 10
114.0079746094
 20
158.8515708618
 10
114.4365435791
 20
159.2801398315
 10
114.4365435791
 20
160.137277771
 10
114.0079746094
 20
160.5658467407
 10
113.1508366699
 20
160.5658467407
 10
113.1508366699
 20
161.8515536499
 10
114.4365435791
 20
161.8515536499
  0
LWPOLYLINE
  5
343
100
AcDbEntity
  8
0
100
AcDbPolyline
 62
7
  6
CONTINUOUS
 90
8
 70
0
 43
0.3500000006
 10
115.2936905823
 20
158.8515708618
 10
116.1508285217
 20
158.8515708618
 10
116.5794065552
 20
159.2801398315
 10
116.5794065552
 20
160.137277771
 10
116.1508285217
 20
160.5658467407
 10
115.2936905823
 20
160.5658467407
 10
115.2936905823
 20
161.8515536499
 10
116.5794065552
 20
161.8515536499
  0
LWPOLYLINE
  5
344
100
AcDbEntity
  8
0
100
AcDbPolyline
 62
7
  6
CONTINUOUS
 90
8
 70
0
 43
0.3500000006
 10
114.09401651
 20
166.8515551758
 10
114.9511635132
 20
166.8515551758
 10
115.3797324829
 20
167.2801422729
 10
115.3797324829
 20
168.1372802124
 10
114.9511635132
 20
168.5658491821
 10
114.09401651
 20
168.5658491821
 10
114.09401651
 20
169.8515560913
 10
115.3797324829
 20
169.8515560913
  0
LWPOLYLINE
  5
345
100
AcDbEntity
  8
0
100
AcDbPolyline
 62
7
  6
CONTINUOUS
 90
8
 70
0
 43
0.3500000006
 10
116.2368794861
 20
166.8515551758
 10
117.0940174255
 20
166.8515551758
 10
117.522595459
 20
167.2801422729
 10
117.522595459
 20
168.1372802124
 10
117.0940174255
 20
168.5658491821
 10
116.2368794861
 20
168.5658491821
 10
116.2368794861
 20
169.8515560913
 10
117.522595459
 20
169.8515560913
  0
LINE
  5
346
100
AcDbEntity
  8
0
100
AcDbLine
 62
7
  6
CONTINUOUS
 10
100.274609375
 20
147.4521821887
 11
103.174609375
 21
147.4015625004
  0
LINE
  5
347
100
AcDbEntity
  8
ASSI
100
AcDbLine
 62
7
  6
CONTINUOUS
 10
100.274609375
 20
147.4521821887
 11
103.174609375
 21
147.4015625004
  0
LINE
  5
348
100
AcDbEntity
  8
0
100
AcDbLine
 62
250
  6
CONTINUOUS
 10
103.1756530203
 20
146.4419692072
 11
104.674609375
 21
146.1398728286
  0
LINE
  5
349
100
AcDbEntity
  8
ASSI
100
AcDbLine
 62
250
  6
CONTINUOUS
 10
103.1756530203
 20
146.4419692072
 11
104.674609375
 21
146.1398728286
  0
ARC
  5
34A
100
AcDbEntity
  8
RACCORDO
100
AcDbCircle
 62
7
  6
CONTINUOUS
 10
149.0542968746
 20
124.5015625004
 40
1.2
100
AcDbArc
 50
90.0
 51
180.0
  0
ARC
  5
34B
100
AcDbEntity
  8
RACCORDO
100
AcDbCircle
 62
7
  6
CONTINUOUS
 10
149.0542968746
 20
81.7015625004
 40
1.2
100
AcDbArc
 50
180.0
 51
270.0
  0
ARC
  5
34C
100
AcDbEntity
  8
RACCORDO
100
AcDbCircle
 62
7
  6
CONTINUOUS
 10
214.3542968746
 20
81.7015625004
 40
1.2
100
AcDbArc
 50
270.0
 51
360.0
  0
ARC
  5
34D
100
AcDbEntity
  8
RACCORDO
100
AcDbCircle
 62
7
  6
CONTINUOUS
 10
214.3542968746
 20
124.5015625004
 40
1.2
100
AcDbArc
 50
0.0
 51
90.0
  0
ARC
  5
34E
100
AcDbEntity
  8
SMUSSO
100
AcDbCircle
 62
7
  6
CONTINUOUS
 10
225.7042968746
 20
147.1015625004
 40
1.0
100
AcDbArc
 50
0.0
 51
90.0
  0
ARC
  5
34F
100
AcDbEntity
  8
SMUSSO
100
AcDbCircle
 62
7
  6
CONTINUOUS
 10
137.7042968746
 20
147.1015625004
 40
1.0
100
AcDbArc
 50
90.0
 51
180.0
  0
ARC
  5
350
100
AcDbEntity
  8
SMUSSO
100
AcDbCircle
 62
7
  6
CONTINUOUS
 10
137.7042968746
 20
59.1015625004
 40
1.0
100
AcDbArc
 50
180.0
 51
270.0
  0
ARC
  5
351
100
AcDbEntity
  8
SMUSSO
100
AcDbCircle
 62
7
  6
CONTINUOUS
 10
225.7042968746
 20
59.1015625004
 40
1.0
100
AcDbArc
 50
270.0
 51
360.0
  0
ARC
  5
352
100
AcDbEntity
  8
0
100
AcDbCircle
 62
7
  6
CONTINUOUS
 10
105.6247337539
 20
129.3015625004
 40
1.0
100
AcDbArc
 50
270.0
 51
275.7105931375
  0
ARC
  5
353
100
AcDbEntity
  8
0
100
AcDbCircle
 62
7
  6
CONTINUOUS
 10
105.6247337539
 20
76.9015625004
 40
1.0
100
AcDbArc
 50
84.2894068625
 51
90.0
  0
ARC
  5
354
100
AcDbEntity
  8
ASSI
100
AcDbCircle
 62
7
  6
CONTINUOUS
 10
105.6247337539
 20
129.3015625004
 40
1.0
100
AcDbArc
 50
270.0
 51
275.7105931375
  0
ARC
  5
355
100
AcDbEntity
  8
ASSI
100
AcDbCircle
 62
7
  6
CONTINUOUS
 10
105.6247337539
 20
76.9015625004
 40
1.0
100
AcDbArc
 50
84.2894068625
 51
90.0
  0
ARC
  5
356
100
AcDbEntity
  8
0
100
AcDbCircle
 62
7
  6
CONTINUOUS
 10
105.5999227092
 20
76.2515630094
 40
0.3
100
AcDbArc
 50
270.1000001427
 51
297.9489609005
  0
ARC
  5
357
100
AcDbEntity
  8
0
100
AcDbCircle
 62
7
  6
CONTINUOUS
 10
105.5999227092
 20
129.9515619915
 40
0.3
100
AcDbArc
 50
62.0510390995
 51
89.8999998573
  0
ARC
  5
358
100
AcDbEntity
  8
0
100
AcDbCircle
 62
7
  6
CONTINUOUS
 10
107.1229132878
 20
77.0599935632
 40
0.3
100
AcDbArc
 50
270.3333333333
 51
297.9601595782
  0
ARC
  5
359
100
AcDbEntity
  8
0
100
AcDbCircle
 62
7
  6
CONTINUOUS
 10
107.1229132878
 20
129.1431314377
 40
0.3
100
AcDbArc
 50
62.0398404207
 51
89.6666666667
  0
ARC
  5
35A
100
AcDbEntity
  8
ASSI
100
AcDbCircle
 62
7
  6
CONTINUOUS
 10
105.5999227092
 20
76.2515630094
 40
0.3
100
AcDbArc
 50
270.1000001427
 51
297.9489609005
  0
ARC
  5
35B
100
AcDbEntity
  8
ASSI
100
AcDbCircle
 62
7
  6
CONTINUOUS
 10
105.5999227092
 20
129.9515619915
 40
0.3
100
AcDbArc
 50
62.0510390995
 51
89.8999998573
  0
ARC
  5
35C
100
AcDbEntity
  8
ASSI
100
AcDbCircle
 62
7
  6
CONTINUOUS
 10
107.1229132878
 20
77.0599935632
 40
0.3
100
AcDbArc
 50
270.3333333333
 51
297.9601595782
  0
ARC
  5
35D
100
AcDbEntity
  8
ASSI
100
AcDbCircle
 62
7
  6
CONTINUOUS
 10
107.1229132878
 20
129.1431314377
 40
0.3
100
AcDbArc
 50
62.0398404207
 51
89.6666666667
  0
ELLIPSE
  5
35E
100
AcDbEntity
  8
0
100
AcDbEllipse
 62
7
  6
CONTINUOUS
 10
107.474609375
 20
77.0217638054
 30
0.0
 11
0.1417119467
 21
0.1422961243
 31
0.0
 40
0.9918061237
 41
-0.2491986107
 42
0.7350951877
  0
ELLIPSE
  5
35F
100
AcDbEntity
  8
0
100
AcDbEllipse
 62
7
  6
CONTINUOUS
 10
107.474609375
 20
129.1813611955
 30
0.0
 11
-0.1417119467
 21
0.1422961243
 31
0.0
 40
0.9918061237
 41
-3.8766878413
 42
-2.8923940429
  0
ELLIPSE
  5
360
100
AcDbEntity
  8
0
100
AcDbEllipse
 62
7
  6
CONTINUOUS
 10
104.3979182062
 20
59.8015625004
 30
0.0
 11
1.2233088312
 21
-0.0
 31
0.0
 40
0.7998095528
 41
-3.1415926536
 42
-3.1002827401
  0
ELLIPSE
  5
361
100
AcDbEntity
  8
0
100
AcDbEllipse
 62
7
  6
CONTINUOUS
 10
104.3979182062
 20
146.4015625004
 30
0.0
 11
1.2233088312
 21
0.0
 31
0.0
 40
0.7998095528
 41
3.1002827401
 42
3.1415926536
  0
ELLIPSE
  5
362
100
AcDbEntity
  8
ASSI
100
AcDbEllipse
 62
7
  6
CONTINUOUS
 10
107.474609375
 20
77.0217638054
 30
0.0
 11
0.1417119467
 21
0.1422961243
 31
0.0
 40
0.9918061237
 41
-0.2491986107
 42
0.7350951877
  0
ELLIPSE
  5
363
100
AcDbEntity
  8
ASSI
100
AcDbEllipse
 62
7
  6
CONTINUOUS
 10
104.3979182062
 20
59.8015625004
 30
0.0
 11
1.2233088312
 21
-0.0
 31
0.0
 40
0.7998095528
 41
-3.1415926536
 42
-3.1002827401
  0
ELLIPSE
  5
364
100
AcDbEntity
  8
ASSI
100
AcDbEllipse
 62
7
  6
CONTINUOUS
 10
104.3979182062
 20
146.4015625004
 30
0.0
 11
1.2233088312
 21
0.0
 31
0.0
 40
0.7998095528
 41
3.1002827401
 42
3.1415926536
  0
ELLIPSE
  5
365
100
AcDbEntity
  8
ASSI
100
AcDbEllipse
 62
7
  6
CONTINUOUS
 10
107.474609375
 20
129.1813611955
 30
0.0
 11
-0.1417119467
 21
0.1422961243
 31
0.0
 40
0.9918061237
 41
-3.8766878413
 42
-2.8923940429
  0
ENDSEC
  0
SECTION
  2
OBJECTS
  0
DICTIONARY
  5
C
100
AcDbDictionary
280
0
281
1
  3
ACAD_GROUP
350
D
  3
ACAD_MLINESTYLE
350
17
  3
ACAD_LAYOUT
350
1A
  3
ACAD_PLOTSETTINGS
350
19
  3
ACAD_PLOTSTYLENAME
350
E
  0
DICTIONARY
  5
D
102
{ACAD_REACTORS
330
C
102
}
100
AcDbDictionary
280
0
281
1
  0
ACDBDICTIONARYWDFLT
  5
E
102
{ACAD_REACTORS
330
C
102
}
100
AcDbDictionary
281
1
  3
Normal
350
F
100
AcDbDictionaryWithDefault
340
F
  0
DICTIONARY
  5
17
102
{ACAD_REACTORS
330
C
102
}
100
AcDbDictionary
280
0
281
1
  3
Standard
350
18
  0
DICTIONARY
  5
19
102
{ACAD_REACTORS
330
C
102
}
100
AcDbDictionary
281
1
  0
DICTIONARY
  5
1A
102
{ACAD_REACTORS
330
C
102
}
100
AcDbDictionary
281
1
  3
Model
350
366
  3
Layout1
350
367
  0
ACDBPLACEHOLDER
  5
F
102
{ACAD_REACTORS
330
E
102
}
  0
MLINESTYLE
  5
18
102
{ACAD_REACTORS
330
17
102
}
100
AcDbMlineStyle
  2
STANDARD
 70
0
  3

 62
256
 51
90.0
 52
90.0
 71
2
 49
0.5
 62
256
  6
BYLAYER
 49
-0.5
 62
256
  6
BYLAYER
  0
LAYOUT
  5
366
102
{ACAD_REACTORS
330
1A
102
}
100
AcDbPlotSettings
  1

  2
none_device
  4
ISO_A4_(297.00_x_210.00_MM)
  6

 40
0.0
 41
0.0
 42
0.0
 43
0.0
 44
297.0
 45
210.0
 46
0.0
 47
0.0
 48
0.0
 49
0.0
140
0.0
141
0.0
142
1.0
143
1.0
 70
1024
 72
1
 73
0
 74
0
  7

 75
0
147
1.0
148
0.0
149
0.0
100
AcDbLayout
  1
Model
 70
0
 71
0
 10
0.0
 20
0.0
 11
297.0
 21
210.0
 12
0.0
 22
0.0
 32
0.0
 14
0.0
 24
0.0
 34
0.0
 15
0.0
 25
0.0
 35
0.0
146
0.0
 13
0.0
 23
0.0
 33
0.0
 16
1.0
 26
0.0
 36
0.0
 17
0.0
 27
1.0
 37
0.0
 76
0
330
21D
345
0
346
0
  0
LAYOUT
  5
367
102
{ACAD_REACTORS
330
1A
102
}
100
AcDbPlotSettings
  1

  2
none_device
  4
ISO_A4_(297.00_x_210.00_MM)
  6

 40
0.0
 41
0.0
 42
0.0
 43
0.0
 44
297.0
 45
210.0
 46
0.0
 47
0.0
 48
0.0
 49
0.0
140
0.0
141
0.0
142
1.0
143
1.0
 70
0
 72
1
 73
0
 74
0
  7

 75
0
147
1.0
148
0.0
149
0.0
100
AcDbLayout
  1
Layout1
 70
0
 71
1
 10
0.0
 20
0.0
 11
297.0
 21
210.0
 12
0.0
 22
0.0
 32
0.0
 14
0.0
 24
0.0
 34
0.0
 15
0.0
 25
0.0
 35
0.0
146
0.0
 13
0.0
 23
0.0
 33
0.0
 16
1.0
 26
0.0
 36
0.0
 17
0.0
 27
1.0
 37
0.0
 76
0
330
21E
345
0
346
0
  0
ENDSEC
  0
EOF
