  0
SECTION
  2
HEADER
  9
$ACADVER
  1
AC1021
  9
$DWGCODEPAGE
  3
ANSI_1252
  9
$EXTMAX
 10
297.0
 20
210.0
 30
0.0
  9
$EXTMIN
 10
0.0
 20
0.0
 30
0.0
  9
$LIMMIN
 10
0.0
 20
0.0
  9
$LIMMAX
 10
297.0
 20
210.0
  9
$VIEWCTR
 10
148.5
 20
105.0
  9
$VIEWSIZE
 40
210.0
  9
$CLAYER
  8
0
  9
$LTSCALE
 40
16.335
  9
$CELTYPE
  6
BYLAYER
  9
$DIMSCALE
 40
1.0
  9
$DIMASZ
 40
3.0
  9
$DIMEXO
 40
0.5
  9
$DIMDLI
 40
11.286
  9
$DIMEXE
 40
1.5
  9
$DIMCEN
 40
2.673
  9
$DIMLFAC
 40
1.0
  9
$DIMBLK
  1
_FILLED
  9
$DIMALT
 70
0
  9
$DIMALTF
 40
25.4
  9
$DIMTXT
 40
3.0
  9
$DIMTOL
 70
1
  9
$DIMLIM
 70
0
  9
$DIMTFAC
 40
1.0
  9
$DIMTP
 40
0.01
  9
$DIMTM
 40
0.01
  9
$DIMGAP
 40
0.625
  9
$DIMDSEP
 70
44
  9
$AUNITS
 70
0
  9
$PDMODE
 70
3
  9
$PDSIZE
 40
3.0
  9
$HANDSEED
  5
310
  9
$TILEMODE
 70
1
  9
$MEASUREMENT
 70
1
  9
$INSUNITS
 70
4
  0
ENDSEC
  0
SECTION
  2
CLASSES
  0
CLASS
  1
ACDBDICTIONARYWDFLT
  2
AcDbDictionaryWithDefault
  3
AutoCAD 2000
 90
0
 91
1
280
0
281
0
  0
CLASS
  1
ACDBPLACEHOLDER
  2
AcDbPlaceHolder
  3
AutoCAD 2000
 90
0
 91
1
280
0
281
0
  0
CLASS
  1
LAYOUT
  2
AcDbLayout
  3
AutoCAD 2000
 90
0
 91
0
280
0
281
0
  0
ENDSEC
  0
SECTION
  2
TABLES
  0
TABLE
  2
VPORT
  5
8
100
AcDbSymbolTable
 70
2
  0
VPORT
  5
1F4
100
AcDbSymbolTableRecord
100
AcDbViewportTableRecord
  2
*ACTIVE
 70
0
 10
0.0
 20
0.0
 11
1.0
 21
1.0
 12
148.5
 22
105.0
 13
0.0
 23
0.0
 14
1.0
 24
1.0
 15
0.0
 25
0.0
 16
0.0
 26
0.0
 36
1.0
 17
0.0
 27
0.0
 37
0.0
 40
210.0
 41
1.4142857143
 42
50.0
 43
0.0
 44
0.0
 50
0.0
 51
0.0
 71
0
 72
100
 73
1
 74
1
 75
0
 76
0
 77
0
 78
0
  0
ENDTAB
  0
TABLE
  2
LTYPE
  5
5
100
AcDbSymbolTable
 70
6
  0
LTYPE
  5
14
100
AcDbSymbolTableRecord
100
AcDbLinetypeTableRecord
  2
BYBLOCK
 70
0
  3

 72
65
 73
0
 40
0.0
  0
LTYPE
  5
15
100
AcDbSymbolTableRecord
100
AcDbLinetypeTableRecord
  2
BYLAYER
 70
0
  3

 72
65
 73
0
 40
0.0
  0
LTYPE
  5
16
100
AcDbSymbolTableRecord
100
AcDbLinetypeTableRecord
  2
CONTINUOUS
 70
64
  3
Solid line
 72
65
 73
0
 40
0.0
  0
LTYPE
  5
1F5
100
AcDbSymbolTableRecord
100
AcDbLinetypeTableRecord
  2
CENTER
 70
64
  3
____ _ ____ _ ____ _ ____ _ ____ _ ____ _ ____
 72
65
 73
4
 40
0.6
 49
0.375
 74
0
 49
-0.075
 74
0
 49
0.075
 74
0
 49
-0.075
 74
0
  0
LTYPE
  5
1F6
100
AcDbSymbolTableRecord
100
AcDbLinetypeTableRecord
  2
HIDDEN
 70
64
  3
- - - - - - - - - - - - - - - - - - - -
 72
65
 73
2
 40
0.2
 49
0.1
 74
0
 49
-0.1
 74
0
  0
LTYPE
  5
1F7
100
AcDbSymbolTableRecord
100
AcDbLinetypeTableRecord
  2
PHANTOM
 70
64
  3
_____ _ _ _____ _ _ _____ _ _ _____
 72
65
 73
6
 40
0.8
 49
0.45
 74
0
 49
-0.05
 74
0
 49
0.1
 74
0
 49
-0.05
 74
0
 49
0.1
 74
0
 49
-0.05
 74
0
  0
LTYPE
  5
1F8
100
AcDbSymbolTableRecord
100
AcDbLinetypeTableRecord
  2
DOT
 70
64
  3
. . . . . . . . . . . . . . . . . . . .
 72
65
 73
2
 40
0.2
 49
0.1
 74
0
 49
-0.1
 74
0
  0
LTYPE
  5
1F9
100
AcDbSymbolTableRecord
100
AcDbLinetypeTableRecord
  2
DASHED
 70
64
  3
- - - - - - - - - - - - - - - - - - - -
 72
65
 73
2
 40
0.2
 49
0.1
 74
0
 49
-0.1
 74
0
  0
ENDTAB
  0
TABLE
  2
LAYER
  5
2
100
AcDbSymbolTable
 70
36
  0
LAYER
  5
10
100
AcDbSymbolTableRecord
100
AcDbLayerTableRecord
  2
0
 70
0
 62
7
  6
CONTINUOUS
370
-3
390
F
  0
LAYER
  5
1FA
100
AcDbSymbolTableRecord
100
AcDbLayerTableRecord
  2
DEFAULT_1
 70
0
 62
7
  6
CENTER
370
-3
390
F
  0
LAYER
  5
1FB
100
AcDbSymbolTableRecord
100
AcDbLayerTableRecord
  2
DEFAULT_2
 70
0
 62
7
  6
HIDDEN
370
-3
390
F
  0
LAYER
  5
1FC
100
AcDbSymbolTableRecord
100
AcDbLayerTableRecord
  2
DEFAULT_3
 70
0
 62
7
  6
PHANTOM
370
-3
390
F
  0
LAYER
  5
1FD
100
AcDbSymbolTableRecord
100
AcDbLayerTableRecord
  2
ASSI
 70
0
 62
7
  6
CONTINUOUS
370
-3
390
F
  0
LAYER
  5
1FE
100
AcDbSymbolTableRecord
100
AcDbLayerTableRecord
  2
COORDINATE
 70
0
 62
7
  6
CONTINUOUS
370
-3
390
F
  0
LAYER
  5
1FF
100
AcDbSymbolTableRecord
100
AcDbLayerTableRecord
  2
COORD_ORIGINE
 70
0
 62
7
  6
CONTINUOUS
370
-3
390
F
  0
LAYER
  5
200
100
AcDbSymbolTableRecord
100
AcDbLayerTableRecord
  2
COPY_PUBLISH
 70
0
 62
7
  6
CONTINUOUS
370
-3
390
F
  0
LAYER
  5
201
100
AcDbSymbolTableRecord
100
AcDbLayerTableRecord
  2
COSMETIC
 70
0
 62
7
  6
CONTINUOUS
370
-3
390
F
  0
LAYER
  5
202
100
AcDbSymbolTableRecord
100
AcDbLayerTableRecord
  2
COSMETICI
 70
0
 62
7
  6
CONTINUOUS
370
-3
390
F
  0
LAYER
  5
203
100
AcDbSymbolTableRecord
100
AcDbLayerTableRecord
  2
CURVE
 70
0
 62
7
  6
CONTINUOUS
370
-3
390
F
  0
LAYER
  5
204
100
AcDbSymbolTableRecord
100
AcDbLayerTableRecord
  2
CURVE_COSTRUZIONE
 70
0
 62
7
  6
CONTINUOUS
370
-3
390
F
  0
LAYER
  5
205
100
AcDbSymbolTableRecord
100
AcDbLayerTableRecord
  2
CURVE_TASSELLI
 70
0
 62
7
  6
CONTINUOUS
370
-3
390
F
  0
LAYER
  5
206
100
AcDbSymbolTableRecord
100
AcDbLayerTableRecord
  2
DRAFT
 70
0
 62
7
  6
CONTINUOUS
370
-3
390
F
  0
LAYER
  5
207
100
AcDbSymbolTableRecord
100
AcDbLayerTableRecord
  2
IMPORT_IGES
 70
0
 62
7
  6
CONTINUOUS
370
-3
390
F
  0
LAYER
  5
208
100
AcDbSymbolTableRecord
100
AcDbLayerTableRecord
  2
INTFCLR_2
 70
0
 62
7
  6
CONTINUOUS
370
-3
390
F
  0
LAYER
  5
209
100
AcDbSymbolTableRecord
100
AcDbLayerTableRecord
  2
INTF_1
 70
0
 62
7
  6
CONTINUOUS
370
-3
390
F
  0
LAYER
  5
20A
100
AcDbSymbolTableRecord
100
AcDbLayerTableRecord
  2
INTF_7
 70
0
 62
7
  6
CONTINUOUS
370
-3
390
F
  0
LAYER
  5
20B
100
AcDbSymbolTableRecord
100
AcDbLayerTableRecord
  2
INTF_CYAN
 70
0
 62
7
  6
CONTINUOUS
370
-3
390
F
  0
LAYER
  5
20C
100
AcDbSymbolTableRecord
100
AcDbLayerTableRecord
  2
NOTE
 70
0
 62
7
  6
CONTINUOUS
370
-3
390
F
  0
LAYER
  5
20D
100
AcDbSymbolTableRecord
100
AcDbLayerTableRecord
  2
PIANI
 70
0
 62
7
  6
CONTINUOUS
370
-3
390
F
  0
LAYER
  5
20E
100
AcDbSymbolTableRecord
100
AcDbLayerTableRecord
  2
PIANI_ORIGINE
 70
0
 62
7
  6
CONTINUOUS
370
-3
390
F
  0
LAYER
  5
20F
100
AcDbSymbolTableRecord
100
AcDbLayerTableRecord
  2
PIANI_RIFERIMENTO
 70
0
 62
7
  6
CONTINUOUS
370
-3
390
F
  0
LAYER
  5
210
100
AcDbSymbolTableRecord
100
AcDbLayerTableRecord
  2
PUNTI
 70
0
 62
7
  6
CONTINUOUS
370
-3
390
F
  0
LAYER
  5
211
100
AcDbSymbolTableRecord
100
AcDbLayerTableRecord
  2
RACCORDO
 70
0
 62
7
  6
CONTINUOUS
370
-3
390
F
  0
LAYER
  5
212
100
AcDbSymbolTableRecord
100
AcDbLayerTableRecord
  2
RGB__255__255__255__
 70
0
 62
7
  6
CONTINUOUS
370
-3
390
F
  0
LAYER
  5
213
100
AcDbSymbolTableRecord
100
AcDbLayerTableRecord
  2
RGB____0____0____0__
 70
0
 62
7
  6
CONTINUOUS
370
-3
390
F
  0
LAYER
  5
214
100
AcDbSymbolTableRecord
100
AcDbLayerTableRecord
  2
SIMBOLI
 70
0
 62
7
  6
CONTINUOUS
370
-3
390
F
  0
LAYER
  5
215
100
AcDbSymbolTableRecord
100
AcDbLayerTableRecord
  2
SMUSSO
 70
0
 62
7
  6
CONTINUOUS
370
-3
390
F
  0
LAYER
  5
216
100
AcDbSymbolTableRecord
100
AcDbLayerTableRecord
  2
SNAPLINE
 70
0
 62
7
  6
CONTINUOUS
370
-3
390
F
  0
LAYER
  5
217
100
AcDbSymbolTableRecord
100
AcDbLayerTableRecord
  2
SUPERFICI
 70
0
 62
7
  6
CONTINUOUS
370
-3
390
F
  0
LAYER
  5
218
100
AcDbSymbolTableRecord
100
AcDbLayerTableRecord
  2
TRASH
 70
0
 62
7
  6
CONTINUOUS
370
-3
390
F
  0
LAYER
  5
219
100
AcDbSymbolTableRecord
100
AcDbLayerTableRecord
  2
WHITE
 70
0
 62
7
  6
CONTINUOUS
370
-3
390
F
  0
LAYER
  5
21A
100
AcDbSymbolTableRecord
100
AcDbLayerTableRecord
  2
XSEC_DATUMS
 70
0
 62
7
  6
CONTINUOUS
370
-3
390
F
  0
ENDTAB
  0
TABLE
  2
STYLE
  5
3
100
AcDbSymbolTable
 70
1
  0
STYLE
  5
11
100
AcDbSymbolTableRecord
100
AcDbTextStyleTableRecord
  2
STANDARD
 70
0
 40
0.0
 41
0.8
 50
0.0
 71
0
 42
0.2
  3
txt
  4

  0
STYLE
  5
21B
100
AcDbSymbolTableRecord
100
AcDbTextStyleTableRecord
  2
TEXTSTYLE_1
 70
0
 40
0.0
 41
0.8
 50
0.0
 71
0
 42
0.2
  3
gdt
  4

  0
ENDTAB
  0
TABLE
  2
VIEW
  5
6
100
AcDbSymbolTable
 70
0
  0
ENDTAB
  0
TABLE
  2
UCS
  5
7
100
AcDbSymbolTable
 70
0
  0
ENDTAB
  0
TABLE
  2
APPID
  5
9
100
AcDbSymbolTable
 70
1
  0
APPID
  5
21C
100
AcDbSymbolTableRecord
100
AcDbRegAppTableRecord
  2
ACAD
 70
0
  0
ENDTAB
  0
TABLE
  2
BLOCK_RECORD
  5
1
100
AcDbSymbolTable
 70
0
  0
BLOCK_RECORD
  5
21D
100
AcDbSymbolTableRecord
100
AcDbBlockTableRecord
  2
*Model_Space
  0
BLOCK_RECORD
  5
21E
100
AcDbSymbolTableRecord
100
AcDbBlockTableRecord
  2
*Paper_Space
  0
BLOCK_RECORD
  5
21F
100
AcDbSymbolTableRecord
100
AcDbBlockTableRecord
  2
_FILLED
  0
BLOCK_RECORD
  5
220
100
AcDbSymbolTableRecord
100
AcDbBlockTableRecord
  2
*D0
  0
BLOCK_RECORD
  5
221
100
AcDbSymbolTableRecord
100
AcDbBlockTableRecord
  2
*D1
  0
BLOCK_RECORD
  5
222
100
AcDbSymbolTableRecord
100
AcDbBlockTableRecord
  2
*D2
  0
BLOCK_RECORD
  5
223
100
AcDbSymbolTableRecord
100
AcDbBlockTableRecord
  2
*D3
  0
ENDTAB
  0
TABLE
  2
DIMSTYLE
  5
A
100
AcDbSymbolTable
 70
1
100
AcDbDimStyleTable
 71
0
  0
DIMSTYLE
105
224
100
AcDbSymbolTableRecord
100
AcDbDimStyleTableRecord
  2
STANDARD
 70
0
  3

  4

 40
1.0
 41
3.0
 42
0.5
 43
0.38
 44
1.5
 45
0.0
 46
0.0
 47
0.01
 48
0.01
140
3.0
141
0.09
142
0.0
143
25.4
144
1.0
145
0.0
146
1.0
147
0.625
 71
1.0
 72
0.0
 73
0
 74
0
 75
0
 76
0
 77
1
 78
8
 79
2
170
0
171
1
172
0
173
0
174
0
175
0
176
0
177
0
178
0
270
2
179
2
271
2
272
2
273
2
274
2
275
0
280
0
281
0
282
0
283
1
284
8
285
0
286
0
287
3
288
0
340
11
278
44
341
21F
342
21F
343
21F
344
21F
  0
DIMSTYLE
105
225
100
AcDbSymbolTableRecord
100
AcDbDimStyleTableRecord
  2
DIMSTYLE_1
 70
0
  3

  4

 40
1.0
 41
3.0
 42
0.5
 43
0.38
 44
1.5
 45
0.0
 46
0.0
 47
0.0
 48
0.0
140
3.0
141
0.09
142
0.0
143
25.4
144
1.0
145
0.0
146
1.0
147
0.75
 71
0.0
 72
0.0
 73
0
 74
0
 75
0
 76
0
 77
1
 78
8
 79
2
170
0
171
1
172
0
173
0
174
0
175
0
176
0
177
0
178
0
270
2
179
2
271
2
272
2
273
2
274
2
275
0
280
0
281
0
282
0
283
1
284
8
285
0
286
0
287
3
288
0
340
11
278
44
341
21F
342
21F
343
21F
344
21F
  0
ENDTAB
  0
ENDSEC
  0
SECTION
  2
BLOCKS
  0
BLOCK
  5
20
100
AcDbEntity
  8
0
100
AcDbBlockBegin
  2
*Model_Space
 70
0
 10
0.0
 20
0.0
 30
0.0
  3
*Model_Space
  1

  0
ENDBLK
  5
21
100
AcDbEntity
  8
0
100
AcDbBlockEnd
  0
BLOCK
  5
1C
100
AcDbEntity
  8
0
100
AcDbBlockBegin
  2
*Paper_Space
 70
0
 10
0.0
 20
0.0
 30
0.0
  3
*Paper_Space
  1

  0
ENDBLK
  5
1D
100
AcDbEntity
  8
0
100
AcDbBlockEnd
  0
BLOCK
  5
226
100
AcDbEntity
  8
0
100
AcDbBlockBegin
  2
_FILLED
 70
64
 10
0.0
 20
0.0
  3
_FILLED
  1

  0
SOLID
  5
227
100
AcDbEntity
  8
0
  6
BYBLOCK
 62
0
100
AcDbTrace
 10
0.0
 20
0.0
 11
-1.0
 21
0.3166666667
 12
-1.0
 22
-0.3166666667
 13
-1.0
 23
-0.3166666667
  0
ENDBLK
  5
228
100
AcDbEntity
  8
0
  6
BYBLOCK
 62
0
100
AcDbBlockEnd
  0
BLOCK
  5
229
100
AcDbEntity
  8
0
100
AcDbBlockBegin
 62
7
  6
CONTINUOUS
  2
*D0
 70
65
 10
0.0
 20
0.0
  3
*D0
  1

  0
LINE
  5
22A
100
AcDbEntity
  8
0
100
AcDbLine
 62
7
  6
CONTINUOUS
 10
89.4062744141
 20
147.5224609375
 11
89.4062744141
 21
159.5224609375
  0
LINE
  5
22B
100
AcDbEntity
  8
0
100
AcDbLine
 62
7
  6
CONTINUOUS
 10
96.9562744141
 20
146.5607712656
 11
96.9562744141
 21
159.5224609375
  0
LINE
  5
22C
100
AcDbEntity
  8
0
100
AcDbLine
 62
7
  6
CONTINUOUS
 10
89.4062744141
 20
158.0224609375
 11
93.1812744141
 21
158.0224609375
  0
LINE
  5
22D
100
AcDbEntity
  8
0
100
AcDbLine
 62
7
  6
CONTINUOUS
 10
96.9562744141
 20
158.0224609375
 11
93.1812744141
 21
158.0224609375
  0
LINE
  5
22E
100
AcDbEntity
  8
0
100
AcDbLine
 62
7
  6
CONTINUOUS
 10
93.1812744141
 20
158.0224609375
 11
110.1975621712
 21
158.0224609375
  0
INSERT
  5
22F
100
AcDbEntity
  8
0
100
AcDbBlockReference
 62
7
  6
CONTINUOUS
  2
_FILLED
 10
89.4062744141
 20
158.0224609375
 41
3.0
 42
3.0
 43
3.0
 50
180.0
  0
INSERT
  5
230
100
AcDbEntity
  8
0
100
AcDbBlockReference
 62
7
  6
CONTINUOUS
  2
_FILLED
 10
96.9562744141
 20
158.0224609375
 41
3.0
 42
3.0
 43
3.0
  0
ENDBLK
  5
231
100
AcDbEntity
  8
0
  6
BYBLOCK
 62
0
100
AcDbBlockEnd
  0
BLOCK
  5
232
100
AcDbEntity
  8
0
100
AcDbBlockBegin
 62
7
  6
CONTINUOUS
  2
*D1
 70
65
 10
0.0
 20
0.0
  3
*D1
  1

  0
LINE
  5
233
100
AcDbEntity
  8
0
100
AcDbLine
 62
7
  6
CONTINUOUS
 10
89.4062744141
 20
147.5224609375
 11
89.4062744141
 21
167.5224609375
  0
LINE
  5
234
100
AcDbEntity
  8
0
100
AcDbLine
 62
7
  6
CONTINUOUS
 10
99.9562744141
 20
129.5687777307
 11
99.9562744141
 21
167.5224609375
  0
LINE
  5
235
100
AcDbEntity
  8
0
100
AcDbLine
 62
7
  6
CONTINUOUS
 10
89.4062744141
 20
166.0224609375
 11
94.6812744141
 21
166.0224609375
  0
LINE
  5
236
100
AcDbEntity
  8
0
100
AcDbLine
 62
7
  6
CONTINUOUS
 10
99.9562744141
 20
166.0224609375
 11
94.6812744141
 21
166.0224609375
  0
LINE
  5
237
100
AcDbEntity
  8
0
100
AcDbLine
 62
7
  6
CONTINUOUS
 10
94.6812744141
 20
166.0224609375
 11
111.3286670855
 21
166.0224609375
  0
INSERT
  5
238
100
AcDbEntity
  8
0
100
AcDbBlockReference
 62
7
  6
CONTINUOUS
  2
_FILLED
 10
89.4062744141
 20
166.0224609375
 41
3.0
 42
3.0
 43
3.0
 50
180.0
  0
INSERT
  5
239
100
AcDbEntity
  8
0
100
AcDbBlockReference
 62
7
  6
CONTINUOUS
  2
_FILLED
 10
99.9562744141
 20
166.0224609375
 41
3.0
 42
3.0
 43
3.0
  0
ENDBLK
  5
23A
100
AcDbEntity
  8
0
  6
BYBLOCK
 62
0
100
AcDbBlockEnd
  0
BLOCK
  5
23B
100
AcDbEntity
  8
0
100
AcDbBlockBegin
 62
7
  6
CONTINUOUS
  2
*D2
 70
65
 10
0.0
 20
0.0
  3
*D2
  1

  0
LINE
  5
23C
100
AcDbEntity
  8
0
100
AcDbLine
 62
7
  6
CONTINUOUS
 10
133.210546875
 20
147.5224609375
 11
133.210546875
 21
159.5224609375
  0
LINE
  5
23D
100
AcDbEntity
  8
0
100
AcDbLine
 62
7
  6
CONTINUOUS
 10
223.210546875
 20
147.5224609375
 11
223.210546875
 21
159.5224609375
  0
LINE
  5
23E
100
AcDbEntity
  8
0
100
AcDbLine
 62
7
  6
CONTINUOUS
 10
133.210546875
 20
158.0224609375
 11
178.210546875
 21
158.0224609375
  0
LINE
  5
23F
100
AcDbEntity
  8
0
100
AcDbLine
 62
7
  6
CONTINUOUS
 10
223.210546875
 20
158.0224609375
 11
178.210546875
 21
158.0224609375
  0
INSERT
  5
240
100
AcDbEntity
  8
0
100
AcDbBlockReference
 62
7
  6
CONTINUOUS
  2
_FILLED
 10
133.210546875
 20
158.0224609375
 41
3.0
 42
3.0
 43
3.0
 50
180.0
  0
INSERT
  5
241
100
AcDbEntity
  8
0
100
AcDbBlockReference
 62
7
  6
CONTINUOUS
  2
_FILLED
 10
223.210546875
 20
158.0224609375
 41
3.0
 42
3.0
 43
3.0
  0
ENDBLK
  5
242
100
AcDbEntity
  8
0
  6
BYBLOCK
 62
0
100
AcDbBlockEnd
  0
BLOCK
  5
243
100
AcDbEntity
  8
0
100
AcDbBlockBegin
 62
7
  6
CONTINUOUS
  2
*D3
 70
65
 10
0.0
 20
0.0
  3
*D3
  1

  0
LINE
  5
244
100
AcDbEntity
  8
0
100
AcDbLine
 62
7
  6
CONTINUOUS
 10
222.710546875
 20
148.0224609375
 11
234.710546875
 21
148.0224609375
  0
LINE
  5
245
100
AcDbEntity
  8
0
100
AcDbLine
 62
7
  6
CONTINUOUS
 10
222.710546875
 20
58.0224609375
 11
234.710546875
 21
58.0224609375
  0
LINE
  5
246
100
AcDbEntity
  8
0
100
AcDbLine
 62
7
  6
CONTINUOUS
 10
233.210546875
 20
148.0224609375
 11
233.210546875
 21
103.0224609375
  0
LINE
  5
247
100
AcDbEntity
  8
0
100
AcDbLine
 62
7
  6
CONTINUOUS
 10
233.210546875
 20
58.0224609375
 11
233.210546875
 21
103.0224609375
  0
INSERT
  5
248
100
AcDbEntity
  8
0
100
AcDbBlockReference
 62
7
  6
CONTINUOUS
  2
_FILLED
 10
233.210546875
 20
148.0224609375
 41
3.0
 42
3.0
 43
3.0
 50
90.0
  0
INSERT
  5
249
100
AcDbEntity
  8
0
100
AcDbBlockReference
 62
7
  6
CONTINUOUS
  2
_FILLED
 10
233.210546875
 20
58.0224609375
 41
3.0
 42
3.0
 43
3.0
 50
270.0
  0
ENDBLK
  5
24A
100
AcDbEntity
  8
0
  6
BYBLOCK
 62
0
100
AcDbBlockEnd
  0
ENDSEC
  0
SECTION
  2
ENTITIES
  0
DIMENSION
  5
24B
100
AcDbEntity
  8
0
100
AcDbDimension
 62
7
  6
CONTINUOUS
  2
*D0
 10
96.9562744141
 20
158.0224609375
 11
101.8404193141
 21
158.0224609375
 70
160
 71
1
 72
2
 41
0.9
 42
7.55
  3
DIMSTYLE_1
100
AcDbAlignedDimension
 13
89.4062744141
 23
147.0224609375
 14
96.9562744141
 24
146.0607712656
100
AcDbRotatedDimension
  0
DIMENSION
  5
24C
100
AcDbEntity
  8
0
100
AcDbDimension
 62
7
  6
CONTINUOUS
  2
*D1
 10
99.9562744141
 20
166.0224609375
 11
101.2572385141
 21
166.0224609375
 70
160
 71
1
 72
2
 41
0.9
 42
10.55
  3
DIMSTYLE_1
100
AcDbAlignedDimension
 13
89.4062744141
 23
147.0224609375
 14
99.9562744141
 24
129.0687777307
100
AcDbRotatedDimension
  0
DIMENSION
  5
24D
100
AcDbEntity
  8
0
100
AcDbDimension
 62
7
  6
CONTINUOUS
  2
*D2
 10
223.210546875
 20
158.0224609375
 11
175.8534040179
 21
158.0224609375
 70
160
 71
2
 72
2
 41
0.9
 42
90.0
  3
DIMSTYLE_1
100
AcDbAlignedDimension
 13
133.210546875
 23
147.0224609375
 14
223.210546875
 24
147.0224609375
100
AcDbRotatedDimension
  0
DIMENSION
  5
24E
100
AcDbEntity
  8
0
100
AcDbDimension
 62
7
  6
CONTINUOUS
  2
*D3
 10
233.210546875
 20
58.0224609375
 11
233.210546875
 21
100.6653180804
 70
160
 71
2
 72
2
 41
0.9
 42
90.0
  3
DIMSTYLE_1
100
AcDbAlignedDimension
 13
222.210546875
 23
148.0224609375
 14
222.210546875
 24
58.0224609375
 50
270.0
100
AcDbRotatedDimension
  0
LINE
  5
24F
100
AcDbEntity
  8
SMUSSO
100
AcDbLine
 62
7
  6
CONTINUOUS
 10
133.210546875
 20
147.0224609375
 11
134.210546875
 21
148.0224609375
  0
LINE
  5
250
100
AcDbEntity
  8
SMUSSO
100
AcDbLine
 62
7
  6
CONTINUOUS
 10
134.210546875
 20
58.0224609375
 11
133.210546875
 21
59.0224609375
  0
LINE
  5
251
100
AcDbEntity
  8
SMUSSO
100
AcDbLine
 62
7
  6
CONTINUOUS
 10
133.210546875
 20
147.0224609375
 11
133.210546875
 21
59.0224609375
  0
LINE
  5
252
100
AcDbEntity
  8
SMUSSO
100
AcDbLine
 62
7
  6
CONTINUOUS
 10
134.210546875
 20
147.0224609375
 11
134.210546875
 21
59.0224609375
  0
LINE
  5
253
100
AcDbEntity
  8
SMUSSO
100
AcDbLine
 62
7
  6
CONTINUOUS
 10
134.210546875
 20
58.0224609375
 11
222.210546875
 21
58.0224609375
  0
LINE
  5
254
100
AcDbEntity
  8
SMUSSO
100
AcDbLine
 62
7
  6
CONTINUOUS
 10
134.210546875
 20
59.0224609375
 11
222.210546875
 21
59.0224609375
  0
LWPOLYLINE
  5
255
100
AcDbEntity
  8
0
100
AcDbPolyline
 62
7
  6
CONTINUOUS
 90
10
 70
0
 43
0.3500000006
 10
176.2819716797
 20
158.7724627075
 10
177.1391096191
 20
159.629600647
 10
177.3534122314
 20
160.4867385864
 10
177.3534122314
 20
161.3438946533
 10
176.9248251343
 20
161.772463623
 10
176.2819716797
 20
161.772463623
 10
175.85340271
 20
161.3438946533
 10
175.85340271
 20
160.4867385864
 10
176.2819716797
 20
160.0581696167
 10
177.2105498657
 20
160.0581696167
  0
LINE
  5
256
100
AcDbEntity
  8
RACCORDO
100
AcDbLine
 62
7
  6
CONTINUOUS
 10
144.360546875
 20
124.4224609375
 11
144.360546875
 21
81.6224609375
  0
LWPOLYLINE
  5
257
100
AcDbEntity
  8
0
100
AcDbPolyline
 62
7
  6
CONTINUOUS
 90
6
 70
0
 10
182.015902008
 20
76.9987980465
 10
182.0213805216
 20
77.0002111156
 10
182.0269138524
 20
77.0020753123
 10
182.0325020002
 20
77.0043906364
 10
182.0381280908
 20
77.0072506531
 10
182.0438089984
 20
77.0105617973
  0
LWPOLYLINE
  5
258
100
AcDbEntity
  8
0
100
AcDbPolyline
 62
7
  6
CONTINUOUS
 90
10
 70
0
 10
181.2774670818
 20
77.7839996382
 10
181.3193263529
 20
77.7908762061
 10
181.3604575474
 20
77.7964054016
 10
181.4008606651
 20
77.8005872247
 10
181.4401950258
 20
77.8034377093
 10
181.4788013098
 20
77.8049408215
 10
181.5177015586
 20
77.8050484595
 10
181.5572364525
 20
77.8037445896
 10
181.5970653112
 20
77.8010452456
 10
181.6371881346
 20
77.7969504274
  0
LINE
  5
259
100
AcDbEntity
  8
0
100
AcDbLine
 62
7
  6
CONTINUOUS
 10
174.599690182
 20
75.9589453668
 11
175.0043497826
 21
75.9589453668
  0
LINE
  5
25A
100
AcDbEntity
  8
0
100
AcDbLine
 62
7
  6
CONTINUOUS
 10
175.8818637428
 20
75.9589453668
 11
176.3410519124
 21
75.9589453668
  0
LINE
  5
25B
100
AcDbEntity
  8
0
100
AcDbLine
 62
7
  6
CONTINUOUS
 10
176.588247044
 20
75.9589453668
 11
177.0275398812
 21
75.9589453668
  0
LINE
  5
25C
100
AcDbEntity
  8
0
100
AcDbLine
 62
7
  6
CONTINUOUS
 10
177.6653156617
 20
75.9589453668
 11
177.7297159445
 21
75.9589453668
  0
LINE
  5
25D
100
AcDbEntity
  8
0
100
AcDbLine
 62
7
  6
CONTINUOUS
 10
178.3700322011
 20
75.9589453668
 11
178.8192397045
 21
75.9589453668
  0
LINE
  5
25E
100
AcDbEntity
  8
0
100
AcDbLine
 62
7
  6
CONTINUOUS
 10
178.8913441774
 20
75.9589453668
 11
179.345549871
 21
75.9589453668
  0
LINE
  5
25F
100
AcDbEntity
  8
0
100
AcDbLine
 62
7
  6
CONTINUOUS
 10
180.2165486886
 20
75.9589453668
 11
180.7005130475
 21
75.9589453668
  0
LINE
  5
260
100
AcDbEntity
  8
0
100
AcDbLine
 62
7
  6
CONTINUOUS
 10
180.8353530068
 20
75.9589449501
 11
181.2926930544
 21
75.9589449501
  0
LINE
  5
261
100
AcDbEntity
  8
0
100
AcDbLine
 62
7
  6
CONTINUOUS
 10
181.9958756475
 20
75.9589449501
 11
182.4375608219
 21
75.9589449501
  0
LINE
  5
262
100
AcDbEntity
  8
0
100
AcDbLine
 62
7
  6
CONTINUOUS
 10
179.4722572938
 20
76.398106204
 11
180.097594694
 21
76.398106204
  0
LINE
  5
263
100
AcDbEntity
  8
0
100
AcDbLine
 62
7
  6
CONTINUOUS
 10
180.0058264124
 20
76.7379276171
 11
179.5661868134
 21
76.7379276171
  0
LINE
  5
264
100
AcDbEntity
  8
0
100
AcDbLine
 62
7
  6
CONTINUOUS
 10
181.2926930544
 20
76.8198310079
 11
181.5388985158
 21
76.8198310079
  0
LINE
  5
265
100
AcDbEntity
  8
0
100
AcDbLine
 62
7
  6
CONTINUOUS
 10
181.5398882865
 20
77.1801075424
 11
181.2774670818
 21
77.1801075424
  0
LWPOLYLINE
  5
266
100
AcDbEntity
  8
0
100
AcDbPolyline
 62
7
  6
CONTINUOUS
 90
16
 70
0
 10
181.5388985158
 20
76.8198310079
 10
181.5616133546
 20
76.8187904843
 10
181.5836495377
 20
76.8160390491
 10
181.6050070653
 20
76.8115767026
 10
181.6257614572
 20
76.8053751509
 10
181.6458371935
 20
76.7974626877
 10
181.6650077145
 20
76.7879241941
 10
181.6831908182
 20
76.7768240844
 10
181.7004687065
 20
76.7640979441
 10
181.7168614263
 20
76.7496374114
 10
181.7324376798
 20
76.7334062322
 10
181.7471287648
 20
76.7154406606
 10
181.7607486214
 20
76.6957410962
 10
181.7732352296
 20
76.6743076724
 10
181.7846506095
 20
76.6511402559
 10
181.7949947611
 20
76.6262388467
  0
LINE
  5
267
100
AcDbEntity
  8
0
100
AcDbLine
 62
7
  6
CONTINUOUS
 10
180.0255551735
 20
78.1587598382
 11
179.5813469079
 21
78.1587598382
  0
LINE
  5
268
100
AcDbEntity
  8
0
100
AcDbLine
 62
7
  6
CONTINUOUS
 10
178.6135323805
 20
78.1587598382
 11
178.1592114488
 21
78.1587598382
  0
LINE
  5
269
100
AcDbEntity
  8
0
100
AcDbLine
 62
7
  6
CONTINUOUS
 10
177.2456855855
 20
78.1587598382
 11
176.7868777016
 21
78.1587598382
  0
LINE
  5
26A
100
AcDbEntity
  8
0
100
AcDbLine
 62
7
  6
CONTINUOUS
 10
175.7114590838
 20
78.1587598382
 11
175.2525841523
 21
78.1587598382
  0
LINE
  5
26B
100
AcDbEntity
  8
0
100
AcDbLine
 62
7
  6
CONTINUOUS
 10
174.4011255243
 20
78.1587598382
 11
173.902305928
 21
78.1587598382
  0
LINE
  5
26C
100
AcDbEntity
  8
0
100
AcDbLine
 62
7
  6
CONTINUOUS
 10
176.3410519124
 20
78.1588918382
 11
175.8818637428
 21
78.1588918382
  0
LINE
  5
26D
100
AcDbEntity
  8
RACCORDO
100
AcDbLine
 62
7
  6
CONTINUOUS
 10
145.560546875
 20
80.4224609375
 11
210.860546875
 21
80.4224609375
  0
LWPOLYLINE
  5
26E
100
AcDbEntity
  8
0
100
AcDbPolyline
 62
7
  6
CONTINUOUS
 90
16
 70
0
 10
181.6371881346
 20
77.7969504274
 10
181.6675393057
 20
77.7916945926
 10
181.6962893347
 20
77.7842421096
 10
181.7234382218
 20
77.7745929785
 10
181.7491359488
 20
77.762614349
 10
181.7732325339
 20
77.7484390714
 10
181.7952780312
 20
77.7324656961
 10
181.8151230738
 20
77.7147733995
 10
181.8329170287
 20
77.6952830052
 10
181.848658051
 20
77.674155535
 10
181.8624715365
 20
77.6511288131
 10
181.8742320894
 20
77.6264650153
 10
181.8835616778
 20
77.60111169
 10
181.8903342911
 20
77.5753846866
 10
181.8946759399
 20
77.5489681557
 10
181.8965866242
 20
77.5218620972
  0
LWPOLYLINE
  5
26F
100
AcDbEntity
  8
0
100
AcDbPolyline
 62
7
  6
CONTINUOUS
 90
16
 70
0
 10
181.9685579762
 20
78.109898137
 10
181.9113477648
 20
78.1283232558
 10
181.8512810703
 20
78.1440497353
 10
181.7883578927
 20
78.1570775756
 10
181.7224341474
 20
78.1672758376
 10
181.6536539191
 20
78.1747754603
 10
181.5824494611
 20
78.1799692606
 10
181.5089450072
 20
78.1828915618
 10
181.4330163236
 20
78.1835080406
 10
181.3547229623
 20
78.1821085433
 10
181.2740873911
 20
78.1787488328
 10
181.1910871421
 20
78.1733731464
 10
181.1057143643
 20
78.1661040412
 10
181.0179664406
 20
78.1569823699
 10
180.9278459881
 20
78.14596728
 10
180.8353530068
 20
78.1330587714
  0
LINE
  5
270
100
AcDbEntity
  8
0
100
AcDbLine
 62
7
  6
CONTINUOUS
 10
177.1266331147
 20
77.3953829205
 11
177.6653156617
 21
75.9589453668
  0
LINE
  5
271
100
AcDbEntity
  8
0
100
AcDbLine
 62
7
  6
CONTINUOUS
 10
177.7000232792
 20
76.9374162747
 11
177.2456855855
 21
78.1587598382
  0
LINE
  5
272
100
AcDbEntity
  8
0
100
AcDbLine
 62
7
  6
CONTINUOUS
 10
173.902305928
 20
78.1587598382
 11
174.599690182
 21
75.9589453668
  0
LINE
  5
273
100
AcDbEntity
  8
0
100
AcDbLine
 62
7
  6
CONTINUOUS
 10
174.8204507434
 20
76.6445596213
 11
174.4011255243
 21
78.1587598382
  0
LWPOLYLINE
  5
274
100
AcDbEntity
  8
0
100
AcDbPolyline
 62
7
  6
CONTINUOUS
 90
5
 70
0
 10
181.7949947611
 20
76.6262388467
 10
181.8165974315
 20
76.5593475475
 10
181.8383206694
 20
76.4906682568
 10
181.8601644747
 20
76.4202009747
 10
181.8820504614
 20
76.3479792014
  0
LINE
  5
275
100
AcDbEntity
  8
0
100
AcDbLine
 62
7
  6
CONTINUOUS
 10
180.7005130475
 20
75.9589453668
 11
180.0255551735
 21
78.1587598382
  0
LINE
  5
276
100
AcDbEntity
  8
0
100
AcDbLine
 62
7
  6
CONTINUOUS
 10
181.8820504614
 20
76.3479792014
 11
181.949215687
 21
76.1202509288
  0
LINE
  5
277
100
AcDbEntity
  8
0
100
AcDbLine
 62
7
  6
CONTINUOUS
 10
181.949215687
 20
76.1202509288
 11
181.9958756475
 21
75.9589449501
  0
LINE
  5
278
100
AcDbEntity
  8
0
100
AcDbLine
 62
7
  6
CONTINUOUS
 10
180.097594694
 20
76.398106204
 11
180.2165486886
 21
75.9589453668
  0
LINE
  5
279
100
AcDbEntity
  8
0
100
AcDbLine
 62
7
  6
CONTINUOUS
 10
179.7948233744
 20
77.5543067228
 11
180.0058264124
 21
76.7379276171
  0
LINE
  5
27A
100
AcDbEntity
  8
0
100
AcDbLine
 62
7
  6
CONTINUOUS
 10
178.8192397045
 20
75.9589453668
 11
178.6135323805
 21
78.1587598382
  0
LINE
  5
27B
100
AcDbEntity
  8
0
100
AcDbLine
 62
7
  6
CONTINUOUS
 10
178.2756909673
 20
77.3893947303
 11
178.3700322011
 21
75.9589453668
  0
LINE
  5
27C
100
AcDbEntity
  8
0
100
AcDbLine
 62
7
  6
CONTINUOUS
 10
175.8818637428
 20
78.1588918382
 11
175.8818637428
 21
75.9589453668
  0
LINE
  5
27D
100
AcDbEntity
  8
0
100
AcDbLine
 62
7
  6
CONTINUOUS
 10
176.3410519124
 20
75.9589453668
 11
176.3410519124
 21
78.1588918382
  0
LWPOLYLINE
  5
27E
100
AcDbEntity
  8
0
100
AcDbPolyline
 62
7
  6
CONTINUOUS
 90
13
 70
0
 43
0.3500000006
 10
178.2105501709
 20
159.629600647
 10
178.2105501709
 20
160.9153256836
 10
178.4248346558
 20
161.3438946533
 10
178.8534036255
 20
161.772463623
 10
179.0676881104
 20
161.772463623
 10
179.4962570801
 20
161.3438946533
 10
179.7105415649
 20
160.9153256836
 10
179.7105415649
 20
159.629600647
 10
179.4962570801
 20
159.2010316772
 10
179.0676881104
 20
158.7724627075
 10
178.8534036255
 20
158.7724627075
 10
178.4248346558
 20
159.2010316772
 10
178.2105501709
 20
159.629600647
  0
LINE
  5
27F
100
AcDbEntity
  8
SMUSSO
100
AcDbLine
 62
7
  6
CONTINUOUS
 10
222.710546875
 20
147.5224609375
 11
222.210546875
 21
147.0224609375
  0
LINE
  5
280
100
AcDbEntity
  8
SMUSSO
100
AcDbLine
 62
7
  6
CONTINUOUS
 10
133.710546875
 20
58.5224609375
 11
134.210546875
 21
59.0224609375
  0
LWPOLYLINE
  5
281
100
AcDbEntity
  8
0
100
AcDbPolyline
 62
7
  6
CONTINUOUS
 90
13
 70
0
 43
0.3500000006
 10
231.6034061279
 20
103.0224592896
 10
230.3176810913
 20
103.0224592896
 10
229.8891121216
 20
103.2367437744
 10
229.4605431519
 20
103.6653218079
 10
229.4605431519
 20
103.8796062927
 10
229.8891121216
 20
104.3081752625
 10
230.3176810913
 20
104.5224597473
 10
231.6034061279
 20
104.5224597473
 10
232.0319750977
 20
104.3081752625
 10
232.4605440674
 20
103.8796062927
 10
232.4605440674
 20
103.6653218079
 10
232.0319750977
 20
103.2367437744
 10
231.6034061279
 20
103.0224592896
  0
LINE
  5
282
100
AcDbEntity
  8
SMUSSO
100
AcDbLine
 62
7
  6
CONTINUOUS
 10
222.710546875
 20
58.5224609375
 11
222.210546875
 21
59.0224609375
  0
LINE
  5
283
100
AcDbEntity
  8
SMUSSO
100
AcDbLine
 62
7
  6
CONTINUOUS
 10
134.210546875
 20
147.0224609375
 11
133.710546875
 21
147.5224609375
  0
LINE
  5
284
100
AcDbEntity
  8
0
100
AcDbLine
 62
7
  6
CONTINUOUS
 10
182.3345548769
 20
76.352037925
 11
182.2806158173
 21
76.5542217503
  0
LWPOLYLINE
  5
285
100
AcDbEntity
  8
0
100
AcDbPolyline
 62
7
  6
CONTINUOUS
 90
16
 70
0
 10
182.2806158173
 20
76.5542217503
 10
182.2695341645
 20
76.5968923133
 10
182.2577477282
 20
76.6380026748
 10
182.2452565084
 20
76.6775528347
 10
182.2322291353
 20
76.7157093375
 10
182.2184969788
 20
76.7523056389
 10
182.2035541482
 20
76.7868421056
 10
182.1872711439
 20
76.8193408755
 10
182.1697774655
 20
76.8497798109
 10
182.1509557215
 20
76.8775928657
 10
182.1305445252
 20
76.9026801193
 10
182.1088052633
 20
76.9251414923
 10
182.0864047037
 20
76.9447107011
 10
182.0635651027
 20
76.9612989844
 10
182.0400642041
 20
76.9749951033
 10
182.015902008
 20
76.985799058
  0
LINE
  5
286
100
AcDbEntity
  8
0
100
AcDbLine
 62
7
  6
CONTINUOUS
 10
182.4375608219
 20
75.9589449501
 11
182.3345548769
 21
76.352037925
  0
LINE
  5
287
100
AcDbEntity
  8
0
100
AcDbLine
 62
7
  6
CONTINUOUS
 10
180.8353530068
 20
78.1330587714
 11
180.8353530068
 21
75.9589449501
  0
LINE
  5
288
100
AcDbEntity
  8
0
100
AcDbLine
 62
7
  6
CONTINUOUS
 10
181.2774670818
 20
77.1801075424
 11
181.2774670818
 21
77.7839996382
  0
LINE
  5
289
100
AcDbEntity
  8
0
100
AcDbLine
 62
7
  6
CONTINUOUS
 10
181.2926930544
 20
75.9589449501
 11
181.2926930544
 21
76.8198310079
  0
LINE
  5
28A
100
AcDbEntity
  8
0
100
AcDbLine
 62
7
  6
CONTINUOUS
 10
182.015902008
 20
76.985799058
 11
182.015902008
 21
76.9987980465
  0
LWPOLYLINE
  5
28B
100
AcDbEntity
  8
0
100
AcDbPolyline
 62
7
  6
CONTINUOUS
 90
19
 70
0
 10
181.8965866242
 20
77.5218620972
 10
181.8960487637
 20
77.4855632174
 10
181.8929996447
 20
77.451252675
 10
181.8874392672
 20
77.4189304698
 10
181.8792843957
 20
77.388563751
 10
181.8686182656
 20
77.3601853694
 10
181.8556905837
 20
77.3338938784
 10
181.8405020272
 20
77.3097054739
 10
181.8230519188
 20
77.28760396
 10
181.8035879327
 20
77.267639302
 10
181.7822116798
 20
77.2498770999
 10
181.7588215494
 20
77.2342517538
 10
181.7333603828
 20
77.2206164285
 10
181.7057016839
 20
77.2089293532
 10
181.6759719489
 20
77.1992322987
 10
181.6444935086
 20
77.1915037426
 10
181.6113738065
 20
77.1857365108
 10
181.5765053992
 20
77.1819377774
 10
181.5398882865
 20
77.1801075424
  0
LINE
  5
28C
100
AcDbEntity
  8
0
100
AcDbLine
 62
7
  6
CONTINUOUS
 10
177.0275398812
 20
75.9589453668
 11
177.1266331147
 21
77.3953829205
  0
LINE
  5
28D
100
AcDbEntity
  8
0
100
AcDbLine
 62
7
  6
CONTINUOUS
 10
176.7868777016
 20
78.1587598382
 11
176.588247044
 21
75.9589453668
  0
LINE
  5
28E
100
AcDbEntity
  8
0
100
AcDbLine
 62
7
  6
CONTINUOUS
 10
175.2525841523
 20
78.1587598382
 11
174.8204507434
 21
76.6445596213
  0
LINE
  5
28F
100
AcDbEntity
  8
0
100
AcDbLine
 62
7
  6
CONTINUOUS
 10
179.5661868134
 20
76.7379276171
 11
179.7948233744
 21
77.5543067228
  0
LINE
  5
290
100
AcDbEntity
  8
0
100
AcDbLine
 62
7
  6
CONTINUOUS
 10
179.345549871
 20
75.9589453668
 11
179.4722572938
 21
76.398106204
  0
LINE
  5
291
100
AcDbEntity
  8
0
100
AcDbLine
 62
7
  6
CONTINUOUS
 10
179.5813469079
 20
78.1587598382
 11
178.8913441774
 21
75.9589453668
  0
LINE
  5
292
100
AcDbEntity
  8
0
100
AcDbLine
 62
7
  6
CONTINUOUS
 10
175.0043497826
 20
75.9589453668
 11
175.7114590838
 21
78.1587598382
  0
LINE
  5
293
100
AcDbEntity
  8
0
100
AcDbLine
 62
7
  6
CONTINUOUS
 10
178.1592114488
 20
78.1587598382
 11
177.7000232792
 21
76.9374162747
  0
LINE
  5
294
100
AcDbEntity
  8
0
100
AcDbLine
 62
7
  6
CONTINUOUS
 10
177.7297159445
 20
75.9589453668
 11
178.2756909673
 21
77.3893947303
  0
LWPOLYLINE
  5
295
100
AcDbEntity
  8
0
100
AcDbPolyline
 62
7
  6
CONTINUOUS
 90
67
 70
0
 10
182.0438089984
 20
77.0105617973
 10
182.0555034551
 20
77.0175886539
 10
182.0615170041
 20
77.0213043662
 10
182.0676376565
 20
77.0252300061
 10
182.0738680378
 20
77.0293614672
 10
182.0802055225
 20
77.0337028558
 10
182.086643897
 20
77.0383059857
 10
182.0931860466
 20
77.0431833338
 10
182.099829086
 20
77.0483224232
 10
182.1065581456
 20
77.0537376366
 10
182.113370171
 20
77.0594298015
 10
182.1202682166
 20
77.0653980905
 10
182.1272465763
 20
77.0716544042
 10
182.134310262
 20
77.0781972058
 10
182.1414542618
 20
77.0850280322
 10
182.1486578337
 20
77.0921633946
 10
182.1559192379
 20
77.0995920229
 10
182.1632402143
 20
77.1073251871
 10
182.1706052406
 20
77.1154132086
 10
182.1780184356
 20
77.123854892
 10
182.1854756804
 20
77.1326514327
 10
182.1929490958
 20
77.141856738
 10
182.2004398839
 20
77.1514660596
 10
182.2079468425
 20
77.1614841459
 10
182.2154384856
 20
77.1719791502
 10
182.222922134
 20
77.1829508011
 10
182.2303904668
 20
77.19439937
 10
182.2377900363
 20
77.2063938238
 10
182.2451286572
 20
77.2189344457
 10
182.2523985146
 20
77.2320209526
 10
182.2595227165
 20
77.2457214623
 10
182.2665097768
 20
77.2600367857
 10
182.2733511817
 20
77.274966112
 10
182.2799444974
 20
77.2905751267
 10
182.2862970916
 20
77.3068631546
 10
182.2924015966
 20
77.3238308708
 10
182.2981334758
 20
77.3415459866
 10
182.3034999374
 20
77.3600178692
 10
182.3084937733
 20
77.3792371514
 10
182.3129688222
 20
77.3992434416
 10
182.3169301711
 20
77.4200403687
 10
182.320372733
 20
77.441624304
 10
182.3231350871
 20
77.4640239694
 10
182.3252232798
 20
77.4872244165
 10
182.3266312646
 20
77.5112405938
 10
182.3271794808
 20
77.5361460696
 10
182.3269284594
 20
77.5619556994
 10
182.3258176694
 20
77.5886546277
 10
182.3234859571
 20
77.6162718556
 10
182.3200075954
 20
77.6448618549
 10
182.3153083114
 20
77.6743701539
 10
182.3088041338
 20
77.7046623385
 10
182.3005060569
 20
77.7358420947
 10
182.2904030862
 20
77.7678057366
 10
182.2778782676
 20
77.800107792
 10
182.2627621834
 20
77.8329702812
 10
182.2452242513
 20
77.8661711839
 10
182.2251557697
 20
77.8985989672
 10
182.2022142678
 20
77.9303133804
 10
182.1767422165
 20
77.9612546742
 10
182.149658327
 20
77.9901320684
 10
182.1207720151
 20
78.0167958526
 10
182.0902738649
 20
78.0413957373
 10
182.0596543396
 20
78.063090073
 10
182.0294102602
 20
78.08159831
 10
181.9990448058
 20
78.097200998
 10
181.9685579762
 20
78.109898137
  0
LINE
  5
296
100
AcDbEntity
  8
RACCORDO
100
AcDbLine
 62
7
  6
CONTINUOUS
 10
210.860546875
 20
125.6224609375
 11
145.560546875
 21
125.6224609375
  0
LINE
  5
297
100
AcDbEntity
  8
RACCORDO
100
AcDbLine
 62
7
  6
CONTINUOUS
 10
212.060546875
 20
81.6224609375
 11
212.060546875
 21
124.4224609375
  0
LWPOLYLINE
  5
298
100
AcDbEntity
  8
0
100
AcDbPolyline
 62
7
  6
CONTINUOUS
 90
10
 70
0
 43
0.3500000006
 10
232.4605440674
 20
101.0938898621
 10
231.6034061279
 20
101.9510368652
 10
230.7462681885
 20
102.1653213501
 10
229.8891121216
 20
102.1653213501
 10
229.4605431519
 20
101.7367433167
 10
229.4605431519
 20
101.0938898621
 10
229.8891121216
 20
100.6653208923
 10
230.7462681885
 20
100.6653208923
 10
231.1748371582
 20
101.0938898621
 10
231.1748371582
 20
102.0224589844
  0
LINE
  5
299
100
AcDbEntity
  8
SMUSSO
100
AcDbLine
 62
7
  6
CONTINUOUS
 10
222.210546875
 20
59.0224609375
 11
222.210546875
 21
147.0224609375
  0
LINE
  5
29A
100
AcDbEntity
  8
SMUSSO
100
AcDbLine
 62
7
  6
CONTINUOUS
 10
223.210546875
 20
59.0224609375
 11
223.210546875
 21
147.0224609375
  0
LINE
  5
29B
100
AcDbEntity
  8
SMUSSO
100
AcDbLine
 62
7
  6
CONTINUOUS
 10
222.210546875
 20
147.0224609375
 11
134.210546875
 21
147.0224609375
  0
LINE
  5
29C
100
AcDbEntity
  8
SMUSSO
100
AcDbLine
 62
7
  6
CONTINUOUS
 10
222.210546875
 20
148.0224609375
 11
134.210546875
 21
148.0224609375
  0
LINE
  5
29D
100
AcDbEntity
  8
SMUSSO
100
AcDbLine
 62
7
  6
CONTINUOUS
 10
223.210546875
 20
59.0224609375
 11
222.210546875
 21
58.0224609375
  0
LINE
  5
29E
100
AcDbEntity
  8
SMUSSO
100
AcDbLine
 62
7
  6
CONTINUOUS
 10
222.210546875
 20
148.0224609375
 11
223.210546875
 21
147.0224609375
  0
LINE
  5
29F
100
AcDbEntity
  8
SMUSSO
100
AcDbLine
 62
7
  6
CONTINUOUS
 10
90.4062744141
 20
58.0224609375
 11
91.9062744141
 21
58.0224609375
  0
LWPOLYLINE
  5
2A0
100
AcDbEntity
  8
0
100
AcDbPolyline
 62
7
  6
CONTINUOUS
 90
3
 70
0
 43
0.3500000006
 10
101.2572410889
 20
168.9153099976
 10
102.1143790283
 20
169.7724660645
 10
102.1143790283
 20
166.7724651489
  0
LINE
  5
2A1
100
AcDbEntity
  8
0
100
AcDbLine
 62
250
  6
CONTINUOUS
 10
95.4573180594
 20
59.6820542308
 11
96.9562744141
 21
59.9841506094
  0
LINE
  5
2A2
100
AcDbEntity
  8
0
100
AcDbLine
 62
7
  6
CONTINUOUS
 10
92.5562744141
 20
58.6718412492
 11
95.4562744141
 21
58.7224609375
  0
LINE
  5
2A3
100
AcDbEntity
  8
SMUSSO
100
AcDbLine
 62
7
  6
CONTINUOUS
 10
90.4062744141
 20
59.0224609375
 11
91.9062744141
 21
59.0224609375
  0
LINE
  5
2A4
100
AcDbEntity
  8
0
100
AcDbLine
 62
250
  6
CONTINUOUS
 10
92.5562744141
 20
59.7224609375
 11
95.4562744141
 21
59.7224609375
  0
LINE
  5
2A5
100
AcDbEntity
  8
RACCORDO
100
AcDbLine
 62
7
  6
CONTINUOUS
 10
92.5562744141
 20
62.0224609375
 11
92.4062744141
 21
62.0224609375
  0
LINE
  5
2A6
100
AcDbEntity
  8
RACCORDO
100
AcDbLine
 62
250
  6
CONTINUOUS
 10
92.5562744141
 20
64.0224609375
 11
92.4062744141
 21
64.0224609375
  0
LINE
  5
2A7
100
AcDbEntity
  8
SMUSSO
100
AcDbLine
 62
7
  6
CONTINUOUS
 10
90.4062744141
 20
148.0224609375
 11
89.4062744141
 21
147.0224609375
  0
LINE
  5
2A8
100
AcDbEntity
  8
SMUSSO
100
AcDbLine
 62
7
  6
CONTINUOUS
 10
91.9062744141
 20
147.0224609375
 11
92.4062744141
 21
147.5224609375
  0
LINE
  5
2A9
100
AcDbEntity
  8
SMUSSO
100
AcDbLine
 62
7
  6
CONTINUOUS
 10
89.4062744141
 20
59.0224609375
 11
90.4062744141
 21
58.0224609375
  0
LINE
  5
2AA
100
AcDbEntity
  8
SMUSSO
100
AcDbLine
 62
7
  6
CONTINUOUS
 10
92.4062744141
 20
58.5224609375
 11
91.9062744141
 21
59.0224609375
  0
LINE
  5
2AB
100
AcDbEntity
  8
0
100
AcDbLine
 62
7
  6
CONTINUOUS
 10
97.8821115744
 20
75.8723314988
 11
96.9562744141
 21
75.8707156065
  0
LINE
  5
2AC
100
AcDbEntity
  8
0
100
AcDbLine
 62
250
  6
CONTINUOUS
 10
97.8820469978
 20
76.0947816936
 11
96.9562744141
 21
76.0943634991
  0
LINE
  5
2AD
100
AcDbEntity
  8
0
100
AcDbLine
 62
7
  6
CONTINUOUS
 10
99.4063236463
 20
76.6808970772
 11
96.9562744141
 21
76.6666431077
  0
LINE
  5
2AE
100
AcDbEntity
  8
0
100
AcDbLine
 62
250
  6
CONTINUOUS
 10
99.4063236463
 20
76.7687635558
 11
96.9562744141
 21
76.7545095863
  0
LINE
  5
2AF
100
AcDbEntity
  8
0
100
AcDbLine
 62
7
  6
CONTINUOUS
 10
97.9063987929
 20
77.8224609375
 11
96.9562744141
 21
77.8224609375
  0
LINE
  5
2B0
100
AcDbEntity
  8
0
100
AcDbLine
 62
7
  6
CONTINUOUS
 10
96.9562744141
 20
77.9724609375
 11
97.1062744141
 21
77.9724609375
  0
LINE
  5
2B1
100
AcDbEntity
  8
0
100
AcDbLine
 62
7
  6
CONTINUOUS
 10
97.4062744141
 20
77.9724609375
 11
97.6062744141
 21
77.9724609375
  0
LINE
  5
2B2
100
AcDbEntity
  8
0
100
AcDbLine
 62
7
  6
CONTINUOUS
 10
96.9562744141
 20
77.266641063
 11
99.7667416053
 21
77.1424742698
  0
LINE
  5
2B3
100
AcDbEntity
  8
0
100
AcDbLine
 62
7
  6
CONTINUOUS
 10
98.005902512
 20
77.8174981277
 11
99.9562744141
 21
77.6224609375
  0
LWPOLYLINE
  5
2B4
100
AcDbEntity
  8
0
100
AcDbPolyline
 62
250
  6
CONTINUOUS
 90
4
 70
0
 10
99.4589047079
 20
129.3165669805
 10
99.4417253291
 20
129.3054645616
 10
99.4241410518
 20
129.2919557269
 10
99.4063236463
 20
129.2761583192
  0
LWPOLYLINE
  5
2B5
100
AcDbEntity
  8
0
100
AcDbPolyline
 62
250
  6
CONTINUOUS
 90
4
 70
0
 10
99.4588060028
 20
76.7284124833
 10
99.4416231686
 20
76.7395296615
 10
99.4240715691
 20
76.7530236742
 10
99.4063236463
 20
76.7687635558
  0
LINE
  5
2B6
100
AcDbEntity
  8
0
100
AcDbLine
 62
7
  6
CONTINUOUS
 10
97.1062744141
 20
128.0724609375
 11
97.2562744141
 21
128.2224609375
  0
LINE
  5
2B7
100
AcDbEntity
  8
0
100
AcDbLine
 62
7
  6
CONTINUOUS
 10
97.6062744141
 20
128.0724609375
 11
97.7562744141
 21
128.2224609375
  0
LINE
  5
2B8
100
AcDbEntity
  8
0
100
AcDbLine
 62
7
  6
CONTINUOUS
 10
97.1062744141
 20
77.9724609375
 11
97.2562744141
 21
77.8224609375
  0
LINE
  5
2B9
100
AcDbEntity
  8
0
100
AcDbLine
 62
7
  6
CONTINUOUS
 10
97.6062744141
 20
77.9724609375
 11
97.7562744141
 21
77.8224609375
  0
LWPOLYLINE
  5
2BA
100
AcDbEntity
  8
0
100
AcDbPolyline
 62
250
  6
CONTINUOUS
 90
9
 70
0
 10
97.9761346749
 20
75.9479550838
 10
97.9834048304
 20
75.9387432834
 10
97.9904625016
 20
75.9303258679
 10
97.99722442
 20
75.9228746883
 10
98.0035623119
 20
75.9166084781
 10
98.0093478132
 20
75.9117347681
 10
98.0144591081
 20
75.9084527465
 10
98.0187783984
 20
75.9069582416
 10
98.0221806477
 20
75.9074451414
  0
LWPOLYLINE
  5
2BB
100
AcDbEntity
  8
0
100
AcDbPolyline
 62
7
  6
CONTINUOUS
 90
3
 70
0
 43
0.3500000006
 10
106.0429490662
 20
167.0581717529
 10
105.971526947
 20
166.8438872681
 10
105.8286645813
 20
166.5581806641
  0
LWPOLYLINE
  5
2BC
100
AcDbEntity
  8
0
100
AcDbPolyline
 62
250
  6
CONTINUOUS
 90
19
 70
0
 10
97.8820469978
 20
129.9501401814
 10
97.8899890548
 20
129.9639279157
 10
97.8982895064
 20
129.978108685
 10
97.9069149188
 20
129.9925889802
 10
97.9158335665
 20
130.0072818488
 10
97.9249842252
 20
130.0220401851
 10
97.934277783
 20
130.0366644631
 10
97.9436411699
 20
130.0509943438
 10
97.9530035454
 20
130.0648832584
 10
97.962268648
 20
130.0781425986
 10
97.9713723116
 20
130.090629315
 10
97.9801786053
 20
130.1021012637
 10
97.9884919927
 20
130.1122565131
 10
97.9962372099
 20
130.1209560516
 10
98.0032961511
 20
130.1280231378
 10
98.0094694144
 20
130.1332420576
 10
98.0146806053
 20
130.1365578256
 10
98.0189288444
 20
130.1379745014
 10
98.0221806477
 20
130.1374767336
  0
LWPOLYLINE
  5
2BD
100
AcDbEntity
  8
0
100
AcDbPolyline
 62
250
  6
CONTINUOUS
 90
14
 70
0
 10
97.8820469978
 20
76.0947816936
 10
97.888808918
 20
76.0830078146
 10
97.895677529
 20
76.0712115271
 10
97.9026359293
 20
76.0594315754
 10
97.9096275913
 20
76.047769471
 10
97.9166709169
 20
76.0362058094
 10
97.9238551168
 20
76.0246171628
 10
97.931165918
 20
76.0130502115
 10
97.9385549446
 20
76.0016010223
 10
97.94604665
 20
75.9902576519
 10
97.953602267
 20
75.9791101911
 10
97.9611607096
 20
75.9682822684
 10
97.9686962189
 20
75.9578486565
 10
97.9761346749
 20
75.9479550838
  0
LWPOLYLINE
  5
2BE
100
AcDbEntity
  8
0
100
AcDbPolyline
 62
7
  6
CONTINUOUS
 90
3
 70
0
 43
0.3500000006
 10
104.9118511047
 20
159.0581693115
 10
104.8404199219
 20
158.8438848267
 10
104.6975666199
 20
158.5581782227
  0
LWPOLYLINE
  5
2BF
100
AcDbEntity
  8
0
100
AcDbPolyline
 62
7
  6
CONTINUOUS
 90
7
 70
0
 10
99.928415499
 20
77.04589922
 10
99.9366857398
 20
77.0318466418
 10
99.9435970143
 20
77.0187647564
 10
99.9490727518
 20
77.006653564
 10
99.9530462342
 20
76.9955130645
 10
99.9554615371
 20
76.9853432579
 10
99.9562744141
 20
76.9761441443
  0
LINE
  5
2C0
100
AcDbEntity
  8
SMUSSO
100
AcDbLine
 62
7
  6
CONTINUOUS
 10
89.4062744141
 20
59.0224609375
 11
89.4062744141
 21
147.0224609375
  0
LINE
  5
2C1
100
AcDbEntity
  8
SMUSSO
100
AcDbLine
 62
7
  6
CONTINUOUS
 10
90.4062744141
 20
59.0224609375
 11
90.4062744141
 21
147.0224609375
  0
LINE
  5
2C2
100
AcDbEntity
  8
SMUSSO
100
AcDbLine
 62
7
  6
CONTINUOUS
 10
91.9062744141
 20
147.0224609375
 11
91.9062744141
 21
59.0224609375
  0
LINE
  5
2C3
100
AcDbEntity
  8
0
100
AcDbLine
 62
7
  6
CONTINUOUS
 10
95.464142651
 20
59.5412816894
 11
95.4573180594
 21
59.6820542308
  0
LINE
  5
2C4
100
AcDbEntity
  8
SMUSSO
100
AcDbLine
 62
7
  6
CONTINUOUS
 10
92.4062744141
 20
147.5224609375
 11
92.4062744141
 21
58.5224609375
  0
LINE
  5
2C5
100
AcDbEntity
  8
0
100
AcDbLine
 62
7
  6
CONTINUOUS
 10
92.5562744141
 20
58.6718412492
 11
92.5562744141
 21
147.3730806258
  0
LWPOLYLINE
  5
2C6
100
AcDbEntity
  8
0
100
AcDbPolyline
 62
7
  6
CONTINUOUS
 90
17
 70
0
 10
95.4720434547
 20
146.7077381603
 10
95.4739930962
 20
146.7722516598
 10
95.4755567952
 20
146.8341646453
 10
95.4767467442
 20
146.893378471
 10
95.4775423336
 20
146.9499101623
 10
95.4779366932
 20
147.0036401624
 10
95.4779366931
 20
147.0540611094
 10
95.4775423332
 20
147.1006416238
 10
95.4767467436
 20
147.1430330832
 10
95.4755567942
 20
147.1812311748
 10
95.473993095
 20
147.2152486384
 10
95.4720434536
 20
147.2449635475
 10
95.4697200625
 20
147.2700858452
 10
95.4670801088
 20
147.2903895039
 10
95.4641426549
 20
147.3057713618
 10
95.4608886384
 20
147.3161959411
 10
95.4573180594
 20
147.3216260213
  0
LINE
  5
2C7
100
AcDbEntity
  8
0
100
AcDbLine
 62
7
  6
CONTINUOUS
 10
95.4670801093
 20
146.5729346958
 11
95.4720434547
 21
146.7077381603
  0
LWPOLYLINE
  5
2C8
100
AcDbEntity
  8
0
100
AcDbPolyline
 62
7
  6
CONTINUOUS
 90
3
 70
0
 10
95.4573180594
 20
146.3628676442
 10
95.4608886386
 20
146.4334999683
 10
95.4670801093
 20
146.5729346958
  0
LINE
  5
2C9
100
AcDbEntity
  8
0
100
AcDbLine
 62
7
  6
CONTINUOUS
 10
95.4562744141
 20
146.3224609375
 11
95.4562744141
 21
59.7224609375
  0
LINE
  5
2CA
100
AcDbEntity
  8
0
100
AcDbLine
 62
7
  6
CONTINUOUS
 10
96.9562744141
 20
146.1224609375
 11
96.9562744141
 21
59.9224609375
  0
LINE
  5
2CB
100
AcDbEntity
  8
0
100
AcDbLine
 62
250
  6
CONTINUOUS
 10
97.8821117363
 20
75.8726832817
 11
97.8820469978
 21
76.0947816936
  0
LINE
  5
2CC
100
AcDbEntity
  8
0
100
AcDbLine
 62
250
  6
CONTINUOUS
 10
97.8820469978
 20
129.9501401814
 11
97.8821116137
 21
130.1722368222
  0
LWPOLYLINE
  5
2CD
100
AcDbEntity
  8
0
100
AcDbPolyline
 62
7
  6
CONTINUOUS
 90
7
 70
0
 10
99.9562744141
 20
129.0687777307
 10
99.9554616864
 20
129.0595796795
 10
99.9530467086
 20
129.0494105104
 10
99.949073545
 20
129.0382702234
 10
99.9435979432
 20
129.0261588185
 10
99.9366864551
 20
129.0130762957
 10
99.928415499
 20
128.999022655
  0
LWPOLYLINE
  5
2CE
100
AcDbEntity
  8
0
100
AcDbPolyline
 62
250
  6
CONTINUOUS
 90
3
 70
0
 10
99.4064226667
 20
129.3594662234
 10
99.4063800127
 20
129.3628828069
 10
99.4063236463
 20
129.3640247978
  0
LINE
  5
2CF
100
AcDbEntity
  8
0
100
AcDbLine
 62
250
  6
CONTINUOUS
 10
99.4064656452
 20
129.3459299846
 11
99.4064226667
 21
129.3594662234
  0
LINE
  5
2D0
100
AcDbEntity
  8
0
100
AcDbLine
 62
250
  6
CONTINUOUS
 10
99.4064656452
 20
76.6989918904
 11
99.4063236463
 21
76.7687635558
  0
LINE
  5
2D1
100
AcDbEntity
  8
0
100
AcDbLine
 62
250
  6
CONTINUOUS
 10
99.7667416053
 20
128.9024476052
 11
99.7667416053
 21
128.4035076566
  0
LINE
  5
2D2
100
AcDbEntity
  8
0
100
AcDbLine
 62
250
  6
CONTINUOUS
 10
99.7667416053
 20
77.6414142184
 11
99.7667416053
 21
77.1424742698
  0
LINE
  5
2D3
100
AcDbEntity
  8
0
100
AcDbLine
 62
7
  6
CONTINUOUS
 10
99.9562744141
 20
129.1108252779
 11
99.9562744141
 21
128.4224609375
  0
LINE
  5
2D4
100
AcDbEntity
  8
0
100
AcDbLine
 62
7
  6
CONTINUOUS
 10
99.9562744141
 20
77.6224609375
 11
99.9562744141
 21
76.9340965971
  0
LINE
  5
2D5
100
AcDbEntity
  8
0
100
AcDbLine
 62
250
  6
CONTINUOUS
 10
99.4063236463
 20
129.2761583192
 11
99.4064656452
 21
129.3459299846
  0
LWPOLYLINE
  5
2D6
100
AcDbEntity
  8
0
100
AcDbPolyline
 62
250
  6
CONTINUOUS
 90
4
 70
0
 10
99.4063236463
 20
76.6808970772
 10
99.4063800127
 20
76.6820390681
 10
99.4064226667
 20
76.6854556516
 10
99.4064656452
 20
76.6989918904
  0
LWPOLYLINE
  5
2D7
100
AcDbEntity
  8
0
100
AcDbPolyline
 62
7
  6
CONTINUOUS
 90
4
 70
0
 43
0.3500000006
 10
101.8404190063
 20
161.1296101685
 10
101.8404190063
 20
161.772463623
 10
103.3404194641
 20
161.772463623
 10
102.4832724609
 20
158.7724627075
  0
LWPOLYLINE
  5
2D8
100
AcDbEntity
  8
0
100
AcDbPolyline
 62
7
  6
CONTINUOUS
 90
13
 70
0
 43
0.3500000006
 10
102.9715260315
 20
167.6296030884
 10
102.9715260315
 20
168.9153099976
 10
103.1858105164
 20
169.3438970947
 10
103.6143794861
 20
169.7724660645
 10
103.8286639709
 20
169.7724660645
 10
104.2572420044
 20
169.3438970947
 10
104.4715264893
 20
168.9153099976
 10
104.4715264893
 20
167.6296030884
 10
104.2572420044
 20
167.2010341187
 10
103.8286639709
 20
166.7724651489
 10
103.6143794861
 20
166.7724651489
 10
103.1858105164
 20
167.2010341187
 10
102.9715260315
 20
167.6296030884
  0
LINE
  5
2D9
100
AcDbEntity
  8
0
100
AcDbLine
 62
7
  6
CONTINUOUS
 10
97.2562744141
 20
77.8224609375
 11
97.4062744141
 21
77.9724609375
  0
LINE
  5
2DA
100
AcDbEntity
  8
0
100
AcDbLine
 62
7
  6
CONTINUOUS
 10
97.2562744141
 20
128.2224609375
 11
97.4062744141
 21
128.0724609375
  0
LWPOLYLINE
  5
2DB
100
AcDbEntity
  8
0
100
AcDbPolyline
 62
7
  6
CONTINUOUS
 90
19
 70
0
 10
95.4573180594
 20
58.7232958537
 10
95.4608886366
 20
58.7287259314
 10
95.4641426511
 20
58.7391504998
 10
95.4670801028
 20
58.7545323332
 10
95.4697200534
 20
58.7748359377
 10
95.4720434413
 20
58.7999581526
 10
95.4739930814
 20
58.82967299
 10
95.4755567833
 20
58.863690428
 10
95.4767467375
 20
58.9018885377
 10
95.4775423306
 20
58.9442800569
 10
95.4779366916
 20
58.9908606968
 10
95.4779366915
 20
59.0412818269
 10
95.4775423304
 20
59.0950119978
 10
95.4767467372
 20
59.1515438203
 10
95.4755567828
 20
59.210757746
 10
95.4739930808
 20
59.2726707664
 10
95.4720434408
 20
59.3371841844
 10
95.4697200531
 20
59.4038114133
 10
95.464142651
 20
59.5412816894
  0
LINE
  5
2DC
100
AcDbEntity
  8
0
100
AcDbLine
 62
250
  6
CONTINUOUS
 10
97.8820469978
 20
76.0947816936
 11
98.9815658577
 21
76.6784259086
  0
LINE
  5
2DD
100
AcDbEntity
  8
0
100
AcDbLine
 62
250
  6
CONTINUOUS
 10
99.4063236463
 20
76.7687635558
 11
99.928415499
 21
77.04589922
  0
LINE
  5
2DE
100
AcDbEntity
  8
0
100
AcDbLine
 62
7
  6
CONTINUOUS
 10
98.0212863758
 20
75.9069704459
 11
99.9562744141
 21
76.9340965971
  0
LWPOLYLINE
  5
2DF
100
AcDbEntity
  8
0
100
AcDbPolyline
 62
250
  6
CONTINUOUS
 90
7
 70
0
 10
99.5452355753
 20
76.7159098528
 10
99.533541934
 20
76.7113734576
 10
99.5205823448
 20
76.7094888318
 10
99.5064850176
 20
76.7102728293
 10
99.4913916341
 20
76.713715317
 10
99.4754489288
 20
76.719780724
 10
99.4588060028
 20
76.7284124833
  0
LINE
  5
2E0
100
AcDbEntity
  8
0
100
AcDbLine
 62
7
  6
CONTINUOUS
 10
98.005902512
 20
128.2274237473
 11
99.9562744141
 21
128.4224609375
  0
LINE
  5
2E1
100
AcDbEntity
  8
0
100
AcDbLine
 62
7
  6
CONTINUOUS
 10
96.9562744141
 20
128.778280812
 11
99.7667416053
 21
128.9024476052
  0
LINE
  5
2E2
100
AcDbEntity
  8
0
100
AcDbLine
 62
7
  6
CONTINUOUS
 10
96.9562744141
 20
128.0724609375
 11
97.1062744141
 21
128.0724609375
  0
LINE
  5
2E3
100
AcDbEntity
  8
0
100
AcDbLine
 62
7
  6
CONTINUOUS
 10
97.4062744141
 20
128.0724609375
 11
97.6062744141
 21
128.0724609375
  0
LINE
  5
2E4
100
AcDbEntity
  8
0
100
AcDbLine
 62
7
  6
CONTINUOUS
 10
96.9562744141
 20
128.2224609375
 11
97.9063987929
 21
128.2224609375
  0
LINE
  5
2E5
100
AcDbEntity
  8
0
100
AcDbLine
 62
250
  6
CONTINUOUS
 10
97.8820469978
 20
129.9501401814
 11
96.9562744141
 21
129.9505583759
  0
LINE
  5
2E6
100
AcDbEntity
  8
0
100
AcDbLine
 62
7
  6
CONTINUOUS
 10
97.8821115744
 20
130.1725903762
 11
96.9562744141
 21
130.1742062685
  0
LINE
  5
2E7
100
AcDbEntity
  8
0
100
AcDbLine
 62
250
  6
CONTINUOUS
 10
99.4063236463
 20
129.2761583192
 11
96.9562744141
 21
129.2904122887
  0
LINE
  5
2E8
100
AcDbEntity
  8
0
100
AcDbLine
 62
7
  6
CONTINUOUS
 10
99.4063236463
 20
129.3640247978
 11
96.9562744141
 21
129.3782787673
  0
LWPOLYLINE
  5
2E9
100
AcDbEntity
  8
0
100
AcDbPolyline
 62
250
  6
CONTINUOUS
 90
7
 70
0
 10
99.5452355753
 20
129.3290120222
 10
99.5334910185
 20
129.3335616519
 10
99.5204981786
 20
129.3354364128
 10
99.50639349
 20
129.3346357413
 10
99.491346139
 20
129.3311926097
 10
99.4754888558
 20
129.3251591519
 10
99.4589047079
 20
129.3165669805
  0
LINE
  5
2EA
100
AcDbEntity
  8
0
100
AcDbLine
 62
250
  6
CONTINUOUS
 10
98.9815658577
 20
129.3664959664
 11
97.8820469978
 21
129.9501401814
  0
LINE
  5
2EB
100
AcDbEntity
  8
0
100
AcDbLine
 62
250
  6
CONTINUOUS
 10
99.928415499
 20
128.999022655
 11
99.4063236463
 21
129.2761583192
  0
LINE
  5
2EC
100
AcDbEntity
  8
0
100
AcDbLine
 62
7
  6
CONTINUOUS
 10
98.0212863758
 20
130.1379514291
 11
99.9562744141
 21
129.1108252779
  0
LINE
  5
2ED
100
AcDbEntity
  8
SMUSSO
100
AcDbLine
 62
7
  6
CONTINUOUS
 10
90.4062744141
 20
59.0224609375
 11
89.9062744141
 21
58.5224609375
  0
LINE
  5
2EE
100
AcDbEntity
  8
SMUSSO
100
AcDbLine
 62
7
  6
CONTINUOUS
 10
91.9062744141
 20
58.0224609375
 11
92.4062744141
 21
58.5224609375
  0
LINE
  5
2EF
100
AcDbEntity
  8
SMUSSO
100
AcDbLine
 62
7
  6
CONTINUOUS
 10
89.9062744141
 20
147.5224609375
 11
90.4062744141
 21
147.0224609375
  0
LINE
  5
2F0
100
AcDbEntity
  8
SMUSSO
100
AcDbLine
 62
7
  6
CONTINUOUS
 10
92.4062744141
 20
147.5224609375
 11
91.9062744141
 21
148.0224609375
  0
LINE
  5
2F1
100
AcDbEntity
  8
0
100
AcDbLine
 62
7
  6
CONTINUOUS
 10
95.4573180594
 20
58.7232958537
 11
96.9562744141
 21
59.9224609375
  0
LINE
  5
2F2
100
AcDbEntity
  8
0
100
AcDbLine
 62
7
  6
CONTINUOUS
 10
95.4573180594
 20
147.3216260213
 11
96.9562744141
 21
146.1224609375
  0
LWPOLYLINE
  5
2F3
100
AcDbEntity
  8
0
100
AcDbPolyline
 62
7
  6
CONTINUOUS
 90
10
 70
0
 43
0.3500000006
 10
104.8404199219
 20
159.2724537964
 10
104.9118511047
 20
159.1296095581
 10
104.9118511047
 20
159.0581693115
 10
104.768988739
 20
158.9153250732
 10
104.6975666199
 20
158.9153250732
 10
104.626135437
 20
158.9867471924
 10
104.626135437
 20
159.0581693115
 10
104.6975666199
 20
159.2010316772
 10
104.768988739
 20
159.2724537964
 10
104.8404199219
 20
159.2724537964
  0
LINE
  5
2F4
100
AcDbEntity
  8
RACCORDO
100
AcDbLine
 62
250
  6
CONTINUOUS
 10
92.5562744141
 20
140.0224609375
 11
92.4062744141
 21
140.0224609375
  0
LINE
  5
2F5
100
AcDbEntity
  8
RACCORDO
100
AcDbLine
 62
7
  6
CONTINUOUS
 10
92.5562744141
 20
142.0224609375
 11
92.4062744141
 21
142.0224609375
  0
LWPOLYLINE
  5
2F6
100
AcDbEntity
  8
0
100
AcDbPolyline
 62
7
  6
CONTINUOUS
 90
10
 70
0
 43
0.3500000006
 10
105.971526947
 20
167.2724562378
 10
106.0429490662
 20
167.1296119995
 10
106.0429490662
 20
167.0581717529
 10
105.9000957642
 20
166.9153093872
 10
105.8286645813
 20
166.9153093872
 10
105.7572424622
 20
166.9867496338
 10
105.7572424622
 20
167.0581717529
 10
105.8286645813
 20
167.2010341187
 10
105.9000957642
 20
167.2724562378
 10
105.971526947
 20
167.2724562378
  0
LINE
  5
2F7
100
AcDbEntity
  8
0
100
AcDbLine
 62
250
  6
CONTINUOUS
 10
92.5562744141
 20
146.3224609375
 11
95.4562744141
 21
146.3224609375
  0
LINE
  5
2F8
100
AcDbEntity
  8
SMUSSO
100
AcDbLine
 62
7
  6
CONTINUOUS
 10
90.4062744141
 20
147.0224609375
 11
91.9062744141
 21
147.0224609375
  0
LINE
  5
2F9
100
AcDbEntity
  8
SMUSSO
100
AcDbLine
 62
7
  6
CONTINUOUS
 10
90.4062744141
 20
148.0224609375
 11
91.9062744141
 21
148.0224609375
  0
LWPOLYLINE
  5
2FA
100
AcDbEntity
  8
0
100
AcDbPolyline
 62
7
  6
CONTINUOUS
 90
8
 70
0
 43
0.3500000006
 10
105.9118514099
 20
158.7724627075
 10
106.7689893494
 20
158.7724627075
 10
107.1975583191
 20
159.2010316772
 10
107.1975583191
 20
160.0581696167
 10
106.7689893494
 20
160.4867385864
 10
105.9118514099
 20
160.4867385864
 10
105.9118514099
 20
161.772463623
 10
107.1975583191
 20
161.772463623
  0
LWPOLYLINE
  5
2FB
100
AcDbEntity
  8
0
100
AcDbPolyline
 62
7
  6
CONTINUOUS
 90
8
 70
0
 43
0.3500000006
 10
108.0547053223
 20
158.7724627075
 10
108.9118523254
 20
158.7724627075
 10
109.3404212952
 20
159.2010316772
 10
109.3404212952
 20
160.0581696167
 10
108.9118523254
 20
160.4867385864
 10
108.0547053223
 20
160.4867385864
 10
108.0547053223
 20
161.772463623
 10
109.3404212952
 20
161.772463623
  0
LWPOLYLINE
  5
2FC
100
AcDbEntity
  8
0
100
AcDbPolyline
 62
7
  6
CONTINUOUS
 90
8
 70
0
 43
0.3500000006
 10
107.0429493713
 20
166.7724651489
 10
107.9000963745
 20
166.7724651489
 10
108.3286653442
 20
167.2010341187
 10
108.3286653442
 20
168.0581720581
 10
107.9000963745
 20
168.4867410278
 10
107.0429493713
 20
168.4867410278
 10
107.0429493713
 20
169.7724660645
 10
108.3286653442
 20
169.7724660645
  0
LWPOLYLINE
  5
2FD
100
AcDbEntity
  8
0
100
AcDbPolyline
 62
7
  6
CONTINUOUS
 90
8
 70
0
 43
0.3500000006
 10
109.1858123474
 20
166.7724651489
 10
110.0429502869
 20
166.7724651489
 10
110.4715283203
 20
167.2010341187
 10
110.4715283203
 20
168.0581720581
 10
110.0429502869
 20
168.4867410278
 10
109.1858123474
 20
168.4867410278
 10
109.1858123474
 20
169.7724660645
 10
110.4715283203
 20
169.7724660645
  0
LINE
  5
2FE
100
AcDbEntity
  8
0
100
AcDbLine
 62
7
  6
CONTINUOUS
 10
92.5562744141
 20
147.3730806258
 11
95.4562744141
 21
147.3224609375
  0
LINE
  5
2FF
100
AcDbEntity
  8
0
100
AcDbLine
 62
250
  6
CONTINUOUS
 10
95.4573180594
 20
146.3628676442
 11
96.9562744141
 21
146.0607712656
  0
ARC
  5
300
100
AcDbEntity
  8
RACCORDO
100
AcDbCircle
 62
7
  6
CONTINUOUS
 10
145.560546875
 20
124.4224609375
 40
1.2
100
AcDbArc
 50
90.0
 51
180.0
  0
ARC
  5
301
100
AcDbEntity
  8
RACCORDO
100
AcDbCircle
 62
7
  6
CONTINUOUS
 10
145.560546875
 20
81.6224609375
 40
1.2
100
AcDbArc
 50
180.0
 51
270.0
  0
ARC
  5
302
100
AcDbEntity
  8
RACCORDO
100
AcDbCircle
 62
7
  6
CONTINUOUS
 10
210.860546875
 20
81.6224609375
 40
1.2
100
AcDbArc
 50
270.0
 51
360.0
  0
ARC
  5
303
100
AcDbEntity
  8
RACCORDO
100
AcDbCircle
 62
7
  6
CONTINUOUS
 10
210.860546875
 20
124.4224609375
 40
1.2
100
AcDbArc
 50
0.0
 51
90.0
  0
ARC
  5
304
100
AcDbEntity
  8
0
100
AcDbCircle
 62
7
  6
CONTINUOUS
 10
97.9063987929
 20
129.2224609375
 40
1.0
100
AcDbArc
 50
270.0
 51
275.7105931375
  0
ARC
  5
305
100
AcDbEntity
  8
0
100
AcDbCircle
 62
7
  6
CONTINUOUS
 10
97.9063987929
 20
76.8224609375
 40
1.0
100
AcDbArc
 50
84.2894068625
 51
90.0
  0
ARC
  5
306
100
AcDbEntity
  8
0
100
AcDbCircle
 62
7
  6
CONTINUOUS
 10
97.8815877483
 20
76.1724614465
 40
0.3
100
AcDbArc
 50
270.1000001427
 51
297.9489609005
  0
ARC
  5
307
100
AcDbEntity
  8
0
100
AcDbCircle
 62
7
  6
CONTINUOUS
 10
97.8815877483
 20
129.8724604285
 40
0.3
100
AcDbArc
 50
62.0510390995
 51
89.8999998573
  0
ARC
  5
308
100
AcDbEntity
  8
0
100
AcDbCircle
 62
7
  6
CONTINUOUS
 10
99.4045783269
 20
76.9808920002
 40
0.3
100
AcDbArc
 50
270.3333333333
 51
297.9601595782
  0
ARC
  5
309
100
AcDbEntity
  8
0
100
AcDbCircle
 62
7
  6
CONTINUOUS
 10
99.4045783269
 20
129.0640298748
 40
0.3
100
AcDbArc
 50
62.0398404207
 51
89.6666666667
  0
ELLIPSE
  5
30A
100
AcDbEntity
  8
0
100
AcDbEllipse
 62
7
  6
CONTINUOUS
 10
99.7562744141
 20
76.9426622425
 30
0.0
 11
0.1417119467
 21
0.1422961243
 31
0.0
 40
0.9918061237
 41
-0.2491986107
 42
0.7350951877
  0
ELLIPSE
  5
30B
100
AcDbEntity
  8
0
100
AcDbEllipse
 62
7
  6
CONTINUOUS
 10
99.7562744141
 20
129.1022596325
 30
0.0
 11
-0.1417119467
 21
0.1422961243
 31
0.0
 40
0.9918061237
 41
-3.8766878413
 42
-2.8923940429
  0
ELLIPSE
  5
30C
100
AcDbEntity
  8
0
100
AcDbEllipse
 62
7
  6
CONTINUOUS
 10
96.6795832452
 20
59.7224609375
 30
0.0
 11
1.2233088312
 21
0.0
 31
0.0
 40
0.7998095528
 41
-3.1415926536
 42
-3.1002827401
  0
ELLIPSE
  5
30D
100
AcDbEntity
  8
0
100
AcDbEllipse
 62
7
  6
CONTINUOUS
 10
96.6795832452
 20
146.3224609375
 30
0.0
 11
1.2233088312
 21
0.0
 31
0.0
 40
0.7998095528
 41
3.1002827401
 42
3.1415926536
  0
ENDSEC
  0
SECTION
  2
OBJECTS
  0
DICTIONARY
  5
C
100
AcDbDictionary
280
0
281
1
  3
ACAD_GROUP
350
D
  3
ACAD_MLINESTYLE
350
17
  3
ACAD_LAYOUT
350
1A
  3
ACAD_PLOTSETTINGS
350
19
  3
ACAD_PLOTSTYLENAME
350
E
  0
DICTIONARY
  5
D
102
{ACAD_REACTORS
330
C
102
}
100
AcDbDictionary
280
0
281
1
  0
ACDBDICTIONARYWDFLT
  5
E
102
{ACAD_REACTORS
330
C
102
}
100
AcDbDictionary
281
1
  3
Normal
350
F
100
AcDbDictionaryWithDefault
340
F
  0
DICTIONARY
  5
17
102
{ACAD_REACTORS
330
C
102
}
100
AcDbDictionary
280
0
281
1
  3
Standard
350
18
  0
DICTIONARY
  5
19
102
{ACAD_REACTORS
330
C
102
}
100
AcDbDictionary
281
1
  0
DICTIONARY
  5
1A
102
{ACAD_REACTORS
330
C
102
}
100
AcDbDictionary
281
1
  3
Model
350
30E
  3
Layout1
350
30F
  0
ACDBPLACEHOLDER
  5
F
102
{ACAD_REACTORS
330
E
102
}
  0
MLINESTYLE
  5
18
102
{ACAD_REACTORS
330
17
102
}
100
AcDbMlineStyle
  2
STANDARD
 70
0
  3

 62
256
 51
90.0
 52
90.0
 71
2
 49
0.5
 62
256
  6
BYLAYER
 49
-0.5
 62
256
  6
BYLAYER
  0
LAYOUT
  5
30E
102
{ACAD_REACTORS
330
1A
102
}
100
AcDbPlotSettings
  1

  2
none_device
  4
ISO_A4_(297.00_x_210.00_MM)
  6

 40
0.0
 41
0.0
 42
0.0
 43
0.0
 44
297.0
 45
210.0
 46
0.0
 47
0.0
 48
0.0
 49
0.0
140
0.0
141
0.0
142
1.0
143
1.0
 70
1024
 72
1
 73
0
 74
0
  7

 75
0
147
1.0
148
0.0
149
0.0
100
AcDbLayout
  1
Model
 70
0
 71
0
 10
0.0
 20
0.0
 11
297.0
 21
210.0
 12
0.0
 22
0.0
 32
0.0
 14
0.0
 24
0.0
 34
0.0
 15
0.0
 25
0.0
 35
0.0
146
0.0
 13
0.0
 23
0.0
 33
0.0
 16
1.0
 26
0.0
 36
0.0
 17
0.0
 27
1.0
 37
0.0
 76
0
330
21D
345
0
346
0
  0
LAYOUT
  5
30F
102
{ACAD_REACTORS
330
1A
102
}
100
AcDbPlotSettings
  1

  2
none_device
  4
ISO_A4_(297.00_x_210.00_MM)
  6

 40
0.0
 41
0.0
 42
0.0
 43
0.0
 44
297.0
 45
210.0
 46
0.0
 47
0.0
 48
0.0
 49
0.0
140
0.0
141
0.0
142
1.0
143
1.0
 70
0
 72
1
 73
0
 74
0
  7

 75
0
147
1.0
148
0.0
149
0.0
100
AcDbLayout
  1
Layout1
 70
0
 71
1
 10
0.0
 20
0.0
 11
297.0
 21
210.0
 12
0.0
 22
0.0
 32
0.0
 14
0.0
 24
0.0
 34
0.0
 15
0.0
 25
0.0
 35
0.0
146
0.0
 13
0.0
 23
0.0
 33
0.0
 16
1.0
 26
0.0
 36
0.0
 17
0.0
 27
1.0
 37
0.0
 76
0
330
21E
345
0
346
0
  0
ENDSEC
  0
EOF
