  0
SECTION
  2
HEADER
  9
$ACADVER
  1
AC1024
  9
$DWGCODEPAGE
  3
ANSI_1252
  9
$EXTMAX
 10
297.0
 20
210.0
 30
0.0
  9
$EXTMIN
 10
0.0
 20
0.0
 30
0.0
  9
$LIMMIN
 10
0.0
 20
0.0
  9
$LIMMAX
 10
297.0
 20
210.0
  9
$VIEWCTR
 10
148.5
 20
105.0
  9
$VIEWSIZE
 40
210.0
  9
$CLAYER
  8
0
  9
$LTSCALE
 40
16.335
  9
$CELTYPE
  6
BYLAYER
  9
$DIMSCALE
 40
1.0
  9
$DIMASZ
 40
3.0
  9
$DIMEXO
 40
0.5
  9
$DIMDLI
 40
11.286
  9
$DIMEXE
 40
1.5
  9
$DIMCEN
 40
2.673
  9
$DIMLFAC
 40
1.0
  9
$DIMBLK
  1
_FILLED
  9
$DIMALT
 70
0
  9
$DIMALTF
 40
0.0393700787
  9
$DIMTXT
 40
3.0
  9
$DIMTOL
 70
1
  9
$DIMLIM
 70
0
  9
$DIMTFAC
 40
1.0
  9
$DIMTP
 40
0.01
  9
$DIMTM
 40
0.01
  9
$DIMGAP
 40
0.625
  9
$DIMDSEP
 70
44
  9
$AUNITS
 70
0
  9
$PDMODE
 70
3
  9
$PDSIZE
 40
3.0
  9
$HANDSEED
  5
2EA
  9
$TILEMODE
 70
1
  9
$MEASUREMENT
 70
1
  9
$INSUNITS
 70
4
  0
ENDSEC
  0
SECTION
  2
CLASSES
  0
CLASS
  1
ACDBDICTIONARYWDFLT
  2
AcDbDictionaryWithDefault
  3
AutoCAD 2000
 90
0
 91
1
280
0
281
0
  0
CLASS
  1
ACDBPLACEHOLDER
  2
AcDbPlaceHolder
  3
AutoCAD 2000
 90
0
 91
1
280
0
281
0
  0
CLASS
  1
LAYOUT
  2
AcDbLayout
  3
AutoCAD 2000
 90
0
 91
0
280
0
281
0
  0
ENDSEC
  0
SECTION
  2
TABLES
  0
TABLE
  2
VPORT
  5
8
100
AcDbSymbolTable
 70
2
  0
VPORT
  5
1F4
100
AcDbSymbolTableRecord
100
AcDbViewportTableRecord
  2
*ACTIVE
 70
0
 10
0.0
 20
0.0
 11
1.0
 21
1.0
 12
148.5
 22
105.0
 13
0.0
 23
0.0
 14
1.0
 24
1.0
 15
0.0
 25
0.0
 16
0.0
 26
0.0
 36
1.0
 17
0.0
 27
0.0
 37
0.0
 40
210.0
 41
1.4142857143
 42
50.0
 43
0.0
 44
0.0
 50
0.0
 51
0.0
 71
0
 72
100
 73
1
 74
1
 75
0
 76
0
 77
0
 78
0
  0
ENDTAB
  0
TABLE
  2
LTYPE
  5
5
100
AcDbSymbolTable
 70
6
  0
LTYPE
  5
14
100
AcDbSymbolTableRecord
100
AcDbLinetypeTableRecord
  2
BYBLOCK
 70
0
  3

 72
65
 73
0
 40
0.0
  0
LTYPE
  5
15
100
AcDbSymbolTableRecord
100
AcDbLinetypeTableRecord
  2
BYLAYER
 70
0
  3

 72
65
 73
0
 40
0.0
  0
LTYPE
  5
16
100
AcDbSymbolTableRecord
100
AcDbLinetypeTableRecord
  2
CONTINUOUS
 70
64
  3
Solid line
 72
65
 73
0
 40
0.0
  0
LTYPE
  5
1F5
100
AcDbSymbolTableRecord
100
AcDbLinetypeTableRecord
  2
CENTER
 70
64
  3
____ _ ____ _ ____ _ ____ _ ____ _ ____ _ ____
 72
65
 73
4
 40
0.6
 49
0.375
 74
0
 49
-0.075
 74
0
 49
0.075
 74
0
 49
-0.075
 74
0
  0
LTYPE
  5
1F6
100
AcDbSymbolTableRecord
100
AcDbLinetypeTableRecord
  2
HIDDEN
 70
64
  3
- - - - - - - - - - - - - - - - - - - -
 72
65
 73
2
 40
0.2
 49
0.1
 74
0
 49
-0.1
 74
0
  0
LTYPE
  5
1F7
100
AcDbSymbolTableRecord
100
AcDbLinetypeTableRecord
  2
PHANTOM
 70
64
  3
_____ _ _ _____ _ _ _____ _ _ _____
 72
65
 73
6
 40
0.8
 49
0.45
 74
0
 49
-0.05
 74
0
 49
0.1
 74
0
 49
-0.05
 74
0
 49
0.1
 74
0
 49
-0.05
 74
0
  0
LTYPE
  5
1F8
100
AcDbSymbolTableRecord
100
AcDbLinetypeTableRecord
  2
DOT
 70
64
  3
. . . . . . . . . . . . . . . . . . . .
 72
65
 73
2
 40
0.2
 49
0.1
 74
0
 49
-0.1
 74
0
  0
LTYPE
  5
1F9
100
AcDbSymbolTableRecord
100
AcDbLinetypeTableRecord
  2
DASHED
 70
64
  3
- - - - - - - - - - - - - - - - - - - -
 72
65
 73
2
 40
0.2
 49
0.1
 74
0
 49
-0.1
 74
0
  0
ENDTAB
  0
TABLE
  2
LAYER
  5
2
100
AcDbSymbolTable
 70
36
  0
LAYER
  5
10
100
AcDbSymbolTableRecord
100
AcDbLayerTableRecord
  2
0
 70
0
 62
7
  6
CONTINUOUS
370
-3
390
F
  0
LAYER
  5
1FA
100
AcDbSymbolTableRecord
100
AcDbLayerTableRecord
  2
DEFAULT_1
 70
0
 62
7
  6
CENTER
370
-3
390
F
  0
LAYER
  5
1FB
100
AcDbSymbolTableRecord
100
AcDbLayerTableRecord
  2
DEFAULT_2
 70
0
 62
7
  6
HIDDEN
370
-3
390
F
  0
LAYER
  5
1FC
100
AcDbSymbolTableRecord
100
AcDbLayerTableRecord
  2
DEFAULT_3
 70
0
 62
7
  6
PHANTOM
370
-3
390
F
  0
LAYER
  5
1FD
100
AcDbSymbolTableRecord
100
AcDbLayerTableRecord
  2
ASSI
 70
0
 62
7
  6
CONTINUOUS
370
-3
390
F
  0
LAYER
  5
1FE
100
AcDbSymbolTableRecord
100
AcDbLayerTableRecord
  2
COORDINATE
 70
0
 62
7
  6
CONTINUOUS
370
-3
390
F
  0
LAYER
  5
1FF
100
AcDbSymbolTableRecord
100
AcDbLayerTableRecord
  2
COORD_ORIGINE
 70
0
 62
7
  6
CONTINUOUS
370
-3
390
F
  0
LAYER
  5
200
100
AcDbSymbolTableRecord
100
AcDbLayerTableRecord
  2
COPY_PUBLISH
 70
0
 62
7
  6
CONTINUOUS
370
-3
390
F
  0
LAYER
  5
201
100
AcDbSymbolTableRecord
100
AcDbLayerTableRecord
  2
COSMETIC
 70
0
 62
7
  6
CONTINUOUS
370
-3
390
F
  0
LAYER
  5
202
100
AcDbSymbolTableRecord
100
AcDbLayerTableRecord
  2
COSMETICI
 70
0
 62
7
  6
CONTINUOUS
370
-3
390
F
  0
LAYER
  5
203
100
AcDbSymbolTableRecord
100
AcDbLayerTableRecord
  2
CURVE
 70
0
 62
7
  6
CONTINUOUS
370
-3
390
F
  0
LAYER
  5
204
100
AcDbSymbolTableRecord
100
AcDbLayerTableRecord
  2
CURVE_COSTRUZIONE
 70
0
 62
7
  6
CONTINUOUS
370
-3
390
F
  0
LAYER
  5
205
100
AcDbSymbolTableRecord
100
AcDbLayerTableRecord
  2
CURVE_TASSELLI
 70
0
 62
7
  6
CONTINUOUS
370
-3
390
F
  0
LAYER
  5
206
100
AcDbSymbolTableRecord
100
AcDbLayerTableRecord
  2
DRAFT
 70
0
 62
7
  6
CONTINUOUS
370
-3
390
F
  0
LAYER
  5
207
100
AcDbSymbolTableRecord
100
AcDbLayerTableRecord
  2
IMPORT_IGES
 70
0
 62
7
  6
CONTINUOUS
370
-3
390
F
  0
LAYER
  5
208
100
AcDbSymbolTableRecord
100
AcDbLayerTableRecord
  2
INTFCLR_2
 70
0
 62
7
  6
CONTINUOUS
370
-3
390
F
  0
LAYER
  5
209
100
AcDbSymbolTableRecord
100
AcDbLayerTableRecord
  2
INTF_1
 70
0
 62
7
  6
CONTINUOUS
370
-3
390
F
  0
LAYER
  5
20A
100
AcDbSymbolTableRecord
100
AcDbLayerTableRecord
  2
INTF_7
 70
0
 62
7
  6
CONTINUOUS
370
-3
390
F
  0
LAYER
  5
20B
100
AcDbSymbolTableRecord
100
AcDbLayerTableRecord
  2
INTF_CYAN
 70
0
 62
7
  6
CONTINUOUS
370
-3
390
F
  0
LAYER
  5
20C
100
AcDbSymbolTableRecord
100
AcDbLayerTableRecord
  2
NOTE
 70
0
 62
7
  6
CONTINUOUS
370
-3
390
F
  0
LAYER
  5
20D
100
AcDbSymbolTableRecord
100
AcDbLayerTableRecord
  2
PIANI
 70
0
 62
7
  6
CONTINUOUS
370
-3
390
F
  0
LAYER
  5
20E
100
AcDbSymbolTableRecord
100
AcDbLayerTableRecord
  2
PIANI_ORIGINE
 70
0
 62
7
  6
CONTINUOUS
370
-3
390
F
  0
LAYER
  5
20F
100
AcDbSymbolTableRecord
100
AcDbLayerTableRecord
  2
PIANI_RIFERIMENTO
 70
0
 62
7
  6
CONTINUOUS
370
-3
390
F
  0
LAYER
  5
210
100
AcDbSymbolTableRecord
100
AcDbLayerTableRecord
  2
PUNTI
 70
0
 62
7
  6
CONTINUOUS
370
-3
390
F
  0
LAYER
  5
211
100
AcDbSymbolTableRecord
100
AcDbLayerTableRecord
  2
RACCORDO
 70
0
 62
7
  6
CONTINUOUS
370
-3
390
F
  0
LAYER
  5
212
100
AcDbSymbolTableRecord
100
AcDbLayerTableRecord
  2
RGB__255__255__255__
 70
0
 62
7
  6
CONTINUOUS
370
-3
390
F
  0
LAYER
  5
213
100
AcDbSymbolTableRecord
100
AcDbLayerTableRecord
  2
RGB____0____0____0__
 70
0
 62
7
  6
CONTINUOUS
370
-3
390
F
  0
LAYER
  5
214
100
AcDbSymbolTableRecord
100
AcDbLayerTableRecord
  2
SIMBOLI
 70
0
 62
7
  6
CONTINUOUS
370
-3
390
F
  0
LAYER
  5
215
100
AcDbSymbolTableRecord
100
AcDbLayerTableRecord
  2
SMUSSO
 70
0
 62
7
  6
CONTINUOUS
370
-3
390
F
  0
LAYER
  5
216
100
AcDbSymbolTableRecord
100
AcDbLayerTableRecord
  2
SNAPLINE
 70
0
 62
7
  6
CONTINUOUS
370
-3
390
F
  0
LAYER
  5
217
100
AcDbSymbolTableRecord
100
AcDbLayerTableRecord
  2
SUPERFICI
 70
0
 62
7
  6
CONTINUOUS
370
-3
390
F
  0
LAYER
  5
218
100
AcDbSymbolTableRecord
100
AcDbLayerTableRecord
  2
TRASH
 70
0
 62
7
  6
CONTINUOUS
370
-3
390
F
  0
LAYER
  5
219
100
AcDbSymbolTableRecord
100
AcDbLayerTableRecord
  2
WHITE
 70
0
 62
7
  6
CONTINUOUS
370
-3
390
F
  0
LAYER
  5
21A
100
AcDbSymbolTableRecord
100
AcDbLayerTableRecord
  2
XSEC_DATUMS
 70
0
 62
7
  6
CONTINUOUS
370
-3
390
F
  0
ENDTAB
  0
TABLE
  2
STYLE
  5
3
100
AcDbSymbolTable
 70
1
  0
STYLE
  5
11
100
AcDbSymbolTableRecord
100
AcDbTextStyleTableRecord
  2
STANDARD
 70
0
 40
0.0
 41
0.8
 50
0.0
 71
0
 42
0.2
  3
txt
  4

  0
STYLE
  5
21B
100
AcDbSymbolTableRecord
100
AcDbTextStyleTableRecord
  2
TEXTSTYLE_1
 70
0
 40
0.0
 41
0.8
 50
0.0
 71
0
 42
0.2
  3
gdt
  4

  0
ENDTAB
  0
TABLE
  2
VIEW
  5
6
100
AcDbSymbolTable
 70
0
  0
ENDTAB
  0
TABLE
  2
UCS
  5
7
100
AcDbSymbolTable
 70
0
  0
ENDTAB
  0
TABLE
  2
APPID
  5
9
100
AcDbSymbolTable
 70
1
  0
APPID
  5
21C
100
AcDbSymbolTableRecord
100
AcDbRegAppTableRecord
  2
ACAD
 70
0
  0
ENDTAB
  0
TABLE
  2
BLOCK_RECORD
  5
1
100
AcDbSymbolTable
 70
0
  0
BLOCK_RECORD
  5
21D
100
AcDbSymbolTableRecord
100
AcDbBlockTableRecord
  2
*Model_Space
  0
BLOCK_RECORD
  5
21E
100
AcDbSymbolTableRecord
100
AcDbBlockTableRecord
  2
*Paper_Space
  0
BLOCK_RECORD
  5
21F
100
AcDbSymbolTableRecord
100
AcDbBlockTableRecord
  2
_FILLED
  0
BLOCK_RECORD
  5
220
100
AcDbSymbolTableRecord
100
AcDbBlockTableRecord
  2
*D0
  0
BLOCK_RECORD
  5
221
100
AcDbSymbolTableRecord
100
AcDbBlockTableRecord
  2
*D1
  0
BLOCK_RECORD
  5
222
100
AcDbSymbolTableRecord
100
AcDbBlockTableRecord
  2
*D2
  0
BLOCK_RECORD
  5
223
100
AcDbSymbolTableRecord
100
AcDbBlockTableRecord
  2
*D3
  0
ENDTAB
  0
TABLE
  2
DIMSTYLE
  5
A
100
AcDbSymbolTable
 70
1
100
AcDbDimStyleTable
 71
0
  0
DIMSTYLE
105
224
100
AcDbSymbolTableRecord
100
AcDbDimStyleTableRecord
  2
STANDARD
 70
0
  3

  4

 40
1.0
 41
3.0
 42
0.5
 43
0.38
 44
1.5
 45
0.0
 46
0.0
 47
0.01
 48
0.01
140
3.0
141
0.09
142
0.0
143
25.4
144
1.0
145
0.0
146
1.0
147
0.625
 71
1.0
 72
0.0
 73
0
 74
0
 75
0
 76
0
 77
1
 78
8
 79
2
170
0
171
1
172
0
173
0
174
0
175
0
176
0
177
0
178
0
270
2
179
2
271
2
272
2
273
2
274
2
275
0
280
0
281
0
282
0
283
1
284
8
285
0
286
0
287
3
288
0
340
11
278
44
341
21F
342
21F
343
21F
344
21F
  0
DIMSTYLE
105
225
100
AcDbSymbolTableRecord
100
AcDbDimStyleTableRecord
  2
DIMSTYLE_1
 70
0
  3

  4

 40
1.0
 41
3.0
 42
0.5
 43
0.38
 44
1.5
 45
0.0
 46
0.0
 47
0.0
 48
0.0
140
3.0
141
0.09
142
0.0
143
25.4
144
1.0
145
0.0
146
1.0
147
0.75
 71
0.0
 72
0.0
 73
0
 74
0
 75
0
 76
0
 77
1
 78
8
 79
2
170
0
171
1
172
0
173
0
174
0
175
0
176
0
177
0
178
0
270
2
179
2
271
2
272
2
273
2
274
2
275
0
280
0
281
0
282
0
283
1
284
8
285
0
286
0
287
3
288
0
340
11
278
44
341
21F
342
21F
343
21F
344
21F
  0
ENDTAB
  0
ENDSEC
  0
SECTION
  2
BLOCKS
  0
BLOCK
  5
20
100
AcDbEntity
  8
0
100
AcDbBlockBegin
  2
*Model_Space
 70
0
 10
0.0
 20
0.0
 30
0.0
  3
*Model_Space
  1

  0
ENDBLK
  5
21
100
AcDbEntity
  8
0
100
AcDbBlockEnd
  0
BLOCK
  5
1C
100
AcDbEntity
  8
0
100
AcDbBlockBegin
  2
*Paper_Space
 70
0
 10
0.0
 20
0.0
 30
0.0
  3
*Paper_Space
  1

  0
ENDBLK
  5
1D
100
AcDbEntity
  8
0
100
AcDbBlockEnd
  0
BLOCK
  5
226
100
AcDbEntity
  8
0
100
AcDbBlockBegin
  2
_FILLED
 70
64
 10
0.0
 20
0.0
  3
_FILLED
  1

  0
SOLID
  5
227
100
AcDbEntity
  8
0
  6
BYBLOCK
 62
0
100
AcDbTrace
 10
0.0
 20
0.0
 11
-1.0
 21
0.3166666667
 12
-1.0
 22
-0.3166666667
 13
-1.0
 23
-0.3166666667
  0
ENDBLK
  5
228
100
AcDbEntity
  8
0
  6
BYBLOCK
 62
0
100
AcDbBlockEnd
  0
BLOCK
  5
229
100
AcDbEntity
  8
0
100
AcDbBlockBegin
 62
7
  6
CONTINUOUS
  2
*D0
 70
65
 10
0.0
 20
0.0
  3
*D0
  1

  0
LINE
  5
22A
100
AcDbEntity
  8
0
100
AcDbLine
 62
7
  6
CONTINUOUS
 10
97.4562744141
 20
146.5607712656
 11
97.4562744141
 21
159.5224609375
  0
LINE
  5
22B
100
AcDbEntity
  8
0
100
AcDbLine
 62
7
  6
CONTINUOUS
 10
88.9062744141
 20
147.5224609375
 11
88.9062744141
 21
159.5224609375
  0
LINE
  5
22C
100
AcDbEntity
  8
0
100
AcDbLine
 62
7
  6
CONTINUOUS
 10
97.4562744141
 20
158.0224609375
 11
93.1812744141
 21
158.0224609375
  0
LINE
  5
22D
100
AcDbEntity
  8
0
100
AcDbLine
 62
7
  6
CONTINUOUS
 10
88.9062744141
 20
158.0224609375
 11
93.1812744141
 21
158.0224609375
  0
LINE
  5
22E
100
AcDbEntity
  8
0
100
AcDbLine
 62
7
  6
CONTINUOUS
 10
93.1812744141
 20
158.0224609375
 11
79.3619121948
 21
158.0224609375
  0
INSERT
  5
22F
100
AcDbEntity
  8
0
100
AcDbBlockReference
 62
7
  6
CONTINUOUS
  2
_FILLED
 10
97.4562744141
 20
158.0224609375
 41
3.0
 42
3.0
 43
3.0
  0
INSERT
  5
230
100
AcDbEntity
  8
0
100
AcDbBlockReference
 62
7
  6
CONTINUOUS
  2
_FILLED
 10
88.9062744141
 20
158.0224609375
 41
3.0
 42
3.0
 43
3.0
 50
180.0
  0
ENDBLK
  5
231
100
AcDbEntity
  8
0
  6
BYBLOCK
 62
0
100
AcDbBlockEnd
  0
BLOCK
  5
232
100
AcDbEntity
  8
0
100
AcDbBlockBegin
 62
7
  6
CONTINUOUS
  2
*D1
 70
65
 10
0.0
 20
0.0
  3
*D1
  1

  0
LINE
  5
233
100
AcDbEntity
  8
0
100
AcDbLine
 62
7
  6
CONTINUOUS
 10
88.9062744141
 20
147.5224609375
 11
88.9062744141
 21
167.5224609375
  0
LINE
  5
234
100
AcDbEntity
  8
0
100
AcDbLine
 62
7
  6
CONTINUOUS
 10
100.4562744141
 20
129.5687777307
 11
100.4562744141
 21
167.5224609375
  0
LINE
  5
235
100
AcDbEntity
  8
0
100
AcDbLine
 62
7
  6
CONTINUOUS
 10
88.9062744141
 20
166.0224609375
 11
94.6812744141
 21
166.0224609375
  0
LINE
  5
236
100
AcDbEntity
  8
0
100
AcDbLine
 62
7
  6
CONTINUOUS
 10
94.6812744141
 20
166.0224609375
 11
77.9776732855
 21
166.0224609375
  0
LINE
  5
237
100
AcDbEntity
  8
0
100
AcDbLine
 62
7
  6
CONTINUOUS
 10
100.4562744141
 20
166.0224609375
 11
94.6812744141
 21
166.0224609375
  0
INSERT
  5
238
100
AcDbEntity
  8
0
100
AcDbBlockReference
 62
7
  6
CONTINUOUS
  2
_FILLED
 10
88.9062744141
 20
166.0224609375
 41
3.0
 42
3.0
 43
3.0
 50
180.0
  0
INSERT
  5
239
100
AcDbEntity
  8
0
100
AcDbBlockReference
 62
7
  6
CONTINUOUS
  2
_FILLED
 10
100.4562744141
 20
166.0224609375
 41
3.0
 42
3.0
 43
3.0
  0
ENDBLK
  5
23A
100
AcDbEntity
  8
0
  6
BYBLOCK
 62
0
100
AcDbBlockEnd
  0
BLOCK
  5
23B
100
AcDbEntity
  8
0
100
AcDbBlockBegin
 62
7
  6
CONTINUOUS
  2
*D2
 70
65
 10
0.0
 20
0.0
  3
*D2
  1

  0
LINE
  5
23C
100
AcDbEntity
  8
0
100
AcDbLine
 62
7
  6
CONTINUOUS
 10
133.210546875
 20
147.5224609375
 11
133.210546875
 21
159.5224609375
  0
LINE
  5
23D
100
AcDbEntity
  8
0
100
AcDbLine
 62
7
  6
CONTINUOUS
 10
223.210546875
 20
147.5224609375
 11
223.210546875
 21
159.5224609375
  0
LINE
  5
23E
100
AcDbEntity
  8
0
100
AcDbLine
 62
7
  6
CONTINUOUS
 10
133.210546875
 20
158.0224609375
 11
178.210546875
 21
158.0224609375
  0
LINE
  5
23F
100
AcDbEntity
  8
0
100
AcDbLine
 62
7
  6
CONTINUOUS
 10
223.210546875
 20
158.0224609375
 11
178.210546875
 21
158.0224609375
  0
INSERT
  5
240
100
AcDbEntity
  8
0
100
AcDbBlockReference
 62
7
  6
CONTINUOUS
  2
_FILLED
 10
133.210546875
 20
158.0224609375
 41
3.0
 42
3.0
 43
3.0
 50
180.0
  0
INSERT
  5
241
100
AcDbEntity
  8
0
100
AcDbBlockReference
 62
7
  6
CONTINUOUS
  2
_FILLED
 10
223.210546875
 20
158.0224609375
 41
3.0
 42
3.0
 43
3.0
  0
ENDBLK
  5
242
100
AcDbEntity
  8
0
  6
BYBLOCK
 62
0
100
AcDbBlockEnd
  0
BLOCK
  5
243
100
AcDbEntity
  8
0
100
AcDbBlockBegin
 62
7
  6
CONTINUOUS
  2
*D3
 70
65
 10
0.0
 20
0.0
  3
*D3
  1

  0
LINE
  5
244
100
AcDbEntity
  8
0
100
AcDbLine
 62
7
  6
CONTINUOUS
 10
222.710546875
 20
148.0224609375
 11
234.710546875
 21
148.0224609375
  0
LINE
  5
245
100
AcDbEntity
  8
0
100
AcDbLine
 62
7
  6
CONTINUOUS
 10
222.710546875
 20
58.0224609375
 11
234.710546875
 21
58.0224609375
  0
LINE
  5
246
100
AcDbEntity
  8
0
100
AcDbLine
 62
7
  6
CONTINUOUS
 10
233.210546875
 20
148.0224609375
 11
233.210546875
 21
103.0224609375
  0
LINE
  5
247
100
AcDbEntity
  8
0
100
AcDbLine
 62
7
  6
CONTINUOUS
 10
233.210546875
 20
58.0224609375
 11
233.210546875
 21
103.0224609375
  0
INSERT
  5
248
100
AcDbEntity
  8
0
100
AcDbBlockReference
 62
7
  6
CONTINUOUS
  2
_FILLED
 10
233.210546875
 20
148.0224609375
 41
3.0
 42
3.0
 43
3.0
 50
90.0
  0
INSERT
  5
249
100
AcDbEntity
  8
0
100
AcDbBlockReference
 62
7
  6
CONTINUOUS
  2
_FILLED
 10
233.210546875
 20
58.0224609375
 41
3.0
 42
3.0
 43
3.0
 50
270.0
  0
ENDBLK
  5
24A
100
AcDbEntity
  8
0
  6
BYBLOCK
 62
0
100
AcDbBlockEnd
  0
ENDSEC
  0
SECTION
  2
ENTITIES
  0
DIMENSION
  5
24B
100
AcDbEntity
  8
0
100
AcDbDimension
 62
7
  6
CONTINUOUS
  2
*D0
 10
88.9062744141
 20
158.0224609375
 11
79.3619121948
 21
158.0224609375
 70
160
 71
3
 72
2
 41
0.9
 42
8.55
  3
DIMSTYLE_1
100
AcDbAlignedDimension
 13
97.4562744141
 23
146.0607712656
 14
88.9062744141
 24
147.0224609375
 50
180.0
100
AcDbRotatedDimension
  0
DIMENSION
  5
24C
100
AcDbEntity
  8
0
100
AcDbDimension
 62
7
  6
CONTINUOUS
  2
*D1
 10
100.4562744141
 20
166.0224609375
 11
77.9776732855
 21
166.0224609375
 70
160
 71
3
 72
2
 41
0.9
 42
11.55
  3
DIMSTYLE_1
100
AcDbAlignedDimension
 13
88.9062744141
 23
147.0224609375
 14
100.4562744141
 24
129.0687777307
100
AcDbRotatedDimension
  0
DIMENSION
  5
24D
100
AcDbEntity
  8
0
100
AcDbDimension
 62
7
  6
CONTINUOUS
  2
*D2
 10
223.210546875
 20
158.0224609375
 11
175.8534040179
 21
158.0224609375
 70
160
 71
2
 72
2
 41
0.9
 42
90.0
  3
DIMSTYLE_1
100
AcDbAlignedDimension
 13
133.210546875
 23
147.0224609375
 14
223.210546875
 24
147.0224609375
100
AcDbRotatedDimension
  0
DIMENSION
  5
24E
100
AcDbEntity
  8
0
100
AcDbDimension
 62
7
  6
CONTINUOUS
  2
*D3
 10
233.210546875
 20
58.0224609375
 11
233.210546875
 21
100.6653180804
 70
160
 71
2
 72
2
 41
0.9
 42
90.0
  3
DIMSTYLE_1
100
AcDbAlignedDimension
 13
222.210546875
 23
148.0224609375
 14
222.210546875
 24
58.0224609375
 50
270.0
100
AcDbRotatedDimension
  0
LINE
  5
24F
100
AcDbEntity
  8
SMUSSO
100
AcDbLine
 62
7
  6
CONTINUOUS
 10
133.210546875
 20
147.0224609375
 11
134.210546875
 21
148.0224609375
  0
LINE
  5
250
100
AcDbEntity
  8
SMUSSO
100
AcDbLine
 62
7
  6
CONTINUOUS
 10
134.210546875
 20
58.0224609375
 11
133.210546875
 21
59.0224609375
  0
LINE
  5
251
100
AcDbEntity
  8
SMUSSO
100
AcDbLine
 62
7
  6
CONTINUOUS
 10
133.210546875
 20
147.0224609375
 11
133.210546875
 21
59.0224609375
  0
LINE
  5
252
100
AcDbEntity
  8
SMUSSO
100
AcDbLine
 62
7
  6
CONTINUOUS
 10
134.210546875
 20
147.0224609375
 11
134.210546875
 21
59.0224609375
  0
LINE
  5
253
100
AcDbEntity
  8
SMUSSO
100
AcDbLine
 62
7
  6
CONTINUOUS
 10
134.210546875
 20
58.0224609375
 11
222.210546875
 21
58.0224609375
  0
LINE
  5
254
100
AcDbEntity
  8
SMUSSO
100
AcDbLine
 62
7
  6
CONTINUOUS
 10
134.210546875
 20
59.0224609375
 11
222.210546875
 21
59.0224609375
  0
LWPOLYLINE
  5
255
100
AcDbEntity
  8
0
100
AcDbPolyline
 62
7
  6
CONTINUOUS
 90
10
 70
0
 43
0.3500000006
 10
176.2819716797
 20
158.7724627075
 10
177.1391096191
 20
159.629600647
 10
177.3534122314
 20
160.4867385864
 10
177.3534122314
 20
161.3438946533
 10
176.9248251343
 20
161.772463623
 10
176.2819716797
 20
161.772463623
 10
175.85340271
 20
161.3438946533
 10
175.85340271
 20
160.4867385864
 10
176.2819716797
 20
160.0581696167
 10
177.2105498657
 20
160.0581696167
  0
LINE
  5
256
100
AcDbEntity
  8
0
100
AcDbLine
 62
7
  6
CONTINUOUS
 10
143.860546875
 20
81.6224609375
 11
143.860546875
 21
124.4224609375
  0
LINE
  5
257
100
AcDbEntity
  8
0
100
AcDbLine
 62
7
  6
CONTINUOUS
 10
144.360546875
 20
81.6224609375
 11
144.360546875
 21
124.4224609375
  0
LINE
  5
258
100
AcDbEntity
  8
0
100
AcDbLine
 62
250
  6
CONTINUOUS
 10
145.560546875
 20
126.1224609375
 11
145.560546875
 21
125.6224609375
  0
LINE
  5
259
100
AcDbEntity
  8
0
100
AcDbLine
 62
250
  6
CONTINUOUS
 10
145.560546875
 20
79.9224609375
 11
145.560546875
 21
80.4224609375
  0
LINE
  5
25A
100
AcDbEntity
  8
0
100
AcDbLine
 62
7
  6
CONTINUOUS
 10
210.860546875
 20
79.9224609375
 11
145.560546875
 21
79.9224609375
  0
LINE
  5
25B
100
AcDbEntity
  8
0
100
AcDbLine
 62
7
  6
CONTINUOUS
 10
210.860546875
 20
80.4224609375
 11
145.560546875
 21
80.4224609375
  0
LINE
  5
25C
100
AcDbEntity
  8
0
100
AcDbLine
 62
250
  6
CONTINUOUS
 10
212.560546875
 20
81.6224609375
 11
212.060546875
 21
81.6224609375
  0
LINE
  5
25D
100
AcDbEntity
  8
0
100
AcDbLine
 62
250
  6
CONTINUOUS
 10
143.860546875
 20
81.6224609375
 11
144.360546875
 21
81.6224609375
  0
LWPOLYLINE
  5
25E
100
AcDbEntity
  8
0
100
AcDbPolyline
 62
7
  6
CONTINUOUS
 90
13
 70
0
 43
0.3500000006
 10
178.2105501709
 20
159.629600647
 10
178.2105501709
 20
160.9153256836
 10
178.4248346558
 20
161.3438946533
 10
178.8534036255
 20
161.772463623
 10
179.0676881104
 20
161.772463623
 10
179.4962570801
 20
161.3438946533
 10
179.7105415649
 20
160.9153256836
 10
179.7105415649
 20
159.629600647
 10
179.4962570801
 20
159.2010316772
 10
179.0676881104
 20
158.7724627075
 10
178.8534036255
 20
158.7724627075
 10
178.4248346558
 20
159.2010316772
 10
178.2105501709
 20
159.629600647
  0
LINE
  5
25F
100
AcDbEntity
  8
SMUSSO
100
AcDbLine
 62
7
  6
CONTINUOUS
 10
222.710546875
 20
147.5224609375
 11
222.210546875
 21
147.0224609375
  0
LINE
  5
260
100
AcDbEntity
  8
SMUSSO
100
AcDbLine
 62
7
  6
CONTINUOUS
 10
133.710546875
 20
58.5224609375
 11
134.210546875
 21
59.0224609375
  0
LWPOLYLINE
  5
261
100
AcDbEntity
  8
0
100
AcDbPolyline
 62
7
  6
CONTINUOUS
 90
13
 70
0
 43
0.3500000006
 10
231.6034061279
 20
103.0224592896
 10
230.3176810913
 20
103.0224592896
 10
229.8891121216
 20
103.2367437744
 10
229.4605431519
 20
103.6653218079
 10
229.4605431519
 20
103.8796062927
 10
229.8891121216
 20
104.3081752625
 10
230.3176810913
 20
104.5224597473
 10
231.6034061279
 20
104.5224597473
 10
232.0319750977
 20
104.3081752625
 10
232.4605440674
 20
103.8796062927
 10
232.4605440674
 20
103.6653218079
 10
232.0319750977
 20
103.2367437744
 10
231.6034061279
 20
103.0224592896
  0
LINE
  5
262
100
AcDbEntity
  8
SMUSSO
100
AcDbLine
 62
7
  6
CONTINUOUS
 10
222.710546875
 20
58.5224609375
 11
222.210546875
 21
59.0224609375
  0
LINE
  5
263
100
AcDbEntity
  8
SMUSSO
100
AcDbLine
 62
7
  6
CONTINUOUS
 10
134.210546875
 20
147.0224609375
 11
133.710546875
 21
147.5224609375
  0
LINE
  5
264
100
AcDbEntity
  8
0
100
AcDbLine
 62
250
  6
CONTINUOUS
 10
212.560546875
 20
124.4224609375
 11
212.060546875
 21
124.4224609375
  0
LINE
  5
265
100
AcDbEntity
  8
0
100
AcDbLine
 62
250
  6
CONTINUOUS
 10
143.860546875
 20
124.4224609375
 11
144.360546875
 21
124.4224609375
  0
LINE
  5
266
100
AcDbEntity
  8
0
100
AcDbLine
 62
7
  6
CONTINUOUS
 10
145.560546875
 20
125.6224609375
 11
210.860546875
 21
125.6224609375
  0
LINE
  5
267
100
AcDbEntity
  8
0
100
AcDbLine
 62
7
  6
CONTINUOUS
 10
145.560546875
 20
126.1224609375
 11
210.860546875
 21
126.1224609375
  0
LINE
  5
268
100
AcDbEntity
  8
0
100
AcDbLine
 62
250
  6
CONTINUOUS
 10
210.860546875
 20
126.1224609375
 11
210.860546875
 21
125.6224609375
  0
LINE
  5
269
100
AcDbEntity
  8
0
100
AcDbLine
 62
250
  6
CONTINUOUS
 10
210.860546875
 20
79.9224609375
 11
210.860546875
 21
80.4224609375
  0
LINE
  5
26A
100
AcDbEntity
  8
0
100
AcDbLine
 62
7
  6
CONTINUOUS
 10
212.060546875
 20
124.4224609375
 11
212.060546875
 21
81.6224609375
  0
LINE
  5
26B
100
AcDbEntity
  8
0
100
AcDbLine
 62
7
  6
CONTINUOUS
 10
212.560546875
 20
124.4224609375
 11
212.560546875
 21
81.6224609375
  0
LWPOLYLINE
  5
26C
100
AcDbEntity
  8
0
100
AcDbPolyline
 62
7
  6
CONTINUOUS
 90
10
 70
0
 43
0.3500000006
 10
232.4605440674
 20
101.0938898621
 10
231.6034061279
 20
101.9510368652
 10
230.7462681885
 20
102.1653213501
 10
229.8891121216
 20
102.1653213501
 10
229.4605431519
 20
101.7367433167
 10
229.4605431519
 20
101.0938898621
 10
229.8891121216
 20
100.6653208923
 10
230.7462681885
 20
100.6653208923
 10
231.1748371582
 20
101.0938898621
 10
231.1748371582
 20
102.0224589844
  0
LINE
  5
26D
100
AcDbEntity
  8
SMUSSO
100
AcDbLine
 62
7
  6
CONTINUOUS
 10
222.210546875
 20
59.0224609375
 11
222.210546875
 21
147.0224609375
  0
LINE
  5
26E
100
AcDbEntity
  8
SMUSSO
100
AcDbLine
 62
7
  6
CONTINUOUS
 10
223.210546875
 20
59.0224609375
 11
223.210546875
 21
147.0224609375
  0
LINE
  5
26F
100
AcDbEntity
  8
SMUSSO
100
AcDbLine
 62
7
  6
CONTINUOUS
 10
222.210546875
 20
147.0224609375
 11
134.210546875
 21
147.0224609375
  0
LINE
  5
270
100
AcDbEntity
  8
SMUSSO
100
AcDbLine
 62
7
  6
CONTINUOUS
 10
222.210546875
 20
148.0224609375
 11
134.210546875
 21
148.0224609375
  0
LINE
  5
271
100
AcDbEntity
  8
SMUSSO
100
AcDbLine
 62
7
  6
CONTINUOUS
 10
223.210546875
 20
59.0224609375
 11
222.210546875
 21
58.0224609375
  0
LINE
  5
272
100
AcDbEntity
  8
SMUSSO
100
AcDbLine
 62
7
  6
CONTINUOUS
 10
222.210546875
 20
148.0224609375
 11
223.210546875
 21
147.0224609375
  0
LWPOLYLINE
  5
273
100
AcDbEntity
  8
0
100
AcDbPolyline
 62
7
  6
CONTINUOUS
 90
3
 70
0
 43
0.3500000006
 10
77.9776726685
 20
168.9153099976
 10
78.8348196716
 20
169.7724660645
 10
78.8348196716
 20
166.7724651489
  0
LWPOLYLINE
  5
274
100
AcDbEntity
  8
0
100
AcDbPolyline
 62
7
  6
CONTINUOUS
 90
3
 70
0
 43
0.3500000006
 10
79.6919576111
 20
168.9153099976
 10
80.5491046143
 20
169.7724660645
 10
80.5491046143
 20
166.7724651489
  0
LINE
  5
275
100
AcDbEntity
  8
SMUSSO
100
AcDbLine
 62
7
  6
CONTINUOUS
 10
89.9062744141
 20
58.0224609375
 11
92.4062744141
 21
58.0224609375
  0
LINE
  5
276
100
AcDbEntity
  8
0
100
AcDbLine
 62
250
  6
CONTINUOUS
 10
95.9573180594
 20
59.6820542308
 11
97.4562744141
 21
59.9841506094
  0
LINE
  5
277
100
AcDbEntity
  8
0
100
AcDbLine
 62
7
  6
CONTINUOUS
 10
93.0562744141
 20
58.6718412492
 11
95.9562744141
 21
58.7224609375
  0
LINE
  5
278
100
AcDbEntity
  8
SMUSSO
100
AcDbLine
 62
7
  6
CONTINUOUS
 10
89.9062744141
 20
59.0224609375
 11
92.4062744141
 21
59.0224609375
  0
LINE
  5
279
100
AcDbEntity
  8
0
100
AcDbLine
 62
250
  6
CONTINUOUS
 10
93.0562744141
 20
59.7224609375
 11
95.9562744141
 21
59.7224609375
  0
LINE
  5
27A
100
AcDbEntity
  8
RACCORDO
100
AcDbLine
 62
7
  6
CONTINUOUS
 10
93.0562744141
 20
62.0224609375
 11
92.9062744141
 21
62.0224609375
  0
LINE
  5
27B
100
AcDbEntity
  8
RACCORDO
100
AcDbLine
 62
250
  6
CONTINUOUS
 10
93.0562744141
 20
64.0224609375
 11
92.9062744141
 21
64.0224609375
  0
LINE
  5
27C
100
AcDbEntity
  8
SMUSSO
100
AcDbLine
 62
7
  6
CONTINUOUS
 10
89.9062744141
 20
148.0224609375
 11
88.9062744141
 21
147.0224609375
  0
LINE
  5
27D
100
AcDbEntity
  8
SMUSSO
100
AcDbLine
 62
7
  6
CONTINUOUS
 10
88.9062744141
 20
59.0224609375
 11
89.9062744141
 21
58.0224609375
  0
LWPOLYLINE
  5
27E
100
AcDbEntity
  8
0
100
AcDbPolyline
 62
7
  6
CONTINUOUS
 90
3
 70
0
 43
0.3500000006
 10
82.1205271912
 20
167.0581717529
 10
82.049105072
 20
166.8438872681
 10
81.9062427063
 20
166.5581806641
  0
LINE
  5
27F
100
AcDbEntity
  8
SMUSSO
100
AcDbLine
 62
7
  6
CONTINUOUS
 10
92.4062744141
 20
147.0224609375
 11
92.9062744141
 21
147.5224609375
  0
LINE
  5
280
100
AcDbEntity
  8
SMUSSO
100
AcDbLine
 62
7
  6
CONTINUOUS
 10
92.9062744141
 20
58.5224609375
 11
92.4062744141
 21
59.0224609375
  0
LWPOLYLINE
  5
281
100
AcDbEntity
  8
0
100
AcDbPolyline
 62
7
  6
CONTINUOUS
 90
3
 70
0
 43
0.3500000006
 10
82.4333433838
 20
159.0581693115
 10
82.3619122009
 20
158.8438848267
 10
82.2190588989
 20
158.5581782227
  0
LINE
  5
282
100
AcDbEntity
  8
0
100
AcDbLine
 62
7
  6
CONTINUOUS
 10
98.3821115744
 20
75.8723314988
 11
97.4562744141
 21
75.8707156065
  0
LINE
  5
283
100
AcDbEntity
  8
0
100
AcDbLine
 62
250
  6
CONTINUOUS
 10
98.3820469978
 20
76.0947816936
 11
97.4562744141
 21
76.0943634991
  0
LINE
  5
284
100
AcDbEntity
  8
0
100
AcDbLine
 62
7
  6
CONTINUOUS
 10
99.9063236463
 20
76.6808970772
 11
97.4562744141
 21
76.6666431077
  0
LINE
  5
285
100
AcDbEntity
  8
0
100
AcDbLine
 62
250
  6
CONTINUOUS
 10
99.9063236463
 20
76.7687635558
 11
97.4562744141
 21
76.7545095863
  0
LINE
  5
286
100
AcDbEntity
  8
0
100
AcDbLine
 62
7
  6
CONTINUOUS
 10
98.4063987929
 20
77.8224609375
 11
97.4562744141
 21
77.8224609375
  0
LINE
  5
287
100
AcDbEntity
  8
0
100
AcDbLine
 62
7
  6
CONTINUOUS
 10
97.4562744141
 20
77.9724609375
 11
97.6062744141
 21
77.9724609375
  0
LINE
  5
288
100
AcDbEntity
  8
0
100
AcDbLine
 62
7
  6
CONTINUOUS
 10
97.9062744141
 20
77.9724609375
 11
98.1062744141
 21
77.9724609375
  0
LINE
  5
289
100
AcDbEntity
  8
0
100
AcDbLine
 62
7
  6
CONTINUOUS
 10
97.4562744141
 20
77.266641063
 11
100.2667416053
 21
77.1424742698
  0
LINE
  5
28A
100
AcDbEntity
  8
0
100
AcDbLine
 62
7
  6
CONTINUOUS
 10
98.505902512
 20
77.8174981277
 11
100.4562744141
 21
77.6224609375
  0
LWPOLYLINE
  5
28B
100
AcDbEntity
  8
0
100
AcDbPolyline
 62
250
  6
CONTINUOUS
 90
4
 70
0
 10
99.9589047079
 20
129.3165669805
 10
99.9417253291
 20
129.3054645616
 10
99.9241410518
 20
129.2919557269
 10
99.9063236463
 20
129.2761583192
  0
LWPOLYLINE
  5
28C
100
AcDbEntity
  8
0
100
AcDbPolyline
 62
250
  6
CONTINUOUS
 90
4
 70
0
 10
99.9588060028
 20
76.7284124833
 10
99.9416231686
 20
76.7395296615
 10
99.9240715691
 20
76.7530236742
 10
99.9063236463
 20
76.7687635558
  0
LWPOLYLINE
  5
28D
100
AcDbEntity
  8
0
100
AcDbPolyline
 62
7
  6
CONTINUOUS
 90
4
 70
0
 43
0.3500000006
 10
79.3619112854
 20
159.2010316772
 10
79.3619112854
 20
160.0581696167
 10
79.7904802551
 20
160.4867385864
 10
80.4333427734
 20
160.4867385864
  0
LINE
  5
28E
100
AcDbEntity
  8
0
100
AcDbLine
 62
7
  6
CONTINUOUS
 10
97.6062744141
 20
128.0724609375
 11
97.7562744141
 21
128.2224609375
  0
LINE
  5
28F
100
AcDbEntity
  8
0
100
AcDbLine
 62
7
  6
CONTINUOUS
 10
98.1062744141
 20
128.0724609375
 11
98.2562744141
 21
128.2224609375
  0
LINE
  5
290
100
AcDbEntity
  8
0
100
AcDbLine
 62
7
  6
CONTINUOUS
 10
97.6062744141
 20
77.9724609375
 11
97.7562744141
 21
77.8224609375
  0
LINE
  5
291
100
AcDbEntity
  8
0
100
AcDbLine
 62
7
  6
CONTINUOUS
 10
98.1062744141
 20
77.9724609375
 11
98.2562744141
 21
77.8224609375
  0
LWPOLYLINE
  5
292
100
AcDbEntity
  8
0
100
AcDbPolyline
 62
250
  6
CONTINUOUS
 90
9
 70
0
 10
98.4761346749
 20
75.9479550838
 10
98.4834048304
 20
75.9387432834
 10
98.4904625016
 20
75.9303258679
 10
98.49722442
 20
75.9228746883
 10
98.5035623119
 20
75.9166084781
 10
98.5093478132
 20
75.9117347681
 10
98.5144591081
 20
75.9084527465
 10
98.5187783984
 20
75.9069582416
 10
98.5221806477
 20
75.9074451414
  0
LWPOLYLINE
  5
293
100
AcDbEntity
  8
0
100
AcDbPolyline
 62
250
  6
CONTINUOUS
 90
19
 70
0
 10
98.3820469978
 20
129.9501401814
 10
98.3899890548
 20
129.9639279157
 10
98.3982895064
 20
129.978108685
 10
98.4069149188
 20
129.9925889802
 10
98.4158335665
 20
130.0072818488
 10
98.4249842252
 20
130.0220401851
 10
98.434277783
 20
130.0366644631
 10
98.4436411699
 20
130.0509943438
 10
98.4530035454
 20
130.0648832584
 10
98.462268648
 20
130.0781425986
 10
98.4713723116
 20
130.090629315
 10
98.4801786053
 20
130.1021012637
 10
98.4884919927
 20
130.1122565131
 10
98.4962372099
 20
130.1209560516
 10
98.5032961511
 20
130.1280231378
 10
98.5094694144
 20
130.1332420576
 10
98.5146806053
 20
130.1365578256
 10
98.5189288444
 20
130.1379745014
 10
98.5221806477
 20
130.1374767336
  0
LWPOLYLINE
  5
294
100
AcDbEntity
  8
0
100
AcDbPolyline
 62
250
  6
CONTINUOUS
 90
14
 70
0
 10
98.3820469978
 20
76.0947816936
 10
98.388808918
 20
76.0830078146
 10
98.395677529
 20
76.0712115271
 10
98.4026359293
 20
76.0594315754
 10
98.4096275913
 20
76.047769471
 10
98.4166709169
 20
76.0362058094
 10
98.4238551168
 20
76.0246171628
 10
98.431165918
 20
76.0130502115
 10
98.4385549446
 20
76.0016010223
 10
98.44604665
 20
75.9902576519
 10
98.453602267
 20
75.9791101911
 10
98.4611607096
 20
75.9682822684
 10
98.4686962189
 20
75.9578486565
 10
98.4761346749
 20
75.9479550838
  0
LINE
  5
295
100
AcDbEntity
  8
SMUSSO
100
AcDbLine
 62
7
  6
CONTINUOUS
 10
88.9062744141
 20
59.0224609375
 11
88.9062744141
 21
147.0224609375
  0
LWPOLYLINE
  5
296
100
AcDbEntity
  8
0
100
AcDbPolyline
 62
7
  6
CONTINUOUS
 90
7
 70
0
 10
100.428415499
 20
77.04589922
 10
100.4366857398
 20
77.0318466418
 10
100.4435970143
 20
77.0187647564
 10
100.4490727518
 20
77.006653564
 10
100.4530462342
 20
76.9955130645
 10
100.4554615371
 20
76.9853432579
 10
100.4562744141
 20
76.9761441443
  0
LINE
  5
297
100
AcDbEntity
  8
SMUSSO
100
AcDbLine
 62
7
  6
CONTINUOUS
 10
89.9062744141
 20
59.0224609375
 11
89.9062744141
 21
147.0224609375
  0
LINE
  5
298
100
AcDbEntity
  8
0
100
AcDbLine
 62
7
  6
CONTINUOUS
 10
95.964142651
 20
59.5412816894
 11
95.9573180594
 21
59.6820542308
  0
LINE
  5
299
100
AcDbEntity
  8
SMUSSO
100
AcDbLine
 62
7
  6
CONTINUOUS
 10
92.4062744141
 20
147.0224609375
 11
92.4062744141
 21
59.0224609375
  0
LINE
  5
29A
100
AcDbEntity
  8
SMUSSO
100
AcDbLine
 62
7
  6
CONTINUOUS
 10
92.9062744141
 20
147.5224609375
 11
92.9062744141
 21
58.5224609375
  0
LINE
  5
29B
100
AcDbEntity
  8
0
100
AcDbLine
 62
7
  6
CONTINUOUS
 10
93.0562744141
 20
58.6718412492
 11
93.0562744141
 21
147.3730806258
  0
LWPOLYLINE
  5
29C
100
AcDbEntity
  8
0
100
AcDbPolyline
 62
7
  6
CONTINUOUS
 90
17
 70
0
 10
95.9720434547
 20
146.7077381603
 10
95.9739930962
 20
146.7722516598
 10
95.9755567952
 20
146.8341646453
 10
95.9767467442
 20
146.893378471
 10
95.9775423336
 20
146.9499101623
 10
95.9779366932
 20
147.0036401624
 10
95.9779366931
 20
147.0540611094
 10
95.9775423332
 20
147.1006416238
 10
95.9767467436
 20
147.1430330832
 10
95.9755567942
 20
147.1812311748
 10
95.973993095
 20
147.2152486384
 10
95.9720434536
 20
147.2449635475
 10
95.9697200625
 20
147.2700858452
 10
95.9670801088
 20
147.2903895039
 10
95.9641426549
 20
147.3057713618
 10
95.9608886384
 20
147.3161959411
 10
95.9573180594
 20
147.3216260213
  0
LINE
  5
29D
100
AcDbEntity
  8
0
100
AcDbLine
 62
7
  6
CONTINUOUS
 10
95.9670801093
 20
146.5729346958
 11
95.9720434547
 21
146.7077381603
  0
LWPOLYLINE
  5
29E
100
AcDbEntity
  8
0
100
AcDbPolyline
 62
7
  6
CONTINUOUS
 90
3
 70
0
 10
95.9573180594
 20
146.3628676442
 10
95.9608886386
 20
146.4334999683
 10
95.9670801093
 20
146.5729346958
  0
LINE
  5
29F
100
AcDbEntity
  8
0
100
AcDbLine
 62
7
  6
CONTINUOUS
 10
95.9562744141
 20
146.3224609375
 11
95.9562744141
 21
59.7224609375
  0
LINE
  5
2A0
100
AcDbEntity
  8
0
100
AcDbLine
 62
7
  6
CONTINUOUS
 10
97.4562744141
 20
146.1224609375
 11
97.4562744141
 21
59.9224609375
  0
LWPOLYLINE
  5
2A1
100
AcDbEntity
  8
0
100
AcDbPolyline
 62
250
  6
CONTINUOUS
 90
3
 70
0
 10
99.9064226667
 20
129.3594662234
 10
99.9063800127
 20
129.3628828069
 10
99.9063236463
 20
129.3640247978
  0
LINE
  5
2A2
100
AcDbEntity
  8
0
100
AcDbLine
 62
250
  6
CONTINUOUS
 10
99.9064656452
 20
129.3459299846
 11
99.9064226667
 21
129.3594662234
  0
LINE
  5
2A3
100
AcDbEntity
  8
0
100
AcDbLine
 62
250
  6
CONTINUOUS
 10
99.9064656452
 20
76.6989918904
 11
99.9063236463
 21
76.7687635558
  0
LINE
  5
2A4
100
AcDbEntity
  8
0
100
AcDbLine
 62
250
  6
CONTINUOUS
 10
100.2667416053
 20
128.9024476052
 11
100.2667416053
 21
128.4035076566
  0
LINE
  5
2A5
100
AcDbEntity
  8
0
100
AcDbLine
 62
250
  6
CONTINUOUS
 10
100.2667416053
 20
77.6414142184
 11
100.2667416053
 21
77.1424742698
  0
LINE
  5
2A6
100
AcDbEntity
  8
0
100
AcDbLine
 62
7
  6
CONTINUOUS
 10
100.4562744141
 20
129.1108252779
 11
100.4562744141
 21
128.4224609375
  0
LINE
  5
2A7
100
AcDbEntity
  8
0
100
AcDbLine
 62
7
  6
CONTINUOUS
 10
100.4562744141
 20
77.6224609375
 11
100.4562744141
 21
76.9340965971
  0
LINE
  5
2A8
100
AcDbEntity
  8
0
100
AcDbLine
 62
250
  6
CONTINUOUS
 10
98.3821117363
 20
75.8726832817
 11
98.3820469978
 21
76.0947816936
  0
LINE
  5
2A9
100
AcDbEntity
  8
0
100
AcDbLine
 62
250
  6
CONTINUOUS
 10
98.3820469978
 20
129.9501401814
 11
98.3821116137
 21
130.1722368222
  0
LINE
  5
2AA
100
AcDbEntity
  8
0
100
AcDbLine
 62
250
  6
CONTINUOUS
 10
99.9063236463
 20
129.2761583192
 11
99.9064656452
 21
129.3459299846
  0
LWPOLYLINE
  5
2AB
100
AcDbEntity
  8
0
100
AcDbPolyline
 62
7
  6
CONTINUOUS
 90
7
 70
0
 10
100.4562744141
 20
129.0687777307
 10
100.4554616864
 20
129.0595796795
 10
100.4530467086
 20
129.0494105104
 10
100.449073545
 20
129.0382702234
 10
100.4435979432
 20
129.0261588185
 10
100.4366864551
 20
129.0130762957
 10
100.428415499
 20
128.999022655
  0
LWPOLYLINE
  5
2AC
100
AcDbEntity
  8
0
100
AcDbPolyline
 62
250
  6
CONTINUOUS
 90
4
 70
0
 10
99.9063236463
 20
76.6808970772
 10
99.9063800127
 20
76.6820390681
 10
99.9064226667
 20
76.6854556516
 10
99.9064656452
 20
76.6989918904
  0
LWPOLYLINE
  5
2AD
100
AcDbEntity
  8
0
100
AcDbPolyline
 62
7
  6
CONTINUOUS
 90
10
 70
0
 43
0.3500000006
 10
82.3619122009
 20
159.2724537964
 10
82.4333433838
 20
159.1296095581
 10
82.4333433838
 20
159.0581693115
 10
82.2904810181
 20
158.9153250732
 10
82.2190588989
 20
158.9153250732
 10
82.1476277161
 20
158.9867471924
 10
82.1476277161
 20
159.0581693115
 10
82.2190588989
 20
159.2010316772
 10
82.2904810181
 20
159.2724537964
 10
82.3619122009
 20
159.2724537964
  0
LWPOLYLINE
  5
2AE
100
AcDbEntity
  8
0
100
AcDbPolyline
 62
7
  6
CONTINUOUS
 90
10
 70
0
 43
0.3500000006
 10
82.049105072
 20
167.2724562378
 10
82.1205271912
 20
167.1296119995
 10
82.1205271912
 20
167.0581717529
 10
81.9776738892
 20
166.9153093872
 10
81.9062427063
 20
166.9153093872
 10
81.8348205872
 20
166.9867496338
 10
81.8348205872
 20
167.0581717529
 10
81.9062427063
 20
167.2010341187
 10
81.9776738892
 20
167.2724562378
 10
82.049105072
 20
167.2724562378
  0
LINE
  5
2AF
100
AcDbEntity
  8
0
100
AcDbLine
 62
7
  6
CONTINUOUS
 10
97.7562744141
 20
77.8224609375
 11
97.9062744141
 21
77.9724609375
  0
LINE
  5
2B0
100
AcDbEntity
  8
0
100
AcDbLine
 62
7
  6
CONTINUOUS
 10
97.7562744141
 20
128.2224609375
 11
97.9062744141
 21
128.0724609375
  0
LWPOLYLINE
  5
2B1
100
AcDbEntity
  8
0
100
AcDbPolyline
 62
7
  6
CONTINUOUS
 90
19
 70
0
 10
95.9573180594
 20
58.7232958537
 10
95.9608886366
 20
58.7287259314
 10
95.9641426511
 20
58.7391504998
 10
95.9670801028
 20
58.7545323332
 10
95.9697200534
 20
58.7748359377
 10
95.9720434413
 20
58.7999581526
 10
95.9739930814
 20
58.82967299
 10
95.9755567833
 20
58.863690428
 10
95.9767467375
 20
58.9018885377
 10
95.9775423306
 20
58.9442800569
 10
95.9779366916
 20
58.9908606968
 10
95.9779366915
 20
59.0412818269
 10
95.9775423304
 20
59.0950119978
 10
95.9767467372
 20
59.1515438203
 10
95.9755567828
 20
59.210757746
 10
95.9739930808
 20
59.2726707664
 10
95.9720434408
 20
59.3371841844
 10
95.9697200531
 20
59.4038114133
 10
95.964142651
 20
59.5412816894
  0
LINE
  5
2B2
100
AcDbEntity
  8
0
100
AcDbLine
 62
250
  6
CONTINUOUS
 10
98.3820469978
 20
76.0947816936
 11
99.4815658577
 21
76.6784259086
  0
LINE
  5
2B3
100
AcDbEntity
  8
0
100
AcDbLine
 62
250
  6
CONTINUOUS
 10
99.9063236463
 20
76.7687635558
 11
100.428415499
 21
77.04589922
  0
LINE
  5
2B4
100
AcDbEntity
  8
0
100
AcDbLine
 62
7
  6
CONTINUOUS
 10
98.5212863758
 20
75.9069704459
 11
100.4562744141
 21
76.9340965971
  0
LWPOLYLINE
  5
2B5
100
AcDbEntity
  8
0
100
AcDbPolyline
 62
250
  6
CONTINUOUS
 90
7
 70
0
 10
100.0452355753
 20
76.7159098528
 10
100.033541934
 20
76.7113734576
 10
100.0205823448
 20
76.7094888318
 10
100.0064850176
 20
76.7102728293
 10
99.9913916341
 20
76.713715317
 10
99.9754489288
 20
76.719780724
 10
99.9588060028
 20
76.7284124833
  0
LINE
  5
2B6
100
AcDbEntity
  8
0
100
AcDbLine
 62
7
  6
CONTINUOUS
 10
98.505902512
 20
128.2274237473
 11
100.4562744141
 21
128.4224609375
  0
LINE
  5
2B7
100
AcDbEntity
  8
0
100
AcDbLine
 62
7
  6
CONTINUOUS
 10
97.4562744141
 20
128.778280812
 11
100.2667416053
 21
128.9024476052
  0
LINE
  5
2B8
100
AcDbEntity
  8
0
100
AcDbLine
 62
7
  6
CONTINUOUS
 10
97.4562744141
 20
128.0724609375
 11
97.6062744141
 21
128.0724609375
  0
LINE
  5
2B9
100
AcDbEntity
  8
0
100
AcDbLine
 62
7
  6
CONTINUOUS
 10
97.9062744141
 20
128.0724609375
 11
98.1062744141
 21
128.0724609375
  0
LINE
  5
2BA
100
AcDbEntity
  8
0
100
AcDbLine
 62
7
  6
CONTINUOUS
 10
97.4562744141
 20
128.2224609375
 11
98.4063987929
 21
128.2224609375
  0
LINE
  5
2BB
100
AcDbEntity
  8
0
100
AcDbLine
 62
250
  6
CONTINUOUS
 10
98.3820469978
 20
129.9501401814
 11
97.4562744141
 21
129.9505583759
  0
LINE
  5
2BC
100
AcDbEntity
  8
0
100
AcDbLine
 62
7
  6
CONTINUOUS
 10
98.3821115744
 20
130.1725903762
 11
97.4562744141
 21
130.1742062685
  0
LINE
  5
2BD
100
AcDbEntity
  8
0
100
AcDbLine
 62
250
  6
CONTINUOUS
 10
99.9063236463
 20
129.2761583192
 11
97.4562744141
 21
129.2904122887
  0
LINE
  5
2BE
100
AcDbEntity
  8
0
100
AcDbLine
 62
7
  6
CONTINUOUS
 10
99.9063236463
 20
129.3640247978
 11
97.4562744141
 21
129.3782787673
  0
LWPOLYLINE
  5
2BF
100
AcDbEntity
  8
0
100
AcDbPolyline
 62
250
  6
CONTINUOUS
 90
7
 70
0
 10
100.0452355753
 20
129.3290120222
 10
100.0334910185
 20
129.3335616519
 10
100.0204981786
 20
129.3354364128
 10
100.00639349
 20
129.3346357413
 10
99.991346139
 20
129.3311926097
 10
99.9754888558
 20
129.3251591519
 10
99.9589047079
 20
129.3165669805
  0
LINE
  5
2C0
100
AcDbEntity
  8
0
100
AcDbLine
 62
250
  6
CONTINUOUS
 10
99.4815658577
 20
129.3664959664
 11
98.3820469978
 21
129.9501401814
  0
LINE
  5
2C1
100
AcDbEntity
  8
0
100
AcDbLine
 62
250
  6
CONTINUOUS
 10
100.428415499
 20
128.999022655
 11
99.9063236463
 21
129.2761583192
  0
LINE
  5
2C2
100
AcDbEntity
  8
0
100
AcDbLine
 62
7
  6
CONTINUOUS
 10
98.5212863758
 20
130.1379514291
 11
100.4562744141
 21
129.1108252779
  0
LINE
  5
2C3
100
AcDbEntity
  8
SMUSSO
100
AcDbLine
 62
7
  6
CONTINUOUS
 10
89.9062744141
 20
59.0224609375
 11
89.4062744141
 21
58.5224609375
  0
LINE
  5
2C4
100
AcDbEntity
  8
SMUSSO
100
AcDbLine
 62
7
  6
CONTINUOUS
 10
92.4062744141
 20
58.0224609375
 11
92.9062744141
 21
58.5224609375
  0
LINE
  5
2C5
100
AcDbEntity
  8
SMUSSO
100
AcDbLine
 62
7
  6
CONTINUOUS
 10
89.4062744141
 20
147.5224609375
 11
89.9062744141
 21
147.0224609375
  0
LINE
  5
2C6
100
AcDbEntity
  8
SMUSSO
100
AcDbLine
 62
7
  6
CONTINUOUS
 10
92.9062744141
 20
147.5224609375
 11
92.4062744141
 21
148.0224609375
  0
LINE
  5
2C7
100
AcDbEntity
  8
0
100
AcDbLine
 62
7
  6
CONTINUOUS
 10
95.9573180594
 20
58.7232958537
 11
97.4562744141
 21
59.9224609375
  0
LINE
  5
2C8
100
AcDbEntity
  8
0
100
AcDbLine
 62
7
  6
CONTINUOUS
 10
95.9573180594
 20
147.3216260213
 11
97.4562744141
 21
146.1224609375
  0
LINE
  5
2C9
100
AcDbEntity
  8
RACCORDO
100
AcDbLine
 62
250
  6
CONTINUOUS
 10
93.0562744141
 20
140.0224609375
 11
92.9062744141
 21
140.0224609375
  0
LINE
  5
2CA
100
AcDbEntity
  8
RACCORDO
100
AcDbLine
 62
7
  6
CONTINUOUS
 10
93.0562744141
 20
142.0224609375
 11
92.9062744141
 21
142.0224609375
  0
LWPOLYLINE
  5
2CB
100
AcDbEntity
  8
0
100
AcDbPolyline
 62
7
  6
CONTINUOUS
 90
13
 70
0
 43
0.3500000006
 10
79.7904802551
 20
160.4867385864
 10
79.5047736511
 20
160.7010411987
 10
79.5047736511
 20
161.3438946533
 10
79.7904802551
 20
161.772463623
 10
80.4333427734
 20
161.772463623
 10
80.7190584412
 20
161.3438946533
 10
80.7190584412
 20
160.7010411987
 10
80.4333427734
 20
160.4867385864
 10
80.8619117432
 20
160.0581696167
 10
80.8619117432
 20
159.2010316772
 10
80.4333427734
 20
158.7724627075
 10
79.7904802551
 20
158.7724627075
 10
79.3619112854
 20
159.2010316772
  0
LINE
  5
2CC
100
AcDbEntity
  8
RACCORDO
100
AcDbLine
 62
7
  6
CONTINUOUS
 10
93.0562744141
 20
144.0224609375
 11
92.9062744141
 21
144.0224609375
  0
LINE
  5
2CD
100
AcDbEntity
  8
0
100
AcDbLine
 62
250
  6
CONTINUOUS
 10
93.0562744141
 20
146.3224609375
 11
95.9562744141
 21
146.3224609375
  0
LINE
  5
2CE
100
AcDbEntity
  8
SMUSSO
100
AcDbLine
 62
7
  6
CONTINUOUS
 10
89.9062744141
 20
147.0224609375
 11
92.4062744141
 21
147.0224609375
  0
LINE
  5
2CF
100
AcDbEntity
  8
SMUSSO
100
AcDbLine
 62
7
  6
CONTINUOUS
 10
89.9062744141
 20
148.0224609375
 11
92.4062744141
 21
148.0224609375
  0
LWPOLYLINE
  5
2D0
100
AcDbEntity
  8
0
100
AcDbPolyline
 62
7
  6
CONTINUOUS
 90
8
 70
0
 43
0.3500000006
 10
83.433343689
 20
158.7724627075
 10
84.2904816284
 20
158.7724627075
 10
84.7190505981
 20
159.2010316772
 10
84.7190505981
 20
160.0581696167
 10
84.2904816284
 20
160.4867385864
 10
83.433343689
 20
160.4867385864
 10
83.433343689
 20
161.772463623
 10
84.7190505981
 20
161.772463623
  0
LWPOLYLINE
  5
2D1
100
AcDbEntity
  8
0
100
AcDbPolyline
 62
7
  6
CONTINUOUS
 90
8
 70
0
 43
0.3500000006
 10
85.5761976013
 20
158.7724627075
 10
86.4333446045
 20
158.7724627075
 10
86.8619135742
 20
159.2010316772
 10
86.8619135742
 20
160.0581696167
 10
86.4333446045
 20
160.4867385864
 10
85.5761976013
 20
160.4867385864
 10
85.5761976013
 20
161.772463623
 10
86.8619135742
 20
161.772463623
  0
LWPOLYLINE
  5
2D2
100
AcDbEntity
  8
0
100
AcDbPolyline
 62
7
  6
CONTINUOUS
 90
8
 70
0
 43
0.3500000006
 10
83.1205274963
 20
166.7724651489
 10
83.9776744995
 20
166.7724651489
 10
84.4062434692
 20
167.2010341187
 10
84.4062434692
 20
168.0581720581
 10
83.9776744995
 20
168.4867410278
 10
83.1205274963
 20
168.4867410278
 10
83.1205274963
 20
169.7724660645
 10
84.4062434692
 20
169.7724660645
  0
LWPOLYLINE
  5
2D3
100
AcDbEntity
  8
0
100
AcDbPolyline
 62
7
  6
CONTINUOUS
 90
8
 70
0
 43
0.3500000006
 10
85.2633904724
 20
166.7724651489
 10
86.1205284119
 20
166.7724651489
 10
86.5490973816
 20
167.2010341187
 10
86.5490973816
 20
168.0581720581
 10
86.1205284119
 20
168.4867410278
 10
85.2633904724
 20
168.4867410278
 10
85.2633904724
 20
169.7724660645
 10
86.5490973816
 20
169.7724660645
  0
LINE
  5
2D4
100
AcDbEntity
  8
0
100
AcDbLine
 62
7
  6
CONTINUOUS
 10
93.0562744141
 20
147.3730806258
 11
95.9562744141
 21
147.3224609375
  0
LINE
  5
2D5
100
AcDbEntity
  8
0
100
AcDbLine
 62
250
  6
CONTINUOUS
 10
95.9573180594
 20
146.3628676442
 11
97.4562744141
 21
146.0607712656
  0
ARC
  5
2D6
100
AcDbEntity
  8
0
100
AcDbCircle
 62
7
  6
CONTINUOUS
 10
210.860546875
 20
124.4224609375
 40
1.7
100
AcDbArc
 50
0.0
 51
90.0
  0
ARC
  5
2D7
100
AcDbEntity
  8
0
100
AcDbCircle
 62
7
  6
CONTINUOUS
 10
145.560546875
 20
124.4224609375
 40
1.7
100
AcDbArc
 50
90.0
 51
180.0
  0
ARC
  5
2D8
100
AcDbEntity
  8
0
100
AcDbCircle
 62
7
  6
CONTINUOUS
 10
145.560546875
 20
81.6224609375
 40
1.7
100
AcDbArc
 50
180.0
 51
270.0
  0
ARC
  5
2D9
100
AcDbEntity
  8
0
100
AcDbCircle
 62
7
  6
CONTINUOUS
 10
210.860546875
 20
81.6224609375
 40
1.7
100
AcDbArc
 50
270.0
 51
360.0
  0
ARC
  5
2DA
100
AcDbEntity
  8
0
100
AcDbCircle
 62
7
  6
CONTINUOUS
 10
145.560546875
 20
124.4224609375
 40
1.2
100
AcDbArc
 50
90.0
 51
180.0
  0
ARC
  5
2DB
100
AcDbEntity
  8
0
100
AcDbCircle
 62
7
  6
CONTINUOUS
 10
145.560546875
 20
81.6224609375
 40
1.2
100
AcDbArc
 50
180.0
 51
270.0
  0
ARC
  5
2DC
100
AcDbEntity
  8
0
100
AcDbCircle
 62
7
  6
CONTINUOUS
 10
210.860546875
 20
81.6224609375
 40
1.2
100
AcDbArc
 50
270.0
 51
360.0
  0
ARC
  5
2DD
100
AcDbEntity
  8
0
100
AcDbCircle
 62
7
  6
CONTINUOUS
 10
210.860546875
 20
124.4224609375
 40
1.2
100
AcDbArc
 50
0.0
 51
90.0
  0
ARC
  5
2DE
100
AcDbEntity
  8
0
100
AcDbCircle
 62
7
  6
CONTINUOUS
 10
98.4063987929
 20
129.2224609375
 40
1.0
100
AcDbArc
 50
270.0
 51
275.7105931375
  0
ARC
  5
2DF
100
AcDbEntity
  8
0
100
AcDbCircle
 62
7
  6
CONTINUOUS
 10
98.4063987929
 20
76.8224609375
 40
1.0
100
AcDbArc
 50
84.2894068625
 51
90.0
  0
ARC
  5
2E0
100
AcDbEntity
  8
0
100
AcDbCircle
 62
7
  6
CONTINUOUS
 10
98.3815877483
 20
76.1724614465
 40
0.3
100
AcDbArc
 50
270.1000001427
 51
297.9489609005
  0
ARC
  5
2E1
100
AcDbEntity
  8
0
100
AcDbCircle
 62
7
  6
CONTINUOUS
 10
98.3815877483
 20
129.8724604285
 40
0.3
100
AcDbArc
 50
62.0510390995
 51
89.8999998573
  0
ARC
  5
2E2
100
AcDbEntity
  8
0
100
AcDbCircle
 62
7
  6
CONTINUOUS
 10
99.9045783269
 20
76.9808920002
 40
0.3
100
AcDbArc
 50
270.3333333333
 51
297.9601595782
  0
ARC
  5
2E3
100
AcDbEntity
  8
0
100
AcDbCircle
 62
7
  6
CONTINUOUS
 10
99.9045783269
 20
129.0640298748
 40
0.3
100
AcDbArc
 50
62.0398404207
 51
89.6666666667
  0
ELLIPSE
  5
2E4
100
AcDbEntity
  8
0
100
AcDbEllipse
 62
7
  6
CONTINUOUS
 10
100.2562744141
 20
76.9426622425
 30
0.0
 11
0.1417119467
 21
0.1422961243
 31
0.0
 40
0.9918061237
 41
-0.2491986107
 42
0.7350951877
  0
ELLIPSE
  5
2E5
100
AcDbEntity
  8
0
100
AcDbEllipse
 62
7
  6
CONTINUOUS
 10
100.2562744141
 20
129.1022596325
 30
0.0
 11
-0.1417119467
 21
0.1422961243
 31
0.0
 40
0.9918061237
 41
-3.8766878413
 42
-2.8923940429
  0
ELLIPSE
  5
2E6
100
AcDbEntity
  8
0
100
AcDbEllipse
 62
7
  6
CONTINUOUS
 10
97.1795832452
 20
59.7224609375
 30
0.0
 11
1.2233088312
 21
0.0
 31
0.0
 40
0.7998095528
 41
-3.1415926536
 42
-3.1002827401
  0
ELLIPSE
  5
2E7
100
AcDbEntity
  8
0
100
AcDbEllipse
 62
7
  6
CONTINUOUS
 10
97.1795832452
 20
146.3224609375
 30
0.0
 11
1.2233088312
 21
0.0
 31
0.0
 40
0.7998095528
 41
3.1002827401
 42
3.1415926536
  0
ENDSEC
  0
SECTION
  2
OBJECTS
  0
DICTIONARY
  5
C
100
AcDbDictionary
280
0
281
1
  3
ACAD_GROUP
350
D
  3
ACAD_MLINESTYLE
350
17
  3
ACAD_LAYOUT
350
1A
  3
ACAD_PLOTSETTINGS
350
19
  3
ACAD_PLOTSTYLENAME
350
E
  0
DICTIONARY
  5
D
102
{ACAD_REACTORS
330
C
102
}
100
AcDbDictionary
280
0
281
1
  0
ACDBDICTIONARYWDFLT
  5
E
102
{ACAD_REACTORS
330
C
102
}
100
AcDbDictionary
281
1
  3
Normal
350
F
100
AcDbDictionaryWithDefault
340
F
  0
DICTIONARY
  5
17
102
{ACAD_REACTORS
330
C
102
}
100
AcDbDictionary
280
0
281
1
  3
Standard
350
18
  0
DICTIONARY
  5
19
102
{ACAD_REACTORS
330
C
102
}
100
AcDbDictionary
281
1
  0
DICTIONARY
  5
1A
102
{ACAD_REACTORS
330
C
102
}
100
AcDbDictionary
281
1
  3
Model
350
2E8
  3
Layout1
350
2E9
  0
ACDBPLACEHOLDER
  5
F
102
{ACAD_REACTORS
330
E
102
}
  0
MLINESTYLE
  5
18
102
{ACAD_REACTORS
330
17
102
}
100
AcDbMlineStyle
  2
STANDARD
 70
0
  3

 62
256
 51
90.0
 52
90.0
 71
2
 49
0.5
 62
256
  6
BYLAYER
 49
-0.5
 62
256
  6
BYLAYER
  0
LAYOUT
  5
2E8
102
{ACAD_REACTORS
330
1A
102
}
100
AcDbPlotSettings
  1

  2
none_device
  4
ISO_A4_(297.00_x_210.00_MM)
  6

 40
0.0
 41
0.0
 42
0.0
 43
0.0
 44
297.0
 45
210.0
 46
0.0
 47
0.0
 48
0.0
 49
0.0
140
0.0
141
0.0
142
1.0
143
1.0
 70
1024
 72
1
 73
0
 74
0
  7

 75
0
147
1.0
148
0.0
149
0.0
100
AcDbLayout
  1
Model
 70
0
 71
0
 10
0.0
 20
0.0
 11
297.0
 21
210.0
 12
0.0
 22
0.0
 32
0.0
 14
0.0
 24
0.0
 34
0.0
 15
0.0
 25
0.0
 35
0.0
146
0.0
 13
0.0
 23
0.0
 33
0.0
 16
1.0
 26
0.0
 36
0.0
 17
0.0
 27
1.0
 37
0.0
 76
0
330
21D
345
0
346
0
  0
LAYOUT
  5
2E9
102
{ACAD_REACTORS
330
1A
102
}
100
AcDbPlotSettings
  1

  2
none_device
  4
ISO_A4_(297.00_x_210.00_MM)
  6

 40
0.0
 41
0.0
 42
0.0
 43
0.0
 44
297.0
 45
210.0
 46
0.0
 47
0.0
 48
0.0
 49
0.0
140
0.0
141
0.0
142
1.0
143
1.0
 70
0
 72
1
 73
0
 74
0
  7

 75
0
147
1.0
148
0.0
149
0.0
100
AcDbLayout
  1
Layout1
 70
0
 71
1
 10
0.0
 20
0.0
 11
297.0
 21
210.0
 12
0.0
 22
0.0
 32
0.0
 14
0.0
 24
0.0
 34
0.0
 15
0.0
 25
0.0
 35
0.0
146
0.0
 13
0.0
 23
0.0
 33
0.0
 16
1.0
 26
0.0
 36
0.0
 17
0.0
 27
1.0
 37
0.0
 76
0
330
21E
345
0
346
0
  0
ENDSEC
  0
EOF
