  0
SECTION
  2
HEADER
  9
$ACADVER
  1
AC1024
  9
$DWGCODEPAGE
  3
ANSI_1252
  9
$EXTMAX
 10
297.0
 20
210.0
 30
0.0
  9
$EXTMIN
 10
0.0
 20
0.0
 30
0.0
  9
$LIMMIN
 10
0.0
 20
0.0
  9
$LIMMAX
 10
297.0
 20
210.0
  9
$VIEWCTR
 10
148.5
 20
105.0
  9
$VIEWSIZE
 40
210.0
  9
$CLAYER
  8
0
  9
$LTSCALE
 40
16.335
  9
$CELTYPE
  6
BYLAYER
  9
$DIMSCALE
 40
1.0
  9
$DIMASZ
 40
3.0
  9
$DIMEXO
 40
0.5
  9
$DIMDLI
 40
11.286
  9
$DIMEXE
 40
1.5
  9
$DIMCEN
 40
2.673
  9
$DIMLFAC
 40
1.0
  9
$DIMBLK
  1
_FILLED
  9
$DIMALT
 70
0
  9
$DIMALTF
 40
0.0393700787
  9
$DIMTXT
 40
3.0
  9
$DIMTOL
 70
1
  9
$DIMLIM
 70
0
  9
$DIMTFAC
 40
1.0
  9
$DIMTP
 40
0.01
  9
$DIMTM
 40
0.01
  9
$DIMGAP
 40
0.625
  9
$DIMDSEP
 70
44
  9
$AUNITS
 70
0
  9
$PDMODE
 70
3
  9
$PDSIZE
 40
3.0
  9
$HANDSEED
  5
48F
  9
$TILEMODE
 70
1
  9
$MEASUREMENT
 70
1
  9
$INSUNITS
 70
4
  0
ENDSEC
  0
SECTION
  2
CLASSES
  0
CLASS
  1
ACDBDICTIONARYWDFLT
  2
AcDbDictionaryWithDefault
  3
AutoCAD 2000
 90
0
 91
1
280
0
281
0
  0
CLASS
  1
ACDBPLACEHOLDER
  2
AcDbPlaceHolder
  3
AutoCAD 2000
 90
0
 91
1
280
0
281
0
  0
CLASS
  1
LAYOUT
  2
AcDbLayout
  3
AutoCAD 2000
 90
0
 91
0
280
0
281
0
  0
ENDSEC
  0
SECTION
  2
TABLES
  0
TABLE
  2
VPORT
  5
8
100
AcDbSymbolTable
 70
2
  0
VPORT
  5
1F4
100
AcDbSymbolTableRecord
100
AcDbViewportTableRecord
  2
*ACTIVE
 70
0
 10
0.0
 20
0.0
 11
1.0
 21
1.0
 12
148.5
 22
105.0
 13
0.0
 23
0.0
 14
1.0
 24
1.0
 15
0.0
 25
0.0
 16
0.0
 26
0.0
 36
1.0
 17
0.0
 27
0.0
 37
0.0
 40
210.0
 41
1.4142857143
 42
50.0
 43
0.0
 44
0.0
 50
0.0
 51
0.0
 71
0
 72
100
 73
1
 74
1
 75
0
 76
0
 77
0
 78
0
  0
ENDTAB
  0
TABLE
  2
LTYPE
  5
5
100
AcDbSymbolTable
 70
6
  0
LTYPE
  5
14
100
AcDbSymbolTableRecord
100
AcDbLinetypeTableRecord
  2
BYBLOCK
 70
0
  3

 72
65
 73
0
 40
0.0
  0
LTYPE
  5
15
100
AcDbSymbolTableRecord
100
AcDbLinetypeTableRecord
  2
BYLAYER
 70
0
  3

 72
65
 73
0
 40
0.0
  0
LTYPE
  5
16
100
AcDbSymbolTableRecord
100
AcDbLinetypeTableRecord
  2
CONTINUOUS
 70
64
  3
Solid line
 72
65
 73
0
 40
0.0
  0
LTYPE
  5
1F5
100
AcDbSymbolTableRecord
100
AcDbLinetypeTableRecord
  2
CENTER
 70
64
  3
____ _ ____ _ ____ _ ____ _ ____ _ ____ _ ____
 72
65
 73
4
 40
0.6
 49
0.375
 74
0
 49
-0.075
 74
0
 49
0.075
 74
0
 49
-0.075
 74
0
  0
LTYPE
  5
1F6
100
AcDbSymbolTableRecord
100
AcDbLinetypeTableRecord
  2
HIDDEN
 70
64
  3
- - - - - - - - - - - - - - - - - - - -
 72
65
 73
2
 40
0.2
 49
0.1
 74
0
 49
-0.1
 74
0
  0
LTYPE
  5
1F7
100
AcDbSymbolTableRecord
100
AcDbLinetypeTableRecord
  2
PHANTOM
 70
64
  3
_____ _ _ _____ _ _ _____ _ _ _____
 72
65
 73
6
 40
0.8
 49
0.45
 74
0
 49
-0.05
 74
0
 49
0.1
 74
0
 49
-0.05
 74
0
 49
0.1
 74
0
 49
-0.05
 74
0
  0
LTYPE
  5
1F8
100
AcDbSymbolTableRecord
100
AcDbLinetypeTableRecord
  2
DOT
 70
64
  3
. . . . . . . . . . . . . . . . . . . .
 72
65
 73
2
 40
0.2
 49
0.1
 74
0
 49
-0.1
 74
0
  0
LTYPE
  5
1F9
100
AcDbSymbolTableRecord
100
AcDbLinetypeTableRecord
  2
DASHED
 70
64
  3
- - - - - - - - - - - - - - - - - - - -
 72
65
 73
2
 40
0.2
 49
0.1
 74
0
 49
-0.1
 74
0
  0
ENDTAB
  0
TABLE
  2
LAYER
  5
2
100
AcDbSymbolTable
 70
36
  0
LAYER
  5
10
100
AcDbSymbolTableRecord
100
AcDbLayerTableRecord
  2
0
 70
0
 62
7
  6
CONTINUOUS
370
-3
390
F
  0
LAYER
  5
1FA
100
AcDbSymbolTableRecord
100
AcDbLayerTableRecord
  2
DEFAULT_1
 70
0
 62
7
  6
CENTER
370
-3
390
F
  0
LAYER
  5
1FB
100
AcDbSymbolTableRecord
100
AcDbLayerTableRecord
  2
DEFAULT_2
 70
0
 62
7
  6
HIDDEN
370
-3
390
F
  0
LAYER
  5
1FC
100
AcDbSymbolTableRecord
100
AcDbLayerTableRecord
  2
DEFAULT_3
 70
0
 62
7
  6
PHANTOM
370
-3
390
F
  0
LAYER
  5
1FD
100
AcDbSymbolTableRecord
100
AcDbLayerTableRecord
  2
ASSI
 70
0
 62
7
  6
CONTINUOUS
370
-3
390
F
  0
LAYER
  5
1FE
100
AcDbSymbolTableRecord
100
AcDbLayerTableRecord
  2
COORDINATE
 70
0
 62
7
  6
CONTINUOUS
370
-3
390
F
  0
LAYER
  5
1FF
100
AcDbSymbolTableRecord
100
AcDbLayerTableRecord
  2
COORD_ORIGINE
 70
0
 62
7
  6
CONTINUOUS
370
-3
390
F
  0
LAYER
  5
200
100
AcDbSymbolTableRecord
100
AcDbLayerTableRecord
  2
COPY_PUBLISH
 70
0
 62
7
  6
CONTINUOUS
370
-3
390
F
  0
LAYER
  5
201
100
AcDbSymbolTableRecord
100
AcDbLayerTableRecord
  2
COSMETIC
 70
0
 62
7
  6
CONTINUOUS
370
-3
390
F
  0
LAYER
  5
202
100
AcDbSymbolTableRecord
100
AcDbLayerTableRecord
  2
COSMETICI
 70
0
 62
7
  6
CONTINUOUS
370
-3
390
F
  0
LAYER
  5
203
100
AcDbSymbolTableRecord
100
AcDbLayerTableRecord
  2
CURVE
 70
0
 62
7
  6
CONTINUOUS
370
-3
390
F
  0
LAYER
  5
204
100
AcDbSymbolTableRecord
100
AcDbLayerTableRecord
  2
DRAFT
 70
0
 62
7
  6
CONTINUOUS
370
-3
390
F
  0
LAYER
  5
205
100
AcDbSymbolTableRecord
100
AcDbLayerTableRecord
  2
IMPORT_IGES
 70
0
 62
7
  6
CONTINUOUS
370
-3
390
F
  0
LAYER
  5
206
100
AcDbSymbolTableRecord
100
AcDbLayerTableRecord
  2
INTFCLR_2
 70
0
 62
7
  6
CONTINUOUS
370
-3
390
F
  0
LAYER
  5
207
100
AcDbSymbolTableRecord
100
AcDbLayerTableRecord
  2
INTF_1
 70
0
 62
7
  6
CONTINUOUS
370
-3
390
F
  0
LAYER
  5
208
100
AcDbSymbolTableRecord
100
AcDbLayerTableRecord
  2
INTF_21
 70
0
 62
7
  6
CONTINUOUS
370
-3
390
F
  0
LAYER
  5
209
100
AcDbSymbolTableRecord
100
AcDbLayerTableRecord
  2
INTF_7
 70
0
 62
7
  6
CONTINUOUS
370
-3
390
F
  0
LAYER
  5
20A
100
AcDbSymbolTableRecord
100
AcDbLayerTableRecord
  2
INTF_CYAN
 70
0
 62
7
  6
CONTINUOUS
370
-3
390
F
  0
LAYER
  5
20B
100
AcDbSymbolTableRecord
100
AcDbLayerTableRecord
  2
LINEA_CHIUSURA
 70
0
 62
7
  6
CONTINUOUS
370
-3
390
F
  0
LAYER
  5
20C
100
AcDbSymbolTableRecord
100
AcDbLayerTableRecord
  2
NOTE
 70
0
 62
7
  6
CONTINUOUS
370
-3
390
F
  0
LAYER
  5
20D
100
AcDbSymbolTableRecord
100
AcDbLayerTableRecord
  2
PIANI
 70
0
 62
7
  6
CONTINUOUS
370
-3
390
F
  0
LAYER
  5
20E
100
AcDbSymbolTableRecord
100
AcDbLayerTableRecord
  2
PIANI_ORIGINE
 70
0
 62
7
  6
CONTINUOUS
370
-3
390
F
  0
LAYER
  5
20F
100
AcDbSymbolTableRecord
100
AcDbLayerTableRecord
  2
PIANI_RIFERIMENTO
 70
0
 62
7
  6
CONTINUOUS
370
-3
390
F
  0
LAYER
  5
210
100
AcDbSymbolTableRecord
100
AcDbLayerTableRecord
  2
PUNTI
 70
0
 62
7
  6
CONTINUOUS
370
-3
390
F
  0
LAYER
  5
211
100
AcDbSymbolTableRecord
100
AcDbLayerTableRecord
  2
RACCORDO
 70
0
 62
7
  6
CONTINUOUS
370
-3
390
F
  0
LAYER
  5
212
100
AcDbSymbolTableRecord
100
AcDbLayerTableRecord
  2
RGB__255__255__255__
 70
0
 62
7
  6
CONTINUOUS
370
-3
390
F
  0
LAYER
  5
213
100
AcDbSymbolTableRecord
100
AcDbLayerTableRecord
  2
RGB____0____0____0__
 70
0
 62
7
  6
CONTINUOUS
370
-3
390
F
  0
LAYER
  5
214
100
AcDbSymbolTableRecord
100
AcDbLayerTableRecord
  2
SIMBOLI
 70
0
 62
7
  6
CONTINUOUS
370
-3
390
F
  0
LAYER
  5
215
100
AcDbSymbolTableRecord
100
AcDbLayerTableRecord
  2
SMUSSO
 70
0
 62
7
  6
CONTINUOUS
370
-3
390
F
  0
LAYER
  5
216
100
AcDbSymbolTableRecord
100
AcDbLayerTableRecord
  2
SNAPLINE
 70
0
 62
7
  6
CONTINUOUS
370
-3
390
F
  0
LAYER
  5
217
100
AcDbSymbolTableRecord
100
AcDbLayerTableRecord
  2
SUPERFICI
 70
0
 62
7
  6
CONTINUOUS
370
-3
390
F
  0
LAYER
  5
218
100
AcDbSymbolTableRecord
100
AcDbLayerTableRecord
  2
TRASH
 70
0
 62
7
  6
CONTINUOUS
370
-3
390
F
  0
LAYER
  5
219
100
AcDbSymbolTableRecord
100
AcDbLayerTableRecord
  2
XSEC_DATUMS
 70
0
 62
7
  6
CONTINUOUS
370
-3
390
F
  0
ENDTAB
  0
TABLE
  2
STYLE
  5
3
100
AcDbSymbolTable
 70
1
  0
STYLE
  5
11
100
AcDbSymbolTableRecord
100
AcDbTextStyleTableRecord
  2
STANDARD
 70
0
 40
0.0
 41
0.8
 50
0.0
 71
0
 42
0.2
  3
txt
  4

  0
STYLE
  5
21A
100
AcDbSymbolTableRecord
100
AcDbTextStyleTableRecord
  2
TEXTSTYLE_1
 70
0
 40
0.0
 41
0.8
 50
0.0
 71
0
 42
0.2
  3
gdt
  4

  0
ENDTAB
  0
TABLE
  2
VIEW
  5
6
100
AcDbSymbolTable
 70
0
  0
ENDTAB
  0
TABLE
  2
UCS
  5
7
100
AcDbSymbolTable
 70
0
  0
ENDTAB
  0
TABLE
  2
APPID
  5
9
100
AcDbSymbolTable
 70
1
  0
APPID
  5
21B
100
AcDbSymbolTableRecord
100
AcDbRegAppTableRecord
  2
ACAD
 70
0
  0
ENDTAB
  0
TABLE
  2
BLOCK_RECORD
  5
1
100
AcDbSymbolTable
 70
0
  0
BLOCK_RECORD
  5
21C
100
AcDbSymbolTableRecord
100
AcDbBlockTableRecord
  2
*Model_Space
  0
BLOCK_RECORD
  5
21D
100
AcDbSymbolTableRecord
100
AcDbBlockTableRecord
  2
*Paper_Space
  0
BLOCK_RECORD
  5
21E
100
AcDbSymbolTableRecord
100
AcDbBlockTableRecord
  2
_FILLED
  0
BLOCK_RECORD
  5
21F
100
AcDbSymbolTableRecord
100
AcDbBlockTableRecord
  2
*D0
  0
BLOCK_RECORD
  5
220
100
AcDbSymbolTableRecord
100
AcDbBlockTableRecord
  2
*D1
  0
BLOCK_RECORD
  5
221
100
AcDbSymbolTableRecord
100
AcDbBlockTableRecord
  2
*D2
  0
BLOCK_RECORD
  5
222
100
AcDbSymbolTableRecord
100
AcDbBlockTableRecord
  2
*D3
  0
ENDTAB
  0
TABLE
  2
DIMSTYLE
  5
A
100
AcDbSymbolTable
 70
1
100
AcDbDimStyleTable
 71
0
  0
DIMSTYLE
105
223
100
AcDbSymbolTableRecord
100
AcDbDimStyleTableRecord
  2
STANDARD
 70
0
  3

  4

 40
1.0
 41
3.0
 42
0.5
 43
0.38
 44
1.5
 45
0.0
 46
0.0
 47
0.01
 48
0.01
140
3.0
141
0.09
142
0.0
143
25.4
144
1.0
145
0.0
146
1.0
147
0.625
 71
1
 72
0
 73
0
 74
0
 75
0
 76
0
 77
1
 78
8
 79
2
170
0
171
1
172
0
173
0
174
0
175
0
176
0
177
0
178
0
270
2
179
2
271
2
272
2
273
2
274
2
275
0
280
0
281
0
282
0
283
1
284
8
285
0
286
0
287
3
288
0
340
11
278
44
341
21E
342
21E
343
21E
344
21E
  0
DIMSTYLE
105
224
100
AcDbSymbolTableRecord
100
AcDbDimStyleTableRecord
  2
DIMSTYLE_1
 70
0
  3

  4

 40
1.0
 41
3.0
 42
0.5
 43
0.38
 44
1.5
 45
0.0
 46
0.0
 47
0.0
 48
0.0
140
3.0
141
0.09
142
0.0
143
25.4
144
1.0
145
0.0
146
1.0
147
0.75
 71
0
 72
0
 73
0
 74
0
 75
0
 76
0
 77
1
 78
8
 79
2
170
0
171
1
172
0
173
0
174
0
175
0
176
0
177
0
178
0
270
2
179
2
271
2
272
2
273
2
274
2
275
0
280
0
281
0
282
0
283
1
284
8
285
0
286
0
287
3
288
0
340
11
278
44
341
21E
342
21E
343
21E
344
21E
  0
ENDTAB
  0
ENDSEC
  0
SECTION
  2
BLOCKS
  0
BLOCK
  5
20
100
AcDbEntity
  8
0
100
AcDbBlockBegin
  2
*Model_Space
 70
0
 10
0.0
 20
0.0
 30
0.0
  3
*Model_Space
  1

  0
ENDBLK
  5
21
100
AcDbEntity
  8
0
100
AcDbBlockEnd
  0
BLOCK
  5
1C
100
AcDbEntity
  8
0
100
AcDbBlockBegin
  2
*Paper_Space
 70
0
 10
0.0
 20
0.0
 30
0.0
  3
*Paper_Space
  1

  0
ENDBLK
  5
1D
100
AcDbEntity
  8
0
100
AcDbBlockEnd
  0
BLOCK
  5
225
100
AcDbEntity
  8
0
100
AcDbBlockBegin
  2
_FILLED
 70
64
 10
0.0
 20
0.0
  3
_FILLED
  1

  0
SOLID
  5
226
100
AcDbEntity
  8
0
  6
BYBLOCK
 62
0
100
AcDbTrace
 10
0.0
 20
0.0
 11
-1.0
 21
0.3166666667
 12
-1.0
 22
-0.3166666667
 13
-1.0
 23
-0.3166666667
  0
ENDBLK
  5
227
100
AcDbEntity
  8
0
  6
BYBLOCK
 62
0
100
AcDbBlockEnd
  0
BLOCK
  5
228
100
AcDbEntity
  8
0
100
AcDbBlockBegin
 62
7
  6
CONTINUOUS
  2
*D0
 70
65
 10
0.0
 20
0.0
  3
*D0
  1

  0
MTEXT
  5
229
100
AcDbEntity
  8
0
100
AcDbMText
 62
7
  6
CONTINUOUS
  7
STANDARD
 71
1
 72
1
 10
-100.3762810569
 20
58.75
 30
0.0
 11
1.0
 21
0.0
 31
0.0
 73
2
 44
0.9
  1
{\ftxt;\W0.0001;\H0.0001;\~}{\ftxt;\W2.6428571429;\H3.0; }{\ftxt;\W0.0001;\H0.0001;\~}
 40
3.0
 41
11.8928571429
  0
LINE
  5
22A
100
AcDbEntity
  8
0
100
AcDbLine
 62
7
  6
CONTINUOUS
 10
-112.1676382996
 20
43.8767374102
 11
-112.1676382996
 21
56.5
  0
LINE
  5
22B
100
AcDbEntity
  8
0
100
AcDbLine
 62
7
  6
CONTINUOUS
 10
-105.0176382996
 20
41.7038975196
 11
-105.0176382996
 21
56.5
  0
LINE
  5
22C
100
AcDbEntity
  8
0
100
AcDbLine
 62
7
  6
CONTINUOUS
 10
-112.1676382996
 20
55.0
 11
-108.5926382996
 21
55.0
  0
LINE
  5
22D
100
AcDbEntity
  8
0
100
AcDbLine
 62
7
  6
CONTINUOUS
 10
-105.0176382996
 20
55.0
 11
-108.5926382996
 21
55.0
  0
LINE
  5
22E
100
AcDbEntity
  8
0
100
AcDbLine
 62
7
  6
CONTINUOUS
 10
-108.5926382996
 20
55.0
 11
-92.4477096283
 21
55.0
  0
INSERT
  5
22F
100
AcDbEntity
  8
0
100
AcDbBlockReference
 62
7
  6
CONTINUOUS
  2
_FILLED
 10
-112.1676382996
 20
55.0
 41
3.0
 42
3.0
 43
3.0
 50
180.0
  0
INSERT
  5
230
100
AcDbEntity
  8
0
100
AcDbBlockReference
 62
7
  6
CONTINUOUS
  2
_FILLED
 10
-105.0176382996
 20
55.0
 41
3.0
 42
3.0
 43
3.0
  0
ENDBLK
  5
231
100
AcDbEntity
  8
0
  6
BYBLOCK
 62
0
100
AcDbBlockEnd
  0
BLOCK
  5
232
100
AcDbEntity
  8
0
100
AcDbBlockBegin
 62
7
  6
CONTINUOUS
  2
*D1
 70
65
 10
0.0
 20
0.0
  3
*D1
  1

  0
MTEXT
  5
233
100
AcDbEntity
  8
0
100
AcDbMText
 62
7
  6
CONTINUOUS
  7
STANDARD
 71
1
 72
1
 10
-100.9439010197
 20
66.75
 30
0.0
 11
1.0
 21
0.0
 31
0.0
 73
2
 44
0.9
  1
{\ftxt;\W0.0001;\H0.0001;\~}{\ftxt;\W3.2142857143;\H3.0; }{\ftxt;\W0.0001;\H0.0001;\~}
 40
3.0
 41
14.4642857143
  0
LINE
  5
234
100
AcDbEntity
  8
0
100
AcDbLine
 62
7
  6
CONTINUOUS
 10
-102.0176382996
 20
26.5463167932
 11
-102.0176382996
 21
64.5
  0
LINE
  5
235
100
AcDbEntity
  8
0
100
AcDbLine
 62
7
  6
CONTINUOUS
 10
-112.1676382996
 20
43.8767374102
 11
-112.1676382996
 21
64.5
  0
LINE
  5
236
100
AcDbEntity
  8
0
100
AcDbLine
 62
7
  6
CONTINUOUS
 10
-102.0176382996
 20
63.0
 11
-107.0926382996
 21
63.0
  0
LINE
  5
237
100
AcDbEntity
  8
0
100
AcDbLine
 62
7
  6
CONTINUOUS
 10
-107.0926382996
 20
63.0
 11
-91.3010438769
 21
63.0
  0
LINE
  5
238
100
AcDbEntity
  8
0
100
AcDbLine
 62
7
  6
CONTINUOUS
 10
-112.1676382996
 20
63.0
 11
-107.0926382996
 21
63.0
  0
INSERT
  5
239
100
AcDbEntity
  8
0
100
AcDbBlockReference
 62
7
  6
CONTINUOUS
  2
_FILLED
 10
-102.0176382996
 20
63.0
 41
3.0
 42
3.0
 43
3.0
  0
INSERT
  5
23A
100
AcDbEntity
  8
0
100
AcDbBlockReference
 62
7
  6
CONTINUOUS
  2
_FILLED
 10
-112.1676382996
 20
63.0
 41
3.0
 42
3.0
 43
3.0
 50
180.0
  0
ENDBLK
  5
23B
100
AcDbEntity
  8
0
  6
BYBLOCK
 62
0
100
AcDbBlockEnd
  0
BLOCK
  5
23C
100
AcDbEntity
  8
0
100
AcDbBlockBegin
 62
7
  6
CONTINUOUS
  2
*D2
 70
65
 10
0.0
 20
0.0
  3
*D2
  1

  0
MTEXT
  5
23D
100
AcDbEntity
  8
0
100
AcDbMText
 62
7
  6
CONTINUOUS
  7
STANDARD
 71
2
 72
1
 10
0.0
 20
58.75
 30
0.0
 11
1.0
 21
0.0
 31
0.0
 73
2
 44
0.9
  1
{\ftxt;\W0.0001;\H0.0001;\~}{\ftxt;\W3.3571428571;\H3.0; }{\ftxt;\W0.0001;\H0.0001;\~}
 40
3.0
 41
15.1071428571
  0
LINE
  5
23E
100
AcDbEntity
  8
0
100
AcDbLine
 62
7
  6
CONTINUOUS
 10
-79.65
 20
44.4993911979
 11
-79.65
 21
56.5
  0
LINE
  5
23F
100
AcDbEntity
  8
0
100
AcDbLine
 62
7
  6
CONTINUOUS
 10
79.65
 20
44.4993911979
 11
79.65
 21
56.5
  0
LINE
  5
240
100
AcDbEntity
  8
0
100
AcDbLine
 62
7
  6
CONTINUOUS
 10
-79.65
 20
55.0
 11
0.0
 21
55.0
  0
LINE
  5
241
100
AcDbEntity
  8
0
100
AcDbLine
 62
7
  6
CONTINUOUS
 10
79.65
 20
55.0
 11
0.0
 21
55.0
  0
INSERT
  5
242
100
AcDbEntity
  8
0
100
AcDbBlockReference
 62
7
  6
CONTINUOUS
  2
_FILLED
 10
-79.65
 20
55.0
 41
3.0
 42
3.0
 43
3.0
 50
180.0
  0
INSERT
  5
243
100
AcDbEntity
  8
0
100
AcDbBlockReference
 62
7
  6
CONTINUOUS
  2
_FILLED
 10
79.65
 20
55.0
 41
3.0
 42
3.0
 43
3.0
  0
ENDBLK
  5
244
100
AcDbEntity
  8
0
  6
BYBLOCK
 62
0
100
AcDbBlockEnd
  0
BLOCK
  5
245
100
AcDbEntity
  8
0
100
AcDbBlockBegin
 62
7
  6
CONTINUOUS
  2
*D3
 70
65
 10
0.0
 20
0.0
  3
*D3
  1

  0
MTEXT
  5
246
100
AcDbEntity
  8
0
100
AcDbMText
 62
7
  6
CONTINUOUS
  7
STANDARD
 71
2
 72
1
 10
85.9
 20
0.0
 30
0.0
 11
0.0
 21
1.0
 31
0.0
 73
2
 44
0.9
  1
{\ftxt;\W0.0001;\H0.0001;\~}{\ftxt;\W1.5714285714;\H3.0; }{\ftxt;\W0.0001;\H0.0001;\~}
 40
3.0
 41
7.0714285714
  0
LINE
  5
247
100
AcDbEntity
  8
0
100
AcDbLine
 62
7
  6
CONTINUOUS
 10
79.1493911979
 20
45.0
 11
91.15
 21
45.0
  0
LINE
  5
248
100
AcDbEntity
  8
0
100
AcDbLine
 62
7
  6
CONTINUOUS
 10
79.1493911979
 20
-45.0
 11
91.15
 21
-45.0
  0
LINE
  5
249
100
AcDbEntity
  8
0
100
AcDbLine
 62
7
  6
CONTINUOUS
 10
89.65
 20
45.0
 11
89.65
 21
0.0
  0
LINE
  5
24A
100
AcDbEntity
  8
0
100
AcDbLine
 62
7
  6
CONTINUOUS
 10
89.65
 20
-45.0
 11
89.65
 21
0.0
  0
INSERT
  5
24B
100
AcDbEntity
  8
0
100
AcDbBlockReference
 62
7
  6
CONTINUOUS
  2
_FILLED
 10
89.65
 20
45.0
 41
3.0
 42
3.0
 43
3.0
 50
90.0
  0
INSERT
  5
24C
100
AcDbEntity
  8
0
100
AcDbBlockReference
 62
7
  6
CONTINUOUS
  2
_FILLED
 10
89.65
 20
-45.0
 41
3.0
 42
3.0
 43
3.0
 50
270.0
  0
ENDBLK
  5
24D
100
AcDbEntity
  8
0
  6
BYBLOCK
 62
0
100
AcDbBlockEnd
  0
ENDSEC
  0
SECTION
  2
ENTITIES
  0
DIMENSION
  5
24E
100
AcDbEntity
  8
0
100
AcDbDimension
 62
7
  6
CONTINUOUS
  2
*D0
 10
-105.0176382996
 20
55.0
 11
-96.8405670319
 21
55.0
 70
160
 71
1
 72
2
 41
0.9
 42
7.15
  1
{\ftxt;\W0.0001;\H0.0001;\~}{\ftxt;\W2.6428571429;\H3.0; }{\ftxt;\W0.0001;\H0.0001;\~}
  3
DIMSTYLE_1
100
AcDbAlignedDimension
 13
-112.1676382996
 23
43.3767374102
 14
-105.0176382996
 24
41.2038975196
100
AcDbRotatedDimension
  0
DIMENSION
  5
24F
100
AcDbEntity
  8
0
100
AcDbDimension
 62
7
  6
CONTINUOUS
  2
*D1
 10
-112.1676382996
 20
63.0
 11
-96.5510446014
 21
63.0
 70
160
 71
1
 72
2
 41
0.9
 42
10.15
  1
{\ftxt;\W0.0001;\H0.0001;\~}{\ftxt;\W3.2142857143;\H3.0; }{\ftxt;\W0.0001;\H0.0001;\~}
  3
DIMSTYLE_1
100
AcDbAlignedDimension
 13
-102.0176382996
 23
26.0463167932
 14
-112.1676382996
 24
43.3767374102
 50
180.0
100
AcDbRotatedDimension
  0
DIMENSION
  5
250
100
AcDbEntity
  8
0
100
AcDbDimension
 62
7
  6
CONTINUOUS
  2
*D2
 10
79.65
 20
55.0
 11
-0.4285713773
 21
55.0
 70
160
 71
2
 72
2
 41
0.9
 42
159.3
  1
{\ftxt;\W0.0001;\H0.0001;\~}{\ftxt;\W3.3571428571;\H3.0; }{\ftxt;\W0.0001;\H0.0001;\~}
  3
DIMSTYLE_1
100
AcDbAlignedDimension
 13
-79.65
 23
43.9993911979
 14
79.65
 24
43.9993911979
100
AcDbRotatedDimension
  0
DIMENSION
  5
251
100
AcDbEntity
  8
0
100
AcDbDimension
 62
7
  6
CONTINUOUS
  2
*D3
 10
89.65
 20
-45.0
 11
89.65
 21
-0.4285734907
 70
160
 71
2
 72
2
 41
0.9
 42
90.0
  1
{\ftxt;\W0.0001;\H0.0001;\~}{\ftxt;\W1.5714285714;\H3.0; }{\ftxt;\W0.0001;\H0.0001;\~}
  3
DIMSTYLE_1
100
AcDbAlignedDimension
 13
78.6493911979
 23
45.0
 14
78.6493911979
 24
-45.0
 50
270.0
100
AcDbRotatedDimension
  0
LINE
  5
252
100
AcDbEntity
  8
SMUSSO
100
AcDbLine
 62
7
  6
CONTINUOUS
 10
-78.4699854699
 20
44.7906993223
 11
-78.4555596544
 21
44.8061684565
  0
LINE
  5
253
100
AcDbEntity
  8
ASSI
100
AcDbLine
 62
7
  6
CONTINUOUS
 10
-78.4699854699
 20
44.7906993223
 11
-78.4555596544
 21
44.8061684565
  0
LINE
  5
254
100
AcDbEntity
  8
SMUSSO
100
AcDbLine
 62
7
  6
CONTINUOUS
 10
-79.65
 20
43.9993911979
 11
-78.6493911979
 21
45.0
  0
LINE
  5
255
100
AcDbEntity
  8
ASSI
100
AcDbLine
 62
7
  6
CONTINUOUS
 10
-79.65
 20
43.9993911979
 11
-78.6493911979
 21
45.0
  0
LINE
  5
256
100
AcDbEntity
  8
SMUSSO
100
AcDbLine
 62
7
  6
CONTINUOUS
 10
-78.4699854699
 20
44.7906993223
 11
-79.4406993223
 21
43.8199854699
  0
LINE
  5
257
100
AcDbEntity
  8
ASSI
100
AcDbLine
 62
7
  6
CONTINUOUS
 10
-78.4699854699
 20
44.7906993223
 11
-79.4406993223
 21
43.8199854699
  0
LINE
  5
258
100
AcDbEntity
  8
SMUSSO
100
AcDbLine
 62
7
  6
CONTINUOUS
 10
-78.0267374102
 20
43.7712689598
 11
-78.4212689598
 21
43.3767374102
  0
LINE
  5
259
100
AcDbEntity
  8
ASSI
100
AcDbLine
 62
7
  6
CONTINUOUS
 10
-78.0267374102
 20
43.7712689598
 11
-78.4212689598
 21
43.3767374102
  0
LINE
  5
25A
100
AcDbEntity
  8
SMUSSO
100
AcDbLine
 62
7
  6
CONTINUOUS
 10
-79.4561684565
 20
43.8055596544
 11
-79.4406993223
 21
43.8199854699
  0
LINE
  5
25B
100
AcDbEntity
  8
ASSI
100
AcDbLine
 62
7
  6
CONTINUOUS
 10
-79.4561684565
 20
43.8055596544
 11
-79.4406993223
 21
43.8199854699
  0
LINE
  5
25C
100
AcDbEntity
  8
SMUSSO
100
AcDbLine
 62
7
  6
CONTINUOUS
 10
-79.4406993223
 20
-43.8199854699
 11
-79.4561684565
 21
-43.8055596544
  0
LINE
  5
25D
100
AcDbEntity
  8
ASSI
100
AcDbLine
 62
7
  6
CONTINUOUS
 10
-79.4406993223
 20
-43.8199854699
 11
-79.4561684565
 21
-43.8055596544
  0
LINE
  5
25E
100
AcDbEntity
  8
SMUSSO
100
AcDbLine
 62
7
  6
CONTINUOUS
 10
-78.6493911979
 20
-45.0
 11
-79.65
 21
-43.9993911979
  0
LINE
  5
25F
100
AcDbEntity
  8
ASSI
100
AcDbLine
 62
7
  6
CONTINUOUS
 10
-78.6493911979
 20
-45.0
 11
-79.65
 21
-43.9993911979
  0
LINE
  5
260
100
AcDbEntity
  8
SMUSSO
100
AcDbLine
 62
7
  6
CONTINUOUS
 10
-79.4406993223
 20
-43.8199854699
 11
-78.4699854699
 21
-44.7906993223
  0
LINE
  5
261
100
AcDbEntity
  8
ASSI
100
AcDbLine
 62
7
  6
CONTINUOUS
 10
-79.4406993223
 20
-43.8199854699
 11
-78.4699854699
 21
-44.7906993223
  0
LINE
  5
262
100
AcDbEntity
  8
SMUSSO
100
AcDbLine
 62
7
  6
CONTINUOUS
 10
-78.4212689598
 20
-43.3767374102
 11
-78.0267374102
 21
-43.7712689598
  0
LINE
  5
263
100
AcDbEntity
  8
ASSI
100
AcDbLine
 62
7
  6
CONTINUOUS
 10
-78.4212689598
 20
-43.3767374102
 11
-78.0267374102
 21
-43.7712689598
  0
LINE
  5
264
100
AcDbEntity
  8
SMUSSO
100
AcDbLine
 62
7
  6
CONTINUOUS
 10
-78.4555596544
 20
-44.8061684565
 11
-78.4699854699
 21
-44.7906993223
  0
LINE
  5
265
100
AcDbEntity
  8
ASSI
100
AcDbLine
 62
7
  6
CONTINUOUS
 10
-78.4555596544
 20
-44.8061684565
 11
-78.4699854699
 21
-44.7906993223
  0
LINE
  5
266
100
AcDbEntity
  8
SMUSSO
100
AcDbLine
 62
7
  6
CONTINUOUS
 10
-79.65
 20
43.9993911979
 11
-79.65
 21
-43.9993911979
  0
LINE
  5
267
100
AcDbEntity
  8
ASSI
100
AcDbLine
 62
7
  6
CONTINUOUS
 10
-79.65
 20
43.9993911979
 11
-79.65
 21
-43.9993911979
  0
LINE
  5
268
100
AcDbEntity
  8
SMUSSO
100
AcDbLine
 62
7
  6
CONTINUOUS
 10
-79.4561684565
 20
43.8055596544
 11
-79.4561684565
 21
-43.8055596544
  0
LINE
  5
269
100
AcDbEntity
  8
ASSI
100
AcDbLine
 62
7
  6
CONTINUOUS
 10
-79.4561684565
 20
43.8055596544
 11
-79.4561684565
 21
-43.8055596544
  0
LINE
  5
26A
100
AcDbEntity
  8
SMUSSO
100
AcDbLine
 62
7
  6
CONTINUOUS
 10
-78.4212689598
 20
43.3767374102
 11
-78.4212689598
 21
-43.3767374102
  0
LINE
  5
26B
100
AcDbEntity
  8
ASSI
100
AcDbLine
 62
7
  6
CONTINUOUS
 10
-78.4212689598
 20
43.3767374102
 11
-78.4212689598
 21
-43.3767374102
  0
LINE
  5
26C
100
AcDbEntity
  8
0
100
AcDbLine
 62
250
  6
CONTINUOUS
 10
-56.5990109861
 20
-22.1494374072
 11
-56.5990109861
 21
22.1494374072
  0
LINE
  5
26D
100
AcDbEntity
  8
ASSI
100
AcDbLine
 62
250
  6
CONTINUOUS
 10
-56.5990109861
 20
-22.1494374072
 11
-56.5990109861
 21
22.1494374072
  0
LINE
  5
26E
100
AcDbEntity
  8
0
100
AcDbLine
 62
250
  6
CONTINUOUS
 10
-56.3991328207
 20
-22.1494374072
 11
-56.3991328207
 21
22.1494374072
  0
LINE
  5
26F
100
AcDbEntity
  8
ASSI
100
AcDbLine
 62
250
  6
CONTINUOUS
 10
-56.3991328207
 20
-22.1494374072
 11
-56.3991328207
 21
22.1494374072
  0
LINE
  5
270
100
AcDbEntity
  8
0
100
AcDbLine
 62
7
  6
CONTINUOUS
 10
-56.35
 20
22.1003045865
 11
-56.35
 21
-22.1003045865
  0
LINE
  5
271
100
AcDbEntity
  8
ASSI
100
AcDbLine
 62
7
  6
CONTINUOUS
 10
-56.35
 20
22.1003045865
 11
-56.35
 21
-22.1003045865
  0
LINE
  5
272
100
AcDbEntity
  8
0
100
AcDbLine
 62
250
  6
CONTINUOUS
 10
-55.8994374072
 20
22.8490109861
 11
-55.8994374072
 21
22.6491328207
  0
LINE
  5
273
100
AcDbEntity
  8
ASSI
100
AcDbLine
 62
250
  6
CONTINUOUS
 10
-55.8994374072
 20
22.8490109861
 11
-55.8994374072
 21
22.6491328207
  0
LINE
  5
274
100
AcDbEntity
  8
0
100
AcDbLine
 62
250
  6
CONTINUOUS
 10
-55.8994374072
 20
-22.8490109861
 11
-55.8994374072
 21
-22.6491328207
  0
LINE
  5
275
100
AcDbEntity
  8
ASSI
100
AcDbLine
 62
250
  6
CONTINUOUS
 10
-55.8994374072
 20
-22.8490109861
 11
-55.8994374072
 21
-22.6491328207
  0
LINE
  5
276
100
AcDbEntity
  8
SMUSSO
100
AcDbLine
 62
7
  6
CONTINUOUS
 10
-78.0267374102
 20
-43.7712689598
 11
-78.4699854699
 21
-44.7906993223
  0
LINE
  5
277
100
AcDbEntity
  8
ASSI
100
AcDbLine
 62
7
  6
CONTINUOUS
 10
-78.0267374102
 20
-43.7712689598
 11
-78.4699854699
 21
-44.7906993223
  0
LINE
  5
278
100
AcDbEntity
  8
SMUSSO
100
AcDbLine
 62
7
  6
CONTINUOUS
 10
-78.0267374102
 20
43.7712689598
 11
-78.4699854699
 21
44.7906993223
  0
LINE
  5
279
100
AcDbEntity
  8
ASSI
100
AcDbLine
 62
7
  6
CONTINUOUS
 10
-78.0267374102
 20
43.7712689598
 11
-78.4699854699
 21
44.7906993223
  0
LWPOLYLINE
  5
27A
100
AcDbEntity
  8
0
100
AcDbPolyline
 62
7
  6
CONTINUOUS
 90
3
 70
0
 43
0.3500000006
 10
-5.0357142849
 20
57.8928615417
 10
-4.1785715303
 20
58.7499994812
 10
-4.1785715303
 20
55.7499985657
  0
LWPOLYLINE
  5
27B
100
AcDbEntity
  8
0
100
AcDbPolyline
 62
7
  6
CONTINUOUS
 90
5
 70
0
 43
0.3500000006
 10
3.7500000114
 20
57.4642835083
 10
4.1071428967
 20
57.6785679932
 10
4.1071428967
 20
58.3214305115
 10
3.7500000114
 20
58.7499994812
 10
2.8928572569
 20
58.7499994812
  0
LINE
  5
27C
100
AcDbEntity
  8
SMUSSO
100
AcDbLine
 62
7
  6
CONTINUOUS
 10
-78.6493911979
 20
-45.0
 11
78.6493911979
 21
-45.0
  0
LINE
  5
27D
100
AcDbEntity
  8
ASSI
100
AcDbLine
 62
7
  6
CONTINUOUS
 10
-78.6493911979
 20
-45.0
 11
78.6493911979
 21
-45.0
  0
LINE
  5
27E
100
AcDbEntity
  8
SMUSSO
100
AcDbLine
 62
7
  6
CONTINUOUS
 10
-78.4555596544
 20
-44.8061684565
 11
78.4555596544
 21
-44.8061684565
  0
LINE
  5
27F
100
AcDbEntity
  8
ASSI
100
AcDbLine
 62
7
  6
CONTINUOUS
 10
-78.4555596544
 20
-44.8061684565
 11
78.4555596544
 21
-44.8061684565
  0
LINE
  5
280
100
AcDbEntity
  8
SMUSSO
100
AcDbLine
 62
7
  6
CONTINUOUS
 10
-78.0267374102
 20
-43.7712689598
 11
78.0267374102
 21
-43.7712689598
  0
LINE
  5
281
100
AcDbEntity
  8
ASSI
100
AcDbLine
 62
7
  6
CONTINUOUS
 10
-78.0267374102
 20
-43.7712689598
 11
78.0267374102
 21
-43.7712689598
  0
LWPOLYLINE
  5
282
100
AcDbEntity
  8
0
100
AcDbPolyline
 62
7
  6
CONTINUOUS
 90
10
 70
0
 43
0.3500000006
 10
-0.7500000165
 20
55.7499985657
 10
0.1071428532
 20
56.6071455688
 10
0.3214285684
 20
57.4642835083
 10
0.3214285684
 20
58.3214305115
 10
-0.1071428532
 20
58.7499994812
 10
-0.7500000165
 20
58.7499994812
 10
-1.1785713937
 20
58.3214305115
 10
-1.1785713937
 20
57.4642835083
 10
-0.7500000165
 20
57.0357145386
 10
0.1785714249
 20
57.0357145386
  0
LINE
  5
283
100
AcDbEntity
  8
CURVE
100
AcDbLine
 62
250
  6
CONTINUOUS
 10
79.510131217
 20
-36.257398
 11
79.5973759453
 21
-36.257398
  0
LINE
  5
284
100
AcDbEntity
  8
CURVE
100
AcDbLine
 62
250
  6
CONTINUOUS
 10
79.5973759453
 20
-35.735605
 11
79.510131217
 21
-35.735605
  0
LINE
  5
285
100
AcDbEntity
  8
CURVE
100
AcDbLine
 62
250
  6
CONTINUOUS
 10
79.5111556794
 20
-30.6285551388
 11
79.5973759458
 21
-30.6285551388
  0
LINE
  5
286
100
AcDbEntity
  8
CURVE
100
AcDbLine
 62
250
  6
CONTINUOUS
 10
79.5489474951
 20
-30.126163664
 11
79.5249985478
 21
-30.126163664
  0
LINE
  5
287
100
AcDbEntity
  8
CURVE
100
AcDbLine
 62
250
  6
CONTINUOUS
 10
79.5973759458
 20
-30.1088617972
 11
79.5632352194
 21
-30.1088617972
  0
LINE
  5
288
100
AcDbEntity
  8
SMUSSO
100
AcDbLine
 62
7
  6
CONTINUOUS
 10
-79.4561684565
 20
-43.8055596544
 11
-79.65
 21
-43.9993911979
  0
LINE
  5
289
100
AcDbEntity
  8
ASSI
100
AcDbLine
 62
7
  6
CONTINUOUS
 10
-79.4561684565
 20
-43.8055596544
 11
-79.65
 21
-43.9993911979
  0
LINE
  5
28A
100
AcDbEntity
  8
0
100
AcDbLine
 62
250
  6
CONTINUOUS
 10
-56.3991328207
 20
-22.1494374072
 11
-56.35
 21
-22.1003045865
  0
LINE
  5
28B
100
AcDbEntity
  8
ASSI
100
AcDbLine
 62
250
  6
CONTINUOUS
 10
-56.3991328207
 20
-22.1494374072
 11
-56.35
 21
-22.1003045865
  0
LINE
  5
28C
100
AcDbEntity
  8
SMUSSO
100
AcDbLine
 62
7
  6
CONTINUOUS
 10
-78.4555596544
 20
-44.8061684565
 11
-78.6493911979
 21
-45.0
  0
LINE
  5
28D
100
AcDbEntity
  8
ASSI
100
AcDbLine
 62
7
  6
CONTINUOUS
 10
-78.4555596544
 20
-44.8061684565
 11
-78.6493911979
 21
-45.0
  0
LINE
  5
28E
100
AcDbEntity
  8
CURVE
100
AcDbLine
 62
250
  6
CONTINUOUS
 10
79.5566533149
 20
-29.2870512436
 11
79.5561378054
 21
-29.2870512436
  0
LINE
  5
28F
100
AcDbEntity
  8
SMUSSO
100
AcDbLine
 62
7
  6
CONTINUOUS
 10
-79.4561684565
 20
43.8055596544
 11
-79.65
 21
43.9993911979
  0
LINE
  5
290
100
AcDbEntity
  8
ASSI
100
AcDbLine
 62
7
  6
CONTINUOUS
 10
-79.4561684565
 20
43.8055596544
 11
-79.65
 21
43.9993911979
  0
LINE
  5
291
100
AcDbEntity
  8
0
100
AcDbLine
 62
250
  6
CONTINUOUS
 10
-56.3991328207
 20
22.1494374072
 11
-56.35
 21
22.1003045865
  0
LINE
  5
292
100
AcDbEntity
  8
ASSI
100
AcDbLine
 62
250
  6
CONTINUOUS
 10
-56.3991328207
 20
22.1494374072
 11
-56.35
 21
22.1003045865
  0
LINE
  5
293
100
AcDbEntity
  8
SMUSSO
100
AcDbLine
 62
7
  6
CONTINUOUS
 10
-78.4555596544
 20
44.8061684565
 11
-78.6493911979
 21
45.0
  0
LINE
  5
294
100
AcDbEntity
  8
ASSI
100
AcDbLine
 62
7
  6
CONTINUOUS
 10
-78.4555596544
 20
44.8061684565
 11
-78.6493911979
 21
45.0
  0
LINE
  5
295
100
AcDbEntity
  8
0
100
AcDbLine
 62
250
  6
CONTINUOUS
 10
-55.8994374072
 20
-22.6491328207
 11
-55.8503045865
 21
-22.6
  0
LINE
  5
296
100
AcDbEntity
  8
ASSI
100
AcDbLine
 62
250
  6
CONTINUOUS
 10
-55.8994374072
 20
-22.6491328207
 11
-55.8503045865
 21
-22.6
  0
LINE
  5
297
100
AcDbEntity
  8
0
100
AcDbLine
 62
250
  6
CONTINUOUS
 10
55.8994374072
 20
-22.8490109861
 11
-55.8994374072
 21
-22.8490109861
  0
LINE
  5
298
100
AcDbEntity
  8
ASSI
100
AcDbLine
 62
250
  6
CONTINUOUS
 10
55.8994374072
 20
-22.8490109861
 11
-55.8994374072
 21
-22.8490109861
  0
LINE
  5
299
100
AcDbEntity
  8
0
100
AcDbLine
 62
250
  6
CONTINUOUS
 10
55.8994374072
 20
-22.6491328207
 11
-55.8994374072
 21
-22.6491328207
  0
LINE
  5
29A
100
AcDbEntity
  8
ASSI
100
AcDbLine
 62
250
  6
CONTINUOUS
 10
55.8994374072
 20
-22.6491328207
 11
-55.8994374072
 21
-22.6491328207
  0
LINE
  5
29B
100
AcDbEntity
  8
0
100
AcDbLine
 62
7
  6
CONTINUOUS
 10
-55.8503045865
 20
-22.6
 11
55.8503045865
 21
-22.6
  0
LINE
  5
29C
100
AcDbEntity
  8
ASSI
100
AcDbLine
 62
7
  6
CONTINUOUS
 10
-55.8503045865
 20
-22.6
 11
55.8503045865
 21
-22.6
  0
LINE
  5
29D
100
AcDbEntity
  8
0
100
AcDbLine
 62
250
  6
CONTINUOUS
 10
-56.5990109861
 20
-22.1494374072
 11
-56.3991328207
 21
-22.1494374072
  0
LINE
  5
29E
100
AcDbEntity
  8
ASSI
100
AcDbLine
 62
250
  6
CONTINUOUS
 10
-56.5990109861
 20
-22.1494374072
 11
-56.3991328207
 21
-22.1494374072
  0
LINE
  5
29F
100
AcDbEntity
  8
0
100
AcDbLine
 62
250
  6
CONTINUOUS
 10
56.5990109861
 20
-22.1494374072
 11
56.3991328207
 21
-22.1494374072
  0
LINE
  5
2A0
100
AcDbEntity
  8
ASSI
100
AcDbLine
 62
250
  6
CONTINUOUS
 10
56.5990109861
 20
-22.1494374072
 11
56.3991328207
 21
-22.1494374072
  0
LINE
  5
2A1
100
AcDbEntity
  8
0
100
AcDbLine
 62
250
  6
CONTINUOUS
 10
-55.8994374072
 20
22.6491328207
 11
-55.8503045865
 21
22.6
  0
LINE
  5
2A2
100
AcDbEntity
  8
ASSI
100
AcDbLine
 62
250
  6
CONTINUOUS
 10
-55.8994374072
 20
22.6491328207
 11
-55.8503045865
 21
22.6
  0
LWPOLYLINE
  5
2A3
100
AcDbEntity
  8
0
100
AcDbPolyline
 62
7
  6
CONTINUOUS
 90
3
 70
0
 43
0.3500000006
 10
1.8928570933
 20
56.0357142334
 10
1.8214286013
 20
55.8214297485
 10
1.6785714755
 20
55.5357140808
  0
LINE
  5
2A4
100
AcDbEntity
  8
SMUSSO
100
AcDbLine
 62
7
  6
CONTINUOUS
 10
78.4212689598
 20
43.3767374102
 11
79.4406993223
 21
43.8199854699
  0
LINE
  5
2A5
100
AcDbEntity
  8
ASSI
100
AcDbLine
 62
7
  6
CONTINUOUS
 10
78.4212689598
 20
43.3767374102
 11
79.4406993223
 21
43.8199854699
  0
LINE
  5
2A6
100
AcDbEntity
  8
SMUSSO
100
AcDbLine
 62
7
  6
CONTINUOUS
 10
78.4212689598
 20
-43.3767374102
 11
79.4406993223
 21
-43.8199854699
  0
LINE
  5
2A7
100
AcDbEntity
  8
ASSI
100
AcDbLine
 62
7
  6
CONTINUOUS
 10
78.4212689598
 20
-43.3767374102
 11
79.4406993223
 21
-43.8199854699
  0
LWPOLYLINE
  5
2A8
100
AcDbEntity
  8
0
100
AcDbPolyline
 62
7
  6
CONTINUOUS
 90
13
 70
0
 43
0.3500000006
 10
88.0428529358
 20
-0.0000003204
 10
86.7571460266
 20
-0.0000003204
 10
86.3285679932
 20
0.2142864304
 10
85.8999990234
 20
0.642857666
 10
85.8999990234
 20
0.8571421509
 10
86.3285679932
 20
1.2857133865
 10
86.7571460266
 20
1.5000001373
 10
88.0428529358
 20
1.5000001373
 10
88.4714309692
 20
1.2857133865
 10
88.899999939
 20
0.8571421509
 10
88.899999939
 20
0.642857666
 10
88.4714309692
 20
0.2142864304
 10
88.0428529358
 20
-0.0000003204
  0
LINE
  5
2A9
100
AcDbEntity
  8
SMUSSO
100
AcDbLine
 62
7
  6
CONTINUOUS
 10
-78.4212689598
 20
-43.3767374102
 11
-79.4406993223
 21
-43.8199854699
  0
LINE
  5
2AA
100
AcDbEntity
  8
ASSI
100
AcDbLine
 62
7
  6
CONTINUOUS
 10
-78.4212689598
 20
-43.3767374102
 11
-79.4406993223
 21
-43.8199854699
  0
LINE
  5
2AB
100
AcDbEntity
  8
SMUSSO
100
AcDbLine
 62
7
  6
CONTINUOUS
 10
-78.4212689598
 20
43.3767374102
 11
-79.4406993223
 21
43.8199854699
  0
LINE
  5
2AC
100
AcDbEntity
  8
ASSI
100
AcDbLine
 62
7
  6
CONTINUOUS
 10
-78.4212689598
 20
43.3767374102
 11
-79.4406993223
 21
43.8199854699
  0
LINE
  5
2AD
100
AcDbEntity
  8
0
100
AcDbLine
 62
250
  6
CONTINUOUS
 10
55.8994374072
 20
22.6491328207
 11
55.8503045865
 21
22.6
  0
LINE
  5
2AE
100
AcDbEntity
  8
ASSI
100
AcDbLine
 62
250
  6
CONTINUOUS
 10
55.8994374072
 20
22.6491328207
 11
55.8503045865
 21
22.6
  0
LINE
  5
2AF
100
AcDbEntity
  8
SMUSSO
100
AcDbLine
 62
7
  6
CONTINUOUS
 10
78.4555596544
 20
44.8061684565
 11
78.6493911979
 21
45.0
  0
LINE
  5
2B0
100
AcDbEntity
  8
ASSI
100
AcDbLine
 62
7
  6
CONTINUOUS
 10
78.4555596544
 20
44.8061684565
 11
78.6493911979
 21
45.0
  0
LINE
  5
2B1
100
AcDbEntity
  8
0
100
AcDbLine
 62
250
  6
CONTINUOUS
 10
56.3991328207
 20
22.1494374072
 11
56.35
 21
22.1003045865
  0
LINE
  5
2B2
100
AcDbEntity
  8
ASSI
100
AcDbLine
 62
250
  6
CONTINUOUS
 10
56.3991328207
 20
22.1494374072
 11
56.35
 21
22.1003045865
  0
LINE
  5
2B3
100
AcDbEntity
  8
SMUSSO
100
AcDbLine
 62
7
  6
CONTINUOUS
 10
79.4561684565
 20
43.8055596544
 11
79.65
 21
43.9993911979
  0
LINE
  5
2B4
100
AcDbEntity
  8
ASSI
100
AcDbLine
 62
7
  6
CONTINUOUS
 10
79.4561684565
 20
43.8055596544
 11
79.65
 21
43.9993911979
  0
LINE
  5
2B5
100
AcDbEntity
  8
0
100
AcDbLine
 62
250
  6
CONTINUOUS
 10
-56.5990109861
 20
22.1494374072
 11
-56.3991328207
 21
22.1494374072
  0
LINE
  5
2B6
100
AcDbEntity
  8
ASSI
100
AcDbLine
 62
250
  6
CONTINUOUS
 10
-56.5990109861
 20
22.1494374072
 11
-56.3991328207
 21
22.1494374072
  0
LINE
  5
2B7
100
AcDbEntity
  8
0
100
AcDbLine
 62
250
  6
CONTINUOUS
 10
56.5990109861
 20
22.1494374072
 11
56.3991328207
 21
22.1494374072
  0
LINE
  5
2B8
100
AcDbEntity
  8
ASSI
100
AcDbLine
 62
250
  6
CONTINUOUS
 10
56.5990109861
 20
22.1494374072
 11
56.3991328207
 21
22.1494374072
  0
LINE
  5
2B9
100
AcDbEntity
  8
0
100
AcDbLine
 62
7
  6
CONTINUOUS
 10
55.8503045865
 20
22.6
 11
-55.8503045865
 21
22.6
  0
LINE
  5
2BA
100
AcDbEntity
  8
ASSI
100
AcDbLine
 62
7
  6
CONTINUOUS
 10
55.8503045865
 20
22.6
 11
-55.8503045865
 21
22.6
  0
LINE
  5
2BB
100
AcDbEntity
  8
0
100
AcDbLine
 62
250
  6
CONTINUOUS
 10
-55.8994374072
 20
22.6491328207
 11
55.8994374072
 21
22.6491328207
  0
LINE
  5
2BC
100
AcDbEntity
  8
ASSI
100
AcDbLine
 62
250
  6
CONTINUOUS
 10
-55.8994374072
 20
22.6491328207
 11
55.8994374072
 21
22.6491328207
  0
LINE
  5
2BD
100
AcDbEntity
  8
0
100
AcDbLine
 62
250
  6
CONTINUOUS
 10
-55.8994374072
 20
22.8490109861
 11
55.8994374072
 21
22.8490109861
  0
LINE
  5
2BE
100
AcDbEntity
  8
ASSI
100
AcDbLine
 62
250
  6
CONTINUOUS
 10
-55.8994374072
 20
22.8490109861
 11
55.8994374072
 21
22.8490109861
  0
LINE
  5
2BF
100
AcDbEntity
  8
0
100
AcDbLine
 62
250
  6
CONTINUOUS
 10
55.8994374072
 20
-22.6491328207
 11
55.8503045865
 21
-22.6
  0
LINE
  5
2C0
100
AcDbEntity
  8
ASSI
100
AcDbLine
 62
250
  6
CONTINUOUS
 10
55.8994374072
 20
-22.6491328207
 11
55.8503045865
 21
-22.6
  0
LINE
  5
2C1
100
AcDbEntity
  8
SMUSSO
100
AcDbLine
 62
7
  6
CONTINUOUS
 10
78.4555596544
 20
-44.8061684565
 11
78.6493911979
 21
-45.0
  0
LINE
  5
2C2
100
AcDbEntity
  8
ASSI
100
AcDbLine
 62
7
  6
CONTINUOUS
 10
78.4555596544
 20
-44.8061684565
 11
78.6493911979
 21
-45.0
  0
LINE
  5
2C3
100
AcDbEntity
  8
0
100
AcDbLine
 62
250
  6
CONTINUOUS
 10
56.3991328207
 20
-22.1494374072
 11
56.35
 21
-22.1003045865
  0
LINE
  5
2C4
100
AcDbEntity
  8
ASSI
100
AcDbLine
 62
250
  6
CONTINUOUS
 10
56.3991328207
 20
-22.1494374072
 11
56.35
 21
-22.1003045865
  0
LINE
  5
2C5
100
AcDbEntity
  8
SMUSSO
100
AcDbLine
 62
7
  6
CONTINUOUS
 10
79.4561684565
 20
-43.8055596544
 11
79.65
 21
-43.9993911979
  0
LINE
  5
2C6
100
AcDbEntity
  8
ASSI
100
AcDbLine
 62
7
  6
CONTINUOUS
 10
79.4561684565
 20
-43.8055596544
 11
79.65
 21
-43.9993911979
  0
LWPOLYLINE
  5
2C7
100
AcDbEntity
  8
0
100
AcDbPolyline
 62
7
  6
CONTINUOUS
 90
10
 70
0
 43
0.3500000006
 10
1.8214286013
 20
56.2499987183
 10
1.8928570933
 20
56.1071454163
 10
1.8928570933
 20
56.0357142334
 10
1.7499999676
 20
55.8928609314
 10
1.6785714755
 20
55.8928609314
 10
1.6071428418
 20
55.9642830505
 10
1.6071428418
 20
56.0357142334
 10
1.6785714755
 20
56.1785675354
 10
1.7499999676
 20
56.2499987183
 10
1.8214286013
 20
56.2499987183
  0
LINE
  5
2C8
100
AcDbEntity
  8
SMUSSO
100
AcDbLine
 62
7
  6
CONTINUOUS
 10
78.0267374102
 20
43.7712689598
 11
-78.0267374102
 21
43.7712689598
  0
LINE
  5
2C9
100
AcDbEntity
  8
ASSI
100
AcDbLine
 62
7
  6
CONTINUOUS
 10
78.0267374102
 20
43.7712689598
 11
-78.0267374102
 21
43.7712689598
  0
LINE
  5
2CA
100
AcDbEntity
  8
SMUSSO
100
AcDbLine
 62
7
  6
CONTINUOUS
 10
78.4555596544
 20
44.8061684565
 11
-78.4555596544
 21
44.8061684565
  0
LINE
  5
2CB
100
AcDbEntity
  8
ASSI
100
AcDbLine
 62
7
  6
CONTINUOUS
 10
78.4555596544
 20
44.8061684565
 11
-78.4555596544
 21
44.8061684565
  0
LINE
  5
2CC
100
AcDbEntity
  8
SMUSSO
100
AcDbLine
 62
7
  6
CONTINUOUS
 10
78.6493911979
 20
45.0
 11
-78.6493911979
 21
45.0
  0
LINE
  5
2CD
100
AcDbEntity
  8
ASSI
100
AcDbLine
 62
7
  6
CONTINUOUS
 10
78.6493911979
 20
45.0
 11
-78.6493911979
 21
45.0
  0
LINE
  5
2CE
100
AcDbEntity
  8
SMUSSO
100
AcDbLine
 62
7
  6
CONTINUOUS
 10
78.0267374102
 20
43.7712689598
 11
78.4699854699
 21
44.7906993223
  0
LINE
  5
2CF
100
AcDbEntity
  8
ASSI
100
AcDbLine
 62
7
  6
CONTINUOUS
 10
78.0267374102
 20
43.7712689598
 11
78.4699854699
 21
44.7906993223
  0
LINE
  5
2D0
100
AcDbEntity
  8
CURVE
100
AcDbLine
 62
250
  6
CONTINUOUS
 10
79.5404101948
 20
-34.842919
 11
79.5973759453
 21
-34.955522
  0
LINE
  5
2D1
100
AcDbEntity
  8
SMUSSO
100
AcDbLine
 62
7
  6
CONTINUOUS
 10
78.0267374102
 20
-43.7712689598
 11
78.4699854699
 21
-44.7906993223
  0
LINE
  5
2D2
100
AcDbEntity
  8
ASSI
100
AcDbLine
 62
7
  6
CONTINUOUS
 10
78.0267374102
 20
-43.7712689598
 11
78.4699854699
 21
-44.7906993223
  0
LINE
  5
2D3
100
AcDbEntity
  8
0
100
AcDbLine
 62
250
  6
CONTINUOUS
 10
55.8994374072
 20
22.8490109861
 11
55.8994374072
 21
22.6491328207
  0
LINE
  5
2D4
100
AcDbEntity
  8
ASSI
100
AcDbLine
 62
250
  6
CONTINUOUS
 10
55.8994374072
 20
22.8490109861
 11
55.8994374072
 21
22.6491328207
  0
LINE
  5
2D5
100
AcDbEntity
  8
0
100
AcDbLine
 62
250
  6
CONTINUOUS
 10
55.8994374072
 20
-22.8490109861
 11
55.8994374072
 21
-22.6491328207
  0
LINE
  5
2D6
100
AcDbEntity
  8
ASSI
100
AcDbLine
 62
250
  6
CONTINUOUS
 10
55.8994374072
 20
-22.8490109861
 11
55.8994374072
 21
-22.6491328207
  0
LINE
  5
2D7
100
AcDbEntity
  8
0
100
AcDbLine
 62
7
  6
CONTINUOUS
 10
56.35
 20
-22.1003045865
 11
56.35
 21
22.1003045865
  0
LINE
  5
2D8
100
AcDbEntity
  8
ASSI
100
AcDbLine
 62
7
  6
CONTINUOUS
 10
56.35
 20
-22.1003045865
 11
56.35
 21
22.1003045865
  0
LINE
  5
2D9
100
AcDbEntity
  8
0
100
AcDbLine
 62
250
  6
CONTINUOUS
 10
56.3991328207
 20
22.1494374072
 11
56.3991328207
 21
-22.1494374072
  0
LINE
  5
2DA
100
AcDbEntity
  8
ASSI
100
AcDbLine
 62
250
  6
CONTINUOUS
 10
56.3991328207
 20
22.1494374072
 11
56.3991328207
 21
-22.1494374072
  0
LINE
  5
2DB
100
AcDbEntity
  8
0
100
AcDbLine
 62
250
  6
CONTINUOUS
 10
56.5990109861
 20
22.1494374072
 11
56.5990109861
 21
-22.1494374072
  0
LINE
  5
2DC
100
AcDbEntity
  8
ASSI
100
AcDbLine
 62
250
  6
CONTINUOUS
 10
56.5990109861
 20
22.1494374072
 11
56.5990109861
 21
-22.1494374072
  0
LWPOLYLINE
  5
2DD
100
AcDbEntity
  8
0
100
AcDbPolyline
 62
7
  6
CONTINUOUS
 90
8
 70
0
 43
0.3500000006
 10
-3.3214284925
 20
55.7499985657
 10
-2.464285738
 20
55.7499985657
 10
-2.0357142191
 20
56.1785675354
 10
-2.0357142191
 20
57.0357145386
 10
-2.464285738
 20
57.4642835083
 10
-3.3214284925
 20
57.4642835083
 10
-3.3214284925
 20
58.7499994812
 10
-2.0357142191
 20
58.7499994812
  0
LWPOLYLINE
  5
2DE
100
AcDbEntity
  8
0
100
AcDbPolyline
 62
7
  6
CONTINUOUS
 90
6
 70
0
 43
0.3500000006
 10
2.8928572569
 20
55.7499985657
 10
3.9642856293
 20
55.7499985657
 10
4.1785715303
 20
55.9642830505
 10
4.1785715303
 20
57.0357145386
 10
3.7500000114
 20
57.4642835083
 10
3.3214284925
 20
57.4642835083
  0
LWPOLYLINE
  5
2DF
100
AcDbEntity
  8
0
100
AcDbPolyline
 62
7
  6
CONTINUOUS
 90
10
 70
0
 43
0.3500000006
 10
88.899999939
 20
-1.9285708809
 10
88.0428529358
 20
-1.0714295425
 10
87.1857149963
 20
-0.8571427917
 10
86.3285679932
 20
-0.8571427917
 10
85.8999990234
 20
-1.2857140274
 10
85.8999990234
 20
-1.9285708809
 10
86.3285679932
 20
-2.3571432495
 10
87.1857149963
 20
-2.3571432495
 10
87.6142839661
 20
-1.9285708809
 10
87.6142839661
 20
-1.0000006256
  0
LINE
  5
2E0
100
AcDbEntity
  8
CURVE
100
AcDbLine
 62
250
  6
CONTINUOUS
 10
79.5973759453
 20
-35.454708
 11
79.510136417
 21
-35.228996
  0
LINE
  5
2E1
100
AcDbEntity
  8
CURVE
100
AcDbLine
 62
250
  6
CONTINUOUS
 10
79.510136417
 20
-36.451037
 11
79.5973759453
 21
-37.254552
  0
LINE
  5
2E2
100
AcDbEntity
  8
CURVE
100
AcDbLine
 62
250
  6
CONTINUOUS
 10
79.5585720674
 20
-34.191353
 11
79.510136417
 21
-33.66956
  0
LINE
  5
2E3
100
AcDbEntity
  8
CURVE
100
AcDbLine
 62
250
  6
CONTINUOUS
 10
79.540647651
 20
-33.5372
 11
79.5973759453
 21
-34.157611
  0
LINE
  5
2E4
100
AcDbEntity
  8
SMUSSO
100
AcDbLine
 62
7
  6
CONTINUOUS
 10
78.4212689598
 20
-43.3767374102
 11
78.4212689598
 21
43.3767374102
  0
LINE
  5
2E5
100
AcDbEntity
  8
ASSI
100
AcDbLine
 62
7
  6
CONTINUOUS
 10
78.4212689598
 20
-43.3767374102
 11
78.4212689598
 21
43.3767374102
  0
LINE
  5
2E6
100
AcDbEntity
  8
SMUSSO
100
AcDbLine
 62
7
  6
CONTINUOUS
 10
79.4561684565
 20
-43.8055596544
 11
79.4561684565
 21
43.8055596544
  0
LINE
  5
2E7
100
AcDbEntity
  8
ASSI
100
AcDbLine
 62
7
  6
CONTINUOUS
 10
79.4561684565
 20
-43.8055596544
 11
79.4561684565
 21
43.8055596544
  0
LINE
  5
2E8
100
AcDbEntity
  8
CURVE
100
AcDbLine
 62
250
  6
CONTINUOUS
 10
79.510131217
 20
-35.735605
 11
79.510131217
 21
-36.257398
  0
LINE
  5
2E9
100
AcDbEntity
  8
CURVE
100
AcDbLine
 62
250
  6
CONTINUOUS
 10
79.510136417
 20
-38.506847
 11
79.510136417
 21
-37.940019
  0
LINE
  5
2EA
100
AcDbEntity
  8
CURVE
100
AcDbLine
 62
250
  6
CONTINUOUS
 10
79.510136417
 20
-36.972473
 11
79.510136417
 21
-36.451037
  0
LINE
  5
2EB
100
AcDbEntity
  8
CURVE
100
AcDbLine
 62
250
  6
CONTINUOUS
 10
79.510136417
 20
-35.228996
 11
79.510136417
 21
-34.707635
  0
LINE
  5
2EC
100
AcDbEntity
  8
CURVE
100
AcDbLine
 62
250
  6
CONTINUOUS
 10
79.510136417
 20
-33.66956
 11
79.510136417
 21
-33.153297
  0
LINE
  5
2ED
100
AcDbEntity
  8
CURVE
100
AcDbLine
 62
250
  6
CONTINUOUS
 10
79.510136417
 20
-32.053532
 11
79.510136417
 21
-31.54876
  0
LINE
  5
2EE
100
AcDbEntity
  8
CURVE
100
AcDbLine
 62
250
  6
CONTINUOUS
 10
79.5489474951
 20
-29.8279642095
 11
79.5489474951
 21
-30.126163664
  0
LINE
  5
2EF
100
AcDbEntity
  8
CURVE
100
AcDbLine
 62
250
  6
CONTINUOUS
 10
79.5632352194
 20
-30.1088617972
 11
79.5632352194
 21
-29.8290889245
  0
LINE
  5
2F0
100
AcDbEntity
  8
CURVE
100
AcDbLine
 62
250
  6
CONTINUOUS
 10
79.5664833296
 20
-32.070759
 11
79.5664833296
 21
-31.571179
  0
LINE
  5
2F1
100
AcDbEntity
  8
CURVE
100
AcDbLine
 62
250
  6
CONTINUOUS
 10
79.57995984
 20
-31.466899
 11
79.57995984
 21
-32.177494
  0
LINE
  5
2F2
100
AcDbEntity
  8
CURVE
100
AcDbLine
 62
250
  6
CONTINUOUS
 10
79.5973759453
 20
-36.257398
 11
79.5973759453
 21
-35.735605
  0
LINE
  5
2F3
100
AcDbEntity
  8
CURVE
100
AcDbLine
 62
250
  6
CONTINUOUS
 10
79.5973759458
 20
-30.6285551388
 11
79.5973759458
 21
-30.1088617972
  0
LINE
  5
2F4
100
AcDbEntity
  8
CURVE
100
AcDbLine
 62
250
  6
CONTINUOUS
 10
79.5973759458
 20
-29.3098079785
 11
79.5973759458
 21
-28.8079038802
  0
LINE
  5
2F5
100
AcDbEntity
  8
CURVE
100
AcDbLine
 62
250
  6
CONTINUOUS
 10
79.5973759453
 20
-30.781779
 11
79.5973759453
 21
-31.331727
  0
LINE
  5
2F6
100
AcDbEntity
  8
CURVE
100
AcDbLine
 62
250
  6
CONTINUOUS
 10
79.5973759453
 20
-32.321477
 11
79.5973759453
 21
-32.837608
  0
LINE
  5
2F7
100
AcDbEntity
  8
CURVE
100
AcDbLine
 62
250
  6
CONTINUOUS
 10
79.5973759453
 20
-32.919544
 11
79.5973759453
 21
-33.429996
  0
LINE
  5
2F8
100
AcDbEntity
  8
CURVE
100
AcDbLine
 62
250
  6
CONTINUOUS
 10
79.5973759453
 20
-34.157611
 11
79.5973759453
 21
-34.230793
  0
LINE
  5
2F9
100
AcDbEntity
  8
CURVE
100
AcDbLine
 62
250
  6
CONTINUOUS
 10
79.5973759453
 20
-34.955522
 11
79.5973759453
 21
-35.454708
  0
LINE
  5
2FA
100
AcDbEntity
  8
CURVE
100
AcDbLine
 62
250
  6
CONTINUOUS
 10
79.5973759453
 20
-37.254552
 11
79.5973759453
 21
-37.714382
  0
LINE
  5
2FB
100
AcDbEntity
  8
SMUSSO
100
AcDbLine
 62
7
  6
CONTINUOUS
 10
79.65
 20
-43.9993911979
 11
79.65
 21
43.9993911979
  0
LINE
  5
2FC
100
AcDbEntity
  8
ASSI
100
AcDbLine
 62
7
  6
CONTINUOUS
 10
79.65
 20
-43.9993911979
 11
79.65
 21
43.9993911979
  0
LINE
  5
2FD
100
AcDbEntity
  8
CURVE
100
AcDbLine
 62
7
  6
CONTINUOUS
 10
79.5903230847
 20
-28.8611763
 11
79.5973759458
 21
-28.8541234389
  0
LINE
  5
2FE
100
AcDbEntity
  8
CURVE
100
AcDbLine
 62
7
  6
CONTINUOUS
 10
79.5630351519
 20
-29.0984749469
 11
79.5973759458
 21
-29.0641341529
  0
LINE
  5
2FF
100
AcDbEntity
  8
CURVE
100
AcDbLine
 62
7
  6
CONTINUOUS
 10
79.5164942614
 20
-29.1450158374
 11
79.5514044164
 21
-29.1101056824
  0
LINE
  5
300
100
AcDbEntity
  8
CURVE
100
AcDbLine
 62
7
  6
CONTINUOUS
 10
79.5118693599
 20
-29.3596514529
 11
79.5973759458
 21
-29.274144867
  0
LINE
  5
301
100
AcDbEntity
  8
CURVE
100
AcDbLine
 62
7
  6
CONTINUOUS
 10
79.5456825097
 20
-29.5358490171
 11
79.5739482785
 21
-29.5075832483
  0
LINE
  5
302
100
AcDbEntity
  8
CURVE
100
AcDbLine
 62
7
  6
CONTINUOUS
 10
79.5100810983
 20
-29.5714504285
 11
79.526596684
 21
-29.5549348428
  0
LINE
  5
303
100
AcDbEntity
  8
CURVE
100
AcDbLine
 62
7
  6
CONTINUOUS
 10
79.5487066428
 20
-29.742835598
 11
79.5638426981
 21
-29.7276995427
  0
LINE
  5
304
100
AcDbEntity
  8
CURVE
100
AcDbLine
 62
7
  6
CONTINUOUS
 10
79.5093194135
 20
-29.7822228273
 11
79.5243228778
 21
-29.7672193631
  0
LINE
  5
305
100
AcDbEntity
  8
CURVE
100
AcDbLine
 62
7
  6
CONTINUOUS
 10
79.5489474951
 20
-29.9526054597
 11
79.5632352194
 21
-29.9383177355
  0
LINE
  5
306
100
AcDbEntity
  8
CURVE
100
AcDbLine
 62
7
  6
CONTINUOUS
 10
79.5091438682
 20
-29.9924090866
 11
79.5243312878
 21
-29.977221667
  0
LINE
  5
307
100
AcDbEntity
  8
CURVE
100
AcDbLine
 62
7
  6
CONTINUOUS
 10
79.5094624149
 20
-30.202101254
 11
79.5973759458
 21
-30.114187723
  0
LINE
  5
308
100
AcDbEntity
  8
CURVE
100
AcDbLine
 62
7
  6
CONTINUOUS
 10
79.5101645785
 20
-30.4114098043
 11
79.5973759458
 21
-30.324198437
  0
LINE
  5
309
100
AcDbEntity
  8
CURVE
100
AcDbLine
 62
7
  6
CONTINUOUS
 10
79.5111167529
 20
-30.620468344
 11
79.5973759458
 21
-30.534209151
  0
LINE
  5
30A
100
AcDbEntity
  8
CURVE
100
AcDbLine
 62
7
  6
CONTINUOUS
 10
79.575243127
 20
-30.9763633979
 11
79.5973759453
 21
-30.9542305796
  0
LINE
  5
30B
100
AcDbEntity
  8
CURVE
100
AcDbLine
 62
7
  6
CONTINUOUS
 10
79.5482898861
 20
-31.2133273528
 11
79.5973759453
 21
-31.1642412936
  0
LINE
  5
30C
100
AcDbEntity
  8
CURVE
100
AcDbLine
 62
7
  6
CONTINUOUS
 10
79.5213366452
 20
-31.4502913077
 11
79.5910864936
 21
-31.3805414593
  0
LINE
  5
30D
100
AcDbEntity
  8
CURVE
100
AcDbLine
 62
7
  6
CONTINUOUS
 10
79.5664833296
 20
-31.6151553374
 11
79.57995984
 21
-31.6016788269
  0
LINE
  5
30E
100
AcDbEntity
  8
CURVE
100
AcDbLine
 62
7
  6
CONTINUOUS
 10
79.510136417
 20
-31.67150225
 11
79.5596183479
 21
-31.6220203191
  0
LINE
  5
30F
100
AcDbEntity
  8
CURVE
100
AcDbLine
 62
7
  6
CONTINUOUS
 10
79.510136417
 20
-31.881512964
 11
79.5392702529
 21
-31.8523791281
  0
LINE
  5
310
100
AcDbEntity
  8
CURVE
100
AcDbLine
 62
7
  6
CONTINUOUS
 10
79.5664833296
 20
-31.8251660514
 11
79.57995984
 21
-31.8116895409
  0
LINE
  5
311
100
AcDbEntity
  8
CURVE
100
AcDbLine
 62
7
  6
CONTINUOUS
 10
79.5664833296
 20
-32.0351767654
 11
79.57995984
 21
-32.0217002549
  0
LINE
  5
312
100
AcDbEntity
  8
CURVE
100
AcDbLine
 62
7
  6
CONTINUOUS
 10
79.5139402928
 20
-32.0877198022
 11
79.5625406183
 21
-32.0391194766
  0
LINE
  5
313
100
AcDbEntity
  8
CURVE
100
AcDbLine
 62
7
  6
CONTINUOUS
 10
79.5349673892
 20
-32.2767034198
 11
79.5858102345
 21
-32.2258605744
  0
LINE
  5
314
100
AcDbEntity
  8
CURVE
100
AcDbLine
 62
7
  6
CONTINUOUS
 10
79.5559944856
 20
-32.4656870373
 11
79.5973759453
 21
-32.4243055777
  0
LINE
  5
315
100
AcDbEntity
  8
CURVE
100
AcDbLine
 62
7
  6
CONTINUOUS
 10
79.5770215821
 20
-32.6546706549
 11
79.5973759453
 21
-32.6343162917
  0
LINE
  5
316
100
AcDbEntity
  8
CURVE
100
AcDbLine
 62
7
  6
CONTINUOUS
 10
79.5171147898
 20
-33.1345988752
 11
79.5973759453
 21
-33.0543377198
  0
LINE
  5
317
100
AcDbEntity
  8
CURVE
100
AcDbLine
 62
7
  6
CONTINUOUS
 10
79.510136417
 20
-33.3515879621
 11
79.5973759453
 21
-33.2643484338
  0
LINE
  5
318
100
AcDbEntity
  8
CURVE
100
AcDbLine
 62
7
  6
CONTINUOUS
 10
79.510136417
 20
-33.5615986761
 11
79.5475173912
 21
-33.5242177019
  0
LINE
  5
319
100
AcDbEntity
  8
CURVE
100
AcDbLine
 62
7
  6
CONTINUOUS
 10
79.5188045689
 20
-33.7629412381
 11
79.557729505
 21
-33.724016302
  0
LINE
  5
31A
100
AcDbEntity
  8
CURVE
100
AcDbLine
 62
250
  6
CONTINUOUS
 10
79.5341076249
 20
-31.81095
 11
79.5664833296
 21
-32.070759
  0
LINE
  5
31B
100
AcDbEntity
  8
CURVE
100
AcDbLine
 62
250
  6
CONTINUOUS
 10
79.5701860964
 20
-37.463524
 11
79.510136417
 21
-36.972473
  0
LINE
  5
31C
100
AcDbEntity
  8
CURVE
100
AcDbLine
 62
250
  6
CONTINUOUS
 10
79.57995984
 20
-32.177494
 11
79.5973759453
 21
-32.321477
  0
LINE
  5
31D
100
AcDbEntity
  8
CURVE
100
AcDbLine
 62
250
  6
CONTINUOUS
 10
79.5973759453
 20
-32.837608
 11
79.510136417
 21
-32.053532
  0
LINE
  5
31E
100
AcDbEntity
  8
CURVE
100
AcDbLine
 62
250
  6
CONTINUOUS
 10
79.5973759453
 20
-34.230793
 11
79.5404101948
 21
-34.842919
  0
LINE
  5
31F
100
AcDbEntity
  8
CURVE
100
AcDbLine
 62
250
  6
CONTINUOUS
 10
79.510136417
 20
-34.707635
 11
79.5585720674
 21
-34.191353
  0
LINE
  5
320
100
AcDbEntity
  8
CURVE
100
AcDbLine
 62
250
  6
CONTINUOUS
 10
79.5973759453
 20
-37.714382
 11
79.510136417
 21
-38.506847
  0
LINE
  5
321
100
AcDbEntity
  8
CURVE
100
AcDbLine
 62
250
  6
CONTINUOUS
 10
79.510136417
 20
-31.54876
 11
79.5973759453
 21
-30.781779
  0
LINE
  5
322
100
AcDbEntity
  8
CURVE
100
AcDbLine
 62
250
  6
CONTINUOUS
 10
79.510136417
 20
-37.940019
 11
79.5701860964
 21
-37.463524
  0
LINE
  5
323
100
AcDbEntity
  8
CURVE
100
AcDbLine
 62
250
  6
CONTINUOUS
 10
79.5973759453
 20
-31.331727
 11
79.57995984
 21
-31.466899
  0
LINE
  5
324
100
AcDbEntity
  8
CURVE
100
AcDbLine
 62
250
  6
CONTINUOUS
 10
79.5664833296
 20
-31.571179
 11
79.5341076249
 21
-31.81095
  0
LINE
  5
325
100
AcDbEntity
  8
CURVE
100
AcDbLine
 62
250
  6
CONTINUOUS
 10
79.510136417
 20
-33.153297
 11
79.5973759453
 21
-32.919544
  0
LINE
  5
326
100
AcDbEntity
  8
CURVE
100
AcDbLine
 62
250
  6
CONTINUOUS
 10
79.5973759453
 20
-33.429996
 11
79.540647651
 21
-33.5372
  0
LINE
  5
327
100
AcDbEntity
  8
SMUSSO
100
AcDbLine
 62
7
  6
CONTINUOUS
 10
78.4699854699
 20
-44.7906993223
 11
78.4555596544
 21
-44.8061684565
  0
LINE
  5
328
100
AcDbEntity
  8
ASSI
100
AcDbLine
 62
7
  6
CONTINUOUS
 10
78.4699854699
 20
-44.7906993223
 11
78.4555596544
 21
-44.8061684565
  0
LINE
  5
329
100
AcDbEntity
  8
CURVE
100
AcDbLine
 62
7
  6
CONTINUOUS
 10
79.5366430369
 20
-33.9551134842
 11
79.5753234472
 21
-33.9164330739
  0
LINE
  5
32A
100
AcDbEntity
  8
CURVE
100
AcDbLine
 62
7
  6
CONTINUOUS
 10
79.5544815049
 20
-34.1472857302
 11
79.5929173894
 21
-34.1088498457
  0
LINE
  5
32B
100
AcDbEntity
  8
CURVE
100
AcDbLine
 62
7
  6
CONTINUOUS
 10
79.5418156053
 20
-34.3699623438
 11
79.5887967113
 21
-34.3229812378
  0
LINE
  5
32C
100
AcDbEntity
  8
CURVE
100
AcDbLine
 62
7
  6
CONTINUOUS
 10
79.5200734126
 20
-34.6017152505
 11
79.5672472255
 21
-34.5545414376
  0
LINE
  5
32D
100
AcDbEntity
  8
CURVE
100
AcDbLine
 62
7
  6
CONTINUOUS
 10
79.510136417
 20
-34.8216629601
 11
79.5456977397
 21
-34.7861016374
  0
LINE
  5
32E
100
AcDbEntity
  8
CURVE
100
AcDbLine
 62
7
  6
CONTINUOUS
 10
79.510136417
 20
-35.0316736742
 11
79.5936510376
 21
-34.9481590535
  0
LINE
  5
32F
100
AcDbEntity
  8
CURVE
100
AcDbLine
 62
7
  6
CONTINUOUS
 10
79.5136734791
 20
-35.238147326
 11
79.5973759453
 21
-35.1544448599
  0
LINE
  5
330
100
AcDbEntity
  8
CURVE
100
AcDbLine
 62
7
  6
CONTINUOUS
 10
79.5722168444
 20
-35.3896146748
 11
79.5973759453
 21
-35.3644555739
  0
LINE
  5
331
100
AcDbEntity
  8
CURVE
100
AcDbLine
 62
7
  6
CONTINUOUS
 10
79.510131217
 20
-35.8717217302
 11
79.5973759453
 21
-35.7844770019
  0
LINE
  5
332
100
AcDbEntity
  8
CURVE
100
AcDbLine
 62
7
  6
CONTINUOUS
 10
79.510131217
 20
-36.0817324442
 11
79.5973759453
 21
-35.9944877159
  0
LINE
  5
333
100
AcDbEntity
  8
CURVE
100
AcDbLine
 62
7
  6
CONTINUOUS
 10
79.5444763752
 20
-36.257398
 11
79.5973759453
 21
-36.2044984299
  0
LINE
  5
334
100
AcDbEntity
  8
CURVE
100
AcDbLine
 62
7
  6
CONTINUOUS
 10
79.510136417
 20
-36.5017486722
 11
79.5151030629
 21
-36.4967820263
  0
LINE
  5
335
100
AcDbEntity
  8
CURVE
100
AcDbLine
 62
7
  6
CONTINUOUS
 10
79.510136417
 20
-36.7117593863
 11
79.5356712835
 21
-36.6862245197
  0
LINE
  5
336
100
AcDbEntity
  8
CURVE
100
AcDbLine
 62
7
  6
CONTINUOUS
 10
79.510136417
 20
-36.9217701003
 11
79.5562395041
 21
-36.8756670131
  0
LINE
  5
337
100
AcDbEntity
  8
CURVE
100
AcDbLine
 62
7
  6
CONTINUOUS
 10
79.5274951021
 20
-37.1144221291
 11
79.5768077247
 21
-37.0651095066
  0
LINE
  5
338
100
AcDbEntity
  8
CURVE
100
AcDbLine
 62
7
  6
CONTINUOUS
 10
79.5503785362
 20
-37.3015494091
 11
79.5973759453
 21
-37.254552
  0
LINE
  5
339
100
AcDbEntity
  8
CURVE
100
AcDbLine
 62
7
  6
CONTINUOUS
 10
79.5661156553
 20
-37.495823004
 11
79.5973759453
 21
-37.464562714
  0
LINE
  5
33A
100
AcDbEntity
  8
CURVE
100
AcDbLine
 62
7
  6
CONTINUOUS
 10
79.5358329857
 20
-37.7361163876
 11
79.5973759453
 21
-37.674573428
  0
LINE
  5
33B
100
AcDbEntity
  8
CURVE
100
AcDbLine
 62
7
  6
CONTINUOUS
 10
79.510136417
 20
-37.9718236703
 11
79.5763211831
 21
-37.9056389042
  0
LINE
  5
33C
100
AcDbEntity
  8
CURVE
100
AcDbLine
 62
7
  6
CONTINUOUS
 10
79.510136417
 20
-38.1818343843
 11
79.5503419235
 21
-38.1416288779
  0
LINE
  5
33D
100
AcDbEntity
  8
CURVE
100
AcDbLine
 62
7
  6
CONTINUOUS
 10
79.510136417
 20
-38.3918450984
 11
79.5243626638
 21
-38.3776188515
  0
LINE
  5
33E
100
AcDbEntity
  8
SMUSSO
100
AcDbLine
 62
7
  6
CONTINUOUS
 10
78.0267374102
 20
-43.7712689598
 11
78.4212689598
 21
-43.3767374102
  0
LINE
  5
33F
100
AcDbEntity
  8
ASSI
100
AcDbLine
 62
7
  6
CONTINUOUS
 10
78.0267374102
 20
-43.7712689598
 11
78.4212689598
 21
-43.3767374102
  0
LINE
  5
340
100
AcDbEntity
  8
SMUSSO
100
AcDbLine
 62
7
  6
CONTINUOUS
 10
78.4699854699
 20
-44.7906993223
 11
79.4406993223
 21
-43.8199854699
  0
LINE
  5
341
100
AcDbEntity
  8
ASSI
100
AcDbLine
 62
7
  6
CONTINUOUS
 10
78.4699854699
 20
-44.7906993223
 11
79.4406993223
 21
-43.8199854699
  0
LINE
  5
342
100
AcDbEntity
  8
SMUSSO
100
AcDbLine
 62
7
  6
CONTINUOUS
 10
79.65
 20
-43.9993911979
 11
78.6493911979
 21
-45.0
  0
LINE
  5
343
100
AcDbEntity
  8
ASSI
100
AcDbLine
 62
7
  6
CONTINUOUS
 10
79.65
 20
-43.9993911979
 11
78.6493911979
 21
-45.0
  0
LINE
  5
344
100
AcDbEntity
  8
SMUSSO
100
AcDbLine
 62
7
  6
CONTINUOUS
 10
79.4561684565
 20
-43.8055596544
 11
79.4406993223
 21
-43.8199854699
  0
LINE
  5
345
100
AcDbEntity
  8
ASSI
100
AcDbLine
 62
7
  6
CONTINUOUS
 10
79.4561684565
 20
-43.8055596544
 11
79.4406993223
 21
-43.8199854699
  0
LINE
  5
346
100
AcDbEntity
  8
SMUSSO
100
AcDbLine
 62
7
  6
CONTINUOUS
 10
79.4406993223
 20
43.8199854699
 11
79.4561684565
 21
43.8055596544
  0
LINE
  5
347
100
AcDbEntity
  8
ASSI
100
AcDbLine
 62
7
  6
CONTINUOUS
 10
79.4406993223
 20
43.8199854699
 11
79.4561684565
 21
43.8055596544
  0
LINE
  5
348
100
AcDbEntity
  8
SMUSSO
100
AcDbLine
 62
7
  6
CONTINUOUS
 10
78.4212689598
 20
43.3767374102
 11
78.0267374102
 21
43.7712689598
  0
LINE
  5
349
100
AcDbEntity
  8
ASSI
100
AcDbLine
 62
7
  6
CONTINUOUS
 10
78.4212689598
 20
43.3767374102
 11
78.0267374102
 21
43.7712689598
  0
LINE
  5
34A
100
AcDbEntity
  8
SMUSSO
100
AcDbLine
 62
7
  6
CONTINUOUS
 10
79.4406993223
 20
43.8199854699
 11
78.4699854699
 21
44.7906993223
  0
LINE
  5
34B
100
AcDbEntity
  8
ASSI
100
AcDbLine
 62
7
  6
CONTINUOUS
 10
79.4406993223
 20
43.8199854699
 11
78.4699854699
 21
44.7906993223
  0
LINE
  5
34C
100
AcDbEntity
  8
SMUSSO
100
AcDbLine
 62
7
  6
CONTINUOUS
 10
78.6493911979
 20
45.0
 11
79.65
 21
43.9993911979
  0
LINE
  5
34D
100
AcDbEntity
  8
ASSI
100
AcDbLine
 62
7
  6
CONTINUOUS
 10
78.6493911979
 20
45.0
 11
79.65
 21
43.9993911979
  0
LINE
  5
34E
100
AcDbEntity
  8
SMUSSO
100
AcDbLine
 62
7
  6
CONTINUOUS
 10
78.4555596544
 20
44.8061684565
 11
78.4699854699
 21
44.7906993223
  0
LINE
  5
34F
100
AcDbEntity
  8
ASSI
100
AcDbLine
 62
7
  6
CONTINUOUS
 10
78.4555596544
 20
44.8061684565
 11
78.4699854699
 21
44.7906993223
  0
LINE
  5
350
100
AcDbEntity
  8
SMUSSO
100
AcDbLine
 62
7
  6
CONTINUOUS
 10
-111.1682474726
 20
-44.8061684565
 11
-105.6176382996
 21
-45.0
  0
LINE
  5
351
100
AcDbEntity
  8
ASSI
100
AcDbLine
 62
7
  6
CONTINUOUS
 10
-111.1682474726
 20
-44.8061684565
 11
-105.6176382996
 21
-45.0
  0
LWPOLYLINE
  5
352
100
AcDbEntity
  8
0
100
AcDbPolyline
 62
7
  6
CONTINUOUS
 90
3
 70
0
 43
0.3500000006
 10
-100.9438992004
 20
65.8928549194
 10
-100.086761261
 20
66.7500019226
 10
-100.086761261
 20
63.7500010071
  0
LINE
  5
353
100
AcDbEntity
  8
SMUSSO
100
AcDbLine
 62
7
  6
CONTINUOUS
 10
-111.1682474726
 20
-43.8055596544
 11
-105.6176382996
 21
-43.9993911979
  0
LINE
  5
354
100
AcDbEntity
  8
ASSI
100
AcDbLine
 62
7
  6
CONTINUOUS
 10
-111.1682474726
 20
-43.8055596544
 11
-105.6176382996
 21
-43.9993911979
  0
LINE
  5
355
100
AcDbEntity
  8
0
100
AcDbLine
 62
7
  6
CONTINUOUS
 10
-105.6176382996
 20
-42.7580439128
 11
-105.0176382996
 21
-42.8
  0
LINE
  5
356
100
AcDbEntity
  8
SMUSSO
100
AcDbLine
 62
7
  6
CONTINUOUS
 10
-112.1676382996
 20
43.3767374102
 11
-111.1831858418
 21
43.8199854699
  0
LINE
  5
357
100
AcDbEntity
  8
ASSI
100
AcDbLine
 62
7
  6
CONTINUOUS
 10
-112.1676382996
 20
43.3767374102
 11
-111.1831858418
 21
43.8199854699
  0
LINE
  5
358
100
AcDbEntity
  8
0
100
AcDbLine
 62
250
  6
CONTINUOUS
 10
-105.6176382996
 20
-41.1619414324
 11
-105.0176382996
 21
-41.2038975196
  0
LINE
  5
359
100
AcDbEntity
  8
SMUSSO
100
AcDbLine
 62
7
  6
CONTINUOUS
 10
-112.1676382996
 20
-43.3767374102
 11
-111.1831858418
 21
-43.8199854699
  0
LINE
  5
35A
100
AcDbEntity
  8
ASSI
100
AcDbLine
 62
7
  6
CONTINUOUS
 10
-112.1676382996
 20
-43.3767374102
 11
-111.1831858418
 21
-43.8199854699
  0
LWPOLYLINE
  5
35B
100
AcDbEntity
  8
0
100
AcDbPolyline
 62
7
  6
CONTINUOUS
 90
3
 70
0
 43
0.3500000006
 10
-95.158190918
 20
65.8928549194
 10
-94.3010439148
 20
66.7500019226
 10
-94.3010439148
 20
63.7500010071
  0
LINE
  5
35C
100
AcDbEntity
  8
CURVE
100
AcDbLine
 62
250
  6
CONTINUOUS
 10
-109.6228072881
 20
-37.940019
 11
-107.9032094592
 21
-37.463524
  0
LINE
  5
35D
100
AcDbEntity
  8
CURVE
100
AcDbLine
 62
250
  6
CONTINUOUS
 10
-109.6229561974
 20
-36.257398
 11
-107.1245940598
 21
-36.257398
  0
LINE
  5
35E
100
AcDbEntity
  8
CURVE
100
AcDbLine
 62
250
  6
CONTINUOUS
 10
-107.9032094592
 20
-37.463524
 11
-109.6228072881
 21
-36.972473
  0
LINE
  5
35F
100
AcDbEntity
  8
SMUSSO
100
AcDbLine
 62
7
  6
CONTINUOUS
 10
-111.1682474726
 20
44.8061684565
 11
-112.1676382996
 21
43.7712689598
  0
LINE
  5
360
100
AcDbEntity
  8
ASSI
100
AcDbLine
 62
7
  6
CONTINUOUS
 10
-111.1682474726
 20
44.8061684565
 11
-112.1676382996
 21
43.7712689598
  0
LWPOLYLINE
  5
361
100
AcDbEntity
  8
0
100
AcDbPolyline
 62
7
  6
CONTINUOUS
 90
3
 70
0
 43
0.3500000006
 10
-96.3048512878
 20
57.8928615417
 10
-95.4477133484
 20
58.7499994812
 10
-95.4477133484
 20
55.7499985657
  0
LINE
  5
362
100
AcDbEntity
  8
CURVE
100
AcDbLine
 62
250
  6
CONTINUOUS
 10
-107.1245940598
 20
-33.429996
 11
-108.7490798637
 21
-33.5372
  0
LINE
  5
363
100
AcDbEntity
  8
CURVE
100
AcDbLine
 62
250
  6
CONTINUOUS
 10
-107.1245940598
 20
-35.735605
 11
-109.6229561974
 21
-35.735605
  0
LINE
  5
364
100
AcDbEntity
  8
CURVE
100
AcDbLine
 62
250
  6
CONTINUOUS
 10
-108.7558797189
 20
-34.842919
 11
-107.1245940598
 21
-34.955522
  0
LINE
  5
365
100
AcDbEntity
  8
CURVE
100
AcDbLine
 62
250
  6
CONTINUOUS
 10
-107.1245940598
 20
-35.454708
 11
-109.6228072881
 21
-35.228996
  0
LINE
  5
366
100
AcDbEntity
  8
CURVE
100
AcDbLine
 62
250
  6
CONTINUOUS
 10
-109.6228072881
 20
-36.451037
 11
-107.1245940598
 21
-37.254552
  0
LINE
  5
367
100
AcDbEntity
  8
SMUSSO
100
AcDbLine
 62
7
  6
CONTINUOUS
 10
-112.1676382996
 20
-43.7712689598
 11
-111.1682474726
 21
-44.8061684565
  0
LINE
  5
368
100
AcDbEntity
  8
ASSI
100
AcDbLine
 62
7
  6
CONTINUOUS
 10
-112.1676382996
 20
-43.7712689598
 11
-111.1682474726
 21
-44.8061684565
  0
LINE
  5
369
100
AcDbEntity
  8
CURVE
100
AcDbLine
 62
250
  6
CONTINUOUS
 10
-107.1245940598
 20
-31.331727
 11
-107.6233260605
 21
-31.466899
  0
LINE
  5
36A
100
AcDbEntity
  8
CURVE
100
AcDbLine
 62
250
  6
CONTINUOUS
 10
-108.0092428272
 20
-31.571179
 11
-108.9363617071
 21
-31.81095
  0
LINE
  5
36B
100
AcDbEntity
  8
CURVE
100
AcDbLine
 62
250
  6
CONTINUOUS
 10
-109.6228072881
 20
-33.153297
 11
-107.1245940598
 21
-32.919544
  0
LINE
  5
36C
100
AcDbEntity
  8
CURVE
100
AcDbLine
 62
250
  6
CONTINUOUS
 10
-109.593619432
 20
-30.6285551388
 11
-107.1245940433
 21
-30.6285551388
  0
LINE
  5
36D
100
AcDbEntity
  8
CURVE
100
AcDbLine
 62
250
  6
CONTINUOUS
 10
-108.5114034249
 20
-30.126163664
 11
-109.1972115468
 21
-30.126163664
  0
LINE
  5
36E
100
AcDbEntity
  8
CURVE
100
AcDbLine
 62
250
  6
CONTINUOUS
 10
-107.1245940433
 20
-30.1088617972
 11
-108.102256534
 21
-30.1088617972
  0
LINE
  5
36F
100
AcDbEntity
  8
CURVE
100
AcDbLine
 62
250
  6
CONTINUOUS
 10
-108.9363617071
 20
-31.81095
 11
-108.0092428272
 21
-32.070759
  0
LINE
  5
370
100
AcDbEntity
  8
CURVE
100
AcDbLine
 62
250
  6
CONTINUOUS
 10
-107.6233260605
 20
-32.177494
 11
-107.1245940598
 21
-32.321477
  0
LINE
  5
371
100
AcDbEntity
  8
CURVE
100
AcDbLine
 62
250
  6
CONTINUOUS
 10
-107.1245940598
 20
-32.837608
 11
-109.6228072881
 21
-32.053532
  0
LINE
  5
372
100
AcDbEntity
  8
CURVE
100
AcDbLine
 62
250
  6
CONTINUOUS
 10
-108.2357917356
 20
-34.191353
 11
-109.6228072881
 21
-33.66956
  0
LINE
  5
373
100
AcDbEntity
  8
CURVE
100
AcDbLine
 62
250
  6
CONTINUOUS
 10
-108.7490798637
 20
-33.5372
 11
-107.1245940598
 21
-34.157611
  0
LINE
  5
374
100
AcDbEntity
  8
0
100
AcDbLine
 62
7
  6
CONTINUOUS
 10
-104.0918011486
 20
-27.1501294387
 11
-105.0176382996
 21
-27.151745331
  0
LINE
  5
375
100
AcDbEntity
  8
0
100
AcDbLine
 62
250
  6
CONTINUOUS
 10
-104.0918657159
 20
-26.9276792439
 11
-105.0176382996
 21
-26.9280974384
  0
LINE
  5
376
100
AcDbEntity
  8
CURVE
100
AcDbLine
 62
250
  6
CONTINUOUS
 10
-108.2907376178
 20
-29.2870512436
 11
-108.3054998774
 21
-29.2870512436
  0
LINE
  5
377
100
AcDbEntity
  8
0
100
AcDbLine
 62
7
  6
CONTINUOUS
 10
-102.5675890674
 20
-26.3415638603
 11
-105.0176382996
 21
-26.3558178298
  0
LINE
  5
378
100
AcDbEntity
  8
0
100
AcDbLine
 62
250
  6
CONTINUOUS
 10
-102.5675890674
 20
-26.2536973817
 11
-105.0176382996
 21
-26.2679513512
  0
LINE
  5
379
100
AcDbEntity
  8
0
100
AcDbLine
 62
7
  6
CONTINUOUS
 10
-104.0675139207
 20
-25.2
 11
-105.0176382996
 21
-25.2
  0
LINE
  5
37A
100
AcDbEntity
  8
0
100
AcDbLine
 62
7
  6
CONTINUOUS
 10
-105.0176382996
 20
-25.05
 11
-104.8676382996
 21
-25.05
  0
LINE
  5
37B
100
AcDbEntity
  8
0
100
AcDbLine
 62
7
  6
CONTINUOUS
 10
-104.5676382996
 20
-25.05
 11
-104.3676382996
 21
-25.05
  0
LINE
  5
37C
100
AcDbEntity
  8
0
100
AcDbLine
 62
7
  6
CONTINUOUS
 10
-105.0176382996
 20
-25.7558198745
 11
-102.2071711084
 21
-25.8799866677
  0
LINE
  5
37D
100
AcDbEntity
  8
0
100
AcDbLine
 62
7
  6
CONTINUOUS
 10
-102.0176382996
 20
-25.4
 11
-103.9680102017
 21
-25.2049628098
  0
LINE
  5
37E
100
AcDbEntity
  8
0
100
AcDbLine
 62
7
  6
CONTINUOUS
 10
-104.8676382996
 20
25.05
 11
-104.7176382996
 21
25.2
  0
LINE
  5
37F
100
AcDbEntity
  8
0
100
AcDbLine
 62
7
  6
CONTINUOUS
 10
-104.3676382996
 20
25.05
 11
-104.2176382996
 21
25.2
  0
LINE
  5
380
100
AcDbEntity
  8
0
100
AcDbLine
 62
7
  6
CONTINUOUS
 10
-104.8676382996
 20
-25.05
 11
-104.7176382996
 21
-25.2
  0
LINE
  5
381
100
AcDbEntity
  8
0
100
AcDbLine
 62
7
  6
CONTINUOUS
 10
-104.3676382996
 20
-25.05
 11
-104.2176382996
 21
-25.2
  0
LWPOLYLINE
  5
382
100
AcDbEntity
  8
0
100
AcDbPolyline
 62
7
  6
CONTINUOUS
 90
3
 70
0
 43
0.3500000006
 10
-96.1581912231
 20
64.0357166748
 10
-96.2296133423
 20
63.8214321899
 10
-96.372475708
 20
63.5357165222
  0
LWPOLYLINE
  5
383
100
AcDbEntity
  8
0
100
AcDbPolyline
 62
7
  6
CONTINUOUS
 90
3
 70
0
 43
0.3500000006
 10
-97.304851593
 20
56.0357142334
 10
-97.3762827759
 20
55.8214297485
 10
-97.5191360779
 20
55.5357140808
  0
LINE
  5
384
100
AcDbEntity
  8
SMUSSO
100
AcDbLine
 62
7
  6
CONTINUOUS
 10
-112.1676382996
 20
-43.7712689598
 11
-112.1676382996
 21
43.7712689598
  0
LINE
  5
385
100
AcDbEntity
  8
ASSI
100
AcDbLine
 62
7
  6
CONTINUOUS
 10
-112.1676382996
 20
-43.7712689598
 11
-112.1676382996
 21
43.7712689598
  0
LINE
  5
386
100
AcDbEntity
  8
SMUSSO
100
AcDbLine
 62
7
  6
CONTINUOUS
 10
-111.1831858418
 20
-44.7906993223
 11
-111.1831858418
 21
-43.8199854699
  0
LINE
  5
387
100
AcDbEntity
  8
ASSI
100
AcDbLine
 62
7
  6
CONTINUOUS
 10
-111.1831858418
 20
-44.7906993223
 11
-111.1831858418
 21
-43.8199854699
  0
LINE
  5
388
100
AcDbEntity
  8
SMUSSO
100
AcDbLine
 62
7
  6
CONTINUOUS
 10
-111.1831858418
 20
43.8199854699
 11
-111.1831858418
 21
44.7906993223
  0
LINE
  5
389
100
AcDbEntity
  8
ASSI
100
AcDbLine
 62
7
  6
CONTINUOUS
 10
-111.1831858418
 20
43.8199854699
 11
-111.1831858418
 21
44.7906993223
  0
LINE
  5
38A
100
AcDbEntity
  8
SMUSSO
100
AcDbLine
 62
7
  6
CONTINUOUS
 10
-111.1682474726
 20
-43.8055596544
 11
-111.1682474726
 21
43.8055596544
  0
LINE
  5
38B
100
AcDbEntity
  8
ASSI
100
AcDbLine
 62
7
  6
CONTINUOUS
 10
-111.1682474726
 20
-43.8055596544
 11
-111.1682474726
 21
43.8055596544
  0
LINE
  5
38C
100
AcDbEntity
  8
CURVE
100
AcDbLine
 62
250
  6
CONTINUOUS
 10
-109.6229561974
 20
-35.735605
 11
-109.6229561974
 21
-36.257398
  0
LINE
  5
38D
100
AcDbEntity
  8
CURVE
100
AcDbLine
 62
250
  6
CONTINUOUS
 10
-109.6228072881
 20
-38.506847
 11
-109.6228072881
 21
-37.940019
  0
LINE
  5
38E
100
AcDbEntity
  8
CURVE
100
AcDbLine
 62
250
  6
CONTINUOUS
 10
-109.6228072881
 20
-36.972473
 11
-109.6228072881
 21
-36.451037
  0
LINE
  5
38F
100
AcDbEntity
  8
CURVE
100
AcDbLine
 62
250
  6
CONTINUOUS
 10
-109.6228072881
 20
-35.228996
 11
-109.6228072881
 21
-34.707635
  0
LINE
  5
390
100
AcDbEntity
  8
CURVE
100
AcDbLine
 62
250
  6
CONTINUOUS
 10
-109.6228072881
 20
-33.66956
 11
-109.6228072881
 21
-33.153297
  0
LINE
  5
391
100
AcDbEntity
  8
CURVE
100
AcDbLine
 62
250
  6
CONTINUOUS
 10
-109.6228072881
 20
-32.053532
 11
-109.6228072881
 21
-31.54876
  0
LINE
  5
392
100
AcDbEntity
  8
CURVE
100
AcDbLine
 62
250
  6
CONTINUOUS
 10
-108.5114034249
 20
-29.8279642095
 11
-108.5114034249
 21
-30.126163664
  0
LINE
  5
393
100
AcDbEntity
  8
CURVE
100
AcDbLine
 62
250
  6
CONTINUOUS
 10
-108.102256534
 20
-30.1088617972
 11
-108.102256534
 21
-29.8290889245
  0
LINE
  5
394
100
AcDbEntity
  8
CURVE
100
AcDbLine
 62
250
  6
CONTINUOUS
 10
-108.0092428272
 20
-32.070759
 11
-108.0092428272
 21
-31.571179
  0
LINE
  5
395
100
AcDbEntity
  8
CURVE
100
AcDbLine
 62
250
  6
CONTINUOUS
 10
-107.6233260605
 20
-31.466899
 11
-107.6233260605
 21
-32.177494
  0
LINE
  5
396
100
AcDbEntity
  8
CURVE
100
AcDbLine
 62
250
  6
CONTINUOUS
 10
-107.1245940598
 20
-36.257398
 11
-107.1245940598
 21
-35.735605
  0
LINE
  5
397
100
AcDbEntity
  8
CURVE
100
AcDbLine
 62
250
  6
CONTINUOUS
 10
-107.1245940598
 20
-30.781779
 11
-107.1245940598
 21
-31.331727
  0
LINE
  5
398
100
AcDbEntity
  8
CURVE
100
AcDbLine
 62
250
  6
CONTINUOUS
 10
-107.1245940598
 20
-32.321477
 11
-107.1245940598
 21
-32.837608
  0
LINE
  5
399
100
AcDbEntity
  8
CURVE
100
AcDbLine
 62
250
  6
CONTINUOUS
 10
-107.1245940598
 20
-32.919544
 11
-107.1245940598
 21
-33.429996
  0
LINE
  5
39A
100
AcDbEntity
  8
CURVE
100
AcDbLine
 62
250
  6
CONTINUOUS
 10
-107.1245940598
 20
-34.157611
 11
-107.1245940598
 21
-34.230793
  0
LINE
  5
39B
100
AcDbEntity
  8
CURVE
100
AcDbLine
 62
250
  6
CONTINUOUS
 10
-107.1245940598
 20
-34.955522
 11
-107.1245940598
 21
-35.454708
  0
LINE
  5
39C
100
AcDbEntity
  8
CURVE
100
AcDbLine
 62
250
  6
CONTINUOUS
 10
-107.1245940598
 20
-37.254552
 11
-107.1245940598
 21
-37.714382
  0
LINE
  5
39D
100
AcDbEntity
  8
CURVE
100
AcDbLine
 62
250
  6
CONTINUOUS
 10
-107.1245940433
 20
-30.6285551388
 11
-107.1245940433
 21
-30.1088617972
  0
LINE
  5
39E
100
AcDbEntity
  8
CURVE
100
AcDbLine
 62
250
  6
CONTINUOUS
 10
-107.1245940433
 20
-29.3098079785
 11
-107.1245940433
 21
-28.8079038802
  0
LINE
  5
39F
100
AcDbEntity
  8
0
100
AcDbLine
 62
250
  6
CONTINUOUS
 10
-104.0918011679
 20
-27.1501294388
 11
-104.0918657159
 21
-26.9276792439
  0
LINE
  5
3A0
100
AcDbEntity
  8
SMUSSO
100
AcDbLine
 62
7
  6
CONTINUOUS
 10
-105.6176382996
 20
-45.0
 11
-105.6176382996
 21
45.0
  0
LINE
  5
3A1
100
AcDbEntity
  8
ASSI
100
AcDbLine
 62
7
  6
CONTINUOUS
 10
-105.6176382996
 20
-45.0
 11
-105.6176382996
 21
45.0
  0
LINE
  5
3A2
100
AcDbEntity
  8
0
100
AcDbLine
 62
7
  6
CONTINUOUS
 10
-105.0176382996
 20
-42.8
 11
-105.0176382996
 21
42.8
  0
LINE
  5
3A3
100
AcDbEntity
  8
0
100
AcDbLine
 62
250
  6
CONTINUOUS
 10
-104.0918657159
 20
26.9276792439
 11
-104.0918011679
 21
27.1501294388
  0
LINE
  5
3A4
100
AcDbEntity
  8
0
100
AcDbLine
 62
250
  6
CONTINUOUS
 10
-102.2071711084
 20
25.8799866677
 11
-102.2071711084
 21
25.3810467191
  0
LINE
  5
3A5
100
AcDbEntity
  8
0
100
AcDbLine
 62
250
  6
CONTINUOUS
 10
-102.2071711084
 20
-25.3810467191
 11
-102.2071711084
 21
-25.8799866677
  0
LINE
  5
3A6
100
AcDbEntity
  8
0
100
AcDbLine
 62
7
  6
CONTINUOUS
 10
-102.0176382996
 20
26.0883643404
 11
-102.0176382996
 21
25.4
  0
LINE
  5
3A7
100
AcDbEntity
  8
0
100
AcDbLine
 62
7
  6
CONTINUOUS
 10
-102.0176382996
 20
-25.4
 11
-102.0176382996
 21
-26.0883643404
  0
LWPOLYLINE
  5
3A8
100
AcDbEntity
  8
0
100
AcDbPolyline
 62
7
  6
CONTINUOUS
 90
4
 70
0
 43
0.3500000006
 10
-100.3762836914
 20
58.1071460266
 10
-100.3762836914
 20
58.7499994812
 10
-98.8762832336
 20
58.7499994812
 10
-99.7334211731
 20
55.7499985657
  0
LWPOLYLINE
  5
3A9
100
AcDbEntity
  8
0
100
AcDbPolyline
 62
7
  6
CONTINUOUS
 90
13
 70
0
 43
0.3500000006
 10
-99.2296142578
 20
64.6071389465
 10
-99.2296142578
 20
65.8928549194
 10
-99.0153297729
 20
66.3214329529
 10
-98.5867608032
 20
66.7500019226
 10
-98.3724763184
 20
66.7500019226
 10
-97.9438982849
 20
66.3214329529
 10
-97.7296138
 20
65.8928549194
 10
-97.7296138
 20
64.6071389465
 10
-97.9438982849
 20
64.1785699768
 10
-98.3724763184
 20
63.7500010071
 10
-98.5867608032
 20
63.7500010071
 10
-99.0153297729
 20
64.1785699768
 10
-99.2296142578
 20
64.6071389465
  0
LINE
  5
3AA
100
AcDbEntity
  8
CURVE
100
AcDbLine
 62
7
  6
CONTINUOUS
 10
-109.5967220483
 20
-29.4361550019
 11
-109.1176879998
 21
-28.9571209534
  0
LINE
  5
3AB
100
AcDbEntity
  8
CURVE
100
AcDbLine
 62
7
  6
CONTINUOUS
 10
-109.6395892701
 20
-29.6890329377
 11
-108.8851306904
 21
-28.934574358
  0
LINE
  5
3AC
100
AcDbEntity
  8
CURVE
100
AcDbLine
 62
7
  6
CONTINUOUS
 10
-109.6511072302
 20
-29.9105616119
 11
-108.7047667334
 21
-28.9642211151
  0
LINE
  5
3AD
100
AcDbEntity
  8
CURVE
100
AcDbLine
 62
7
  6
CONTINUOUS
 10
-109.6470275469
 20
-30.1164926426
 11
-109.2037240752
 21
-29.6731891708
  0
LINE
  5
3AE
100
AcDbEntity
  8
CURVE
100
AcDbLine
 62
7
  6
CONTINUOUS
 10
-108.9603789894
 20
-29.4298440851
 11
-108.5566150867
 21
-29.0260801824
  0
LINE
  5
3AF
100
AcDbEntity
  8
0
100
AcDbLine
 62
7
  6
CONTINUOUS
 10
-104.7176382996
 20
-25.2
 11
-104.5676382996
 21
-25.05
  0
LINE
  5
3B0
100
AcDbEntity
  8
CURVE
100
AcDbLine
 62
7
  6
CONTINUOUS
 10
-109.6329077771
 20
-30.3123835868
 11
-109.2204236432
 21
-29.8998994529
  0
LINE
  5
3B1
100
AcDbEntity
  8
CURVE
100
AcDbLine
 62
7
  6
CONTINUOUS
 10
-108.7626039437
 20
-29.4420797533
 11
-108.435547601
 21
-29.1150234107
  0
LINE
  5
3B2
100
AcDbEntity
  8
CURVE
100
AcDbLine
 62
7
  6
CONTINUOUS
 10
-109.611239766
 20
-30.5007262896
 11
-109.2026223148
 21
-30.0921088385
  0
LINE
  5
3B3
100
AcDbEntity
  8
CURVE
100
AcDbLine
 62
7
  6
CONTINUOUS
 10
-108.6258230059
 20
-29.5153095296
 11
-108.3358131073
 21
-29.225299631
  0
LINE
  5
3B4
100
AcDbEntity
  8
CURVE
100
AcDbLine
 62
7
  6
CONTINUOUS
 10
-109.5290579011
 20
-30.6285551388
 11
-109.0266664263
 21
-30.126163664
  0
LINE
  5
3B5
100
AcDbEntity
  8
CURVE
100
AcDbLine
 62
7
  6
CONTINUOUS
 10
-108.542569547
 20
-29.6420667847
 11
-107.9206386124
 21
-29.0201358501
  0
LINE
  5
3B6
100
AcDbEntity
  8
CURVE
100
AcDbLine
 62
7
  6
CONTINUOUS
 10
-109.3190471871
 20
-30.6285551388
 11
-108.8166557123
 21
-30.126163664
  0
LINE
  5
3B7
100
AcDbEntity
  8
CURVE
100
AcDbLine
 62
7
  6
CONTINUOUS
 10
-108.5116942501
 20
-29.8212022018
 11
-107.6317979457
 21
-28.9413058974
  0
LINE
  5
3B8
100
AcDbEntity
  8
CURVE
100
AcDbLine
 62
7
  6
CONTINUOUS
 10
-109.1090364731
 20
-30.6285551388
 11
-108.6066449983
 21
-30.126163664
  0
LINE
  5
3B9
100
AcDbEntity
  8
CURVE
100
AcDbLine
 62
7
  6
CONTINUOUS
 10
-108.5114034249
 20
-30.0309220906
 11
-107.3469799433
 21
-28.866498609
  0
LINE
  5
3BA
100
AcDbEntity
  8
CURVE
100
AcDbLine
 62
7
  6
CONTINUOUS
 10
-108.8990257591
 20
-30.6285551388
 11
-108.102256534
 21
-29.8317859137
  0
LINE
  5
3BB
100
AcDbEntity
  8
CURVE
100
AcDbLine
 62
7
  6
CONTINUOUS
 10
-107.7691647816
 20
-29.4986941614
 11
-107.1245940433
 21
-28.854123423
  0
LINE
  5
3BC
100
AcDbEntity
  8
CURVE
100
AcDbLine
 62
7
  6
CONTINUOUS
 10
-109.6228072881
 20
-31.5623473819
 11
-109.6032003419
 21
-31.5427404357
  0
LINE
  5
3BD
100
AcDbEntity
  8
CURVE
100
AcDbLine
 62
7
  6
CONTINUOUS
 10
-108.6890150451
 20
-30.6285551388
 11
-108.102256534
 21
-30.0417966277
  0
LINE
  5
3BE
100
AcDbEntity
  8
CURVE
100
AcDbLine
 62
7
  6
CONTINUOUS
 10
-107.471220007
 20
-29.4107601008
 11
-107.1245940433
 21
-29.064134137
  0
LINE
  5
3BF
100
AcDbEntity
  8
CURVE
100
AcDbLine
 62
7
  6
CONTINUOUS
 10
-109.6228072881
 20
-31.7723580959
 11
-109.3001494079
 21
-31.4497002157
  0
LINE
  5
3C0
100
AcDbEntity
  8
CURVE
100
AcDbLine
 62
7
  6
CONTINUOUS
 10
-108.479004331
 20
-30.6285551388
 11
-107.9593109895
 21
-30.1088617972
  0
LINE
  5
3C1
100
AcDbEntity
  8
CURVE
100
AcDbLine
 62
7
  6
CONTINUOUS
 10
-107.1749621409
 20
-29.3245129487
 11
-107.1245940433
 21
-29.274144851
  0
LINE
  5
3C2
100
AcDbEntity
  8
CURVE
100
AcDbLine
 62
7
  6
CONTINUOUS
 10
-109.6228072881
 20
-31.9823688099
 11
-108.9970984739
 21
-31.3566599956
  0
LINE
  5
3C3
100
AcDbEntity
  8
CURVE
100
AcDbLine
 62
7
  6
CONTINUOUS
 10
-108.268993617
 20
-30.6285551388
 11
-107.7493002755
 21
-30.1088617972
  0
LINE
  5
3C4
100
AcDbEntity
  8
CURVE
100
AcDbLine
 62
7
  6
CONTINUOUS
 10
-109.517127777
 20
-32.0867000128
 11
-108.6940475398
 21
-31.2636197756
  0
LINE
  5
3C5
100
AcDbEntity
  8
CURVE
100
AcDbLine
 62
7
  6
CONTINUOUS
 10
-108.058982903
 20
-30.6285551388
 11
-107.5392895614
 21
-30.1088617972
  0
LINE
  5
3C6
100
AcDbEntity
  8
CURVE
100
AcDbLine
 62
7
  6
CONTINUOUS
 10
-109.3572845983
 20
-32.1368675481
 11
-108.3909966058
 21
-31.1705795556
  0
LINE
  5
3C7
100
AcDbEntity
  8
CURVE
100
AcDbLine
 62
7
  6
CONTINUOUS
 10
-107.848972189
 20
-30.6285551388
 11
-107.3292788474
 21
-30.1088617972
  0
LINE
  5
3C8
100
AcDbEntity
  8
CURVE
100
AcDbLine
 62
7
  6
CONTINUOUS
 10
-109.1974414195
 20
-32.1870350833
 11
-108.8465300901
 21
-31.836123754
  0
LINE
  5
3C9
100
AcDbEntity
  8
CURVE
100
AcDbLine
 62
7
  6
CONTINUOUS
 10
-108.7812384372
 20
-31.770832101
 11
-108.0879456717
 21
-31.0775393356
  0
LINE
  5
3CA
100
AcDbEntity
  8
CURVE
100
AcDbLine
 62
7
  6
CONTINUOUS
 10
-107.638961475
 20
-30.6285551388
 11
-107.1245940433
 21
-30.1141877071
  0
LINE
  5
3CB
100
AcDbEntity
  8
CURVE
100
AcDbLine
 62
7
  6
CONTINUOUS
 10
-109.0375982408
 20
-32.2372026186
 11
-108.6824890382
 21
-31.8820934161
  0
LINE
  5
3CC
100
AcDbEntity
  8
CURVE
100
AcDbLine
 62
7
  6
CONTINUOUS
 10
-108.4979686351
 20
-31.6975730129
 11
-107.7848947377
 21
-30.9844991155
  0
LINE
  5
3CD
100
AcDbEntity
  8
CURVE
100
AcDbLine
 62
7
  6
CONTINUOUS
 10
-107.428950761
 20
-30.6285551388
 11
-107.1245940433
 21
-30.3241984211
  0
LINE
  5
3CE
100
AcDbEntity
  8
0
100
AcDbLine
 62
7
  6
CONTINUOUS
 10
-104.7176382996
 20
25.2
 11
-104.5676382996
 21
25.05
  0
LINE
  5
3CF
100
AcDbEntity
  8
CURVE
100
AcDbLine
 62
7
  6
CONTINUOUS
 10
-108.877755062
 20
-32.2873701539
 11
-108.5184479864
 21
-31.9280630782
  0
LINE
  5
3D0
100
AcDbEntity
  8
CURVE
100
AcDbLine
 62
7
  6
CONTINUOUS
 10
-108.214698833
 20
-31.6243139248
 11
-107.4818438037
 21
-30.8914588955
  0
LINE
  5
3D1
100
AcDbEntity
  8
CURVE
100
AcDbLine
 62
7
  6
CONTINUOUS
 10
-107.218940047
 20
-30.6285551388
 11
-107.1245940433
 21
-30.5342091351
  0
LINE
  5
3D2
100
AcDbEntity
  8
CURVE
100
AcDbLine
 62
7
  6
CONTINUOUS
 10
-109.6228072881
 20
-33.242433094
 11
-109.5244699597
 21
-33.1440957656
  0
LINE
  5
3D3
100
AcDbEntity
  8
CURVE
100
AcDbLine
 62
7
  6
CONTINUOUS
 10
-108.7179118833
 20
-32.3375376891
 11
-108.3544069345
 21
-31.9740327403
  0
LINE
  5
3D4
100
AcDbEntity
  8
CURVE
100
AcDbLine
 62
7
  6
CONTINUOUS
 10
-108.0092428272
 20
-31.628868633
 11
-107.1787928696
 21
-30.7984186755
  0
LINE
  5
3D5
100
AcDbEntity
  8
CURVE
100
AcDbLine
 62
7
  6
CONTINUOUS
 10
-109.6228072881
 20
-33.452443808
 11
-109.2927805102
 21
-33.12241703
  0
LINE
  5
3D6
100
AcDbEntity
  8
CURVE
100
AcDbLine
 62
7
  6
CONTINUOUS
 10
-108.5580687045
 20
-32.3877052244
 11
-108.1903658826
 21
-32.0200024024
  0
LINE
  5
3D7
100
AcDbEntity
  8
CURVE
100
AcDbLine
 62
7
  6
CONTINUOUS
 10
-108.0092428272
 20
-31.838879347
 11
-107.1245940598
 21
-30.9542305796
  0
LINE
  5
3D8
100
AcDbEntity
  8
CURVE
100
AcDbLine
 62
7
  6
CONTINUOUS
 10
-109.6228072881
 20
-33.662454522
 11
-109.0610910606
 21
-33.1007382945
  0
LINE
  5
3D9
100
AcDbEntity
  8
CURVE
100
AcDbLine
 62
7
  6
CONTINUOUS
 10
-108.3982255258
 20
-32.4378727596
 11
-108.0263248307
 21
-32.0659720645
  0
LINE
  5
3DA
100
AcDbEntity
  8
CURVE
100
AcDbLine
 62
7
  6
CONTINUOUS
 10
-108.0092428272
 20
-32.048890061
 11
-107.6233260605
 21
-31.6629732944
  0
LINE
  5
3DB
100
AcDbEntity
  8
CURVE
100
AcDbLine
 62
7
  6
CONTINUOUS
 10
-107.3543511322
 20
-31.3939983661
 11
-107.1245940598
 21
-31.1642412936
  0
LINE
  5
3DC
100
AcDbEntity
  8
CURVE
100
AcDbLine
 62
7
  6
CONTINUOUS
 10
-109.4753683437
 20
-33.7250262916
 11
-108.8294016111
 21
-33.079059559
  0
LINE
  5
3DD
100
AcDbEntity
  8
CURVE
100
AcDbLine
 62
7
  6
CONTINUOUS
 10
-108.238382347
 20
-32.4880402949
 11
-107.6233260605
 21
-31.8729840084
  0
LINE
  5
3DE
100
AcDbEntity
  8
CURVE
100
AcDbLine
 62
7
  6
CONTINUOUS
 10
-109.3227662789
 20
-33.7824349408
 11
-108.5977121615
 21
-33.0573808234
  0
LINE
  5
3DF
100
AcDbEntity
  8
CURVE
100
AcDbLine
 62
7
  6
CONTINUOUS
 10
-108.0785391683
 20
-32.5382078302
 11
-107.6233260605
 21
-32.0829947224
  0
LINE
  5
3E0
100
AcDbEntity
  8
CURVE
100
AcDbLine
 62
7
  6
CONTINUOUS
 10
-109.170164214
 20
-33.8398435899
 11
-108.366022712
 21
-33.0357020879
  0
LINE
  5
3E1
100
AcDbEntity
  8
CURVE
100
AcDbLine
 62
7
  6
CONTINUOUS
 10
-107.9186959895
 20
-32.5883753654
 11
-107.5336918529
 21
-32.2033712288
  0
LINE
  5
3E2
100
AcDbEntity
  8
CURVE
100
AcDbLine
 62
7
  6
CONTINUOUS
 10
-109.0175621492
 20
-33.8972522391
 11
-108.6828166442
 21
-33.5625067341
  0
LINE
  5
3E3
100
AcDbEntity
  8
CURVE
100
AcDbLine
 62
7
  6
CONTINUOUS
 10
-108.6510400076
 20
-33.5307300975
 11
-108.1343332624
 21
-33.0140233523
  0
LINE
  5
3E4
100
AcDbEntity
  8
CURVE
100
AcDbLine
 62
7
  6
CONTINUOUS
 10
-107.7588528108
 20
-32.6385429007
 11
-107.3707283878
 21
-32.2504184778
  0
LINE
  5
3E5
100
AcDbEntity
  8
CURVE
100
AcDbLine
 62
7
  6
CONTINUOUS
 10
-109.6228072881
 20
-34.7125080921
 11
-109.615044805
 21
-34.704745609
  0
LINE
  5
3E6
100
AcDbEntity
  8
CURVE
100
AcDbLine
 62
7
  6
CONTINUOUS
 10
-108.8649600843
 20
-33.9546608882
 11
-108.53084555
 21
-33.6205463539
  0
LINE
  5
3E7
100
AcDbEntity
  8
CURVE
100
AcDbLine
 62
7
  6
CONTINUOUS
 10
-108.4261909237
 20
-33.5158917277
 11
-107.9026438129
 21
-32.9923446168
  0
LINE
  5
3E8
100
AcDbEntity
  8
CURVE
100
AcDbLine
 62
7
  6
CONTINUOUS
 10
-107.599009632
 20
-32.6887104359
 11
-107.2077649228
 21
-32.2974657267
  0
LINE
  5
3E9
100
AcDbEntity
  8
CURVE
100
AcDbLine
 62
7
  6
CONTINUOUS
 10
-109.6228072881
 20
-34.9225188061
 11
-109.2805129317
 21
-34.5802244496
  0
LINE
  5
3EA
100
AcDbEntity
  8
CURVE
100
AcDbLine
 62
7
  6
CONTINUOUS
 10
-108.7123580194
 20
-34.0120695374
 11
-108.3788744558
 21
-33.6785859738
  0
LINE
  5
3EB
100
AcDbEntity
  8
CURVE
100
AcDbLine
 62
7
  6
CONTINUOUS
 10
-108.2013418399
 20
-33.5010533578
 11
-107.6709543633
 21
-32.9706658813
  0
LINE
  5
3EC
100
AcDbEntity
  8
CURVE
100
AcDbLine
 62
7
  6
CONTINUOUS
 10
-107.4391664532
 20
-32.7388779712
 11
-107.1245940598
 21
-32.4243055777
  0
LINE
  5
3ED
100
AcDbEntity
  8
CURVE
100
AcDbLine
 62
7
  6
CONTINUOUS
 10
-109.6228072881
 20
-35.1325295201
 11
-108.9459810583
 21
-34.4557032903
  0
LINE
  5
3EE
100
AcDbEntity
  8
CURVE
100
AcDbLine
 62
7
  6
CONTINUOUS
 10
-108.5597559546
 20
-34.0694781865
 11
-108.2269033617
 21
-33.7366255936
  0
LINE
  5
3EF
100
AcDbEntity
  8
CURVE
100
AcDbLine
 62
7
  6
CONTINUOUS
 10
-107.976492756
 20
-33.4862149879
 11
-107.4392649138
 21
-32.9489871457
  0
LINE
  5
3F0
100
AcDbEntity
  8
CURVE
100
AcDbLine
 62
7
  6
CONTINUOUS
 10
-107.2793232745
 20
-32.7890455065
 11
-107.1245940598
 21
-32.6343162917
  0
LINE
  5
3F1
100
AcDbEntity
  8
CURVE
100
AcDbLine
 62
7
  6
CONTINUOUS
 10
-109.5186716442
 20
-35.2384045902
 11
-108.6114491849
 21
-34.3311821309
  0
LINE
  5
3F2
100
AcDbEntity
  8
CURVE
100
AcDbLine
 62
7
  6
CONTINUOUS
 10
-108.4071538897
 20
-34.1268868357
 11
-108.0749322675
 21
-33.7946652135
  0
LINE
  5
3F3
100
AcDbEntity
  8
CURVE
100
AcDbLine
 62
7
  6
CONTINUOUS
 10
-107.7516436721
 20
-33.4713766181
 11
-107.2075754642
 21
-32.9273084102
  0
LINE
  5
3F4
100
AcDbEntity
  8
CURVE
100
AcDbLine
 62
7
  6
CONTINUOUS
 10
-109.3260630005
 20
-35.2558066605
 11
-108.2769173116
 21
-34.2066609716
  0
LINE
  5
3F5
100
AcDbEntity
  8
CURVE
100
AcDbLine
 62
7
  6
CONTINUOUS
 10
-108.2545518249
 20
-34.1842954848
 11
-107.9229611733
 21
-33.8527048333
  0
LINE
  5
3F6
100
AcDbEntity
  8
CURVE
100
AcDbLine
 62
7
  6
CONTINUOUS
 10
-107.5267945882
 20
-33.4565382482
 11
-107.1245940598
 21
-33.0543377198
  0
LINE
  5
3F7
100
AcDbEntity
  8
CURVE
100
AcDbLine
 62
7
  6
CONTINUOUS
 10
-109.6229561974
 20
-35.7627105714
 11
-109.595850626
 21
-35.735605
  0
LINE
  5
3F8
100
AcDbEntity
  8
CURVE
100
AcDbLine
 62
7
  6
CONTINUOUS
 10
-109.1334543568
 20
-35.2732087308
 11
-108.7065684429
 21
-34.8463228169
  0
LINE
  5
3F9
100
AcDbEntity
  8
CURVE
100
AcDbLine
 62
7
  6
CONTINUOUS
 10
-108.6715029735
 20
-34.8112573475
 11
-107.7709900792
 21
-33.9107444532
  0
LINE
  5
3FA
100
AcDbEntity
  8
CURVE
100
AcDbLine
 62
7
  6
CONTINUOUS
 10
-107.3019455044
 20
-33.4416998784
 11
-107.1245940598
 21
-33.2643484338
  0
LINE
  5
3FB
100
AcDbEntity
  8
CURVE
100
AcDbLine
 62
7
  6
CONTINUOUS
 10
-109.6229561974
 20
-35.9727212854
 11
-109.385839912
 21
-35.735605
  0
LINE
  5
3FC
100
AcDbEntity
  8
CURVE
100
AcDbLine
 62
7
  6
CONTINUOUS
 10
-108.940845713
 20
-35.290610801
 11
-108.5101181338
 21
-34.8598832218
  0
LINE
  5
3FD
100
AcDbEntity
  8
CURVE
100
AcDbLine
 62
7
  6
CONTINUOUS
 10
-108.3353559695
 20
-34.6851210575
 11
-107.619018985
 21
-33.968784073
  0
LINE
  5
3FE
100
AcDbEntity
  8
CURVE
100
AcDbLine
 62
7
  6
CONTINUOUS
 10
-109.6229561974
 20
-36.1827319994
 11
-109.175829198
 21
-35.735605
  0
LINE
  5
3FF
100
AcDbEntity
  8
CURVE
100
AcDbLine
 62
7
  6
CONTINUOUS
 10
-108.7482370693
 20
-35.3080128713
 11
-108.3136678248
 21
-34.8734436268
  0
LINE
  5
400
100
AcDbEntity
  8
CURVE
100
AcDbLine
 62
7
  6
CONTINUOUS
 10
-107.9992089655
 20
-34.5589847675
 11
-107.4670478908
 21
-34.0268236929
  0
LINE
  5
401
100
AcDbEntity
  8
CURVE
100
AcDbLine
 62
7
  6
CONTINUOUS
 10
-109.487611484
 20
-36.257398
 11
-108.965818484
 21
-35.735605
  0
LINE
  5
402
100
AcDbEntity
  8
CURVE
100
AcDbLine
 62
7
  6
CONTINUOUS
 10
-108.5556284256
 20
-35.3254149416
 11
-108.1172175157
 21
-34.8870040317
  0
LINE
  5
403
100
AcDbEntity
  8
CURVE
100
AcDbLine
 62
7
  6
CONTINUOUS
 10
-107.6630619615
 20
-34.4328484775
 11
-107.3150767967
 21
-34.0848633127
  0
LINE
  5
404
100
AcDbEntity
  8
CURVE
100
AcDbLine
 62
7
  6
CONTINUOUS
 10
-109.6228072881
 20
-36.6026045182
 11
-109.5081255358
 21
-36.4879227659
  0
LINE
  5
405
100
AcDbEntity
  8
CURVE
100
AcDbLine
 62
7
  6
CONTINUOUS
 10
-109.27760077
 20
-36.257398
 11
-108.75580777
 21
-35.735605
  0
LINE
  5
406
100
AcDbEntity
  8
CURVE
100
AcDbLine
 62
7
  6
CONTINUOUS
 10
-108.3630197819
 20
-35.3428170119
 11
-107.9207672067
 21
-34.9005644367
  0
LINE
  5
407
100
AcDbEntity
  8
CURVE
100
AcDbLine
 62
7
  6
CONTINUOUS
 10
-107.3269149574
 20
-34.3067121875
 11
-107.1631057025
 21
-34.1429029325
  0
LINE
  5
408
100
AcDbEntity
  8
CURVE
100
AcDbLine
 62
7
  6
CONTINUOUS
 10
-109.6228072881
 20
-36.8126152322
 11
-109.3492234374
 21
-36.5390313815
  0
LINE
  5
409
100
AcDbEntity
  8
CURVE
100
AcDbLine
 62
7
  6
CONTINUOUS
 10
-109.0675900559
 20
-36.257398
 11
-108.5457970559
 21
-35.735605
  0
LINE
  5
40A
100
AcDbEntity
  8
CURVE
100
AcDbLine
 62
7
  6
CONTINUOUS
 10
-108.1704111381
 20
-35.3602190822
 11
-107.7243168976
 21
-34.9141248417
  0
LINE
  5
40B
100
AcDbEntity
  8
CURVE
100
AcDbLine
 62
7
  6
CONTINUOUS
 10
-109.5837948062
 20
-36.9836134643
 11
-109.190321339
 21
-36.5901399971
  0
LINE
  5
40C
100
AcDbEntity
  8
CURVE
100
AcDbLine
 62
7
  6
CONTINUOUS
 10
-108.8575793419
 20
-36.257398
 11
-108.3357863419
 21
-35.735605
  0
LINE
  5
40D
100
AcDbEntity
  8
CURVE
100
AcDbLine
 62
7
  6
CONTINUOUS
 10
-107.9778024944
 20
-35.3776211525
 11
-107.5278665886
 21
-34.9276852466
  0
LINE
  5
40E
100
AcDbEntity
  8
CURVE
100
AcDbLine
 62
7
  6
CONTINUOUS
 10
-109.4204337318
 20
-37.0302631039
 11
-109.0314192406
 21
-36.6412486127
  0
LINE
  5
40F
100
AcDbEntity
  8
CURVE
100
AcDbLine
 62
7
  6
CONTINUOUS
 10
-108.6475686279
 20
-36.257398
 11
-108.1257756279
 21
-35.735605
  0
LINE
  5
410
100
AcDbEntity
  8
CURVE
100
AcDbLine
 62
7
  6
CONTINUOUS
 10
-107.7851938507
 20
-35.3950232228
 11
-107.3314162795
 21
-34.9412456516
  0
LINE
  5
411
100
AcDbEntity
  8
CURVE
100
AcDbLine
 62
7
  6
CONTINUOUS
 10
-109.2570726574
 20
-37.0769127435
 11
-108.8725171422
 21
-36.6923572283
  0
LINE
  5
412
100
AcDbEntity
  8
CURVE
100
AcDbLine
 62
7
  6
CONTINUOUS
 10
-108.4375579139
 20
-36.257398
 11
-107.9157649139
 21
-35.735605
  0
LINE
  5
413
100
AcDbEntity
  8
CURVE
100
AcDbLine
 62
7
  6
CONTINUOUS
 10
-107.592585207
 20
-35.4124252931
 11
-107.1349659705
 21
-34.9548060566
  0
LINE
  5
414
100
AcDbEntity
  8
CURVE
100
AcDbLine
 62
7
  6
CONTINUOUS
 10
-109.093711583
 20
-37.1235623831
 11
-108.7136150438
 21
-36.7434658439
  0
LINE
  5
415
100
AcDbEntity
  8
CURVE
100
AcDbLine
 62
7
  6
CONTINUOUS
 10
-108.2275471999
 20
-36.257398
 11
-107.7057541999
 21
-35.735605
  0
LINE
  5
416
100
AcDbEntity
  8
CURVE
100
AcDbLine
 62
7
  6
CONTINUOUS
 10
-107.3999765632
 20
-35.4298273633
 11
-107.1245940598
 21
-35.1544448599
  0
LINE
  5
417
100
AcDbEntity
  8
CURVE
100
AcDbLine
 62
7
  6
CONTINUOUS
 10
-108.9303505085
 20
-37.1702120227
 11
-108.5547129454
 21
-36.7945744595
  0
LINE
  5
418
100
AcDbEntity
  8
CURVE
100
AcDbLine
 62
7
  6
CONTINUOUS
 10
-108.0175364859
 20
-36.257398
 11
-107.4957434859
 21
-35.735605
  0
LINE
  5
419
100
AcDbEntity
  8
CURVE
100
AcDbLine
 62
7
  6
CONTINUOUS
 10
-107.2073679195
 20
-35.4472294336
 11
-107.1245940598
 21
-35.3644555739
  0
LINE
  5
41A
100
AcDbEntity
  8
CURVE
100
AcDbLine
 62
7
  6
CONTINUOUS
 10
-109.6228072881
 20
-38.0726795163
 11
-109.4392965355
 21
-37.8891687636
  0
LINE
  5
41B
100
AcDbEntity
  8
CURVE
100
AcDbLine
 62
7
  6
CONTINUOUS
 10
-108.7669894341
 20
-37.2168616623
 11
-108.395810847
 21
-36.8456830751
  0
LINE
  5
41C
100
AcDbEntity
  8
CURVE
100
AcDbLine
 62
7
  6
CONTINUOUS
 10
-107.8075257719
 20
-36.257398
 11
-107.2857327719
 21
-35.735605
  0
LINE
  5
41D
100
AcDbEntity
  8
CURVE
100
AcDbLine
 62
7
  6
CONTINUOUS
 10
-109.6228072881
 20
-38.2826902303
 11
-109.1487864027
 21
-37.8086693449
  0
LINE
  5
41E
100
AcDbEntity
  8
CURVE
100
AcDbLine
 62
7
  6
CONTINUOUS
 10
-108.6036283597
 20
-37.2635113018
 11
-108.2369087486
 21
-36.8967916907
  0
LINE
  5
41F
100
AcDbEntity
  8
CURVE
100
AcDbLine
 62
7
  6
CONTINUOUS
 10
-107.5975150579
 20
-36.257398
 11
-107.1245940598
 21
-35.7844770019
  0
LINE
  5
420
100
AcDbEntity
  8
CURVE
100
AcDbLine
 62
7
  6
CONTINUOUS
 10
-109.6228072881
 20
-38.4927009443
 11
-108.85827627
 21
-37.7281699261
  0
LINE
  5
421
100
AcDbEntity
  8
CURVE
100
AcDbLine
 62
7
  6
CONTINUOUS
 10
-108.4402672853
 20
-37.3101609414
 11
-108.0780066502
 21
-36.9479003063
  0
LINE
  5
422
100
AcDbEntity
  8
CURVE
100
AcDbLine
 62
7
  6
CONTINUOUS
 10
-107.3875043438
 20
-36.257398
 11
-107.1245940598
 21
-35.9944877159
  0
LINE
  5
423
100
AcDbEntity
  8
CURVE
100
AcDbLine
 62
7
  6
CONTINUOUS
 10
-109.3359468522
 20
-38.4158512224
 11
-108.5677661372
 21
-37.6476705074
  0
LINE
  5
424
100
AcDbEntity
  8
CURVE
100
AcDbLine
 62
7
  6
CONTINUOUS
 10
-108.2769062108
 20
-37.356810581
 11
-107.9191045518
 21
-36.999008922
  0
LINE
  5
425
100
AcDbEntity
  8
CURVE
100
AcDbLine
 62
7
  6
CONTINUOUS
 10
-107.1774936298
 20
-36.257398
 11
-107.1245940598
 21
-36.2044984299
  0
LINE
  5
426
100
AcDbEntity
  8
CURVE
100
AcDbLine
 62
7
  6
CONTINUOUS
 10
-109.0283683156
 20
-38.3182833998
 11
-108.2772560044
 21
-37.5671710886
  0
LINE
  5
427
100
AcDbEntity
  8
CURVE
100
AcDbLine
 62
7
  6
CONTINUOUS
 10
-108.1135451364
 20
-37.4034602206
 11
-107.7602024534
 21
-37.0501175376
  0
LINE
  5
428
100
AcDbEntity
  8
CURVE
100
AcDbLine
 62
7
  6
CONTINUOUS
 10
-108.7207897791
 20
-38.2207155773
 11
-107.9867458717
 21
-37.4866716699
  0
LINE
  5
429
100
AcDbEntity
  8
CURVE
100
AcDbLine
 62
7
  6
CONTINUOUS
 10
-107.950184062
 20
-37.4501098602
 11
-107.601300355
 21
-37.1012261532
  0
LINE
  5
42A
100
AcDbEntity
  8
CURVE
100
AcDbLine
 62
7
  6
CONTINUOUS
 10
-108.4132112425
 20
-38.1231477547
 11
-107.4423982566
 21
-37.1523347688
  0
LINE
  5
42B
100
AcDbEntity
  8
CURVE
100
AcDbLine
 62
7
  6
CONTINUOUS
 10
-108.1056327059
 20
-38.0255799321
 11
-107.2834961582
 21
-37.2034433844
  0
LINE
  5
42C
100
AcDbEntity
  8
CURVE
100
AcDbLine
 62
7
  6
CONTINUOUS
 10
-107.7980541693
 20
-37.9280121096
 11
-107.1245940598
 21
-37.254552
  0
LINE
  5
42D
100
AcDbEntity
  8
CURVE
100
AcDbLine
 62
7
  6
CONTINUOUS
 10
-107.4904756328
 20
-37.830444287
 11
-107.1245940598
 21
-37.464562714
  0
LINE
  5
42E
100
AcDbEntity
  8
CURVE
100
AcDbLine
 62
7
  6
CONTINUOUS
 10
-107.1828970962
 20
-37.7328764645
 11
-107.1245940598
 21
-37.674573428
  0
LINE
  5
42F
100
AcDbEntity
  8
0
100
AcDbLine
 62
250
  6
CONTINUOUS
 10
-104.0918657159
 20
-26.9276792439
 11
-102.992346856
 21
-26.3440350289
  0
LINE
  5
430
100
AcDbEntity
  8
0
100
AcDbLine
 62
250
  6
CONTINUOUS
 10
-102.5675890674
 20
-26.2536973817
 11
-102.0454972146
 21
-25.9765617175
  0
LINE
  5
431
100
AcDbEntity
  8
0
100
AcDbLine
 62
7
  6
CONTINUOUS
 10
-102.0176382996
 20
-26.0883643404
 11
-103.9526263379
 21
-27.1154904916
  0
LINE
  5
432
100
AcDbEntity
  8
0
100
AcDbLine
 62
7
  6
CONTINUOUS
 10
-102.0176382996
 20
25.4
 11
-103.9680102017
 21
25.2049628098
  0
LINE
  5
433
100
AcDbEntity
  8
0
100
AcDbLine
 62
7
  6
CONTINUOUS
 10
-105.0176382996
 20
25.7558198745
 11
-102.2071711084
 21
25.8799866677
  0
LINE
  5
434
100
AcDbEntity
  8
0
100
AcDbLine
 62
7
  6
CONTINUOUS
 10
-105.0176382996
 20
25.05
 11
-104.8676382996
 21
25.05
  0
LINE
  5
435
100
AcDbEntity
  8
0
100
AcDbLine
 62
7
  6
CONTINUOUS
 10
-104.5676382996
 20
25.05
 11
-104.3676382996
 21
25.05
  0
LINE
  5
436
100
AcDbEntity
  8
0
100
AcDbLine
 62
7
  6
CONTINUOUS
 10
-105.0176382996
 20
25.2
 11
-104.0675139207
 21
25.2
  0
LINE
  5
437
100
AcDbEntity
  8
0
100
AcDbLine
 62
250
  6
CONTINUOUS
 10
-104.0918657159
 20
26.9276792439
 11
-105.0176382996
 21
26.9280974384
  0
LINE
  5
438
100
AcDbEntity
  8
0
100
AcDbLine
 62
7
  6
CONTINUOUS
 10
-104.0918011486
 20
27.1501294387
 11
-105.0176382996
 21
27.151745331
  0
LINE
  5
439
100
AcDbEntity
  8
0
100
AcDbLine
 62
250
  6
CONTINUOUS
 10
-102.5675890674
 20
26.2536973817
 11
-105.0176382996
 21
26.2679513512
  0
LINE
  5
43A
100
AcDbEntity
  8
0
100
AcDbLine
 62
7
  6
CONTINUOUS
 10
-102.5675890674
 20
26.3415638603
 11
-105.0176382996
 21
26.3558178298
  0
LINE
  5
43B
100
AcDbEntity
  8
0
100
AcDbLine
 62
250
  6
CONTINUOUS
 10
-102.992346856
 20
26.3440350289
 11
-104.0918657159
 21
26.9276792439
  0
LINE
  5
43C
100
AcDbEntity
  8
0
100
AcDbLine
 62
250
  6
CONTINUOUS
 10
-102.0454972146
 20
25.9765617175
 11
-102.5675890674
 21
26.2536973817
  0
LINE
  5
43D
100
AcDbEntity
  8
0
100
AcDbLine
 62
7
  6
CONTINUOUS
 10
-102.0176382996
 20
26.0883643404
 11
-103.9526263379
 21
27.1154904916
  0
LINE
  5
43E
100
AcDbEntity
  8
SMUSSO
100
AcDbLine
 62
7
  6
CONTINUOUS
 10
-111.1682474726
 20
-43.8055596544
 11
-111.1831858418
 21
-43.8199854699
  0
LINE
  5
43F
100
AcDbEntity
  8
ASSI
100
AcDbLine
 62
7
  6
CONTINUOUS
 10
-111.1682474726
 20
-43.8055596544
 11
-111.1831858418
 21
-43.8199854699
  0
LINE
  5
440
100
AcDbEntity
  8
CURVE
100
AcDbLine
 62
250
  6
CONTINUOUS
 10
-109.6228072881
 20
-31.54876
 11
-107.1245940598
 21
-30.781779
  0
LINE
  5
441
100
AcDbEntity
  8
SMUSSO
100
AcDbLine
 62
7
  6
CONTINUOUS
 10
-111.1831858418
 20
43.8199854699
 11
-111.1682474726
 21
43.8055596544
  0
LINE
  5
442
100
AcDbEntity
  8
ASSI
100
AcDbLine
 62
7
  6
CONTINUOUS
 10
-111.1831858418
 20
43.8199854699
 11
-111.1682474726
 21
43.8055596544
  0
LINE
  5
443
100
AcDbEntity
  8
CURVE
100
AcDbLine
 62
250
  6
CONTINUOUS
 10
-107.1245940598
 20
-34.230793
 11
-108.7558797189
 21
-34.842919
  0
LINE
  5
444
100
AcDbEntity
  8
CURVE
100
AcDbLine
 62
250
  6
CONTINUOUS
 10
-109.6228072881
 20
-34.707635
 11
-108.2357917356
 21
-34.191353
  0
LINE
  5
445
100
AcDbEntity
  8
CURVE
100
AcDbLine
 62
250
  6
CONTINUOUS
 10
-107.1245940598
 20
-37.714382
 11
-109.6228072881
 21
-38.506847
  0
LWPOLYLINE
  5
446
100
AcDbEntity
  8
0
100
AcDbPolyline
 62
7
  6
CONTINUOUS
 90
10
 70
0
 43
0.3500000006
 10
-97.3762827759
 20
56.2499987183
 10
-97.304851593
 20
56.1071454163
 10
-97.304851593
 20
56.0357142334
 10
-97.4477139587
 20
55.8928609314
 10
-97.5191360779
 20
55.8928609314
 10
-97.5905672607
 20
55.9642830505
 10
-97.5905672607
 20
56.0357142334
 10
-97.5191360779
 20
56.1785675354
 10
-97.4477139587
 20
56.2499987183
 10
-97.3762827759
 20
56.2499987183
  0
LWPOLYLINE
  5
447
100
AcDbEntity
  8
0
100
AcDbPolyline
 62
7
  6
CONTINUOUS
 90
10
 70
0
 43
0.3500000006
 10
-96.2296133423
 20
64.2500011597
 10
-96.1581912231
 20
64.1071387939
 10
-96.1581912231
 20
64.0357166748
 10
-96.3010445251
 20
63.8928543091
 10
-96.372475708
 20
63.8928543091
 10
-96.4438978271
 20
63.9642854919
 10
-96.4438978271
 20
64.0357166748
 10
-96.372475708
 20
64.1785699768
 10
-96.3010445251
 20
64.2500011597
 10
-96.2296133423
 20
64.2500011597
  0
LINE
  5
448
100
AcDbEntity
  8
0
100
AcDbLine
 62
250
  6
CONTINUOUS
 10
-105.6176382996
 20
41.1619414324
 11
-105.0176382996
 21
41.2038975196
  0
LINE
  5
449
100
AcDbEntity
  8
0
100
AcDbLine
 62
7
  6
CONTINUOUS
 10
-105.6176382996
 20
42.7580439128
 11
-105.0176382996
 21
42.8
  0
LINE
  5
44A
100
AcDbEntity
  8
SMUSSO
100
AcDbLine
 62
7
  6
CONTINUOUS
 10
-111.1682474726
 20
43.8055596544
 11
-105.6176382996
 21
43.9993911979
  0
LINE
  5
44B
100
AcDbEntity
  8
ASSI
100
AcDbLine
 62
7
  6
CONTINUOUS
 10
-111.1682474726
 20
43.8055596544
 11
-105.6176382996
 21
43.9993911979
  0
LINE
  5
44C
100
AcDbEntity
  8
SMUSSO
100
AcDbLine
 62
7
  6
CONTINUOUS
 10
-111.1682474726
 20
44.8061684565
 11
-105.6176382996
 21
45.0
  0
LINE
  5
44D
100
AcDbEntity
  8
ASSI
100
AcDbLine
 62
7
  6
CONTINUOUS
 10
-111.1682474726
 20
44.8061684565
 11
-105.6176382996
 21
45.0
  0
LWPOLYLINE
  5
44E
100
AcDbEntity
  8
0
100
AcDbPolyline
 62
7
  6
CONTINUOUS
 90
8
 70
0
 43
0.3500000006
 10
-94.5905663452
 20
55.7499985657
 10
-93.7334284058
 20
55.7499985657
 10
-93.3048503723
 20
56.1785675354
 10
-93.3048503723
 20
57.0357145386
 10
-93.7334284058
 20
57.4642835083
 10
-94.5905663452
 20
57.4642835083
 10
-94.5905663452
 20
58.7499994812
 10
-93.3048503723
 20
58.7499994812
  0
LWPOLYLINE
  5
44F
100
AcDbEntity
  8
0
100
AcDbPolyline
 62
7
  6
CONTINUOUS
 90
8
 70
0
 43
0.3500000006
 10
-93.4438969116
 20
63.7500010071
 10
-92.5867589722
 20
63.7500010071
 10
-92.1581900024
 20
64.1785699768
 10
-92.1581900024
 20
65.03571698
 10
-92.5867589722
 20
65.4642859497
 10
-93.4438969116
 20
65.4642859497
 10
-93.4438969116
 20
66.7500019226
 10
-92.1581900024
 20
66.7500019226
  0
ARC
  5
450
100
AcDbEntity
  8
CURVE
100
AcDbCircle
 62
250
  6
CONTINUOUS
 10
119.3922937953
 20
-29.8716892664
 40
39.868107399
100
AcDbArc
 50
179.7782450657
 51
180.3657160807
  0
ARC
  5
451
100
AcDbEntity
  8
0
100
AcDbCircle
 62
250
  6
CONTINUOUS
 10
55.8995946293
 20
-22.1495946293
 40
0.6994146888
100
AcDbArc
 50
269.9871204598
 51
0.0128795434
  0
ARC
  5
452
100
AcDbEntity
  8
0
100
AcDbCircle
 62
250
  6
CONTINUOUS
 10
55.8995946293
 20
22.1495946293
 40
0.6994146888
100
AcDbArc
 50
359.9871204614
 51
90.0128795419
  0
ARC
  5
453
100
AcDbEntity
  8
ASSI
100
AcDbCircle
 62
250
  6
CONTINUOUS
 10
55.8995946293
 20
-22.1495946293
 40
0.6994146888
100
AcDbArc
 50
269.9871204598
 51
0.0128795434
  0
ARC
  5
454
100
AcDbEntity
  8
ASSI
100
AcDbCircle
 62
250
  6
CONTINUOUS
 10
55.8995946293
 20
22.1495946293
 40
0.6994146888
100
AcDbArc
 50
359.9871204614
 51
90.0128795419
  0
ARC
  5
455
100
AcDbEntity
  8
0
100
AcDbCircle
 62
250
  6
CONTINUOUS
 10
-55.8996087753
 20
-22.1496087753
 40
0.6993972891
100
AcDbArc
 50
179.9859613453
 51
270.0140386555
  0
ARC
  5
456
100
AcDbEntity
  8
0
100
AcDbCircle
 62
250
  6
CONTINUOUS
 10
-55.8996087753
 20
22.1496087753
 40
0.6993972891
100
AcDbArc
 50
89.9859613453
 51
180.0140386555
  0
ARC
  5
457
100
AcDbEntity
  8
ASSI
100
AcDbCircle
 62
250
  6
CONTINUOUS
 10
-55.8996087753
 20
-22.1496087753
 40
0.6993972891
100
AcDbArc
 50
179.9859613453
 51
270.0140386555
  0
ARC
  5
458
100
AcDbEntity
  8
ASSI
100
AcDbCircle
 62
250
  6
CONTINUOUS
 10
-55.8996087753
 20
22.1496087753
 40
0.6993972891
100
AcDbArc
 50
89.9859613453
 51
180.0140386555
  0
ARC
  5
459
100
AcDbEntity
  8
0
100
AcDbCircle
 62
250
  6
CONTINUOUS
 10
55.8998822824
 20
22.1498822824
 40
0.4992485639
100
AcDbArc
 50
359.9489445485
 51
90.0510554573
  0
ARC
  5
45A
100
AcDbEntity
  8
0
100
AcDbCircle
 62
250
  6
CONTINUOUS
 10
55.8998822824
 20
-22.1498822824
 40
0.4992485639
100
AcDbArc
 50
269.9489445475
 51
0.0510554583
  0
ARC
  5
45B
100
AcDbEntity
  8
ASSI
100
AcDbCircle
 62
250
  6
CONTINUOUS
 10
55.8998822824
 20
22.1498822824
 40
0.4992485639
100
AcDbArc
 50
359.9489445485
 51
90.0510554573
  0
ARC
  5
45C
100
AcDbEntity
  8
ASSI
100
AcDbCircle
 62
250
  6
CONTINUOUS
 10
55.8998822824
 20
-22.1498822824
 40
0.4992485639
100
AcDbArc
 50
269.9489445475
 51
0.0510554583
  0
ARC
  5
45D
100
AcDbEntity
  8
0
100
AcDbCircle
 62
250
  6
CONTINUOUS
 10
-55.8998822825
 20
-22.1498822824
 40
0.4992485635
100
AcDbArc
 50
179.948944544
 51
270.0510554618
  0
ARC
  5
45E
100
AcDbEntity
  8
0
100
AcDbCircle
 62
250
  6
CONTINUOUS
 10
-55.8998822824
 20
22.1498822824
 40
0.4992485636
100
AcDbArc
 50
89.9489445506
 51
180.0510554552
  0
ARC
  5
45F
100
AcDbEntity
  8
ASSI
100
AcDbCircle
 62
250
  6
CONTINUOUS
 10
-55.8998822825
 20
-22.1498822824
 40
0.4992485635
100
AcDbArc
 50
179.948944544
 51
270.0510554618
  0
ARC
  5
460
100
AcDbEntity
  8
ASSI
100
AcDbCircle
 62
250
  6
CONTINUOUS
 10
-55.8998822824
 20
22.1498822824
 40
0.4992485636
100
AcDbArc
 50
89.9489445506
 51
180.0510554552
  0
ARC
  5
461
100
AcDbEntity
  8
0
100
AcDbCircle
 62
7
  6
CONTINUOUS
 10
-104.0675139207
 20
26.2
 40
1.0
100
AcDbArc
 50
270.0
 51
275.7105931375
  0
ARC
  5
462
100
AcDbEntity
  8
0
100
AcDbCircle
 62
7
  6
CONTINUOUS
 10
-104.0675139207
 20
-26.2
 40
1.0
100
AcDbArc
 50
84.2894068625
 51
90.0
  0
ARC
  5
463
100
AcDbEntity
  8
0
100
AcDbCircle
 62
7
  6
CONTINUOUS
 10
-104.0923249747
 20
-26.849999496
 40
0.3
100
AcDbArc
 50
270.0999999936
 51
297.9489684597
  0
ARC
  5
464
100
AcDbEntity
  8
0
100
AcDbCircle
 62
7
  6
CONTINUOUS
 10
-104.0923249747
 20
26.849999496
 40
0.3
100
AcDbArc
 50
62.0510315402
 51
89.9000000064
  0
ARC
  5
465
100
AcDbEntity
  8
0
100
AcDbCircle
 62
7
  6
CONTINUOUS
 10
-102.5693343868
 20
-26.0415689373
 40
0.3
100
AcDbArc
 50
270.3333333333
 51
297.9601595792
  0
ARC
  5
466
100
AcDbEntity
  8
0
100
AcDbCircle
 62
7
  6
CONTINUOUS
 10
-102.5693343868
 20
26.0415689373
 40
0.3
100
AcDbArc
 50
62.0398404207
 51
89.6666666667
  0
SPLINE
  5
467
100
AcDbEntity
  8
CURVE
100
AcDbSpline
 62
250
  6
CONTINUOUS
 70
0
 71
3
 72
9
 73
5
 74
0
 42
0.0000001
 43
0.0000001
 44
0.0000000001
 40
0.0
 40
0.0
 40
0.0
 40
0.0
 40
0.5206208722
 40
1.0
 40
1.0
 40
1.0
 40
1.0
 10
79.535390512
 20
-29.4226356449
 30
0.0
 10
79.5391619261
 20
-29.4209681689
 30
0.0
 10
79.5474005432
 20
-29.4973108459
 30
0.0
 10
79.5488699409
 20
-29.728472706
 30
0.0
 10
79.5489474951
 20
-29.8279642095
 30
0.0
  0
SPLINE
  5
468
100
AcDbEntity
  8
CURVE
100
AcDbSpline
 62
250
  6
CONTINUOUS
 70
0
 71
3
 72
9
 73
5
 74
0
 42
0.0000001
 43
0.0000001
 44
0.0000000001
 40
0.0
 40
0.0
 40
0.0
 40
0.0
 40
0.5013510385
 40
1.0
 40
1.0
 40
1.0
 40
1.0
 10
79.5244850009
 20
-29.7173859732
 30
0.0
 10
79.524794863
 20
-29.6409112471
 30
0.0
 10
79.5271452432
 20
-29.4862321801
 30
0.0
 10
79.5327184632
 20
-29.423833145
 30
0.0
 10
79.535390512
 20
-29.4226356449
 30
0.0
  0
SPLINE
  5
469
100
AcDbEntity
  8
CURVE
100
AcDbSpline
 62
250
  6
CONTINUOUS
 70
0
 71
3
 72
9
 73
5
 74
0
 42
0.0000001
 43
0.0000001
 44
0.0000000001
 40
0.0
 40
0.0
 40
0.0
 40
0.0
 40
0.2957417834
 40
1.0
 40
1.0
 40
1.0
 40
1.0
 10
79.5120741759
 20
-29.3408501143
 30
0.0
 10
79.5105585951
 20
-29.4610542637
 30
0.0
 10
79.5080881081
 20
-29.8931154132
 30
0.0
 10
79.5096096759
 20
-30.3274429247
 30
0.0
 10
79.5111556794
 20
-30.6285551388
 30
0.0
  0
SPLINE
  5
46A
100
AcDbEntity
  8
CURVE
100
AcDbSpline
 62
250
  6
CONTINUOUS
 70
0
 71
3
 72
17
 73
13
 74
0
 42
0.0000001
 43
0.0000001
 44
0.0000000001
 40
0.0
 40
0.0
 40
0.0
 40
0.0
 40
0.0559780952
 40
0.1687540387
 40
0.321006234
 40
0.4122750837
 40
0.516613223
 40
0.6013931059
 40
0.6776022439
 40
0.8103422694
 40
0.9200404832
 40
1.0
 40
1.0
 40
1.0
 40
1.0
 10
79.5561378054
 20
-29.2870512436
 30
0.0
 10
79.5560080221
 20
-29.2582307418
 30
0.0
 10
79.5539944413
 20
-29.184972753
 30
0.0
 10
79.5501559947
 20
-29.0634829078
 30
0.0
 10
79.544247302
 20
-28.9740276278
 30
0.0
 10
79.5380831982
 20
-28.9341773505
 30
0.0
 10
79.5329671207
 20
-28.9304334968
 30
0.0
 10
79.5281887457
 20
-28.9501640226
 30
0.0
 10
79.5231113496
 20
-28.9979840427
 30
0.0
 10
79.5181353908
 20
-29.0877998266
 30
0.0
 10
79.5142440602
 20
-29.2146127248
 30
0.0
 10
79.512565765
 20
-29.301804483
 30
0.0
 10
79.5120741759
 20
-29.3408501143
 30
0.0
  0
SPLINE
  5
46B
100
AcDbEntity
  8
CURVE
100
AcDbSpline
 62
250
  6
CONTINUOUS
 70
0
 71
3
 72
9
 73
5
 74
0
 42
0.0000001
 43
0.0000001
 44
0.0000000001
 40
0.0
 40
0.0
 40
0.0
 40
0.0
 40
0.2426586216
 40
1.0
 40
1.0
 40
1.0
 40
1.0
 10
79.5737639114
 20
-28.9862836897
 30
0.0
 10
79.5721786227
 20
-28.9986586641
 30
0.0
 10
79.5657768408
 20
-29.0459291565
 30
0.0
 10
79.5585526835
 20
-29.1505648409
 30
0.0
 10
79.5566533149
 20
-29.2870512436
 30
0.0
  0
LINE
  5
46C
100
AcDbEntity
  8
CURVE
100
AcDbLine
 62
250
  6
CONTINUOUS
 10
79.5973759458
 20
-28.8079038802
 11
79.5737639114
 21
-28.9862836897
  0
SPLINE
  5
46D
100
AcDbEntity
  8
CURVE
100
AcDbSpline
 62
250
  6
CONTINUOUS
 70
0
 71
3
 72
9
 73
5
 74
0
 42
0.0000001
 43
0.0000001
 44
0.0000000001
 40
0.0
 40
0.0
 40
0.0
 40
0.0
 40
0.5586214172
 40
1.0
 40
1.0
 40
1.0
 40
1.0
 10
79.5709220674
 20
-29.5379751749
 30
0.0
 10
79.5757378197
 20
-29.486134558
 30
0.0
 10
79.5846552336
 20
-29.4179595379
 30
0.0
 10
79.5934695024
 20
-29.3419894791
 30
0.0
 10
79.5973759458
 20
-29.3098079785
 30
0.0
  0
SPLINE
  5
46E
100
AcDbEntity
  8
CURVE
100
AcDbSpline
 62
250
  6
CONTINUOUS
 70
0
 71
3
 72
9
 73
5
 74
0
 42
0.0000001
 43
0.0000001
 44
0.0000000001
 40
0.0
 40
0.0
 40
0.0
 40
0.0
 40
0.3559141631
 40
1.0
 40
1.0
 40
1.0
 40
1.0
 10
79.5632352194
 20
-29.8290889245
 30
0.0
 10
79.5632352194
 20
-29.7836184402
 30
0.0
 10
79.5641961358
 20
-29.6528120506
 30
0.0
 10
79.5682334149
 20
-29.5668873007
 30
0.0
 10
79.5709220674
 20
-29.5379751749
 30
0.0
  0
SPLINE
  5
46F
100
AcDbEntity
  8
CURVE
100
AcDbSpline
 62
250
  6
CONTINUOUS
 70
0
 71
3
 72
9
 73
5
 74
0
 42
0.0000001
 43
0.0000001
 44
0.0000000001
 40
0.0
 40
0.0
 40
0.0
 40
0.0
 40
0.5206208722
 40
1.0
 40
1.0
 40
1.0
 40
1.0
 10
-108.8996246255
 20
-29.4226356449
 30
0.0
 10
-108.7916254559
 20
-29.4209681689
 30
0.0
 10
-108.5557023323
 20
-29.4973108459
 30
0.0
 10
-108.5136242864
 20
-29.728472706
 30
0.0
 10
-108.5114034249
 20
-29.8279642095
 30
0.0
  0
SPLINE
  5
470
100
AcDbEntity
  8
CURVE
100
AcDbSpline
 62
250
  6
CONTINUOUS
 70
0
 71
3
 72
9
 73
5
 74
0
 42
0.0000001
 43
0.0000001
 44
0.0000000001
 40
0.0
 40
0.0
 40
0.0
 40
0.0
 40
0.5013510385
 40
1.0
 40
1.0
 40
1.0
 40
1.0
 10
-109.211917605
 20
-29.7173859732
 30
0.0
 10
-109.2030443153
 20
-29.6409112471
 30
0.0
 10
-109.1357382332
 20
-29.4862321801
 30
0.0
 10
-108.9761420928
 20
-29.423833145
 30
0.0
 10
-108.8996246255
 20
-29.4226356449
 30
0.0
  0
SPLINE
  5
471
100
AcDbEntity
  8
CURVE
100
AcDbSpline
 62
250
  6
CONTINUOUS
 70
0
 71
3
 72
9
 73
5
 74
0
 42
0.0000001
 43
0.0000001
 44
0.0000000001
 40
0.0
 40
0.0
 40
0.0
 40
0.0
 40
0.2703953699
 40
1.0
 40
1.0
 40
1.0
 40
1.0
 10
-109.1972115468
 20
-30.126163664
 30
0.0
 10
-109.2034220786
 20
-30.0897447717
 30
0.0
 10
-109.2238480225
 20
-29.9546358143
 30
0.0
 10
-109.2234045984
 20
-29.8164101388
 30
0.0
 10
-109.211917605
 20
-29.7173859732
 30
0.0
  0
SPLINE
  5
472
100
AcDbEntity
  8
CURVE
100
AcDbSpline
 62
250
  6
CONTINUOUS
 70
0
 71
3
 72
9
 73
5
 74
0
 42
0.0000001
 43
0.0000001
 44
0.0000000001
 40
0.0
 40
0.0
 40
0.0
 40
0.0
 40
0.2957417834
 40
1.0
 40
1.0
 40
1.0
 40
1.0
 10
-109.5673171319
 20
-29.3408501143
 30
0.0
 10
-109.6107176875
 20
-29.4610542637
 30
0.0
 10
-109.6814631801
 20
-29.8931154132
 30
0.0
 10
-109.6378911804
 20
-30.3274429247
 30
0.0
 10
-109.593619432
 20
-30.6285551388
 30
0.0
  0
SPLINE
  5
473
100
AcDbEntity
  8
CURVE
100
AcDbSpline
 62
250
  6
CONTINUOUS
 70
0
 71
3
 72
17
 73
13
 74
0
 42
0.0000001
 43
0.0000001
 44
0.0000000001
 40
0.0
 40
0.0
 40
0.0
 40
0.0
 40
0.0559780952
 40
0.1687540387
 40
0.321006234
 40
0.4122750837
 40
0.516613223
 40
0.6013931059
 40
0.6776022439
 40
0.8103422694
 40
0.9200404832
 40
1.0
 40
1.0
 40
1.0
 40
1.0
 10
-108.3054998774
 20
-29.2870512436
 30
0.0
 10
-108.3092163864
 20
-29.2582307418
 30
0.0
 10
-108.3668777946
 20
-29.184972753
 30
0.0
 10
-108.4767965246
 20
-29.0634829078
 30
0.0
 10
-108.6459993438
 20
-28.9740276278
 30
0.0
 10
-108.8225161832
 20
-28.9341773505
 30
0.0
 10
-108.9690214751
 20
-28.9304334968
 30
0.0
 10
-109.1058562293
 20
-28.9501640226
 30
0.0
 10
-109.2512538302
 20
-28.9979840427
 30
0.0
 10
-109.3937466487
 20
-29.0877998266
 30
0.0
 10
-109.505179776
 20
-29.2146127248
 30
0.0
 10
-109.5532398632
 20
-29.301804483
 30
0.0
 10
-109.5673171319
 20
-29.3408501143
 30
0.0
  0
SPLINE
  5
474
100
AcDbEntity
  8
CURVE
100
AcDbSpline
 62
250
  6
CONTINUOUS
 70
0
 71
3
 72
9
 73
5
 74
0
 42
0.0000001
 43
0.0000001
 44
0.0000000001
 40
0.0
 40
0.0
 40
0.0
 40
0.0
 40
0.2426586216
 40
1.0
 40
1.0
 40
1.0
 40
1.0
 10
-107.8007542417
 20
-28.9862836897
 30
0.0
 10
-107.8461509697
 20
-28.9986586641
 30
0.0
 10
-108.02947402
 20
-29.0459291565
 30
0.0
 10
-108.2363468182
 20
-29.1505648409
 30
0.0
 10
-108.2907376178
 20
-29.2870512436
 30
0.0
  0
SPLINE
  5
475
100
AcDbEntity
  8
CURVE
100
AcDbSpline
 62
250
  6
CONTINUOUS
 70
0
 71
3
 72
9
 73
5
 74
0
 42
0.0000001
 43
0.0000001
 44
0.0000000001
 40
0.0
 40
0.0
 40
0.0
 40
0.0
 40
0.1980141723
 40
1.0
 40
1.0
 40
1.0
 40
1.0
 10
-107.1245940433
 20
-28.8079038802
 30
0.0
 10
-107.1691353587
 20
-28.8200085492
 30
0.0
 10
-107.3945810027
 20
-28.8792554798
 30
0.0
 10
-107.6203942403
 20
-28.9371156095
 30
0.0
 10
-107.8007542417
 20
-28.9862836897
 30
0.0
  0
SPLINE
  5
476
100
AcDbEntity
  8
CURVE
100
AcDbSpline
 62
250
  6
CONTINUOUS
 70
0
 71
3
 72
9
 73
5
 74
0
 42
0.0000001
 43
0.0000001
 44
0.0000000001
 40
0.0
 40
0.0
 40
0.0
 40
0.0
 40
0.5586214172
 40
1.0
 40
1.0
 40
1.0
 40
1.0
 10
-107.882134008
 20
-29.5379751749
 30
0.0
 10
-107.7442289046
 20
-29.486134558
 30
0.0
 10
-107.4888675802
 20
-29.4179595379
 30
0.0
 10
-107.2364599469
 20
-29.3419894791
 30
0.0
 10
-107.1245940433
 20
-29.3098079785
 30
0.0
  0
SPLINE
  5
477
100
AcDbEntity
  8
CURVE
100
AcDbSpline
 62
250
  6
CONTINUOUS
 70
0
 71
3
 72
9
 73
5
 74
0
 42
0.0000001
 43
0.0000001
 44
0.0000000001
 40
0.0
 40
0.0
 40
0.0
 40
0.0
 40
0.3559141631
 40
1.0
 40
1.0
 40
1.0
 40
1.0
 10
-108.102256534
 20
-29.8290889245
 30
0.0
 10
-108.102256534
 20
-29.7836184402
 30
0.0
 10
-108.0747394861
 20
-29.6528120506
 30
0.0
 10
-107.9591269404
 20
-29.5668873007
 30
0.0
 10
-107.882134008
 20
-29.5379751749
 30
0.0
  0
SPLINE
  5
478
100
AcDbEntity
  8
0
100
AcDbSpline
 62
7
  6
CONTINUOUS
 70
0
 71
3
 72
9
 73
5
 74
0
 42
0.0000001
 43
0.0000001
 44
0.0000000001
 40
0.0
 40
0.0
 40
0.0
 40
0.0
 40
0.4298639259
 40
1.0
 40
1.0
 40
1.0
 40
1.0
 10
-102.0176382996
 20
26.0463167932
 30
0.0
 10
-102.0176382996
 20
26.0354717433
 30
0.0
 10
-102.0255477198
 20
26.0106368785
 30
0.0
 10
-102.0381478031
 20
25.9889263862
 30
0.0
 10
-102.0454972146
 20
25.9765617175
 30
0.0
  0
SPLINE
  5
479
100
AcDbEntity
  8
0
100
AcDbSpline
 62
7
  6
CONTINUOUS
 70
0
 71
3
 72
9
 73
5
 74
0
 42
0.0000001
 43
0.0000001
 44
0.0000000001
 40
0.0
 40
0.0
 40
0.0
 40
0.0
 40
0.5701359783
 40
1.0
 40
1.0
 40
1.0
 40
1.0
 10
-102.0454972146
 20
-25.9765617175
 30
0.0
 10
-102.0381478044
 20
-25.9889263841
 30
0.0
 10
-102.0255477217
 20
-26.0106368765
 30
0.0
 10
-102.0176382996
 20
-26.0354717409
 30
0.0
 10
-102.0176382996
 20
-26.0463167932
 30
0.0
  0
SPLINE
  5
47A
100
AcDbEntity
  8
0
100
AcDbSpline
 62
250
  6
CONTINUOUS
 70
0
 71
3
 72
13
 73
9
 74
0
 42
0.0000001
 43
0.0000001
 44
0.0000000001
 40
0.0
 40
0.0
 40
0.0
 40
0.0
 40
0.3880487266
 40
0.7024991829
 40
0.8213635491
 40
0.9105324873
 40
0.9687624458
 40
1.0
 40
1.0
 40
1.0
 40
1.0
 10
-104.0918657159
 20
26.9276792439
 30
0.0
 10
-104.0766692704
 20
26.954386408
 30
0.0
 10
-104.0481591612
 20
27.0021430954
 30
0.0
 10
-104.0119473983
 20
27.0563325113
 30
0.0
 10
-103.9866596341
 20
27.0889706773
 30
0.0
 10
-103.9720281278
 20
27.1045077875
 30
0.0
 10
-103.9618390432
 20
27.1136622635
 30
0.0
 10
-103.9539147908
 20
27.1161795183
 30
0.0
 10
-103.9517320659
 20
27.1150157961
 30
0.0
  0
SPLINE
  5
47B
100
AcDbEntity
  8
0
100
AcDbSpline
 62
250
  6
CONTINUOUS
 70
0
 71
3
 72
9
 73
5
 74
0
 42
0.0000001
 43
0.0000001
 44
0.0000000001
 40
0.0
 40
0.0
 40
0.0
 40
0.0
 40
0.5592716625
 40
1.0
 40
1.0
 40
1.0
 40
1.0
 10
-104.0918657159
 20
-26.9276792439
 30
0.0
 10
-104.0756662078
 20
-26.9561619115
 30
0.0
 10
-104.0455684054
 20
-27.0064371562
 30
0.0
 10
-104.012782687
 20
-27.0551036628
 30
0.0
 10
-103.9969878161
 20
-27.075531305
 30
0.0
  0
SPLINE
  5
47C
100
AcDbEntity
  8
0
100
AcDbSpline
 62
250
  6
CONTINUOUS
 70
0
 71
3
 72
10
 73
6
 74
0
 42
0.0000001
 43
0.0000001
 44
0.0000000001
 40
0.0
 40
0.0
 40
0.0
 40
0.0
 40
0.6949677911
 40
0.8908475351
 40
1.0
 40
1.0
 40
1.0
 40
1.0
 10
-103.9969878161
 20
-27.075531305
 30
0.0
 10
-103.9882305454
 20
-27.0868571585
 30
0.0
 10
-103.9762045305
 20
-27.1012421842
 30
0.0
 10
-103.9607537678
 20
-27.1142387348
 30
0.0
 10
-103.9537202975
 20
-27.116066058
 30
0.0
 10
-103.9517320659
 20
-27.1150157961
 30
0.0
  0
SPLINE
  5
47D
100
AcDbEntity
  8
0
100
AcDbSpline
 62
250
  6
CONTINUOUS
 70
0
 71
3
 72
11
 73
7
 74
0
 42
0.0000001
 43
0.0000001
 44
0.0000000001
 40
0.0
 40
0.0
 40
0.0
 40
0.0
 40
0.2014148372
 40
0.4266121401
 40
0.6906582782
 40
1.0
 40
1.0
 40
1.0
 40
1.0
 10
-102.4286771384
 20
26.3065510847
 30
0.0
 10
-102.4349653483
 20
26.3098889787
 30
0.0
 10
-102.4499033094
 20
26.3141439837
 30
0.0
 10
-102.4745967434
 20
26.3120187112
 30
0.0
 10
-102.5013606644
 20
26.3023888892
 30
0.0
 10
-102.5189161331
 20
26.2920661639
 30
0.0
 10
-102.5279654824
 20
26.2859292724
 30
0.0
  0
SPLINE
  5
47E
100
AcDbEntity
  8
0
100
AcDbSpline
 62
250
  6
CONTINUOUS
 70
0
 71
3
 72
9
 73
5
 74
0
 42
0.0000001
 43
0.0000001
 44
0.0000000001
 40
0.0
 40
0.0
 40
0.0
 40
0.0
 40
0.2353683512
 40
1.0
 40
1.0
 40
1.0
 40
1.0
 10
-102.5279654824
 20
26.2859292724
 30
0.0
 10
-102.5312841781
 20
26.2836786713
 30
0.0
 10
-102.5451501871
 20
26.2737723695
 30
0.0
 10
-102.5581221728
 20
26.2626456618
 30
0.0
 10
-102.5675890674
 20
26.2536973817
 30
0.0
  0
SPLINE
  5
47F
100
AcDbEntity
  8
0
100
AcDbSpline
 62
250
  6
CONTINUOUS
 70
0
 71
3
 72
11
 73
7
 74
0
 42
0.0000001
 43
0.0000001
 44
0.0000000001
 40
0.0
 40
0.0
 40
0.0
 40
0.0
 40
0.2014204425
 40
0.4266195702
 40
0.69066323
 40
1.0
 40
1.0
 40
1.0
 40
1.0
 10
-102.4286771384
 20
-26.3065510847
 30
0.0
 10
-102.4349648101
 20
-26.309888693
 30
0.0
 10
-102.4499011963
 20
-26.3141435121
 30
0.0
 10
-102.4745920675
 20
-26.3120196388
 30
0.0
 10
-102.5013532277
 20
-26.3023922375
 30
0.0
 10
-102.5189069979
 20
-26.2920717117
 30
0.0
 10
-102.5279554759
 20
-26.2859360568
 30
0.0
  0
SPLINE
  5
480
100
AcDbEntity
  8
0
100
AcDbSpline
 62
250
  6
CONTINUOUS
 70
0
 71
3
 72
9
 73
5
 74
0
 42
0.0000001
 43
0.0000001
 44
0.0000000001
 40
0.0
 40
0.0
 40
0.0
 40
0.0
 40
0.2353640417
 40
1.0
 40
1.0
 40
1.0
 40
1.0
 10
-102.5279554759
 20
-26.2859360568
 30
0.0
 10
-102.5312750047
 20
-26.2836851277
 30
0.0
 10
-102.5451446874
 20
-26.2737770382
 30
0.0
 10
-102.5581198836
 20
-26.2626478256
 30
0.0
 10
-102.5675890674
 20
-26.2536973817
 30
0.0
  0
SPLINE
  5
481
100
AcDbEntity
  8
0
100
AcDbSpline
 62
250
  6
CONTINUOUS
 70
0
 71
3
 72
17
 73
13
 74
0
 42
0.0000001
 43
0.0000001
 44
0.0000000001
 40
0.0
 40
0.0
 40
0.0
 40
0.0
 40
0.0041509426
 40
0.0165131528
 40
0.0370394731
 40
0.0656738303
 40
0.147033967
 40
0.259883893
 40
0.4031301725
 40
0.5755840393
 40
0.7753335906
 40
1.0
 40
1.0
 40
1.0
 40
1.0
 10
-102.5675890674
 20
-26.3415638603
 30
0.0
 10
-102.5674674899
 20
-26.341563153
 30
0.0
 10
-102.5676846103
 20
-26.3407901078
 30
0.0
 10
-102.5674308678
 20
-26.3399838662
 30
0.0
 10
-102.5675380902
 20
-26.3380251079
 30
0.0
 10
-102.5674309673
 20
-26.3342971317
 30
0.0
 10
-102.5674690332
 20
-26.3277000543
 30
0.0
 10
-102.5674345941
 20
-26.3178494928
 30
0.0
 10
-102.567455966
 20
-26.3052846155
 30
0.0
 10
-102.5674804358
 20
-26.2901918491
 30
0.0
 10
-102.5675273887
 20
-26.2727082659
 30
0.0
 10
-102.5675666419
 20
-26.2602777389
 30
0.0
 10
-102.5675890674
 20
-26.2536973817
 30
0.0
  0
SPLINE
  5
482
100
AcDbEntity
  8
0
100
AcDbSpline
 62
250
  6
CONTINUOUS
 70
0
 71
3
 72
17
 73
13
 74
0
 42
0.0000001
 43
0.0000001
 44
0.0000000001
 40
0.0
 40
0.0
 40
0.0
 40
0.0
 40
0.2246664094
 40
0.4244159606
 40
0.5968698275
 40
0.740116107
 40
0.852966033
 40
0.9343261697
 40
0.9629605269
 40
0.9834868471
 40
0.9958490574
 40
1.0
 40
1.0
 40
1.0
 40
1.0
 10
-102.5675890674
 20
26.2536973817
 30
0.0
 10
-102.5675666419
 20
26.2602777389
 30
0.0
 10
-102.5675273887
 20
26.2727082659
 30
0.0
 10
-102.5674804358
 20
26.2901918491
 30
0.0
 10
-102.567455966
 20
26.3052846155
 30
0.0
 10
-102.5674345941
 20
26.3178494928
 30
0.0
 10
-102.5674690332
 20
26.3277000543
 30
0.0
 10
-102.5674309673
 20
26.3342971317
 30
0.0
 10
-102.5675380902
 20
26.3380251079
 30
0.0
 10
-102.5674308678
 20
26.3399838662
 30
0.0
 10
-102.5676846103
 20
26.3407901078
 30
0.0
 10
-102.5674674899
 20
26.341563153
 30
0.0
 10
-102.5675890674
 20
26.3415638603
 30
0.0
  0
ELLIPSE
  5
483
100
AcDbEntity
  8
0
100
AcDbEllipse
 62
7
  6
CONTINUOUS
 10
-55.8496952279
 20
-22.0996952279
 30
0.0
 11
-0.3539842723
 21
-0.3539842723
 31
0.0
 40
0.998782766
 41
-0.7847891758
 42
0.7847891758
  0
ELLIPSE
  5
484
100
AcDbEntity
  8
0
100
AcDbEllipse
 62
7
  6
CONTINUOUS
 10
-55.8496952279
 20
22.0996952279
 30
0.0
 11
-0.3539842723
 21
0.3539842723
 31
0.0
 40
0.998782766
 41
-0.7847891758
 42
0.7847891758
  0
ELLIPSE
  5
485
100
AcDbEntity
  8
0
100
AcDbEllipse
 62
7
  6
CONTINUOUS
 10
55.8496952279
 20
22.0996952279
 30
0.0
 11
0.3539842723
 21
0.3539842723
 31
0.0
 40
0.998782766
 41
-0.7847891758
 42
0.7847891758
  0
ELLIPSE
  5
486
100
AcDbEntity
  8
0
100
AcDbEllipse
 62
7
  6
CONTINUOUS
 10
55.8496952279
 20
-22.0996952279
 30
0.0
 11
0.3539842723
 21
-0.3539842723
 31
0.0
 40
0.998782766
 41
-0.7847891758
 42
0.7847891758
  0
ELLIPSE
  5
487
100
AcDbEntity
  8
ASSI
100
AcDbEllipse
 62
7
  6
CONTINUOUS
 10
-55.8496952279
 20
-22.0996952279
 30
0.0
 11
-0.3539842723
 21
-0.3539842723
 31
0.0
 40
0.998782766
 41
-0.7847891758
 42
0.7847891758
  0
ELLIPSE
  5
488
100
AcDbEntity
  8
ASSI
100
AcDbEllipse
 62
7
  6
CONTINUOUS
 10
-55.8496952279
 20
22.0996952279
 30
0.0
 11
-0.3539842723
 21
0.3539842723
 31
0.0
 40
0.998782766
 41
-0.7847891758
 42
0.7847891758
  0
ELLIPSE
  5
489
100
AcDbEntity
  8
ASSI
100
AcDbEllipse
 62
7
  6
CONTINUOUS
 10
55.8496952279
 20
22.0996952279
 30
0.0
 11
0.3539842723
 21
0.3539842723
 31
0.0
 40
0.998782766
 41
-0.7847891758
 42
0.7847891758
  0
ELLIPSE
  5
48A
100
AcDbEntity
  8
ASSI
100
AcDbEllipse
 62
7
  6
CONTINUOUS
 10
55.8496952279
 20
-22.0996952279
 30
0.0
 11
0.3539842723
 21
-0.3539842723
 31
0.0
 40
0.998782766
 41
-0.7847891758
 42
0.7847891758
  0
ELLIPSE
  5
48B
100
AcDbEntity
  8
0
100
AcDbEllipse
 62
7
  6
CONTINUOUS
 10
-102.2176382996
 20
26.079798695
 30
0.0
 11
-0.1417119467
 21
0.1422961243
 31
0.0
 40
0.9918061237
 41
-3.8766878413
 42
-2.8923940429
  0
ELLIPSE
  5
48C
100
AcDbEntity
  8
0
100
AcDbEllipse
 62
7
  6
CONTINUOUS
 10
-102.2176382996
 20
-26.079798695
 30
0.0
 11
0.1417119467
 21
0.1422961243
 31
0.0
 40
0.9918061237
 41
-0.2491986107
 42
0.7350951877
  0
ENDSEC
  0
SECTION
  2
OBJECTS
  0
DICTIONARY
  5
C
100
AcDbDictionary
280
0
281
1
  3
ACAD_GROUP
350
D
  3
ACAD_MLINESTYLE
350
17
  3
ACAD_LAYOUT
350
1A
  3
ACAD_PLOTSETTINGS
350
19
  3
ACAD_PLOTSTYLENAME
350
E
  0
DICTIONARY
  5
D
102
{ACAD_REACTORS
330
C
102
}
100
AcDbDictionary
280
0
281
1
  0
ACDBDICTIONARYWDFLT
  5
E
102
{ACAD_REACTORS
330
C
102
}
100
AcDbDictionary
281
1
  3
Normal
350
F
100
AcDbDictionaryWithDefault
340
F
  0
DICTIONARY
  5
17
102
{ACAD_REACTORS
330
C
102
}
100
AcDbDictionary
280
0
281
1
  3
Standard
350
18
  0
DICTIONARY
  5
19
102
{ACAD_REACTORS
330
C
102
}
100
AcDbDictionary
281
1
  0
DICTIONARY
  5
1A
102
{ACAD_REACTORS
330
C
102
}
100
AcDbDictionary
281
1
  3
Model
350
48D
  3
Layout1
350
48E
  0
ACDBPLACEHOLDER
  5
F
102
{ACAD_REACTORS
330
E
102
}
  0
MLINESTYLE
  5
18
102
{ACAD_REACTORS
330
17
102
}
100
AcDbMlineStyle
  2
STANDARD
 70
0
  3

 62
256
 51
90.0
 52
90.0
 71
2
 49
0.5
 62
256
  6
BYLAYER
 49
-0.5
 62
256
  6
BYLAYER
  0
LAYOUT
  5
48D
102
{ACAD_REACTORS
330
1A
102
}
100
AcDbPlotSettings
  1

  2
none_device
  4
ISO_A4_(297.00_x_210.00_MM)
  6

 40
0.0
 41
0.0
 42
0.0
 43
0.0
 44
297.0
 45
210.0
 46
0.0
 47
0.0
 48
0.0
 49
0.0
140
0.0
141
0.0
142
1.0
143
1.0
 70
1024
 72
1
 73
0
 74
0
  7

 75
0
147
1.0
148
0.0
149
0.0
100
AcDbLayout
  1
Model
 70
0
 71
0
 10
0.0
 20
0.0
 11
297.0
 21
210.0
 12
0.0
 22
0.0
 32
0.0
 14
0.0
 24
0.0
 34
0.0
 15
0.0
 25
0.0
 35
0.0
146
0.0
 13
0.0
 23
0.0
 33
0.0
 16
1.0
 26
0.0
 36
0.0
 17
0.0
 27
1.0
 37
0.0
 76
0
330
21C
345
0
346
0
  0
LAYOUT
  5
48E
102
{ACAD_REACTORS
330
1A
102
}
100
AcDbPlotSettings
  1

  2
none_device
  4
ISO_A4_(297.00_x_210.00_MM)
  6

 40
0.0
 41
0.0
 42
0.0
 43
0.0
 44
297.0
 45
210.0
 46
0.0
 47
0.0
 48
0.0
 49
0.0
140
0.0
141
0.0
142
1.0
143
1.0
 70
0
 72
1
 73
0
 74
0
  7

 75
0
147
1.0
148
0.0
149
0.0
100
AcDbLayout
  1
Layout1
 70
0
 71
1
 10
0.0
 20
0.0
 11
297.0
 21
210.0
 12
0.0
 22
0.0
 32
0.0
 14
0.0
 24
0.0
 34
0.0
 15
0.0
 25
0.0
 35
0.0
146
0.0
 13
0.0
 23
0.0
 33
0.0
 16
1.0
 26
0.0
 36
0.0
 17
0.0
 27
1.0
 37
0.0
 76
0
330
21D
345
0
346
0
  0
ENDSEC
  0
EOF
