  0
SECTION
  2
HEADER
  9
$ACADVER
  1
AC1024
  9
$DWGCODEPAGE
  3
ANSI_1252
  9
$EXTMAX
 10
297.0
 20
210.0
 30
0.0
  9
$EXTMIN
 10
0.0
 20
0.0
 30
0.0
  9
$LIMMIN
 10
0.0
 20
0.0
  9
$LIMMAX
 10
297.0
 20
210.0
  9
$VIEWCTR
 10
148.5
 20
105.0
  9
$VIEWSIZE
 40
210.0
  9
$CLAYER
  8
0
  9
$LTSCALE
 40
16.335
  9
$CELTYPE
  6
BYLAYER
  9
$DIMSCALE
 40
1.0
  9
$DIMASZ
 40
3.0
  9
$DIMEXO
 40
0.5
  9
$DIMDLI
 40
11.286
  9
$DIMEXE
 40
1.5
  9
$DIMCEN
 40
2.673
  9
$DIMLFAC
 40
1.0
  9
$DIMBLK
  1
_FILLED
  9
$DIMALT
 70
0
  9
$DIMALTF
 40
0.0393700787
  9
$DIMTXT
 40
3.0
  9
$DIMTOL
 70
1
  9
$DIMLIM
 70
0
  9
$DIMTFAC
 40
1.0
  9
$DIMTP
 40
0.01
  9
$DIMTM
 40
0.01
  9
$DIMGAP
 40
0.625
  9
$DIMDSEP
 70
44
  9
$AUNITS
 70
0
  9
$PDMODE
 70
3
  9
$PDSIZE
 40
3.0
  9
$HANDSEED
  5
362
  9
$TILEMODE
 70
1
  9
$MEASUREMENT
 70
1
  9
$INSUNITS
 70
4
  0
ENDSEC
  0
SECTION
  2
CLASSES
  0
CLASS
  1
ACDBDICTIONARYWDFLT
  2
AcDbDictionaryWithDefault
  3
AutoCAD 2000
 90
0
 91
1
280
0
281
0
  0
CLASS
  1
ACDBPLACEHOLDER
  2
AcDbPlaceHolder
  3
AutoCAD 2000
 90
0
 91
1
280
0
281
0
  0
CLASS
  1
LAYOUT
  2
AcDbLayout
  3
AutoCAD 2000
 90
0
 91
0
280
0
281
0
  0
ENDSEC
  0
SECTION
  2
TABLES
  0
TABLE
  2
VPORT
  5
8
100
AcDbSymbolTable
 70
2
  0
VPORT
  5
1F4
100
AcDbSymbolTableRecord
100
AcDbViewportTableRecord
  2
*ACTIVE
 70
0
 10
0.0
 20
0.0
 11
1.0
 21
1.0
 12
148.5
 22
105.0
 13
0.0
 23
0.0
 14
1.0
 24
1.0
 15
0.0
 25
0.0
 16
0.0
 26
0.0
 36
1.0
 17
0.0
 27
0.0
 37
0.0
 40
210.0
 41
1.4142857143
 42
50.0
 43
0.0
 44
0.0
 50
0.0
 51
0.0
 71
0
 72
100
 73
1
 74
1
 75
0
 76
0
 77
0
 78
0
  0
ENDTAB
  0
TABLE
  2
LTYPE
  5
5
100
AcDbSymbolTable
 70
6
  0
LTYPE
  5
14
100
AcDbSymbolTableRecord
100
AcDbLinetypeTableRecord
  2
BYBLOCK
 70
0
  3

 72
65
 73
0
 40
0.0
  0
LTYPE
  5
15
100
AcDbSymbolTableRecord
100
AcDbLinetypeTableRecord
  2
BYLAYER
 70
0
  3

 72
65
 73
0
 40
0.0
  0
LTYPE
  5
16
100
AcDbSymbolTableRecord
100
AcDbLinetypeTableRecord
  2
CONTINUOUS
 70
64
  3
Solid line
 72
65
 73
0
 40
0.0
  0
LTYPE
  5
1F5
100
AcDbSymbolTableRecord
100
AcDbLinetypeTableRecord
  2
CENTER
 70
64
  3
____ _ ____ _ ____ _ ____ _ ____ _ ____ _ ____
 72
65
 73
4
 40
0.6
 49
0.375
 74
0
 49
-0.075
 74
0
 49
0.075
 74
0
 49
-0.075
 74
0
  0
LTYPE
  5
1F6
100
AcDbSymbolTableRecord
100
AcDbLinetypeTableRecord
  2
HIDDEN
 70
64
  3
- - - - - - - - - - - - - - - - - - - -
 72
65
 73
2
 40
0.2
 49
0.1
 74
0
 49
-0.1
 74
0
  0
LTYPE
  5
1F7
100
AcDbSymbolTableRecord
100
AcDbLinetypeTableRecord
  2
PHANTOM
 70
64
  3
_____ _ _ _____ _ _ _____ _ _ _____
 72
65
 73
6
 40
0.8
 49
0.45
 74
0
 49
-0.05
 74
0
 49
0.1
 74
0
 49
-0.05
 74
0
 49
0.1
 74
0
 49
-0.05
 74
0
  0
LTYPE
  5
1F8
100
AcDbSymbolTableRecord
100
AcDbLinetypeTableRecord
  2
DOT
 70
64
  3
. . . . . . . . . . . . . . . . . . . .
 72
65
 73
2
 40
0.2
 49
0.1
 74
0
 49
-0.1
 74
0
  0
LTYPE
  5
1F9
100
AcDbSymbolTableRecord
100
AcDbLinetypeTableRecord
  2
DASHED
 70
64
  3
- - - - - - - - - - - - - - - - - - - -
 72
65
 73
2
 40
0.2
 49
0.1
 74
0
 49
-0.1
 74
0
  0
ENDTAB
  0
TABLE
  2
LAYER
  5
2
100
AcDbSymbolTable
 70
36
  0
LAYER
  5
10
100
AcDbSymbolTableRecord
100
AcDbLayerTableRecord
  2
0
 70
0
 62
7
  6
CONTINUOUS
370
-3
390
F
  0
LAYER
  5
1FA
100
AcDbSymbolTableRecord
100
AcDbLayerTableRecord
  2
DEFAULT_1
 70
0
 62
7
  6
CENTER
370
-3
390
F
  0
LAYER
  5
1FB
100
AcDbSymbolTableRecord
100
AcDbLayerTableRecord
  2
DEFAULT_2
 70
0
 62
7
  6
HIDDEN
370
-3
390
F
  0
LAYER
  5
1FC
100
AcDbSymbolTableRecord
100
AcDbLayerTableRecord
  2
DEFAULT_3
 70
0
 62
7
  6
PHANTOM
370
-3
390
F
  0
LAYER
  5
1FD
100
AcDbSymbolTableRecord
100
AcDbLayerTableRecord
  2
ASSI
 70
0
 62
7
  6
CONTINUOUS
370
-3
390
F
  0
LAYER
  5
1FE
100
AcDbSymbolTableRecord
100
AcDbLayerTableRecord
  2
COORDINATE
 70
0
 62
7
  6
CONTINUOUS
370
-3
390
F
  0
LAYER
  5
1FF
100
AcDbSymbolTableRecord
100
AcDbLayerTableRecord
  2
COORD_ORIGINE
 70
0
 62
7
  6
CONTINUOUS
370
-3
390
F
  0
LAYER
  5
200
100
AcDbSymbolTableRecord
100
AcDbLayerTableRecord
  2
COPY_PUBLISH
 70
0
 62
7
  6
CONTINUOUS
370
-3
390
F
  0
LAYER
  5
201
100
AcDbSymbolTableRecord
100
AcDbLayerTableRecord
  2
COSMETIC
 70
0
 62
7
  6
CONTINUOUS
370
-3
390
F
  0
LAYER
  5
202
100
AcDbSymbolTableRecord
100
AcDbLayerTableRecord
  2
COSMETICI
 70
0
 62
7
  6
CONTINUOUS
370
-3
390
F
  0
LAYER
  5
203
100
AcDbSymbolTableRecord
100
AcDbLayerTableRecord
  2
CURVE
 70
0
 62
7
  6
CONTINUOUS
370
-3
390
F
  0
LAYER
  5
204
100
AcDbSymbolTableRecord
100
AcDbLayerTableRecord
  2
CURVE_COSTRUZIONE
 70
0
 62
7
  6
CONTINUOUS
370
-3
390
F
  0
LAYER
  5
205
100
AcDbSymbolTableRecord
100
AcDbLayerTableRecord
  2
CURVE_TASSELLI
 70
0
 62
7
  6
CONTINUOUS
370
-3
390
F
  0
LAYER
  5
206
100
AcDbSymbolTableRecord
100
AcDbLayerTableRecord
  2
DRAFT
 70
0
 62
7
  6
CONTINUOUS
370
-3
390
F
  0
LAYER
  5
207
100
AcDbSymbolTableRecord
100
AcDbLayerTableRecord
  2
IMPORT_IGES
 70
0
 62
7
  6
CONTINUOUS
370
-3
390
F
  0
LAYER
  5
208
100
AcDbSymbolTableRecord
100
AcDbLayerTableRecord
  2
INTFCLR_2
 70
0
 62
7
  6
CONTINUOUS
370
-3
390
F
  0
LAYER
  5
209
100
AcDbSymbolTableRecord
100
AcDbLayerTableRecord
  2
INTF_1
 70
0
 62
7
  6
CONTINUOUS
370
-3
390
F
  0
LAYER
  5
20A
100
AcDbSymbolTableRecord
100
AcDbLayerTableRecord
  2
INTF_21
 70
0
 62
7
  6
CONTINUOUS
370
-3
390
F
  0
LAYER
  5
20B
100
AcDbSymbolTableRecord
100
AcDbLayerTableRecord
  2
INTF_7
 70
0
 62
7
  6
CONTINUOUS
370
-3
390
F
  0
LAYER
  5
20C
100
AcDbSymbolTableRecord
100
AcDbLayerTableRecord
  2
INTF_CYAN
 70
0
 62
7
  6
CONTINUOUS
370
-3
390
F
  0
LAYER
  5
20D
100
AcDbSymbolTableRecord
100
AcDbLayerTableRecord
  2
NOTE
 70
0
 62
7
  6
CONTINUOUS
370
-3
390
F
  0
LAYER
  5
20E
100
AcDbSymbolTableRecord
100
AcDbLayerTableRecord
  2
PIANI
 70
0
 62
7
  6
CONTINUOUS
370
-3
390
F
  0
LAYER
  5
20F
100
AcDbSymbolTableRecord
100
AcDbLayerTableRecord
  2
PIANI_ORIGINE
 70
0
 62
7
  6
CONTINUOUS
370
-3
390
F
  0
LAYER
  5
210
100
AcDbSymbolTableRecord
100
AcDbLayerTableRecord
  2
PIANI_RIFERIMENTO
 70
0
 62
7
  6
CONTINUOUS
370
-3
390
F
  0
LAYER
  5
211
100
AcDbSymbolTableRecord
100
AcDbLayerTableRecord
  2
PUNTI
 70
0
 62
7
  6
CONTINUOUS
370
-3
390
F
  0
LAYER
  5
212
100
AcDbSymbolTableRecord
100
AcDbLayerTableRecord
  2
RACCORDO
 70
0
 62
7
  6
CONTINUOUS
370
-3
390
F
  0
LAYER
  5
213
100
AcDbSymbolTableRecord
100
AcDbLayerTableRecord
  2
RGB__255__255__255__
 70
0
 62
7
  6
CONTINUOUS
370
-3
390
F
  0
LAYER
  5
214
100
AcDbSymbolTableRecord
100
AcDbLayerTableRecord
  2
RGB____0____0____0__
 70
0
 62
7
  6
CONTINUOUS
370
-3
390
F
  0
LAYER
  5
215
100
AcDbSymbolTableRecord
100
AcDbLayerTableRecord
  2
SIMBOLI
 70
0
 62
7
  6
CONTINUOUS
370
-3
390
F
  0
LAYER
  5
216
100
AcDbSymbolTableRecord
100
AcDbLayerTableRecord
  2
SMUSSO
 70
0
 62
7
  6
CONTINUOUS
370
-3
390
F
  0
LAYER
  5
217
100
AcDbSymbolTableRecord
100
AcDbLayerTableRecord
  2
SNAPLINE
 70
0
 62
7
  6
CONTINUOUS
370
-3
390
F
  0
LAYER
  5
218
100
AcDbSymbolTableRecord
100
AcDbLayerTableRecord
  2
SUPERFICI
 70
0
 62
7
  6
CONTINUOUS
370
-3
390
F
  0
LAYER
  5
219
100
AcDbSymbolTableRecord
100
AcDbLayerTableRecord
  2
TRASH
 70
0
 62
7
  6
CONTINUOUS
370
-3
390
F
  0
LAYER
  5
21A
100
AcDbSymbolTableRecord
100
AcDbLayerTableRecord
  2
XSEC_DATUMS
 70
0
 62
7
  6
CONTINUOUS
370
-3
390
F
  0
ENDTAB
  0
TABLE
  2
STYLE
  5
3
100
AcDbSymbolTable
 70
1
  0
STYLE
  5
11
100
AcDbSymbolTableRecord
100
AcDbTextStyleTableRecord
  2
STANDARD
 70
0
 40
0.0
 41
0.8
 50
0.0
 71
0
 42
0.2
  3
txt
  4

  0
STYLE
  5
21B
100
AcDbSymbolTableRecord
100
AcDbTextStyleTableRecord
  2
TEXTSTYLE_1
 70
0
 40
0.0
 41
0.8
 50
0.0
 71
0
 42
0.2
  3
gdt
  4

  0
ENDTAB
  0
TABLE
  2
VIEW
  5
6
100
AcDbSymbolTable
 70
0
  0
ENDTAB
  0
TABLE
  2
UCS
  5
7
100
AcDbSymbolTable
 70
0
  0
ENDTAB
  0
TABLE
  2
APPID
  5
9
100
AcDbSymbolTable
 70
1
  0
APPID
  5
21C
100
AcDbSymbolTableRecord
100
AcDbRegAppTableRecord
  2
ACAD
 70
0
  0
ENDTAB
  0
TABLE
  2
BLOCK_RECORD
  5
1
100
AcDbSymbolTable
 70
0
  0
BLOCK_RECORD
  5
21D
100
AcDbSymbolTableRecord
100
AcDbBlockTableRecord
  2
*Model_Space
  0
BLOCK_RECORD
  5
21E
100
AcDbSymbolTableRecord
100
AcDbBlockTableRecord
  2
*Paper_Space
  0
BLOCK_RECORD
  5
21F
100
AcDbSymbolTableRecord
100
AcDbBlockTableRecord
  2
_FILLED
  0
BLOCK_RECORD
  5
220
100
AcDbSymbolTableRecord
100
AcDbBlockTableRecord
  2
*D0
  0
BLOCK_RECORD
  5
221
100
AcDbSymbolTableRecord
100
AcDbBlockTableRecord
  2
*D1
  0
BLOCK_RECORD
  5
222
100
AcDbSymbolTableRecord
100
AcDbBlockTableRecord
  2
*D2
  0
BLOCK_RECORD
  5
223
100
AcDbSymbolTableRecord
100
AcDbBlockTableRecord
  2
*D3
  0
ENDTAB
  0
TABLE
  2
DIMSTYLE
  5
A
100
AcDbSymbolTable
 70
1
100
AcDbDimStyleTable
 71
0
  0
DIMSTYLE
105
224
100
AcDbSymbolTableRecord
100
AcDbDimStyleTableRecord
  2
STANDARD
 70
0
  3

  4

 40
1.0
 41
3.0
 42
0.5
 43
0.38
 44
1.5
 45
0.0
 46
0.0
 47
0.01
 48
0.01
140
3.0
141
0.09
142
0.0
143
25.4
144
1.0
145
0.0
146
1.0
147
0.625
 71
1
 72
0
 73
0
 74
0
 75
0
 76
0
 77
1
 78
8
 79
2
170
0
171
1
172
0
173
0
174
0
175
0
176
0
177
0
178
0
270
2
179
2
271
2
272
2
273
2
274
2
275
0
280
0
281
0
282
0
283
1
284
8
285
0
286
0
287
3
288
0
340
11
278
44
341
21F
342
21F
343
21F
344
21F
  0
DIMSTYLE
105
225
100
AcDbSymbolTableRecord
100
AcDbDimStyleTableRecord
  2
DIMSTYLE_1
 70
0
  3

  4

 40
1.0
 41
3.0
 42
0.5
 43
0.38
 44
1.5
 45
0.0
 46
0.0
 47
0.0
 48
0.0
140
3.0
141
0.09
142
0.0
143
25.4
144
1.0
145
0.0
146
1.0
147
0.75
 71
0
 72
0
 73
0
 74
0
 75
0
 76
0
 77
1
 78
8
 79
2
170
0
171
1
172
0
173
0
174
0
175
0
176
0
177
0
178
0
270
2
179
2
271
2
272
2
273
2
274
2
275
0
280
0
281
0
282
0
283
1
284
8
285
0
286
0
287
3
288
0
340
11
278
44
341
21F
342
21F
343
21F
344
21F
  0
ENDTAB
  0
ENDSEC
  0
SECTION
  2
BLOCKS
  0
BLOCK
  5
20
100
AcDbEntity
  8
0
100
AcDbBlockBegin
  2
*Model_Space
 70
0
 10
0.0
 20
0.0
 30
0.0
  3
*Model_Space
  1

  0
ENDBLK
  5
21
100
AcDbEntity
  8
0
100
AcDbBlockEnd
  0
BLOCK
  5
1C
100
AcDbEntity
  8
0
100
AcDbBlockBegin
  2
*Paper_Space
 70
0
 10
0.0
 20
0.0
 30
0.0
  3
*Paper_Space
  1

  0
ENDBLK
  5
1D
100
AcDbEntity
  8
0
100
AcDbBlockEnd
  0
BLOCK
  5
226
100
AcDbEntity
  8
0
100
AcDbBlockBegin
  2
_FILLED
 70
64
 10
0.0
 20
0.0
  3
_FILLED
  1

  0
SOLID
  5
227
100
AcDbEntity
  8
0
  6
BYBLOCK
 62
0
100
AcDbTrace
 10
0.0
 20
0.0
 11
-1.0
 21
0.3166666667
 12
-1.0
 22
-0.3166666667
 13
-1.0
 23
-0.3166666667
  0
ENDBLK
  5
228
100
AcDbEntity
  8
0
  6
BYBLOCK
 62
0
100
AcDbBlockEnd
  0
BLOCK
  5
229
100
AcDbEntity
  8
0
100
AcDbBlockBegin
 62
7
  6
CONTINUOUS
  2
*D0
 70
65
 10
0.0
 20
0.0
  3
*D0
  1

  0
MTEXT
  5
22A
100
AcDbEntity
  8
0
100
AcDbMText
 62
7
  6
CONTINUOUS
  7
STANDARD
 71
2
 72
1
 10
86.1249999999
 20
0.0
 30
0.0
 11
0.0
 21
1.0
 31
0.0
 73
2
 44
0.9
  1
{\ftxt;\W0.0001;\H0.0001;\~}{\ftxt;\W1.5714285714;\H3.0; }{\ftxt;\W0.0001;\H0.0001;\~}
 40
3.0
 41
7.0714285714
  0
LINE
  5
22B
100
AcDbEntity
  8
0
100
AcDbLine
 62
7
  6
CONTINUOUS
 10
78.9249999999
 20
-45.0
 11
91.3749999999
 21
-45.0
  0
LINE
  5
22C
100
AcDbEntity
  8
0
100
AcDbLine
 62
7
  6
CONTINUOUS
 10
78.9249999999
 20
45.0
 11
91.3749999999
 21
45.0
  0
LINE
  5
22D
100
AcDbEntity
  8
0
100
AcDbLine
 62
7
  6
CONTINUOUS
 10
89.8749999999
 20
-45.0
 11
89.8749999999
 21
0.0
  0
LINE
  5
22E
100
AcDbEntity
  8
0
100
AcDbLine
 62
7
  6
CONTINUOUS
 10
89.8749999999
 20
45.0
 11
89.8749999999
 21
0.0
  0
INSERT
  5
22F
100
AcDbEntity
  8
0
100
AcDbBlockReference
 62
7
  6
CONTINUOUS
  2
_FILLED
 10
89.8749999999
 20
-45.0
 41
3.0
 42
3.0
 43
3.0
 50
270.0
  0
INSERT
  5
230
100
AcDbEntity
  8
0
100
AcDbBlockReference
 62
7
  6
CONTINUOUS
  2
_FILLED
 10
89.8749999999
 20
45.0
 41
3.0
 42
3.0
 43
3.0
 50
90.0
  0
ENDBLK
  5
231
100
AcDbEntity
  8
0
  6
BYBLOCK
 62
0
100
AcDbBlockEnd
  0
BLOCK
  5
232
100
AcDbEntity
  8
0
100
AcDbBlockBegin
 62
7
  6
CONTINUOUS
  2
*D1
 70
65
 10
0.0
 20
0.0
  3
*D1
  1

  0
MTEXT
  5
233
100
AcDbEntity
  8
0
100
AcDbMText
 62
7
  6
CONTINUOUS
  7
STANDARD
 71
2
 72
1
 10
-0.2250000001
 20
58.7499999997
 30
0.0
 11
1.0
 21
0.0
 31
0.0
 73
2
 44
0.9
  1
{\ftxt;\W0.0001;\H0.0001;\~}{\ftxt;\W3.3571428571;\H3.0; }{\ftxt;\W0.0001;\H0.0001;\~}
 40
3.0
 41
15.1071428571
  0
LINE
  5
234
100
AcDbEntity
  8
0
100
AcDbLine
 62
7
  6
CONTINUOUS
 10
79.4249999999
 20
44.5
 11
79.4249999999
 21
56.4999999997
  0
LINE
  5
235
100
AcDbEntity
  8
0
100
AcDbLine
 62
7
  6
CONTINUOUS
 10
-79.8750000001
 20
44.5
 11
-79.8750000001
 21
56.4999999997
  0
LINE
  5
236
100
AcDbEntity
  8
0
100
AcDbLine
 62
7
  6
CONTINUOUS
 10
79.4249999999
 20
54.9999999997
 11
-0.2250000001
 21
54.9999999997
  0
LINE
  5
237
100
AcDbEntity
  8
0
100
AcDbLine
 62
7
  6
CONTINUOUS
 10
-79.8750000001
 20
54.9999999997
 11
-0.2250000001
 21
54.9999999997
  0
INSERT
  5
238
100
AcDbEntity
  8
0
100
AcDbBlockReference
 62
7
  6
CONTINUOUS
  2
_FILLED
 10
79.4249999999
 20
54.9999999997
 41
3.0
 42
3.0
 43
3.0
  0
INSERT
  5
239
100
AcDbEntity
  8
0
100
AcDbBlockReference
 62
7
  6
CONTINUOUS
  2
_FILLED
 10
-79.8750000001
 20
54.9999999997
 41
3.0
 42
3.0
 43
3.0
 50
180.0
  0
ENDBLK
  5
23A
100
AcDbEntity
  8
0
  6
BYBLOCK
 62
0
100
AcDbBlockEnd
  0
BLOCK
  5
23B
100
AcDbEntity
  8
0
100
AcDbBlockBegin
 62
7
  6
CONTINUOUS
  2
*D2
 70
65
 10
0.0
 20
0.0
  3
*D2
  1

  0
MTEXT
  5
23C
100
AcDbEntity
  8
0
100
AcDbMText
 62
7
  6
CONTINUOUS
  7
STANDARD
 71
1
 72
1
 10
-106.4361653269
 20
58.7499999997
 30
0.0
 11
1.0
 21
0.0
 31
0.0
 73
2
 44
0.9
  1
{\ftxt;\W0.0001;\H0.0001;\~}{\ftxt;\W2.7857142857;\H3.0; }{\ftxt;\W0.0001;\H0.0001;\~}
 40
3.0
 41
12.5357142857
  0
LINE
  5
23D
100
AcDbEntity
  8
0
100
AcDbLine
 62
7
  6
CONTINUOUS
 10
-111.3111950269
 20
43.5383103281
 11
-111.3111950269
 21
56.4999999997
  0
LINE
  5
23E
100
AcDbEntity
  8
0
100
AcDbLine
 62
7
  6
CONTINUOUS
 10
-118.8611950269
 20
44.5
 11
-118.8611950269
 21
56.4999999997
  0
LINE
  5
23F
100
AcDbEntity
  8
0
100
AcDbLine
 62
7
  6
CONTINUOUS
 10
-111.3111950269
 20
54.9999999997
 11
-115.0861950269
 21
54.9999999997
  0
LINE
  5
240
100
AcDbEntity
  8
0
100
AcDbLine
 62
7
  6
CONTINUOUS
 10
-115.0861950269
 20
54.9999999997
 11
-98.0790224698
 21
54.9999999997
  0
LINE
  5
241
100
AcDbEntity
  8
0
100
AcDbLine
 62
7
  6
CONTINUOUS
 10
-118.8611950269
 20
54.9999999997
 11
-115.0861950269
 21
54.9999999997
  0
INSERT
  5
242
100
AcDbEntity
  8
0
100
AcDbBlockReference
 62
7
  6
CONTINUOUS
  2
_FILLED
 10
-111.3111950269
 20
54.9999999997
 41
3.0
 42
3.0
 43
3.0
  0
INSERT
  5
243
100
AcDbEntity
  8
0
100
AcDbBlockReference
 62
7
  6
CONTINUOUS
  2
_FILLED
 10
-118.8611950269
 20
54.9999999997
 41
3.0
 42
3.0
 43
3.0
 50
180.0
  0
ENDBLK
  5
244
100
AcDbEntity
  8
0
  6
BYBLOCK
 62
0
100
AcDbBlockEnd
  0
BLOCK
  5
245
100
AcDbEntity
  8
0
100
AcDbBlockBegin
 62
7
  6
CONTINUOUS
  2
*D3
 70
65
 10
0.0
 20
0.0
  3
*D3
  1

  0
MTEXT
  5
246
100
AcDbEntity
  8
0
100
AcDbMText
 62
7
  6
CONTINUOUS
  7
STANDARD
 71
1
 72
1
 10
-106.7405104498
 20
66.7499999997
 30
0.0
 11
1.0
 21
0.0
 31
0.0
 73
2
 44
0.9
  1
{\ftxt;\W0.0001;\H0.0001;\~}{\ftxt;\W3.3571428571;\H3.0; }{\ftxt;\W0.0001;\H0.0001;\~}
 40
3.0
 41
15.1071428571
  0
LINE
  5
247
100
AcDbEntity
  8
0
100
AcDbLine
 62
7
  6
CONTINUOUS
 10
-108.3111950269
 20
26.5463167932
 11
-108.3111950269
 21
64.4999999997
  0
LINE
  5
248
100
AcDbEntity
  8
0
100
AcDbLine
 62
7
  6
CONTINUOUS
 10
-118.8611950269
 20
44.5
 11
-118.8611950269
 21
64.4999999997
  0
LINE
  5
249
100
AcDbEntity
  8
0
100
AcDbLine
 62
7
  6
CONTINUOUS
 10
-108.3111950269
 20
62.9999999997
 11
-113.5861950269
 21
62.9999999997
  0
LINE
  5
24A
100
AcDbEntity
  8
0
100
AcDbLine
 62
7
  6
CONTINUOUS
 10
-113.5861950269
 20
62.9999999997
 11
-96.6690818783
 21
62.9999999997
  0
LINE
  5
24B
100
AcDbEntity
  8
0
100
AcDbLine
 62
7
  6
CONTINUOUS
 10
-118.8611950269
 20
62.9999999997
 11
-113.5861950269
 21
62.9999999997
  0
INSERT
  5
24C
100
AcDbEntity
  8
0
100
AcDbBlockReference
 62
7
  6
CONTINUOUS
  2
_FILLED
 10
-108.3111950269
 20
62.9999999997
 41
3.0
 42
3.0
 43
3.0
  0
INSERT
  5
24D
100
AcDbEntity
  8
0
100
AcDbBlockReference
 62
7
  6
CONTINUOUS
  2
_FILLED
 10
-118.8611950269
 20
62.9999999997
 41
3.0
 42
3.0
 43
3.0
 50
180.0
  0
ENDBLK
  5
24E
100
AcDbEntity
  8
0
  6
BYBLOCK
 62
0
100
AcDbBlockEnd
  0
ENDSEC
  0
SECTION
  2
ENTITIES
  0
DIMENSION
  5
24F
100
AcDbEntity
  8
0
100
AcDbDimension
 62
7
  6
CONTINUOUS
  2
*D0
 10
89.8749999999
 20
45.0
 11
89.8749999999
 21
-0.4285711559
 70
160
 71
2
 72
2
 41
0.9
 42
90.0
  1
{\ftxt;\W0.0001;\H0.0001;\~}{\ftxt;\W1.5714285714;\H3.0; }{\ftxt;\W0.0001;\H0.0001;\~}
  3
DIMSTYLE_1
100
AcDbAlignedDimension
 13
78.4249999999
 23
-45.0
 14
78.4249999999
 24
45.0
 50
90.0
100
AcDbRotatedDimension
  0
DIMENSION
  5
250
100
AcDbEntity
  8
0
100
AcDbDimension
 62
7
  6
CONTINUOUS
  2
*D1
 10
-79.8750000001
 20
54.9999999997
 11
-0.6535714459
 21
54.9999999997
 70
160
 71
2
 72
2
 41
0.9
 42
159.3
  1
{\ftxt;\W0.0001;\H0.0001;\~}{\ftxt;\W3.3571428571;\H3.0; }{\ftxt;\W0.0001;\H0.0001;\~}
  3
DIMSTYLE_1
100
AcDbAlignedDimension
 13
79.4249999999
 23
44.0
 14
-79.8750000001
 24
44.0
 50
180.0
100
AcDbRotatedDimension
  0
DIMENSION
  5
251
100
AcDbEntity
  8
0
100
AcDbDimension
 62
7
  6
CONTINUOUS
  2
*D2
 10
-118.8611950269
 20
54.9999999997
 11
-102.6861683807
 21
54.9999999997
 70
160
 71
1
 72
2
 41
0.9
 42
7.55
  1
{\ftxt;\W0.0001;\H0.0001;\~}{\ftxt;\W2.7857142857;\H3.0; }{\ftxt;\W0.0001;\H0.0001;\~}
  3
DIMSTYLE_1
100
AcDbAlignedDimension
 13
-111.3111950269
 23
43.0383103281
 14
-118.8611950269
 24
44.0
 50
180.0
100
AcDbRotatedDimension
  0
DIMENSION
  5
252
100
AcDbEntity
  8
0
100
AcDbDimension
 62
7
  6
CONTINUOUS
  2
*D3
 10
-118.8611950269
 20
62.9999999997
 11
-102.1333675232
 21
62.9999999997
 70
160
 71
1
 72
2
 41
0.9
 42
10.55
  1
{\ftxt;\W0.0001;\H0.0001;\~}{\ftxt;\W3.3571428571;\H3.0; }{\ftxt;\W0.0001;\H0.0001;\~}
  3
DIMSTYLE_1
100
AcDbAlignedDimension
 13
-108.3111950269
 23
26.0463167932
 14
-118.8611950269
 24
44.0
 50
180.0
100
AcDbRotatedDimension
  0
LINE
  5
253
100
AcDbEntity
  8
SMUSSO
100
AcDbLine
 62
7
  6
CONTINUOUS
 10
-79.8750000001
 20
44.0
 11
-79.8750000001
 21
-44.0
  0
LINE
  5
254
100
AcDbEntity
  8
SMUSSO
100
AcDbLine
 62
7
  6
CONTINUOUS
 10
-78.8750000001
 20
44.0
 11
-78.8750000001
 21
-44.0
  0
LINE
  5
255
100
AcDbEntity
  8
SMUSSO
100
AcDbLine
 62
250
  6
CONTINUOUS
 10
-78.8750000001
 20
-44.0
 11
-78.8750000001
 21
-45.0
  0
LINE
  5
256
100
AcDbEntity
  8
SMUSSO
100
AcDbLine
 62
250
  6
CONTINUOUS
 10
-78.8750000001
 20
44.0
 11
-78.8750000001
 21
45.0
  0
LINE
  5
257
100
AcDbEntity
  8
RACCORDO
100
AcDbLine
 62
7
  6
CONTINUOUS
 10
-56.5750000001
 20
21.55
 11
-56.5750000001
 21
-21.55
  0
LWPOLYLINE
  5
258
100
AcDbEntity
  8
0
100
AcDbPolyline
 62
7
  6
CONTINUOUS
 90
3
 70
0
 43
0.3500000006
 10
-5.2607143536
 20
57.8928615417
 10
-4.4035713158
 20
58.7499994812
 10
-4.4035713158
 20
55.7499985657
  0
LWPOLYLINE
  5
259
100
AcDbEntity
  8
0
100
AcDbPolyline
 62
7
  6
CONTINUOUS
 90
5
 70
0
 43
0.3500000006
 10
3.5249999428
 20
57.4642835083
 10
3.882142828
 20
57.6785679932
 10
3.882142828
 20
58.3214305115
 10
3.5249999428
 20
58.7499994812
 10
2.6678571882
 20
58.7499994812
  0
LINE
  5
25A
100
AcDbEntity
  8
SMUSSO
100
AcDbLine
 62
7
  6
CONTINUOUS
 10
-78.8750000001
 20
-45.0
 11
78.4249999999
 21
-45.0
  0
LINE
  5
25B
100
AcDbEntity
  8
SMUSSO
100
AcDbLine
 62
7
  6
CONTINUOUS
 10
-78.8750000001
 20
-44.0
 11
78.4249999999
 21
-44.0
  0
LINE
  5
25C
100
AcDbEntity
  8
SMUSSO
100
AcDbLine
 62
250
  6
CONTINUOUS
 10
78.4249999999
 20
-44.0
 11
79.4249999999
 21
-44.0
  0
LINE
  5
25D
100
AcDbEntity
  8
SMUSSO
100
AcDbLine
 62
250
  6
CONTINUOUS
 10
-78.8750000001
 20
-44.0
 11
-79.8750000001
 21
-44.0
  0
LWPOLYLINE
  5
25E
100
AcDbEntity
  8
0
100
AcDbPolyline
 62
7
  6
CONTINUOUS
 90
10
 70
0
 43
0.3500000006
 10
-0.9750000143
 20
55.7499985657
 10
-0.1178571447
 20
56.6071455688
 10
0.0964285705
 20
57.4642835083
 10
0.0964285705
 20
58.3214305115
 10
-0.3321428422
 20
58.7499994812
 10
-0.9750000143
 20
58.7499994812
 10
-1.4035713916
 20
58.3214305115
 10
-1.4035713916
 20
57.4642835083
 10
-0.9750000143
 20
57.0357145386
 10
-0.046428573
 20
57.0357145386
  0
LINE
  5
25F
100
AcDbEntity
  8
RACCORDO
100
AcDbLine
 62
7
  6
CONTINUOUS
 10
-55.3750000001
 20
-22.75
 11
54.9249999999
 21
-22.75
  0
LWPOLYLINE
  5
260
100
AcDbEntity
  8
0
100
AcDbPolyline
 62
7
  6
CONTINUOUS
 90
3
 70
0
 43
0.3500000006
 10
1.6678571663
 20
56.0357142334
 10
1.5964285326
 20
55.8214297485
 10
1.4535714068
 20
55.5357140808
  0
LWPOLYLINE
  5
261
100
AcDbEntity
  8
0
100
AcDbPolyline
 62
7
  6
CONTINUOUS
 90
13
 70
0
 43
0.3500000006
 10
88.2678598022
 20
-0.0000003204
 10
86.9821438293
 20
-0.0000003204
 10
86.5535748596
 20
0.2142864304
 10
86.1249968262
 20
0.642857666
 10
86.1249968262
 20
0.8571421509
 10
86.5535748596
 20
1.2857133865
 10
86.9821438293
 20
1.5000001373
 10
88.2678598022
 20
1.5000001373
 10
88.696428772
 20
1.2857133865
 10
89.1249977417
 20
0.8571421509
 10
89.1249977417
 20
0.642857666
 10
88.696428772
 20
0.2142864304
 10
88.2678598022
 20
-0.0000003204
  0
LINE
  5
262
100
AcDbEntity
  8
RACCORDO
100
AcDbLine
 62
7
  6
CONTINUOUS
 10
54.9249999999
 20
22.75
 11
-55.3750000001
 21
22.75
  0
LWPOLYLINE
  5
263
100
AcDbEntity
  8
0
100
AcDbPolyline
 62
7
  6
CONTINUOUS
 90
10
 70
0
 43
0.3500000006
 10
1.5964285326
 20
56.2499987183
 10
1.6678571663
 20
56.1071454163
 10
1.6678571663
 20
56.0357142334
 10
1.5250000405
 20
55.8928609314
 10
1.4535714068
 20
55.8928609314
 10
1.3821429148
 20
55.9642830505
 10
1.3821429148
 20
56.0357142334
 10
1.4535714068
 20
56.1785675354
 10
1.5250000405
 20
56.2499987183
 10
1.5964285326
 20
56.2499987183
  0
LINE
  5
264
100
AcDbEntity
  8
SMUSSO
100
AcDbLine
 62
250
  6
CONTINUOUS
 10
78.4249999999
 20
44.0
 11
79.4249999999
 21
44.0
  0
LINE
  5
265
100
AcDbEntity
  8
SMUSSO
100
AcDbLine
 62
7
  6
CONTINUOUS
 10
78.4249999999
 20
44.0
 11
-78.8750000001
 21
44.0
  0
LINE
  5
266
100
AcDbEntity
  8
SMUSSO
100
AcDbLine
 62
250
  6
CONTINUOUS
 10
-78.8750000001
 20
44.0
 11
-79.8750000001
 21
44.0
  0
LINE
  5
267
100
AcDbEntity
  8
SMUSSO
100
AcDbLine
 62
7
  6
CONTINUOUS
 10
78.4249999999
 20
45.0
 11
-78.8750000001
 21
45.0
  0
LWPOLYLINE
  5
268
100
AcDbEntity
  8
0
100
AcDbPolyline
 62
7
  6
CONTINUOUS
 90
8
 70
0
 43
0.3500000006
 10
-3.5464285612
 20
55.7499985657
 10
-2.6892858067
 20
55.7499985657
 10
-2.2607142878
 20
56.1785675354
 10
-2.2607142878
 20
57.0357145386
 10
-2.6892858067
 20
57.4642835083
 10
-3.5464285612
 20
57.4642835083
 10
-3.5464285612
 20
58.7499994812
 10
-2.2607142878
 20
58.7499994812
  0
LWPOLYLINE
  5
269
100
AcDbEntity
  8
0
100
AcDbPolyline
 62
7
  6
CONTINUOUS
 90
6
 70
0
 43
0.3500000006
 10
2.6678571882
 20
55.7499985657
 10
3.7392858438
 20
55.7499985657
 10
3.9535714617
 20
55.9642830505
 10
3.9535714617
 20
57.0357145386
 10
3.5249999428
 20
57.4642835083
 10
3.0964287071
 20
57.4642835083
  0
LINE
  5
26A
100
AcDbEntity
  8
RACCORDO
100
AcDbLine
 62
7
  6
CONTINUOUS
 10
56.1249999999
 20
-21.55
 11
56.1249999999
 21
21.55
  0
LWPOLYLINE
  5
26B
100
AcDbEntity
  8
0
100
AcDbPolyline
 62
7
  6
CONTINUOUS
 90
10
 70
0
 43
0.3500000006
 10
89.1249977417
 20
-1.9285708809
 10
88.2678598022
 20
-1.0714295425
 10
87.4107127991
 20
-0.8571427917
 10
86.5535748596
 20
-0.8571427917
 10
86.1249968262
 20
-1.2857140274
 10
86.1249968262
 20
-1.9285708809
 10
86.5535748596
 20
-2.3571432495
 10
87.4107127991
 20
-2.3571432495
 10
87.8392817688
 20
-1.9285708809
 10
87.8392817688
 20
-1.0000006256
  0
LINE
  5
26C
100
AcDbEntity
  8
SMUSSO
100
AcDbLine
 62
250
  6
CONTINUOUS
 10
78.4249999999
 20
-44.0
 11
78.4249999999
 21
-45.0
  0
LINE
  5
26D
100
AcDbEntity
  8
SMUSSO
100
AcDbLine
 62
7
  6
CONTINUOUS
 10
78.4249999999
 20
-44.0
 11
78.4249999999
 21
44.0
  0
LINE
  5
26E
100
AcDbEntity
  8
SMUSSO
100
AcDbLine
 62
250
  6
CONTINUOUS
 10
78.4249999999
 20
44.0
 11
78.4249999999
 21
45.0
  0
LINE
  5
26F
100
AcDbEntity
  8
SMUSSO
100
AcDbLine
 62
7
  6
CONTINUOUS
 10
79.4249999999
 20
-44.0
 11
79.4249999999
 21
44.0
  0
LINE
  5
270
100
AcDbEntity
  8
SMUSSO
100
AcDbLine
 62
7
  6
CONTINUOUS
 10
-117.8611950269
 20
-45.0
 11
-116.3611950269
 21
-45.0
  0
LINE
  5
271
100
AcDbEntity
  8
0
100
AcDbLine
 62
250
  6
CONTINUOUS
 10
-112.8101513816
 20
-43.3404067067
 11
-111.3111950269
 21
-43.0383103281
  0
LINE
  5
272
100
AcDbEntity
  8
ASSI
100
AcDbLine
 62
250
  6
CONTINUOUS
 10
-112.8101513816
 20
-43.3404067067
 11
-111.3111950269
 21
-43.0383103281
  0
LINE
  5
273
100
AcDbEntity
  8
0
100
AcDbLine
 62
7
  6
CONTINUOUS
 10
-115.7111950269
 20
-44.3506196883
 11
-112.8111950269
 21
-44.3
  0
LINE
  5
274
100
AcDbEntity
  8
ASSI
100
AcDbLine
 62
7
  6
CONTINUOUS
 10
-115.7111950269
 20
-44.3506196883
 11
-112.8111950269
 21
-44.3
  0
LINE
  5
275
100
AcDbEntity
  8
SMUSSO
100
AcDbLine
 62
250
  6
CONTINUOUS
 10
-115.8611950269
 20
-44.0
 11
-118.8611950269
 21
-44.0
  0
LINE
  5
276
100
AcDbEntity
  8
0
100
AcDbLine
 62
250
  6
CONTINUOUS
 10
-115.7111950269
 20
-43.3
 11
-112.8111950269
 21
-43.3
  0
LINE
  5
277
100
AcDbEntity
  8
ASSI
100
AcDbLine
 62
250
  6
CONTINUOUS
 10
-115.7111950269
 20
-43.3
 11
-112.8111950269
 21
-43.3
  0
LWPOLYLINE
  5
278
100
AcDbEntity
  8
0
100
AcDbPolyline
 62
7
  6
CONTINUOUS
 90
3
 70
0
 43
0.3500000006
 10
-106.7405111389
 20
65.8928549194
 10
-105.8833641357
 20
66.7500019226
 10
-105.8833641357
 20
63.7500010071
  0
LINE
  5
279
100
AcDbEntity
  8
RACCORDO
100
AcDbLine
 62
7
  6
CONTINUOUS
 10
-115.8611950269
 20
-40.0
 11
-115.7111950269
 21
-40.0
  0
LINE
  5
27A
100
AcDbEntity
  8
RACCORDO
100
AcDbLine
 62
250
  6
CONTINUOUS
 10
-115.8611950269
 20
-39.0
 11
-115.7111950269
 21
-39.0
  0
LINE
  5
27B
100
AcDbEntity
  8
0
100
AcDbLine
 62
250
  6
CONTINUOUS
 10
-113.2927010269
 20
-36.161141
 11
-115.1926610269
 21
-36.161141
  0
LINE
  5
27C
100
AcDbEntity
  8
SMUSSO
100
AcDbLine
 62
7
  6
CONTINUOUS
 10
-118.8611950269
 20
44.0
 11
-117.8611950269
 21
45.0
  0
LINE
  5
27D
100
AcDbEntity
  8
0
100
AcDbLine
 62
250
  6
CONTINUOUS
 10
-113.8848240269
 20
-37.077819
 11
-115.1925470269
 21
-37.439964
  0
LINE
  5
27E
100
AcDbEntity
  8
0
100
AcDbLine
 62
250
  6
CONTINUOUS
 10
-113.2927010269
 20
-33.624309
 11
-115.1925470269
 21
-33.801966
  0
LINE
  5
27F
100
AcDbEntity
  8
0
100
AcDbLine
 62
250
  6
CONTINUOUS
 10
-114.5280930269
 20
-34.093739
 11
-113.2927010269
 21
-34.012262
  0
LINE
  5
280
100
AcDbEntity
  8
0
100
AcDbLine
 62
250
  6
CONTINUOUS
 10
-115.1926610269
 20
-35.764569
 11
-113.2927010269
 21
-35.764569
  0
LINE
  5
281
100
AcDbEntity
  8
0
100
AcDbLine
 62
250
  6
CONTINUOUS
 10
-113.2927010269
 20
-35.171691
 11
-114.5332650269
 21
-35.08611
  0
LINE
  5
282
100
AcDbEntity
  8
0
100
AcDbLine
 62
250
  6
CONTINUOUS
 10
-115.1925470269
 20
-35.379536
 11
-113.2927010269
 21
-35.551081
  0
LINE
  5
283
100
AcDbEntity
  8
0
100
AcDbLine
 62
250
  6
CONTINUOUS
 10
-115.1925470269
 20
-36.704611
 11
-113.8848240269
 21
-37.077819
  0
LINE
  5
284
100
AcDbEntity
  8
0
100
AcDbLine
 62
250
  6
CONTINUOUS
 10
-113.2927010269
 20
-36.918996
 11
-115.1925470269
 21
-36.30831
  0
LINE
  5
285
100
AcDbEntity
  8
SMUSSO
100
AcDbLine
 62
7
  6
CONTINUOUS
 10
-118.8611950269
 20
-44.0
 11
-117.8611950269
 21
-45.0
  0
LINE
  5
286
100
AcDbEntity
  8
0
100
AcDbLine
 62
250
  6
CONTINUOUS
 10
-113.6719780269
 20
-32.520272
 11
-113.2927010269
 21
-32.417539
  0
LINE
  5
287
100
AcDbEntity
  8
0
100
AcDbLine
 62
250
  6
CONTINUOUS
 10
-114.6705180269
 20
-32.781757
 11
-113.9654610269
 21
-32.599527
  0
LINE
  5
288
100
AcDbEntity
  8
0
100
AcDbLine
 62
250
  6
CONTINUOUS
 10
-113.2927012809
 20
-31.8831153973
 11
-115.1703504857
 21
-31.8831153973
  0
LINE
  5
289
100
AcDbEntity
  8
0
100
AcDbLine
 62
250
  6
CONTINUOUS
 10
-114.8688894502
 20
-31.5012884969
 11
-114.3473447627
 21
-31.5012884969
  0
LINE
  5
28A
100
AcDbEntity
  8
0
100
AcDbLine
 62
250
  6
CONTINUOUS
 10
-114.0361959434
 20
-31.4881387551
 11
-113.2927012809
 21
-31.4881387551
  0
LINE
  5
28B
100
AcDbEntity
  8
0
100
AcDbLine
 62
250
  6
CONTINUOUS
 10
-114.1907588345
 20
-30.8635473914
 11
-114.1795324027
 21
-30.8635473914
  0
LINE
  5
28C
100
AcDbEntity
  8
0
100
AcDbLine
 62
250
  6
CONTINUOUS
 10
-113.9654610269
 20
-32.979217
 11
-114.6705180269
 21
-32.781757
  0
LINE
  5
28D
100
AcDbEntity
  8
0
100
AcDbLine
 62
250
  6
CONTINUOUS
 10
-113.2927010269
 20
-33.169767
 11
-113.6719780269
 21
-33.060338
  0
LINE
  5
28E
100
AcDbEntity
  8
0
100
AcDbLine
 62
250
  6
CONTINUOUS
 10
-115.1925470269
 20
-32.966124
 11
-113.2927010269
 21
-33.562037
  0
LINE
  5
28F
100
AcDbEntity
  8
0
100
AcDbLine
 62
250
  6
CONTINUOUS
 10
-115.1925470269
 20
-34.194336
 11
-114.1377470269
 21
-34.590908
  0
LINE
  5
290
100
AcDbEntity
  8
0
100
AcDbLine
 62
250
  6
CONTINUOUS
 10
-113.2927010269
 20
-34.565264
 11
-114.5280930269
 21
-34.093739
  0
LINE
  5
291
100
AcDbEntity
  8
0
100
AcDbLine
 62
7
  6
CONTINUOUS
 10
-110.3853578666
 20
-27.1501294387
 11
-111.3111950269
 21
-27.151745331
  0
LINE
  5
292
100
AcDbEntity
  8
ASSI
100
AcDbLine
 62
7
  6
CONTINUOUS
 10
-110.3853578666
 20
-27.1501294387
 11
-111.3111950269
 21
-27.151745331
  0
LINE
  5
293
100
AcDbEntity
  8
0
100
AcDbLine
 62
250
  6
CONTINUOUS
 10
-110.3854224432
 20
-26.9276792439
 11
-111.3111950269
 21
-26.9280974384
  0
LINE
  5
294
100
AcDbEntity
  8
ASSI
100
AcDbLine
 62
250
  6
CONTINUOUS
 10
-110.3854224432
 20
-26.9276792439
 11
-111.3111950269
 21
-26.9280974384
  0
LINE
  5
295
100
AcDbEntity
  8
0
100
AcDbLine
 62
7
  6
CONTINUOUS
 10
-108.8611457947
 20
-26.3415638603
 11
-111.3111950269
 21
-26.3558178298
  0
LINE
  5
296
100
AcDbEntity
  8
ASSI
100
AcDbLine
 62
7
  6
CONTINUOUS
 10
-108.8611457947
 20
-26.3415638603
 11
-111.3111950269
 21
-26.3558178298
  0
LINE
  5
297
100
AcDbEntity
  8
0
100
AcDbLine
 62
250
  6
CONTINUOUS
 10
-108.8611457947
 20
-26.2536973817
 11
-111.3111950269
 21
-26.2679513512
  0
LINE
  5
298
100
AcDbEntity
  8
ASSI
100
AcDbLine
 62
250
  6
CONTINUOUS
 10
-108.8611457947
 20
-26.2536973817
 11
-111.3111950269
 21
-26.2679513512
  0
LINE
  5
299
100
AcDbEntity
  8
0
100
AcDbLine
 62
7
  6
CONTINUOUS
 10
-110.361070648
 20
-25.2
 11
-111.3111950269
 21
-25.2
  0
LINE
  5
29A
100
AcDbEntity
  8
ASSI
100
AcDbLine
 62
7
  6
CONTINUOUS
 10
-110.361070648
 20
-25.2
 11
-111.3111950269
 21
-25.2
  0
LINE
  5
29B
100
AcDbEntity
  8
0
100
AcDbLine
 62
7
  6
CONTINUOUS
 10
-111.3111950269
 20
-25.05
 11
-111.1611950269
 21
-25.05
  0
LINE
  5
29C
100
AcDbEntity
  8
ASSI
100
AcDbLine
 62
7
  6
CONTINUOUS
 10
-111.3111950269
 20
-25.05
 11
-111.1611950269
 21
-25.05
  0
LINE
  5
29D
100
AcDbEntity
  8
0
100
AcDbLine
 62
7
  6
CONTINUOUS
 10
-110.8611950269
 20
-25.05
 11
-110.6611950269
 21
-25.05
  0
LINE
  5
29E
100
AcDbEntity
  8
ASSI
100
AcDbLine
 62
7
  6
CONTINUOUS
 10
-110.8611950269
 20
-25.05
 11
-110.6611950269
 21
-25.05
  0
LINE
  5
29F
100
AcDbEntity
  8
0
100
AcDbLine
 62
7
  6
CONTINUOUS
 10
-111.3111950269
 20
-25.7558198745
 11
-108.5007278357
 21
-25.8799866677
  0
LINE
  5
2A0
100
AcDbEntity
  8
ASSI
100
AcDbLine
 62
7
  6
CONTINUOUS
 10
-111.3111950269
 20
-25.7558198745
 11
-108.5007278357
 21
-25.8799866677
  0
LINE
  5
2A1
100
AcDbEntity
  8
0
100
AcDbLine
 62
7
  6
CONTINUOUS
 10
-108.3111950269
 20
-25.4
 11
-110.261566929
 21
-25.2049628098
  0
LINE
  5
2A2
100
AcDbEntity
  8
ASSI
100
AcDbLine
 62
7
  6
CONTINUOUS
 10
-108.3111950269
 20
-25.4
 11
-110.261566929
 21
-25.2049628098
  0
LINE
  5
2A3
100
AcDbEntity
  8
0
100
AcDbLine
 62
7
  6
CONTINUOUS
 10
-111.1611950269
 20
25.05
 11
-111.0111950269
 21
25.2
  0
LINE
  5
2A4
100
AcDbEntity
  8
ASSI
100
AcDbLine
 62
7
  6
CONTINUOUS
 10
-111.1611950269
 20
25.05
 11
-111.0111950269
 21
25.2
  0
LINE
  5
2A5
100
AcDbEntity
  8
0
100
AcDbLine
 62
7
  6
CONTINUOUS
 10
-110.6611950269
 20
25.05
 11
-110.5111950269
 21
25.2
  0
LINE
  5
2A6
100
AcDbEntity
  8
ASSI
100
AcDbLine
 62
7
  6
CONTINUOUS
 10
-110.6611950269
 20
25.05
 11
-110.5111950269
 21
25.2
  0
LINE
  5
2A7
100
AcDbEntity
  8
0
100
AcDbLine
 62
7
  6
CONTINUOUS
 10
-111.1611950269
 20
-25.05
 11
-111.0111950269
 21
-25.2
  0
LINE
  5
2A8
100
AcDbEntity
  8
ASSI
100
AcDbLine
 62
7
  6
CONTINUOUS
 10
-111.1611950269
 20
-25.05
 11
-111.0111950269
 21
-25.2
  0
LINE
  5
2A9
100
AcDbEntity
  8
0
100
AcDbLine
 62
7
  6
CONTINUOUS
 10
-110.6611950269
 20
-25.05
 11
-110.5111950269
 21
-25.2
  0
LINE
  5
2AA
100
AcDbEntity
  8
ASSI
100
AcDbLine
 62
7
  6
CONTINUOUS
 10
-110.6611950269
 20
-25.05
 11
-110.5111950269
 21
-25.2
  0
LWPOLYLINE
  5
2AB
100
AcDbEntity
  8
0
100
AcDbPolyline
 62
7
  6
CONTINUOUS
 90
3
 70
0
 43
0.3500000006
 10
-101.9547940979
 20
64.0357166748
 10
-102.0262252808
 20
63.8214321899
 10
-102.1690785828
 20
63.5357165222
  0
LWPOLYLINE
  5
2AC
100
AcDbEntity
  8
0
100
AcDbPolyline
 62
7
  6
CONTINUOUS
 90
3
 70
0
 43
0.3500000006
 10
-103.3647374268
 20
56.0357142334
 10
-103.4361686096
 20
55.8214297485
 10
-103.5790219116
 20
55.5357140808
  0
LINE
  5
2AD
100
AcDbEntity
  8
SMUSSO
100
AcDbLine
 62
7
  6
CONTINUOUS
 10
-118.8611950269
 20
-44.0
 11
-118.8611950269
 21
44.0
  0
LINE
  5
2AE
100
AcDbEntity
  8
SMUSSO
100
AcDbLine
 62
7
  6
CONTINUOUS
 10
-117.8611950269
 20
-45.0
 11
-117.8611950269
 21
45.0
  0
LINE
  5
2AF
100
AcDbEntity
  8
SMUSSO
100
AcDbLine
 62
7
  6
CONTINUOUS
 10
-116.3611950269
 20
45.0
 11
-116.3611950269
 21
-45.0
  0
LINE
  5
2B0
100
AcDbEntity
  8
SMUSSO
100
AcDbLine
 62
7
  6
CONTINUOUS
 10
-115.8611950269
 20
44.5
 11
-115.8611950269
 21
-44.5
  0
LINE
  5
2B1
100
AcDbEntity
  8
0
100
AcDbLine
 62
7
  6
CONTINUOUS
 10
-115.7111950269
 20
-44.3506196883
 11
-115.7111950269
 21
44.3506196883
  0
LINE
  5
2B2
100
AcDbEntity
  8
ASSI
100
AcDbLine
 62
7
  6
CONTINUOUS
 10
-115.7111950269
 20
-44.3506196883
 11
-115.7111950269
 21
44.3506196883
  0
LINE
  5
2B3
100
AcDbEntity
  8
0
100
AcDbLine
 62
250
  6
CONTINUOUS
 10
-115.1926610269
 20
-36.161141
 11
-115.1926610269
 21
-35.764569
  0
LINE
  5
2B4
100
AcDbEntity
  8
0
100
AcDbLine
 62
250
  6
CONTINUOUS
 10
-115.1925470269
 20
-32.582488
 11
-115.1925470269
 21
-32.966124
  0
LINE
  5
2B5
100
AcDbEntity
  8
0
100
AcDbLine
 62
250
  6
CONTINUOUS
 10
-115.1925470269
 20
-33.801966
 11
-115.1925470269
 21
-34.194336
  0
LINE
  5
2B6
100
AcDbEntity
  8
0
100
AcDbLine
 62
250
  6
CONTINUOUS
 10
-115.1925470269
 20
-34.983292
 11
-115.1925470269
 21
-35.379536
  0
LINE
  5
2B7
100
AcDbEntity
  8
0
100
AcDbLine
 62
250
  6
CONTINUOUS
 10
-115.1925470269
 20
-36.30831
 11
-115.1925470269
 21
-36.704611
  0
LINE
  5
2B8
100
AcDbEntity
  8
0
100
AcDbLine
 62
250
  6
CONTINUOUS
 10
-115.1925470269
 20
-37.439964
 11
-115.1925470269
 21
-37.870764
  0
LINE
  5
2B9
100
AcDbEntity
  8
0
100
AcDbLine
 62
250
  6
CONTINUOUS
 10
-114.3473447627
 20
-31.5012884969
 11
-114.3473447627
 21
-31.2746513441
  0
LINE
  5
2BA
100
AcDbEntity
  8
0
100
AcDbLine
 62
250
  6
CONTINUOUS
 10
-114.0361959434
 20
-31.2755061485
 11
-114.0361959434
 21
-31.4881387551
  0
LINE
  5
2BB
100
AcDbEntity
  8
0
100
AcDbLine
 62
250
  6
CONTINUOUS
 10
-113.9654610269
 20
-32.599527
 11
-113.9654610269
 21
-32.979217
  0
LINE
  5
2BC
100
AcDbEntity
  8
0
100
AcDbLine
 62
250
  6
CONTINUOUS
 10
-113.6719780269
 20
-33.060338
 11
-113.6719780269
 21
-32.520272
  0
LINE
  5
2BD
100
AcDbEntity
  8
0
100
AcDbLine
 62
250
  6
CONTINUOUS
 10
-113.2927012809
 20
-30.4993864496
 11
-113.2927012809
 21
-30.8808429347
  0
LINE
  5
2BE
100
AcDbEntity
  8
0
100
AcDbLine
 62
250
  6
CONTINUOUS
 10
-113.2927012809
 20
-31.4881387551
 11
-113.2927012809
 21
-31.8831153973
  0
LINE
  5
2BF
100
AcDbEntity
  8
0
100
AcDbLine
 62
250
  6
CONTINUOUS
 10
-113.2927010269
 20
-37.268476
 11
-113.2927010269
 21
-36.918996
  0
LINE
  5
2C0
100
AcDbEntity
  8
0
100
AcDbLine
 62
250
  6
CONTINUOUS
 10
-113.2927010269
 20
-35.551081
 11
-113.2927010269
 21
-35.171691
  0
LINE
  5
2C1
100
AcDbEntity
  8
0
100
AcDbLine
 62
250
  6
CONTINUOUS
 10
-113.2927010269
 20
-34.620883
 11
-113.2927010269
 21
-34.565264
  0
LINE
  5
2C2
100
AcDbEntity
  8
0
100
AcDbLine
 62
250
  6
CONTINUOUS
 10
-113.2927010269
 20
-34.012262
 11
-113.2927010269
 21
-33.624309
  0
LINE
  5
2C3
100
AcDbEntity
  8
0
100
AcDbLine
 62
250
  6
CONTINUOUS
 10
-113.2927010269
 20
-33.562037
 11
-113.2927010269
 21
-33.169767
  0
LINE
  5
2C4
100
AcDbEntity
  8
0
100
AcDbLine
 62
250
  6
CONTINUOUS
 10
-113.2927010269
 20
-32.417539
 11
-113.2927010269
 21
-31.999568
  0
LINE
  5
2C5
100
AcDbEntity
  8
0
100
AcDbLine
 62
250
  6
CONTINUOUS
 10
-113.2927010269
 20
-35.764569
 11
-113.2927010269
 21
-36.161141
  0
LINE
  5
2C6
100
AcDbEntity
  8
0
100
AcDbLine
 62
250
  6
CONTINUOUS
 10
-110.385357889
 20
-27.1501294387
 11
-110.3854224432
 21
-26.9276792439
  0
LINE
  5
2C7
100
AcDbEntity
  8
ASSI
100
AcDbLine
 62
250
  6
CONTINUOUS
 10
-110.385357889
 20
-27.1501294387
 11
-110.3854224432
 21
-26.9276792439
  0
LINE
  5
2C8
100
AcDbEntity
  8
0
100
AcDbLine
 62
7
  6
CONTINUOUS
 10
-112.8111950269
 20
43.3
 11
-112.8111950269
 21
-43.3
  0
LINE
  5
2C9
100
AcDbEntity
  8
ASSI
100
AcDbLine
 62
7
  6
CONTINUOUS
 10
-112.8111950269
 20
43.3
 11
-112.8111950269
 21
-43.3
  0
LINE
  5
2CA
100
AcDbEntity
  8
0
100
AcDbLine
 62
7
  6
CONTINUOUS
 10
-111.3111950269
 20
43.1
 11
-111.3111950269
 21
-43.1
  0
LINE
  5
2CB
100
AcDbEntity
  8
ASSI
100
AcDbLine
 62
7
  6
CONTINUOUS
 10
-111.3111950269
 20
43.1
 11
-111.3111950269
 21
-43.1
  0
LINE
  5
2CC
100
AcDbEntity
  8
0
100
AcDbLine
 62
250
  6
CONTINUOUS
 10
-110.3854224432
 20
26.9276792439
 11
-110.385357889
 21
27.1501294387
  0
LINE
  5
2CD
100
AcDbEntity
  8
ASSI
100
AcDbLine
 62
250
  6
CONTINUOUS
 10
-110.3854224432
 20
26.9276792439
 11
-110.385357889
 21
27.1501294387
  0
LINE
  5
2CE
100
AcDbEntity
  8
0
100
AcDbLine
 62
250
  6
CONTINUOUS
 10
-108.5007278357
 20
25.8799866677
 11
-108.5007278357
 21
25.3810467191
  0
LINE
  5
2CF
100
AcDbEntity
  8
ASSI
100
AcDbLine
 62
250
  6
CONTINUOUS
 10
-108.5007278357
 20
25.8799866677
 11
-108.5007278357
 21
25.3810467191
  0
LINE
  5
2D0
100
AcDbEntity
  8
0
100
AcDbLine
 62
250
  6
CONTINUOUS
 10
-108.5007278357
 20
-25.3810467191
 11
-108.5007278357
 21
-25.8799866677
  0
LINE
  5
2D1
100
AcDbEntity
  8
ASSI
100
AcDbLine
 62
250
  6
CONTINUOUS
 10
-108.5007278357
 20
-25.3810467191
 11
-108.5007278357
 21
-25.8799866677
  0
LINE
  5
2D2
100
AcDbEntity
  8
0
100
AcDbLine
 62
7
  6
CONTINUOUS
 10
-108.3111950269
 20
26.0883643404
 11
-108.3111950269
 21
25.4
  0
LINE
  5
2D3
100
AcDbEntity
  8
ASSI
100
AcDbLine
 62
7
  6
CONTINUOUS
 10
-108.3111950269
 20
26.0883643404
 11
-108.3111950269
 21
25.4
  0
LINE
  5
2D4
100
AcDbEntity
  8
0
100
AcDbLine
 62
7
  6
CONTINUOUS
 10
-108.3111950269
 20
-25.4
 11
-108.3111950269
 21
-26.0883643404
  0
LINE
  5
2D5
100
AcDbEntity
  8
ASSI
100
AcDbLine
 62
7
  6
CONTINUOUS
 10
-108.3111950269
 20
-25.4
 11
-108.3111950269
 21
-26.0883643404
  0
LWPOLYLINE
  5
2D6
100
AcDbEntity
  8
0
100
AcDbPolyline
 62
7
  6
CONTINUOUS
 90
4
 70
0
 43
0.3500000006
 10
-106.4361695251
 20
58.1071460266
 10
-106.4361695251
 20
58.7499994812
 10
-104.9361690674
 20
58.7499994812
 10
-105.7933070068
 20
55.7499985657
  0
LWPOLYLINE
  5
2D7
100
AcDbEntity
  8
0
100
AcDbPolyline
 62
7
  6
CONTINUOUS
 90
13
 70
0
 43
0.3500000006
 10
-105.0262261963
 20
64.6071389465
 10
-105.0262261963
 20
65.8928549194
 10
-104.8119417114
 20
66.3214329529
 10
-104.383363678
 20
66.7500019226
 10
-104.1690791931
 20
66.7500019226
 10
-103.7405102234
 20
66.3214329529
 10
-103.5262257385
 20
65.8928549194
 10
-103.5262257385
 20
64.6071389465
 10
-103.7405102234
 20
64.1785699768
 10
-104.1690791931
 20
63.7500010071
 10
-104.383363678
 20
63.7500010071
 10
-104.8119417114
 20
64.1785699768
 10
-105.0262261963
 20
64.6071389465
  0
LINE
  5
2D8
100
AcDbEntity
  8
0
100
AcDbLine
 62
7
  6
CONTINUOUS
 10
-111.0111950269
 20
-25.2
 11
-110.8611950269
 21
-25.05
  0
LINE
  5
2D9
100
AcDbEntity
  8
ASSI
100
AcDbLine
 62
7
  6
CONTINUOUS
 10
-111.0111950269
 20
-25.2
 11
-110.8611950269
 21
-25.05
  0
LINE
  5
2DA
100
AcDbEntity
  8
0
100
AcDbLine
 62
7
  6
CONTINUOUS
 10
-111.0111950269
 20
25.2
 11
-110.8611950269
 21
25.05
  0
LINE
  5
2DB
100
AcDbEntity
  8
ASSI
100
AcDbLine
 62
7
  6
CONTINUOUS
 10
-111.0111950269
 20
25.2
 11
-110.8611950269
 21
25.05
  0
LINE
  5
2DC
100
AcDbEntity
  8
RACCORDO
100
AcDbLine
 62
250
  6
CONTINUOUS
 10
-115.8611950269
 20
23.0
 11
-115.7111950269
 21
23.0
  0
LINE
  5
2DD
100
AcDbEntity
  8
RACCORDO
100
AcDbLine
 62
7
  6
CONTINUOUS
 10
-115.8611950269
 20
24.0
 11
-115.7111950269
 21
24.0
  0
LINE
  5
2DE
100
AcDbEntity
  8
0
100
AcDbLine
 62
250
  6
CONTINUOUS
 10
-110.3854224432
 20
-26.9276792439
 11
-109.2859035833
 21
-26.3440350289
  0
LINE
  5
2DF
100
AcDbEntity
  8
ASSI
100
AcDbLine
 62
250
  6
CONTINUOUS
 10
-110.3854224432
 20
-26.9276792439
 11
-109.2859035833
 21
-26.3440350289
  0
LINE
  5
2E0
100
AcDbEntity
  8
0
100
AcDbLine
 62
250
  6
CONTINUOUS
 10
-108.8611457947
 20
-26.2536973817
 11
-108.339053942
 21
-25.9765617175
  0
LINE
  5
2E1
100
AcDbEntity
  8
ASSI
100
AcDbLine
 62
250
  6
CONTINUOUS
 10
-108.8611457947
 20
-26.2536973817
 11
-108.339053942
 21
-25.9765617175
  0
LINE
  5
2E2
100
AcDbEntity
  8
0
100
AcDbLine
 62
7
  6
CONTINUOUS
 10
-108.3111950269
 20
-26.0883643404
 11
-110.2461830652
 21
-27.1154904916
  0
LINE
  5
2E3
100
AcDbEntity
  8
ASSI
100
AcDbLine
 62
7
  6
CONTINUOUS
 10
-108.3111950269
 20
-26.0883643404
 11
-110.2461830652
 21
-27.1154904916
  0
LINE
  5
2E4
100
AcDbEntity
  8
0
100
AcDbLine
 62
7
  6
CONTINUOUS
 10
-108.3111950269
 20
25.4
 11
-110.261566929
 21
25.2049628098
  0
LINE
  5
2E5
100
AcDbEntity
  8
ASSI
100
AcDbLine
 62
7
  6
CONTINUOUS
 10
-108.3111950269
 20
25.4
 11
-110.261566929
 21
25.2049628098
  0
LINE
  5
2E6
100
AcDbEntity
  8
0
100
AcDbLine
 62
7
  6
CONTINUOUS
 10
-111.3111950269
 20
25.7558198745
 11
-108.5007278357
 21
25.8799866677
  0
LINE
  5
2E7
100
AcDbEntity
  8
ASSI
100
AcDbLine
 62
7
  6
CONTINUOUS
 10
-111.3111950269
 20
25.7558198745
 11
-108.5007278357
 21
25.8799866677
  0
LINE
  5
2E8
100
AcDbEntity
  8
0
100
AcDbLine
 62
7
  6
CONTINUOUS
 10
-111.3111950269
 20
25.05
 11
-111.1611950269
 21
25.05
  0
LINE
  5
2E9
100
AcDbEntity
  8
ASSI
100
AcDbLine
 62
7
  6
CONTINUOUS
 10
-111.3111950269
 20
25.05
 11
-111.1611950269
 21
25.05
  0
LINE
  5
2EA
100
AcDbEntity
  8
0
100
AcDbLine
 62
7
  6
CONTINUOUS
 10
-110.8611950269
 20
25.05
 11
-110.6611950269
 21
25.05
  0
LINE
  5
2EB
100
AcDbEntity
  8
ASSI
100
AcDbLine
 62
7
  6
CONTINUOUS
 10
-110.8611950269
 20
25.05
 11
-110.6611950269
 21
25.05
  0
LINE
  5
2EC
100
AcDbEntity
  8
0
100
AcDbLine
 62
7
  6
CONTINUOUS
 10
-111.3111950269
 20
25.2
 11
-110.361070648
 21
25.2
  0
LINE
  5
2ED
100
AcDbEntity
  8
ASSI
100
AcDbLine
 62
7
  6
CONTINUOUS
 10
-111.3111950269
 20
25.2
 11
-110.361070648
 21
25.2
  0
LINE
  5
2EE
100
AcDbEntity
  8
RACCORDO
100
AcDbLine
 62
250
  6
CONTINUOUS
 10
-115.7111950269
 20
25.5
 11
-115.8611950269
 21
25.5
  0
LINE
  5
2EF
100
AcDbEntity
  8
RACCORDO
100
AcDbLine
 62
7
  6
CONTINUOUS
 10
-115.8611950269
 20
26.5
 11
-115.7111950269
 21
26.5
  0
LINE
  5
2F0
100
AcDbEntity
  8
RACCORDO
100
AcDbLine
 62
250
  6
CONTINUOUS
 10
-115.8611950269
 20
27.5
 11
-115.7111950269
 21
27.5
  0
LINE
  5
2F1
100
AcDbEntity
  8
0
100
AcDbLine
 62
250
  6
CONTINUOUS
 10
-110.3854224432
 20
26.9276792439
 11
-111.3111950269
 21
26.9280974384
  0
LINE
  5
2F2
100
AcDbEntity
  8
ASSI
100
AcDbLine
 62
250
  6
CONTINUOUS
 10
-110.3854224432
 20
26.9276792439
 11
-111.3111950269
 21
26.9280974384
  0
LINE
  5
2F3
100
AcDbEntity
  8
0
100
AcDbLine
 62
7
  6
CONTINUOUS
 10
-110.3853578666
 20
27.1501294387
 11
-111.3111950269
 21
27.151745331
  0
LINE
  5
2F4
100
AcDbEntity
  8
ASSI
100
AcDbLine
 62
7
  6
CONTINUOUS
 10
-110.3853578666
 20
27.1501294387
 11
-111.3111950269
 21
27.151745331
  0
LINE
  5
2F5
100
AcDbEntity
  8
0
100
AcDbLine
 62
250
  6
CONTINUOUS
 10
-108.8611457947
 20
26.2536973817
 11
-111.3111950269
 21
26.2679513512
  0
LINE
  5
2F6
100
AcDbEntity
  8
ASSI
100
AcDbLine
 62
250
  6
CONTINUOUS
 10
-108.8611457947
 20
26.2536973817
 11
-111.3111950269
 21
26.2679513512
  0
LINE
  5
2F7
100
AcDbEntity
  8
0
100
AcDbLine
 62
7
  6
CONTINUOUS
 10
-108.8611457947
 20
26.3415638603
 11
-111.3111950269
 21
26.3558178298
  0
LINE
  5
2F8
100
AcDbEntity
  8
ASSI
100
AcDbLine
 62
7
  6
CONTINUOUS
 10
-108.8611457947
 20
26.3415638603
 11
-111.3111950269
 21
26.3558178298
  0
LINE
  5
2F9
100
AcDbEntity
  8
0
100
AcDbLine
 62
250
  6
CONTINUOUS
 10
-109.2859035833
 20
26.3440350289
 11
-110.3854224432
 21
26.9276792439
  0
LINE
  5
2FA
100
AcDbEntity
  8
ASSI
100
AcDbLine
 62
250
  6
CONTINUOUS
 10
-109.2859035833
 20
26.3440350289
 11
-110.3854224432
 21
26.9276792439
  0
LINE
  5
2FB
100
AcDbEntity
  8
0
100
AcDbLine
 62
250
  6
CONTINUOUS
 10
-108.339053942
 20
25.9765617175
 11
-108.8611457947
 21
26.2536973817
  0
LINE
  5
2FC
100
AcDbEntity
  8
ASSI
100
AcDbLine
 62
250
  6
CONTINUOUS
 10
-108.339053942
 20
25.9765617175
 11
-108.8611457947
 21
26.2536973817
  0
LINE
  5
2FD
100
AcDbEntity
  8
0
100
AcDbLine
 62
7
  6
CONTINUOUS
 10
-108.3111950269
 20
26.0883643404
 11
-110.2461830652
 21
27.1154904916
  0
LINE
  5
2FE
100
AcDbEntity
  8
ASSI
100
AcDbLine
 62
7
  6
CONTINUOUS
 10
-108.3111950269
 20
26.0883643404
 11
-110.2461830652
 21
27.1154904916
  0
LINE
  5
2FF
100
AcDbEntity
  8
SMUSSO
100
AcDbLine
 62
7
  6
CONTINUOUS
 10
-115.8611950269
 20
-44.5
 11
-116.3611950269
 21
-45.0
  0
LINE
  5
300
100
AcDbEntity
  8
SMUSSO
100
AcDbLine
 62
7
  6
CONTINUOUS
 10
-115.8611950269
 20
44.5
 11
-116.3611950269
 21
45.0
  0
LINE
  5
301
100
AcDbEntity
  8
0
100
AcDbLine
 62
250
  6
CONTINUOUS
 10
-114.5332650269
 20
-35.08611
 11
-113.2927010269
 21
-34.620883
  0
LINE
  5
302
100
AcDbEntity
  8
0
100
AcDbLine
 62
250
  6
CONTINUOUS
 10
-114.1377470269
 20
-34.590908
 11
-115.1925470269
 21
-34.983292
  0
LINE
  5
303
100
AcDbEntity
  8
0
100
AcDbLine
 62
250
  6
CONTINUOUS
 10
-113.2927010269
 20
-31.999568
 11
-115.1925470269
 21
-32.582488
  0
LINE
  5
304
100
AcDbEntity
  8
0
100
AcDbLine
 62
7
  6
CONTINUOUS
 10
-112.8101513816
 20
-44.2991650838
 11
-111.3111950269
 21
-43.1
  0
LINE
  5
305
100
AcDbEntity
  8
ASSI
100
AcDbLine
 62
7
  6
CONTINUOUS
 10
-112.8101513816
 20
-44.2991650838
 11
-111.3111950269
 21
-43.1
  0
LINE
  5
306
100
AcDbEntity
  8
0
100
AcDbLine
 62
250
  6
CONTINUOUS
 10
-115.1925470269
 20
-37.870764
 11
-113.2927010269
 21
-37.268476
  0
LINE
  5
307
100
AcDbEntity
  8
0
100
AcDbLine
 62
7
  6
CONTINUOUS
 10
-112.8101513816
 20
44.2991650838
 11
-111.3111950269
 21
43.1
  0
LINE
  5
308
100
AcDbEntity
  8
ASSI
100
AcDbLine
 62
7
  6
CONTINUOUS
 10
-112.8101513816
 20
44.2991650838
 11
-111.3111950269
 21
43.1
  0
LWPOLYLINE
  5
309
100
AcDbEntity
  8
0
100
AcDbPolyline
 62
7
  6
CONTINUOUS
 90
10
 70
0
 43
0.3500000006
 10
-103.4361686096
 20
56.2499987183
 10
-103.3647374268
 20
56.1071454163
 10
-103.3647374268
 20
56.0357142334
 10
-103.5075907288
 20
55.8928609314
 10
-103.5790219116
 20
55.8928609314
 10
-103.6504530945
 20
55.9642830505
 10
-103.6504530945
 20
56.0357142334
 10
-103.5790219116
 20
56.1785675354
 10
-103.5075907288
 20
56.2499987183
 10
-103.4361686096
 20
56.2499987183
  0
LINE
  5
30A
100
AcDbEntity
  8
RACCORDO
100
AcDbLine
 62
250
  6
CONTINUOUS
 10
-115.8611950269
 20
39.0
 11
-115.7111950269
 21
39.0
  0
LWPOLYLINE
  5
30B
100
AcDbEntity
  8
0
100
AcDbPolyline
 62
7
  6
CONTINUOUS
 90
10
 70
0
 43
0.3500000006
 10
-102.0262252808
 20
64.2500011597
 10
-101.9547940979
 20
64.1071387939
 10
-101.9547940979
 20
64.0357166748
 10
-102.0976564636
 20
63.8928543091
 10
-102.1690785828
 20
63.8928543091
 10
-102.2405097656
 20
63.9642854919
 10
-102.2405097656
 20
64.0357166748
 10
-102.1690785828
 20
64.1785699768
 10
-102.0976564636
 20
64.2500011597
 10
-102.0262252808
 20
64.2500011597
  0
LINE
  5
30C
100
AcDbEntity
  8
RACCORDO
100
AcDbLine
 62
7
  6
CONTINUOUS
 10
-115.8611950269
 20
40.0
 11
-115.7111950269
 21
40.0
  0
LINE
  5
30D
100
AcDbEntity
  8
0
100
AcDbLine
 62
250
  6
CONTINUOUS
 10
-115.7111950269
 20
43.3
 11
-112.8111950269
 21
43.3
  0
LINE
  5
30E
100
AcDbEntity
  8
ASSI
100
AcDbLine
 62
250
  6
CONTINUOUS
 10
-115.7111950269
 20
43.3
 11
-112.8111950269
 21
43.3
  0
LINE
  5
30F
100
AcDbEntity
  8
SMUSSO
100
AcDbLine
 62
250
  6
CONTINUOUS
 10
-115.8611950269
 20
44.0
 11
-118.8611950269
 21
44.0
  0
LINE
  5
310
100
AcDbEntity
  8
SMUSSO
100
AcDbLine
 62
7
  6
CONTINUOUS
 10
-117.8611950269
 20
45.0
 11
-116.3611950269
 21
45.0
  0
LWPOLYLINE
  5
311
100
AcDbEntity
  8
0
100
AcDbPolyline
 62
7
  6
CONTINUOUS
 90
8
 70
0
 43
0.3500000006
 10
-102.3647371216
 20
55.7499985657
 10
-101.5075901184
 20
55.7499985657
 10
-101.0790211487
 20
56.1785675354
 10
-101.0790211487
 20
57.0357145386
 10
-101.5075901184
 20
57.4642835083
 10
-102.3647371216
 20
57.4642835083
 10
-102.3647371216
 20
58.7499994812
 10
-101.0790211487
 20
58.7499994812
  0
LWPOLYLINE
  5
312
100
AcDbEntity
  8
0
100
AcDbPolyline
 62
7
  6
CONTINUOUS
 90
8
 70
0
 43
0.3500000006
 10
-100.2218832092
 20
55.7499985657
 10
-99.3647362061
 20
55.7499985657
 10
-98.9361672363
 20
56.1785675354
 10
-98.9361672363
 20
57.0357145386
 10
-99.3647362061
 20
57.4642835083
 10
-100.2218832092
 20
57.4642835083
 10
-100.2218832092
 20
58.7499994812
 10
-98.9361672363
 20
58.7499994812
  0
LWPOLYLINE
  5
313
100
AcDbEntity
  8
0
100
AcDbPolyline
 62
7
  6
CONTINUOUS
 90
8
 70
0
 43
0.3500000006
 10
-100.9547937927
 20
63.7500010071
 10
-100.0976558533
 20
63.7500010071
 10
-99.6690778198
 20
64.1785699768
 10
-99.6690778198
 20
65.03571698
 10
-100.0976558533
 20
65.4642859497
 10
-100.9547937927
 20
65.4642859497
 10
-100.9547937927
 20
66.7500019226
 10
-99.6690778198
 20
66.7500019226
  0
LWPOLYLINE
  5
314
100
AcDbEntity
  8
0
100
AcDbPolyline
 62
7
  6
CONTINUOUS
 90
8
 70
0
 43
0.3500000006
 10
-98.8119398804
 20
63.7500010071
 10
-97.9547928772
 20
63.7500010071
 10
-97.5262239075
 20
64.1785699768
 10
-97.5262239075
 20
65.03571698
 10
-97.9547928772
 20
65.4642859497
 10
-98.8119398804
 20
65.4642859497
 10
-98.8119398804
 20
66.7500019226
 10
-97.5262239075
 20
66.7500019226
  0
LINE
  5
315
100
AcDbEntity
  8
0
100
AcDbLine
 62
7
  6
CONTINUOUS
 10
-115.7111950269
 20
44.3506196883
 11
-112.8111950269
 21
44.3
  0
LINE
  5
316
100
AcDbEntity
  8
ASSI
100
AcDbLine
 62
7
  6
CONTINUOUS
 10
-115.7111950269
 20
44.3506196883
 11
-112.8111950269
 21
44.3
  0
LINE
  5
317
100
AcDbEntity
  8
0
100
AcDbLine
 62
250
  6
CONTINUOUS
 10
-112.8101513816
 20
43.3404067067
 11
-111.3111950269
 21
43.0383103281
  0
LINE
  5
318
100
AcDbEntity
  8
ASSI
100
AcDbLine
 62
250
  6
CONTINUOUS
 10
-112.8101513816
 20
43.3404067067
 11
-111.3111950269
 21
43.0383103281
  0
ARC
  5
319
100
AcDbEntity
  8
RACCORDO
100
AcDbCircle
 62
7
  6
CONTINUOUS
 10
-55.3750000001
 20
-21.55
 40
1.2
100
AcDbArc
 50
180.0
 51
270.0
  0
ARC
  5
31A
100
AcDbEntity
  8
RACCORDO
100
AcDbCircle
 62
7
  6
CONTINUOUS
 10
54.9249999999
 20
-21.55
 40
1.2
100
AcDbArc
 50
270.0
 51
360.0
  0
ARC
  5
31B
100
AcDbEntity
  8
RACCORDO
100
AcDbCircle
 62
7
  6
CONTINUOUS
 10
54.9249999999
 20
21.55
 40
1.2
100
AcDbArc
 50
0.0
 51
90.0
  0
ARC
  5
31C
100
AcDbEntity
  8
RACCORDO
100
AcDbCircle
 62
7
  6
CONTINUOUS
 10
-55.3750000001
 20
21.55
 40
1.2
100
AcDbArc
 50
90.0
 51
180.0
  0
ARC
  5
31D
100
AcDbEntity
  8
SMUSSO
100
AcDbCircle
 62
7
  6
CONTINUOUS
 10
-78.8750000001
 20
44.0
 40
1.0
100
AcDbArc
 50
90.0
 51
180.0
  0
ARC
  5
31E
100
AcDbEntity
  8
SMUSSO
100
AcDbCircle
 62
7
  6
CONTINUOUS
 10
-78.8750000001
 20
-44.0
 40
1.0
100
AcDbArc
 50
180.0
 51
270.0
  0
ARC
  5
31F
100
AcDbEntity
  8
SMUSSO
100
AcDbCircle
 62
7
  6
CONTINUOUS
 10
78.4249999999
 20
-44.0
 40
1.0
100
AcDbArc
 50
270.0
 51
360.0
  0
ARC
  5
320
100
AcDbEntity
  8
SMUSSO
100
AcDbCircle
 62
7
  6
CONTINUOUS
 10
78.4249999999
 20
44.0
 40
1.0
100
AcDbArc
 50
0.0
 51
90.0
  0
ARC
  5
321
100
AcDbEntity
  8
0
100
AcDbCircle
 62
7
  6
CONTINUOUS
 10
-110.361070648
 20
26.2
 40
1.0
100
AcDbArc
 50
270.0
 51
275.7105931375
  0
ARC
  5
322
100
AcDbEntity
  8
0
100
AcDbCircle
 62
7
  6
CONTINUOUS
 10
-110.361070648
 20
-26.2
 40
1.0
100
AcDbArc
 50
84.2894068625
 51
90.0
  0
ARC
  5
323
100
AcDbEntity
  8
ASSI
100
AcDbCircle
 62
7
  6
CONTINUOUS
 10
-110.361070648
 20
26.2
 40
1.0
100
AcDbArc
 50
270.0
 51
275.7105931375
  0
ARC
  5
324
100
AcDbEntity
  8
ASSI
100
AcDbCircle
 62
7
  6
CONTINUOUS
 10
-110.361070648
 20
-26.2
 40
1.0
100
AcDbArc
 50
84.2894068625
 51
90.0
  0
ARC
  5
325
100
AcDbEntity
  8
0
100
AcDbCircle
 62
7
  6
CONTINUOUS
 10
-110.3858816927
 20
26.849999491
 40
0.3
100
AcDbArc
 50
62.0510335847
 51
89.9000000064
  0
ARC
  5
326
100
AcDbEntity
  8
0
100
AcDbCircle
 62
7
  6
CONTINUOUS
 10
-110.3858816927
 20
-26.849999491
 40
0.3
100
AcDbArc
 50
270.0999999936
 51
297.9489664153
  0
ARC
  5
327
100
AcDbEntity
  8
0
100
AcDbCircle
 62
7
  6
CONTINUOUS
 10
-108.8628911141
 20
-26.0415689373
 40
0.3
100
AcDbArc
 50
270.3333333333
 51
297.9601595792
  0
ARC
  5
328
100
AcDbEntity
  8
0
100
AcDbCircle
 62
7
  6
CONTINUOUS
 10
-108.8628911141
 20
26.0415689373
 40
0.3
100
AcDbArc
 50
62.0398404207
 51
89.6666666667
  0
ARC
  5
329
100
AcDbEntity
  8
ASSI
100
AcDbCircle
 62
7
  6
CONTINUOUS
 10
-110.3858816927
 20
26.849999491
 40
0.3
100
AcDbArc
 50
62.0510335847
 51
89.9000000064
  0
ARC
  5
32A
100
AcDbEntity
  8
ASSI
100
AcDbCircle
 62
7
  6
CONTINUOUS
 10
-110.3858816927
 20
-26.849999491
 40
0.3
100
AcDbArc
 50
270.0999999936
 51
297.9489664153
  0
ARC
  5
32B
100
AcDbEntity
  8
ASSI
100
AcDbCircle
 62
7
  6
CONTINUOUS
 10
-108.8628911141
 20
-26.0415689373
 40
0.3
100
AcDbArc
 50
270.3333333333
 51
297.9601595792
  0
ARC
  5
32C
100
AcDbEntity
  8
ASSI
100
AcDbCircle
 62
7
  6
CONTINUOUS
 10
-108.8628911141
 20
26.0415689373
 40
0.3
100
AcDbArc
 50
62.0398404207
 51
89.6666666667
  0
SPLINE
  5
32D
100
AcDbEntity
  8
0
100
AcDbSpline
 62
7
  6
CONTINUOUS
 70
0
 71
3
 72
9
 73
5
 74
0
 42
0.0000001
 43
0.0000001
 44
0.0000000001
 40
0.0
 40
0.0
 40
0.0
 40
0.0
 40
0.2170599512
 40
1.0
 40
1.0
 40
1.0
 40
1.0
 10
-108.3111950269
 20
26.0463167932
 30
0.0
 10
-108.3111950269
 20
26.043082355
 30
0.0
 10
-108.3126809303
 20
26.0281701292
 30
0.0
 10
-108.3187351535
 20
26.0141711953
 30
0.0
 10
-108.323949553
 20
26.0037346394
 30
0.0
  0
SPLINE
  5
32E
100
AcDbEntity
  8
0
100
AcDbSpline
 62
7
  6
CONTINUOUS
 70
0
 71
3
 72
9
 73
5
 74
0
 42
0.0000001
 43
0.0000001
 44
0.0000000001
 40
0.0
 40
0.0
 40
0.0
 40
0.0
 40
0.2349608649
 40
1.0
 40
1.0
 40
1.0
 40
1.0
 10
-108.323949553
 20
26.0037346394
 30
0.0
 10
-108.3250379712
 20
26.0015561839
 30
0.0
 10
-108.3298088217
 20
25.9923536154
 30
0.0
 10
-108.3350025826
 20
25.9833777348
 30
0.0
 10
-108.339053942
 20
25.9765617175
 30
0.0
  0
SPLINE
  5
32F
100
AcDbEntity
  8
0
100
AcDbSpline
 62
7
  6
CONTINUOUS
 70
0
 71
3
 72
9
 73
5
 74
0
 42
0.0000001
 43
0.0000001
 44
0.0000000001
 40
0.0
 40
0.0
 40
0.0
 40
0.0
 40
0.5701306841
 40
1.0
 40
1.0
 40
1.0
 40
1.0
 10
-108.339053942
 20
-25.9765617175
 30
0.0
 10
-108.3317046006
 20
-25.9889262682
 30
0.0
 10
-108.319104554
 20
-26.0106367644
 30
0.0
 10
-108.3111950269
 20
-26.0354716084
 30
0.0
 10
-108.3111950269
 20
-26.0463167932
 30
0.0
  0
SPLINE
  5
330
100
AcDbEntity
  8
0
100
AcDbSpline
 62
7
  6
CONTINUOUS
 70
0
 71
3
 72
18
 73
14
 74
0
 42
0.0000001
 43
0.0000001
 44
0.0000000001
 40
0.0
 40
0.0
 40
0.0
 40
0.0
 40
0.1917663623
 40
0.3754478834
 40
0.544688632
 40
0.6936418121
 40
0.8171704681
 40
0.8680455164
 40
0.9110821829
 40
0.945929601
 40
0.9723599475
 40
0.9902702271
 40
1.0
 40
1.0
 40
1.0
 40
1.0
 10
-112.8101513816
 20
43.3404067067
 30
0.0
 10
-112.806979936
 20
43.4017747726
 30
0.0
 10
-112.8012821154
 20
43.5219510742
 30
0.0
 10
-112.7947356562
 20
43.6963719397
 30
0.0
 10
-112.7905907323
 20
43.8571467162
 30
0.0
 10
-112.7890491421
 20
43.9986861979
 30
0.0
 10
-112.7899533885
 20
44.1023211838
 30
0.0
 10
-112.7922908876
 20
44.1719491329
 30
0.0
 10
-112.7945449745
 20
44.2131817058
 30
0.0
 10
-112.7973940352
 20
44.2464118103
 30
0.0
 10
-112.8006743042
 20
44.2717893823
 30
0.0
 10
-112.8044291461
 20
44.288321408
 30
0.0
 10
-112.8077167685
 20
44.2972173933
 30
0.0
 10
-112.8101513816
 20
44.2991650838
 30
0.0
  0
SPLINE
  5
331
100
AcDbEntity
  8
0
100
AcDbSpline
 62
7
  6
CONTINUOUS
 70
0
 71
3
 72
18
 73
14
 74
0
 42
0.0000001
 43
0.0000001
 44
0.0000000001
 40
0.0
 40
0.0
 40
0.0
 40
0.0
 40
0.0097297729
 40
0.0276400525
 40
0.054070399
 40
0.0889178171
 40
0.1319544836
 40
0.1828295319
 40
0.306358188
 40
0.455311368
 40
0.6245521166
 40
0.8082336377
 40
1.0
 40
1.0
 40
1.0
 40
1.0
 10
-112.8101513816
 20
-44.2991650838
 30
0.0
 10
-112.8077167685
 20
-44.2972173933
 30
0.0
 10
-112.8044291461
 20
-44.288321408
 30
0.0
 10
-112.8006743042
 20
-44.2717893823
 30
0.0
 10
-112.7973940352
 20
-44.2464118103
 30
0.0
 10
-112.7945449745
 20
-44.2131817058
 30
0.0
 10
-112.7922908876
 20
-44.1719491329
 30
0.0
 10
-112.7899533885
 20
-44.1023211838
 30
0.0
 10
-112.7890491421
 20
-43.9986861979
 30
0.0
 10
-112.7905907323
 20
-43.8571467161
 30
0.0
 10
-112.7947356562
 20
-43.6963719397
 30
0.0
 10
-112.8012821154
 20
-43.5219510742
 30
0.0
 10
-112.806979936
 20
-43.4017747726
 30
0.0
 10
-112.8101513816
 20
-43.3404067067
 30
0.0
  0
SPLINE
  5
332
100
AcDbEntity
  8
0
100
AcDbSpline
 62
250
  6
CONTINUOUS
 70
0
 71
3
 72
9
 73
5
 74
0
 42
0.0000001
 43
0.0000001
 44
0.0000000001
 40
0.0
 40
0.0
 40
0.0
 40
0.0
 40
0.5592896327
 40
1.0
 40
1.0
 40
1.0
 40
1.0
 10
-110.3854224432
 20
-26.9276792439
 30
0.0
 10
-110.3692203645
 20
-26.9561664283
 30
0.0
 10
-110.3391185553
 20
-27.006447894
 30
0.0
 10
-110.3063280523
 20
-27.0551202131
 30
0.0
 10
-110.2905309229
 20
-27.075548906
 30
0.0
  0
SPLINE
  5
333
100
AcDbEntity
  8
0
100
AcDbSpline
 62
250
  6
CONTINUOUS
 70
0
 71
3
 72
10
 73
6
 74
0
 42
0.0000001
 43
0.0000001
 44
0.0000000001
 40
0.0
 40
0.0
 40
0.0
 40
0.0
 40
0.6949572477
 40
0.8908370455
 40
1.0
 40
1.0
 40
1.0
 40
1.0
 10
-110.2905309229
 20
-27.075548906
 30
0.0
 10
-110.2817764205
 20
-27.0868701427
 30
0.0
 10
-110.2697543389
 20
-27.1012491816
 30
0.0
 10
-110.2543077203
 20
-27.1142400811
 30
0.0
 10
-110.2472765036
 20
-27.1160657825
 30
0.0
 10
-110.2452887933
 20
-27.1150157961
 30
0.0
  0
SPLINE
  5
334
100
AcDbEntity
  8
0
100
AcDbSpline
 62
250
  6
CONTINUOUS
 70
0
 71
3
 72
9
 73
5
 74
0
 42
0.0000001
 43
0.0000001
 44
0.0000000001
 40
0.0
 40
0.0
 40
0.0
 40
0.0
 40
0.5597111315
 40
1.0
 40
1.0
 40
1.0
 40
1.0
 10
-110.3854224432
 20
26.9276792439
 30
0.0
 10
-110.3691560303
 20
26.9562668312
 30
0.0
 10
-110.3389294271
 20
27.006669329
 30
0.0
 10
-110.3060412507
 20
27.0554808642
 30
0.0
 10
-110.2901938029
 20
27.0759332631
 30
0.0
  0
SPLINE
  5
335
100
AcDbEntity
  8
0
100
AcDbSpline
 62
250
  6
CONTINUOUS
 70
0
 71
3
 72
10
 73
6
 74
0
 42
0.0000001
 43
0.0000001
 44
0.0000000001
 40
0.0
 40
0.0
 40
0.0
 40
0.0
 40
0.6949507496
 40
0.8908064837
 40
1.0
 40
1.0
 40
1.0
 40
1.0
 10
-110.2901938029
 20
27.0759332631
 30
0.0
 10
-110.2815022824
 20
27.0871503654
 30
0.0
 10
-110.2695475136
 20
27.1013796221
 30
0.0
 10
-110.2542369647
 20
27.1142585859
 30
0.0
 10
-110.2472562763
 20
27.1160647619
 30
0.0
 10
-110.2452887933
 20
27.1150157961
 30
0.0
  0
SPLINE
  5
336
100
AcDbEntity
  8
0
100
AcDbSpline
 62
250
  6
CONTINUOUS
 70
0
 71
3
 72
9
 73
5
 74
0
 42
0.0000001
 43
0.0000001
 44
0.0000000001
 40
0.0
 40
0.0
 40
0.0
 40
0.0
 40
0.4668694843
 40
1.0
 40
1.0
 40
1.0
 40
1.0
 10
-108.7222338657
 20
26.3065510847
 30
0.0
 10
-108.7292450453
 20
26.3102727439
 30
0.0
 10
-108.7462961443
 20
26.3146669289
 30
0.0
 10
-108.763458685
 20
26.3121984543
 30
0.0
 10
-108.772214646
 20
26.3098544197
 30
0.0
  0
SPLINE
  5
337
100
AcDbEntity
  8
0
100
AcDbSpline
 62
250
  6
CONTINUOUS
 70
0
 71
3
 72
9
 73
5
 74
0
 42
0.0000001
 43
0.0000001
 44
0.0000000001
 40
0.0
 40
0.0
 40
0.0
 40
0.0
 40
0.2245881552
 40
1.0
 40
1.0
 40
1.0
 40
1.0
 10
-108.772214646
 20
26.3098544197
 30
0.0
 10
-108.776188809
 20
26.3087905074
 30
0.0
 10
-108.7936152879
 20
26.3030432928
 30
0.0
 10
-108.8097662058
 20
26.2939017045
 30
0.0
 10
-108.8215222135
 20
26.2859292699
 30
0.0
  0
SPLINE
  5
338
100
AcDbEntity
  8
0
100
AcDbSpline
 62
250
  6
CONTINUOUS
 70
0
 71
3
 72
9
 73
5
 74
0
 42
0.0000001
 43
0.0000001
 44
0.0000000001
 40
0.0
 40
0.0
 40
0.0
 40
0.0
 40
0.2353683529
 40
1.0
 40
1.0
 40
1.0
 40
1.0
 10
-108.8215222135
 20
26.2859292699
 30
0.0
 10
-108.8248409089
 20
26.2836786689
 30
0.0
 10
-108.8387069165
 20
26.2737723678
 30
0.0
 10
-108.851678901
 20
26.262645661
 30
0.0
 10
-108.8611457947
 20
26.2536973817
 30
0.0
  0
SPLINE
  5
339
100
AcDbEntity
  8
0
100
AcDbSpline
 62
250
  6
CONTINUOUS
 70
0
 71
3
 72
9
 73
5
 74
0
 42
0.0000001
 43
0.0000001
 44
0.0000000001
 40
0.0
 40
0.0
 40
0.0
 40
0.0
 40
0.466870851
 40
1.0
 40
1.0
 40
1.0
 40
1.0
 10
-108.7222338657
 20
-26.3065510847
 30
0.0
 10
-108.7292450546
 20
-26.3102727488
 30
0.0
 10
-108.746296134
 20
-26.3146668759
 30
0.0
 10
-108.763458651
 20
-26.3121984845
 30
0.0
 10
-108.7722145747
 20
-26.3098544564
 30
0.0
  0
SPLINE
  5
33A
100
AcDbEntity
  8
0
100
AcDbSpline
 62
250
  6
CONTINUOUS
 70
0
 71
3
 72
9
 73
5
 74
0
 42
0.0000001
 43
0.0000001
 44
0.0000000001
 40
0.0
 40
0.0
 40
0.0
 40
0.0
 40
0.2245919549
 40
1.0
 40
1.0
 40
1.0
 40
1.0
 10
-108.7722145747
 20
-26.3098544564
 30
0.0
 10
-108.7761879248
 20
-26.3087907601
 30
0.0
 10
-108.7936105937
 20
-26.3030450056
 30
0.0
 10
-108.809758294
 20
-26.2939062147
 30
0.0
 10
-108.8215120383
 20
-26.2859361687
 30
0.0
  0
SPLINE
  5
33B
100
AcDbEntity
  8
0
100
AcDbSpline
 62
250
  6
CONTINUOUS
 70
0
 71
3
 72
9
 73
5
 74
0
 42
0.0000001
 43
0.0000001
 44
0.0000000001
 40
0.0
 40
0.0
 40
0.0
 40
0.0
 40
0.235363984
 40
1.0
 40
1.0
 40
1.0
 40
1.0
 10
-108.8215120383
 20
-26.2859361687
 30
0.0
 10
-108.824831581
 20
-26.2836852341
 30
0.0
 10
-108.8387013246
 20
-26.2737771156
 30
0.0
 10
-108.8516765733
 20
-26.2626478611
 30
0.0
 10
-108.8611457947
 20
-26.2536973817
 30
0.0
  0
SPLINE
  5
33C
100
AcDbEntity
  8
0
100
AcDbSpline
 62
250
  6
CONTINUOUS
 70
0
 71
3
 72
17
 73
13
 74
0
 42
0.0000001
 43
0.0000001
 44
0.0000000001
 40
0.0
 40
0.0
 40
0.0
 40
0.0
 40
0.0041509426
 40
0.0165131528
 40
0.0370394731
 40
0.0656738303
 40
0.147033967
 40
0.259883893
 40
0.4031301725
 40
0.5755840393
 40
0.7753335906
 40
1.0
 40
1.0
 40
1.0
 40
1.0
 10
-108.8611457947
 20
-26.3415638603
 30
0.0
 10
-108.8610242172
 20
-26.341563153
 30
0.0
 10
-108.8612413377
 20
-26.3407901078
 30
0.0
 10
-108.8609875952
 20
-26.3399838662
 30
0.0
 10
-108.8610948175
 20
-26.3380251079
 30
0.0
 10
-108.8609876946
 20
-26.3342971317
 30
0.0
 10
-108.8610257605
 20
-26.3277000543
 30
0.0
 10
-108.8609913214
 20
-26.3178494928
 30
0.0
 10
-108.8610126933
 20
-26.3052846155
 30
0.0
 10
-108.8610371632
 20
-26.2901918491
 30
0.0
 10
-108.8610841161
 20
-26.2727082659
 30
0.0
 10
-108.8611233693
 20
-26.2602777389
 30
0.0
 10
-108.8611457947
 20
-26.2536973817
 30
0.0
  0
SPLINE
  5
33D
100
AcDbEntity
  8
0
100
AcDbSpline
 62
250
  6
CONTINUOUS
 70
0
 71
3
 72
17
 73
13
 74
0
 42
0.0000001
 43
0.0000001
 44
0.0000000001
 40
0.0
 40
0.0
 40
0.0
 40
0.0
 40
0.2246664094
 40
0.4244159606
 40
0.5968698275
 40
0.740116107
 40
0.852966033
 40
0.9343261697
 40
0.9629605269
 40
0.9834868471
 40
0.9958490574
 40
1.0
 40
1.0
 40
1.0
 40
1.0
 10
-108.8611457947
 20
26.2536973817
 30
0.0
 10
-108.8611233693
 20
26.2602777389
 30
0.0
 10
-108.8610841161
 20
26.2727082659
 30
0.0
 10
-108.8610371632
 20
26.2901918491
 30
0.0
 10
-108.8610126933
 20
26.3052846155
 30
0.0
 10
-108.8609913214
 20
26.3178494928
 30
0.0
 10
-108.8610257605
 20
26.3277000543
 30
0.0
 10
-108.8609876946
 20
26.3342971317
 30
0.0
 10
-108.8610948175
 20
26.3380251079
 30
0.0
 10
-108.8609875952
 20
26.3399838662
 30
0.0
 10
-108.8612413377
 20
26.3407901078
 30
0.0
 10
-108.8610242172
 20
26.341563153
 30
0.0
 10
-108.8611457947
 20
26.3415638603
 30
0.0
  0
SPLINE
  5
33E
100
AcDbEntity
  8
ASSI
100
AcDbSpline
 62
7
  6
CONTINUOUS
 70
0
 71
3
 72
18
 73
14
 74
0
 42
0.0000001
 43
0.0000001
 44
0.0000000001
 40
0.0
 40
0.0
 40
0.0
 40
0.0
 40
0.1917663623
 40
0.3754478834
 40
0.544688632
 40
0.6936418121
 40
0.8171704681
 40
0.8680455164
 40
0.9110821829
 40
0.945929601
 40
0.9723599475
 40
0.9902702271
 40
1.0
 40
1.0
 40
1.0
 40
1.0
 10
-112.8101513816
 20
43.3404067067
 30
0.0
 10
-112.806979936
 20
43.4017747726
 30
0.0
 10
-112.8012821154
 20
43.5219510742
 30
0.0
 10
-112.7947356562
 20
43.6963719397
 30
0.0
 10
-112.7905907323
 20
43.8571467162
 30
0.0
 10
-112.7890491421
 20
43.9986861979
 30
0.0
 10
-112.7899533885
 20
44.1023211838
 30
0.0
 10
-112.7922908876
 20
44.1719491329
 30
0.0
 10
-112.7945449745
 20
44.2131817058
 30
0.0
 10
-112.7973940352
 20
44.2464118103
 30
0.0
 10
-112.8006743042
 20
44.2717893823
 30
0.0
 10
-112.8044291461
 20
44.288321408
 30
0.0
 10
-112.8077167685
 20
44.2972173933
 30
0.0
 10
-112.8101513816
 20
44.2991650838
 30
0.0
  0
SPLINE
  5
33F
100
AcDbEntity
  8
ASSI
100
AcDbSpline
 62
7
  6
CONTINUOUS
 70
0
 71
3
 72
18
 73
14
 74
0
 42
0.0000001
 43
0.0000001
 44
0.0000000001
 40
0.0
 40
0.0
 40
0.0
 40
0.0
 40
0.0097297729
 40
0.0276400525
 40
0.054070399
 40
0.0889178171
 40
0.1319544836
 40
0.1828295319
 40
0.306358188
 40
0.455311368
 40
0.6245521166
 40
0.8082336377
 40
1.0
 40
1.0
 40
1.0
 40
1.0
 10
-112.8101513816
 20
-44.2991650838
 30
0.0
 10
-112.8077167685
 20
-44.2972173933
 30
0.0
 10
-112.8044291461
 20
-44.288321408
 30
0.0
 10
-112.8006743042
 20
-44.2717893823
 30
0.0
 10
-112.7973940352
 20
-44.2464118103
 30
0.0
 10
-112.7945449745
 20
-44.2131817058
 30
0.0
 10
-112.7922908876
 20
-44.1719491329
 30
0.0
 10
-112.7899533885
 20
-44.1023211838
 30
0.0
 10
-112.7890491421
 20
-43.9986861979
 30
0.0
 10
-112.7905907323
 20
-43.8571467161
 30
0.0
 10
-112.7947356562
 20
-43.6963719397
 30
0.0
 10
-112.8012821154
 20
-43.5219510742
 30
0.0
 10
-112.806979936
 20
-43.4017747726
 30
0.0
 10
-112.8101513816
 20
-43.3404067067
 30
0.0
  0
SPLINE
  5
340
100
AcDbEntity
  8
ASSI
100
AcDbSpline
 62
250
  6
CONTINUOUS
 70
0
 71
3
 72
9
 73
5
 74
0
 42
0.0000001
 43
0.0000001
 44
0.0000000001
 40
0.0
 40
0.0
 40
0.0
 40
0.0
 40
0.5592896327
 40
1.0
 40
1.0
 40
1.0
 40
1.0
 10
-110.3854224432
 20
-26.9276792439
 30
0.0
 10
-110.3692203645
 20
-26.9561664283
 30
0.0
 10
-110.3391185553
 20
-27.006447894
 30
0.0
 10
-110.3063280523
 20
-27.0551202131
 30
0.0
 10
-110.2905309229
 20
-27.075548906
 30
0.0
  0
SPLINE
  5
341
100
AcDbEntity
  8
ASSI
100
AcDbSpline
 62
250
  6
CONTINUOUS
 70
0
 71
3
 72
10
 73
6
 74
0
 42
0.0000001
 43
0.0000001
 44
0.0000000001
 40
0.0
 40
0.0
 40
0.0
 40
0.0
 40
0.6949572477
 40
0.8908370455
 40
1.0
 40
1.0
 40
1.0
 40
1.0
 10
-110.2905309229
 20
-27.075548906
 30
0.0
 10
-110.2817764205
 20
-27.0868701427
 30
0.0
 10
-110.2697543389
 20
-27.1012491816
 30
0.0
 10
-110.2543077203
 20
-27.1142400811
 30
0.0
 10
-110.2472765036
 20
-27.1160657825
 30
0.0
 10
-110.2452887933
 20
-27.1150157961
 30
0.0
  0
SPLINE
  5
342
100
AcDbEntity
  8
ASSI
100
AcDbSpline
 62
250
  6
CONTINUOUS
 70
0
 71
3
 72
9
 73
5
 74
0
 42
0.0000001
 43
0.0000001
 44
0.0000000001
 40
0.0
 40
0.0
 40
0.0
 40
0.0
 40
0.5597111315
 40
1.0
 40
1.0
 40
1.0
 40
1.0
 10
-110.3854224432
 20
26.9276792439
 30
0.0
 10
-110.3691560303
 20
26.9562668312
 30
0.0
 10
-110.3389294271
 20
27.006669329
 30
0.0
 10
-110.3060412507
 20
27.0554808642
 30
0.0
 10
-110.2901938029
 20
27.0759332631
 30
0.0
  0
SPLINE
  5
343
100
AcDbEntity
  8
ASSI
100
AcDbSpline
 62
250
  6
CONTINUOUS
 70
0
 71
3
 72
10
 73
6
 74
0
 42
0.0000001
 43
0.0000001
 44
0.0000000001
 40
0.0
 40
0.0
 40
0.0
 40
0.0
 40
0.6949507496
 40
0.8908064837
 40
1.0
 40
1.0
 40
1.0
 40
1.0
 10
-110.2901938029
 20
27.0759332631
 30
0.0
 10
-110.2815022824
 20
27.0871503654
 30
0.0
 10
-110.2695475136
 20
27.1013796221
 30
0.0
 10
-110.2542369647
 20
27.1142585859
 30
0.0
 10
-110.2472562763
 20
27.1160647619
 30
0.0
 10
-110.2452887933
 20
27.1150157961
 30
0.0
  0
SPLINE
  5
344
100
AcDbEntity
  8
ASSI
100
AcDbSpline
 62
250
  6
CONTINUOUS
 70
0
 71
3
 72
9
 73
5
 74
0
 42
0.0000001
 43
0.0000001
 44
0.0000000001
 40
0.0
 40
0.0
 40
0.0
 40
0.0
 40
0.4668694843
 40
1.0
 40
1.0
 40
1.0
 40
1.0
 10
-108.7222338657
 20
26.3065510847
 30
0.0
 10
-108.7292450453
 20
26.3102727439
 30
0.0
 10
-108.7462961443
 20
26.3146669289
 30
0.0
 10
-108.763458685
 20
26.3121984543
 30
0.0
 10
-108.772214646
 20
26.3098544197
 30
0.0
  0
SPLINE
  5
345
100
AcDbEntity
  8
ASSI
100
AcDbSpline
 62
250
  6
CONTINUOUS
 70
0
 71
3
 72
9
 73
5
 74
0
 42
0.0000001
 43
0.0000001
 44
0.0000000001
 40
0.0
 40
0.0
 40
0.0
 40
0.0
 40
0.2245881552
 40
1.0
 40
1.0
 40
1.0
 40
1.0
 10
-108.772214646
 20
26.3098544197
 30
0.0
 10
-108.776188809
 20
26.3087905074
 30
0.0
 10
-108.7936152879
 20
26.3030432928
 30
0.0
 10
-108.8097662058
 20
26.2939017045
 30
0.0
 10
-108.8215222135
 20
26.2859292699
 30
0.0
  0
SPLINE
  5
346
100
AcDbEntity
  8
ASSI
100
AcDbSpline
 62
250
  6
CONTINUOUS
 70
0
 71
3
 72
9
 73
5
 74
0
 42
0.0000001
 43
0.0000001
 44
0.0000000001
 40
0.0
 40
0.0
 40
0.0
 40
0.0
 40
0.2353683529
 40
1.0
 40
1.0
 40
1.0
 40
1.0
 10
-108.8215222135
 20
26.2859292699
 30
0.0
 10
-108.8248409089
 20
26.2836786689
 30
0.0
 10
-108.8387069165
 20
26.2737723678
 30
0.0
 10
-108.851678901
 20
26.262645661
 30
0.0
 10
-108.8611457947
 20
26.2536973817
 30
0.0
  0
SPLINE
  5
347
100
AcDbEntity
  8
ASSI
100
AcDbSpline
 62
250
  6
CONTINUOUS
 70
0
 71
3
 72
9
 73
5
 74
0
 42
0.0000001
 43
0.0000001
 44
0.0000000001
 40
0.0
 40
0.0
 40
0.0
 40
0.0
 40
0.466870851
 40
1.0
 40
1.0
 40
1.0
 40
1.0
 10
-108.7222338657
 20
-26.3065510847
 30
0.0
 10
-108.7292450546
 20
-26.3102727488
 30
0.0
 10
-108.746296134
 20
-26.3146668759
 30
0.0
 10
-108.763458651
 20
-26.3121984845
 30
0.0
 10
-108.7722145747
 20
-26.3098544564
 30
0.0
  0
SPLINE
  5
348
100
AcDbEntity
  8
ASSI
100
AcDbSpline
 62
250
  6
CONTINUOUS
 70
0
 71
3
 72
9
 73
5
 74
0
 42
0.0000001
 43
0.0000001
 44
0.0000000001
 40
0.0
 40
0.0
 40
0.0
 40
0.0
 40
0.2245919549
 40
1.0
 40
1.0
 40
1.0
 40
1.0
 10
-108.7722145747
 20
-26.3098544564
 30
0.0
 10
-108.7761879248
 20
-26.3087907601
 30
0.0
 10
-108.7936105937
 20
-26.3030450056
 30
0.0
 10
-108.809758294
 20
-26.2939062147
 30
0.0
 10
-108.8215120383
 20
-26.2859361687
 30
0.0
  0
SPLINE
  5
349
100
AcDbEntity
  8
ASSI
100
AcDbSpline
 62
250
  6
CONTINUOUS
 70
0
 71
3
 72
9
 73
5
 74
0
 42
0.0000001
 43
0.0000001
 44
0.0000000001
 40
0.0
 40
0.0
 40
0.0
 40
0.0
 40
0.235363984
 40
1.0
 40
1.0
 40
1.0
 40
1.0
 10
-108.8215120383
 20
-26.2859361687
 30
0.0
 10
-108.824831581
 20
-26.2836852341
 30
0.0
 10
-108.8387013246
 20
-26.2737771156
 30
0.0
 10
-108.8516765733
 20
-26.2626478611
 30
0.0
 10
-108.8611457947
 20
-26.2536973817
 30
0.0
  0
SPLINE
  5
34A
100
AcDbEntity
  8
ASSI
100
AcDbSpline
 62
250
  6
CONTINUOUS
 70
0
 71
3
 72
17
 73
13
 74
0
 42
0.0000001
 43
0.0000001
 44
0.0000000001
 40
0.0
 40
0.0
 40
0.0
 40
0.0
 40
0.0041509426
 40
0.0165131528
 40
0.0370394731
 40
0.0656738303
 40
0.147033967
 40
0.259883893
 40
0.4031301725
 40
0.5755840393
 40
0.7753335906
 40
1.0
 40
1.0
 40
1.0
 40
1.0
 10
-108.8611457947
 20
-26.3415638603
 30
0.0
 10
-108.8610242172
 20
-26.341563153
 30
0.0
 10
-108.8612413377
 20
-26.3407901078
 30
0.0
 10
-108.8609875952
 20
-26.3399838662
 30
0.0
 10
-108.8610948175
 20
-26.3380251079
 30
0.0
 10
-108.8609876946
 20
-26.3342971317
 30
0.0
 10
-108.8610257605
 20
-26.3277000543
 30
0.0
 10
-108.8609913214
 20
-26.3178494928
 30
0.0
 10
-108.8610126933
 20
-26.3052846155
 30
0.0
 10
-108.8610371632
 20
-26.2901918491
 30
0.0
 10
-108.8610841161
 20
-26.2727082659
 30
0.0
 10
-108.8611233693
 20
-26.2602777389
 30
0.0
 10
-108.8611457947
 20
-26.2536973817
 30
0.0
  0
SPLINE
  5
34B
100
AcDbEntity
  8
ASSI
100
AcDbSpline
 62
7
  6
CONTINUOUS
 70
0
 71
3
 72
9
 73
5
 74
0
 42
0.0000001
 43
0.0000001
 44
0.0000000001
 40
0.0
 40
0.0
 40
0.0
 40
0.0
 40
0.2170599512
 40
1.0
 40
1.0
 40
1.0
 40
1.0
 10
-108.3111950269
 20
26.0463167932
 30
0.0
 10
-108.3111950269
 20
26.043082355
 30
0.0
 10
-108.3126809303
 20
26.0281701292
 30
0.0
 10
-108.3187351535
 20
26.0141711953
 30
0.0
 10
-108.323949553
 20
26.0037346394
 30
0.0
  0
SPLINE
  5
34C
100
AcDbEntity
  8
ASSI
100
AcDbSpline
 62
7
  6
CONTINUOUS
 70
0
 71
3
 72
9
 73
5
 74
0
 42
0.0000001
 43
0.0000001
 44
0.0000000001
 40
0.0
 40
0.0
 40
0.0
 40
0.0
 40
0.2349608649
 40
1.0
 40
1.0
 40
1.0
 40
1.0
 10
-108.323949553
 20
26.0037346394
 30
0.0
 10
-108.3250379712
 20
26.0015561839
 30
0.0
 10
-108.3298088217
 20
25.9923536154
 30
0.0
 10
-108.3350025826
 20
25.9833777348
 30
0.0
 10
-108.339053942
 20
25.9765617175
 30
0.0
  0
SPLINE
  5
34D
100
AcDbEntity
  8
ASSI
100
AcDbSpline
 62
7
  6
CONTINUOUS
 70
0
 71
3
 72
9
 73
5
 74
0
 42
0.0000001
 43
0.0000001
 44
0.0000000001
 40
0.0
 40
0.0
 40
0.0
 40
0.0
 40
0.5701306841
 40
1.0
 40
1.0
 40
1.0
 40
1.0
 10
-108.339053942
 20
-25.9765617175
 30
0.0
 10
-108.3317046006
 20
-25.9889262682
 30
0.0
 10
-108.319104554
 20
-26.0106367644
 30
0.0
 10
-108.3111950269
 20
-26.0354716084
 30
0.0
 10
-108.3111950269
 20
-26.0463167932
 30
0.0
  0
SPLINE
  5
34E
100
AcDbEntity
  8
ASSI
100
AcDbSpline
 62
250
  6
CONTINUOUS
 70
0
 71
3
 72
17
 73
13
 74
0
 42
0.0000001
 43
0.0000001
 44
0.0000000001
 40
0.0
 40
0.0
 40
0.0
 40
0.0
 40
0.2246664094
 40
0.4244159606
 40
0.5968698275
 40
0.740116107
 40
0.852966033
 40
0.9343261697
 40
0.9629605269
 40
0.9834868471
 40
0.9958490574
 40
1.0
 40
1.0
 40
1.0
 40
1.0
 10
-108.8611457947
 20
26.2536973817
 30
0.0
 10
-108.8611233693
 20
26.2602777389
 30
0.0
 10
-108.8610841161
 20
26.2727082659
 30
0.0
 10
-108.8610371632
 20
26.2901918491
 30
0.0
 10
-108.8610126933
 20
26.3052846155
 30
0.0
 10
-108.8609913214
 20
26.3178494928
 30
0.0
 10
-108.8610257605
 20
26.3277000543
 30
0.0
 10
-108.8609876946
 20
26.3342971317
 30
0.0
 10
-108.8610948175
 20
26.3380251079
 30
0.0
 10
-108.8609875952
 20
26.3399838662
 30
0.0
 10
-108.8612413377
 20
26.3407901078
 30
0.0
 10
-108.8610242172
 20
26.341563153
 30
0.0
 10
-108.8611457947
 20
26.3415638603
 30
0.0
  0
SPLINE
  5
34F
100
AcDbEntity
  8
0
100
AcDbSpline
 62
250
  6
CONTINUOUS
 70
0
 71
3
 72
15
 73
11
 74
0
 42
0.0000001
 43
0.0000001
 44
0.0000000001
 40
0.0
 40
0.0
 40
0.0
 40
0.0
 40
0.125
 40
0.25
 40
0.375
 40
0.5
 40
0.625
 40
0.75
 40
0.875
 40
1.0
 40
1.0
 40
1.0
 40
1.0
 10
-115.1703504857
 20
-31.8831153973
 30
0.0
 10
-115.1776325203
 20
-31.8336171526
 30
0.0
 10
-115.1910805106
 20
-31.7382254845
 30
0.0
 10
-115.2061398366
 20
-31.6072285864
 30
0.0
 10
-115.2158058811
 20
-31.4836646942
 30
0.0
 10
-115.2195469632
 20
-31.3650210067
 30
0.0
 10
-115.2165179149
 20
-31.2478921584
 30
0.0
 10
-115.2053763026
 20
-31.131603225
 30
0.0
 10
-115.1846184633
 20
-31.0166482526
 30
0.0
 10
-115.1636904091
 20
-30.9413665979
 30
0.0
 10
-115.1503480616
 20
-30.9044355376
 30
0.0
  0
SPLINE
  5
350
100
AcDbEntity
  8
0
100
AcDbSpline
 62
250
  6
CONTINUOUS
 70
0
 71
3
 72
19
 73
15
 74
0
 42
0.0000001
 43
0.0000001
 44
0.0000000001
 40
0.0
 40
0.0
 40
0.0
 40
0.0
 40
0.1
 40
0.2
 40
0.25
 40
0.3
 40
0.4
 40
0.5
 40
0.6
 40
0.7
 40
0.75
 40
0.8
 40
0.9
 40
1.0
 40
1.0
 40
1.0
 40
1.0
 10
-114.6424756736
 20
-30.9665924606
 30
0.0
 10
-114.6539613135
 20
-30.9667667467
 30
0.0
 10
-114.6762194777
 20
-30.9688102184
 30
0.0
 10
-114.7039576056
 20
-30.975280371
 30
0.0
 10
-114.7256236916
 20
-30.9827558534
 30
0.0
 10
-114.7469650307
 20
-30.9918071029
 30
0.0
 10
-114.7724121321
 20
-31.0058754861
 30
0.0
 10
-114.8009639271
 20
-31.0277054216
 30
0.0
 10
-114.8257067614
 20
-31.0542444537
 30
0.0
 10
-114.8426397917
 20
-31.0792424002
 30
0.0
 10
-114.8541594951
 20
-31.1009230565
 30
0.0
 10
-114.8641657012
 20
-31.1233889116
 30
0.0
 10
-114.8739128863
 20
-31.1530236155
 30
0.0
 10
-114.8785729184
 20
-31.177681029
 30
0.0
 10
-114.8800750899
 20
-31.190626605
 30
0.0
  0
SPLINE
  5
351
100
AcDbEntity
  8
0
100
AcDbSpline
 62
250
  6
CONTINUOUS
 70
0
 71
3
 72
17
 73
13
 74
0
 42
0.0000001
 43
0.0000001
 44
0.0000000001
 40
0.0
 40
0.0
 40
0.0
 40
0.0
 40
0.1
 40
0.2
 40
0.3
 40
0.4
 40
0.5
 40
0.6
 40
0.7
 40
0.8
 40
0.9
 40
1.0
 40
1.0
 40
1.0
 40
1.0
 10
-113.8688365964
 20
-31.054269225
 30
0.0
 10
-113.8789095494
 20
-31.0580511068
 30
0.0
 10
-113.8980681752
 20
-31.0664405659
 30
0.0
 10
-113.9253198607
 20
-31.0817905867
 30
0.0
 10
-113.9505597101
 20
-31.0997035771
 30
0.0
 10
-113.9732346104
 20
-31.1198876102
 30
0.0
 10
-113.9928538773
 20
-31.1420910866
 30
0.0
 10
-114.0091182297
 20
-31.1661803791
 30
0.0
 10
-114.0217268824
 20
-31.192611819
 30
0.0
 10
-114.0303129794
 20
-31.2203218429
 30
0.0
 10
-114.0351421841
 20
-31.2479369908
 30
0.0
 10
-114.0361959434
 20
-31.2661830451
 30
0.0
 10
-114.0361959434
 20
-31.2755061485
 30
0.0
  0
SPLINE
  5
352
100
AcDbEntity
  8
0
100
AcDbSpline
 62
250
  6
CONTINUOUS
 70
0
 71
3
 72
12
 73
8
 74
0
 42
0.0000001
 43
0.0000001
 44
0.0000000001
 40
0.0
 40
0.0
 40
0.0
 40
0.0
 40
0.1666666667
 40
0.3333333333
 40
0.5
 40
0.6666666667
 40
1.0
 40
1.0
 40
1.0
 40
1.0
 10
-113.2927012809
 20
-30.8808429347
 30
0.0
 10
-113.3276671901
 20
-30.890895774
 30
0.0
 10
-113.3965697528
 20
-30.9110707732
 30
0.0
 10
-113.4970079761
 20
-30.9406750406
 30
0.0
 10
-113.5948993229
 20
-30.9685711641
 30
0.0
 10
-113.7217264933
 20
-31.0043488657
 30
0.0
 10
-113.8117851385
 20
-31.0328325392
 30
0.0
 10
-113.8688764443
 20
-31.0542842103
 30
0.0
  0
SPLINE
  5
353
100
AcDbEntity
  8
0
100
AcDbSpline
 62
250
  6
CONTINUOUS
 70
0
 71
3
 72
10
 73
6
 74
0
 42
0.0000001
 43
0.0000001
 44
0.0000000001
 40
0.0
 40
0.0
 40
0.0
 40
0.0
 40
0.3333333333
 40
0.6666666667
 40
1.0
 40
1.0
 40
1.0
 40
1.0
 10
-113.8068682472
 20
-30.6349473604
 30
0.0
 10
-113.7477444571
 20
-30.6188395885
 30
0.0
 10
-113.6306976612
 20
-30.5878011252
 30
0.0
 10
-113.4592516641
 20
-30.5432449347
 30
0.0
 10
-113.347642767
 20
-30.5143084016
 30
0.0
 10
-113.2927012809
 20
-30.4993864496
 30
0.0
  0
SPLINE
  5
354
100
AcDbEntity
  8
0
100
AcDbSpline
 62
250
  6
CONTINUOUS
 70
0
 71
3
 72
12
 73
8
 74
0
 42
0.0000001
 43
0.0000001
 44
0.0000000001
 40
0.0
 40
0.0
 40
0.0
 40
0.0
 40
0.3333333333
 40
0.5
 40
0.6666666667
 40
0.8333333333
 40
1.0
 40
1.0
 40
1.0
 40
1.0
 10
-114.8800747001
 20
-31.1906232473
 30
0.0
 10
-114.884026935
 20
-31.224676929
 30
0.0
 10
-114.8873340441
 20
-31.275977551
 30
0.0
 10
-114.8865851753
 20
-31.3444973221
 30
0.0
 10
-114.8834435912
 20
-31.3961583984
 30
0.0
 10
-114.877468776
 20
-31.4485072678
 30
0.0
 10
-114.8719081416
 20
-31.4835975113
 30
0.0
 10
-114.8688894502
 20
-31.5012884969
 30
0.0
  0
SPLINE
  5
355
100
AcDbEntity
  8
0
100
AcDbSpline
 62
250
  6
CONTINUOUS
 70
0
 71
3
 72
17
 73
13
 74
0
 42
0.0000001
 43
0.0000001
 44
0.0000000001
 40
0.0
 40
0.0
 40
0.0
 40
0.0
 40
0.1428571429
 40
0.2857142857
 40
0.3571428571
 40
0.4285714286
 40
0.5
 40
0.5714285714
 40
0.6428571429
 40
0.7142857143
 40
0.8571428571
 40
1.0
 40
1.0
 40
1.0
 40
1.0
 10
-114.3473447627
 20
-31.2746513441
 30
0.0
 10
-114.3479543121
 20
-31.2473610114
 30
0.0
 10
-114.3526579488
 20
-31.1964647999
 30
0.0
 10
-114.3659700841
 20
-31.1436026237
 30
0.0
 10
-114.3820689535
 20
-31.1049521482
 30
0.0
 10
-114.3970927299
 20
-31.0783276454
 30
0.0
 10
-114.4161214411
 20
-31.0535031212
 30
0.0
 10
-114.4391560079
 20
-31.0317096845
 30
0.0
 10
-114.4657065745
 20
-31.0127927449
 30
0.0
 10
-114.5054885665
 20
-30.9914372711
 30
0.0
 10
-114.5620333401
 20
-30.9723847632
 30
0.0
 10
-114.6144926121
 20
-30.966165248
 30
0.0
 10
-114.6425278224
 20
-30.9665932672
 30
0.0
  0
SPLINE
  5
356
100
AcDbEntity
  8
0
100
AcDbSpline
 62
250
  6
CONTINUOUS
 70
0
 71
3
 72
16
 73
12
 74
0
 42
0.0000001
 43
0.0000001
 44
0.0000000001
 40
0.0
 40
0.0
 40
0.0
 40
0.0
 40
0.1111111111
 40
0.2222222222
 40
0.3333333333
 40
0.4444444444
 40
0.5555555556
 40
0.6666666667
 40
0.7777777778
 40
0.8888888889
 40
1.0
 40
1.0
 40
1.0
 40
1.0
 10
-114.1795324027
 20
-30.8635473914
 30
0.0
 10
-114.1735447796
 20
-30.8485314086
 30
0.0
 10
-114.1584184503
 20
-30.8204272606
 30
0.0
 10
-114.1268705678
 20
-30.7827344073
 30
0.0
 10
-114.0901722133
 20
-30.75124189
 30
0.0
 10
-114.0499136773
 20
-30.7246219224
 30
0.0
 10
-114.0083144425
 20
-30.7025480029
 30
0.0
 10
-113.9643393559
 20
-30.6833101795
 30
0.0
 10
-113.9171534157
 20
-30.6661413042
 30
0.0
 10
-113.8654884321
 20
-30.6506199069
 30
0.0
 10
-113.8269441329
 20
-30.6404168643
 30
0.0
 10
-113.8068682471
 20
-30.6349473606
 30
0.0
  0
SPLINE
  5
357
100
AcDbEntity
  8
0
100
AcDbSpline
 62
250
  6
CONTINUOUS
 70
0
 71
3
 72
30
 73
26
 74
0
 42
0.0000001
 43
0.0000001
 44
0.0000000001
 40
0.0
 40
0.0
 40
0.0
 40
0.0
 40
0.0526315789
 40
0.1052631579
 40
0.1578947368
 40
0.2105263158
 40
0.2631578947
 40
0.3157894737
 40
0.3684210526
 40
0.4210526316
 40
0.4736842105
 40
0.5263157895
 40
0.5789473684
 40
0.6315789474
 40
0.6842105263
 40
0.7368421053
 40
0.7894736842
 40
0.8157894737
 40
0.8421052632
 40
0.8684210526
 40
0.8947368421
 40
0.9210526316
 40
0.9473684211
 40
0.9736842105
 40
1.0
 40
1.0
 40
1.0
 40
1.0
 10
-115.1503480616
 20
-30.9044355375
 30
0.0
 10
-115.1417514053
 20
-30.8806058159
 30
0.0
 10
-115.1175649132
 20
-30.8324485029
 30
0.0
 10
-115.0572517764
 20
-30.753681739
 30
0.0
 10
-114.9777377412
 20
-30.6850456168
 30
0.0
 10
-114.8834056951
 20
-30.633692314
 30
0.0
 10
-114.7884441553
 20
-30.6051801234
 30
0.0
 10
-114.6978984784
 20
-30.5939997879
 30
0.0
 10
-114.6175992726
 20
-30.5944644199
 30
0.0
 10
-114.5466199457
 20
-30.6036514865
 30
0.0
 10
-114.4843946791
 20
-30.6193472976
 30
0.0
 10
-114.4294677905
 20
-30.6399783574
 30
0.0
 10
-114.3822105189
 20
-30.6635713771
 30
0.0
 10
-114.3415980163
 20
-30.6891102187
 30
0.0
 10
-114.3073347099
 20
-30.7156677468
 30
0.0
 10
-114.2784861046
 20
-30.7426188293
 30
0.0
 10
-114.2579653723
 20
-30.764413301
 30
0.0
 10
-114.2431772312
 20
-30.781141708
 30
0.0
 10
-114.2327640811
 20
-30.7933330409
 30
0.0
 10
-114.2230152009
 20
-30.8050577851
 30
0.0
 10
-114.2137568003
 20
-30.8163932781
 30
0.0
 10
-114.2051931131
 20
-30.8280235048
 30
0.0
 10
-114.198176984
 20
-30.8397278258
 30
0.0
 10
-114.1931468266
 20
-30.8514940438
 30
0.0
 10
-114.1912789666
 20
-30.859516367
 30
0.0
 10
-114.1907588345
 20
-30.8635473914
 30
0.0
  0
ELLIPSE
  5
358
100
AcDbEntity
  8
0
100
AcDbEllipse
 62
7
  6
CONTINUOUS
 10
-108.5111950269
 20
-26.079798695
 30
0.0
 11
0.1417119467
 21
0.1422961243
 31
0.0
 40
0.9918061237
 41
-0.2491986107
 42
0.7350951877
  0
ELLIPSE
  5
359
100
AcDbEntity
  8
0
100
AcDbEllipse
 62
7
  6
CONTINUOUS
 10
-111.5878861958
 20
-43.3
 30
0.0
 11
1.2233088312
 21
0.0
 31
0.0
 40
0.7998095528
 41
-3.1415926536
 42
-3.1002827401
  0
ELLIPSE
  5
35A
100
AcDbEntity
  8
0
100
AcDbEllipse
 62
7
  6
CONTINUOUS
 10
-111.5878861958
 20
43.3
 30
0.0
 11
1.2233088312
 21
0.0
 31
0.0
 40
0.7998095528
 41
3.1002827401
 42
3.1415926536
  0
ELLIPSE
  5
35B
100
AcDbEntity
  8
0
100
AcDbEllipse
 62
7
  6
CONTINUOUS
 10
-108.5111950269
 20
26.079798695
 30
0.0
 11
-0.1417119467
 21
0.1422961243
 31
0.0
 40
0.9918061237
 41
-3.8766878413
 42
-2.8923940429
  0
ELLIPSE
  5
35C
100
AcDbEntity
  8
ASSI
100
AcDbEllipse
 62
7
  6
CONTINUOUS
 10
-108.5111950269
 20
26.079798695
 30
0.0
 11
-0.1417119467
 21
0.1422961243
 31
0.0
 40
0.9918061237
 41
-3.8766878413
 42
-2.8923940429
  0
ELLIPSE
  5
35D
100
AcDbEntity
  8
ASSI
100
AcDbEllipse
 62
7
  6
CONTINUOUS
 10
-108.5111950269
 20
-26.079798695
 30
0.0
 11
0.1417119467
 21
0.1422961243
 31
0.0
 40
0.9918061237
 41
-0.2491986107
 42
0.7350951877
  0
ELLIPSE
  5
35E
100
AcDbEntity
  8
ASSI
100
AcDbEllipse
 62
7
  6
CONTINUOUS
 10
-111.5878861958
 20
-43.3
 30
0.0
 11
1.2233088312
 21
0.0
 31
0.0
 40
0.7998095528
 41
-3.1415926536
 42
-3.1002827401
  0
ELLIPSE
  5
35F
100
AcDbEntity
  8
ASSI
100
AcDbEllipse
 62
7
  6
CONTINUOUS
 10
-111.5878861958
 20
43.3
 30
0.0
 11
1.2233088312
 21
0.0
 31
0.0
 40
0.7998095528
 41
3.1002827401
 42
3.1415926536
  0
ENDSEC
  0
SECTION
  2
OBJECTS
  0
DICTIONARY
  5
C
100
AcDbDictionary
280
0
281
1
  3
ACAD_GROUP
350
D
  3
ACAD_MLINESTYLE
350
17
  3
ACAD_LAYOUT
350
1A
  3
ACAD_PLOTSETTINGS
350
19
  3
ACAD_PLOTSTYLENAME
350
E
  0
DICTIONARY
  5
D
102
{ACAD_REACTORS
330
C
102
}
100
AcDbDictionary
280
0
281
1
  0
ACDBDICTIONARYWDFLT
  5
E
102
{ACAD_REACTORS
330
C
102
}
100
AcDbDictionary
281
1
  3
Normal
350
F
100
AcDbDictionaryWithDefault
340
F
  0
DICTIONARY
  5
17
102
{ACAD_REACTORS
330
C
102
}
100
AcDbDictionary
280
0
281
1
  3
Standard
350
18
  0
DICTIONARY
  5
19
102
{ACAD_REACTORS
330
C
102
}
100
AcDbDictionary
281
1
  0
DICTIONARY
  5
1A
102
{ACAD_REACTORS
330
C
102
}
100
AcDbDictionary
281
1
  3
Model
350
360
  3
Layout1
350
361
  0
ACDBPLACEHOLDER
  5
F
102
{ACAD_REACTORS
330
E
102
}
  0
MLINESTYLE
  5
18
102
{ACAD_REACTORS
330
17
102
}
100
AcDbMlineStyle
  2
STANDARD
 70
0
  3

 62
256
 51
90.0
 52
90.0
 71
2
 49
0.5
 62
256
  6
BYLAYER
 49
-0.5
 62
256
  6
BYLAYER
  0
LAYOUT
  5
360
102
{ACAD_REACTORS
330
1A
102
}
100
AcDbPlotSettings
  1

  2
none_device
  4
ISO_A4_(297.00_x_210.00_MM)
  6

 40
0.0
 41
0.0
 42
0.0
 43
0.0
 44
297.0
 45
210.0
 46
0.0
 47
0.0
 48
0.0
 49
0.0
140
0.0
141
0.0
142
1.0
143
1.0
 70
1024
 72
1
 73
0
 74
0
  7

 75
0
147
1.0
148
0.0
149
0.0
100
AcDbLayout
  1
Model
 70
0
 71
0
 10
0.0
 20
0.0
 11
297.0
 21
210.0
 12
0.0
 22
0.0
 32
0.0
 14
0.0
 24
0.0
 34
0.0
 15
0.0
 25
0.0
 35
0.0
146
0.0
 13
0.0
 23
0.0
 33
0.0
 16
1.0
 26
0.0
 36
0.0
 17
0.0
 27
1.0
 37
0.0
 76
0
330
21D
345
0
346
0
  0
LAYOUT
  5
361
102
{ACAD_REACTORS
330
1A
102
}
100
AcDbPlotSettings
  1

  2
none_device
  4
ISO_A4_(297.00_x_210.00_MM)
  6

 40
0.0
 41
0.0
 42
0.0
 43
0.0
 44
297.0
 45
210.0
 46
0.0
 47
0.0
 48
0.0
 49
0.0
140
0.0
141
0.0
142
1.0
143
1.0
 70
0
 72
1
 73
0
 74
0
  7

 75
0
147
1.0
148
0.0
149
0.0
100
AcDbLayout
  1
Layout1
 70
0
 71
1
 10
0.0
 20
0.0
 11
297.0
 21
210.0
 12
0.0
 22
0.0
 32
0.0
 14
0.0
 24
0.0
 34
0.0
 15
0.0
 25
0.0
 35
0.0
146
0.0
 13
0.0
 23
0.0
 33
0.0
 16
1.0
 26
0.0
 36
0.0
 17
0.0
 27
1.0
 37
0.0
 76
0
330
21E
345
0
346
0
  0
ENDSEC
  0
EOF
