  0
SECTION
  2
HEADER
  9
$ACADVER
  1
AC1021
  9
$DWGCODEPAGE
  3
ANSI_1252
  9
$EXTMAX
 10
297.0
 20
210.0
 30
0.0
  9
$EXTMIN
 10
0.0
 20
0.0
 30
0.0
  9
$LIMMIN
 10
0.0
 20
0.0
  9
$LIMMAX
 10
297.0
 20
210.0
  9
$VIEWCTR
 10
148.5
 20
105.0
  9
$VIEWSIZE
 40
210.0
  9
$CLAYER
  8
0
  9
$LTSCALE
 40
16.335
  9
$CELTYPE
  6
BYLAYER
  9
$DIMSCALE
 40
1.0
  9
$DIMASZ
 40
3.0
  9
$DIMEXO
 40
0.5
  9
$DIMDLI
 40
11.286
  9
$DIMEXE
 40
1.5
  9
$DIMCEN
 40
2.673
  9
$DIMLFAC
 40
1.0
  9
$DIMBLK
  1
_FILLED
  9
$DIMALT
 70
0
  9
$DIMALTF
 40
25.4
  9
$DIMTXT
 40
3.0
  9
$DIMTOL
 70
1
  9
$DIMLIM
 70
0
  9
$DIMTFAC
 40
1.0
  9
$DIMTP
 40
0.01
  9
$DIMTM
 40
0.01
  9
$DIMGAP
 40
0.625
  9
$DIMDSEP
 70
44
  9
$AUNITS
 70
0
  9
$PDMODE
 70
3
  9
$PDSIZE
 40
3.0
  9
$HANDSEED
  5
41D
  9
$TILEMODE
 70
1
  9
$MEASUREMENT
 70
1
  9
$INSUNITS
 70
4
  0
ENDSEC
  0
SECTION
  2
CLASSES
  0
CLASS
  1
ACDBDICTIONARYWDFLT
  2
AcDbDictionaryWithDefault
  3
AutoCAD 2000
 90
0
 91
1
280
0
281
0
  0
CLASS
  1
ACDBPLACEHOLDER
  2
AcDbPlaceHolder
  3
AutoCAD 2000
 90
0
 91
1
280
0
281
0
  0
CLASS
  1
LAYOUT
  2
AcDbLayout
  3
AutoCAD 2000
 90
0
 91
0
280
0
281
0
  0
ENDSEC
  0
SECTION
  2
TABLES
  0
TABLE
  2
VPORT
  5
8
100
AcDbSymbolTable
 70
2
  0
VPORT
  5
1F4
100
AcDbSymbolTableRecord
100
AcDbViewportTableRecord
  2
*ACTIVE
 70
0
 10
0.0
 20
0.0
 11
1.0
 21
1.0
 12
148.5
 22
105.0
 13
0.0
 23
0.0
 14
1.0
 24
1.0
 15
0.0
 25
0.0
 16
0.0
 26
0.0
 36
1.0
 17
0.0
 27
0.0
 37
0.0
 40
210.0
 41
1.4142857143
 42
50.0
 43
0.0
 44
0.0
 50
0.0
 51
0.0
 71
0
 72
100
 73
1
 74
1
 75
0
 76
0
 77
0
 78
0
  0
ENDTAB
  0
TABLE
  2
LTYPE
  5
5
100
AcDbSymbolTable
 70
6
  0
LTYPE
  5
14
100
AcDbSymbolTableRecord
100
AcDbLinetypeTableRecord
  2
BYBLOCK
 70
0
  3

 72
65
 73
0
 40
0.0
  0
LTYPE
  5
15
100
AcDbSymbolTableRecord
100
AcDbLinetypeTableRecord
  2
BYLAYER
 70
0
  3

 72
65
 73
0
 40
0.0
  0
LTYPE
  5
16
100
AcDbSymbolTableRecord
100
AcDbLinetypeTableRecord
  2
CONTINUOUS
 70
64
  3
Solid line
 72
65
 73
0
 40
0.0
  0
LTYPE
  5
1F5
100
AcDbSymbolTableRecord
100
AcDbLinetypeTableRecord
  2
CENTER
 70
64
  3
____ _ ____ _ ____ _ ____ _ ____ _ ____ _ ____
 72
65
 73
4
 40
0.6
 49
0.375
 74
0
 49
-0.075
 74
0
 49
0.075
 74
0
 49
-0.075
 74
0
  0
LTYPE
  5
1F6
100
AcDbSymbolTableRecord
100
AcDbLinetypeTableRecord
  2
HIDDEN
 70
64
  3
- - - - - - - - - - - - - - - - - - - -
 72
65
 73
2
 40
0.2
 49
0.1
 74
0
 49
-0.1
 74
0
  0
LTYPE
  5
1F7
100
AcDbSymbolTableRecord
100
AcDbLinetypeTableRecord
  2
PHANTOM
 70
64
  3
_____ _ _ _____ _ _ _____ _ _ _____
 72
65
 73
6
 40
0.8
 49
0.45
 74
0
 49
-0.05
 74
0
 49
0.1
 74
0
 49
-0.05
 74
0
 49
0.1
 74
0
 49
-0.05
 74
0
  0
LTYPE
  5
1F8
100
AcDbSymbolTableRecord
100
AcDbLinetypeTableRecord
  2
DOT
 70
64
  3
. . . . . . . . . . . . . . . . . . . .
 72
65
 73
2
 40
0.2
 49
0.1
 74
0
 49
-0.1
 74
0
  0
LTYPE
  5
1F9
100
AcDbSymbolTableRecord
100
AcDbLinetypeTableRecord
  2
DASHED
 70
64
  3
- - - - - - - - - - - - - - - - - - - -
 72
65
 73
2
 40
0.2
 49
0.1
 74
0
 49
-0.1
 74
0
  0
ENDTAB
  0
TABLE
  2
LAYER
  5
2
100
AcDbSymbolTable
 70
36
  0
LAYER
  5
10
100
AcDbSymbolTableRecord
100
AcDbLayerTableRecord
  2
0
 70
0
 62
7
  6
CONTINUOUS
370
-3
390
F
  0
LAYER
  5
1FA
100
AcDbSymbolTableRecord
100
AcDbLayerTableRecord
  2
DEFAULT_1
 70
0
 62
7
  6
CENTER
370
-3
390
F
  0
LAYER
  5
1FB
100
AcDbSymbolTableRecord
100
AcDbLayerTableRecord
  2
DEFAULT_2
 70
0
 62
7
  6
HIDDEN
370
-3
390
F
  0
LAYER
  5
1FC
100
AcDbSymbolTableRecord
100
AcDbLayerTableRecord
  2
DEFAULT_3
 70
0
 62
7
  6
PHANTOM
370
-3
390
F
  0
LAYER
  5
1FD
100
AcDbSymbolTableRecord
100
AcDbLayerTableRecord
  2
ASSI
 70
0
 62
7
  6
CONTINUOUS
370
-3
390
F
  0
LAYER
  5
1FE
100
AcDbSymbolTableRecord
100
AcDbLayerTableRecord
  2
COORDINATE
 70
0
 62
7
  6
CONTINUOUS
370
-3
390
F
  0
LAYER
  5
1FF
100
AcDbSymbolTableRecord
100
AcDbLayerTableRecord
  2
COORD_ORIGINE
 70
0
 62
7
  6
CONTINUOUS
370
-3
390
F
  0
LAYER
  5
200
100
AcDbSymbolTableRecord
100
AcDbLayerTableRecord
  2
COPY_PUBLISH
 70
0
 62
7
  6
CONTINUOUS
370
-3
390
F
  0
LAYER
  5
201
100
AcDbSymbolTableRecord
100
AcDbLayerTableRecord
  2
COSMETIC
 70
0
 62
7
  6
CONTINUOUS
370
-3
390
F
  0
LAYER
  5
202
100
AcDbSymbolTableRecord
100
AcDbLayerTableRecord
  2
COSMETICI
 70
0
 62
7
  6
CONTINUOUS
370
-3
390
F
  0
LAYER
  5
203
100
AcDbSymbolTableRecord
100
AcDbLayerTableRecord
  2
CURVE
 70
0
 62
7
  6
CONTINUOUS
370
-3
390
F
  0
LAYER
  5
204
100
AcDbSymbolTableRecord
100
AcDbLayerTableRecord
  2
DRAFT
 70
0
 62
7
  6
CONTINUOUS
370
-3
390
F
  0
LAYER
  5
205
100
AcDbSymbolTableRecord
100
AcDbLayerTableRecord
  2
IMPORT_IGES
 70
0
 62
7
  6
CONTINUOUS
370
-3
390
F
  0
LAYER
  5
206
100
AcDbSymbolTableRecord
100
AcDbLayerTableRecord
  2
INTFCLR_2
 70
0
 62
7
  6
CONTINUOUS
370
-3
390
F
  0
LAYER
  5
207
100
AcDbSymbolTableRecord
100
AcDbLayerTableRecord
  2
INTF_1
 70
0
 62
7
  6
CONTINUOUS
370
-3
390
F
  0
LAYER
  5
208
100
AcDbSymbolTableRecord
100
AcDbLayerTableRecord
  2
INTF_21
 70
0
 62
7
  6
CONTINUOUS
370
-3
390
F
  0
LAYER
  5
209
100
AcDbSymbolTableRecord
100
AcDbLayerTableRecord
  2
INTF_7
 70
0
 62
7
  6
CONTINUOUS
370
-3
390
F
  0
LAYER
  5
20A
100
AcDbSymbolTableRecord
100
AcDbLayerTableRecord
  2
INTF_CYAN
 70
0
 62
7
  6
CONTINUOUS
370
-3
390
F
  0
LAYER
  5
20B
100
AcDbSymbolTableRecord
100
AcDbLayerTableRecord
  2
LINEA_CHIUSURA
 70
0
 62
7
  6
CONTINUOUS
370
-3
390
F
  0
LAYER
  5
20C
100
AcDbSymbolTableRecord
100
AcDbLayerTableRecord
  2
NOTE
 70
0
 62
7
  6
CONTINUOUS
370
-3
390
F
  0
LAYER
  5
20D
100
AcDbSymbolTableRecord
100
AcDbLayerTableRecord
  2
PIANI
 70
0
 62
7
  6
CONTINUOUS
370
-3
390
F
  0
LAYER
  5
20E
100
AcDbSymbolTableRecord
100
AcDbLayerTableRecord
  2
PIANI_ORIGINE
 70
0
 62
7
  6
CONTINUOUS
370
-3
390
F
  0
LAYER
  5
20F
100
AcDbSymbolTableRecord
100
AcDbLayerTableRecord
  2
PIANI_RIFERIMENTO
 70
0
 62
7
  6
CONTINUOUS
370
-3
390
F
  0
LAYER
  5
210
100
AcDbSymbolTableRecord
100
AcDbLayerTableRecord
  2
PUNTI
 70
0
 62
7
  6
CONTINUOUS
370
-3
390
F
  0
LAYER
  5
211
100
AcDbSymbolTableRecord
100
AcDbLayerTableRecord
  2
RACCORDO
 70
0
 62
7
  6
CONTINUOUS
370
-3
390
F
  0
LAYER
  5
212
100
AcDbSymbolTableRecord
100
AcDbLayerTableRecord
  2
RGB__255__255__255__
 70
0
 62
7
  6
CONTINUOUS
370
-3
390
F
  0
LAYER
  5
213
100
AcDbSymbolTableRecord
100
AcDbLayerTableRecord
  2
RGB____0____0____0__
 70
0
 62
7
  6
CONTINUOUS
370
-3
390
F
  0
LAYER
  5
214
100
AcDbSymbolTableRecord
100
AcDbLayerTableRecord
  2
SIMBOLI
 70
0
 62
7
  6
CONTINUOUS
370
-3
390
F
  0
LAYER
  5
215
100
AcDbSymbolTableRecord
100
AcDbLayerTableRecord
  2
SMUSSO
 70
0
 62
7
  6
CONTINUOUS
370
-3
390
F
  0
LAYER
  5
216
100
AcDbSymbolTableRecord
100
AcDbLayerTableRecord
  2
SNAPLINE
 70
0
 62
7
  6
CONTINUOUS
370
-3
390
F
  0
LAYER
  5
217
100
AcDbSymbolTableRecord
100
AcDbLayerTableRecord
  2
SUPERFICI
 70
0
 62
7
  6
CONTINUOUS
370
-3
390
F
  0
LAYER
  5
218
100
AcDbSymbolTableRecord
100
AcDbLayerTableRecord
  2
TRASH
 70
0
 62
7
  6
CONTINUOUS
370
-3
390
F
  0
LAYER
  5
219
100
AcDbSymbolTableRecord
100
AcDbLayerTableRecord
  2
XSEC_DATUMS
 70
0
 62
7
  6
CONTINUOUS
370
-3
390
F
  0
ENDTAB
  0
TABLE
  2
STYLE
  5
3
100
AcDbSymbolTable
 70
1
  0
STYLE
  5
11
100
AcDbSymbolTableRecord
100
AcDbTextStyleTableRecord
  2
STANDARD
 70
0
 40
0.0
 41
0.8
 50
0.0
 71
0
 42
0.2
  3
txt
  4

  0
STYLE
  5
21A
100
AcDbSymbolTableRecord
100
AcDbTextStyleTableRecord
  2
TEXTSTYLE_1
 70
0
 40
0.0
 41
0.8
 50
0.0
 71
0
 42
0.2
  3
gdt
  4

  0
ENDTAB
  0
TABLE
  2
VIEW
  5
6
100
AcDbSymbolTable
 70
0
  0
ENDTAB
  0
TABLE
  2
UCS
  5
7
100
AcDbSymbolTable
 70
0
  0
ENDTAB
  0
TABLE
  2
APPID
  5
9
100
AcDbSymbolTable
 70
1
  0
APPID
  5
21B
100
AcDbSymbolTableRecord
100
AcDbRegAppTableRecord
  2
ACAD
 70
0
  0
ENDTAB
  0
TABLE
  2
BLOCK_RECORD
  5
1
100
AcDbSymbolTable
 70
0
  0
BLOCK_RECORD
  5
21C
100
AcDbSymbolTableRecord
100
AcDbBlockTableRecord
  2
*Model_Space
  0
BLOCK_RECORD
  5
21D
100
AcDbSymbolTableRecord
100
AcDbBlockTableRecord
  2
*Paper_Space
  0
BLOCK_RECORD
  5
21E
100
AcDbSymbolTableRecord
100
AcDbBlockTableRecord
  2
_FILLED
  0
BLOCK_RECORD
  5
21F
100
AcDbSymbolTableRecord
100
AcDbBlockTableRecord
  2
*D0
  0
BLOCK_RECORD
  5
220
100
AcDbSymbolTableRecord
100
AcDbBlockTableRecord
  2
*D1
  0
BLOCK_RECORD
  5
221
100
AcDbSymbolTableRecord
100
AcDbBlockTableRecord
  2
*D2
  0
BLOCK_RECORD
  5
222
100
AcDbSymbolTableRecord
100
AcDbBlockTableRecord
  2
*D3
  0
ENDTAB
  0
TABLE
  2
DIMSTYLE
  5
A
100
AcDbSymbolTable
 70
1
100
AcDbDimStyleTable
 71
0
  0
DIMSTYLE
105
223
100
AcDbSymbolTableRecord
100
AcDbDimStyleTableRecord
  2
STANDARD
 70
0
  3

  4

 40
1.0
 41
3.0
 42
0.5
 43
0.38
 44
1.5
 45
0.0
 46
0.0
 47
0.01
 48
0.01
140
3.0
141
0.09
142
0.0
143
25.4
144
1.0
145
0.0
146
1.0
147
0.625
 71
1.0
 72
0.0
 73
0
 74
0
 75
0
 76
0
 77
1
 78
8
 79
2
170
0
171
1
172
0
173
0
174
0
175
0
176
0
177
0
178
0
270
2
179
2
271
2
272
2
273
2
274
2
275
0
280
0
281
0
282
0
283
1
284
8
285
0
286
0
287
3
288
0
340
11
278
44
341
21E
342
21E
343
21E
344
21E
  0
DIMSTYLE
105
224
100
AcDbSymbolTableRecord
100
AcDbDimStyleTableRecord
  2
DIMSTYLE_1
 70
0
  3

  4

 40
1.0
 41
3.0
 42
0.5
 43
0.38
 44
1.5
 45
0.0
 46
0.0
 47
0.0
 48
0.0
140
3.0
141
0.09
142
0.0
143
25.4
144
1.0
145
0.0
146
1.0
147
0.75
 71
0.0
 72
0.0
 73
0
 74
0
 75
0
 76
0
 77
1
 78
8
 79
2
170
0
171
1
172
0
173
0
174
0
175
0
176
0
177
0
178
0
270
2
179
2
271
2
272
2
273
2
274
2
275
0
280
0
281
0
282
0
283
1
284
8
285
0
286
0
287
3
288
0
340
11
278
44
341
21E
342
21E
343
21E
344
21E
  0
ENDTAB
  0
ENDSEC
  0
SECTION
  2
BLOCKS
  0
BLOCK
  5
20
100
AcDbEntity
  8
0
100
AcDbBlockBegin
  2
*Model_Space
 70
0
 10
0.0
 20
0.0
 30
0.0
  3
*Model_Space
  1

  0
ENDBLK
  5
21
100
AcDbEntity
  8
0
100
AcDbBlockEnd
  0
BLOCK
  5
1C
100
AcDbEntity
  8
0
100
AcDbBlockBegin
  2
*Paper_Space
 70
0
 10
0.0
 20
0.0
 30
0.0
  3
*Paper_Space
  1

  0
ENDBLK
  5
1D
100
AcDbEntity
  8
0
100
AcDbBlockEnd
  0
BLOCK
  5
225
100
AcDbEntity
  8
0
100
AcDbBlockBegin
  2
_FILLED
 70
64
 10
0.0
 20
0.0
  3
_FILLED
  1

  0
SOLID
  5
226
100
AcDbEntity
  8
0
  6
BYBLOCK
 62
0
100
AcDbTrace
 10
0.0
 20
0.0
 11
-1.0
 21
0.3166666667
 12
-1.0
 22
-0.3166666667
 13
-1.0
 23
-0.3166666667
  0
ENDBLK
  5
227
100
AcDbEntity
  8
0
  6
BYBLOCK
 62
0
100
AcDbBlockEnd
  0
BLOCK
  5
228
100
AcDbEntity
  8
0
100
AcDbBlockBegin
 62
7
  6
CONTINUOUS
  2
*D0
 70
65
 10
0.0
 20
0.0
  3
*D0
  1

  0
LINE
  5
229
100
AcDbEntity
  8
0
100
AcDbLine
 62
7
  6
CONTINUOUS
 10
53.9611328125
 20
149.9999795977
 11
53.9611328125
 21
162.6232421875
  0
LINE
  5
22A
100
AcDbEntity
  8
0
100
AcDbLine
 62
7
  6
CONTINUOUS
 10
61.1111328125
 20
147.8271397071
 11
61.1111328125
 21
162.6232421875
  0
LINE
  5
22B
100
AcDbEntity
  8
0
100
AcDbLine
 62
7
  6
CONTINUOUS
 10
53.9611328125
 20
161.1232421875
 11
57.5361328125
 21
161.1232421875
  0
LINE
  5
22C
100
AcDbEntity
  8
0
100
AcDbLine
 62
7
  6
CONTINUOUS
 10
61.1111328125
 20
161.1232421875
 11
57.5361328125
 21
161.1232421875
  0
LINE
  5
22D
100
AcDbEntity
  8
0
100
AcDbLine
 62
7
  6
CONTINUOUS
 10
57.5361328125
 20
161.1232421875
 11
73.6810614838
 21
161.1232421875
  0
INSERT
  5
22E
100
AcDbEntity
  8
0
100
AcDbBlockReference
 62
7
  6
CONTINUOUS
  2
_FILLED
 10
53.9611328125
 20
161.1232421875
 41
3.0
 42
3.0
 43
3.0
 50
180.0
  0
INSERT
  5
22F
100
AcDbEntity
  8
0
100
AcDbBlockReference
 62
7
  6
CONTINUOUS
  2
_FILLED
 10
61.1111328125
 20
161.1232421875
 41
3.0
 42
3.0
 43
3.0
  0
ENDBLK
  5
230
100
AcDbEntity
  8
0
  6
BYBLOCK
 62
0
100
AcDbBlockEnd
  0
BLOCK
  5
231
100
AcDbEntity
  8
0
100
AcDbBlockBegin
 62
7
  6
CONTINUOUS
  2
*D1
 70
65
 10
0.0
 20
0.0
  3
*D1
  1

  0
LINE
  5
232
100
AcDbEntity
  8
0
100
AcDbLine
 62
7
  6
CONTINUOUS
 10
64.1111328125
 20
132.6695589807
 11
64.1111328125
 21
170.6232421875
  0
LINE
  5
233
100
AcDbEntity
  8
0
100
AcDbLine
 62
7
  6
CONTINUOUS
 10
53.9611328125
 20
149.9999795977
 11
53.9611328125
 21
170.6232421875
  0
LINE
  5
234
100
AcDbEntity
  8
0
100
AcDbLine
 62
7
  6
CONTINUOUS
 10
64.1111328125
 20
169.1232421875
 11
59.0361328125
 21
169.1232421875
  0
LINE
  5
235
100
AcDbEntity
  8
0
100
AcDbLine
 62
7
  6
CONTINUOUS
 10
59.0361328125
 20
169.1232421875
 11
74.8277272353
 21
169.1232421875
  0
LINE
  5
236
100
AcDbEntity
  8
0
100
AcDbLine
 62
7
  6
CONTINUOUS
 10
53.9611328125
 20
169.1232421875
 11
59.0361328125
 21
169.1232421875
  0
INSERT
  5
237
100
AcDbEntity
  8
0
100
AcDbBlockReference
 62
7
  6
CONTINUOUS
  2
_FILLED
 10
64.1111328125
 20
169.1232421875
 41
3.0
 42
3.0
 43
3.0
  0
INSERT
  5
238
100
AcDbEntity
  8
0
100
AcDbBlockReference
 62
7
  6
CONTINUOUS
  2
_FILLED
 10
53.9611328125
 20
169.1232421875
 41
3.0
 42
3.0
 43
3.0
 50
180.0
  0
ENDBLK
  5
239
100
AcDbEntity
  8
0
  6
BYBLOCK
 62
0
100
AcDbBlockEnd
  0
BLOCK
  5
23A
100
AcDbEntity
  8
0
100
AcDbBlockBegin
 62
7
  6
CONTINUOUS
  2
*D2
 70
65
 10
0.0
 20
0.0
  3
*D2
  1

  0
LINE
  5
23B
100
AcDbEntity
  8
0
100
AcDbLine
 62
7
  6
CONTINUOUS
 10
90.460546875
 20
150.6226333854
 11
90.460546875
 21
162.6232421875
  0
LINE
  5
23C
100
AcDbEntity
  8
0
100
AcDbLine
 62
7
  6
CONTINUOUS
 10
249.760546875
 20
150.6226333854
 11
249.760546875
 21
162.6232421875
  0
LINE
  5
23D
100
AcDbEntity
  8
0
100
AcDbLine
 62
7
  6
CONTINUOUS
 10
90.460546875
 20
161.1232421875
 11
170.110546875
 21
161.1232421875
  0
LINE
  5
23E
100
AcDbEntity
  8
0
100
AcDbLine
 62
7
  6
CONTINUOUS
 10
249.760546875
 20
161.1232421875
 11
170.110546875
 21
161.1232421875
  0
INSERT
  5
23F
100
AcDbEntity
  8
0
100
AcDbBlockReference
 62
7
  6
CONTINUOUS
  2
_FILLED
 10
90.460546875
 20
161.1232421875
 41
3.0
 42
3.0
 43
3.0
 50
180.0
  0
INSERT
  5
240
100
AcDbEntity
  8
0
100
AcDbBlockReference
 62
7
  6
CONTINUOUS
  2
_FILLED
 10
249.760546875
 20
161.1232421875
 41
3.0
 42
3.0
 43
3.0
  0
ENDBLK
  5
241
100
AcDbEntity
  8
0
  6
BYBLOCK
 62
0
100
AcDbBlockEnd
  0
BLOCK
  5
242
100
AcDbEntity
  8
0
100
AcDbBlockBegin
 62
7
  6
CONTINUOUS
  2
*D3
 70
65
 10
0.0
 20
0.0
  3
*D3
  1

  0
LINE
  5
243
100
AcDbEntity
  8
0
100
AcDbLine
 62
7
  6
CONTINUOUS
 10
249.2599380729
 20
151.1232421875
 11
261.260546875
 21
151.1232421875
  0
LINE
  5
244
100
AcDbEntity
  8
0
100
AcDbLine
 62
7
  6
CONTINUOUS
 10
249.2599380729
 20
61.1232421875
 11
261.260546875
 21
61.1232421875
  0
LINE
  5
245
100
AcDbEntity
  8
0
100
AcDbLine
 62
7
  6
CONTINUOUS
 10
259.760546875
 20
151.1232421875
 11
259.760546875
 21
106.1232421875
  0
LINE
  5
246
100
AcDbEntity
  8
0
100
AcDbLine
 62
7
  6
CONTINUOUS
 10
259.760546875
 20
61.1232421875
 11
259.760546875
 21
106.1232421875
  0
INSERT
  5
247
100
AcDbEntity
  8
0
100
AcDbBlockReference
 62
7
  6
CONTINUOUS
  2
_FILLED
 10
259.760546875
 20
151.1232421875
 41
3.0
 42
3.0
 43
3.0
 50
90.0
  0
INSERT
  5
248
100
AcDbEntity
  8
0
100
AcDbBlockReference
 62
7
  6
CONTINUOUS
  2
_FILLED
 10
259.760546875
 20
61.1232421875
 41
3.0
 42
3.0
 43
3.0
 50
270.0
  0
ENDBLK
  5
249
100
AcDbEntity
  8
0
  6
BYBLOCK
 62
0
100
AcDbBlockEnd
  0
ENDSEC
  0
SECTION
  2
ENTITIES
  0
DIMENSION
  5
24A
100
AcDbEntity
  8
0
100
AcDbDimension
 62
7
  6
CONTINUOUS
  2
*D0
 10
61.1111328125
 20
161.1232421875
 11
65.7524900552
 21
161.1232421875
 70
160
 71
1
 72
2
 41
0.9
 42
7.15
  3
DIMSTYLE_1
100
AcDbAlignedDimension
 13
53.9611328125
 23
149.4999795977
 14
61.1111328125
 24
147.3271397071
100
AcDbRotatedDimension
  0
DIMENSION
  5
24B
100
AcDbEntity
  8
0
100
AcDbDimension
 62
7
  6
CONTINUOUS
  2
*D1
 10
53.9611328125
 20
169.1232421875
 11
65.1848700924
 21
169.1232421875
 70
160
 71
1
 72
2
 41
0.9
 42
10.15
  3
DIMSTYLE_1
100
AcDbAlignedDimension
 13
64.1111328125
 23
132.1695589807
 14
53.9611328125
 24
149.4999795977
 50
180.0
100
AcDbRotatedDimension
  0
DIMENSION
  5
24C
100
AcDbEntity
  8
0
100
AcDbDimension
 62
7
  6
CONTINUOUS
  2
*D2
 10
249.760546875
 20
161.1232421875
 11
165.0748325893
 21
161.1232421875
 70
160
 71
2
 72
2
 41
0.9
 42
159.3
  3
DIMSTYLE_1
100
AcDbAlignedDimension
 13
90.460546875
 23
150.1226333854
 14
249.760546875
 24
150.1226333854
100
AcDbRotatedDimension
  0
DIMENSION
  5
24D
100
AcDbEntity
  8
0
100
AcDbDimension
 62
7
  6
CONTINUOUS
  2
*D3
 10
259.760546875
 20
61.1232421875
 11
259.760546875
 21
103.7660993304
 70
160
 71
2
 72
2
 41
0.9
 42
90.0
  3
DIMSTYLE_1
100
AcDbAlignedDimension
 13
248.7599380729
 23
151.1232421875
 14
248.7599380729
 24
61.1232421875
 50
270.0
100
AcDbRotatedDimension
  0
LINE
  5
24E
100
AcDbEntity
  8
SMUSSO
100
AcDbLine
 62
7
  6
CONTINUOUS
 10
91.6405614051
 20
150.9139415098
 11
91.6549872206
 21
150.929410644
  0
LINE
  5
24F
100
AcDbEntity
  8
ASSI
100
AcDbLine
 62
7
  6
CONTINUOUS
 10
91.6405614051
 20
150.9139415098
 11
91.6549872206
 21
150.929410644
  0
LINE
  5
250
100
AcDbEntity
  8
SMUSSO
100
AcDbLine
 62
7
  6
CONTINUOUS
 10
90.460546875
 20
150.1226333854
 11
91.4611556771
 21
151.1232421875
  0
LINE
  5
251
100
AcDbEntity
  8
ASSI
100
AcDbLine
 62
7
  6
CONTINUOUS
 10
90.460546875
 20
150.1226333854
 11
91.4611556771
 21
151.1232421875
  0
LINE
  5
252
100
AcDbEntity
  8
SMUSSO
100
AcDbLine
 62
7
  6
CONTINUOUS
 10
91.6405614051
 20
150.9139415098
 11
90.6698475527
 21
149.9432276574
  0
LINE
  5
253
100
AcDbEntity
  8
ASSI
100
AcDbLine
 62
7
  6
CONTINUOUS
 10
91.6405614051
 20
150.9139415098
 11
90.6698475527
 21
149.9432276574
  0
LINE
  5
254
100
AcDbEntity
  8
SMUSSO
100
AcDbLine
 62
7
  6
CONTINUOUS
 10
92.0838094648
 20
149.8945111473
 11
91.6892779152
 21
149.4999795977
  0
LINE
  5
255
100
AcDbEntity
  8
ASSI
100
AcDbLine
 62
7
  6
CONTINUOUS
 10
92.0838094648
 20
149.8945111473
 11
91.6892779152
 21
149.4999795977
  0
LINE
  5
256
100
AcDbEntity
  8
SMUSSO
100
AcDbLine
 62
7
  6
CONTINUOUS
 10
90.6543784185
 20
149.9288018419
 11
90.6698475527
 21
149.9432276574
  0
LINE
  5
257
100
AcDbEntity
  8
ASSI
100
AcDbLine
 62
7
  6
CONTINUOUS
 10
90.6543784185
 20
149.9288018419
 11
90.6698475527
 21
149.9432276574
  0
LINE
  5
258
100
AcDbEntity
  8
SMUSSO
100
AcDbLine
 62
7
  6
CONTINUOUS
 10
90.6698475527
 20
62.3032567176
 11
90.6543784185
 21
62.3176825331
  0
LINE
  5
259
100
AcDbEntity
  8
ASSI
100
AcDbLine
 62
7
  6
CONTINUOUS
 10
90.6698475527
 20
62.3032567176
 11
90.6543784185
 21
62.3176825331
  0
LINE
  5
25A
100
AcDbEntity
  8
SMUSSO
100
AcDbLine
 62
7
  6
CONTINUOUS
 10
91.4611556771
 20
61.1232421875
 11
90.460546875
 21
62.1238509896
  0
LINE
  5
25B
100
AcDbEntity
  8
ASSI
100
AcDbLine
 62
7
  6
CONTINUOUS
 10
91.4611556771
 20
61.1232421875
 11
90.460546875
 21
62.1238509896
  0
LINE
  5
25C
100
AcDbEntity
  8
SMUSSO
100
AcDbLine
 62
7
  6
CONTINUOUS
 10
90.6698475527
 20
62.3032567176
 11
91.6405614051
 21
61.3325428652
  0
LINE
  5
25D
100
AcDbEntity
  8
ASSI
100
AcDbLine
 62
7
  6
CONTINUOUS
 10
90.6698475527
 20
62.3032567176
 11
91.6405614051
 21
61.3325428652
  0
LINE
  5
25E
100
AcDbEntity
  8
SMUSSO
100
AcDbLine
 62
7
  6
CONTINUOUS
 10
91.6892779152
 20
62.7465047773
 11
92.0838094648
 21
62.3519732277
  0
LINE
  5
25F
100
AcDbEntity
  8
ASSI
100
AcDbLine
 62
7
  6
CONTINUOUS
 10
91.6892779152
 20
62.7465047773
 11
92.0838094648
 21
62.3519732277
  0
LINE
  5
260
100
AcDbEntity
  8
SMUSSO
100
AcDbLine
 62
7
  6
CONTINUOUS
 10
91.6549872206
 20
61.317073731
 11
91.6405614051
 21
61.3325428652
  0
LINE
  5
261
100
AcDbEntity
  8
ASSI
100
AcDbLine
 62
7
  6
CONTINUOUS
 10
91.6549872206
 20
61.317073731
 11
91.6405614051
 21
61.3325428652
  0
LINE
  5
262
100
AcDbEntity
  8
SMUSSO
100
AcDbLine
 62
7
  6
CONTINUOUS
 10
90.460546875
 20
150.1226333854
 11
90.460546875
 21
62.1238509896
  0
LINE
  5
263
100
AcDbEntity
  8
ASSI
100
AcDbLine
 62
7
  6
CONTINUOUS
 10
90.460546875
 20
150.1226333854
 11
90.460546875
 21
62.1238509896
  0
LINE
  5
264
100
AcDbEntity
  8
SMUSSO
100
AcDbLine
 62
7
  6
CONTINUOUS
 10
90.6543784185
 20
149.9288018419
 11
90.6543784185
 21
62.3176825331
  0
LINE
  5
265
100
AcDbEntity
  8
ASSI
100
AcDbLine
 62
7
  6
CONTINUOUS
 10
90.6543784185
 20
149.9288018419
 11
90.6543784185
 21
62.3176825331
  0
LINE
  5
266
100
AcDbEntity
  8
SMUSSO
100
AcDbLine
 62
7
  6
CONTINUOUS
 10
91.6892779152
 20
149.4999795977
 11
91.6892779152
 21
62.7465047773
  0
LINE
  5
267
100
AcDbEntity
  8
ASSI
100
AcDbLine
 62
7
  6
CONTINUOUS
 10
91.6892779152
 20
149.4999795977
 11
91.6892779152
 21
62.7465047773
  0
LINE
  5
268
100
AcDbEntity
  8
0
100
AcDbLine
 62
250
  6
CONTINUOUS
 10
113.5115358889
 20
83.9738047803
 11
113.5115358889
 21
128.2726795947
  0
LINE
  5
269
100
AcDbEntity
  8
ASSI
100
AcDbLine
 62
250
  6
CONTINUOUS
 10
113.5115358889
 20
83.9738047803
 11
113.5115358889
 21
128.2726795947
  0
LINE
  5
26A
100
AcDbEntity
  8
0
100
AcDbLine
 62
250
  6
CONTINUOUS
 10
113.7114140543
 20
83.9738047803
 11
113.7114140543
 21
128.2726795947
  0
LINE
  5
26B
100
AcDbEntity
  8
ASSI
100
AcDbLine
 62
250
  6
CONTINUOUS
 10
113.7114140543
 20
83.9738047803
 11
113.7114140543
 21
128.2726795947
  0
LINE
  5
26C
100
AcDbEntity
  8
0
100
AcDbLine
 62
7
  6
CONTINUOUS
 10
113.760546875
 20
128.223546774
 11
113.760546875
 21
84.022937601
  0
LINE
  5
26D
100
AcDbEntity
  8
ASSI
100
AcDbLine
 62
7
  6
CONTINUOUS
 10
113.760546875
 20
128.223546774
 11
113.760546875
 21
84.022937601
  0
LINE
  5
26E
100
AcDbEntity
  8
0
100
AcDbLine
 62
250
  6
CONTINUOUS
 10
114.2111094678
 20
128.9722531736
 11
114.2111094678
 21
128.7723750082
  0
LINE
  5
26F
100
AcDbEntity
  8
ASSI
100
AcDbLine
 62
250
  6
CONTINUOUS
 10
114.2111094678
 20
128.9722531736
 11
114.2111094678
 21
128.7723750082
  0
LINE
  5
270
100
AcDbEntity
  8
0
100
AcDbLine
 62
250
  6
CONTINUOUS
 10
114.2111094678
 20
83.2742312014
 11
114.2111094678
 21
83.4741093668
  0
LINE
  5
271
100
AcDbEntity
  8
ASSI
100
AcDbLine
 62
250
  6
CONTINUOUS
 10
114.2111094678
 20
83.2742312014
 11
114.2111094678
 21
83.4741093668
  0
LWPOLYLINE
  5
272
100
AcDbEntity
  8
0
100
AcDbPolyline
 62
250
  6
CONTINUOUS
 90
25
 70
0
 10
113.7114140543
 20
128.2726795947
 10
113.7124514524
 20
128.3051378152
 10
113.7156062839
 20
128.3375640572
 10
113.7208862176
 20
128.3698190232
 10
113.7282986323
 20
128.4017962765
 10
113.7378279824
 20
128.4333181085
 10
113.7494133186
 20
128.4641429273
 10
113.7629963078
 20
128.4941193818
 10
113.7785247662
 20
128.5231361904
 10
113.7959056476
 20
128.5510276185
 10
113.8150476394
 20
128.5776663522
 10
113.8358683804
 20
128.6029555067
 10
113.8582687708
 20
128.6267890884
 10
113.8821669683
 20
128.6490898099
 10
113.9074359265
 20
128.6697485948
 10
113.9338889788
 20
128.6886364867
 10
113.961299524
 20
128.705637807
 10
113.9896309742
 20
128.7207737977
 10
114.0189912373
 20
128.7341040968
 10
114.0493304564
 20
128.7455733171
 10
114.0804703358
 20
128.7550819305
 10
114.1123436812
 20
128.7625789308
 10
114.1448416704
 20
128.7680004201
 10
114.1778105138
 20
128.7712824771
 10
114.2111094678
 20
128.7723750082
  0
LWPOLYLINE
  5
273
100
AcDbEntity
  8
ASSI
100
AcDbPolyline
 62
250
  6
CONTINUOUS
 90
25
 70
0
 10
113.7114140543
 20
128.2726795947
 10
113.7124514524
 20
128.3051378152
 10
113.7156062839
 20
128.3375640572
 10
113.7208862176
 20
128.3698190232
 10
113.7282986323
 20
128.4017962765
 10
113.7378279824
 20
128.4333181085
 10
113.7494133186
 20
128.4641429273
 10
113.7629963078
 20
128.4941193818
 10
113.7785247662
 20
128.5231361904
 10
113.7959056476
 20
128.5510276185
 10
113.8150476394
 20
128.5776663522
 10
113.8358683804
 20
128.6029555067
 10
113.8582687708
 20
128.6267890884
 10
113.8821669683
 20
128.6490898099
 10
113.9074359265
 20
128.6697485948
 10
113.9338889788
 20
128.6886364867
 10
113.961299524
 20
128.705637807
 10
113.9896309742
 20
128.7207737977
 10
114.0189912373
 20
128.7341040968
 10
114.0493304564
 20
128.7455733171
 10
114.0804703358
 20
128.7550819305
 10
114.1123436812
 20
128.7625789308
 10
114.1448416704
 20
128.7680004201
 10
114.1778105138
 20
128.7712824771
 10
114.2111094678
 20
128.7723750082
  0
LWPOLYLINE
  5
274
100
AcDbEntity
  8
0
100
AcDbPolyline
 62
250
  6
CONTINUOUS
 90
25
 70
0
 10
113.5115358889
 20
128.2726795947
 10
113.5130136759
 20
128.3184277572
 10
113.5174539088
 20
128.3637396028
 10
113.5248565876
 20
128.4086151316
 10
113.5352783038
 20
128.4532940014
 10
113.5486624659
 20
128.4975365544
 10
113.5648392995
 20
128.5406238174
 10
113.5838608539
 20
128.5825071153
 10
113.6056750797
 20
128.6232351233
 10
113.6299560539
 20
128.6622348939
 10
113.6567306655
 20
128.699460151
 10
113.6859720255
 20
128.7349571706
 10
113.7172735441
 20
128.7682918338
 10
113.750695401
 20
128.7994473187
 10
113.7861774165
 20
128.8284404471
 10
113.8231324619
 20
128.8548875647
 10
113.8614286862
 20
128.878692588
 10
113.9011979402
 20
128.8999516004
 10
113.9422486481
 20
128.9185691979
 10
113.9846640177
 20
128.9346010272
 10
114.0283608411
 20
128.9479914416
 10
114.0728979178
 20
128.9584780978
 10
114.1181281811
 20
128.965973548
 10
114.1641986978
 20
128.9705652399
 10
114.2111094678
 20
128.9722531736
  0
LWPOLYLINE
  5
275
100
AcDbEntity
  8
ASSI
100
AcDbPolyline
 62
250
  6
CONTINUOUS
 90
25
 70
0
 10
113.5115358889
 20
128.2726795947
 10
113.5130136759
 20
128.3184277572
 10
113.5174539088
 20
128.3637396028
 10
113.5248565876
 20
128.4086151316
 10
113.5352783038
 20
128.4532940014
 10
113.5486624659
 20
128.4975365544
 10
113.5648392995
 20
128.5406238174
 10
113.5838608539
 20
128.5825071153
 10
113.6056750797
 20
128.6232351233
 10
113.6299560539
 20
128.6622348939
 10
113.6567306655
 20
128.699460151
 10
113.6859720255
 20
128.7349571706
 10
113.7172735441
 20
128.7682918338
 10
113.750695401
 20
128.7994473187
 10
113.7861774165
 20
128.8284404471
 10
113.8231324619
 20
128.8548875647
 10
113.8614286862
 20
128.878692588
 10
113.9011979402
 20
128.8999516004
 10
113.9422486481
 20
128.9185691979
 10
113.9846640177
 20
128.9346010272
 10
114.0283608411
 20
128.9479914416
 10
114.0728979178
 20
128.9584780978
 10
114.1181281811
 20
128.965973548
 10
114.1641986978
 20
128.9705652399
 10
114.2111094678
 20
128.9722531736
  0
LINE
  5
276
100
AcDbEntity
  8
SMUSSO
100
AcDbLine
 62
7
  6
CONTINUOUS
 10
92.0838094648
 20
62.3519732277
 11
91.6405614051
 21
61.3325428652
  0
LINE
  5
277
100
AcDbEntity
  8
ASSI
100
AcDbLine
 62
7
  6
CONTINUOUS
 10
92.0838094648
 20
62.3519732277
 11
91.6405614051
 21
61.3325428652
  0
LINE
  5
278
100
AcDbEntity
  8
SMUSSO
100
AcDbLine
 62
7
  6
CONTINUOUS
 10
92.0838094648
 20
149.8945111473
 11
91.6405614051
 21
150.9139415098
  0
LINE
  5
279
100
AcDbEntity
  8
ASSI
100
AcDbLine
 62
7
  6
CONTINUOUS
 10
92.0838094648
 20
149.8945111473
 11
91.6405614051
 21
150.9139415098
  0
LWPOLYLINE
  5
27A
100
AcDbEntity
  8
0
100
AcDbPolyline
 62
7
  6
CONTINUOUS
 90
3
 70
0
 43
0.3500000006
 10
165.0748260498
 20
164.0160970459
 10
165.9319821167
 20
164.8732349854
 10
165.9319821167
 20
161.8732340698
  0
LWPOLYLINE
  5
27B
100
AcDbEntity
  8
0
100
AcDbPolyline
 62
7
  6
CONTINUOUS
 90
5
 70
0
 43
0.3500000006
 10
173.8605443115
 20
163.5875280762
 10
174.2176911621
 20
163.801812561
 10
174.2176911621
 20
164.4446660156
 10
173.8605443115
 20
164.8732349854
 10
173.0034063721
 20
164.8732349854
  0
LINE
  5
27C
100
AcDbEntity
  8
SMUSSO
100
AcDbLine
 62
7
  6
CONTINUOUS
 10
91.4611556771
 20
61.1232421875
 11
248.7599380729
 21
61.1232421875
  0
LINE
  5
27D
100
AcDbEntity
  8
ASSI
100
AcDbLine
 62
7
  6
CONTINUOUS
 10
91.4611556771
 20
61.1232421875
 11
248.7599380729
 21
61.1232421875
  0
LINE
  5
27E
100
AcDbEntity
  8
SMUSSO
100
AcDbLine
 62
7
  6
CONTINUOUS
 10
91.6549872206
 20
61.317073731
 11
248.5661065294
 21
61.317073731
  0
LINE
  5
27F
100
AcDbEntity
  8
ASSI
100
AcDbLine
 62
7
  6
CONTINUOUS
 10
91.6549872206
 20
61.317073731
 11
248.5661065294
 21
61.317073731
  0
LINE
  5
280
100
AcDbEntity
  8
SMUSSO
100
AcDbLine
 62
7
  6
CONTINUOUS
 10
92.0838094648
 20
62.3519732277
 11
248.1372842852
 21
62.3519732277
  0
LINE
  5
281
100
AcDbEntity
  8
ASSI
100
AcDbLine
 62
7
  6
CONTINUOUS
 10
92.0838094648
 20
62.3519732277
 11
248.1372842852
 21
62.3519732277
  0
LWPOLYLINE
  5
282
100
AcDbEntity
  8
0
100
AcDbPolyline
 62
7
  6
CONTINUOUS
 90
10
 70
0
 43
0.3500000006
 10
169.360552002
 20
161.8732340698
 10
170.2176899414
 20
162.7303901367
 10
170.4319744263
 20
163.5875280762
 10
170.4319744263
 20
164.4446660156
 10
170.0034054565
 20
164.8732349854
 10
169.360552002
 20
164.8732349854
 10
168.9319830322
 20
164.4446660156
 10
168.9319830322
 20
163.5875280762
 10
169.360552002
 20
163.1589591064
 10
170.2891120605
 20
163.1589591064
  0
LINE
  5
283
100
AcDbEntity
  8
SMUSSO
100
AcDbLine
 62
7
  6
CONTINUOUS
 10
90.6543784185
 20
62.3176825331
 11
90.460546875
 21
62.1238509896
  0
LINE
  5
284
100
AcDbEntity
  8
ASSI
100
AcDbLine
 62
7
  6
CONTINUOUS
 10
90.6543784185
 20
62.3176825331
 11
90.460546875
 21
62.1238509896
  0
LINE
  5
285
100
AcDbEntity
  8
0
100
AcDbLine
 62
250
  6
CONTINUOUS
 10
113.7114140543
 20
83.9738047803
 11
113.760546875
 21
84.022937601
  0
LINE
  5
286
100
AcDbEntity
  8
ASSI
100
AcDbLine
 62
250
  6
CONTINUOUS
 10
113.7114140543
 20
83.9738047803
 11
113.760546875
 21
84.022937601
  0
LINE
  5
287
100
AcDbEntity
  8
SMUSSO
100
AcDbLine
 62
7
  6
CONTINUOUS
 10
91.6549872206
 20
61.317073731
 11
91.4611556771
 21
61.1232421875
  0
LINE
  5
288
100
AcDbEntity
  8
ASSI
100
AcDbLine
 62
7
  6
CONTINUOUS
 10
91.6549872206
 20
61.317073731
 11
91.4611556771
 21
61.1232421875
  0
LWPOLYLINE
  5
289
100
AcDbEntity
  8
CURVE
100
AcDbPolyline
 62
250
  6
CONTINUOUS
 90
73
 70
0
 10
173.915902008
 20
80.0995792965
 10
173.9210952818
 20
80.1006253246
 10
173.9261320765
 20
80.1022996215
 10
173.9310395797
 20
80.1044506001
 10
173.935844979
 20
80.1069266732
 10
173.9405754618
 20
80.1095762537
 10
173.9551756219
 20
80.1181776866
 10
173.9693444698
 20
80.1271256896
 10
173.9831254811
 20
80.1365487786
 10
173.9970459372
 20
80.1469231144
 10
174.0105993182
 20
80.1578692359
 10
174.0237888763
 20
80.1693098125
 10
174.0366178638
 20
80.1811675134
 10
174.0518298319
 20
80.1961569887
 10
174.0664929843
 20
80.2116485678
 10
174.0805937281
 20
80.2276353821
 10
174.0941184704
 20
80.2441105628
 10
174.106088489
 20
80.2597555238
 10
174.1175431621
 20
80.2757912884
 10
174.1284702837
 20
80.2921977668
 10
174.1388576476
 20
80.3089548691
 10
174.1486930478
 20
80.3260425054
 10
174.1591069218
 20
80.3456810608
 10
174.1687944195
 20
80.3656870547
 10
174.1777464175
 20
80.3860332453
 10
174.1859537925
 20
80.4066923904
 10
174.1934074212
 20
80.4276372482
 10
174.1997146346
 20
80.4475414041
 10
174.205353894
 20
80.4676473586
 10
174.2103299997
 20
80.4879289717
 10
174.2146477517
 20
80.5083601039
 10
174.2183119505
 20
80.5289146152
 10
174.2213273963
 20
80.549566366
 10
174.2239108488
 20
80.5724405634
 10
174.2257344439
 20
80.5953807137
 10
174.2268225488
 20
80.6183661827
 10
174.2271963384
 20
80.6430859967
 10
174.2267586647
 20
80.6678068851
 10
174.2255187788
 20
80.6925014337
 10
174.223935631
 20
80.7123846061
 10
174.2218137248
 20
80.7322150545
 10
174.2191303599
 20
80.7519750377
 10
174.2160626113
 20
80.770553056
 10
174.2124662451
 20
80.7890379467
 10
174.2083334984
 20
80.8074152295
 10
174.2031123386
 20
80.8276600447
 10
174.1972185428
 20
80.847725592
 10
174.1906493268
 20
80.8675828961
 10
174.1834019066
 20
80.887202982
 10
174.1754734978
 20
80.9065568746
 10
174.167653414
 20
80.923940906
 10
174.1592735085
 20
80.9410609529
 10
174.1503419828
 20
80.9578982333
 10
174.1408670385
 20
80.9744339649
 10
174.1308568772
 20
80.9906493654
 10
174.1187370223
 20
81.008817191
 10
174.1059426706
 20
81.0265163298
 10
174.0924916371
 20
81.0437235698
 10
174.0784017365
 20
81.0604156987
 10
174.0639281768
 20
81.0763200253
 10
174.0488743432
 20
81.0916862094
 10
174.0332615853
 20
81.1064975906
 10
174.0171112523
 20
81.1207375085
 10
174.0004446934
 20
81.1343893027
 10
173.9832832581
 20
81.1474363129
 10
173.9656482957
 20
81.1598618787
 10
173.9525064257
 20
81.1685111203
 10
173.9391233819
 20
81.1767747709
 10
173.9254982335
 20
81.1846062656
 10
173.9116300496
 20
81.1919590394
 10
173.8975178993
 20
81.1987865275
 10
173.8831608518
 20
81.205042165
 10
173.8685579762
 20
81.210679387
  0
LWPOLYLINE
  5
28A
100
AcDbEntity
  8
IMPORT_IGES
100
AcDbPolyline
 62
7
  6
CONTINUOUS
 90
73
 70
0
 10
173.915902008
 20
80.0995792965
 10
173.9210952818
 20
80.1006253246
 10
173.9261320765
 20
80.1022996215
 10
173.9310395797
 20
80.1044506001
 10
173.935844979
 20
80.1069266732
 10
173.9405754618
 20
80.1095762537
 10
173.9551756219
 20
80.1181776866
 10
173.9693444698
 20
80.1271256896
 10
173.9831254811
 20
80.1365487786
 10
173.9970459372
 20
80.1469231144
 10
174.0105993182
 20
80.1578692359
 10
174.0237888763
 20
80.1693098125
 10
174.0366178638
 20
80.1811675134
 10
174.0518298319
 20
80.1961569887
 10
174.0664929843
 20
80.2116485678
 10
174.0805937281
 20
80.2276353821
 10
174.0941184704
 20
80.2441105628
 10
174.106088489
 20
80.2597555238
 10
174.1175431621
 20
80.2757912884
 10
174.1284702837
 20
80.2921977668
 10
174.1388576476
 20
80.3089548691
 10
174.1486930478
 20
80.3260425054
 10
174.1591069218
 20
80.3456810608
 10
174.1687944195
 20
80.3656870547
 10
174.1777464175
 20
80.3860332453
 10
174.1859537925
 20
80.4066923904
 10
174.1934074212
 20
80.4276372482
 10
174.1997146346
 20
80.4475414041
 10
174.205353894
 20
80.4676473586
 10
174.2103299997
 20
80.4879289717
 10
174.2146477517
 20
80.5083601039
 10
174.2183119505
 20
80.5289146152
 10
174.2213273963
 20
80.549566366
 10
174.2239108488
 20
80.5724405634
 10
174.2257344439
 20
80.5953807137
 10
174.2268225488
 20
80.6183661827
 10
174.2271963384
 20
80.6430859967
 10
174.2267586647
 20
80.6678068851
 10
174.2255187788
 20
80.6925014337
 10
174.223935631
 20
80.7123846061
 10
174.2218137248
 20
80.7322150545
 10
174.2191303599
 20
80.7519750377
 10
174.2160626113
 20
80.770553056
 10
174.2124662451
 20
80.7890379467
 10
174.2083334984
 20
80.8074152295
 10
174.2031123386
 20
80.8276600447
 10
174.1972185428
 20
80.847725592
 10
174.1906493268
 20
80.8675828961
 10
174.1834019066
 20
80.887202982
 10
174.1754734978
 20
80.9065568746
 10
174.167653414
 20
80.923940906
 10
174.1592735085
 20
80.9410609529
 10
174.1503419828
 20
80.9578982333
 10
174.1408670385
 20
80.9744339649
 10
174.1308568772
 20
80.9906493654
 10
174.1187370223
 20
81.008817191
 10
174.1059426706
 20
81.0265163298
 10
174.0924916371
 20
81.0437235698
 10
174.0784017365
 20
81.0604156987
 10
174.0639281768
 20
81.0763200253
 10
174.0488743432
 20
81.0916862094
 10
174.0332615853
 20
81.1064975906
 10
174.0171112523
 20
81.1207375085
 10
174.0004446934
 20
81.1343893027
 10
173.9832832581
 20
81.1474363129
 10
173.9656482957
 20
81.1598618787
 10
173.9525064257
 20
81.1685111203
 10
173.9391233819
 20
81.1767747709
 10
173.9254982335
 20
81.1846062656
 10
173.9116300496
 20
81.1919590394
 10
173.8975178993
 20
81.1987865275
 10
173.8831608518
 20
81.205042165
 10
173.8685579762
 20
81.210679387
  0
LWPOLYLINE
  5
28B
100
AcDbEntity
  8
CURVE
100
AcDbPolyline
 62
250
  6
CONTINUOUS
 90
23
 70
0
 10
173.1774670818
 20
80.8847808882
 10
173.1941685141
 20
80.8875628166
 10
173.2108995427
 20
80.8902046745
 10
173.2276584634
 20
80.892692224
 10
173.2444435723
 20
80.8950112268
 10
173.2612531651
 20
80.8971474448
 10
173.2780855379
 20
80.8990866401
 10
173.2949389866
 20
80.9008145744
 10
173.311811807
 20
80.9023170097
 10
173.3287022952
 20
80.9035797078
 10
173.3456087469
 20
80.9045884307
 10
173.3625294583
 20
80.9053289403
 10
173.3784284861
 20
80.9057703042
 10
173.3943348183
 20
80.9059682924
 10
173.4102446896
 20
80.905928554
 10
173.4261543349
 20
80.9056567381
 10
173.4420599888
 20
80.905158494
 10
173.4579578863
 20
80.9044394707
 10
173.4738442619
 20
80.9035053175
 10
173.4897153506
 20
80.9023616835
 10
173.505567387
 20
80.9010142178
 10
173.521396606
 20
80.8994685697
 10
173.5371992424
 20
80.8977303882
  0
LWPOLYLINE
  5
28C
100
AcDbEntity
  8
IMPORT_IGES
100
AcDbPolyline
 62
7
  6
CONTINUOUS
 90
23
 70
0
 10
173.1774670818
 20
80.8847808882
 10
173.1941685141
 20
80.8875628166
 10
173.2108995427
 20
80.8902046745
 10
173.2276584634
 20
80.892692224
 10
173.2444435723
 20
80.8950112268
 10
173.2612531651
 20
80.8971474448
 10
173.2780855379
 20
80.8990866401
 10
173.2949389866
 20
80.9008145744
 10
173.311811807
 20
80.9023170097
 10
173.3287022952
 20
80.9035797078
 10
173.3456087469
 20
80.9045884307
 10
173.3625294583
 20
80.9053289403
 10
173.3784284861
 20
80.9057703042
 10
173.3943348183
 20
80.9059682924
 10
173.4102446896
 20
80.905928554
 10
173.4261543349
 20
80.9056567381
 10
173.4420599888
 20
80.905158494
 10
173.4579578863
 20
80.9044394707
 10
173.4738442619
 20
80.9035053175
 10
173.4897153506
 20
80.9023616835
 10
173.505567387
 20
80.9010142178
 10
173.521396606
 20
80.8994685697
 10
173.5371992424
 20
80.8977303882
  0
LINE
  5
28D
100
AcDbEntity
  8
CURVE
100
AcDbLine
 62
250
  6
CONTINUOUS
 10
172.6005130475
 20
79.0597266168
 11
172.1165486886
 21
79.0597266168
  0
LINE
  5
28E
100
AcDbEntity
  8
IMPORT_IGES
100
AcDbLine
 62
7
  6
CONTINUOUS
 10
172.6005130475
 20
79.0597266168
 11
172.1165486886
 21
79.0597266168
  0
LINE
  5
28F
100
AcDbEntity
  8
CURVE
100
AcDbLine
 62
250
  6
CONTINUOUS
 10
171.245549871
 20
79.0597266168
 11
170.7913441774
 21
79.0597266168
  0
LINE
  5
290
100
AcDbEntity
  8
IMPORT_IGES
100
AcDbLine
 62
7
  6
CONTINUOUS
 10
171.245549871
 20
79.0597266168
 11
170.7913441774
 21
79.0597266168
  0
LINE
  5
291
100
AcDbEntity
  8
CURVE
100
AcDbLine
 62
250
  6
CONTINUOUS
 10
170.7192397045
 20
79.0597266168
 11
170.2700322011
 21
79.0597266168
  0
LINE
  5
292
100
AcDbEntity
  8
IMPORT_IGES
100
AcDbLine
 62
7
  6
CONTINUOUS
 10
170.7192397045
 20
79.0597266168
 11
170.2700322011
 21
79.0597266168
  0
LINE
  5
293
100
AcDbEntity
  8
CURVE
100
AcDbLine
 62
250
  6
CONTINUOUS
 10
169.6297159445
 20
79.0597266168
 11
169.5653156617
 21
79.0597266168
  0
LINE
  5
294
100
AcDbEntity
  8
IMPORT_IGES
100
AcDbLine
 62
7
  6
CONTINUOUS
 10
169.6297159445
 20
79.0597266168
 11
169.5653156617
 21
79.0597266168
  0
LINE
  5
295
100
AcDbEntity
  8
CURVE
100
AcDbLine
 62
250
  6
CONTINUOUS
 10
168.9275398812
 20
79.0597266168
 11
168.488247044
 21
79.0597266168
  0
LINE
  5
296
100
AcDbEntity
  8
IMPORT_IGES
100
AcDbLine
 62
7
  6
CONTINUOUS
 10
168.9275398812
 20
79.0597266168
 11
168.488247044
 21
79.0597266168
  0
LINE
  5
297
100
AcDbEntity
  8
CURVE
100
AcDbLine
 62
250
  6
CONTINUOUS
 10
166.9043497826
 20
79.0597266168
 11
166.499690182
 21
79.0597266168
  0
LINE
  5
298
100
AcDbEntity
  8
IMPORT_IGES
100
AcDbLine
 62
7
  6
CONTINUOUS
 10
166.9043497826
 20
79.0597266168
 11
166.499690182
 21
79.0597266168
  0
LINE
  5
299
100
AcDbEntity
  8
CURVE
100
AcDbLine
 62
250
  6
CONTINUOUS
 10
167.7818637428
 20
79.0597266168
 11
168.2410519124
 21
79.0597266168
  0
LINE
  5
29A
100
AcDbEntity
  8
IMPORT_IGES
100
AcDbLine
 62
7
  6
CONTINUOUS
 10
167.7818637428
 20
79.0597266168
 11
168.2410519124
 21
79.0597266168
  0
LINE
  5
29B
100
AcDbEntity
  8
CURVE
100
AcDbLine
 62
250
  6
CONTINUOUS
 10
172.7353530068
 20
79.0597262001
 11
173.1926930544
 21
79.0597262001
  0
LINE
  5
29C
100
AcDbEntity
  8
IMPORT_IGES
100
AcDbLine
 62
7
  6
CONTINUOUS
 10
172.7353530068
 20
79.0597262001
 11
173.1926930544
 21
79.0597262001
  0
LINE
  5
29D
100
AcDbEntity
  8
CURVE
100
AcDbLine
 62
250
  6
CONTINUOUS
 10
173.8958756475
 20
79.0597262001
 11
174.3375608219
 21
79.0597262001
  0
LINE
  5
29E
100
AcDbEntity
  8
IMPORT_IGES
100
AcDbLine
 62
7
  6
CONTINUOUS
 10
173.8958756475
 20
79.0597262001
 11
174.3375608219
 21
79.0597262001
  0
LINE
  5
29F
100
AcDbEntity
  8
CURVE
100
AcDbLine
 62
250
  6
CONTINUOUS
 10
171.997594694
 20
79.498887454
 11
171.3722572938
 21
79.498887454
  0
LINE
  5
2A0
100
AcDbEntity
  8
IMPORT_IGES
100
AcDbLine
 62
7
  6
CONTINUOUS
 10
171.997594694
 20
79.498887454
 11
171.3722572938
 21
79.498887454
  0
LINE
  5
2A1
100
AcDbEntity
  8
CURVE
100
AcDbLine
 62
250
  6
CONTINUOUS
 10
171.4661868134
 20
79.8387088671
 11
171.9058264124
 21
79.8387088671
  0
LINE
  5
2A2
100
AcDbEntity
  8
IMPORT_IGES
100
AcDbLine
 62
7
  6
CONTINUOUS
 10
171.4661868134
 20
79.8387088671
 11
171.9058264124
 21
79.8387088671
  0
LINE
  5
2A3
100
AcDbEntity
  8
CURVE
100
AcDbLine
 62
250
  6
CONTINUOUS
 10
173.1926930544
 20
79.9206122579
 11
173.4388985158
 21
79.9206122579
  0
LINE
  5
2A4
100
AcDbEntity
  8
IMPORT_IGES
100
AcDbLine
 62
7
  6
CONTINUOUS
 10
173.1926930544
 20
79.9206122579
 11
173.4388985158
 21
79.9206122579
  0
LINE
  5
2A5
100
AcDbEntity
  8
CURVE
100
AcDbLine
 62
250
  6
CONTINUOUS
 10
173.4398882865
 20
80.2808887924
 11
173.1774670818
 21
80.2808887924
  0
LINE
  5
2A6
100
AcDbEntity
  8
IMPORT_IGES
100
AcDbLine
 62
7
  6
CONTINUOUS
 10
173.4398882865
 20
80.2808887924
 11
173.1774670818
 21
80.2808887924
  0
LINE
  5
2A7
100
AcDbEntity
  8
CURVE
100
AcDbLine
 62
250
  6
CONTINUOUS
 10
165.802305928
 20
81.2595410882
 11
166.3011255243
 21
81.2595410882
  0
LINE
  5
2A8
100
AcDbEntity
  8
IMPORT_IGES
100
AcDbLine
 62
7
  6
CONTINUOUS
 10
165.802305928
 20
81.2595410882
 11
166.3011255243
 21
81.2595410882
  0
LINE
  5
2A9
100
AcDbEntity
  8
CURVE
100
AcDbLine
 62
250
  6
CONTINUOUS
 10
167.1525841523
 20
81.2595410882
 11
167.6114590838
 21
81.2595410882
  0
LINE
  5
2AA
100
AcDbEntity
  8
IMPORT_IGES
100
AcDbLine
 62
7
  6
CONTINUOUS
 10
167.1525841523
 20
81.2595410882
 11
167.6114590838
 21
81.2595410882
  0
LINE
  5
2AB
100
AcDbEntity
  8
CURVE
100
AcDbLine
 62
250
  6
CONTINUOUS
 10
168.6868777016
 20
81.2595410882
 11
169.1456855855
 21
81.2595410882
  0
LINE
  5
2AC
100
AcDbEntity
  8
IMPORT_IGES
100
AcDbLine
 62
7
  6
CONTINUOUS
 10
168.6868777016
 20
81.2595410882
 11
169.1456855855
 21
81.2595410882
  0
LINE
  5
2AD
100
AcDbEntity
  8
CURVE
100
AcDbLine
 62
250
  6
CONTINUOUS
 10
170.0592114488
 20
81.2595410882
 11
170.5135323805
 21
81.2595410882
  0
LINE
  5
2AE
100
AcDbEntity
  8
IMPORT_IGES
100
AcDbLine
 62
7
  6
CONTINUOUS
 10
170.0592114488
 20
81.2595410882
 11
170.5135323805
 21
81.2595410882
  0
LINE
  5
2AF
100
AcDbEntity
  8
CURVE
100
AcDbLine
 62
250
  6
CONTINUOUS
 10
171.4813469079
 20
81.2595410882
 11
171.9255551735
 21
81.2595410882
  0
LINE
  5
2B0
100
AcDbEntity
  8
IMPORT_IGES
100
AcDbLine
 62
7
  6
CONTINUOUS
 10
171.4813469079
 20
81.2595410882
 11
171.9255551735
 21
81.2595410882
  0
LINE
  5
2B1
100
AcDbEntity
  8
CURVE
100
AcDbLine
 62
250
  6
CONTINUOUS
 10
168.2410519124
 20
81.2596730882
 11
167.7818637428
 21
81.2596730882
  0
LINE
  5
2B2
100
AcDbEntity
  8
IMPORT_IGES
100
AcDbLine
 62
7
  6
CONTINUOUS
 10
168.2410519124
 20
81.2596730882
 11
167.7818637428
 21
81.2596730882
  0
LWPOLYLINE
  5
2B3
100
AcDbEntity
  8
CURVE
100
AcDbPolyline
 62
250
  6
CONTINUOUS
 90
46
 70
0
 10
173.4388985158
 20
79.9206122579
 10
173.4464100339
 20
79.9205064472
 10
173.4539334546
 20
79.9201890287
 10
173.461460455
 20
79.9196600231
 10
173.4689827119
 20
79.918919451
 10
173.4764919025
 20
79.9179673331
 10
173.4839797036
 20
79.9168036899
 10
173.4914377924
 20
79.915428542
 10
173.4988578456
 20
79.9138419102
 10
173.5062315404
 20
79.9120438149
 10
173.5135505537
 20
79.9100342769
 10
173.5208065626
 20
79.9078133167
 10
173.5279912439
 20
79.905380955
 10
173.5350962748
 20
79.9027372124
 10
173.542113332
 20
79.8998821095
 10
173.5490340928
 20
79.8968156669
 10
173.555850234
 20
79.8935379053
 10
173.5623841582
 20
79.8901416032
 10
173.568807528
 20
79.8865498998
 10
173.5751170268
 20
79.8827680197
 10
173.581309338
 20
79.8788011874
 10
173.5873811452
 20
79.8746546273
 10
173.5933291317
 20
79.8703335642
 10
173.5991499809
 20
79.8658432225
 10
173.6048403765
 20
79.8611888268
 10
173.6103970017
 20
79.8563756016
 10
173.61581654
 20
79.8514087714
 10
173.621095675
 20
79.8462935609
 10
173.62623109
 20
79.8410351946
 10
173.6312194684
 20
79.8356388969
 10
173.6364339738
 20
79.8296680956
 10
173.6414755619
 20
79.823550476
 10
173.6463463447
 20
79.8172937064
 10
173.6510484342
 20
79.8109054552
 10
173.6555839422
 20
79.8043933908
 10
173.6599549806
 20
79.7977651816
 10
173.6641636615
 20
79.7910284958
 10
173.6682120967
 20
79.7841910019
 10
173.6721023982
 20
79.7772603683
 10
173.6758366778
 20
79.7702442633
 10
173.6794170475
 20
79.7631503553
 10
173.6828456193
 20
79.7559863126
 10
173.686124505
 20
79.7487598036
 10
173.6892558166
 20
79.7414784967
 10
173.6922416659
 20
79.7341500603
 10
173.695084165
 20
79.7267821627
  0
LWPOLYLINE
  5
2B4
100
AcDbEntity
  8
IMPORT_IGES
100
AcDbPolyline
 62
7
  6
CONTINUOUS
 90
46
 70
0
 10
173.4388985158
 20
79.9206122579
 10
173.4464100339
 20
79.9205064472
 10
173.4539334546
 20
79.9201890287
 10
173.461460455
 20
79.9196600231
 10
173.4689827119
 20
79.918919451
 10
173.4764919025
 20
79.9179673331
 10
173.4839797036
 20
79.9168036899
 10
173.4914377924
 20
79.915428542
 10
173.4988578456
 20
79.9138419102
 10
173.5062315404
 20
79.9120438149
 10
173.5135505537
 20
79.9100342769
 10
173.5208065626
 20
79.9078133167
 10
173.5279912439
 20
79.905380955
 10
173.5350962748
 20
79.9027372124
 10
173.542113332
 20
79.8998821095
 10
173.5490340928
 20
79.8968156669
 10
173.555850234
 20
79.8935379053
 10
173.5623841582
 20
79.8901416032
 10
173.568807528
 20
79.8865498998
 10
173.5751170268
 20
79.8827680197
 10
173.581309338
 20
79.8788011874
 10
173.5873811452
 20
79.8746546273
 10
173.5933291317
 20
79.8703335642
 10
173.5991499809
 20
79.8658432225
 10
173.6048403765
 20
79.8611888268
 10
173.6103970017
 20
79.8563756016
 10
173.61581654
 20
79.8514087714
 10
173.621095675
 20
79.8462935609
 10
173.62623109
 20
79.8410351946
 10
173.6312194684
 20
79.8356388969
 10
173.6364339738
 20
79.8296680956
 10
173.6414755619
 20
79.823550476
 10
173.6463463447
 20
79.8172937064
 10
173.6510484342
 20
79.8109054552
 10
173.6555839422
 20
79.8043933908
 10
173.6599549806
 20
79.7977651816
 10
173.6641636615
 20
79.7910284958
 10
173.6682120967
 20
79.7841910019
 10
173.6721023982
 20
79.7772603683
 10
173.6758366778
 20
79.7702442633
 10
173.6794170475
 20
79.7631503553
 10
173.6828456193
 20
79.7559863126
 10
173.686124505
 20
79.7487598036
 10
173.6892558166
 20
79.7414784967
 10
173.6922416659
 20
79.7341500603
 10
173.695084165
 20
79.7267821627
  0
LWPOLYLINE
  5
2B5
100
AcDbEntity
  8
0
100
AcDbPolyline
 62
250
  6
CONTINUOUS
 90
25
 70
0
 10
114.2111094678
 20
83.4741093668
 10
114.1786512473
 20
83.4751467649
 10
114.1462250053
 20
83.4783015964
 10
114.1139700393
 20
83.4835815301
 10
114.081992786
 20
83.4909939448
 10
114.050470954
 20
83.5005232949
 10
114.0196461352
 20
83.5121086311
 10
113.9896696807
 20
83.5256916203
 10
113.9606528721
 20
83.5412200787
 10
113.932761444
 20
83.5586009601
 10
113.9061227103
 20
83.5777429519
 10
113.8808335558
 20
83.5985636929
 10
113.8569999741
 20
83.6209640833
 10
113.8346992526
 20
83.6448622808
 10
113.8140404677
 20
83.670131239
 10
113.7951525758
 20
83.6965842913
 10
113.7781512555
 20
83.7239948365
 10
113.7630152648
 20
83.7523262867
 10
113.7496849657
 20
83.7816865498
 10
113.7382157454
 20
83.8120257689
 10
113.728707132
 20
83.8431656483
 10
113.7212101317
 20
83.8750389937
 10
113.7157886424
 20
83.9075369829
 10
113.7125065854
 20
83.9405058263
 10
113.7114140543
 20
83.9738047803
  0
LWPOLYLINE
  5
2B6
100
AcDbEntity
  8
ASSI
100
AcDbPolyline
 62
250
  6
CONTINUOUS
 90
25
 70
0
 10
114.2111094678
 20
83.4741093668
 10
114.1786512473
 20
83.4751467649
 10
114.1462250053
 20
83.4783015964
 10
114.1139700393
 20
83.4835815301
 10
114.081992786
 20
83.4909939448
 10
114.050470954
 20
83.5005232949
 10
114.0196461352
 20
83.5121086311
 10
113.9896696807
 20
83.5256916203
 10
113.9606528721
 20
83.5412200787
 10
113.932761444
 20
83.5586009601
 10
113.9061227103
 20
83.5777429519
 10
113.8808335558
 20
83.5985636929
 10
113.8569999741
 20
83.6209640833
 10
113.8346992526
 20
83.6448622808
 10
113.8140404677
 20
83.670131239
 10
113.7951525758
 20
83.6965842913
 10
113.7781512555
 20
83.7239948365
 10
113.7630152648
 20
83.7523262867
 10
113.7496849657
 20
83.7816865498
 10
113.7382157454
 20
83.8120257689
 10
113.728707132
 20
83.8431656483
 10
113.7212101317
 20
83.8750389937
 10
113.7157886424
 20
83.9075369829
 10
113.7125065854
 20
83.9405058263
 10
113.7114140543
 20
83.9738047803
  0
LWPOLYLINE
  5
2B7
100
AcDbEntity
  8
0
100
AcDbPolyline
 62
250
  6
CONTINUOUS
 90
25
 70
0
 10
114.2111094678
 20
83.2742312014
 10
114.1653613053
 20
83.2757089884
 10
114.1200494597
 20
83.2801492213
 10
114.0751739309
 20
83.2875519001
 10
114.0304950611
 20
83.2979736163
 10
113.9862525081
 20
83.3113577784
 10
113.9431652451
 20
83.327534612
 10
113.9012819472
 20
83.3465561664
 10
113.8605539392
 20
83.3683703922
 10
113.8215541686
 20
83.3926513664
 10
113.7843289115
 20
83.419425978
 10
113.7488318919
 20
83.448667338
 10
113.7154972287
 20
83.4799688566
 10
113.6843417438
 20
83.5133907135
 10
113.6553486154
 20
83.548872729
 10
113.6289014978
 20
83.5858277744
 10
113.6050964745
 20
83.6241239987
 10
113.5838374621
 20
83.6638932527
 10
113.5652198646
 20
83.7049439606
 10
113.5491880353
 20
83.7473593302
 10
113.5357976209
 20
83.7910561536
 10
113.5253109647
 20
83.8355932303
 10
113.5178155145
 20
83.8808234936
 10
113.5132238226
 20
83.9268940103
 10
113.5115358889
 20
83.9738047803
  0
LWPOLYLINE
  5
2B8
100
AcDbEntity
  8
ASSI
100
AcDbPolyline
 62
250
  6
CONTINUOUS
 90
25
 70
0
 10
114.2111094678
 20
83.2742312014
 10
114.1653613053
 20
83.2757089884
 10
114.1200494597
 20
83.2801492213
 10
114.0751739309
 20
83.2875519001
 10
114.0304950611
 20
83.2979736163
 10
113.9862525081
 20
83.3113577784
 10
113.9431652451
 20
83.327534612
 10
113.9012819472
 20
83.3465561664
 10
113.8605539392
 20
83.3683703922
 10
113.8215541686
 20
83.3926513664
 10
113.7843289115
 20
83.419425978
 10
113.7488318919
 20
83.448667338
 10
113.7154972287
 20
83.4799688566
 10
113.6843417438
 20
83.5133907135
 10
113.6553486154
 20
83.548872729
 10
113.6289014978
 20
83.5858277744
 10
113.6050964745
 20
83.6241239987
 10
113.5838374621
 20
83.6638932527
 10
113.5652198646
 20
83.7049439606
 10
113.5491880353
 20
83.7473593302
 10
113.5357976209
 20
83.7910561536
 10
113.5253109647
 20
83.8355932303
 10
113.5178155145
 20
83.8808234936
 10
113.5132238226
 20
83.9268940103
 10
113.5115358889
 20
83.9738047803
  0
LWPOLYLINE
  5
2B9
100
AcDbEntity
  8
CURVE
100
AcDbPolyline
 62
250
  6
CONTINUOUS
 90
49
 70
0
 10
173.5371992424
 20
80.8977303882
 10
173.5456150212
 20
80.8966397542
 10
173.5540313738
 20
80.8953216345
 10
173.5624390306
 20
80.8937766687
 10
173.5708287224
 20
80.8920054963
 10
173.5791911794
 20
80.8900087568
 10
173.5875171324
 20
80.8877870896
 10
173.5957973117
 20
80.8853411344
 10
173.604022448
 20
80.8826715306
 10
173.6121832718
 20
80.8797789178
 10
173.6202705136
 20
80.8766639354
 10
173.6282749039
 20
80.873327223
 10
173.6361871732
 20
80.8697694202
 10
173.6439980522
 20
80.8659911663
 10
173.6516982712
 20
80.861993101
 10
173.659278561
 20
80.8577758637
 10
173.6667296518
 20
80.8533400939
 10
173.6740422744
 20
80.8486864313
 10
173.6812071592
 20
80.8438155153
 10
173.6882150368
 20
80.8387279853
 10
173.6950566377
 20
80.833424481
 10
173.7017226923
 20
80.8279056419
 10
173.7082039314
 20
80.8221721074
 10
173.7144910853
 20
80.8162245171
 10
173.7205748846
 20
80.8100635105
 10
173.7264160792
 20
80.8037262005
 10
173.7320442725
 20
80.7971883428
 10
173.7374568013
 20
80.7904598793
 10
173.7426510026
 20
80.7835507517
 10
173.7476242134
 20
80.7764709018
 10
173.7523737706
 20
80.7692302715
 10
173.7568970111
 20
80.7618388025
 10
173.7611912719
 20
80.7543064365
 10
173.7652538899
 20
80.7466431154
 10
173.7690822021
 20
80.738858781
 10
173.7726735454
 20
80.7309633749
 10
173.7760252568
 20
80.7229668391
 10
173.7791346731
 20
80.7148791153
 10
173.7819991315
 20
80.7067101453
 10
173.7846159687
 20
80.6984698709
 10
173.7869825218
 20
80.6901682338
 10
173.7890961277
 20
80.6818151758
 10
173.7909541233
 20
80.6734206387
 10
173.7925538456
 20
80.6649945644
 10
173.7938926315
 20
80.6565468945
 10
173.7949678179
 20
80.6480875709
 10
173.7957767419
 20
80.6396265354
 10
173.7963167404
 20
80.6311737297
 10
173.7965851502
 20
80.6227390956
  0
LWPOLYLINE
  5
2BA
100
AcDbEntity
  8
IMPORT_IGES
100
AcDbPolyline
 62
7
  6
CONTINUOUS
 90
49
 70
0
 10
173.5371992424
 20
80.8977303882
 10
173.5456150212
 20
80.8966397542
 10
173.5540313738
 20
80.8953216345
 10
173.5624390306
 20
80.8937766687
 10
173.5708287224
 20
80.8920054963
 10
173.5791911794
 20
80.8900087568
 10
173.5875171324
 20
80.8877870896
 10
173.5957973117
 20
80.8853411344
 10
173.604022448
 20
80.8826715306
 10
173.6121832718
 20
80.8797789178
 10
173.6202705136
 20
80.8766639354
 10
173.6282749039
 20
80.873327223
 10
173.6361871732
 20
80.8697694202
 10
173.6439980522
 20
80.8659911663
 10
173.6516982712
 20
80.861993101
 10
173.659278561
 20
80.8577758637
 10
173.6667296518
 20
80.8533400939
 10
173.6740422744
 20
80.8486864313
 10
173.6812071592
 20
80.8438155153
 10
173.6882150368
 20
80.8387279853
 10
173.6950566377
 20
80.833424481
 10
173.7017226923
 20
80.8279056419
 10
173.7082039314
 20
80.8221721074
 10
173.7144910853
 20
80.8162245171
 10
173.7205748846
 20
80.8100635105
 10
173.7264160792
 20
80.8037262005
 10
173.7320442725
 20
80.7971883428
 10
173.7374568013
 20
80.7904598793
 10
173.7426510026
 20
80.7835507517
 10
173.7476242134
 20
80.7764709018
 10
173.7523737706
 20
80.7692302715
 10
173.7568970111
 20
80.7618388025
 10
173.7611912719
 20
80.7543064365
 10
173.7652538899
 20
80.7466431154
 10
173.7690822021
 20
80.738858781
 10
173.7726735454
 20
80.7309633749
 10
173.7760252568
 20
80.7229668391
 10
173.7791346731
 20
80.7148791153
 10
173.7819991315
 20
80.7067101453
 10
173.7846159687
 20
80.6984698709
 10
173.7869825218
 20
80.6901682338
 10
173.7890961277
 20
80.6818151758
 10
173.7909541233
 20
80.6734206387
 10
173.7925538456
 20
80.6649945644
 10
173.7938926315
 20
80.6565468945
 10
173.7949678179
 20
80.6480875709
 10
173.7957767419
 20
80.6396265354
 10
173.7963167404
 20
80.6311737297
 10
173.7965851502
 20
80.6227390956
  0
LINE
  5
2BB
100
AcDbEntity
  8
SMUSSO
100
AcDbLine
 62
7
  6
CONTINUOUS
 10
90.6543784185
 20
149.9288018419
 11
90.460546875
 21
150.1226333854
  0
LINE
  5
2BC
100
AcDbEntity
  8
ASSI
100
AcDbLine
 62
7
  6
CONTINUOUS
 10
90.6543784185
 20
149.9288018419
 11
90.460546875
 21
150.1226333854
  0
LINE
  5
2BD
100
AcDbEntity
  8
0
100
AcDbLine
 62
250
  6
CONTINUOUS
 10
113.7114140543
 20
128.2726795947
 11
113.760546875
 21
128.223546774
  0
LINE
  5
2BE
100
AcDbEntity
  8
ASSI
100
AcDbLine
 62
250
  6
CONTINUOUS
 10
113.7114140543
 20
128.2726795947
 11
113.760546875
 21
128.223546774
  0
LINE
  5
2BF
100
AcDbEntity
  8
SMUSSO
100
AcDbLine
 62
7
  6
CONTINUOUS
 10
91.6549872206
 20
150.929410644
 11
91.4611556771
 21
151.1232421875
  0
LINE
  5
2C0
100
AcDbEntity
  8
ASSI
100
AcDbLine
 62
7
  6
CONTINUOUS
 10
91.6549872206
 20
150.929410644
 11
91.4611556771
 21
151.1232421875
  0
LINE
  5
2C1
100
AcDbEntity
  8
0
100
AcDbLine
 62
250
  6
CONTINUOUS
 10
114.2111094678
 20
83.4741093668
 11
114.2602422885
 21
83.5232421875
  0
LINE
  5
2C2
100
AcDbEntity
  8
ASSI
100
AcDbLine
 62
250
  6
CONTINUOUS
 10
114.2111094678
 20
83.4741093668
 11
114.2602422885
 21
83.5232421875
  0
LINE
  5
2C3
100
AcDbEntity
  8
0
100
AcDbLine
 62
250
  6
CONTINUOUS
 10
226.0099842822
 20
83.2742312014
 11
114.2111094678
 21
83.2742312014
  0
LINE
  5
2C4
100
AcDbEntity
  8
ASSI
100
AcDbLine
 62
250
  6
CONTINUOUS
 10
226.0099842822
 20
83.2742312014
 11
114.2111094678
 21
83.2742312014
  0
LINE
  5
2C5
100
AcDbEntity
  8
0
100
AcDbLine
 62
250
  6
CONTINUOUS
 10
226.0099842822
 20
83.4741093668
 11
114.2111094678
 21
83.4741093668
  0
LINE
  5
2C6
100
AcDbEntity
  8
ASSI
100
AcDbLine
 62
250
  6
CONTINUOUS
 10
226.0099842822
 20
83.4741093668
 11
114.2111094678
 21
83.4741093668
  0
LINE
  5
2C7
100
AcDbEntity
  8
0
100
AcDbLine
 62
7
  6
CONTINUOUS
 10
114.2602422885
 20
83.5232421875
 11
225.9608514615
 21
83.5232421875
  0
LINE
  5
2C8
100
AcDbEntity
  8
ASSI
100
AcDbLine
 62
7
  6
CONTINUOUS
 10
114.2602422885
 20
83.5232421875
 11
225.9608514615
 21
83.5232421875
  0
LINE
  5
2C9
100
AcDbEntity
  8
0
100
AcDbLine
 62
250
  6
CONTINUOUS
 10
226.7095578611
 20
83.9738047803
 11
226.5096796957
 21
83.9738047803
  0
LINE
  5
2CA
100
AcDbEntity
  8
ASSI
100
AcDbLine
 62
250
  6
CONTINUOUS
 10
226.7095578611
 20
83.9738047803
 11
226.5096796957
 21
83.9738047803
  0
LINE
  5
2CB
100
AcDbEntity
  8
0
100
AcDbLine
 62
250
  6
CONTINUOUS
 10
113.5115358889
 20
83.9738047803
 11
113.7114140543
 21
83.9738047803
  0
LINE
  5
2CC
100
AcDbEntity
  8
ASSI
100
AcDbLine
 62
250
  6
CONTINUOUS
 10
113.5115358889
 20
83.9738047803
 11
113.7114140543
 21
83.9738047803
  0
LWPOLYLINE
  5
2CD
100
AcDbEntity
  8
CURVE
100
AcDbPolyline
 62
250
  6
CONTINUOUS
 90
30
 70
0
 10
173.8685579762
 20
81.210679387
 10
173.8419755893
 20
81.2198340782
 10
173.815135077
 20
81.2282129118
 10
173.788059955
 20
81.2358504754
 10
173.7607737389
 20
81.2427813565
 10
173.7332999443
 20
81.2490401428
 10
173.705662087
 20
81.2546614219
 10
173.6778836825
 20
81.2596797813
 10
173.6499882465
 20
81.2641298087
 10
173.6219992946
 20
81.2680460915
 10
173.5939403424
 20
81.2714632175
 10
173.5658349056
 20
81.2744157742
 10
173.5377064999
 20
81.2769383492
 10
173.4963625962
 20
81.2799278715
 10
173.4550216125
 20
81.2821126064
 10
173.413685288
 20
81.2835417883
 10
173.372355362
 20
81.2842646515
 10
173.3310335737
 20
81.2843304301
 10
173.2897216624
 20
81.2837883584
 10
173.2484213672
 20
81.2826876707
 10
173.2071344275
 20
81.2810776012
 10
173.1545230448
 20
81.278353182
 10
173.1019431763
 20
81.2749159636
 10
173.0494018043
 20
81.2708009812
 10
172.9969059112
 20
81.2660432702
 10
172.9444624791
 20
81.2606778659
 10
172.8920784903
 20
81.2547398036
 10
172.8397609271
 20
81.2482641185
 10
172.7875167719
 20
81.241285846
 10
172.7353530068
 20
81.2338400214
  0
LWPOLYLINE
  5
2CE
100
AcDbEntity
  8
IMPORT_IGES
100
AcDbPolyline
 62
7
  6
CONTINUOUS
 90
30
 70
0
 10
173.8685579762
 20
81.210679387
 10
173.8419755893
 20
81.2198340782
 10
173.815135077
 20
81.2282129118
 10
173.788059955
 20
81.2358504754
 10
173.7607737389
 20
81.2427813565
 10
173.7332999443
 20
81.2490401428
 10
173.705662087
 20
81.2546614219
 10
173.6778836825
 20
81.2596797813
 10
173.6499882465
 20
81.2641298087
 10
173.6219992946
 20
81.2680460915
 10
173.5939403424
 20
81.2714632175
 10
173.5658349056
 20
81.2744157742
 10
173.5377064999
 20
81.2769383492
 10
173.4963625962
 20
81.2799278715
 10
173.4550216125
 20
81.2821126064
 10
173.413685288
 20
81.2835417883
 10
173.372355362
 20
81.2842646515
 10
173.3310335737
 20
81.2843304301
 10
173.2897216624
 20
81.2837883584
 10
173.2484213672
 20
81.2826876707
 10
173.2071344275
 20
81.2810776012
 10
173.1545230448
 20
81.278353182
 10
173.1019431763
 20
81.2749159636
 10
173.0494018043
 20
81.2708009812
 10
172.9969059112
 20
81.2660432702
 10
172.9444624791
 20
81.2606778659
 10
172.8920784903
 20
81.2547398036
 10
172.8397609271
 20
81.2482641185
 10
172.7875167719
 20
81.241285846
 10
172.7353530068
 20
81.2338400214
  0
LINE
  5
2CF
100
AcDbEntity
  8
0
100
AcDbLine
 62
250
  6
CONTINUOUS
 10
114.2111094678
 20
128.7723750082
 11
114.2602422885
 21
128.7232421875
  0
LINE
  5
2D0
100
AcDbEntity
  8
ASSI
100
AcDbLine
 62
250
  6
CONTINUOUS
 10
114.2111094678
 20
128.7723750082
 11
114.2602422885
 21
128.7232421875
  0
LWPOLYLINE
  5
2D1
100
AcDbEntity
  8
0
100
AcDbPolyline
 62
7
  6
CONTINUOUS
 90
3
 70
0
 43
0.3500000006
 10
172.0034060669
 20
162.1589588013
 10
171.9319839478
 20
161.9446743164
 10
171.789121582
 20
161.658949585
  0
LINE
  5
2D2
100
AcDbEntity
  8
CURVE
100
AcDbLine
 62
250
  6
CONTINUOUS
 10
166.499690182
 20
79.0597266168
 11
165.802305928
 21
81.2595410882
  0
LINE
  5
2D3
100
AcDbEntity
  8
IMPORT_IGES
100
AcDbLine
 62
7
  6
CONTINUOUS
 10
166.499690182
 20
79.0597266168
 11
165.802305928
 21
81.2595410882
  0
LINE
  5
2D4
100
AcDbEntity
  8
SMUSSO
100
AcDbLine
 62
7
  6
CONTINUOUS
 10
248.5318158348
 20
149.4999795977
 11
249.5512461973
 21
149.9432276574
  0
LINE
  5
2D5
100
AcDbEntity
  8
ASSI
100
AcDbLine
 62
7
  6
CONTINUOUS
 10
248.5318158348
 20
149.4999795977
 11
249.5512461973
 21
149.9432276574
  0
LINE
  5
2D6
100
AcDbEntity
  8
SMUSSO
100
AcDbLine
 62
7
  6
CONTINUOUS
 10
248.5318158348
 20
62.7465047773
 11
249.5512461973
 21
62.3032567176
  0
LINE
  5
2D7
100
AcDbEntity
  8
ASSI
100
AcDbLine
 62
7
  6
CONTINUOUS
 10
248.5318158348
 20
62.7465047773
 11
249.5512461973
 21
62.3032567176
  0
LINE
  5
2D8
100
AcDbEntity
  8
CURVE
100
AcDbLine
 62
250
  6
CONTINUOUS
 10
169.5653156617
 20
79.0597266168
 11
169.0266331147
 21
80.4961641705
  0
LINE
  5
2D9
100
AcDbEntity
  8
IMPORT_IGES
100
AcDbLine
 62
7
  6
CONTINUOUS
 10
169.5653156617
 20
79.0597266168
 11
169.0266331147
 21
80.4961641705
  0
LINE
  5
2DA
100
AcDbEntity
  8
CURVE
100
AcDbLine
 62
250
  6
CONTINUOUS
 10
169.1456855855
 20
81.2595410882
 11
169.6000232792
 21
80.0381975247
  0
LINE
  5
2DB
100
AcDbEntity
  8
IMPORT_IGES
100
AcDbLine
 62
7
  6
CONTINUOUS
 10
169.1456855855
 20
81.2595410882
 11
169.6000232792
 21
80.0381975247
  0
LWPOLYLINE
  5
2DC
100
AcDbEntity
  8
CURVE
100
AcDbPolyline
 62
250
  6
CONTINUOUS
 90
6
 70
0
 10
173.695084165
 20
79.7267821627
 10
173.7026586076
 20
79.7060057433
 10
173.7098674798
 20
79.6851008035
 10
173.7167743216
 20
79.6640902091
 10
173.7234426729
 20
79.6429968264
 10
173.7299360738
 20
79.6218435213
  0
LWPOLYLINE
  5
2DD
100
AcDbEntity
  8
IMPORT_IGES
100
AcDbPolyline
 62
7
  6
CONTINUOUS
 90
6
 70
0
 10
173.695084165
 20
79.7267821627
 10
173.7026586076
 20
79.7060057433
 10
173.7098674798
 20
79.6851008035
 10
173.7167743216
 20
79.6640902091
 10
173.7234426729
 20
79.6429968264
 10
173.7299360738
 20
79.6218435213
  0
LINE
  5
2DE
100
AcDbEntity
  8
CURVE
100
AcDbLine
 62
250
  6
CONTINUOUS
 10
171.9255551735
 20
81.2595410882
 11
172.6005130475
 21
79.0597266168
  0
LINE
  5
2DF
100
AcDbEntity
  8
IMPORT_IGES
100
AcDbLine
 62
7
  6
CONTINUOUS
 10
171.9255551735
 20
81.2595410882
 11
172.6005130475
 21
79.0597266168
  0
LINE
  5
2E0
100
AcDbEntity
  8
CURVE
100
AcDbLine
 62
250
  6
CONTINUOUS
 10
166.3011255243
 20
81.2595410882
 11
166.7204507434
 21
79.7453408713
  0
LINE
  5
2E1
100
AcDbEntity
  8
IMPORT_IGES
100
AcDbLine
 62
7
  6
CONTINUOUS
 10
166.3011255243
 20
81.2595410882
 11
166.7204507434
 21
79.7453408713
  0
LINE
  5
2E2
100
AcDbEntity
  8
CURVE
100
AcDbLine
 62
250
  6
CONTINUOUS
 10
170.5135323805
 20
81.2595410882
 11
170.7192397045
 21
79.0597266168
  0
LINE
  5
2E3
100
AcDbEntity
  8
IMPORT_IGES
100
AcDbLine
 62
7
  6
CONTINUOUS
 10
170.5135323805
 20
81.2595410882
 11
170.7192397045
 21
79.0597266168
  0
LINE
  5
2E4
100
AcDbEntity
  8
CURVE
100
AcDbLine
 62
250
  6
CONTINUOUS
 10
170.2700322011
 20
79.0597266168
 11
170.1756909673
 21
80.4901759803
  0
LINE
  5
2E5
100
AcDbEntity
  8
IMPORT_IGES
100
AcDbLine
 62
7
  6
CONTINUOUS
 10
170.2700322011
 20
79.0597266168
 11
170.1756909673
 21
80.4901759803
  0
LINE
  5
2E6
100
AcDbEntity
  8
CURVE
100
AcDbLine
 62
250
  6
CONTINUOUS
 10
167.7818637428
 20
81.2596730882
 11
167.7818637428
 21
79.0597266168
  0
LINE
  5
2E7
100
AcDbEntity
  8
IMPORT_IGES
100
AcDbLine
 62
7
  6
CONTINUOUS
 10
167.7818637428
 20
81.2596730882
 11
167.7818637428
 21
79.0597266168
  0
LINE
  5
2E8
100
AcDbEntity
  8
CURVE
100
AcDbLine
 62
250
  6
CONTINUOUS
 10
168.2410519124
 20
79.0597266168
 11
168.2410519124
 21
81.2596730882
  0
LINE
  5
2E9
100
AcDbEntity
  8
IMPORT_IGES
100
AcDbLine
 62
7
  6
CONTINUOUS
 10
168.2410519124
 20
79.0597266168
 11
168.2410519124
 21
81.2596730882
  0
LINE
  5
2EA
100
AcDbEntity
  8
CURVE
100
AcDbLine
 62
250
  6
CONTINUOUS
 10
169.0266331147
 20
80.4961641705
 11
168.9275398812
 21
79.0597266168
  0
LINE
  5
2EB
100
AcDbEntity
  8
IMPORT_IGES
100
AcDbLine
 62
7
  6
CONTINUOUS
 10
169.0266331147
 20
80.4961641705
 11
168.9275398812
 21
79.0597266168
  0
LINE
  5
2EC
100
AcDbEntity
  8
CURVE
100
AcDbLine
 62
250
  6
CONTINUOUS
 10
168.488247044
 20
79.0597266168
 11
168.6868777016
 21
81.2595410882
  0
LINE
  5
2ED
100
AcDbEntity
  8
IMPORT_IGES
100
AcDbLine
 62
7
  6
CONTINUOUS
 10
168.488247044
 20
79.0597266168
 11
168.6868777016
 21
81.2595410882
  0
LWPOLYLINE
  5
2EE
100
AcDbEntity
  8
0
100
AcDbPolyline
 62
7
  6
CONTINUOUS
 90
13
 70
0
 43
0.3500000006
 10
258.1534006348
 20
106.1232397156
 10
256.8676937256
 20
106.1232397156
 10
256.4391247559
 20
106.3375242004
 10
256.0105557861
 20
106.7661022339
 10
256.0105557861
 20
106.9803867188
 10
256.4391247559
 20
107.4089556885
 10
256.8676937256
 20
107.6232401733
 10
258.1534006348
 20
107.6232401733
 10
258.5819696045
 20
107.4089556885
 10
259.0105385742
 20
106.9803867188
 10
259.0105385742
 20
106.7661022339
 10
258.5819696045
 20
106.3375242004
 10
258.1534006348
 20
106.1232397156
  0
LINE
  5
2EF
100
AcDbEntity
  8
CURVE
100
AcDbLine
 62
250
  6
CONTINUOUS
 10
173.7299360738
 20
79.6218435213
 11
173.8098748839
 21
79.3549376832
  0
LINE
  5
2F0
100
AcDbEntity
  8
IMPORT_IGES
100
AcDbLine
 62
7
  6
CONTINUOUS
 10
173.7299360738
 20
79.6218435213
 11
173.8098748839
 21
79.3549376832
  0
LWPOLYLINE
  5
2F1
100
AcDbEntity
  8
CURVE
100
AcDbPolyline
 62
250
  6
CONTINUOUS
 90
3
 70
0
 10
173.8098748839
 20
79.3549376832
 10
173.869900095
 20
79.1495850075
 10
173.8958756475
 20
79.0597262001
  0
LWPOLYLINE
  5
2F2
100
AcDbEntity
  8
IMPORT_IGES
100
AcDbPolyline
 62
7
  6
CONTINUOUS
 90
3
 70
0
 10
173.8098748839
 20
79.3549376832
 10
173.869900095
 20
79.1495850075
 10
173.8958756475
 20
79.0597262001
  0
LWPOLYLINE
  5
2F3
100
AcDbEntity
  8
CURVE
100
AcDbPolyline
 62
250
  6
CONTINUOUS
 90
38
 70
0
 10
174.1633935572
 20
79.7175708576
 10
174.1589387532
 20
79.7331576446
 10
174.1543746573
 20
79.7487123747
 10
174.1496781029
 20
79.764224067
 10
174.1448259232
 20
79.7796817401
 10
174.1397949515
 20
79.7950744131
 10
174.1345620212
 20
79.8103911046
 10
174.1291039654
 20
79.8256208337
 10
174.1233976175
 20
79.8407526192
 10
174.1174198107
 20
79.8557754799
 10
174.1111473784
 20
79.8706784346
 10
174.1045571539
 20
79.8854505024
 10
174.0976259703
 20
79.900080702
 10
174.0926632438
 20
79.910024563
 10
174.0875196803
 20
79.9198833333
 10
174.0821856914
 20
79.9296438071
 10
174.0766516884
 20
79.9392927788
 10
174.0709080828
 20
79.9488170426
 10
174.0649452859
 20
79.9582033928
 10
174.0587537092
 20
79.9674386238
 10
174.0523237642
 20
79.9765095298
 10
174.0456458622
 20
79.985402905
 10
174.0387104146
 20
79.9941055439
 10
174.0315078329
 20
80.0026042406
 10
174.0240285285
 20
80.0108857895
 10
174.016929665
 20
80.0182685353
 10
174.0095985616
 20
80.0254437278
 10
174.0020431674
 20
80.0323970594
 10
173.9942714313
 20
80.0391142222
 10
173.9862913024
 20
80.0455809084
 10
173.9781107296
 20
80.0517828102
 10
173.969737662
 20
80.05770562
 10
173.9611800485
 20
80.0633350298
 10
173.9524458381
 20
80.068656732
 10
173.9435429799
 20
80.0736564186
 10
173.9344794228
 20
80.0783197821
 10
173.9252631158
 20
80.0826325144
 10
173.915902008
 20
80.086580308
  0
LWPOLYLINE
  5
2F4
100
AcDbEntity
  8
IMPORT_IGES
100
AcDbPolyline
 62
7
  6
CONTINUOUS
 90
38
 70
0
 10
174.1633935572
 20
79.7175708576
 10
174.1589387532
 20
79.7331576446
 10
174.1543746573
 20
79.7487123747
 10
174.1496781029
 20
79.764224067
 10
174.1448259232
 20
79.7796817401
 10
174.1397949515
 20
79.7950744131
 10
174.1345620212
 20
79.8103911046
 10
174.1291039654
 20
79.8256208337
 10
174.1233976175
 20
79.8407526192
 10
174.1174198107
 20
79.8557754799
 10
174.1111473784
 20
79.8706784346
 10
174.1045571539
 20
79.8854505024
 10
174.0976259703
 20
79.900080702
 10
174.0926632438
 20
79.910024563
 10
174.0875196803
 20
79.9198833333
 10
174.0821856914
 20
79.9296438071
 10
174.0766516884
 20
79.9392927788
 10
174.0709080828
 20
79.9488170426
 10
174.0649452859
 20
79.9582033928
 10
174.0587537092
 20
79.9674386238
 10
174.0523237642
 20
79.9765095298
 10
174.0456458622
 20
79.985402905
 10
174.0387104146
 20
79.9941055439
 10
174.0315078329
 20
80.0026042406
 10
174.0240285285
 20
80.0108857895
 10
174.016929665
 20
80.0182685353
 10
174.0095985616
 20
80.0254437278
 10
174.0020431674
 20
80.0323970594
 10
173.9942714313
 20
80.0391142222
 10
173.9862913024
 20
80.0455809084
 10
173.9781107296
 20
80.0517828102
 10
173.969737662
 20
80.05770562
 10
173.9611800485
 20
80.0633350298
 10
173.9524458381
 20
80.068656732
 10
173.9435429799
 20
80.0736564186
 10
173.9344794228
 20
80.0783197821
 10
173.9252631158
 20
80.0826325144
 10
173.915902008
 20
80.086580308
  0
LINE
  5
2F5
100
AcDbEntity
  8
CURVE
100
AcDbLine
 62
250
  6
CONTINUOUS
 10
174.1720679566
 20
79.6863450377
 11
174.1633935572
 21
79.7175708576
  0
LINE
  5
2F6
100
AcDbEntity
  8
IMPORT_IGES
100
AcDbLine
 62
7
  6
CONTINUOUS
 10
174.1720679566
 20
79.6863450377
 11
174.1633935572
 21
79.7175708576
  0
LINE
  5
2F7
100
AcDbEntity
  8
CURVE
100
AcDbLine
 62
250
  6
CONTINUOUS
 10
172.1165486886
 20
79.0597266168
 11
171.997594694
 21
79.498887454
  0
LINE
  5
2F8
100
AcDbEntity
  8
IMPORT_IGES
100
AcDbLine
 62
7
  6
CONTINUOUS
 10
172.1165486886
 20
79.0597266168
 11
171.997594694
 21
79.498887454
  0
LINE
  5
2F9
100
AcDbEntity
  8
CURVE
100
AcDbLine
 62
250
  6
CONTINUOUS
 10
174.2020297357
 20
79.5756640187
 11
174.1720679566
 21
79.6863450377
  0
LINE
  5
2FA
100
AcDbEntity
  8
IMPORT_IGES
100
AcDbLine
 62
7
  6
CONTINUOUS
 10
174.2020297357
 20
79.5756640187
 11
174.1720679566
 21
79.6863450377
  0
LINE
  5
2FB
100
AcDbEntity
  8
CURVE
100
AcDbLine
 62
250
  6
CONTINUOUS
 10
174.3375608219
 20
79.0597262001
 11
174.3166106683
 21
79.1382635827
  0
LINE
  5
2FC
100
AcDbEntity
  8
IMPORT_IGES
100
AcDbLine
 62
7
  6
CONTINUOUS
 10
174.3375608219
 20
79.0597262001
 11
174.3166106683
 21
79.1382635827
  0
LINE
  5
2FD
100
AcDbEntity
  8
CURVE
100
AcDbLine
 62
250
  6
CONTINUOUS
 10
174.2440637542
 20
79.4165165932
 11
174.2020297357
 21
79.5756640187
  0
LINE
  5
2FE
100
AcDbEntity
  8
IMPORT_IGES
100
AcDbLine
 62
7
  6
CONTINUOUS
 10
174.2440637542
 20
79.4165165932
 11
174.2020297357
 21
79.5756640187
  0
LINE
  5
2FF
100
AcDbEntity
  8
CURVE
100
AcDbLine
 62
250
  6
CONTINUOUS
 10
174.3166106683
 20
79.1382635827
 11
174.2440637542
 21
79.4165165932
  0
LINE
  5
300
100
AcDbEntity
  8
IMPORT_IGES
100
AcDbLine
 62
7
  6
CONTINUOUS
 10
174.3166106683
 20
79.1382635827
 11
174.2440637542
 21
79.4165165932
  0
LINE
  5
301
100
AcDbEntity
  8
CURVE
100
AcDbLine
 62
250
  6
CONTINUOUS
 10
171.9058264124
 20
79.8387088671
 11
171.6948233744
 21
80.6550879728
  0
LINE
  5
302
100
AcDbEntity
  8
IMPORT_IGES
100
AcDbLine
 62
7
  6
CONTINUOUS
 10
171.9058264124
 20
79.8387088671
 11
171.6948233744
 21
80.6550879728
  0
LWPOLYLINE
  5
303
100
AcDbEntity
  8
CURVE
100
AcDbPolyline
 62
250
  6
CONTINUOUS
 90
58
 70
0
 10
173.7965851502
 20
80.6227390956
 10
173.7966543272
 20
80.6125401979
 10
173.796540094
 20
80.6023118601
 10
173.7962310711
 20
80.5920649868
 10
173.7957158792
 20
80.5818104825
 10
173.7949831388
 20
80.571559252
 10
173.7940214704
 20
80.5613221997
 10
173.7928194945
 20
80.5511102304
 10
173.7913658317
 20
80.5409342486
 10
173.7896491026
 20
80.5308051589
 10
173.7876579276
 20
80.5207338661
 10
173.7853809273
 20
80.5107312746
 10
173.7828067223
 20
80.5008082891
 10
173.7799239332
 20
80.4909758142
 10
173.7767211803
 20
80.4812447545
 10
173.7731870844
 20
80.4716260147
 10
173.7693102659
 20
80.4621304993
 10
173.7654529228
 20
80.4535543412
 10
173.7613050515
 20
80.4451022684
 10
173.7568729737
 20
80.4367859234
 10
173.7521630108
 20
80.428616949
 10
173.7471814845
 20
80.4206069877
 10
173.7419347162
 20
80.4127676822
 10
173.7364290276
 20
80.405110675
 10
173.7306707401
 20
80.3976476088
 10
173.7246661754
 20
80.3903901263
 10
173.7184216549
 20
80.38334987
 10
173.7119435002
 20
80.3765384825
 10
173.705238033
 20
80.3699676065
 10
173.6983115746
 20
80.3636488847
 10
173.6911704467
 20
80.3575939595
 10
173.6834950165
 20
80.3515646258
 10
173.6756034639
 20
80.3458295129
 10
173.6675066652
 20
80.340382746
 10
173.6592154969
 20
80.3352184497
 10
173.6507408353
 20
80.3303307491
 10
173.6420935567
 20
80.3257137689
 10
173.6332845377
 20
80.3213616341
 10
173.6243246546
 20
80.3172684696
 10
173.6152247837
 20
80.3134284002
 10
173.6059958015
 20
80.3098355509
 10
173.5966485843
 20
80.3064840465
 10
173.5871940085
 20
80.3033680119
 10
173.5776429506
 20
80.300481572
 10
173.5680062868
 20
80.2978188516
 10
173.5582948937
 20
80.2953739758
 10
173.5485196475
 20
80.2931410693
 10
173.5386914247
 20
80.291114257
 10
173.5288211016
 20
80.2892876639
 10
173.5189195547
 20
80.2876554147
 10
173.5089976603
 20
80.2862116345
 10
173.4990662948
 20
80.284950448
 10
173.4891363346
 20
80.2838659802
 10
173.479218656
 20
80.282952356
 10
173.4693241356
 20
80.2822037002
 10
173.4594636496
 20
80.2816141378
 10
173.4496480744
 20
80.2811777935
 10
173.4398882865
 20
80.2808887924
  0
LWPOLYLINE
  5
304
100
AcDbEntity
  8
IMPORT_IGES
100
AcDbPolyline
 62
7
  6
CONTINUOUS
 90
58
 70
0
 10
173.7965851502
 20
80.6227390956
 10
173.7966543272
 20
80.6125401979
 10
173.796540094
 20
80.6023118601
 10
173.7962310711
 20
80.5920649868
 10
173.7957158792
 20
80.5818104825
 10
173.7949831388
 20
80.571559252
 10
173.7940214704
 20
80.5613221997
 10
173.7928194945
 20
80.5511102304
 10
173.7913658317
 20
80.5409342486
 10
173.7896491026
 20
80.5308051589
 10
173.7876579276
 20
80.5207338661
 10
173.7853809273
 20
80.5107312746
 10
173.7828067223
 20
80.5008082891
 10
173.7799239332
 20
80.4909758142
 10
173.7767211803
 20
80.4812447545
 10
173.7731870844
 20
80.4716260147
 10
173.7693102659
 20
80.4621304993
 10
173.7654529228
 20
80.4535543412
 10
173.7613050515
 20
80.4451022684
 10
173.7568729737
 20
80.4367859234
 10
173.7521630108
 20
80.428616949
 10
173.7471814845
 20
80.4206069877
 10
173.7419347162
 20
80.4127676822
 10
173.7364290276
 20
80.405110675
 10
173.7306707401
 20
80.3976476088
 10
173.7246661754
 20
80.3903901263
 10
173.7184216549
 20
80.38334987
 10
173.7119435002
 20
80.3765384825
 10
173.705238033
 20
80.3699676065
 10
173.6983115746
 20
80.3636488847
 10
173.6911704467
 20
80.3575939595
 10
173.6834950165
 20
80.3515646258
 10
173.6756034639
 20
80.3458295129
 10
173.6675066652
 20
80.340382746
 10
173.6592154969
 20
80.3352184497
 10
173.6507408353
 20
80.3303307491
 10
173.6420935567
 20
80.3257137689
 10
173.6332845377
 20
80.3213616341
 10
173.6243246546
 20
80.3172684696
 10
173.6152247837
 20
80.3134284002
 10
173.6059958015
 20
80.3098355509
 10
173.5966485843
 20
80.3064840465
 10
173.5871940085
 20
80.3033680119
 10
173.5776429506
 20
80.300481572
 10
173.5680062868
 20
80.2978188516
 10
173.5582948937
 20
80.2953739758
 10
173.5485196475
 20
80.2931410693
 10
173.5386914247
 20
80.291114257
 10
173.5288211016
 20
80.2892876639
 10
173.5189195547
 20
80.2876554147
 10
173.5089976603
 20
80.2862116345
 10
173.4990662948
 20
80.284950448
 10
173.4891363346
 20
80.2838659802
 10
173.479218656
 20
80.282952356
 10
173.4693241356
 20
80.2822037002
 10
173.4594636496
 20
80.2816141378
 10
173.4496480744
 20
80.2811777935
 10
173.4398882865
 20
80.2808887924
  0
LINE
  5
305
100
AcDbEntity
  8
CURVE
100
AcDbLine
 62
250
  6
CONTINUOUS
 10
172.7353530068
 20
81.2338400214
 11
172.7353530068
 21
79.0597262001
  0
LINE
  5
306
100
AcDbEntity
  8
IMPORT_IGES
100
AcDbLine
 62
7
  6
CONTINUOUS
 10
172.7353530068
 20
81.2338400214
 11
172.7353530068
 21
79.0597262001
  0
LINE
  5
307
100
AcDbEntity
  8
CURVE
100
AcDbLine
 62
250
  6
CONTINUOUS
 10
173.1774670818
 20
80.2808887924
 11
173.1774670818
 21
80.8847808882
  0
LINE
  5
308
100
AcDbEntity
  8
IMPORT_IGES
100
AcDbLine
 62
7
  6
CONTINUOUS
 10
173.1774670818
 20
80.2808887924
 11
173.1774670818
 21
80.8847808882
  0
LINE
  5
309
100
AcDbEntity
  8
CURVE
100
AcDbLine
 62
250
  6
CONTINUOUS
 10
173.1926930544
 20
79.0597262001
 11
173.1926930544
 21
79.9206122579
  0
LINE
  5
30A
100
AcDbEntity
  8
IMPORT_IGES
100
AcDbLine
 62
7
  6
CONTINUOUS
 10
173.1926930544
 20
79.0597262001
 11
173.1926930544
 21
79.9206122579
  0
LINE
  5
30B
100
AcDbEntity
  8
CURVE
100
AcDbLine
 62
250
  6
CONTINUOUS
 10
173.915902008
 20
80.086580308
 11
173.915902008
 21
80.0995792965
  0
LINE
  5
30C
100
AcDbEntity
  8
IMPORT_IGES
100
AcDbLine
 62
7
  6
CONTINUOUS
 10
173.915902008
 20
80.086580308
 11
173.915902008
 21
80.0995792965
  0
LINE
  5
30D
100
AcDbEntity
  8
CURVE
100
AcDbLine
 62
250
  6
CONTINUOUS
 10
166.7204507434
 20
79.7453408713
 11
167.1525841523
 21
81.2595410882
  0
LINE
  5
30E
100
AcDbEntity
  8
IMPORT_IGES
100
AcDbLine
 62
7
  6
CONTINUOUS
 10
166.7204507434
 20
79.7453408713
 11
167.1525841523
 21
81.2595410882
  0
LINE
  5
30F
100
AcDbEntity
  8
CURVE
100
AcDbLine
 62
250
  6
CONTINUOUS
 10
167.6114590838
 20
81.2595410882
 11
166.9043497826
 21
79.0597266168
  0
LINE
  5
310
100
AcDbEntity
  8
IMPORT_IGES
100
AcDbLine
 62
7
  6
CONTINUOUS
 10
167.6114590838
 20
81.2595410882
 11
166.9043497826
 21
79.0597266168
  0
LINE
  5
311
100
AcDbEntity
  8
CURVE
100
AcDbLine
 62
250
  6
CONTINUOUS
 10
171.6948233744
 20
80.6550879728
 11
171.4661868134
 21
79.8387088671
  0
LINE
  5
312
100
AcDbEntity
  8
IMPORT_IGES
100
AcDbLine
 62
7
  6
CONTINUOUS
 10
171.6948233744
 20
80.6550879728
 11
171.4661868134
 21
79.8387088671
  0
LINE
  5
313
100
AcDbEntity
  8
CURVE
100
AcDbLine
 62
250
  6
CONTINUOUS
 10
171.3722572938
 20
79.498887454
 11
171.245549871
 21
79.0597266168
  0
LINE
  5
314
100
AcDbEntity
  8
IMPORT_IGES
100
AcDbLine
 62
7
  6
CONTINUOUS
 10
171.3722572938
 20
79.498887454
 11
171.245549871
 21
79.0597266168
  0
LINE
  5
315
100
AcDbEntity
  8
CURVE
100
AcDbLine
 62
250
  6
CONTINUOUS
 10
170.7913441774
 20
79.0597266168
 11
171.4813469079
 21
81.2595410882
  0
LINE
  5
316
100
AcDbEntity
  8
IMPORT_IGES
100
AcDbLine
 62
7
  6
CONTINUOUS
 10
170.7913441774
 20
79.0597266168
 11
171.4813469079
 21
81.2595410882
  0
LINE
  5
317
100
AcDbEntity
  8
CURVE
100
AcDbLine
 62
250
  6
CONTINUOUS
 10
169.6000232792
 20
80.0381975247
 11
170.0592114488
 21
81.2595410882
  0
LINE
  5
318
100
AcDbEntity
  8
IMPORT_IGES
100
AcDbLine
 62
7
  6
CONTINUOUS
 10
169.6000232792
 20
80.0381975247
 11
170.0592114488
 21
81.2595410882
  0
LINE
  5
319
100
AcDbEntity
  8
CURVE
100
AcDbLine
 62
250
  6
CONTINUOUS
 10
170.1756909673
 20
80.4901759803
 11
169.6297159445
 21
79.0597266168
  0
LINE
  5
31A
100
AcDbEntity
  8
IMPORT_IGES
100
AcDbLine
 62
7
  6
CONTINUOUS
 10
170.1756909673
 20
80.4901759803
 11
169.6297159445
 21
79.0597266168
  0
LINE
  5
31B
100
AcDbEntity
  8
SMUSSO
100
AcDbLine
 62
7
  6
CONTINUOUS
 10
91.6892779152
 20
62.7465047773
 11
90.6698475527
 21
62.3032567176
  0
LINE
  5
31C
100
AcDbEntity
  8
ASSI
100
AcDbLine
 62
7
  6
CONTINUOUS
 10
91.6892779152
 20
62.7465047773
 11
90.6698475527
 21
62.3032567176
  0
LINE
  5
31D
100
AcDbEntity
  8
SMUSSO
100
AcDbLine
 62
7
  6
CONTINUOUS
 10
91.6892779152
 20
149.4999795977
 11
90.6698475527
 21
149.9432276574
  0
LINE
  5
31E
100
AcDbEntity
  8
ASSI
100
AcDbLine
 62
7
  6
CONTINUOUS
 10
91.6892779152
 20
149.4999795977
 11
90.6698475527
 21
149.9432276574
  0
LINE
  5
31F
100
AcDbEntity
  8
CURVE
100
AcDbLine
 62
7
  6
CONTINUOUS
 10
165.9034092205
 20
80.9406229527
 11
166.222327356
 21
81.2595410882
  0
LINE
  5
320
100
AcDbEntity
  8
CURVE
100
AcDbLine
 62
7
  6
CONTINUOUS
 10
166.004512513
 20
80.6217048172
 11
166.3751268876
 21
80.9923191918
  0
LINE
  5
321
100
AcDbEntity
  8
CURVE
100
AcDbLine
 62
7
  6
CONTINUOUS
 10
166.1056158056
 20
80.3027866817
 11
166.4662172731
 21
80.6633881492
  0
LINE
  5
322
100
AcDbEntity
  8
CURVE
100
AcDbLine
 62
7
  6
CONTINUOUS
 10
166.2067190981
 20
79.9838685462
 11
166.5573076586
 21
80.3344571067
  0
LINE
  5
323
100
AcDbEntity
  8
CURVE
100
AcDbLine
 62
7
  6
CONTINUOUS
 10
167.0208724752
 20
80.7980219234
 11
167.4823916401
 21
81.2595410882
  0
LINE
  5
324
100
AcDbEntity
  8
CURVE
100
AcDbLine
 62
7
  6
CONTINUOUS
 10
166.3078223906
 20
79.6649504108
 11
166.648398044
 21
80.0055260642
  0
LINE
  5
325
100
AcDbEntity
  8
CURVE
100
AcDbLine
 62
7
  6
CONTINUOUS
 10
166.853133025
 20
80.2102610451
 11
167.4736312846
 21
80.8307593048
  0
LINE
  5
326
100
AcDbEntity
  8
CURVE
100
AcDbLine
 62
7
  6
CONTINUOUS
 10
167.7818637428
 20
81.1389917629
 11
167.9025450681
 21
81.2596730882
  0
LINE
  5
327
100
AcDbEntity
  8
CURVE
100
AcDbLine
 62
7
  6
CONTINUOUS
 10
166.4089256831
 20
79.3460322753
 11
167.2746629522
 21
80.2117695444
  0
LINE
  5
328
100
AcDbEntity
  8
CURVE
100
AcDbLine
 62
7
  6
CONTINUOUS
 10
167.7818637428
 20
80.7189703349
 11
168.2410519124
 21
81.1781585045
  0
LINE
  5
329
100
AcDbEntity
  8
CURVE
100
AcDbLine
 62
7
  6
CONTINUOUS
 10
166.5426414527
 20
79.0597266168
 11
167.0756946199
 21
79.5927797839
  0
LINE
  5
32A
100
AcDbEntity
  8
CURVE
100
AcDbLine
 62
7
  6
CONTINUOUS
 10
167.7818637428
 20
80.2989489068
 11
168.2410519124
 21
80.7581370764
  0
LINE
  5
32B
100
AcDbEntity
  8
CURVE
100
AcDbLine
 62
7
  6
CONTINUOUS
 10
168.6813611974
 20
81.1984463615
 11
168.7424559241
 21
81.2595410882
  0
LINE
  5
32C
100
AcDbEntity
  8
CURVE
100
AcDbLine
 62
7
  6
CONTINUOUS
 10
167.7818637428
 20
79.8789274788
 11
168.2410519124
 21
80.3381156484
  0
LINE
  5
32D
100
AcDbEntity
  8
CURVE
100
AcDbLine
 62
7
  6
CONTINUOUS
 10
168.6396713077
 20
80.7367350438
 11
169.1502384398
 21
81.2473021758
  0
LINE
  5
32E
100
AcDbEntity
  8
CURVE
100
AcDbLine
 62
7
  6
CONTINUOUS
 10
167.7818637428
 20
79.4589060508
 11
168.2410519124
 21
79.9180942204
  0
LINE
  5
32F
100
AcDbEntity
  8
CURVE
100
AcDbLine
 62
7
  6
CONTINUOUS
 10
168.597981418
 20
80.2750237261
 11
169.2641214149
 21
80.9411637229
  0
LINE
  5
330
100
AcDbEntity
  8
CURVE
100
AcDbLine
 62
7
  6
CONTINUOUS
 10
167.8027057368
 20
79.0597266168
 11
168.2410519124
 21
79.4980727924
  0
LINE
  5
331
100
AcDbEntity
  8
CURVE
100
AcDbLine
 62
7
  6
CONTINUOUS
 10
168.5562915283
 20
79.8133124083
 11
169.0108867432
 21
80.2679076233
  0
LINE
  5
332
100
AcDbEntity
  8
CURVE
100
AcDbLine
 62
7
  6
CONTINUOUS
 10
169.0845918802
 20
80.3416127603
 11
169.37800439
 21
80.63502527
  0
LINE
  5
333
100
AcDbEntity
  8
CURVE
100
AcDbLine
 62
7
  6
CONTINUOUS
 10
168.2227271648
 20
79.0597266168
 11
168.2410519124
 21
79.0780513643
  0
LINE
  5
334
100
AcDbEntity
  8
CURVE
100
AcDbLine
 62
7
  6
CONTINUOUS
 10
168.5146016386
 20
79.3516010906
 11
168.9797644056
 21
79.8167638576
  0
LINE
  5
335
100
AcDbEntity
  8
CURVE
100
AcDbLine
 62
7
  6
CONTINUOUS
 10
169.1991460345
 20
80.0361454864
 11
169.4918873651
 21
80.3288868171
  0
LINE
  5
336
100
AcDbEntity
  8
CURVE
100
AcDbLine
 62
7
  6
CONTINUOUS
 10
169.840309995
 20
80.6773094469
 11
170.4225416362
 21
81.2595410882
  0
LINE
  5
337
100
AcDbEntity
  8
CURVE
100
AcDbLine
 62
7
  6
CONTINUOUS
 10
168.6427485928
 20
79.0597266168
 11
168.948642068
 21
79.3656200919
  0
LINE
  5
338
100
AcDbEntity
  8
CURVE
100
AcDbLine
 62
7
  6
CONTINUOUS
 10
169.3137001887
 20
79.7306782126
 11
170.5416693201
 21
80.9586473441
  0
LINE
  5
339
100
AcDbEntity
  8
CURVE
100
AcDbLine
 62
7
  6
CONTINUOUS
 10
169.4282543429
 20
79.4252109388
 11
169.97968462
 21
79.9766412159
  0
LINE
  5
33A
100
AcDbEntity
  8
CURVE
100
AcDbLine
 62
7
  6
CONTINUOUS
 10
170.1953369585
 20
80.1922935544
 11
170.5775873002
 21
80.5745438961
  0
LINE
  5
33B
100
AcDbEntity
  8
CURVE
100
AcDbLine
 62
7
  6
CONTINUOUS
 10
169.5428084971
 20
79.119743665
 11
169.7204106104
 21
79.2973457783
  0
LINE
  5
33C
100
AcDbEntity
  8
CURVE
100
AcDbLine
 62
7
  6
CONTINUOUS
 10
170.2213243562
 20
79.7982595241
 11
170.6135052803
 21
80.1904404482
  0
LINE
  5
33D
100
AcDbEntity
  8
CURVE
100
AcDbLine
 62
7
  6
CONTINUOUS
 10
171.3893690379
 20
80.9663042058
 11
171.6826059203
 21
81.2595410882
  0
LINE
  5
33E
100
AcDbEntity
  8
CURVE
100
AcDbLine
 62
7
  6
CONTINUOUS
 10
170.247311754
 20
79.4042254939
 11
170.6494232604
 21
79.8063370003
  0
LINE
  5
33F
100
AcDbEntity
  8
CURVE
100
AcDbLine
 62
7
  6
CONTINUOUS
 10
171.197414025
 20
80.3543277649
 11
171.9671293381
 21
81.124043078
  0
LINE
  5
340
100
AcDbEntity
  8
CURVE
100
AcDbLine
 62
7
  6
CONTINUOUS
 10
170.3228343049
 20
79.0597266168
 11
170.6853412405
 21
79.4222335523
  0
LINE
  5
341
100
AcDbEntity
  8
CURVE
100
AcDbLine
 62
7
  6
CONTINUOUS
 10
171.0054590121
 20
79.7423513239
 11
171.6079297645
 21
80.3448220763
  0
LINE
  5
342
100
AcDbEntity
  8
CURVE
100
AcDbLine
 62
7
  6
CONTINUOUS
 10
171.740699421
 20
80.4775917329
 11
172.0657447191
 21
80.8026370309
  0
LINE
  5
343
100
AcDbEntity
  8
CURVE
100
AcDbLine
 62
7
  6
CONTINUOUS
 10
170.8135039991
 20
79.130374883
 11
171.5218379833
 21
79.8387088671
  0
LINE
  5
344
100
AcDbEntity
  8
CURVE
100
AcDbLine
 62
7
  6
CONTINUOUS
 10
171.826963133
 20
80.1438340168
 11
172.1643601001
 21
80.4812309839
  0
LINE
  5
345
100
AcDbEntity
  8
CURVE
100
AcDbLine
 62
7
  6
CONTINUOUS
 10
172.7353530068
 20
81.0522238906
 11
172.9430751855
 21
81.2599460693
  0
LINE
  5
346
100
AcDbEntity
  8
CURVE
100
AcDbLine
 62
7
  6
CONTINUOUS
 10
171.162877161
 20
79.0597266168
 11
171.2790756561
 21
79.1759251119
  0
LINE
  5
347
100
AcDbEntity
  8
CURVE
100
AcDbLine
 62
7
  6
CONTINUOUS
 10
171.6020379982
 20
79.498887454
 11
172.2629754811
 21
80.1598249369
  0
LINE
  5
348
100
AcDbEntity
  8
CURVE
100
AcDbLine
 62
7
  6
CONTINUOUS
 10
172.7353530068
 20
80.6322024626
 11
173.3866921775
 21
81.2835416333
  0
LINE
  5
349
100
AcDbEntity
  8
CURVE
100
AcDbLine
 62
7
  6
CONTINUOUS
 10
172.002808993
 20
79.4796370208
 11
172.361590862
 21
79.8384188898
  0
LINE
  5
34A
100
AcDbEntity
  8
CURVE
100
AcDbLine
 62
7
  6
CONTINUOUS
 10
172.7353530068
 20
80.2121810346
 11
173.1774670818
 21
80.6542951096
  0
LINE
  5
34B
100
AcDbEntity
  8
CURVE
100
AcDbLine
 62
7
  6
CONTINUOUS
 10
173.4285545343
 20
80.9053825621
 11
173.764419438
 21
81.2412474658
  0
LINE
  5
34C
100
AcDbEntity
  8
CURVE
100
AcDbLine
 62
7
  6
CONTINUOUS
 10
172.092330403
 20
79.1491370028
 11
172.460206243
 21
79.5170128428
  0
LINE
  5
34D
100
AcDbEntity
  8
CURVE
100
AcDbLine
 62
7
  6
CONTINUOUS
 10
172.7353530068
 20
79.7921596065
 11
173.2240821926
 21
80.2808887924
  0
LINE
  5
34E
100
AcDbEntity
  8
CURVE
100
AcDbLine
 62
7
  6
CONTINUOUS
 10
173.7356969062
 20
80.7925035059
 11
174.041684127
 21
81.0984907267
  0
LINE
  5
34F
100
AcDbEntity
  8
CURVE
100
AcDbLine
 62
7
  6
CONTINUOUS
 10
172.4229414451
 20
79.0597266168
 11
172.558821624
 21
79.1956067958
  0
LINE
  5
350
100
AcDbEntity
  8
CURVE
100
AcDbLine
 62
7
  6
CONTINUOUS
 10
172.7353530068
 20
79.3721381785
 11
173.1926930544
 21
79.8294782262
  0
LINE
  5
351
100
AcDbEntity
  8
CURVE
100
AcDbLine
 62
7
  6
CONTINUOUS
 10
173.2838270862
 20
79.9206122579
 11
174.199976296
 21
80.8367614678
  0
LINE
  5
352
100
AcDbEntity
  8
CURVE
100
AcDbLine
 62
7
  6
CONTINUOUS
 10
172.8429624564
 20
79.0597262001
 11
173.1926930544
 21
79.4094567981
  0
LINE
  5
353
100
AcDbEntity
  8
CURVE
100
AcDbLine
 62
7
  6
CONTINUOUS
 10
173.6250986534
 20
79.8418623971
 11
174.1823888162
 21
80.3991525599
  0
LINE
  5
354
100
AcDbEntity
  8
CURVE
100
AcDbLine
 62
7
  6
CONTINUOUS
 10
173.7518816491
 20
79.5486239648
 11
174.0993830441
 21
79.8961253598
  0
LINE
  5
355
100
AcDbEntity
  8
CURVE
100
AcDbLine
 62
7
  6
CONTINUOUS
 10
173.8479517519
 20
79.2246726396
 11
174.201138827
 21
79.5778597146
  0
LINE
  5
356
100
AcDbEntity
  8
CURVE
100
AcDbLine
 62
7
  6
CONTINUOUS
 10
174.1030267405
 20
79.0597262001
 11
174.2886527343
 21
79.2453521939
  0
LINE
  5
357
100
AcDbEntity
  8
0
100
AcDbLine
 62
250
  6
CONTINUOUS
 10
226.0099842822
 20
128.7723750082
 11
225.9608514615
 21
128.7232421875
  0
LINE
  5
358
100
AcDbEntity
  8
ASSI
100
AcDbLine
 62
250
  6
CONTINUOUS
 10
226.0099842822
 20
128.7723750082
 11
225.9608514615
 21
128.7232421875
  0
LINE
  5
359
100
AcDbEntity
  8
SMUSSO
100
AcDbLine
 62
7
  6
CONTINUOUS
 10
248.5661065294
 20
150.929410644
 11
248.7599380729
 21
151.1232421875
  0
LINE
  5
35A
100
AcDbEntity
  8
ASSI
100
AcDbLine
 62
7
  6
CONTINUOUS
 10
248.5661065294
 20
150.929410644
 11
248.7599380729
 21
151.1232421875
  0
LINE
  5
35B
100
AcDbEntity
  8
0
100
AcDbLine
 62
250
  6
CONTINUOUS
 10
226.5096796957
 20
128.2726795947
 11
226.460546875
 21
128.223546774
  0
LINE
  5
35C
100
AcDbEntity
  8
ASSI
100
AcDbLine
 62
250
  6
CONTINUOUS
 10
226.5096796957
 20
128.2726795947
 11
226.460546875
 21
128.223546774
  0
LINE
  5
35D
100
AcDbEntity
  8
SMUSSO
100
AcDbLine
 62
7
  6
CONTINUOUS
 10
249.5667153315
 20
149.9288018419
 11
249.760546875
 21
150.1226333854
  0
LINE
  5
35E
100
AcDbEntity
  8
ASSI
100
AcDbLine
 62
7
  6
CONTINUOUS
 10
249.5667153315
 20
149.9288018419
 11
249.760546875
 21
150.1226333854
  0
LINE
  5
35F
100
AcDbEntity
  8
0
100
AcDbLine
 62
250
  6
CONTINUOUS
 10
226.7095578611
 20
128.2726795947
 11
226.5096796957
 21
128.2726795947
  0
LINE
  5
360
100
AcDbEntity
  8
ASSI
100
AcDbLine
 62
250
  6
CONTINUOUS
 10
226.7095578611
 20
128.2726795947
 11
226.5096796957
 21
128.2726795947
  0
LINE
  5
361
100
AcDbEntity
  8
0
100
AcDbLine
 62
250
  6
CONTINUOUS
 10
113.5115358889
 20
128.2726795947
 11
113.7114140543
 21
128.2726795947
  0
LINE
  5
362
100
AcDbEntity
  8
ASSI
100
AcDbLine
 62
250
  6
CONTINUOUS
 10
113.5115358889
 20
128.2726795947
 11
113.7114140543
 21
128.2726795947
  0
LINE
  5
363
100
AcDbEntity
  8
0
100
AcDbLine
 62
7
  6
CONTINUOUS
 10
225.9608514615
 20
128.7232421875
 11
114.2602422885
 21
128.7232421875
  0
LINE
  5
364
100
AcDbEntity
  8
ASSI
100
AcDbLine
 62
7
  6
CONTINUOUS
 10
225.9608514615
 20
128.7232421875
 11
114.2602422885
 21
128.7232421875
  0
LINE
  5
365
100
AcDbEntity
  8
0
100
AcDbLine
 62
250
  6
CONTINUOUS
 10
114.2111094678
 20
128.7723750082
 11
226.0099842822
 21
128.7723750082
  0
LINE
  5
366
100
AcDbEntity
  8
ASSI
100
AcDbLine
 62
250
  6
CONTINUOUS
 10
114.2111094678
 20
128.7723750082
 11
226.0099842822
 21
128.7723750082
  0
LINE
  5
367
100
AcDbEntity
  8
0
100
AcDbLine
 62
250
  6
CONTINUOUS
 10
114.2111094678
 20
128.9722531736
 11
226.0099842822
 21
128.9722531736
  0
LINE
  5
368
100
AcDbEntity
  8
ASSI
100
AcDbLine
 62
250
  6
CONTINUOUS
 10
114.2111094678
 20
128.9722531736
 11
226.0099842822
 21
128.9722531736
  0
LWPOLYLINE
  5
369
100
AcDbEntity
  8
0
100
AcDbPolyline
 62
250
  6
CONTINUOUS
 90
25
 70
0
 10
226.0099842822
 20
128.7723750082
 10
226.0424425027
 20
128.7713376101
 10
226.0748687447
 20
128.7681827786
 10
226.1071237107
 20
128.7629028449
 10
226.139100964
 20
128.7554904302
 10
226.170622796
 20
128.7459610801
 10
226.2014476148
 20
128.7343757439
 10
226.2314240693
 20
128.7207927547
 10
226.2604408779
 20
128.7052642963
 10
226.288332306
 20
128.6878834149
 10
226.3149710397
 20
128.6687414231
 10
226.3402601942
 20
128.6479206821
 10
226.3640937759
 20
128.6255202917
 10
226.3863944974
 20
128.6016220942
 10
226.4070532823
 20
128.576353136
 10
226.4259411742
 20
128.5499000837
 10
226.4429424945
 20
128.5224895385
 10
226.4580784852
 20
128.4941580883
 10
226.4714087843
 20
128.4647978252
 10
226.4828780046
 20
128.4344586061
 10
226.492386618
 20
128.4033187267
 10
226.4998836183
 20
128.3714453813
 10
226.5053051076
 20
128.3389473921
 10
226.5085871646
 20
128.3059785487
 10
226.5096796957
 20
128.2726795947
  0
LWPOLYLINE
  5
36A
100
AcDbEntity
  8
ASSI
100
AcDbPolyline
 62
250
  6
CONTINUOUS
 90
25
 70
0
 10
226.0099842822
 20
128.7723750082
 10
226.0424425027
 20
128.7713376101
 10
226.0748687447
 20
128.7681827786
 10
226.1071237107
 20
128.7629028449
 10
226.139100964
 20
128.7554904302
 10
226.170622796
 20
128.7459610801
 10
226.2014476148
 20
128.7343757439
 10
226.2314240693
 20
128.7207927547
 10
226.2604408779
 20
128.7052642963
 10
226.288332306
 20
128.6878834149
 10
226.3149710397
 20
128.6687414231
 10
226.3402601942
 20
128.6479206821
 10
226.3640937759
 20
128.6255202917
 10
226.3863944974
 20
128.6016220942
 10
226.4070532823
 20
128.576353136
 10
226.4259411742
 20
128.5499000837
 10
226.4429424945
 20
128.5224895385
 10
226.4580784852
 20
128.4941580883
 10
226.4714087843
 20
128.4647978252
 10
226.4828780046
 20
128.4344586061
 10
226.492386618
 20
128.4033187267
 10
226.4998836183
 20
128.3714453813
 10
226.5053051076
 20
128.3389473921
 10
226.5085871646
 20
128.3059785487
 10
226.5096796957
 20
128.2726795947
  0
LWPOLYLINE
  5
36B
100
AcDbEntity
  8
0
100
AcDbPolyline
 62
250
  6
CONTINUOUS
 90
25
 70
0
 10
226.0099842822
 20
128.9722531736
 10
226.0557324447
 20
128.9707753866
 10
226.1010442903
 20
128.9663351537
 10
226.1459198191
 20
128.9589324749
 10
226.1905986889
 20
128.9485107587
 10
226.2348412419
 20
128.9351265966
 10
226.2779285049
 20
128.918949763
 10
226.3198118028
 20
128.8999282086
 10
226.3605398108
 20
128.8781139828
 10
226.3995395814
 20
128.8538330086
 10
226.4367648385
 20
128.827058397
 10
226.4722618581
 20
128.797817037
 10
226.5055965213
 20
128.7665155184
 10
226.5367520062
 20
128.7330936615
 10
226.5657451346
 20
128.697611646
 10
226.5921922522
 20
128.6606566006
 10
226.6159972755
 20
128.6223603763
 10
226.6372562879
 20
128.5825911223
 10
226.6558738854
 20
128.5415404144
 10
226.6719057147
 20
128.4991250448
 10
226.6852961291
 20
128.4554282214
 10
226.6957827853
 20
128.4108911447
 10
226.7032782355
 20
128.3656608814
 10
226.7078699274
 20
128.3195903647
 10
226.7095578611
 20
128.2726795947
  0
LWPOLYLINE
  5
36C
100
AcDbEntity
  8
ASSI
100
AcDbPolyline
 62
250
  6
CONTINUOUS
 90
25
 70
0
 10
226.0099842822
 20
128.9722531736
 10
226.0557324447
 20
128.9707753866
 10
226.1010442903
 20
128.9663351537
 10
226.1459198191
 20
128.9589324749
 10
226.1905986889
 20
128.9485107587
 10
226.2348412419
 20
128.9351265966
 10
226.2779285049
 20
128.918949763
 10
226.3198118028
 20
128.8999282086
 10
226.3605398108
 20
128.8781139828
 10
226.3995395814
 20
128.8538330086
 10
226.4367648385
 20
128.827058397
 10
226.4722618581
 20
128.797817037
 10
226.5055965213
 20
128.7665155184
 10
226.5367520062
 20
128.7330936615
 10
226.5657451346
 20
128.697611646
 10
226.5921922522
 20
128.6606566006
 10
226.6159972755
 20
128.6223603763
 10
226.6372562879
 20
128.5825911223
 10
226.6558738854
 20
128.5415404144
 10
226.6719057147
 20
128.4991250448
 10
226.6852961291
 20
128.4554282214
 10
226.6957827853
 20
128.4108911447
 10
226.7032782355
 20
128.3656608814
 10
226.7078699274
 20
128.3195903647
 10
226.7095578611
 20
128.2726795947
  0
LINE
  5
36D
100
AcDbEntity
  8
0
100
AcDbLine
 62
250
  6
CONTINUOUS
 10
226.0099842822
 20
83.4741093668
 11
225.9608514615
 21
83.5232421875
  0
LINE
  5
36E
100
AcDbEntity
  8
ASSI
100
AcDbLine
 62
250
  6
CONTINUOUS
 10
226.0099842822
 20
83.4741093668
 11
225.9608514615
 21
83.5232421875
  0
LINE
  5
36F
100
AcDbEntity
  8
SMUSSO
100
AcDbLine
 62
7
  6
CONTINUOUS
 10
248.5661065294
 20
61.317073731
 11
248.7599380729
 21
61.1232421875
  0
LINE
  5
370
100
AcDbEntity
  8
ASSI
100
AcDbLine
 62
7
  6
CONTINUOUS
 10
248.5661065294
 20
61.317073731
 11
248.7599380729
 21
61.1232421875
  0
LINE
  5
371
100
AcDbEntity
  8
0
100
AcDbLine
 62
250
  6
CONTINUOUS
 10
226.5096796957
 20
83.9738047803
 11
226.460546875
 21
84.022937601
  0
LINE
  5
372
100
AcDbEntity
  8
ASSI
100
AcDbLine
 62
250
  6
CONTINUOUS
 10
226.5096796957
 20
83.9738047803
 11
226.460546875
 21
84.022937601
  0
LINE
  5
373
100
AcDbEntity
  8
SMUSSO
100
AcDbLine
 62
7
  6
CONTINUOUS
 10
249.5667153315
 20
62.3176825331
 11
249.760546875
 21
62.1238509896
  0
LINE
  5
374
100
AcDbEntity
  8
ASSI
100
AcDbLine
 62
7
  6
CONTINUOUS
 10
249.5667153315
 20
62.3176825331
 11
249.760546875
 21
62.1238509896
  0
LWPOLYLINE
  5
375
100
AcDbEntity
  8
0
100
AcDbPolyline
 62
7
  6
CONTINUOUS
 90
10
 70
0
 43
0.3500000006
 10
171.9319839478
 20
162.3732432861
 10
172.0034060669
 20
162.2303809204
 10
172.0034060669
 20
162.1589588013
 10
171.8605437012
 20
162.0160964355
 10
171.789121582
 20
162.0160964355
 10
171.7176813354
 20
162.0875366821
 10
171.7176813354
 20
162.1589588013
 10
171.789121582
 20
162.301821167
 10
171.8605437012
 20
162.3732432861
 10
171.9319839478
 20
162.3732432861
  0
LINE
  5
376
100
AcDbEntity
  8
SMUSSO
100
AcDbLine
 62
7
  6
CONTINUOUS
 10
248.1372842852
 20
149.8945111473
 11
92.0838094648
 21
149.8945111473
  0
LINE
  5
377
100
AcDbEntity
  8
ASSI
100
AcDbLine
 62
7
  6
CONTINUOUS
 10
248.1372842852
 20
149.8945111473
 11
92.0838094648
 21
149.8945111473
  0
LINE
  5
378
100
AcDbEntity
  8
SMUSSO
100
AcDbLine
 62
7
  6
CONTINUOUS
 10
248.5661065294
 20
150.929410644
 11
91.6549872206
 21
150.929410644
  0
LINE
  5
379
100
AcDbEntity
  8
ASSI
100
AcDbLine
 62
7
  6
CONTINUOUS
 10
248.5661065294
 20
150.929410644
 11
91.6549872206
 21
150.929410644
  0
LINE
  5
37A
100
AcDbEntity
  8
SMUSSO
100
AcDbLine
 62
7
  6
CONTINUOUS
 10
248.7599380729
 20
151.1232421875
 11
91.4611556771
 21
151.1232421875
  0
LINE
  5
37B
100
AcDbEntity
  8
ASSI
100
AcDbLine
 62
7
  6
CONTINUOUS
 10
248.7599380729
 20
151.1232421875
 11
91.4611556771
 21
151.1232421875
  0
LINE
  5
37C
100
AcDbEntity
  8
SMUSSO
100
AcDbLine
 62
7
  6
CONTINUOUS
 10
248.1372842852
 20
149.8945111473
 11
248.5805323449
 21
150.9139415098
  0
LINE
  5
37D
100
AcDbEntity
  8
ASSI
100
AcDbLine
 62
7
  6
CONTINUOUS
 10
248.1372842852
 20
149.8945111473
 11
248.5805323449
 21
150.9139415098
  0
LINE
  5
37E
100
AcDbEntity
  8
SMUSSO
100
AcDbLine
 62
7
  6
CONTINUOUS
 10
248.1372842852
 20
62.3519732277
 11
248.5805323449
 21
61.3325428652
  0
LINE
  5
37F
100
AcDbEntity
  8
ASSI
100
AcDbLine
 62
7
  6
CONTINUOUS
 10
248.1372842852
 20
62.3519732277
 11
248.5805323449
 21
61.3325428652
  0
LINE
  5
380
100
AcDbEntity
  8
0
100
AcDbLine
 62
250
  6
CONTINUOUS
 10
226.0099842822
 20
128.9722531736
 11
226.0099842822
 21
128.7723750082
  0
LINE
  5
381
100
AcDbEntity
  8
ASSI
100
AcDbLine
 62
250
  6
CONTINUOUS
 10
226.0099842822
 20
128.9722531736
 11
226.0099842822
 21
128.7723750082
  0
LINE
  5
382
100
AcDbEntity
  8
0
100
AcDbLine
 62
250
  6
CONTINUOUS
 10
226.0099842822
 20
83.2742312014
 11
226.0099842822
 21
83.4741093668
  0
LINE
  5
383
100
AcDbEntity
  8
ASSI
100
AcDbLine
 62
250
  6
CONTINUOUS
 10
226.0099842822
 20
83.2742312014
 11
226.0099842822
 21
83.4741093668
  0
LINE
  5
384
100
AcDbEntity
  8
0
100
AcDbLine
 62
7
  6
CONTINUOUS
 10
226.460546875
 20
84.022937601
 11
226.460546875
 21
128.223546774
  0
LINE
  5
385
100
AcDbEntity
  8
ASSI
100
AcDbLine
 62
7
  6
CONTINUOUS
 10
226.460546875
 20
84.022937601
 11
226.460546875
 21
128.223546774
  0
LINE
  5
386
100
AcDbEntity
  8
0
100
AcDbLine
 62
250
  6
CONTINUOUS
 10
226.5096796957
 20
128.2726795947
 11
226.5096796957
 21
83.9738047803
  0
LINE
  5
387
100
AcDbEntity
  8
ASSI
100
AcDbLine
 62
250
  6
CONTINUOUS
 10
226.5096796957
 20
128.2726795947
 11
226.5096796957
 21
83.9738047803
  0
LINE
  5
388
100
AcDbEntity
  8
0
100
AcDbLine
 62
250
  6
CONTINUOUS
 10
226.7095578611
 20
128.2726795947
 11
226.7095578611
 21
83.9738047803
  0
LINE
  5
389
100
AcDbEntity
  8
ASSI
100
AcDbLine
 62
250
  6
CONTINUOUS
 10
226.7095578611
 20
128.2726795947
 11
226.7095578611
 21
83.9738047803
  0
LWPOLYLINE
  5
38A
100
AcDbEntity
  8
0
100
AcDbPolyline
 62
250
  6
CONTINUOUS
 90
25
 70
0
 10
226.5096796957
 20
83.9738047803
 10
226.5086422976
 20
83.9413465598
 10
226.5054874661
 20
83.9089203178
 10
226.5002075324
 20
83.8766653518
 10
226.4927951177
 20
83.8446880985
 10
226.4832657676
 20
83.8131662665
 10
226.4716804314
 20
83.7823414477
 10
226.4580974422
 20
83.7523649932
 10
226.4425689838
 20
83.7233481846
 10
226.4251881024
 20
83.6954567565
 10
226.4060461106
 20
83.6688180228
 10
226.3852253696
 20
83.6435288683
 10
226.3628249792
 20
83.6196952866
 10
226.3389267817
 20
83.5973945651
 10
226.3136578235
 20
83.5767357802
 10
226.2872047712
 20
83.5578478883
 10
226.259794226
 20
83.540846568
 10
226.2314627758
 20
83.5257105773
 10
226.2021025127
 20
83.5123802782
 10
226.1717632936
 20
83.5009110579
 10
226.1406234142
 20
83.4914024445
 10
226.1087500688
 20
83.4839054442
 10
226.0762520796
 20
83.4784839549
 10
226.0432832362
 20
83.4752018979
 10
226.0099842822
 20
83.4741093668
  0
LWPOLYLINE
  5
38B
100
AcDbEntity
  8
ASSI
100
AcDbPolyline
 62
250
  6
CONTINUOUS
 90
25
 70
0
 10
226.5096796957
 20
83.9738047803
 10
226.5086422976
 20
83.9413465598
 10
226.5054874661
 20
83.9089203178
 10
226.5002075324
 20
83.8766653518
 10
226.4927951177
 20
83.8446880985
 10
226.4832657676
 20
83.8131662665
 10
226.4716804314
 20
83.7823414477
 10
226.4580974422
 20
83.7523649932
 10
226.4425689838
 20
83.7233481846
 10
226.4251881024
 20
83.6954567565
 10
226.4060461106
 20
83.6688180228
 10
226.3852253696
 20
83.6435288683
 10
226.3628249792
 20
83.6196952866
 10
226.3389267817
 20
83.5973945651
 10
226.3136578235
 20
83.5767357802
 10
226.2872047712
 20
83.5578478883
 10
226.259794226
 20
83.540846568
 10
226.2314627758
 20
83.5257105773
 10
226.2021025127
 20
83.5123802782
 10
226.1717632936
 20
83.5009110579
 10
226.1406234142
 20
83.4914024445
 10
226.1087500688
 20
83.4839054442
 10
226.0762520796
 20
83.4784839549
 10
226.0432832362
 20
83.4752018979
 10
226.0099842822
 20
83.4741093668
  0
LWPOLYLINE
  5
38C
100
AcDbEntity
  8
0
100
AcDbPolyline
 62
250
  6
CONTINUOUS
 90
25
 70
0
 10
226.7095578611
 20
83.9738047803
 10
226.7080800741
 20
83.9280566178
 10
226.7036398412
 20
83.8827447722
 10
226.6962371624
 20
83.8378692434
 10
226.6858154462
 20
83.7931903736
 10
226.6724312841
 20
83.7489478206
 10
226.6562544505
 20
83.7058605576
 10
226.6372328961
 20
83.6639772597
 10
226.6154186703
 20
83.6232492517
 10
226.5911376961
 20
83.5842494811
 10
226.5643630845
 20
83.547024224
 10
226.5351217245
 20
83.5115272044
 10
226.5038202059
 20
83.4781925412
 10
226.470398349
 20
83.4470370563
 10
226.4349163335
 20
83.4180439279
 10
226.3979612881
 20
83.3915968103
 10
226.3596650638
 20
83.367791787
 10
226.3198958098
 20
83.3465327746
 10
226.2788451019
 20
83.3279151771
 10
226.2364297323
 20
83.3118833478
 10
226.1927329089
 20
83.2984929334
 10
226.1481958322
 20
83.2880062772
 10
226.1029655689
 20
83.280510827
 10
226.0568950522
 20
83.2759191351
 10
226.0099842822
 20
83.2742312014
  0
LWPOLYLINE
  5
38D
100
AcDbEntity
  8
ASSI
100
AcDbPolyline
 62
250
  6
CONTINUOUS
 90
25
 70
0
 10
226.7095578611
 20
83.9738047803
 10
226.7080800741
 20
83.9280566178
 10
226.7036398412
 20
83.8827447722
 10
226.6962371624
 20
83.8378692434
 10
226.6858154462
 20
83.7931903736
 10
226.6724312841
 20
83.7489478206
 10
226.6562544505
 20
83.7058605576
 10
226.6372328961
 20
83.6639772597
 10
226.6154186703
 20
83.6232492517
 10
226.5911376961
 20
83.5842494811
 10
226.5643630845
 20
83.547024224
 10
226.5351217245
 20
83.5115272044
 10
226.5038202059
 20
83.4781925412
 10
226.470398349
 20
83.4470370563
 10
226.4349163335
 20
83.4180439279
 10
226.3979612881
 20
83.3915968103
 10
226.3596650638
 20
83.367791787
 10
226.3198958098
 20
83.3465327746
 10
226.2788451019
 20
83.3279151771
 10
226.2364297323
 20
83.3118833478
 10
226.1927329089
 20
83.2984929334
 10
226.1481958322
 20
83.2880062772
 10
226.1029655689
 20
83.280510827
 10
226.0568950522
 20
83.2759191351
 10
226.0099842822
 20
83.2742312014
  0
LWPOLYLINE
  5
38E
100
AcDbEntity
  8
0
100
AcDbPolyline
 62
7
  6
CONTINUOUS
 90
8
 70
0
 43
0.3500000006
 10
166.7891200562
 20
161.8732340698
 10
167.6462579956
 20
161.8732340698
 10
168.0748269653
 20
162.301821167
 10
168.0748269653
 20
163.1589591064
 10
167.6462579956
 20
163.5875280762
 10
166.7891200562
 20
163.5875280762
 10
166.7891200562
 20
164.8732349854
 10
168.0748269653
 20
164.8732349854
  0
LWPOLYLINE
  5
38F
100
AcDbEntity
  8
0
100
AcDbPolyline
 62
7
  6
CONTINUOUS
 90
6
 70
0
 43
0.3500000006
 10
173.0034063721
 20
161.8732340698
 10
174.0748287964
 20
161.8732340698
 10
174.2891132813
 20
162.0875366821
 10
174.2891132813
 20
163.1589591064
 10
173.8605443115
 20
163.5875280762
 10
173.4319753418
 20
163.5875280762
  0
LWPOLYLINE
  5
390
100
AcDbEntity
  8
0
100
AcDbPolyline
 62
7
  6
CONTINUOUS
 90
10
 70
0
 43
0.3500000006
 10
259.0105385742
 20
104.1946702881
 10
258.1534006348
 20
105.0518172913
 10
257.2962626953
 20
105.2661017761
 10
256.4391247559
 20
105.2661017761
 10
256.0105557861
 20
104.8375237427
 10
256.0105557861
 20
104.1946702881
 10
256.4391247559
 20
103.7661013184
 10
257.2962626953
 20
103.7661013184
 10
257.724831665
 20
104.1946702881
 10
257.724831665
 20
105.1232394104
  0
LINE
  5
391
100
AcDbEntity
  8
SMUSSO
100
AcDbLine
 62
7
  6
CONTINUOUS
 10
248.5318158348
 20
62.7465047773
 11
248.5318158348
 21
149.4999795977
  0
LINE
  5
392
100
AcDbEntity
  8
ASSI
100
AcDbLine
 62
7
  6
CONTINUOUS
 10
248.5318158348
 20
62.7465047773
 11
248.5318158348
 21
149.4999795977
  0
LINE
  5
393
100
AcDbEntity
  8
SMUSSO
100
AcDbLine
 62
7
  6
CONTINUOUS
 10
249.5667153315
 20
62.3176825331
 11
249.5667153315
 21
149.9288018419
  0
LINE
  5
394
100
AcDbEntity
  8
ASSI
100
AcDbLine
 62
7
  6
CONTINUOUS
 10
249.5667153315
 20
62.3176825331
 11
249.5667153315
 21
149.9288018419
  0
LINE
  5
395
100
AcDbEntity
  8
SMUSSO
100
AcDbLine
 62
7
  6
CONTINUOUS
 10
249.760546875
 20
62.1238509896
 11
249.760546875
 21
150.1226333854
  0
LINE
  5
396
100
AcDbEntity
  8
ASSI
100
AcDbLine
 62
7
  6
CONTINUOUS
 10
249.760546875
 20
62.1238509896
 11
249.760546875
 21
150.1226333854
  0
LINE
  5
397
100
AcDbEntity
  8
SMUSSO
100
AcDbLine
 62
7
  6
CONTINUOUS
 10
248.5805323449
 20
61.3325428652
 11
248.5661065294
 21
61.317073731
  0
LINE
  5
398
100
AcDbEntity
  8
ASSI
100
AcDbLine
 62
7
  6
CONTINUOUS
 10
248.5805323449
 20
61.3325428652
 11
248.5661065294
 21
61.317073731
  0
LINE
  5
399
100
AcDbEntity
  8
SMUSSO
100
AcDbLine
 62
7
  6
CONTINUOUS
 10
248.1372842852
 20
62.3519732277
 11
248.5318158348
 21
62.7465047773
  0
LINE
  5
39A
100
AcDbEntity
  8
ASSI
100
AcDbLine
 62
7
  6
CONTINUOUS
 10
248.1372842852
 20
62.3519732277
 11
248.5318158348
 21
62.7465047773
  0
LINE
  5
39B
100
AcDbEntity
  8
SMUSSO
100
AcDbLine
 62
7
  6
CONTINUOUS
 10
248.5805323449
 20
61.3325428652
 11
249.5512461973
 21
62.3032567176
  0
LINE
  5
39C
100
AcDbEntity
  8
ASSI
100
AcDbLine
 62
7
  6
CONTINUOUS
 10
248.5805323449
 20
61.3325428652
 11
249.5512461973
 21
62.3032567176
  0
LINE
  5
39D
100
AcDbEntity
  8
SMUSSO
100
AcDbLine
 62
7
  6
CONTINUOUS
 10
249.760546875
 20
62.1238509896
 11
248.7599380729
 21
61.1232421875
  0
LINE
  5
39E
100
AcDbEntity
  8
ASSI
100
AcDbLine
 62
7
  6
CONTINUOUS
 10
249.760546875
 20
62.1238509896
 11
248.7599380729
 21
61.1232421875
  0
LINE
  5
39F
100
AcDbEntity
  8
SMUSSO
100
AcDbLine
 62
7
  6
CONTINUOUS
 10
249.5667153315
 20
62.3176825331
 11
249.5512461973
 21
62.3032567176
  0
LINE
  5
3A0
100
AcDbEntity
  8
ASSI
100
AcDbLine
 62
7
  6
CONTINUOUS
 10
249.5667153315
 20
62.3176825331
 11
249.5512461973
 21
62.3032567176
  0
LINE
  5
3A1
100
AcDbEntity
  8
SMUSSO
100
AcDbLine
 62
7
  6
CONTINUOUS
 10
249.5512461973
 20
149.9432276574
 11
249.5667153315
 21
149.9288018419
  0
LINE
  5
3A2
100
AcDbEntity
  8
ASSI
100
AcDbLine
 62
7
  6
CONTINUOUS
 10
249.5512461973
 20
149.9432276574
 11
249.5667153315
 21
149.9288018419
  0
LINE
  5
3A3
100
AcDbEntity
  8
SMUSSO
100
AcDbLine
 62
7
  6
CONTINUOUS
 10
248.5318158348
 20
149.4999795977
 11
248.1372842852
 21
149.8945111473
  0
LINE
  5
3A4
100
AcDbEntity
  8
ASSI
100
AcDbLine
 62
7
  6
CONTINUOUS
 10
248.5318158348
 20
149.4999795977
 11
248.1372842852
 21
149.8945111473
  0
LINE
  5
3A5
100
AcDbEntity
  8
SMUSSO
100
AcDbLine
 62
7
  6
CONTINUOUS
 10
249.5512461973
 20
149.9432276574
 11
248.5805323449
 21
150.9139415098
  0
LINE
  5
3A6
100
AcDbEntity
  8
ASSI
100
AcDbLine
 62
7
  6
CONTINUOUS
 10
249.5512461973
 20
149.9432276574
 11
248.5805323449
 21
150.9139415098
  0
LINE
  5
3A7
100
AcDbEntity
  8
SMUSSO
100
AcDbLine
 62
7
  6
CONTINUOUS
 10
248.7599380729
 20
151.1232421875
 11
249.760546875
 21
150.1226333854
  0
LINE
  5
3A8
100
AcDbEntity
  8
ASSI
100
AcDbLine
 62
7
  6
CONTINUOUS
 10
248.7599380729
 20
151.1232421875
 11
249.760546875
 21
150.1226333854
  0
LINE
  5
3A9
100
AcDbEntity
  8
SMUSSO
100
AcDbLine
 62
7
  6
CONTINUOUS
 10
248.5661065294
 20
150.929410644
 11
248.5805323449
 21
150.9139415098
  0
LINE
  5
3AA
100
AcDbEntity
  8
ASSI
100
AcDbLine
 62
7
  6
CONTINUOUS
 10
248.5661065294
 20
150.929410644
 11
248.5805323449
 21
150.9139415098
  0
LINE
  5
3AB
100
AcDbEntity
  8
SMUSSO
100
AcDbLine
 62
7
  6
CONTINUOUS
 10
54.9605236395
 20
61.317073731
 11
60.5111328125
 21
61.1232421875
  0
LINE
  5
3AC
100
AcDbEntity
  8
ASSI
100
AcDbLine
 62
7
  6
CONTINUOUS
 10
54.9605236395
 20
61.317073731
 11
60.5111328125
 21
61.1232421875
  0
LWPOLYLINE
  5
3AD
100
AcDbEntity
  8
0
100
AcDbPolyline
 62
7
  6
CONTINUOUS
 90
3
 70
0
 43
0.3500000006
 10
65.1848698883
 20
172.0160994873
 10
66.0420123596
 20
172.8732374268
 10
66.0420123596
 20
169.8732365112
  0
LINE
  5
3AE
100
AcDbEntity
  8
SMUSSO
100
AcDbLine
 62
7
  6
CONTINUOUS
 10
54.9605236395
 20
62.3176825331
 11
60.5111328125
 21
62.1238509896
  0
LINE
  5
3AF
100
AcDbEntity
  8
ASSI
100
AcDbLine
 62
7
  6
CONTINUOUS
 10
54.9605236395
 20
62.3176825331
 11
60.5111328125
 21
62.1238509896
  0
LINE
  5
3B0
100
AcDbEntity
  8
0
100
AcDbLine
 62
7
  6
CONTINUOUS
 10
60.5111328125
 20
63.3651982747
 11
61.1111328125
 21
63.3232421875
  0
LINE
  5
3B1
100
AcDbEntity
  8
SMUSSO
100
AcDbLine
 62
7
  6
CONTINUOUS
 10
53.9611328125
 20
149.4999795977
 11
54.9455852703
 21
149.9432276574
  0
LINE
  5
3B2
100
AcDbEntity
  8
ASSI
100
AcDbLine
 62
7
  6
CONTINUOUS
 10
53.9611328125
 20
149.4999795977
 11
54.9455852703
 21
149.9432276574
  0
LINE
  5
3B3
100
AcDbEntity
  8
0
100
AcDbLine
 62
250
  6
CONTINUOUS
 10
60.5111328125
 20
64.9613007551
 11
61.1111328125
 21
64.9193446679
  0
LINE
  5
3B4
100
AcDbEntity
  8
SMUSSO
100
AcDbLine
 62
7
  6
CONTINUOUS
 10
53.9611328125
 20
62.7465047773
 11
54.9455852703
 21
62.3032567176
  0
LINE
  5
3B5
100
AcDbEntity
  8
ASSI
100
AcDbLine
 62
7
  6
CONTINUOUS
 10
53.9611328125
 20
62.7465047773
 11
54.9455852703
 21
62.3032567176
  0
LWPOLYLINE
  5
3B6
100
AcDbEntity
  8
0
100
AcDbPolyline
 62
7
  6
CONTINUOUS
 90
3
 70
0
 43
0.3500000006
 10
70.9705827026
 20
172.0160994873
 10
71.827725174
 20
172.8732374268
 10
71.827725174
 20
169.8732365112
  0
LINE
  5
3B7
100
AcDbEntity
  8
SMUSSO
100
AcDbLine
 62
7
  6
CONTINUOUS
 10
53.9611328125
 20
149.8945111473
 11
54.9605236395
 21
150.929410644
  0
LINE
  5
3B8
100
AcDbEntity
  8
ASSI
100
AcDbLine
 62
7
  6
CONTINUOUS
 10
53.9611328125
 20
149.8945111473
 11
54.9605236395
 21
150.929410644
  0
LWPOLYLINE
  5
3B9
100
AcDbEntity
  8
0
100
AcDbPolyline
 62
7
  6
CONTINUOUS
 90
3
 70
0
 43
0.3500000006
 10
69.8239178009
 20
164.0160970459
 10
70.6810602722
 20
164.8732349854
 10
70.6810602722
 20
161.8732340698
  0
LINE
  5
3BA
100
AcDbEntity
  8
SMUSSO
100
AcDbLine
 62
7
  6
CONTINUOUS
 10
53.9611328125
 20
62.3519732277
 11
54.9605236395
 21
61.317073731
  0
LINE
  5
3BB
100
AcDbEntity
  8
ASSI
100
AcDbLine
 62
7
  6
CONTINUOUS
 10
53.9611328125
 20
62.3519732277
 11
54.9605236395
 21
61.317073731
  0
LINE
  5
3BC
100
AcDbEntity
  8
0
100
AcDbLine
 62
7
  6
CONTINUOUS
 10
62.0369699635
 20
78.9731127488
 11
61.1111328125
 21
78.9714968565
  0
LINE
  5
3BD
100
AcDbEntity
  8
0
100
AcDbLine
 62
250
  6
CONTINUOUS
 10
62.0369053962
 20
79.1955629436
 11
61.1111328125
 21
79.1951447491
  0
LINE
  5
3BE
100
AcDbEntity
  8
0
100
AcDbLine
 62
7
  6
CONTINUOUS
 10
63.5611820447
 20
79.7816783272
 11
61.1111328125
 21
79.7674243577
  0
LINE
  5
3BF
100
AcDbEntity
  8
0
100
AcDbLine
 62
250
  6
CONTINUOUS
 10
63.5611820447
 20
79.8695448058
 11
61.1111328125
 21
79.8552908363
  0
LINE
  5
3C0
100
AcDbEntity
  8
0
100
AcDbLine
 62
7
  6
CONTINUOUS
 10
62.0612571914
 20
80.9232421875
 11
61.1111328125
 21
80.9232421875
  0
LINE
  5
3C1
100
AcDbEntity
  8
0
100
AcDbLine
 62
7
  6
CONTINUOUS
 10
61.1111328125
 20
81.0732421875
 11
61.2611328125
 21
81.0732421875
  0
LINE
  5
3C2
100
AcDbEntity
  8
0
100
AcDbLine
 62
7
  6
CONTINUOUS
 10
61.5611328125
 20
81.0732421875
 11
61.7611328125
 21
81.0732421875
  0
LINE
  5
3C3
100
AcDbEntity
  8
0
100
AcDbLine
 62
7
  6
CONTINUOUS
 10
61.1111328125
 20
80.367422313
 11
63.9216000037
 21
80.2432555198
  0
LINE
  5
3C4
100
AcDbEntity
  8
0
100
AcDbLine
 62
7
  6
CONTINUOUS
 10
62.1607609104
 20
80.9182793777
 11
64.1111328125
 21
80.7232421875
  0
LWPOLYLINE
  5
3C5
100
AcDbEntity
  8
0
100
AcDbPolyline
 62
250
  6
CONTINUOUS
 90
4
 70
0
 10
63.6008056297
 20
132.4091714599
 10
63.5877301378
 20
132.3997074429
 10
63.5744978748
 20
132.3889436509
 10
63.5611820447
 20
132.3769395692
  0
LWPOLYLINE
  5
3C6
100
AcDbEntity
  8
0
100
AcDbPolyline
 62
250
  6
CONTINUOUS
 90
4
 70
0
 10
63.6008156362
 20
79.8373061307
 10
63.5877380876
 20
79.8467708198
 10
63.5745024811
 20
79.8575367738
 10
63.5611820447
 20
79.8695448058
  0
LINE
  5
3C7
100
AcDbEntity
  8
0
100
AcDbLine
 62
7
  6
CONTINUOUS
 10
61.2611328125
 20
131.1732421875
 11
61.4111328125
 21
131.3232421875
  0
LINE
  5
3C8
100
AcDbEntity
  8
0
100
AcDbLine
 62
7
  6
CONTINUOUS
 10
61.7611328125
 20
131.1732421875
 11
61.9111328125
 21
131.3232421875
  0
LINE
  5
3C9
100
AcDbEntity
  8
0
100
AcDbLine
 62
7
  6
CONTINUOUS
 10
61.2611328125
 20
81.0732421875
 11
61.4111328125
 21
80.9232421875
  0
LINE
  5
3CA
100
AcDbEntity
  8
0
100
AcDbLine
 62
7
  6
CONTINUOUS
 10
61.7611328125
 20
81.0732421875
 11
61.9111328125
 21
80.9232421875
  0
LWPOLYLINE
  5
3CB
100
AcDbEntity
  8
0
100
AcDbPolyline
 62
250
  6
CONTINUOUS
 90
9
 70
0
 10
62.1304594987
 20
79.0494312221
 10
62.137849185
 20
79.0400354759
 10
62.1450331044
 20
79.0314386833
 10
62.1519397041
 20
79.02380629
 10
62.1584119228
 20
79.0173977824
 10
62.1642660913
 20
79.0124711038
 10
62.1693811337
 20
79.0092017049
 10
62.1736740808
 20
79.0077345107
 10
62.1770390462
 20
79.0082263914
  0
LWPOLYLINE
  5
3CC
100
AcDbEntity
  8
0
100
AcDbPolyline
 62
7
  6
CONTINUOUS
 90
3
 70
0
 43
0.3500000006
 10
69.9705823975
 20
170.1589612427
 10
69.8991557465
 20
169.9446767578
 10
69.7562979126
 20
169.6589520264
  0
LWPOLYLINE
  5
3CD
100
AcDbEntity
  8
0
100
AcDbPolyline
 62
250
  6
CONTINUOUS
 90
19
 70
0
 10
62.0369053962
 20
133.0509214314
 10
62.0453670924
 20
133.0656074357
 10
62.0539129917
 20
133.080188546
 10
62.0625111219
 20
133.0945983938
 10
62.0710652533
 20
133.1086716699
 10
62.0796025091
 20
133.1224387795
 10
62.0882632652
 20
133.1360888834
 10
62.097001838
 20
133.1495118226
 10
62.1057480828
 20
133.1625695404
 10
62.1145711029
 20
133.1753180089
 10
62.1234226326
 20
133.1876216084
 10
62.1321406415
 20
133.1991827892
 10
62.1405918555
 20
133.2097507508
 10
62.1486957195
 20
133.2191320062
 10
62.1562461808
 20
133.2269914185
 10
62.1629608317
 20
133.2329690175
 10
62.1687035391
 20
133.236902892
 10
62.173426969
 20
133.2387050963
 10
62.1770390462
 20
133.2382579836
  0
LWPOLYLINE
  5
3CE
100
AcDbEntity
  8
0
100
AcDbPolyline
 62
7
  6
CONTINUOUS
 90
7
 70
0
 10
64.0832738975
 20
80.14668047
 10
64.0915450427
 20
80.1326265482
 10
64.0984565875
 20
80.1195438567
 10
64.1039321533
 20
80.1074323956
 10
64.1079052326
 20
80.0962921648
 10
64.1103201243
 20
80.0861231644
 10
64.1111328125
 20
80.0769253943
  0
LWPOLYLINE
  5
3CF
100
AcDbEntity
  8
0
100
AcDbPolyline
 62
250
  6
CONTINUOUS
 90
14
 70
0
 10
62.0369053962
 20
79.1955629436
 10
62.0434969469
 20
79.1840846122
 10
62.0502168017
 20
79.1725383219
 10
62.0570489019
 20
79.1609626978
 10
62.0639383288
 20
79.1494580355
 10
62.0709028243
 20
79.1380075273
 10
62.0780288792
 20
79.1264934013
 10
62.085301867
 20
79.114964194
 10
62.0926736392
 20
79.1035170797
 10
62.1001667713
 20
79.0921443332
 10
62.1077355972
 20
79.080947708
 10
62.115324638
 20
79.0700439358
 10
62.1229227509
 20
79.059489751
 10
62.1304594987
 20
79.0494312221
  0
LWPOLYLINE
  5
3D0
100
AcDbEntity
  8
0
100
AcDbPolyline
 62
7
  6
CONTINUOUS
 90
3
 70
0
 43
0.3500000006
 10
68.8239174957
 20
162.1589588013
 10
68.7524908447
 20
161.9446743164
 10
68.6096330109
 20
161.658949585
  0
LINE
  5
3D1
100
AcDbEntity
  8
SMUSSO
100
AcDbLine
 62
7
  6
CONTINUOUS
 10
53.9611328125
 20
62.3519732277
 11
53.9611328125
 21
149.8945111473
  0
LINE
  5
3D2
100
AcDbEntity
  8
ASSI
100
AcDbLine
 62
7
  6
CONTINUOUS
 10
53.9611328125
 20
62.3519732277
 11
53.9611328125
 21
149.8945111473
  0
LINE
  5
3D3
100
AcDbEntity
  8
SMUSSO
100
AcDbLine
 62
7
  6
CONTINUOUS
 10
54.9455852703
 20
61.3325428652
 11
54.9455852703
 21
62.3032567176
  0
LINE
  5
3D4
100
AcDbEntity
  8
ASSI
100
AcDbLine
 62
7
  6
CONTINUOUS
 10
54.9455852703
 20
61.3325428652
 11
54.9455852703
 21
62.3032567176
  0
LINE
  5
3D5
100
AcDbEntity
  8
SMUSSO
100
AcDbLine
 62
7
  6
CONTINUOUS
 10
54.9455852703
 20
149.9432276574
 11
54.9455852703
 21
150.9139415098
  0
LINE
  5
3D6
100
AcDbEntity
  8
ASSI
100
AcDbLine
 62
7
  6
CONTINUOUS
 10
54.9455852703
 20
149.9432276574
 11
54.9455852703
 21
150.9139415098
  0
LINE
  5
3D7
100
AcDbEntity
  8
SMUSSO
100
AcDbLine
 62
7
  6
CONTINUOUS
 10
54.9605236395
 20
62.3176825331
 11
54.9605236395
 21
149.9288018419
  0
LINE
  5
3D8
100
AcDbEntity
  8
ASSI
100
AcDbLine
 62
7
  6
CONTINUOUS
 10
54.9605236395
 20
62.3176825331
 11
54.9605236395
 21
149.9288018419
  0
LINE
  5
3D9
100
AcDbEntity
  8
SMUSSO
100
AcDbLine
 62
7
  6
CONTINUOUS
 10
60.5111328125
 20
61.1232421875
 11
60.5111328125
 21
151.1232421875
  0
LINE
  5
3DA
100
AcDbEntity
  8
ASSI
100
AcDbLine
 62
7
  6
CONTINUOUS
 10
60.5111328125
 20
61.1232421875
 11
60.5111328125
 21
151.1232421875
  0
LINE
  5
3DB
100
AcDbEntity
  8
0
100
AcDbLine
 62
7
  6
CONTINUOUS
 10
61.1111328125
 20
63.3232421875
 11
61.1111328125
 21
148.9232421875
  0
LINE
  5
3DC
100
AcDbEntity
  8
0
100
AcDbLine
 62
250
  6
CONTINUOUS
 10
62.0369699442
 20
78.9731127487
 11
62.0369053962
 21
79.1955629436
  0
LINE
  5
3DD
100
AcDbEntity
  8
0
100
AcDbLine
 62
250
  6
CONTINUOUS
 10
62.0369053962
 20
133.0509214314
 11
62.0369699416
 21
133.2722279019
  0
LWPOLYLINE
  5
3DE
100
AcDbEntity
  8
0
100
AcDbPolyline
 62
7
  6
CONTINUOUS
 90
7
 70
0
 10
64.1111328125
 20
132.1695589807
 10
64.1103202529
 20
132.1603621265
 10
64.1079056415
 20
132.1501936756
 10
64.1039328371
 20
132.139053628
 10
64.0984573882
 20
132.1269419837
 10
64.0915456593
 20
132.1138587427
 10
64.0832738975
 20
132.099803905
  0
LWPOLYLINE
  5
3DF
100
AcDbEntity
  8
0
100
AcDbPolyline
 62
250
  6
CONTINUOUS
 90
3
 70
0
 10
63.5612810652
 20
132.4602474734
 10
63.5612384111
 20
132.4636640569
 10
63.5611820447
 20
132.4648060478
  0
LINE
  5
3E0
100
AcDbEntity
  8
0
100
AcDbLine
 62
250
  6
CONTINUOUS
 10
63.5613240437
 20
132.4467112346
 11
63.5612810652
 21
132.4602474734
  0
LINE
  5
3E1
100
AcDbEntity
  8
0
100
AcDbLine
 62
250
  6
CONTINUOUS
 10
63.5613240437
 20
79.7997731404
 11
63.5611820447
 21
79.8695448058
  0
LINE
  5
3E2
100
AcDbEntity
  8
0
100
AcDbLine
 62
250
  6
CONTINUOUS
 10
63.9216000037
 20
132.0032288552
 11
63.9216000037
 21
131.5042889066
  0
LINE
  5
3E3
100
AcDbEntity
  8
0
100
AcDbLine
 62
250
  6
CONTINUOUS
 10
63.9216000037
 20
80.7421954684
 11
63.9216000037
 21
80.2432555198
  0
LINE
  5
3E4
100
AcDbEntity
  8
0
100
AcDbLine
 62
7
  6
CONTINUOUS
 10
64.1111328125
 20
132.2116065279
 11
64.1111328125
 21
131.5232421875
  0
LINE
  5
3E5
100
AcDbEntity
  8
0
100
AcDbLine
 62
7
  6
CONTINUOUS
 10
64.1111328125
 20
80.7232421875
 11
64.1111328125
 21
80.0348778471
  0
LINE
  5
3E6
100
AcDbEntity
  8
0
100
AcDbLine
 62
250
  6
CONTINUOUS
 10
63.5611820447
 20
132.3769395692
 11
63.5613240437
 21
132.4467112346
  0
LWPOLYLINE
  5
3E7
100
AcDbEntity
  8
0
100
AcDbPolyline
 62
250
  6
CONTINUOUS
 90
4
 70
0
 10
63.5611820447
 20
79.7816783272
 10
63.5612384111
 20
79.7828203181
 10
63.5612810652
 20
79.7862369016
 10
63.5613240437
 20
79.7997731404
  0
LWPOLYLINE
  5
3E8
100
AcDbEntity
  8
0
100
AcDbPolyline
 62
7
  6
CONTINUOUS
 90
4
 70
0
 43
0.3500000006
 10
65.7524899292
 20
164.2303815308
 10
65.7524899292
 20
164.8732349854
 10
67.252490387
 20
164.8732349854
 10
66.3953479156
 20
161.8732340698
  0
LWPOLYLINE
  5
3E9
100
AcDbEntity
  8
0
100
AcDbPolyline
 62
7
  6
CONTINUOUS
 90
13
 70
0
 43
0.3500000006
 10
66.8991548309
 20
170.7303925781
 10
66.8991548309
 20
172.0160994873
 10
67.1134393158
 20
172.444668457
 10
67.5420128174
 20
172.8732374268
 10
67.7562973022
 20
172.8732374268
 10
68.1848708038
 20
172.444668457
 10
68.3991552887
 20
172.0160994873
 10
68.3991552887
 20
170.7303925781
 10
68.1848708038
 20
170.301805481
 10
67.7562973022
 20
169.8732365112
 10
67.5420128174
 20
169.8732365112
 10
67.1134393158
 20
170.301805481
 10
66.8991548309
 20
170.7303925781
  0
LINE
  5
3EA
100
AcDbEntity
  8
0
100
AcDbLine
 62
7
  6
CONTINUOUS
 10
61.4111328125
 20
80.9232421875
 11
61.5611328125
 21
81.0732421875
  0
LINE
  5
3EB
100
AcDbEntity
  8
0
100
AcDbLine
 62
7
  6
CONTINUOUS
 10
61.4111328125
 20
131.3232421875
 11
61.5611328125
 21
131.1732421875
  0
LINE
  5
3EC
100
AcDbEntity
  8
0
100
AcDbLine
 62
250
  6
CONTINUOUS
 10
62.0369053962
 20
79.1955629436
 11
63.1364242561
 21
79.7792071586
  0
LINE
  5
3ED
100
AcDbEntity
  8
0
100
AcDbLine
 62
250
  6
CONTINUOUS
 10
63.5611820447
 20
79.8695448058
 11
64.0832738975
 21
80.14668047
  0
LINE
  5
3EE
100
AcDbEntity
  8
0
100
AcDbLine
 62
7
  6
CONTINUOUS
 10
62.1761447742
 20
79.0077516959
 11
64.1111328125
 21
80.0348778471
  0
LWPOLYLINE
  5
3EF
100
AcDbEntity
  8
0
100
AcDbPolyline
 62
250
  6
CONTINUOUS
 90
10
 70
0
 10
63.7000939738
 20
79.8166911028
 10
63.6914403695
 20
79.8130392442
 10
63.6820599721
 20
79.8108776465
 10
63.672005855
 20
79.8102159181
 10
63.6613377801
 20
79.8110548957
 10
63.6501128685
 20
79.8133871726
 10
63.6383837511
 20
79.8172013828
 10
63.6262103693
 20
79.8224799992
 10
63.6136637129
 20
79.8291941351
 10
63.6008156362
 20
79.8373061307
  0
LINE
  5
3F0
100
AcDbEntity
  8
0
100
AcDbLine
 62
7
  6
CONTINUOUS
 10
62.1607609104
 20
131.3282049973
 11
64.1111328125
 21
131.5232421875
  0
LINE
  5
3F1
100
AcDbEntity
  8
0
100
AcDbLine
 62
7
  6
CONTINUOUS
 10
61.1111328125
 20
131.879062062
 11
63.9216000037
 21
132.0032288552
  0
LINE
  5
3F2
100
AcDbEntity
  8
0
100
AcDbLine
 62
7
  6
CONTINUOUS
 10
61.1111328125
 20
131.1732421875
 11
61.2611328125
 21
131.1732421875
  0
LINE
  5
3F3
100
AcDbEntity
  8
0
100
AcDbLine
 62
7
  6
CONTINUOUS
 10
61.5611328125
 20
131.1732421875
 11
61.7611328125
 21
131.1732421875
  0
LINE
  5
3F4
100
AcDbEntity
  8
0
100
AcDbLine
 62
7
  6
CONTINUOUS
 10
61.1111328125
 20
131.3232421875
 11
62.0612571914
 21
131.3232421875
  0
LINE
  5
3F5
100
AcDbEntity
  8
0
100
AcDbLine
 62
250
  6
CONTINUOUS
 10
62.0369053962
 20
133.0509214314
 11
61.1111328125
 21
133.0513396259
  0
LINE
  5
3F6
100
AcDbEntity
  8
0
100
AcDbLine
 62
7
  6
CONTINUOUS
 10
62.0369699635
 20
133.2733716262
 11
61.1111328125
 21
133.2749875185
  0
LINE
  5
3F7
100
AcDbEntity
  8
0
100
AcDbLine
 62
250
  6
CONTINUOUS
 10
63.5611820447
 20
132.3769395692
 11
61.1111328125
 21
132.3911935387
  0
LINE
  5
3F8
100
AcDbEntity
  8
0
100
AcDbLine
 62
7
  6
CONTINUOUS
 10
63.5611820447
 20
132.4648060478
 11
61.1111328125
 21
132.4790600173
  0
LWPOLYLINE
  5
3F9
100
AcDbEntity
  8
0
100
AcDbPolyline
 62
250
  6
CONTINUOUS
 90
10
 70
0
 10
63.7000939738
 20
132.4297932722
 10
63.6914496372
 20
132.4334421428
 10
63.6820754828
 20
132.4356044739
 10
63.6720235186
 20
132.4362686068
 10
63.661349926
 20
132.4354312382
 10
63.6501134667
 20
132.4330973626
 10
63.6383749377
 20
132.4292796395
 10
63.6261985416
 20
132.4239986373
 10
63.6136521685
 20
132.4172834995
 10
63.6008056297
 20
132.4091714599
  0
LINE
  5
3FA
100
AcDbEntity
  8
0
100
AcDbLine
 62
250
  6
CONTINUOUS
 10
63.1364242561
 20
132.4672772164
 11
62.0369053962
 21
133.0509214314
  0
LINE
  5
3FB
100
AcDbEntity
  8
0
100
AcDbLine
 62
250
  6
CONTINUOUS
 10
64.0832738975
 20
132.099803905
 11
63.5611820447
 21
132.3769395692
  0
LINE
  5
3FC
100
AcDbEntity
  8
0
100
AcDbLine
 62
7
  6
CONTINUOUS
 10
64.1111328125
 20
132.2116065279
 11
62.1761447742
 21
133.2387326791
  0
LINE
  5
3FD
100
AcDbEntity
  8
SMUSSO
100
AcDbLine
 62
7
  6
CONTINUOUS
 10
54.9605236395
 20
62.3176825331
 11
54.9455852703
 21
62.3032567176
  0
LINE
  5
3FE
100
AcDbEntity
  8
ASSI
100
AcDbLine
 62
7
  6
CONTINUOUS
 10
54.9605236395
 20
62.3176825331
 11
54.9455852703
 21
62.3032567176
  0
LINE
  5
3FF
100
AcDbEntity
  8
SMUSSO
100
AcDbLine
 62
7
  6
CONTINUOUS
 10
54.9455852703
 20
149.9432276574
 11
54.9605236395
 21
149.9288018419
  0
LINE
  5
400
100
AcDbEntity
  8
ASSI
100
AcDbLine
 62
7
  6
CONTINUOUS
 10
54.9455852703
 20
149.9432276574
 11
54.9605236395
 21
149.9288018419
  0
LWPOLYLINE
  5
401
100
AcDbEntity
  8
0
100
AcDbPolyline
 62
7
  6
CONTINUOUS
 90
10
 70
0
 43
0.3500000006
 10
68.7524908447
 20
162.3732432861
 10
68.8239174957
 20
162.2303809204
 10
68.8239174957
 20
162.1589588013
 10
68.6810596619
 20
162.0160964355
 10
68.6096330109
 20
162.0160964355
 10
68.5382063599
 20
162.0875366821
 10
68.5382063599
 20
162.1589588013
 10
68.6096330109
 20
162.301821167
 10
68.6810596619
 20
162.3732432861
 10
68.7524908447
 20
162.3732432861
  0
LWPOLYLINE
  5
402
100
AcDbEntity
  8
0
100
AcDbPolyline
 62
7
  6
CONTINUOUS
 90
10
 70
0
 43
0.3500000006
 10
69.8991557465
 20
170.3732457275
 10
69.9705823975
 20
170.2303833618
 10
69.9705823975
 20
170.1589612427
 10
69.8277290955
 20
170.016098877
 10
69.7562979126
 20
170.016098877
 10
69.6848712616
 20
170.0875209961
 10
69.6848712616
 20
170.1589612427
 10
69.7562979126
 20
170.301805481
 10
69.8277290955
 20
170.3732457275
 10
69.8991557465
 20
170.3732457275
  0
LINE
  5
403
100
AcDbEntity
  8
0
100
AcDbLine
 62
250
  6
CONTINUOUS
 10
60.5111328125
 20
147.2851836199
 11
61.1111328125
 21
147.3271397071
  0
LINE
  5
404
100
AcDbEntity
  8
0
100
AcDbLine
 62
7
  6
CONTINUOUS
 10
60.5111328125
 20
148.8812861003
 11
61.1111328125
 21
148.9232421875
  0
LINE
  5
405
100
AcDbEntity
  8
SMUSSO
100
AcDbLine
 62
7
  6
CONTINUOUS
 10
54.9605236395
 20
149.9288018419
 11
60.5111328125
 21
150.1226333854
  0
LINE
  5
406
100
AcDbEntity
  8
ASSI
100
AcDbLine
 62
7
  6
CONTINUOUS
 10
54.9605236395
 20
149.9288018419
 11
60.5111328125
 21
150.1226333854
  0
LINE
  5
407
100
AcDbEntity
  8
SMUSSO
100
AcDbLine
 62
7
  6
CONTINUOUS
 10
54.9605236395
 20
150.929410644
 11
60.5111328125
 21
151.1232421875
  0
LINE
  5
408
100
AcDbEntity
  8
ASSI
100
AcDbLine
 62
7
  6
CONTINUOUS
 10
54.9605236395
 20
150.929410644
 11
60.5111328125
 21
151.1232421875
  0
LWPOLYLINE
  5
409
100
AcDbEntity
  8
0
100
AcDbPolyline
 62
7
  6
CONTINUOUS
 90
8
 70
0
 43
0.3500000006
 10
71.5382027435
 20
161.8732340698
 10
72.3953452148
 20
161.8732340698
 10
72.8239187164
 20
162.301821167
 10
72.8239187164
 20
163.1589591064
 10
72.3953452148
 20
163.5875280762
 10
71.5382027435
 20
163.5875280762
 10
71.5382027435
 20
164.8732349854
 10
72.8239187164
 20
164.8732349854
  0
LWPOLYLINE
  5
40A
100
AcDbEntity
  8
0
100
AcDbPolyline
 62
7
  6
CONTINUOUS
 90
8
 70
0
 43
0.3500000006
 10
72.6848721771
 20
169.8732365112
 10
73.5420146484
 20
169.8732365112
 10
73.9705836182
 20
170.301805481
 10
73.9705836182
 20
171.1589615479
 10
73.5420146484
 20
171.5875305176
 10
72.6848721771
 20
171.5875305176
 10
72.6848721771
 20
172.8732374268
 10
73.9705836182
 20
172.8732374268
  0
ARC
  5
40B
100
AcDbEntity
  8
0
100
AcDbCircle
 62
7
  6
CONTINUOUS
 10
62.0612571914
 20
132.3232421875
 40
1.0
100
AcDbArc
 50
270.0
 51
275.7105931375
  0
ARC
  5
40C
100
AcDbEntity
  8
0
100
AcDbCircle
 62
7
  6
CONTINUOUS
 10
62.0612571914
 20
79.9232421875
 40
1.0
100
AcDbArc
 50
84.2894068625
 51
90.0
  0
ARC
  5
40D
100
AcDbEntity
  8
0
100
AcDbCircle
 62
7
  6
CONTINUOUS
 10
62.0364461374
 20
79.2732426915
 40
0.3
100
AcDbArc
 50
270.1000001427
 51
297.9489684598
  0
ARC
  5
40E
100
AcDbEntity
  8
0
100
AcDbCircle
 62
7
  6
CONTINUOUS
 10
62.0364461374
 20
132.9732416835
 40
0.3
100
AcDbArc
 50
62.0510315402
 51
89.8999998573
  0
ARC
  5
40F
100
AcDbEntity
  8
0
100
AcDbCircle
 62
7
  6
CONTINUOUS
 10
63.5594367253
 20
80.0816732502
 40
0.3
100
AcDbArc
 50
270.3333333333
 51
297.9601595792
  0
ARC
  5
410
100
AcDbEntity
  8
0
100
AcDbCircle
 62
7
  6
CONTINUOUS
 10
63.5594367253
 20
132.1648111248
 40
0.3
100
AcDbArc
 50
62.0398404207
 51
89.6666666667
  0
ELLIPSE
  5
411
100
AcDbEntity
  8
0
100
AcDbEllipse
 62
7
  6
CONTINUOUS
 10
114.2608516471
 20
84.0235469596
 30
0.0
 11
-0.3539842723
 21
-0.3539842723
 31
0.0
 40
0.998782766
 41
-0.7847891758
 42
0.7847891758
  0
ELLIPSE
  5
412
100
AcDbEntity
  8
0
100
AcDbEllipse
 62
7
  6
CONTINUOUS
 10
114.2608516471
 20
128.2229374154
 30
0.0
 11
-0.3539842723
 21
0.3539842723
 31
0.0
 40
0.998782766
 41
-0.7847891758
 42
0.7847891758
  0
ELLIPSE
  5
413
100
AcDbEntity
  8
0
100
AcDbEllipse
 62
7
  6
CONTINUOUS
 10
225.9602421029
 20
128.2229374154
 30
0.0
 11
0.3539842723
 21
0.3539842723
 31
0.0
 40
0.998782766
 41
-0.7847891758
 42
0.7847891758
  0
ELLIPSE
  5
414
100
AcDbEntity
  8
0
100
AcDbEllipse
 62
7
  6
CONTINUOUS
 10
225.9602421029
 20
84.0235469596
 30
0.0
 11
0.3539842723
 21
-0.3539842723
 31
0.0
 40
0.998782766
 41
-0.7847891758
 42
0.7847891758
  0
ELLIPSE
  5
415
100
AcDbEntity
  8
ASSI
100
AcDbEllipse
 62
7
  6
CONTINUOUS
 10
114.2608516471
 20
84.0235469596
 30
0.0
 11
-0.3539842723
 21
-0.3539842723
 31
0.0
 40
0.998782766
 41
-0.7847891758
 42
0.7847891758
  0
ELLIPSE
  5
416
100
AcDbEntity
  8
ASSI
100
AcDbEllipse
 62
7
  6
CONTINUOUS
 10
114.2608516471
 20
128.2229374154
 30
0.0
 11
-0.3539842723
 21
0.3539842723
 31
0.0
 40
0.998782766
 41
-0.7847891758
 42
0.7847891758
  0
ELLIPSE
  5
417
100
AcDbEntity
  8
ASSI
100
AcDbEllipse
 62
7
  6
CONTINUOUS
 10
225.9602421029
 20
128.2229374154
 30
0.0
 11
0.3539842723
 21
0.3539842723
 31
0.0
 40
0.998782766
 41
-0.7847891758
 42
0.7847891758
  0
ELLIPSE
  5
418
100
AcDbEntity
  8
ASSI
100
AcDbEllipse
 62
7
  6
CONTINUOUS
 10
225.9602421029
 20
84.0235469596
 30
0.0
 11
0.3539842723
 21
-0.3539842723
 31
0.0
 40
0.998782766
 41
-0.7847891758
 42
0.7847891758
  0
ELLIPSE
  5
419
100
AcDbEntity
  8
0
100
AcDbEllipse
 62
7
  6
CONTINUOUS
 10
63.9111328125
 20
132.2030408825
 30
0.0
 11
-0.1417119467
 21
0.1422961243
 31
0.0
 40
0.9918061237
 41
-3.8766878413
 42
-2.8923940429
  0
ELLIPSE
  5
41A
100
AcDbEntity
  8
0
100
AcDbEllipse
 62
7
  6
CONTINUOUS
 10
63.9111328125
 20
80.0434434925
 30
0.0
 11
0.1417119467
 21
0.1422961243
 31
0.0
 40
0.9918061237
 41
-0.2491986107
 42
0.7350951877
  0
ENDSEC
  0
SECTION
  2
OBJECTS
  0
DICTIONARY
  5
C
100
AcDbDictionary
280
0
281
1
  3
ACAD_GROUP
350
D
  3
ACAD_MLINESTYLE
350
17
  3
ACAD_LAYOUT
350
1A
  3
ACAD_PLOTSETTINGS
350
19
  3
ACAD_PLOTSTYLENAME
350
E
  0
DICTIONARY
  5
D
102
{ACAD_REACTORS
330
C
102
}
100
AcDbDictionary
280
0
281
1
  0
ACDBDICTIONARYWDFLT
  5
E
102
{ACAD_REACTORS
330
C
102
}
100
AcDbDictionary
281
1
  3
Normal
350
F
100
AcDbDictionaryWithDefault
340
F
  0
DICTIONARY
  5
17
102
{ACAD_REACTORS
330
C
102
}
100
AcDbDictionary
280
0
281
1
  3
Standard
350
18
  0
DICTIONARY
  5
19
102
{ACAD_REACTORS
330
C
102
}
100
AcDbDictionary
281
1
  0
DICTIONARY
  5
1A
102
{ACAD_REACTORS
330
C
102
}
100
AcDbDictionary
281
1
  3
Model
350
41B
  3
Layout1
350
41C
  0
ACDBPLACEHOLDER
  5
F
102
{ACAD_REACTORS
330
E
102
}
  0
MLINESTYLE
  5
18
102
{ACAD_REACTORS
330
17
102
}
100
AcDbMlineStyle
  2
STANDARD
 70
0
  3

 62
256
 51
90.0
 52
90.0
 71
2
 49
0.5
 62
256
  6
BYLAYER
 49
-0.5
 62
256
  6
BYLAYER
  0
LAYOUT
  5
41B
102
{ACAD_REACTORS
330
1A
102
}
100
AcDbPlotSettings
  1

  2
none_device
  4
ISO_A4_(297.00_x_210.00_MM)
  6

 40
0.0
 41
0.0
 42
0.0
 43
0.0
 44
297.0
 45
210.0
 46
0.0
 47
0.0
 48
0.0
 49
0.0
140
0.0
141
0.0
142
1.0
143
1.0
 70
1024
 72
1
 73
0
 74
0
  7

 75
0
147
1.0
148
0.0
149
0.0
100
AcDbLayout
  1
Model
 70
0
 71
0
 10
0.0
 20
0.0
 11
297.0
 21
210.0
 12
0.0
 22
0.0
 32
0.0
 14
0.0
 24
0.0
 34
0.0
 15
0.0
 25
0.0
 35
0.0
146
0.0
 13
0.0
 23
0.0
 33
0.0
 16
1.0
 26
0.0
 36
0.0
 17
0.0
 27
1.0
 37
0.0
 76
0
330
21C
345
0
346
0
  0
LAYOUT
  5
41C
102
{ACAD_REACTORS
330
1A
102
}
100
AcDbPlotSettings
  1

  2
none_device
  4
ISO_A4_(297.00_x_210.00_MM)
  6

 40
0.0
 41
0.0
 42
0.0
 43
0.0
 44
297.0
 45
210.0
 46
0.0
 47
0.0
 48
0.0
 49
0.0
140
0.0
141
0.0
142
1.0
143
1.0
 70
0
 72
1
 73
0
 74
0
  7

 75
0
147
1.0
148
0.0
149
0.0
100
AcDbLayout
  1
Layout1
 70
0
 71
1
 10
0.0
 20
0.0
 11
297.0
 21
210.0
 12
0.0
 22
0.0
 32
0.0
 14
0.0
 24
0.0
 34
0.0
 15
0.0
 25
0.0
 35
0.0
146
0.0
 13
0.0
 23
0.0
 33
0.0
 16
1.0
 26
0.0
 36
0.0
 17
0.0
 27
1.0
 37
0.0
 76
0
330
21D
345
0
346
0
  0
ENDSEC
  0
EOF
