  0
SECTION
  2
HEADER
  9
$ACADVER
  1
AC1021
  9
$DWGCODEPAGE
  3
ANSI_1252
  9
$EXTMAX
 10
297.0
 20
210.0
 30
0.0
  9
$EXTMIN
 10
0.0
 20
0.0
 30
0.0
  9
$LIMMIN
 10
0.0
 20
0.0
  9
$LIMMAX
 10
297.0
 20
210.0
  9
$VIEWCTR
 10
148.5
 20
105.0
  9
$VIEWSIZE
 40
210.0
  9
$CLAYER
  8
0
  9
$LTSCALE
 40
16.335
  9
$CELTYPE
  6
BYLAYER
  9
$DIMSCALE
 40
1.0
  9
$DIMASZ
 40
3.0
  9
$DIMEXO
 40
0.5
  9
$DIMDLI
 40
11.286
  9
$DIMEXE
 40
1.5
  9
$DIMCEN
 40
2.673
  9
$DIMLFAC
 40
1.0
  9
$DIMBLK
  1
_FILLED
  9
$DIMALT
 70
0
  9
$DIMALTF
 40
25.4
  9
$DIMTXT
 40
3.0
  9
$DIMTOL
 70
1
  9
$DIMLIM
 70
0
  9
$DIMTFAC
 40
1.0
  9
$DIMTP
 40
0.01
  9
$DIMTM
 40
0.01
  9
$DIMGAP
 40
0.625
  9
$DIMDSEP
 70
44
  9
$AUNITS
 70
0
  9
$PDMODE
 70
3
  9
$PDSIZE
 40
3.0
  9
$HANDSEED
  5
37A
  9
$TILEMODE
 70
1
  9
$MEASUREMENT
 70
1
  9
$INSUNITS
 70
4
  0
ENDSEC
  0
SECTION
  2
CLASSES
  0
CLASS
  1
ACDBDICTIONARYWDFLT
  2
AcDbDictionaryWithDefault
  3
AutoCAD 2000
 90
0
 91
1
280
0
281
0
  0
CLASS
  1
ACDBPLACEHOLDER
  2
AcDbPlaceHolder
  3
AutoCAD 2000
 90
0
 91
1
280
0
281
0
  0
CLASS
  1
LAYOUT
  2
AcDbLayout
  3
AutoCAD 2000
 90
0
 91
0
280
0
281
0
  0
ENDSEC
  0
SECTION
  2
TABLES
  0
TABLE
  2
VPORT
  5
8
100
AcDbSymbolTable
 70
2
  0
VPORT
  5
1F4
100
AcDbSymbolTableRecord
100
AcDbViewportTableRecord
  2
*ACTIVE
 70
0
 10
0.0
 20
0.0
 11
1.0
 21
1.0
 12
148.5
 22
105.0
 13
0.0
 23
0.0
 14
1.0
 24
1.0
 15
0.0
 25
0.0
 16
0.0
 26
0.0
 36
1.0
 17
0.0
 27
0.0
 37
0.0
 40
210.0
 41
1.4142857143
 42
50.0
 43
0.0
 44
0.0
 50
0.0
 51
0.0
 71
0
 72
100
 73
1
 74
1
 75
0
 76
0
 77
0
 78
0
  0
ENDTAB
  0
TABLE
  2
LTYPE
  5
5
100
AcDbSymbolTable
 70
6
  0
LTYPE
  5
14
100
AcDbSymbolTableRecord
100
AcDbLinetypeTableRecord
  2
BYBLOCK
 70
0
  3

 72
65
 73
0
 40
0.0
  0
LTYPE
  5
15
100
AcDbSymbolTableRecord
100
AcDbLinetypeTableRecord
  2
BYLAYER
 70
0
  3

 72
65
 73
0
 40
0.0
  0
LTYPE
  5
16
100
AcDbSymbolTableRecord
100
AcDbLinetypeTableRecord
  2
CONTINUOUS
 70
64
  3
Solid line
 72
65
 73
0
 40
0.0
  0
LTYPE
  5
1F5
100
AcDbSymbolTableRecord
100
AcDbLinetypeTableRecord
  2
CENTER
 70
64
  3
____ _ ____ _ ____ _ ____ _ ____ _ ____ _ ____
 72
65
 73
4
 40
0.6
 49
0.375
 74
0
 49
-0.075
 74
0
 49
0.075
 74
0
 49
-0.075
 74
0
  0
LTYPE
  5
1F6
100
AcDbSymbolTableRecord
100
AcDbLinetypeTableRecord
  2
HIDDEN
 70
64
  3
- - - - - - - - - - - - - - - - - - - -
 72
65
 73
2
 40
0.2
 49
0.1
 74
0
 49
-0.1
 74
0
  0
LTYPE
  5
1F7
100
AcDbSymbolTableRecord
100
AcDbLinetypeTableRecord
  2
PHANTOM
 70
64
  3
_____ _ _ _____ _ _ _____ _ _ _____
 72
65
 73
6
 40
0.8
 49
0.45
 74
0
 49
-0.05
 74
0
 49
0.1
 74
0
 49
-0.05
 74
0
 49
0.1
 74
0
 49
-0.05
 74
0
  0
LTYPE
  5
1F8
100
AcDbSymbolTableRecord
100
AcDbLinetypeTableRecord
  2
DOT
 70
64
  3
. . . . . . . . . . . . . . . . . . . .
 72
65
 73
2
 40
0.2
 49
0.1
 74
0
 49
-0.1
 74
0
  0
LTYPE
  5
1F9
100
AcDbSymbolTableRecord
100
AcDbLinetypeTableRecord
  2
DASHED
 70
64
  3
- - - - - - - - - - - - - - - - - - - -
 72
65
 73
2
 40
0.2
 49
0.1
 74
0
 49
-0.1
 74
0
  0
ENDTAB
  0
TABLE
  2
LAYER
  5
2
100
AcDbSymbolTable
 70
36
  0
LAYER
  5
10
100
AcDbSymbolTableRecord
100
AcDbLayerTableRecord
  2
0
 70
0
 62
7
  6
CONTINUOUS
370
-3
390
F
  0
LAYER
  5
1FA
100
AcDbSymbolTableRecord
100
AcDbLayerTableRecord
  2
DEFAULT_1
 70
0
 62
7
  6
CENTER
370
-3
390
F
  0
LAYER
  5
1FB
100
AcDbSymbolTableRecord
100
AcDbLayerTableRecord
  2
DEFAULT_2
 70
0
 62
7
  6
HIDDEN
370
-3
390
F
  0
LAYER
  5
1FC
100
AcDbSymbolTableRecord
100
AcDbLayerTableRecord
  2
DEFAULT_3
 70
0
 62
7
  6
PHANTOM
370
-3
390
F
  0
LAYER
  5
1FD
100
AcDbSymbolTableRecord
100
AcDbLayerTableRecord
  2
ASSI
 70
0
 62
7
  6
CONTINUOUS
370
-3
390
F
  0
LAYER
  5
1FE
100
AcDbSymbolTableRecord
100
AcDbLayerTableRecord
  2
COORDINATE
 70
0
 62
7
  6
CONTINUOUS
370
-3
390
F
  0
LAYER
  5
1FF
100
AcDbSymbolTableRecord
100
AcDbLayerTableRecord
  2
COORD_ORIGINE
 70
0
 62
7
  6
CONTINUOUS
370
-3
390
F
  0
LAYER
  5
200
100
AcDbSymbolTableRecord
100
AcDbLayerTableRecord
  2
COPY_PUBLISH
 70
0
 62
7
  6
CONTINUOUS
370
-3
390
F
  0
LAYER
  5
201
100
AcDbSymbolTableRecord
100
AcDbLayerTableRecord
  2
COSMETIC
 70
0
 62
7
  6
CONTINUOUS
370
-3
390
F
  0
LAYER
  5
202
100
AcDbSymbolTableRecord
100
AcDbLayerTableRecord
  2
COSMETICI
 70
0
 62
7
  6
CONTINUOUS
370
-3
390
F
  0
LAYER
  5
203
100
AcDbSymbolTableRecord
100
AcDbLayerTableRecord
  2
CURVE
 70
0
 62
7
  6
CONTINUOUS
370
-3
390
F
  0
LAYER
  5
204
100
AcDbSymbolTableRecord
100
AcDbLayerTableRecord
  2
CURVE_COSTRUZIONE
 70
0
 62
7
  6
CONTINUOUS
370
-3
390
F
  0
LAYER
  5
205
100
AcDbSymbolTableRecord
100
AcDbLayerTableRecord
  2
CURVE_TASSELLI
 70
0
 62
7
  6
CONTINUOUS
370
-3
390
F
  0
LAYER
  5
206
100
AcDbSymbolTableRecord
100
AcDbLayerTableRecord
  2
DRAFT
 70
0
 62
7
  6
CONTINUOUS
370
-3
390
F
  0
LAYER
  5
207
100
AcDbSymbolTableRecord
100
AcDbLayerTableRecord
  2
IMPORT_IGES
 70
0
 62
7
  6
CONTINUOUS
370
-3
390
F
  0
LAYER
  5
208
100
AcDbSymbolTableRecord
100
AcDbLayerTableRecord
  2
INTFCLR_2
 70
0
 62
7
  6
CONTINUOUS
370
-3
390
F
  0
LAYER
  5
209
100
AcDbSymbolTableRecord
100
AcDbLayerTableRecord
  2
INTF_1
 70
0
 62
7
  6
CONTINUOUS
370
-3
390
F
  0
LAYER
  5
20A
100
AcDbSymbolTableRecord
100
AcDbLayerTableRecord
  2
INTF_21
 70
0
 62
7
  6
CONTINUOUS
370
-3
390
F
  0
LAYER
  5
20B
100
AcDbSymbolTableRecord
100
AcDbLayerTableRecord
  2
INTF_7
 70
0
 62
7
  6
CONTINUOUS
370
-3
390
F
  0
LAYER
  5
20C
100
AcDbSymbolTableRecord
100
AcDbLayerTableRecord
  2
INTF_CYAN
 70
0
 62
7
  6
CONTINUOUS
370
-3
390
F
  0
LAYER
  5
20D
100
AcDbSymbolTableRecord
100
AcDbLayerTableRecord
  2
NOTE
 70
0
 62
7
  6
CONTINUOUS
370
-3
390
F
  0
LAYER
  5
20E
100
AcDbSymbolTableRecord
100
AcDbLayerTableRecord
  2
PIANI
 70
0
 62
7
  6
CONTINUOUS
370
-3
390
F
  0
LAYER
  5
20F
100
AcDbSymbolTableRecord
100
AcDbLayerTableRecord
  2
PIANI_ORIGINE
 70
0
 62
7
  6
CONTINUOUS
370
-3
390
F
  0
LAYER
  5
210
100
AcDbSymbolTableRecord
100
AcDbLayerTableRecord
  2
PIANI_RIFERIMENTO
 70
0
 62
7
  6
CONTINUOUS
370
-3
390
F
  0
LAYER
  5
211
100
AcDbSymbolTableRecord
100
AcDbLayerTableRecord
  2
PUNTI
 70
0
 62
7
  6
CONTINUOUS
370
-3
390
F
  0
LAYER
  5
212
100
AcDbSymbolTableRecord
100
AcDbLayerTableRecord
  2
RACCORDO
 70
0
 62
7
  6
CONTINUOUS
370
-3
390
F
  0
LAYER
  5
213
100
AcDbSymbolTableRecord
100
AcDbLayerTableRecord
  2
RGB__255__255__255__
 70
0
 62
7
  6
CONTINUOUS
370
-3
390
F
  0
LAYER
  5
214
100
AcDbSymbolTableRecord
100
AcDbLayerTableRecord
  2
RGB____0____0____0__
 70
0
 62
7
  6
CONTINUOUS
370
-3
390
F
  0
LAYER
  5
215
100
AcDbSymbolTableRecord
100
AcDbLayerTableRecord
  2
SIMBOLI
 70
0
 62
7
  6
CONTINUOUS
370
-3
390
F
  0
LAYER
  5
216
100
AcDbSymbolTableRecord
100
AcDbLayerTableRecord
  2
SMUSSO
 70
0
 62
7
  6
CONTINUOUS
370
-3
390
F
  0
LAYER
  5
217
100
AcDbSymbolTableRecord
100
AcDbLayerTableRecord
  2
SNAPLINE
 70
0
 62
7
  6
CONTINUOUS
370
-3
390
F
  0
LAYER
  5
218
100
AcDbSymbolTableRecord
100
AcDbLayerTableRecord
  2
SUPERFICI
 70
0
 62
7
  6
CONTINUOUS
370
-3
390
F
  0
LAYER
  5
219
100
AcDbSymbolTableRecord
100
AcDbLayerTableRecord
  2
TRASH
 70
0
 62
7
  6
CONTINUOUS
370
-3
390
F
  0
LAYER
  5
21A
100
AcDbSymbolTableRecord
100
AcDbLayerTableRecord
  2
XSEC_DATUMS
 70
0
 62
7
  6
CONTINUOUS
370
-3
390
F
  0
ENDTAB
  0
TABLE
  2
STYLE
  5
3
100
AcDbSymbolTable
 70
1
  0
STYLE
  5
11
100
AcDbSymbolTableRecord
100
AcDbTextStyleTableRecord
  2
STANDARD
 70
0
 40
0.0
 41
0.8
 50
0.0
 71
0
 42
0.2
  3
txt
  4

  0
STYLE
  5
21B
100
AcDbSymbolTableRecord
100
AcDbTextStyleTableRecord
  2
TEXTSTYLE_1
 70
0
 40
0.0
 41
0.8
 50
0.0
 71
0
 42
0.2
  3
gdt
  4

  0
ENDTAB
  0
TABLE
  2
VIEW
  5
6
100
AcDbSymbolTable
 70
0
  0
ENDTAB
  0
TABLE
  2
UCS
  5
7
100
AcDbSymbolTable
 70
0
  0
ENDTAB
  0
TABLE
  2
APPID
  5
9
100
AcDbSymbolTable
 70
1
  0
APPID
  5
21C
100
AcDbSymbolTableRecord
100
AcDbRegAppTableRecord
  2
ACAD
 70
0
  0
ENDTAB
  0
TABLE
  2
BLOCK_RECORD
  5
1
100
AcDbSymbolTable
 70
0
  0
BLOCK_RECORD
  5
21D
100
AcDbSymbolTableRecord
100
AcDbBlockTableRecord
  2
*Model_Space
  0
BLOCK_RECORD
  5
21E
100
AcDbSymbolTableRecord
100
AcDbBlockTableRecord
  2
*Paper_Space
  0
BLOCK_RECORD
  5
21F
100
AcDbSymbolTableRecord
100
AcDbBlockTableRecord
  2
_FILLED
  0
BLOCK_RECORD
  5
220
100
AcDbSymbolTableRecord
100
AcDbBlockTableRecord
  2
*D0
  0
BLOCK_RECORD
  5
221
100
AcDbSymbolTableRecord
100
AcDbBlockTableRecord
  2
*D1
  0
BLOCK_RECORD
  5
222
100
AcDbSymbolTableRecord
100
AcDbBlockTableRecord
  2
*D2
  0
BLOCK_RECORD
  5
223
100
AcDbSymbolTableRecord
100
AcDbBlockTableRecord
  2
*D3
  0
ENDTAB
  0
TABLE
  2
DIMSTYLE
  5
A
100
AcDbSymbolTable
 70
1
100
AcDbDimStyleTable
 71
0
  0
DIMSTYLE
105
224
100
AcDbSymbolTableRecord
100
AcDbDimStyleTableRecord
  2
STANDARD
 70
0
  3

  4

 40
1.0
 41
3.0
 42
0.5
 43
0.38
 44
1.5
 45
0.0
 46
0.0
 47
0.01
 48
0.01
140
3.0
141
0.09
142
0.0
143
25.4
144
1.0
145
0.0
146
1.0
147
0.625
 71
1.0
 72
0.0
 73
0
 74
0
 75
0
 76
0
 77
1
 78
8
 79
2
170
0
171
1
172
0
173
0
174
0
175
0
176
0
177
0
178
0
270
2
179
2
271
2
272
2
273
2
274
2
275
0
280
0
281
0
282
0
283
1
284
8
285
0
286
0
287
3
288
0
340
11
278
44
341
21F
342
21F
343
21F
344
21F
  0
DIMSTYLE
105
225
100
AcDbSymbolTableRecord
100
AcDbDimStyleTableRecord
  2
DIMSTYLE_1
 70
0
  3

  4

 40
1.0
 41
3.0
 42
0.5
 43
0.38
 44
1.5
 45
0.0
 46
0.0
 47
0.0
 48
0.0
140
3.0
141
0.09
142
0.0
143
25.4
144
1.0
145
0.0
146
1.0
147
0.75
 71
0.0
 72
0.0
 73
0
 74
0
 75
0
 76
0
 77
1
 78
8
 79
2
170
0
171
1
172
0
173
0
174
0
175
0
176
0
177
0
178
0
270
2
179
2
271
2
272
2
273
2
274
2
275
0
280
0
281
0
282
0
283
1
284
8
285
0
286
0
287
3
288
0
340
11
278
44
341
21F
342
21F
343
21F
344
21F
  0
ENDTAB
  0
ENDSEC
  0
SECTION
  2
BLOCKS
  0
BLOCK
  5
20
100
AcDbEntity
  8
0
100
AcDbBlockBegin
  2
*Model_Space
 70
0
 10
0.0
 20
0.0
 30
0.0
  3
*Model_Space
  1

  0
ENDBLK
  5
21
100
AcDbEntity
  8
0
100
AcDbBlockEnd
  0
BLOCK
  5
1C
100
AcDbEntity
  8
0
100
AcDbBlockBegin
  2
*Paper_Space
 70
0
 10
0.0
 20
0.0
 30
0.0
  3
*Paper_Space
  1

  0
ENDBLK
  5
1D
100
AcDbEntity
  8
0
100
AcDbBlockEnd
  0
BLOCK
  5
226
100
AcDbEntity
  8
0
100
AcDbBlockBegin
  2
_FILLED
 70
64
 10
0.0
 20
0.0
  3
_FILLED
  1

  0
SOLID
  5
227
100
AcDbEntity
  8
0
  6
BYBLOCK
 62
0
100
AcDbTrace
 10
0.0
 20
0.0
 11
-1.0
 21
0.3166666667
 12
-1.0
 22
-0.3166666667
 13
-1.0
 23
-0.3166666667
  0
ENDBLK
  5
228
100
AcDbEntity
  8
0
  6
BYBLOCK
 62
0
100
AcDbBlockEnd
  0
BLOCK
  5
229
100
AcDbEntity
  8
0
100
AcDbBlockBegin
 62
7
  6
CONTINUOUS
  2
*D0
 70
65
 10
0.0
 20
0.0
  3
*D0
  1

  0
LINE
  5
22A
100
AcDbEntity
  8
0
100
AcDbLine
 62
7
  6
CONTINUOUS
 10
253.5285156249
 20
64.4296875
 11
265.9785156249
 21
64.4296875
  0
LINE
  5
22B
100
AcDbEntity
  8
0
100
AcDbLine
 62
7
  6
CONTINUOUS
 10
253.5285156249
 20
154.4296875
 11
265.9785156249
 21
154.4296875
  0
LINE
  5
22C
100
AcDbEntity
  8
0
100
AcDbLine
 62
7
  6
CONTINUOUS
 10
264.4785156249
 20
64.4296875
 11
264.4785156249
 21
109.4296875
  0
LINE
  5
22D
100
AcDbEntity
  8
0
100
AcDbLine
 62
7
  6
CONTINUOUS
 10
264.4785156249
 20
154.4296875
 11
264.4785156249
 21
109.4296875
  0
INSERT
  5
22E
100
AcDbEntity
  8
0
100
AcDbBlockReference
 62
7
  6
CONTINUOUS
  2
_FILLED
 10
264.4785156249
 20
64.4296875
 41
3.0
 42
3.0
 43
3.0
 50
270.0
  0
INSERT
  5
22F
100
AcDbEntity
  8
0
100
AcDbBlockReference
 62
7
  6
CONTINUOUS
  2
_FILLED
 10
264.4785156249
 20
154.4296875
 41
3.0
 42
3.0
 43
3.0
 50
90.0
  0
ENDBLK
  5
230
100
AcDbEntity
  8
0
  6
BYBLOCK
 62
0
100
AcDbBlockEnd
  0
BLOCK
  5
231
100
AcDbEntity
  8
0
100
AcDbBlockBegin
 62
7
  6
CONTINUOUS
  2
*D1
 70
65
 10
0.0
 20
0.0
  3
*D1
  1

  0
LINE
  5
232
100
AcDbEntity
  8
0
100
AcDbLine
 62
7
  6
CONTINUOUS
 10
254.0285156249
 20
153.9296875
 11
254.0285156249
 21
165.9296874997
  0
LINE
  5
233
100
AcDbEntity
  8
0
100
AcDbLine
 62
7
  6
CONTINUOUS
 10
94.7285156249
 20
153.9296875
 11
94.7285156249
 21
165.9296874997
  0
LINE
  5
234
100
AcDbEntity
  8
0
100
AcDbLine
 62
7
  6
CONTINUOUS
 10
254.0285156249
 20
164.4296874997
 11
174.3785156249
 21
164.4296874997
  0
LINE
  5
235
100
AcDbEntity
  8
0
100
AcDbLine
 62
7
  6
CONTINUOUS
 10
94.7285156249
 20
164.4296874997
 11
174.3785156249
 21
164.4296874997
  0
INSERT
  5
236
100
AcDbEntity
  8
0
100
AcDbBlockReference
 62
7
  6
CONTINUOUS
  2
_FILLED
 10
254.0285156249
 20
164.4296874997
 41
3.0
 42
3.0
 43
3.0
  0
INSERT
  5
237
100
AcDbEntity
  8
0
100
AcDbBlockReference
 62
7
  6
CONTINUOUS
  2
_FILLED
 10
94.7285156249
 20
164.4296874997
 41
3.0
 42
3.0
 43
3.0
 50
180.0
  0
ENDBLK
  5
238
100
AcDbEntity
  8
0
  6
BYBLOCK
 62
0
100
AcDbBlockEnd
  0
BLOCK
  5
239
100
AcDbEntity
  8
0
100
AcDbBlockBegin
 62
7
  6
CONTINUOUS
  2
*D2
 70
65
 10
0.0
 20
0.0
  3
*D2
  1

  0
LINE
  5
23A
100
AcDbEntity
  8
0
100
AcDbLine
 62
7
  6
CONTINUOUS
 10
67.085546875
 20
152.9679978281
 11
67.085546875
 21
165.9296874997
  0
LINE
  5
23B
100
AcDbEntity
  8
0
100
AcDbLine
 62
7
  6
CONTINUOUS
 10
59.535546875
 20
153.9296875
 11
59.535546875
 21
165.9296874997
  0
LINE
  5
23C
100
AcDbEntity
  8
0
100
AcDbLine
 62
7
  6
CONTINUOUS
 10
67.085546875
 20
164.4296874997
 11
63.310546875
 21
164.4296874997
  0
LINE
  5
23D
100
AcDbEntity
  8
0
100
AcDbLine
 62
7
  6
CONTINUOUS
 10
63.310546875
 20
164.4296874997
 11
80.3177194321
 21
164.4296874997
  0
LINE
  5
23E
100
AcDbEntity
  8
0
100
AcDbLine
 62
7
  6
CONTINUOUS
 10
59.535546875
 20
164.4296874997
 11
63.310546875
 21
164.4296874997
  0
INSERT
  5
23F
100
AcDbEntity
  8
0
100
AcDbBlockReference
 62
7
  6
CONTINUOUS
  2
_FILLED
 10
67.085546875
 20
164.4296874997
 41
3.0
 42
3.0
 43
3.0
  0
INSERT
  5
240
100
AcDbEntity
  8
0
100
AcDbBlockReference
 62
7
  6
CONTINUOUS
  2
_FILLED
 10
59.535546875
 20
164.4296874997
 41
3.0
 42
3.0
 43
3.0
 50
180.0
  0
ENDBLK
  5
241
100
AcDbEntity
  8
0
  6
BYBLOCK
 62
0
100
AcDbBlockEnd
  0
BLOCK
  5
242
100
AcDbEntity
  8
0
100
AcDbBlockBegin
 62
7
  6
CONTINUOUS
  2
*D3
 70
65
 10
0.0
 20
0.0
  3
*D3
  1

  0
LINE
  5
243
100
AcDbEntity
  8
0
100
AcDbLine
 62
7
  6
CONTINUOUS
 10
70.085546875
 20
135.9760042932
 11
70.085546875
 21
173.9296874997
  0
LINE
  5
244
100
AcDbEntity
  8
0
100
AcDbLine
 62
7
  6
CONTINUOUS
 10
59.535546875
 20
153.9296875
 11
59.535546875
 21
173.9296874997
  0
LINE
  5
245
100
AcDbEntity
  8
0
100
AcDbLine
 62
7
  6
CONTINUOUS
 10
70.085546875
 20
172.4296874997
 11
64.810546875
 21
172.4296874997
  0
LINE
  5
246
100
AcDbEntity
  8
0
100
AcDbLine
 62
7
  6
CONTINUOUS
 10
64.810546875
 20
172.4296874997
 11
81.7276600236
 21
172.4296874997
  0
LINE
  5
247
100
AcDbEntity
  8
0
100
AcDbLine
 62
7
  6
CONTINUOUS
 10
59.535546875
 20
172.4296874997
 11
64.810546875
 21
172.4296874997
  0
INSERT
  5
248
100
AcDbEntity
  8
0
100
AcDbBlockReference
 62
7
  6
CONTINUOUS
  2
_FILLED
 10
70.085546875
 20
172.4296874997
 41
3.0
 42
3.0
 43
3.0
  0
INSERT
  5
249
100
AcDbEntity
  8
0
100
AcDbBlockReference
 62
7
  6
CONTINUOUS
  2
_FILLED
 10
59.535546875
 20
172.4296874997
 41
3.0
 42
3.0
 43
3.0
 50
180.0
  0
ENDBLK
  5
24A
100
AcDbEntity
  8
0
  6
BYBLOCK
 62
0
100
AcDbBlockEnd
  0
ENDSEC
  0
SECTION
  2
ENTITIES
  0
DIMENSION
  5
24B
100
AcDbEntity
  8
0
100
AcDbDimension
 62
7
  6
CONTINUOUS
  2
*D0
 10
264.4785156249
 20
154.4296875
 11
264.4785156249
 21
107.0725446429
 70
160
 71
2
 72
2
 41
0.9
 42
90.0
  3
DIMSTYLE_1
100
AcDbAlignedDimension
 13
253.0285156249
 23
64.4296875
 14
253.0285156249
 24
154.4296875
 50
90.0
100
AcDbRotatedDimension
  0
DIMENSION
  5
24C
100
AcDbEntity
  8
0
100
AcDbDimension
 62
7
  6
CONTINUOUS
  2
*D1
 10
94.7285156249
 20
164.4296874997
 11
169.3428013391
 21
164.4296874997
 70
160
 71
2
 72
2
 41
0.9
 42
159.3
  3
DIMSTYLE_1
100
AcDbAlignedDimension
 13
254.0285156249
 23
153.4296875
 14
94.7285156249
 24
153.4296875
 50
180.0
100
AcDbRotatedDimension
  0
DIMENSION
  5
24D
100
AcDbEntity
  8
0
100
AcDbDimension
 62
7
  6
CONTINUOUS
  2
*D2
 10
59.535546875
 20
164.4296874997
 11
71.960576575
 21
164.4296874997
 70
160
 71
1
 72
2
 41
0.9
 42
7.55
  3
DIMSTYLE_1
100
AcDbAlignedDimension
 13
67.085546875
 23
152.4679978281
 14
59.535546875
 24
153.4296875
 50
180.0
100
AcDbRotatedDimension
  0
DIMENSION
  5
24E
100
AcDbEntity
  8
0
100
AcDbDimension
 62
7
  6
CONTINUOUS
  2
*D3
 10
59.535546875
 20
172.4296874997
 11
71.6562314522
 21
172.4296874997
 70
160
 71
1
 72
2
 41
0.9
 42
10.55
  3
DIMSTYLE_1
100
AcDbAlignedDimension
 13
70.085546875
 23
135.4760042932
 14
59.535546875
 24
153.4296875
 50
180.0
100
AcDbRotatedDimension
  0
LINE
  5
24F
100
AcDbEntity
  8
SMUSSO
100
AcDbLine
 62
7
  6
CONTINUOUS
 10
94.7285156249
 20
153.4296875
 11
94.7285156249
 21
65.4296875
  0
LINE
  5
250
100
AcDbEntity
  8
SMUSSO
100
AcDbLine
 62
7
  6
CONTINUOUS
 10
95.7285156249
 20
153.4296875
 11
95.7285156249
 21
65.4296875
  0
LINE
  5
251
100
AcDbEntity
  8
SMUSSO
100
AcDbLine
 62
250
  6
CONTINUOUS
 10
95.7285156249
 20
65.4296875
 11
95.7285156249
 21
64.4296875
  0
LINE
  5
252
100
AcDbEntity
  8
SMUSSO
100
AcDbLine
 62
250
  6
CONTINUOUS
 10
95.7285156249
 20
153.4296875
 11
95.7285156249
 21
154.4296875
  0
LINE
  5
253
100
AcDbEntity
  8
RACCORDO
100
AcDbLine
 62
7
  6
CONTINUOUS
 10
118.0285156249
 20
130.8296875
 11
118.0285156249
 21
88.0296875
  0
LWPOLYLINE
  5
254
100
AcDbEntity
  8
0
100
AcDbPolyline
 62
7
  6
CONTINUOUS
 90
3
 70
0
 43
0.3500000006
 10
169.3428052368
 20
167.3225423584
 10
170.1999431763
 20
168.1796802979
 10
170.1999431763
 20
165.1796793823
  0
LWPOLYLINE
  5
255
100
AcDbEntity
  8
0
100
AcDbPolyline
 62
7
  6
CONTINUOUS
 90
5
 70
0
 43
0.3500000006
 10
178.1285234985
 20
166.8939733887
 10
178.4856522217
 20
167.1082578735
 10
178.4856522217
 20
167.7511113281
 10
178.1285234985
 20
168.1796802979
 10
177.2713674316
 20
168.1796802979
  0
LINE
  5
256
100
AcDbEntity
  8
SMUSSO
100
AcDbLine
 62
7
  6
CONTINUOUS
 10
95.7285156249
 20
64.4296875
 11
253.0285156249
 21
64.4296875
  0
LINE
  5
257
100
AcDbEntity
  8
SMUSSO
100
AcDbLine
 62
250
  6
CONTINUOUS
 10
95.7285156249
 20
65.4296875
 11
94.7285156249
 21
65.4296875
  0
LINE
  5
258
100
AcDbEntity
  8
SMUSSO
100
AcDbLine
 62
7
  6
CONTINUOUS
 10
95.7285156249
 20
65.4296875
 11
253.0285156249
 21
65.4296875
  0
LINE
  5
259
100
AcDbEntity
  8
SMUSSO
100
AcDbLine
 62
250
  6
CONTINUOUS
 10
253.0285156249
 20
65.4296875
 11
254.0285156249
 21
65.4296875
  0
LWPOLYLINE
  5
25A
100
AcDbEntity
  8
0
100
AcDbPolyline
 62
7
  6
CONTINUOUS
 90
10
 70
0
 43
0.3500000006
 10
173.6285130615
 20
165.1796793823
 10
174.485651001
 20
166.0368354492
 10
174.6999354858
 20
166.8939733887
 10
174.6999354858
 20
167.7511113281
 10
174.2713665161
 20
168.1796802979
 10
173.6285130615
 20
168.1796802979
 10
173.1999440918
 20
167.7511113281
 10
173.1999440918
 20
166.8939733887
 10
173.6285130615
 20
166.4654044189
 10
174.5570912476
 20
166.4654044189
  0
LINE
  5
25B
100
AcDbEntity
  8
RACCORDO
100
AcDbLine
 62
7
  6
CONTINUOUS
 10
119.2285156249
 20
86.8296875
 11
229.5285156249
 21
86.8296875
  0
LWPOLYLINE
  5
25C
100
AcDbEntity
  8
0
100
AcDbPolyline
 62
7
  6
CONTINUOUS
 90
3
 70
0
 43
0.3500000006
 10
176.2713671265
 20
165.4654041138
 10
176.1999450073
 20
165.2511196289
 10
176.0570826416
 20
164.9653948975
  0
LWPOLYLINE
  5
25D
100
AcDbEntity
  8
0
100
AcDbPolyline
 62
7
  6
CONTINUOUS
 90
13
 70
0
 43
0.3500000006
 10
262.8713754272
 20
109.4296850281
 10
261.5856503906
 20
109.4296850281
 10
261.1570814209
 20
109.6439695129
 10
260.7285124512
 20
110.0725475464
 10
260.7285124512
 20
110.2868320313
 10
261.1570814209
 20
110.715401001
 10
261.5856503906
 20
110.9296854858
 10
262.8713754272
 20
110.9296854858
 10
263.299944397
 20
110.715401001
 10
263.7285133667
 20
110.2868320313
 10
263.7285133667
 20
110.0725475464
 10
263.299944397
 20
109.6439695129
 10
262.8713754272
 20
109.4296850281
  0
LINE
  5
25E
100
AcDbEntity
  8
RACCORDO
100
AcDbLine
 62
7
  6
CONTINUOUS
 10
229.5285156249
 20
132.0296875
 11
119.2285156249
 21
132.0296875
  0
LWPOLYLINE
  5
25F
100
AcDbEntity
  8
0
100
AcDbPolyline
 62
7
  6
CONTINUOUS
 90
10
 70
0
 43
0.3500000006
 10
176.1999450073
 20
165.6796885986
 10
176.2713671265
 20
165.5368262329
 10
176.2713671265
 20
165.4654041138
 10
176.1285228882
 20
165.322541748
 10
176.0570826416
 20
165.322541748
 10
175.9856605225
 20
165.3939819946
 10
175.9856605225
 20
165.4654041138
 10
176.0570826416
 20
165.6082664795
 10
176.1285228882
 20
165.6796885986
 10
176.1999450073
 20
165.6796885986
  0
LINE
  5
260
100
AcDbEntity
  8
SMUSSO
100
AcDbLine
 62
7
  6
CONTINUOUS
 10
253.0285156249
 20
153.4296875
 11
95.7285156249
 21
153.4296875
  0
LINE
  5
261
100
AcDbEntity
  8
SMUSSO
100
AcDbLine
 62
250
  6
CONTINUOUS
 10
95.7285156249
 20
153.4296875
 11
94.7285156249
 21
153.4296875
  0
LINE
  5
262
100
AcDbEntity
  8
SMUSSO
100
AcDbLine
 62
250
  6
CONTINUOUS
 10
253.0285156249
 20
153.4296875
 11
254.0285156249
 21
153.4296875
  0
LINE
  5
263
100
AcDbEntity
  8
SMUSSO
100
AcDbLine
 62
7
  6
CONTINUOUS
 10
253.0285156249
 20
154.4296875
 11
95.7285156249
 21
154.4296875
  0
LWPOLYLINE
  5
264
100
AcDbEntity
  8
0
100
AcDbPolyline
 62
7
  6
CONTINUOUS
 90
8
 70
0
 43
0.3500000006
 10
171.0570811157
 20
165.1796793823
 10
171.9142371826
 20
165.1796793823
 10
172.3428061523
 20
165.6082664795
 10
172.3428061523
 20
166.4654044189
 10
171.9142371826
 20
166.8939733887
 10
171.0570811157
 20
166.8939733887
 10
171.0570811157
 20
168.1796802979
 10
172.3428061523
 20
168.1796802979
  0
LWPOLYLINE
  5
265
100
AcDbEntity
  8
0
100
AcDbPolyline
 62
7
  6
CONTINUOUS
 90
6
 70
0
 43
0.3500000006
 10
177.2713674316
 20
165.1796793823
 10
178.3428079834
 20
165.1796793823
 10
178.5570924683
 20
165.3939819946
 10
178.5570924683
 20
166.4654044189
 10
178.1285234985
 20
166.8939733887
 10
177.6999364014
 20
166.8939733887
  0
LINE
  5
266
100
AcDbEntity
  8
RACCORDO
100
AcDbLine
 62
7
  6
CONTINUOUS
 10
230.7285156249
 20
88.0296875
 11
230.7285156249
 21
130.8296875
  0
LWPOLYLINE
  5
267
100
AcDbEntity
  8
0
100
AcDbPolyline
 62
7
  6
CONTINUOUS
 90
10
 70
0
 43
0.3500000006
 10
263.7285133667
 20
107.5011156006
 10
262.8713754272
 20
108.3582626038
 10
262.0142374878
 20
108.5725470886
 10
261.1570814209
 20
108.5725470886
 10
260.7285124512
 20
108.1439690552
 10
260.7285124512
 20
107.5011156006
 10
261.1570814209
 20
107.0725466309
 10
262.0142374878
 20
107.0725466309
 10
262.4428064575
 20
107.5011156006
 10
262.4428064575
 20
108.4296847229
  0
LINE
  5
268
100
AcDbEntity
  8
SMUSSO
100
AcDbLine
 62
250
  6
CONTINUOUS
 10
253.0285156249
 20
65.4296875
 11
253.0285156249
 21
64.4296875
  0
LINE
  5
269
100
AcDbEntity
  8
SMUSSO
100
AcDbLine
 62
7
  6
CONTINUOUS
 10
253.0285156249
 20
65.4296875
 11
253.0285156249
 21
153.4296875
  0
LINE
  5
26A
100
AcDbEntity
  8
SMUSSO
100
AcDbLine
 62
250
  6
CONTINUOUS
 10
253.0285156249
 20
153.4296875
 11
253.0285156249
 21
154.4296875
  0
LINE
  5
26B
100
AcDbEntity
  8
SMUSSO
100
AcDbLine
 62
7
  6
CONTINUOUS
 10
254.0285156249
 20
65.4296875
 11
254.0285156249
 21
153.4296875
  0
LINE
  5
26C
100
AcDbEntity
  8
SMUSSO
100
AcDbLine
 62
7
  6
CONTINUOUS
 10
60.535546875
 20
64.4296875
 11
62.035546875
 21
64.4296875
  0
LINE
  5
26D
100
AcDbEntity
  8
0
100
AcDbLine
 62
250
  6
CONTINUOUS
 10
65.5865905203
 20
66.0892807933
 11
67.085546875
 21
66.3913771719
  0
LINE
  5
26E
100
AcDbEntity
  8
ASSI
100
AcDbLine
 62
250
  6
CONTINUOUS
 10
65.5865905203
 20
66.0892807933
 11
67.085546875
 21
66.3913771719
  0
LINE
  5
26F
100
AcDbEntity
  8
0
100
AcDbLine
 62
7
  6
CONTINUOUS
 10
62.685546875
 20
65.0790678117
 11
65.585546875
 21
65.1296875
  0
LINE
  5
270
100
AcDbEntity
  8
ASSI
100
AcDbLine
 62
7
  6
CONTINUOUS
 10
62.685546875
 20
65.0790678117
 11
65.585546875
 21
65.1296875
  0
LINE
  5
271
100
AcDbEntity
  8
SMUSSO
100
AcDbLine
 62
250
  6
CONTINUOUS
 10
59.535546875
 20
65.4296875
 11
62.535546875
 21
65.4296875
  0
LINE
  5
272
100
AcDbEntity
  8
0
100
AcDbLine
 62
250
  6
CONTINUOUS
 10
62.685546875
 20
66.1296875
 11
65.585546875
 21
66.1296875
  0
LINE
  5
273
100
AcDbEntity
  8
ASSI
100
AcDbLine
 62
250
  6
CONTINUOUS
 10
62.685546875
 20
66.1296875
 11
65.585546875
 21
66.1296875
  0
LWPOLYLINE
  5
274
100
AcDbEntity
  8
0
100
AcDbPolyline
 62
7
  6
CONTINUOUS
 90
3
 70
0
 43
0.3500000006
 10
71.6562305145
 20
175.3225447998
 10
72.5133729858
 20
176.1796827393
 10
72.5133729858
 20
173.1796818237
  0
LINE
  5
275
100
AcDbEntity
  8
RACCORDO
100
AcDbLine
 62
7
  6
CONTINUOUS
 10
62.535546875
 20
69.4296875
 11
62.685546875
 21
69.4296875
  0
LINE
  5
276
100
AcDbEntity
  8
RACCORDO
100
AcDbLine
 62
250
  6
CONTINUOUS
 10
62.535546875
 20
70.4296875
 11
62.685546875
 21
70.4296875
  0
LINE
  5
277
100
AcDbEntity
  8
0
100
AcDbLine
 62
250
  6
CONTINUOUS
 10
65.104040875
 20
73.2685465
 11
63.204080875
 21
73.2685465
  0
LINE
  5
278
100
AcDbEntity
  8
SMUSSO
100
AcDbLine
 62
7
  6
CONTINUOUS
 10
59.535546875
 20
153.4296875
 11
60.535546875
 21
154.4296875
  0
LINE
  5
279
100
AcDbEntity
  8
0
100
AcDbLine
 62
250
  6
CONTINUOUS
 10
64.511917875
 20
72.3518685
 11
63.204194875
 21
71.9897235
  0
LINE
  5
27A
100
AcDbEntity
  8
0
100
AcDbLine
 62
250
  6
CONTINUOUS
 10
65.104040875
 20
75.8053785
 11
63.204194875
 21
75.6277215
  0
LINE
  5
27B
100
AcDbEntity
  8
0
100
AcDbLine
 62
250
  6
CONTINUOUS
 10
63.868648875
 20
75.3359485
 11
65.104040875
 21
75.4174255
  0
LINE
  5
27C
100
AcDbEntity
  8
0
100
AcDbLine
 62
250
  6
CONTINUOUS
 10
63.204080875
 20
73.6651185
 11
65.104040875
 21
73.6651185
  0
LINE
  5
27D
100
AcDbEntity
  8
0
100
AcDbLine
 62
250
  6
CONTINUOUS
 10
65.104040875
 20
74.2579965
 11
63.863476875
 21
74.3435775
  0
LINE
  5
27E
100
AcDbEntity
  8
0
100
AcDbLine
 62
250
  6
CONTINUOUS
 10
63.204194875
 20
74.0501515
 11
65.104040875
 21
73.8786065
  0
LINE
  5
27F
100
AcDbEntity
  8
0
100
AcDbLine
 62
250
  6
CONTINUOUS
 10
63.204194875
 20
72.7250765
 11
64.511917875
 21
72.3518685
  0
LINE
  5
280
100
AcDbEntity
  8
0
100
AcDbLine
 62
250
  6
CONTINUOUS
 10
65.104040875
 20
72.5106915
 11
63.204194875
 21
73.1213775
  0
LINE
  5
281
100
AcDbEntity
  8
SMUSSO
100
AcDbLine
 62
7
  6
CONTINUOUS
 10
59.535546875
 20
65.4296875
 11
60.535546875
 21
64.4296875
  0
LINE
  5
282
100
AcDbEntity
  8
0
100
AcDbLine
 62
250
  6
CONTINUOUS
 10
64.724763875
 20
76.9094155
 11
65.104040875
 21
77.0121485
  0
LINE
  5
283
100
AcDbEntity
  8
0
100
AcDbLine
 62
250
  6
CONTINUOUS
 10
63.726223875
 20
76.6479305
 11
64.431280875
 21
76.8301605
  0
LWPOLYLINE
  5
284
100
AcDbEntity
  8
0
100
AcDbPolyline
 62
250
  6
CONTINUOUS
 90
53
 70
0
 10
63.7542662284
 20
78.4630950394
 10
63.7474149142
 20
78.4628892881
 10
63.7406328711
 20
78.4624832346
 10
63.7339037962
 20
78.4618799647
 10
63.7272113867
 20
78.4610825643
 10
63.7205393397
 20
78.460094119
 10
63.7138753327
 20
78.4589173341
 10
63.7072229641
 20
78.4575533922
 10
63.7005898127
 20
78.4560030954
 10
63.6939834572
 20
78.4542672456
 10
63.6874114762
 20
78.452346645
 10
63.6819657053
 20
78.4506053183
 10
63.676548378
 20
78.4487350587
 10
63.6711588037
 20
78.4467346757
 10
63.6657979392
 20
78.4446036717
 10
63.6604733321
 20
78.4423443203
 10
63.6551941775
 20
78.4399595881
 10
63.6489295111
 20
78.4369350079
 10
63.6427436766
 20
78.4337298236
 10
63.6366368134
 20
78.4303397072
 10
63.6306090606
 20
78.4267603313
 10
63.6246605576
 20
78.422987368
 10
63.6187938528
 20
78.4190175293
 10
63.6130211309
 20
78.4148516858
 10
63.6073569858
 20
78.4104917478
 10
63.6018160115
 20
78.4059396254
 10
63.5964128016
 20
78.4011972289
 10
63.5911603369
 20
78.3962678177
 10
63.5860651445
 20
78.3911600473
 10
63.5811321383
 20
78.3858839226
 10
63.5763662322
 20
78.3804494483
 10
63.5717723402
 20
78.374866629
 10
63.5673540641
 20
78.3691439274
 10
63.5631097578
 20
78.3632836368
 10
63.5590364634
 20
78.3572865086
 10
63.5551312227
 20
78.351153294
 10
63.5513910778
 20
78.3448847442
 10
63.548399308
 20
78.3395595983
 10
63.5455246435
 20
78.3341503339
 10
63.542771594
 20
78.3286662937
 10
63.540143727
 20
78.3231150653
 10
63.5376408406
 20
78.3174972164
 10
63.5352617904
 20
78.3118115598
 10
63.5325694989
 20
78.3048993486
 10
63.5300562013
 20
78.2978962595
 10
63.5277242149
 20
78.2908107672
 10
63.5255758569
 20
78.2836513464
 10
63.5236134446
 20
78.2764264719
 10
63.5218392564
 20
78.2691401702
 10
63.5202554151
 20
78.2617786756
 10
63.5188640046
 20
78.2543237742
 10
63.5176671089
 20
78.2467572519
 10
63.516666812
 20
78.239060895
  0
LINE
  5
285
100
AcDbEntity
  8
0
100
AcDbLine
 62
250
  6
CONTINUOUS
 10
65.104040621
 20
77.5465721027
 11
63.2263914163
 21
77.5465721027
  0
LINE
  5
286
100
AcDbEntity
  8
0
100
AcDbLine
 62
250
  6
CONTINUOUS
 10
63.5278524518
 20
77.9283990031
 11
64.0493971392
 21
77.9283990031
  0
LINE
  5
287
100
AcDbEntity
  8
0
100
AcDbLine
 62
250
  6
CONTINUOUS
 10
64.3605459585
 20
77.9415487449
 11
65.104040621
 21
77.9415487449
  0
LINE
  5
288
100
AcDbEntity
  8
0
100
AcDbLine
 62
250
  6
CONTINUOUS
 10
64.2059830675
 20
78.5661401086
 11
64.2172094992
 21
78.5661401086
  0
LINE
  5
289
100
AcDbEntity
  8
0
100
AcDbLine
 62
250
  6
CONTINUOUS
 10
64.431280875
 20
76.4504705
 11
63.726223875
 21
76.6479305
  0
LINE
  5
28A
100
AcDbEntity
  8
0
100
AcDbLine
 62
250
  6
CONTINUOUS
 10
65.104040875
 20
76.2599205
 11
64.724763875
 21
76.3693495
  0
LINE
  5
28B
100
AcDbEntity
  8
0
100
AcDbLine
 62
250
  6
CONTINUOUS
 10
63.204194875
 20
76.4635635
 11
65.104040875
 21
75.8676505
  0
LINE
  5
28C
100
AcDbEntity
  8
0
100
AcDbLine
 62
250
  6
CONTINUOUS
 10
63.204194875
 20
75.2353515
 11
64.258994875
 21
74.8387795
  0
LINE
  5
28D
100
AcDbEntity
  8
0
100
AcDbLine
 62
250
  6
CONTINUOUS
 10
65.104040875
 20
74.8644235
 11
63.868648875
 21
75.3359485
  0
LWPOLYLINE
  5
28E
100
AcDbEntity
  8
0
100
AcDbPolyline
 62
250
  6
CONTINUOUS
 90
3
 70
0
 10
64.8346255874
 20
78.4704780741
 10
64.7702934546
 20
78.452217605
 10
64.7072846159
 20
78.4340996822
  0
LINE
  5
28F
100
AcDbEntity
  8
0
100
AcDbLine
 62
250
  6
CONTINUOUS
 10
64.5433481145
 20
78.7821129466
 11
64.6341025648
 21
78.8067146009
  0
LINE
  5
290
100
AcDbEntity
  8
0
100
AcDbLine
 62
250
  6
CONTINUOUS
 10
65.0210050268
 20
78.9081776885
 11
65.104040621
 21
78.9303010504
  0
LINE
  5
291
100
AcDbEntity
  8
0
100
AcDbLine
 62
250
  6
CONTINUOUS
 10
64.6341025648
 20
78.8067146009
 11
64.7653568746
 21
78.8415527907
  0
LINE
  5
292
100
AcDbEntity
  8
0
100
AcDbLine
 62
250
  6
CONTINUOUS
 10
64.7653568746
 20
78.8415527907
 11
65.0210050268
 21
78.9081776885
  0
LINE
  5
293
100
AcDbEntity
  8
0
100
AcDbLine
 62
7
  6
CONTINUOUS
 10
68.0113840354
 20
82.2795580613
 11
67.085546875
 21
82.277942169
  0
LINE
  5
294
100
AcDbEntity
  8
ASSI
100
AcDbLine
 62
7
  6
CONTINUOUS
 10
68.0113840354
 20
82.2795580613
 11
67.085546875
 21
82.277942169
  0
LINE
  5
295
100
AcDbEntity
  8
0
100
AcDbLine
 62
250
  6
CONTINUOUS
 10
68.0113194587
 20
82.5020082561
 11
67.085546875
 21
82.5015900616
  0
LINE
  5
296
100
AcDbEntity
  8
ASSI
100
AcDbLine
 62
250
  6
CONTINUOUS
 10
68.0113194587
 20
82.5020082561
 11
67.085546875
 21
82.5015900616
  0
LINE
  5
297
100
AcDbEntity
  8
0
100
AcDbLine
 62
7
  6
CONTINUOUS
 10
69.5355961072
 20
83.0881236397
 11
67.085546875
 21
83.0738696702
  0
LINE
  5
298
100
AcDbEntity
  8
ASSI
100
AcDbLine
 62
7
  6
CONTINUOUS
 10
69.5355961072
 20
83.0881236397
 11
67.085546875
 21
83.0738696702
  0
LINE
  5
299
100
AcDbEntity
  8
0
100
AcDbLine
 62
250
  6
CONTINUOUS
 10
69.5355961072
 20
83.1759901183
 11
67.085546875
 21
83.1617361488
  0
LINE
  5
29A
100
AcDbEntity
  8
ASSI
100
AcDbLine
 62
250
  6
CONTINUOUS
 10
69.5355961072
 20
83.1759901183
 11
67.085546875
 21
83.1617361488
  0
LINE
  5
29B
100
AcDbEntity
  8
0
100
AcDbLine
 62
7
  6
CONTINUOUS
 10
68.0356712539
 20
84.2296875
 11
67.085546875
 21
84.2296875
  0
LINE
  5
29C
100
AcDbEntity
  8
ASSI
100
AcDbLine
 62
7
  6
CONTINUOUS
 10
68.0356712539
 20
84.2296875
 11
67.085546875
 21
84.2296875
  0
LINE
  5
29D
100
AcDbEntity
  8
0
100
AcDbLine
 62
7
  6
CONTINUOUS
 10
67.085546875
 20
84.3796875
 11
67.235546875
 21
84.3796875
  0
LINE
  5
29E
100
AcDbEntity
  8
ASSI
100
AcDbLine
 62
7
  6
CONTINUOUS
 10
67.085546875
 20
84.3796875
 11
67.235546875
 21
84.3796875
  0
LINE
  5
29F
100
AcDbEntity
  8
0
100
AcDbLine
 62
7
  6
CONTINUOUS
 10
67.535546875
 20
84.3796875
 11
67.735546875
 21
84.3796875
  0
LINE
  5
2A0
100
AcDbEntity
  8
ASSI
100
AcDbLine
 62
7
  6
CONTINUOUS
 10
67.535546875
 20
84.3796875
 11
67.735546875
 21
84.3796875
  0
LINE
  5
2A1
100
AcDbEntity
  8
0
100
AcDbLine
 62
7
  6
CONTINUOUS
 10
67.085546875
 20
83.6738676255
 11
69.8960140662
 21
83.5497008323
  0
LINE
  5
2A2
100
AcDbEntity
  8
ASSI
100
AcDbLine
 62
7
  6
CONTINUOUS
 10
67.085546875
 20
83.6738676255
 11
69.8960140662
 21
83.5497008323
  0
LINE
  5
2A3
100
AcDbEntity
  8
0
100
AcDbLine
 62
7
  6
CONTINUOUS
 10
68.1351749729
 20
84.2247246902
 11
70.085546875
 21
84.0296875
  0
LINE
  5
2A4
100
AcDbEntity
  8
ASSI
100
AcDbLine
 62
7
  6
CONTINUOUS
 10
68.1351749729
 20
84.2247246902
 11
70.085546875
 21
84.0296875
  0
LWPOLYLINE
  5
2A5
100
AcDbEntity
  8
0
100
AcDbPolyline
 62
250
  6
CONTINUOUS
 90
5
 70
0
 10
69.6245275094
 20
135.7395426698
 10
69.6127889971
 20
135.7357249508
 10
69.6006126046
 20
135.73044395
 10
69.5880662292
 20
135.7237288109
 10
69.5752196884
 20
135.7156167699
  0
LWPOLYLINE
  5
2A6
100
AcDbEntity
  8
ASSI
100
AcDbPolyline
 62
250
  6
CONTINUOUS
 90
5
 70
0
 10
69.6245275094
 20
135.7395426698
 10
69.6127889971
 20
135.7357249508
 10
69.6006126046
 20
135.73044395
 10
69.5880662292
 20
135.7237288109
 10
69.5752196884
 20
135.7156167699
  0
LWPOLYLINE
  5
2A7
100
AcDbEntity
  8
0
100
AcDbPolyline
 62
250
  6
CONTINUOUS
 90
5
 70
0
 10
69.6245275742
 20
83.1198323129
 10
69.6127993793
 20
83.1236460997
 10
69.6006258664
 20
83.1289246158
 10
69.5880785186
 20
83.1356390138
 10
69.5752298637
 20
83.1437513313
  0
LWPOLYLINE
  5
2A8
100
AcDbEntity
  8
ASSI
100
AcDbPolyline
 62
250
  6
CONTINUOUS
 90
5
 70
0
 10
69.6245275742
 20
83.1198323129
 10
69.6127993793
 20
83.1236460997
 10
69.6006258664
 20
83.1289246158
 10
69.5880785186
 20
83.1356390138
 10
69.5752298637
 20
83.1437513313
  0
LWPOLYLINE
  5
2A9
100
AcDbEntity
  8
0
100
AcDbPolyline
 62
250
  6
CONTINUOUS
 90
4
 70
0
 10
69.5752196884
 20
135.7156167699
 10
69.5621441973
 20
135.7061527531
 10
69.5489119355
 20
135.6953889619
 10
69.5355961072
 20
135.6833848817
  0
LWPOLYLINE
  5
2AA
100
AcDbEntity
  8
ASSI
100
AcDbPolyline
 62
250
  6
CONTINUOUS
 90
4
 70
0
 10
69.5752196884
 20
135.7156167699
 10
69.5621441973
 20
135.7061527531
 10
69.5489119355
 20
135.6953889619
 10
69.5355961072
 20
135.6833848817
  0
LWPOLYLINE
  5
2AB
100
AcDbEntity
  8
0
100
AcDbPolyline
 62
250
  6
CONTINUOUS
 90
4
 70
0
 10
69.5752298637
 20
83.1437513313
 10
69.5621521076
 20
83.153216165
 10
69.5489164444
 20
83.1639821714
 10
69.5355961072
 20
83.1759901183
  0
LWPOLYLINE
  5
2AC
100
AcDbEntity
  8
ASSI
100
AcDbPolyline
 62
250
  6
CONTINUOUS
 90
4
 70
0
 10
69.5752298637
 20
83.1437513313
 10
69.5621521076
 20
83.153216165
 10
69.5489164444
 20
83.1639821714
 10
69.5355961072
 20
83.1759901183
  0
LINE
  5
2AD
100
AcDbEntity
  8
0
100
AcDbLine
 62
7
  6
CONTINUOUS
 10
67.235546875
 20
134.4796875
 11
67.385546875
 21
134.6296875
  0
LINE
  5
2AE
100
AcDbEntity
  8
ASSI
100
AcDbLine
 62
7
  6
CONTINUOUS
 10
67.235546875
 20
134.4796875
 11
67.385546875
 21
134.6296875
  0
LINE
  5
2AF
100
AcDbEntity
  8
0
100
AcDbLine
 62
7
  6
CONTINUOUS
 10
67.735546875
 20
134.4796875
 11
67.885546875
 21
134.6296875
  0
LINE
  5
2B0
100
AcDbEntity
  8
ASSI
100
AcDbLine
 62
7
  6
CONTINUOUS
 10
67.735546875
 20
134.4796875
 11
67.885546875
 21
134.6296875
  0
LINE
  5
2B1
100
AcDbEntity
  8
0
100
AcDbLine
 62
7
  6
CONTINUOUS
 10
67.235546875
 20
84.3796875
 11
67.385546875
 21
84.2296875
  0
LINE
  5
2B2
100
AcDbEntity
  8
ASSI
100
AcDbLine
 62
7
  6
CONTINUOUS
 10
67.235546875
 20
84.3796875
 11
67.385546875
 21
84.2296875
  0
LINE
  5
2B3
100
AcDbEntity
  8
0
100
AcDbLine
 62
7
  6
CONTINUOUS
 10
67.735546875
 20
84.3796875
 11
67.885546875
 21
84.2296875
  0
LINE
  5
2B4
100
AcDbEntity
  8
ASSI
100
AcDbLine
 62
7
  6
CONTINUOUS
 10
67.735546875
 20
84.3796875
 11
67.885546875
 21
84.2296875
  0
LWPOLYLINE
  5
2B5
100
AcDbEntity
  8
0
100
AcDbPolyline
 62
250
  6
CONTINUOUS
 90
8
 70
0
 10
68.1065501871
 20
136.5056222564
 10
68.1150077189
 20
136.5161982216
 10
68.1231159975
 20
136.5255841643
 10
68.1306692273
 20
136.5334454384
 10
68.1373838037
 20
136.5394213958
 10
68.1431240761
 20
136.5433517356
 10
68.1478441816
 20
136.5451509165
 10
68.1514531087
 20
136.5447032961
  0
LWPOLYLINE
  5
2B6
100
AcDbEntity
  8
ASSI
100
AcDbPolyline
 62
250
  6
CONTINUOUS
 90
8
 70
0
 10
68.1065501871
 20
136.5056222564
 10
68.1150077189
 20
136.5161982216
 10
68.1231159975
 20
136.5255841643
 10
68.1306692273
 20
136.5334454384
 10
68.1373838037
 20
136.5394213958
 10
68.1431240761
 20
136.5433517356
 10
68.1478441816
 20
136.5451509165
 10
68.1514531087
 20
136.5447032961
  0
LWPOLYLINE
  5
2B7
100
AcDbEntity
  8
0
100
AcDbPolyline
 62
250
  6
CONTINUOUS
 90
9
 70
0
 10
68.104824888
 20
82.355940061
 10
68.1122216967
 20
82.3465321785
 10
68.119414137
 20
82.3379221357
 10
68.1263313349
 20
82.3302752199
 10
68.1328141294
 20
82.3238540341
 10
68.1386753997
 20
82.3189199843
 10
68.1437938237
 20
82.3156477169
 10
68.148088109
 20
82.3141798299
 10
68.1514531087
 20
82.3146717039
  0
LWPOLYLINE
  5
2B8
100
AcDbEntity
  8
ASSI
100
AcDbPolyline
 62
250
  6
CONTINUOUS
 90
9
 70
0
 10
68.104824888
 20
82.355940061
 10
68.1122216967
 20
82.3465321785
 10
68.119414137
 20
82.3379221357
 10
68.1263313349
 20
82.3302752199
 10
68.1328141294
 20
82.3238540341
 10
68.1386753997
 20
82.3189199843
 10
68.1437938237
 20
82.3156477169
 10
68.148088109
 20
82.3141798299
 10
68.1514531087
 20
82.3146717039
  0
LWPOLYLINE
  5
2B9
100
AcDbEntity
  8
0
100
AcDbPolyline
 62
7
  6
CONTINUOUS
 90
3
 70
0
 43
0.3500000006
 10
76.4419430237
 20
173.4654065552
 10
76.3705209045
 20
173.2511220703
 10
76.2276585388
 20
172.9653973389
  0
LWPOLYLINE
  5
2BA
100
AcDbEntity
  8
0
100
AcDbPolyline
 62
250
  6
CONTINUOUS
 90
12
 70
0
 10
68.0113194587
 20
136.3573667439
 10
68.0197777637
 20
136.3720468801
 10
68.0283199561
 20
136.3866218052
 10
68.0369141107
 20
136.4010252688
 10
68.0454633172
 20
136.4150908915
 10
68.0539955247
 20
136.4288505168
 10
68.062653327
 20
136.4424968216
 10
68.0713914814
 20
136.4559201154
 10
68.0801391891
 20
136.4689810886
 10
68.0889658971
 20
136.4817359646
 10
68.0978241364
 20
136.4940498274
 10
68.1065501871
 20
136.5056222564
  0
LWPOLYLINE
  5
2BB
100
AcDbEntity
  8
ASSI
100
AcDbPolyline
 62
250
  6
CONTINUOUS
 90
12
 70
0
 10
68.0113194587
 20
136.3573667439
 10
68.0197777637
 20
136.3720468801
 10
68.0283199561
 20
136.3866218052
 10
68.0369141107
 20
136.4010252688
 10
68.0454633172
 20
136.4150908915
 10
68.0539955247
 20
136.4288505168
 10
68.062653327
 20
136.4424968216
 10
68.0713914814
 20
136.4559201154
 10
68.0801391891
 20
136.4689810886
 10
68.0889658971
 20
136.4817359646
 10
68.0978241364
 20
136.4940498274
 10
68.1065501871
 20
136.5056222564
  0
LWPOLYLINE
  5
2BC
100
AcDbEntity
  8
0
100
AcDbPolyline
 62
250
  6
CONTINUOUS
 90
14
 70
0
 10
68.0113194587
 20
82.5020082561
 10
68.0179027929
 20
82.490544189
 10
68.0246145344
 20
82.4790115743
 10
68.0314386806
 20
82.4674489315
 10
68.0383200831
 20
82.4559569295
 10
68.0452768406
 20
82.4445181441
 10
68.0523963643
 20
82.4330133016
 10
68.0596641973
 20
82.4214907282
 10
68.0670320838
 20
82.410047844
 10
68.0745230456
 20
82.3986763116
 10
68.082091256
 20
82.3874782511
 10
68.0896813033
 20
82.3765704339
 10
68.0972826828
 20
82.3660088768
 10
68.104824888
 20
82.355940061
  0
LWPOLYLINE
  5
2BD
100
AcDbEntity
  8
ASSI
100
AcDbPolyline
 62
250
  6
CONTINUOUS
 90
14
 70
0
 10
68.0113194587
 20
82.5020082561
 10
68.0179027929
 20
82.490544189
 10
68.0246145344
 20
82.4790115743
 10
68.0314386806
 20
82.4674489315
 10
68.0383200831
 20
82.4559569295
 10
68.0452768406
 20
82.4445181441
 10
68.0523963643
 20
82.4330133016
 10
68.0596641973
 20
82.4214907282
 10
68.0670320838
 20
82.410047844
 10
68.0745230456
 20
82.3986763116
 10
68.082091256
 20
82.3874782511
 10
68.0896813033
 20
82.3765704339
 10
68.0972826828
 20
82.3660088768
 10
68.104824888
 20
82.355940061
  0
LWPOLYLINE
  5
2BE
100
AcDbEntity
  8
0
100
AcDbPolyline
 62
7
  6
CONTINUOUS
 90
3
 70
0
 43
0.3500000006
 10
75.0320042267
 20
165.4654041138
 10
74.9605775757
 20
165.2511196289
 10
74.8177197418
 20
164.9653948975
  0
LWPOLYLINE
  5
2BF
100
AcDbEntity
  8
0
100
AcDbPolyline
 62
7
  6
CONTINUOUS
 90
3
 70
0
 10
70.0728255689
 20
135.4333033753
 10
70.0659244099
 20
135.4202516047
 10
70.05768796
 20
135.4062492175
  0
LWPOLYLINE
  5
2C0
100
AcDbEntity
  8
ASSI
100
AcDbPolyline
 62
7
  6
CONTINUOUS
 90
3
 70
0
 10
70.0728255689
 20
135.4333033753
 10
70.0659244099
 20
135.4202516047
 10
70.05768796
 20
135.4062492175
  0
LWPOLYLINE
  5
2C1
100
AcDbEntity
  8
0
100
AcDbPolyline
 62
7
  6
CONTINUOUS
 90
7
 70
0
 10
70.05768796
 20
83.4531257825
 10
70.0659251445
 20
83.4391223043
 10
70.0728265238
 20
83.4260698789
 10
70.0783085212
 20
83.4139685065
 10
70.0822967393
 20
83.402818187
 10
70.0847270882
 20
83.3926189204
 10
70.085546875
 20
83.3833707068
  0
LWPOLYLINE
  5
2C2
100
AcDbEntity
  8
ASSI
100
AcDbPolyline
 62
7
  6
CONTINUOUS
 90
7
 70
0
 10
70.05768796
 20
83.4531257825
 10
70.0659251445
 20
83.4391223043
 10
70.0728265238
 20
83.4260698789
 10
70.0783085212
 20
83.4139685065
 10
70.0822967393
 20
83.402818187
 10
70.0847270882
 20
83.3926189204
 10
70.085546875
 20
83.3833707068
  0
LINE
  5
2C3
100
AcDbEntity
  8
0
100
AcDbLine
 62
250
  6
CONTINUOUS
 10
63.2263914163
 20
77.5465721027
 11
63.2179396542
 21
77.6050912271
  0
LWPOLYLINE
  5
2C4
100
AcDbEntity
  8
0
100
AcDbPolyline
 62
250
  6
CONTINUOUS
 90
33
 70
0
 10
63.2179396542
 20
77.6050912271
 10
63.210136533
 20
77.6617983642
 10
63.2065135013
 20
77.6894469148
 10
63.2030929975
 20
77.7166197529
 10
63.199879245
 20
77.7433462276
 10
63.1968744889
 20
77.7696635997
 10
63.1940809741
 20
77.79560913
 10
63.1915009456
 20
77.8212200793
 10
63.1885801989
 20
77.8528144404
 10
63.1860048398
 20
77.8839835012
 10
63.1837831759
 20
77.9147665241
 10
63.1819235145
 20
77.9452027717
 10
63.1804349797
 20
77.9753338309
 10
63.1793299608
 20
78.0052105862
 10
63.1786216636
 20
78.0348862463
 10
63.1783232938
 20
78.0644140201
 10
63.178449352
 20
78.093840006
 10
63.179019519
 20
78.1231818601
 10
63.1800547701
 20
78.1524501281
 10
63.181576081
 20
78.1816553558
 10
63.183604847
 20
78.2108050446
 10
63.186164143
 20
78.2398945192
 10
63.1892774637
 20
78.2689160603
 10
63.1929683039
 20
78.2978619482
 10
63.1972588935
 20
78.326723931
 10
63.2021664038
 20
78.3554916268
 10
63.2077067412
 20
78.384154121
 10
63.2138958123
 20
78.412700499
 10
63.2193323368
 20
78.4354446265
 10
63.2252473163
 20
78.4580896455
 10
63.2316938365
 20
78.480617747
 10
63.2387249827
 20
78.5030111223
 10
63.2463938403
 20
78.5252519624
  0
LINE
  5
2C5
100
AcDbEntity
  8
SMUSSO
100
AcDbLine
 62
7
  6
CONTINUOUS
 10
59.535546875
 20
65.4296875
 11
59.535546875
 21
153.4296875
  0
LINE
  5
2C6
100
AcDbEntity
  8
SMUSSO
100
AcDbLine
 62
7
  6
CONTINUOUS
 10
60.535546875
 20
64.4296875
 11
60.535546875
 21
154.4296875
  0
LINE
  5
2C7
100
AcDbEntity
  8
SMUSSO
100
AcDbLine
 62
7
  6
CONTINUOUS
 10
62.035546875
 20
154.4296875
 11
62.035546875
 21
64.4296875
  0
LINE
  5
2C8
100
AcDbEntity
  8
0
100
AcDbLine
 62
7
  6
CONTINUOUS
 10
65.5926124269
 20
65.966091139
 11
65.5865905203
 21
66.0892807933
  0
LINE
  5
2C9
100
AcDbEntity
  8
ASSI
100
AcDbLine
 62
7
  6
CONTINUOUS
 10
65.5926124269
 20
65.966091139
 11
65.5865905203
 21
66.0892807933
  0
LINE
  5
2CA
100
AcDbEntity
  8
0
100
AcDbLine
 62
7
  6
CONTINUOUS
 10
65.59771191
 20
65.8449254299
 11
65.5926124269
 21
65.966091139
  0
LINE
  5
2CB
100
AcDbEntity
  8
ASSI
100
AcDbLine
 62
7
  6
CONTINUOUS
 10
65.59771191
 20
65.8449254299
 11
65.5926124269
 21
65.966091139
  0
LINE
  5
2CC
100
AcDbEntity
  8
0
100
AcDbLine
 62
7
  6
CONTINUOUS
 10
65.6018426052
 20
65.7279703813
 11
65.59771191
 21
65.8449254299
  0
LINE
  5
2CD
100
AcDbEntity
  8
ASSI
100
AcDbLine
 62
7
  6
CONTINUOUS
 10
65.6018426052
 20
65.7279703813
 11
65.59771191
 21
65.8449254299
  0
LWPOLYLINE
  5
2CE
100
AcDbEntity
  8
0
100
AcDbPolyline
 62
250
  6
CONTINUOUS
 90
56
 70
0
 10
64.0493971392
 20
78.1550361559
 10
64.0490299799
 20
78.1666183213
 10
64.0484539552
 20
78.1779694959
 10
64.0476735391
 20
78.1890842675
 10
64.0466932052
 20
78.199957224
 10
64.0455174275
 20
78.2105829534
 10
64.0441506795
 20
78.2209560436
 10
64.0425974352
 20
78.2310710824
 10
64.0408604609
 20
78.2409262962
 10
64.0389356938
 20
78.2505344639
 10
64.0368173634
 20
78.2599120032
 10
64.0344996995
 20
78.2690753313
 10
64.0319769318
 20
78.2780408657
 10
64.02924329
 20
78.2868250238
 10
64.0262930037
 20
78.295444223
 10
64.0235293091
 20
78.3028603618
 10
64.0205918119
 20
78.3101542779
 10
64.0174769957
 20
78.3173174757
 10
64.0141813444
 20
78.3243414594
 10
64.0106991794
 20
78.3312206167
 10
64.0070161736
 20
78.3379608671
 10
64.0031158378
 20
78.3445710133
 10
63.9989816829
 20
78.3510598581
 10
63.9945999653
 20
78.3574315312
 10
63.989967925
 20
78.3636714695
 10
63.9850855474
 20
78.369760437
 10
63.9799528182
 20
78.3756791976
 10
63.9745710011
 20
78.3814121238
 10
63.9689464721
 20
78.3869580225
 10
63.963086885
 20
78.3923193091
 10
63.956999894
 20
78.3974983993
 10
63.9506924765
 20
78.4024972437
 10
63.9441689039
 20
78.4073159346
 10
63.937432771
 20
78.4119540995
 10
63.9304876728
 20
78.416411366
 10
63.9233380608
 20
78.4206870164
 10
63.9159918129
 20
78.4247789522
 10
63.9084576637
 20
78.4286847295
 10
63.9007443479
 20
78.4324019048
 10
63.8928591677
 20
78.4359280161
 10
63.8848036971
 20
78.4392605292
 10
63.8765780774
 20
78.4423968918
 10
63.8681824503
 20
78.4453345514
 10
63.8596169573
 20
78.4480709558
 10
63.85088174
 20
78.4506035526
 10
63.8419769399
 20
78.4529297895
 10
63.8329026985
 20
78.455047114
 10
63.8246945575
 20
78.4567502738
 10
63.8163526513
 20
78.4582757977
 10
63.8078769821
 20
78.459613133
 10
63.7992675524
 20
78.460751727
 10
63.7905243646
 20
78.461681027
 10
63.7816474211
 20
78.4623904803
 10
63.7726367241
 20
78.4628695342
 10
63.7634922761
 20
78.4631076359
 10
63.7542140796
 20
78.4630942328
  0
LINE
  5
2CF
100
AcDbEntity
  8
SMUSSO
100
AcDbLine
 62
7
  6
CONTINUOUS
 10
62.535546875
 20
153.9296875
 11
62.535546875
 21
64.9296875
  0
LINE
  5
2D0
100
AcDbEntity
  8
0
100
AcDbLine
 62
7
  6
CONTINUOUS
 10
62.685546875
 20
65.0790678117
 11
62.685546875
 21
153.7803071883
  0
LINE
  5
2D1
100
AcDbEntity
  8
ASSI
100
AcDbLine
 62
7
  6
CONTINUOUS
 10
62.685546875
 20
65.0790678117
 11
62.685546875
 21
153.7803071883
  0
LINE
  5
2D2
100
AcDbEntity
  8
0
100
AcDbLine
 62
250
  6
CONTINUOUS
 10
63.204080875
 20
73.2685465
 11
63.204080875
 21
73.6651185
  0
LINE
  5
2D3
100
AcDbEntity
  8
0
100
AcDbLine
 62
250
  6
CONTINUOUS
 10
63.204194875
 20
76.8471995
 11
63.204194875
 21
76.4635635
  0
LINE
  5
2D4
100
AcDbEntity
  8
0
100
AcDbLine
 62
250
  6
CONTINUOUS
 10
63.204194875
 20
75.6277215
 11
63.204194875
 21
75.2353515
  0
LINE
  5
2D5
100
AcDbEntity
  8
0
100
AcDbLine
 62
250
  6
CONTINUOUS
 10
63.204194875
 20
74.4463955
 11
63.204194875
 21
74.0501515
  0
LINE
  5
2D6
100
AcDbEntity
  8
0
100
AcDbLine
 62
250
  6
CONTINUOUS
 10
63.204194875
 20
73.1213775
 11
63.204194875
 21
72.7250765
  0
LINE
  5
2D7
100
AcDbEntity
  8
0
100
AcDbLine
 62
250
  6
CONTINUOUS
 10
63.204194875
 20
71.9897235
 11
63.204194875
 21
71.5589235
  0
LINE
  5
2D8
100
AcDbEntity
  8
0
100
AcDbLine
 62
250
  6
CONTINUOUS
 10
64.0493971392
 20
77.9283990031
 11
64.0493971392
 21
78.1550361559
  0
LINE
  5
2D9
100
AcDbEntity
  8
0
100
AcDbLine
 62
250
  6
CONTINUOUS
 10
64.3605459585
 20
78.1541813515
 11
64.3605459585
 21
77.9415487449
  0
LINE
  5
2DA
100
AcDbEntity
  8
0
100
AcDbLine
 62
250
  6
CONTINUOUS
 10
64.431280875
 20
76.8301605
 11
64.431280875
 21
76.4504705
  0
LINE
  5
2DB
100
AcDbEntity
  8
0
100
AcDbLine
 62
250
  6
CONTINUOUS
 10
64.724763875
 20
76.3693495
 11
64.724763875
 21
76.9094155
  0
LINE
  5
2DC
100
AcDbEntity
  8
0
100
AcDbLine
 62
250
  6
CONTINUOUS
 10
65.104040621
 20
78.9303010504
 11
65.104040621
 21
78.5488445653
  0
LINE
  5
2DD
100
AcDbEntity
  8
0
100
AcDbLine
 62
250
  6
CONTINUOUS
 10
65.104040621
 20
77.9415487449
 11
65.104040621
 21
77.5465721027
  0
LINE
  5
2DE
100
AcDbEntity
  8
0
100
AcDbLine
 62
250
  6
CONTINUOUS
 10
65.104040875
 20
73.6651185
 11
65.104040875
 21
73.2685465
  0
LINE
  5
2DF
100
AcDbEntity
  8
0
100
AcDbLine
 62
250
  6
CONTINUOUS
 10
65.104040875
 20
72.1612115
 11
65.104040875
 21
72.5106915
  0
LINE
  5
2E0
100
AcDbEntity
  8
0
100
AcDbLine
 62
250
  6
CONTINUOUS
 10
65.104040875
 20
73.8786065
 11
65.104040875
 21
74.2579965
  0
LINE
  5
2E1
100
AcDbEntity
  8
0
100
AcDbLine
 62
250
  6
CONTINUOUS
 10
65.104040875
 20
74.8088045
 11
65.104040875
 21
74.8644235
  0
LINE
  5
2E2
100
AcDbEntity
  8
0
100
AcDbLine
 62
250
  6
CONTINUOUS
 10
65.104040875
 20
75.4174255
 11
65.104040875
 21
75.8053785
  0
LINE
  5
2E3
100
AcDbEntity
  8
0
100
AcDbLine
 62
250
  6
CONTINUOUS
 10
65.104040875
 20
75.8676505
 11
65.104040875
 21
76.2599205
  0
LINE
  5
2E4
100
AcDbEntity
  8
0
100
AcDbLine
 62
250
  6
CONTINUOUS
 10
65.104040875
 20
77.0121485
 11
65.104040875
 21
77.4301195
  0
LWPOLYLINE
  5
2E5
100
AcDbEntity
  8
0
100
AcDbPolyline
 62
7
  6
CONTINUOUS
 90
17
 70
0
 10
65.6048288585
 20
153.2410893988
 10
65.6058860304
 20
153.2931493711
 10
65.6066467387
 20
153.343298671
 10
65.6071119092
 20
153.3911918833
 10
65.6072696162
 20
153.4365261689
 10
65.6071119091
 20
153.479126799
 10
65.6066467385
 20
153.5188293616
 10
65.6058860303
 20
153.5553998071
 10
65.6048288583
 20
153.5886374895
 10
65.6034761487
 20
153.6185362515
 10
65.6018426053
 20
153.6451406937
 10
65.5999176745
 20
153.6683901686
 10
65.59771191
 20
153.6880642135
 10
65.5952716759
 20
153.7039838503
 10
65.5926124269
 20
153.7160898451
 10
65.5897187084
 20
153.7243835699
 10
65.5865905203
 20
153.7288525838
  0
LWPOLYLINE
  5
2E6
100
AcDbEntity
  8
ASSI
100
AcDbPolyline
 62
7
  6
CONTINUOUS
 90
17
 70
0
 10
65.6048288585
 20
153.2410893988
 10
65.6058860304
 20
153.2931493711
 10
65.6066467387
 20
153.343298671
 10
65.6071119092
 20
153.3911918833
 10
65.6072696162
 20
153.4365261689
 10
65.6071119091
 20
153.479126799
 10
65.6066467385
 20
153.5188293616
 10
65.6058860303
 20
153.5553998071
 10
65.6048288583
 20
153.5886374895
 10
65.6034761487
 20
153.6185362515
 10
65.6018426053
 20
153.6451406937
 10
65.5999176745
 20
153.6683901686
 10
65.59771191
 20
153.6880642135
 10
65.5952716759
 20
153.7039838503
 10
65.5926124269
 20
153.7160898451
 10
65.5897187084
 20
153.7243835699
 10
65.5865905203
 20
153.7288525838
  0
LINE
  5
2E7
100
AcDbEntity
  8
0
100
AcDbLine
 62
7
  6
CONTINUOUS
 10
65.6018426055
 20
153.1314046283
 11
65.6048288585
 21
153.2410893988
  0
LINE
  5
2E8
100
AcDbEntity
  8
ASSI
100
AcDbLine
 62
7
  6
CONTINUOUS
 10
65.6018426055
 20
153.1314046283
 11
65.6048288585
 21
153.2410893988
  0
LINE
  5
2E9
100
AcDbEntity
  8
0
100
AcDbLine
 62
7
  6
CONTINUOUS
 10
65.5977119102
 20
153.0144495749
 11
65.6018426055
 21
153.1314046283
  0
LINE
  5
2EA
100
AcDbEntity
  8
ASSI
100
AcDbLine
 62
7
  6
CONTINUOUS
 10
65.5977119102
 20
153.0144495749
 11
65.6018426055
 21
153.1314046283
  0
LINE
  5
2EB
100
AcDbEntity
  8
0
100
AcDbLine
 62
7
  6
CONTINUOUS
 10
65.592612427
 20
152.8932838622
 11
65.5977119102
 21
153.0144495749
  0
LINE
  5
2EC
100
AcDbEntity
  8
ASSI
100
AcDbLine
 62
7
  6
CONTINUOUS
 10
65.592612427
 20
152.8932838622
 11
65.5977119102
 21
153.0144495749
  0
LINE
  5
2ED
100
AcDbEntity
  8
0
100
AcDbLine
 62
7
  6
CONTINUOUS
 10
65.5865905203
 20
152.7700942067
 11
65.592612427
 21
152.8932838622
  0
LINE
  5
2EE
100
AcDbEntity
  8
ASSI
100
AcDbLine
 62
7
  6
CONTINUOUS
 10
65.5865905203
 20
152.7700942067
 11
65.592612427
 21
152.8932838622
  0
LINE
  5
2EF
100
AcDbEntity
  8
0
100
AcDbLine
 62
7
  6
CONTINUOUS
 10
65.585546875
 20
152.7296875
 11
65.585546875
 21
66.1296875
  0
LINE
  5
2F0
100
AcDbEntity
  8
ASSI
100
AcDbLine
 62
7
  6
CONTINUOUS
 10
65.585546875
 20
152.7296875
 11
65.585546875
 21
66.1296875
  0
LINE
  5
2F1
100
AcDbEntity
  8
0
100
AcDbLine
 62
7
  6
CONTINUOUS
 10
67.085546875
 20
152.5296875
 11
67.085546875
 21
66.3296875
  0
LINE
  5
2F2
100
AcDbEntity
  8
ASSI
100
AcDbLine
 62
7
  6
CONTINUOUS
 10
67.085546875
 20
152.5296875
 11
67.085546875
 21
66.3296875
  0
LINE
  5
2F3
100
AcDbEntity
  8
0
100
AcDbLine
 62
250
  6
CONTINUOUS
 10
68.0113840129
 20
82.2795580613
 11
68.0113194587
 21
82.5020082561
  0
LINE
  5
2F4
100
AcDbEntity
  8
ASSI
100
AcDbLine
 62
250
  6
CONTINUOUS
 10
68.0113840129
 20
82.2795580613
 11
68.0113194587
 21
82.5020082561
  0
LINE
  5
2F5
100
AcDbEntity
  8
0
100
AcDbLine
 62
250
  6
CONTINUOUS
 10
68.0113194587
 20
136.3573667439
 11
68.0113840106
 21
136.5786732028
  0
LINE
  5
2F6
100
AcDbEntity
  8
ASSI
100
AcDbLine
 62
250
  6
CONTINUOUS
 10
68.0113194587
 20
136.3573667439
 11
68.0113840106
 21
136.5786732028
  0
LWPOLYLINE
  5
2F7
100
AcDbEntity
  8
0
100
AcDbPolyline
 62
7
  6
CONTINUOUS
 90
5
 70
0
 10
70.085546875
 20
135.4760042932
 10
70.0847269344
 20
135.4667549885
 10
70.0822962507
 20
135.4565550673
 10
70.0783077051
 20
135.4454045295
 10
70.0728255689
 20
135.4333033753
  0
LWPOLYLINE
  5
2F8
100
AcDbEntity
  8
ASSI
100
AcDbPolyline
 62
7
  6
CONTINUOUS
 90
5
 70
0
 10
70.085546875
 20
135.4760042932
 10
70.0847269344
 20
135.4667549885
 10
70.0822962507
 20
135.4565550673
 10
70.0783077051
 20
135.4454045295
 10
70.0728255689
 20
135.4333033753
  0
LWPOLYLINE
  5
2F9
100
AcDbEntity
  8
0
100
AcDbPolyline
 62
250
  6
CONTINUOUS
 90
24
 70
0
 10
63.5166672018
 20
78.2390642527
 10
63.5150802946
 20
78.2244611462
 10
63.5137068759
 20
78.2098419457
 10
63.5125464549
 20
78.1952085243
 10
63.5115985412
 20
78.1805627552
 10
63.5108626441
 20
78.1659065118
 10
63.510338273
 20
78.1512416671
 10
63.5100249373
 20
78.1365700944
 10
63.5099235546
 20
78.1237276612
 10
63.5099833822
 20
78.1108782021
 10
63.5102044318
 20
78.098018408
 10
63.5105867153
 20
78.0851449699
 10
63.5111309023
 20
78.0722540456
 10
63.5118402929
 20
78.0593396597
 10
63.5127188448
 20
78.0463953038
 10
63.5137705159
 20
78.0334144694
 10
63.5149973879
 20
78.0203927777
 10
63.5163940385
 20
78.0073343692
 10
63.5179531693
 20
77.9942455142
 10
63.519667482
 20
77.9811324829
 10
63.5215284574
 20
77.9679989675
 10
63.523522693
 20
77.9548383479
 10
63.5256355656
 20
77.9416414259
 10
63.5278524518
 20
77.9283990031
  0
LWPOLYLINE
  5
2FA
100
AcDbEntity
  8
0
100
AcDbPolyline
 62
250
  6
CONTINUOUS
 90
3
 70
0
 10
69.5356951277
 20
135.7666927859
 10
69.5356524736
 20
135.7701093694
 10
69.5355961072
 20
135.7712513603
  0
LWPOLYLINE
  5
2FB
100
AcDbEntity
  8
ASSI
100
AcDbPolyline
 62
250
  6
CONTINUOUS
 90
3
 70
0
 10
69.5356951277
 20
135.7666927859
 10
69.5356524736
 20
135.7701093694
 10
69.5355961072
 20
135.7712513603
  0
LINE
  5
2FC
100
AcDbEntity
  8
0
100
AcDbLine
 62
250
  6
CONTINUOUS
 10
69.5357381062
 20
135.7531565471
 11
69.5356951277
 21
135.7666927859
  0
LINE
  5
2FD
100
AcDbEntity
  8
ASSI
100
AcDbLine
 62
250
  6
CONTINUOUS
 10
69.5357381062
 20
135.7531565471
 11
69.5356951277
 21
135.7666927859
  0
LINE
  5
2FE
100
AcDbEntity
  8
0
100
AcDbLine
 62
250
  6
CONTINUOUS
 10
69.5357381062
 20
83.1062184529
 11
69.5355961072
 21
83.1759901183
  0
LINE
  5
2FF
100
AcDbEntity
  8
ASSI
100
AcDbLine
 62
250
  6
CONTINUOUS
 10
69.5357381062
 20
83.1062184529
 11
69.5355961072
 21
83.1759901183
  0
LINE
  5
300
100
AcDbEntity
  8
0
100
AcDbLine
 62
250
  6
CONTINUOUS
 10
69.8960140662
 20
135.3096741677
 11
69.8960140662
 21
134.8107342191
  0
LINE
  5
301
100
AcDbEntity
  8
ASSI
100
AcDbLine
 62
250
  6
CONTINUOUS
 10
69.8960140662
 20
135.3096741677
 11
69.8960140662
 21
134.8107342191
  0
LINE
  5
302
100
AcDbEntity
  8
0
100
AcDbLine
 62
250
  6
CONTINUOUS
 10
69.8960140662
 20
84.0486407809
 11
69.8960140662
 21
83.5497008323
  0
LINE
  5
303
100
AcDbEntity
  8
ASSI
100
AcDbLine
 62
250
  6
CONTINUOUS
 10
69.8960140662
 20
84.0486407809
 11
69.8960140662
 21
83.5497008323
  0
LINE
  5
304
100
AcDbEntity
  8
0
100
AcDbLine
 62
7
  6
CONTINUOUS
 10
70.085546875
 20
135.5180518404
 11
70.085546875
 21
134.8296875
  0
LINE
  5
305
100
AcDbEntity
  8
ASSI
100
AcDbLine
 62
7
  6
CONTINUOUS
 10
70.085546875
 20
135.5180518404
 11
70.085546875
 21
134.8296875
  0
LINE
  5
306
100
AcDbEntity
  8
0
100
AcDbLine
 62
7
  6
CONTINUOUS
 10
70.085546875
 20
84.0296875
 11
70.085546875
 21
83.3413231596
  0
LINE
  5
307
100
AcDbEntity
  8
ASSI
100
AcDbLine
 62
7
  6
CONTINUOUS
 10
70.085546875
 20
84.0296875
 11
70.085546875
 21
83.3413231596
  0
LINE
  5
308
100
AcDbEntity
  8
0
100
AcDbLine
 62
250
  6
CONTINUOUS
 10
69.5355961072
 20
135.6833848817
 11
69.5357381062
 21
135.7531565471
  0
LINE
  5
309
100
AcDbEntity
  8
ASSI
100
AcDbLine
 62
250
  6
CONTINUOUS
 10
69.5355961072
 20
135.6833848817
 11
69.5357381062
 21
135.7531565471
  0
LWPOLYLINE
  5
30A
100
AcDbEntity
  8
0
100
AcDbPolyline
 62
250
  6
CONTINUOUS
 90
4
 70
0
 10
69.5355961072
 20
83.0881236397
 10
69.5356524736
 20
83.0892656306
 10
69.5356951277
 20
83.0926822141
 10
69.5357381062
 20
83.1062184529
  0
LWPOLYLINE
  5
30B
100
AcDbEntity
  8
ASSI
100
AcDbPolyline
 62
250
  6
CONTINUOUS
 90
4
 70
0
 10
69.5355961072
 20
83.0881236397
 10
69.5356524736
 20
83.0892656306
 10
69.5356951277
 20
83.0926822141
 10
69.5357381062
 20
83.1062184529
  0
LWPOLYLINE
  5
30C
100
AcDbEntity
  8
0
100
AcDbPolyline
 62
7
  6
CONTINUOUS
 90
4
 70
0
 43
0.3500000006
 10
71.9605766602
 20
167.5368268433
 10
71.9605766602
 20
168.1796802979
 10
73.4605771179
 20
168.1796802979
 10
72.6034346466
 20
165.1796793823
  0
LWPOLYLINE
  5
30D
100
AcDbEntity
  8
0
100
AcDbPolyline
 62
7
  6
CONTINUOUS
 90
13
 70
0
 43
0.3500000006
 10
73.3705154572
 20
174.0368378906
 10
73.3705154572
 20
175.3225447998
 10
73.5848044739
 20
175.7511137695
 10
74.0133734436
 20
176.1796827393
 10
74.2276579285
 20
176.1796827393
 10
74.6562314301
 20
175.7511137695
 10
74.8705159149
 20
175.3225447998
 10
74.8705159149
 20
174.0368378906
 10
74.6562314301
 20
173.6082507935
 10
74.2276579285
 20
173.1796818237
 10
74.0133734436
 20
173.1796818237
 10
73.5848044739
 20
173.6082507935
 10
73.3705154572
 20
174.0368378906
  0
LWPOLYLINE
  5
30E
100
AcDbEntity
  8
0
100
AcDbPolyline
 62
250
  6
CONTINUOUS
 90
84
 70
0
 10
63.2463938403
 20
78.5252519625
 10
63.2509859073
 20
78.5371914546
 10
63.2561748775
 20
78.5491957561
 10
63.2619748892
 20
78.5612881874
 10
63.2684000805
 20
78.5734920688
 10
63.2754645897
 20
78.5858307205
 10
63.2831825552
 20
78.5983274628
 10
63.2915620298
 20
78.6109888734
 10
63.3005867262
 20
78.6237545586
 10
63.3102342717
 20
78.6365473822
 10
63.3204822934
 20
78.649290208
 10
63.3313084189
 20
78.6619058996
 10
63.3426902753
 20
78.6743173207
 10
63.3546058369
 20
78.6864546725
 10
63.3670344657
 20
78.6982775057
 10
63.3799558704
 20
78.7097527083
 10
63.39334976
 20
78.7208471684
 10
63.4071958434
 20
78.731527774
 10
63.4214738292
 20
78.7417614133
 10
63.4361558605
 20
78.7515162041
 10
63.4511838155
 20
78.7607651837
 10
63.4664920068
 20
78.7694826193
 10
63.4820147468
 20
78.7776427781
 10
63.4976863479
 20
78.7852199273
 10
63.5134411225
 20
78.7921883339
 10
63.5292204379
 20
78.798530805
 10
63.5449938812
 20
78.8042643066
 10
63.5607380941
 20
78.8094143445
 10
63.5764297185
 20
78.8140064245
 10
63.5920453964
 20
78.8180660524
 10
63.6075617695
 20
78.8216187341
 10
63.6260163998
 20
78.8252489321
 10
63.6442477506
 20
78.828231351
 10
63.6622091773
 20
78.8306114859
 10
63.6798540348
 20
78.832434832
 10
63.6971356783
 20
78.8337468842
 10
63.7140164726
 20
78.8345894519
 10
63.7304948208
 20
78.8349896012
 10
63.7465781356
 20
78.8349707123
 10
63.7622738298
 20
78.8345561655
 10
63.7775893161
 20
78.833769341
 10
63.79620936
 20
78.8322960674
 10
63.8142557524
 20
78.8303122306
 10
63.8317373341
 20
78.8278524194
 10
63.8486629462
 20
78.8249512228
 10
63.8650437468
 20
78.8216415625
 10
63.8809001637
 20
78.8179496915
 10
63.896254942
 20
78.8139001957
 10
63.9111308265
 20
78.809517661
 10
63.9255458048
 20
78.8048277144
 10
63.9394988339
 20
78.7998601473
 10
63.9529841132
 20
78.7946457925
 10
63.965995842
 20
78.7892154826
 10
63.9785318553
 20
78.7835975576
 10
63.9906045309
 20
78.7778103873
 10
64.0022298819
 20
78.7718698488
 10
64.0134239216
 20
78.7657918193
 10
64.0277015546
 20
78.7575007976
 10
64.0412518271
 20
78.7490279118
 10
64.0540856863
 20
78.7404075002
 10
64.0662180231
 20
78.7316720371
 10
64.0776795047
 20
78.7228465396
 10
64.0885047418
 20
78.7139541608
 10
64.0987299287
 20
78.7050215484
 10
64.1083975924
 20
78.6960893289
 10
64.1175518429
 20
78.6872016234
 10
64.1262354069
 20
78.6783990059
 10
64.1344854767
 20
78.6697078615
 10
64.1423378612
 20
78.6611510281
 10
64.1479880308
 20
78.6548337062
 10
64.1534516781
 20
78.648604954
 10
64.1587432828
 20
78.6424672414
 10
64.1638671092
 20
78.6364322239
 10
64.1688282037
 20
78.630509917
 10
64.1736449544
 20
78.6246945901
 10
64.182869316
 20
78.6132450996
 10
64.1872202312
 20
78.6074714246
 10
64.1912908625
 20
78.6016516461
 10
64.1949832382
 20
78.5958090015
 10
64.1982339226
 20
78.589949358
 10
64.2009921979
 20
78.5840697076
 10
64.2032236808
 20
78.5781489118
 10
64.2048978213
 20
78.5721686629
 10
64.2059830675
 20
78.5661401086
  0
LWPOLYLINE
  5
30F
100
AcDbEntity
  8
0
100
AcDbPolyline
 62
250
  6
CONTINUOUS
 90
41
 70
0
 10
64.2172094992
 20
78.5661401086
 10
64.2203341469
 20
78.5735687929
 10
64.2237186309
 20
78.5808429371
 10
64.2273601971
 20
78.587968653
 10
64.2312560917
 20
78.5949520518
 10
64.2354035605
 20
78.6017992452
 10
64.2397998497
 20
78.6085163446
 10
64.2444398032
 20
78.6151071027
 10
64.2493086568
 20
78.6215658369
 10
64.2543892441
 20
78.6278845055
 10
64.259664399
 20
78.6340550672
 10
64.2651169551
 20
78.6400694803
 10
64.2707297461
 20
78.6459197034
 10
64.2776552589
 20
78.6527160041
 10
64.2847740682
 20
78.6592749137
 10
64.2920734517
 20
78.6656070544
 10
64.2995406872
 20
78.6717230485
 10
64.3071630522
 20
78.6776335184
 10
64.3149269856
 20
78.6833477512
 10
64.3228155704
 20
78.6888696941
 10
64.3308110507
 20
78.694201959
 10
64.3388956706
 20
78.6993471579
 10
64.3470516744
 20
78.7043079029
 10
64.3573284883
 20
78.7102570278
 10
64.3677052702
 20
78.7159487427
 10
64.3781981942
 20
78.7214097655
 10
64.3888234347
 20
78.7266668144
 10
64.3995966448
 20
78.7317441521
 10
64.4105313924
 20
78.7366562204
 10
64.4216407247
 20
78.7414150061
 10
64.4329376883
 20
78.7460324958
 10
64.4444364584
 20
78.7505197761
 10
64.4561557223
 20
78.7548843326
 10
64.4681152955
 20
78.7591327508
 10
64.4803349934
 20
78.7632716162
 10
64.4903118966
 20
78.7665096014
 10
64.5004813409
 20
78.7696931327
 10
64.5108567056
 20
78.7728336551
 10
64.5214513702
 20
78.7759426139
 10
64.532278714
 20
78.7790314542
 10
64.5433481145
 20
78.7821129466
  0
LINE
  5
310
100
AcDbEntity
  8
0
100
AcDbLine
 62
7
  6
CONTINUOUS
 10
67.385546875
 20
84.2296875
 11
67.535546875
 21
84.3796875
  0
LINE
  5
311
100
AcDbEntity
  8
ASSI
100
AcDbLine
 62
7
  6
CONTINUOUS
 10
67.385546875
 20
84.2296875
 11
67.535546875
 21
84.3796875
  0
LINE
  5
312
100
AcDbEntity
  8
0
100
AcDbLine
 62
7
  6
CONTINUOUS
 10
67.385546875
 20
134.6296875
 11
67.535546875
 21
134.4796875
  0
LINE
  5
313
100
AcDbEntity
  8
ASSI
100
AcDbLine
 62
7
  6
CONTINUOUS
 10
67.385546875
 20
134.6296875
 11
67.535546875
 21
134.4796875
  0
LINE
  5
314
100
AcDbEntity
  8
RACCORDO
100
AcDbLine
 62
250
  6
CONTINUOUS
 10
62.535546875
 20
132.4296875
 11
62.685546875
 21
132.4296875
  0
LINE
  5
315
100
AcDbEntity
  8
RACCORDO
100
AcDbLine
 62
7
  6
CONTINUOUS
 10
62.535546875
 20
133.4296875
 11
62.685546875
 21
133.4296875
  0
LWPOLYLINE
  5
316
100
AcDbEntity
  8
0
100
AcDbPolyline
 62
7
  6
CONTINUOUS
 90
18
 70
0
 10
65.5865905203
 20
65.1305224162
 10
65.5897187084
 20
65.1349914301
 10
65.592612427
 20
65.143285155
 10
65.595271676
 20
65.1553911501
 10
65.5977119101
 20
65.1713107873
 10
65.5999176747
 20
65.190984833
 10
65.6018426054
 20
65.2142343087
 10
65.6034761489
 20
65.2408387517
 10
65.6048288585
 20
65.2707375145
 10
65.6058860304
 20
65.3039751976
 10
65.6066467386
 20
65.3405456433
 10
65.6071119092
 20
65.3802482058
 10
65.6072696162
 20
65.4228488363
 10
65.6071119091
 20
65.4681831238
 10
65.6066467385
 20
65.5160763388
 10
65.6058860302
 20
65.5662256406
 10
65.6048288583
 20
65.6182856131
 10
65.6018426052
 20
65.7279703813
  0
LWPOLYLINE
  5
317
100
AcDbEntity
  8
ASSI
100
AcDbPolyline
 62
7
  6
CONTINUOUS
 90
18
 70
0
 10
65.5865905203
 20
65.1305224162
 10
65.5897187084
 20
65.1349914301
 10
65.592612427
 20
65.143285155
 10
65.595271676
 20
65.1553911501
 10
65.5977119101
 20
65.1713107873
 10
65.5999176747
 20
65.190984833
 10
65.6018426054
 20
65.2142343087
 10
65.6034761489
 20
65.2408387517
 10
65.6048288585
 20
65.2707375145
 10
65.6058860304
 20
65.3039751976
 10
65.6066467386
 20
65.3405456433
 10
65.6071119092
 20
65.3802482058
 10
65.6072696162
 20
65.4228488363
 10
65.6071119091
 20
65.4681831238
 10
65.6066467385
 20
65.5160763388
 10
65.6058860302
 20
65.5662256406
 10
65.6048288583
 20
65.6182856131
 10
65.6018426052
 20
65.7279703813
  0
LINE
  5
318
100
AcDbEntity
  8
0
100
AcDbLine
 62
250
  6
CONTINUOUS
 10
68.0113194587
 20
82.5020082561
 11
69.1108383186
 21
83.0856524711
  0
LINE
  5
319
100
AcDbEntity
  8
ASSI
100
AcDbLine
 62
250
  6
CONTINUOUS
 10
68.0113194587
 20
82.5020082561
 11
69.1108383186
 21
83.0856524711
  0
LINE
  5
31A
100
AcDbEntity
  8
0
100
AcDbLine
 62
250
  6
CONTINUOUS
 10
69.5355961072
 20
83.1759901183
 11
70.05768796
 21
83.4531257825
  0
LINE
  5
31B
100
AcDbEntity
  8
ASSI
100
AcDbLine
 62
250
  6
CONTINUOUS
 10
69.5355961072
 20
83.1759901183
 11
70.05768796
 21
83.4531257825
  0
LINE
  5
31C
100
AcDbEntity
  8
0
100
AcDbLine
 62
7
  6
CONTINUOUS
 10
68.1505588367
 20
82.3141970084
 11
70.085546875
 21
83.3413231596
  0
LINE
  5
31D
100
AcDbEntity
  8
ASSI
100
AcDbLine
 62
7
  6
CONTINUOUS
 10
68.1505588367
 20
82.3141970084
 11
70.085546875
 21
83.3413231596
  0
LWPOLYLINE
  5
31E
100
AcDbEntity
  8
0
100
AcDbPolyline
 62
250
  6
CONTINUOUS
 90
6
 70
0
 10
69.6745080363
 20
83.1231364153
 10
69.6658536266
 20
83.1194842971
 10
69.65647273
 20
83.1173227695
 10
69.6464185211
 20
83.1166612427
 10
69.6357511675
 20
83.117500306
 10
69.6245275742
 20
83.1198323129
  0
LWPOLYLINE
  5
31F
100
AcDbEntity
  8
ASSI
100
AcDbPolyline
 62
250
  6
CONTINUOUS
 90
6
 70
0
 10
69.6745080363
 20
83.1231364153
 10
69.6658536266
 20
83.1194842971
 10
69.65647273
 20
83.1173227695
 10
69.6464185211
 20
83.1166612427
 10
69.6357511675
 20
83.117500306
 10
69.6245275742
 20
83.1198323129
  0
LINE
  5
320
100
AcDbEntity
  8
0
100
AcDbLine
 62
7
  6
CONTINUOUS
 10
68.1351749729
 20
134.6346503098
 11
70.085546875
 21
134.8296875
  0
LINE
  5
321
100
AcDbEntity
  8
ASSI
100
AcDbLine
 62
7
  6
CONTINUOUS
 10
68.1351749729
 20
134.6346503098
 11
70.085546875
 21
134.8296875
  0
LINE
  5
322
100
AcDbEntity
  8
0
100
AcDbLine
 62
7
  6
CONTINUOUS
 10
67.085546875
 20
135.1855073745
 11
69.8960140662
 21
135.3096741677
  0
LINE
  5
323
100
AcDbEntity
  8
ASSI
100
AcDbLine
 62
7
  6
CONTINUOUS
 10
67.085546875
 20
135.1855073745
 11
69.8960140662
 21
135.3096741677
  0
LINE
  5
324
100
AcDbEntity
  8
0
100
AcDbLine
 62
7
  6
CONTINUOUS
 10
67.085546875
 20
134.4796875
 11
67.235546875
 21
134.4796875
  0
LINE
  5
325
100
AcDbEntity
  8
ASSI
100
AcDbLine
 62
7
  6
CONTINUOUS
 10
67.085546875
 20
134.4796875
 11
67.235546875
 21
134.4796875
  0
LINE
  5
326
100
AcDbEntity
  8
0
100
AcDbLine
 62
7
  6
CONTINUOUS
 10
67.535546875
 20
134.4796875
 11
67.735546875
 21
134.4796875
  0
LINE
  5
327
100
AcDbEntity
  8
ASSI
100
AcDbLine
 62
7
  6
CONTINUOUS
 10
67.535546875
 20
134.4796875
 11
67.735546875
 21
134.4796875
  0
LINE
  5
328
100
AcDbEntity
  8
0
100
AcDbLine
 62
7
  6
CONTINUOUS
 10
67.085546875
 20
134.6296875
 11
68.0356712539
 21
134.6296875
  0
LINE
  5
329
100
AcDbEntity
  8
ASSI
100
AcDbLine
 62
7
  6
CONTINUOUS
 10
67.085546875
 20
134.6296875
 11
68.0356712539
 21
134.6296875
  0
LINE
  5
32A
100
AcDbEntity
  8
RACCORDO
100
AcDbLine
 62
250
  6
CONTINUOUS
 10
62.685546875
 20
134.9296875
 11
62.535546875
 21
134.9296875
  0
LINE
  5
32B
100
AcDbEntity
  8
RACCORDO
100
AcDbLine
 62
7
  6
CONTINUOUS
 10
62.535546875
 20
135.9296875
 11
62.685546875
 21
135.9296875
  0
LINE
  5
32C
100
AcDbEntity
  8
RACCORDO
100
AcDbLine
 62
250
  6
CONTINUOUS
 10
62.535546875
 20
136.9296875
 11
62.685546875
 21
136.9296875
  0
LINE
  5
32D
100
AcDbEntity
  8
0
100
AcDbLine
 62
250
  6
CONTINUOUS
 10
68.0113194587
 20
136.3573667439
 11
67.085546875
 21
136.3577849384
  0
LINE
  5
32E
100
AcDbEntity
  8
ASSI
100
AcDbLine
 62
250
  6
CONTINUOUS
 10
68.0113194587
 20
136.3573667439
 11
67.085546875
 21
136.3577849384
  0
LINE
  5
32F
100
AcDbEntity
  8
0
100
AcDbLine
 62
7
  6
CONTINUOUS
 10
68.0113840354
 20
136.5798169387
 11
67.085546875
 21
136.581432831
  0
LINE
  5
330
100
AcDbEntity
  8
ASSI
100
AcDbLine
 62
7
  6
CONTINUOUS
 10
68.0113840354
 20
136.5798169387
 11
67.085546875
 21
136.581432831
  0
LINE
  5
331
100
AcDbEntity
  8
0
100
AcDbLine
 62
250
  6
CONTINUOUS
 10
69.5355961072
 20
135.6833848817
 11
67.085546875
 21
135.6976388512
  0
LINE
  5
332
100
AcDbEntity
  8
ASSI
100
AcDbLine
 62
250
  6
CONTINUOUS
 10
69.5355961072
 20
135.6833848817
 11
67.085546875
 21
135.6976388512
  0
LINE
  5
333
100
AcDbEntity
  8
0
100
AcDbLine
 62
7
  6
CONTINUOUS
 10
69.5355961072
 20
135.7712513603
 11
67.085546875
 21
135.7855053298
  0
LINE
  5
334
100
AcDbEntity
  8
ASSI
100
AcDbLine
 62
7
  6
CONTINUOUS
 10
69.5355961072
 20
135.7712513603
 11
67.085546875
 21
135.7855053298
  0
LWPOLYLINE
  5
335
100
AcDbEntity
  8
0
100
AcDbPolyline
 62
250
  6
CONTINUOUS
 90
6
 70
0
 10
69.6745080363
 20
135.7362385847
 10
69.6658636768
 20
135.7398874627
 10
69.6564895058
 20
135.7420497921
 10
69.6464375333
 20
135.7427139189
 10
69.6357639484
 20
135.7418765449
 10
69.6245275094
 20
135.7395426698
  0
LWPOLYLINE
  5
336
100
AcDbEntity
  8
ASSI
100
AcDbPolyline
 62
250
  6
CONTINUOUS
 90
6
 70
0
 10
69.6745080363
 20
135.7362385847
 10
69.6658636768
 20
135.7398874627
 10
69.6564895058
 20
135.7420497921
 10
69.6464375333
 20
135.7427139189
 10
69.6357639484
 20
135.7418765449
 10
69.6245275094
 20
135.7395426698
  0
LINE
  5
337
100
AcDbEntity
  8
0
100
AcDbLine
 62
250
  6
CONTINUOUS
 10
69.1108383186
 20
135.7737225289
 11
68.0113194587
 21
136.3573667439
  0
LINE
  5
338
100
AcDbEntity
  8
ASSI
100
AcDbLine
 62
250
  6
CONTINUOUS
 10
69.1108383186
 20
135.7737225289
 11
68.0113194587
 21
136.3573667439
  0
LINE
  5
339
100
AcDbEntity
  8
0
100
AcDbLine
 62
250
  6
CONTINUOUS
 10
70.05768796
 20
135.4062492175
 11
69.5355961072
 21
135.6833848817
  0
LINE
  5
33A
100
AcDbEntity
  8
ASSI
100
AcDbLine
 62
250
  6
CONTINUOUS
 10
70.05768796
 20
135.4062492175
 11
69.5355961072
 21
135.6833848817
  0
LINE
  5
33B
100
AcDbEntity
  8
0
100
AcDbLine
 62
7
  6
CONTINUOUS
 10
70.085546875
 20
135.5180518404
 11
68.1505588367
 21
136.5451779916
  0
LINE
  5
33C
100
AcDbEntity
  8
ASSI
100
AcDbLine
 62
7
  6
CONTINUOUS
 10
70.085546875
 20
135.5180518404
 11
68.1505588367
 21
136.5451779916
  0
LINE
  5
33D
100
AcDbEntity
  8
SMUSSO
100
AcDbLine
 62
7
  6
CONTINUOUS
 10
62.535546875
 20
64.9296875
 11
62.035546875
 21
64.4296875
  0
LWPOLYLINE
  5
33E
100
AcDbEntity
  8
0
100
AcDbPolyline
 62
250
  6
CONTINUOUS
 90
48
 70
0
 10
64.5279053055
 20
78.375418275
 10
64.5219188031
 20
78.3730992192
 10
64.5160389695
 20
78.37067877
 10
64.5102540003
 20
78.3681546173
 10
64.5045520905
 20
78.3655244514
 10
64.4989214356
 20
78.3627859621
 10
64.4919705467
 20
78.3592082819
 10
64.4851207608
 20
78.355460907
 10
64.4783802903
 20
78.351547007
 10
64.4717573472
 20
78.3474697517
 10
64.4652602157
 20
78.3432325427
 10
64.4588974662
 20
78.3388397095
 10
64.4526777413
 20
78.3342958134
 10
64.4466096833
 20
78.3296054158
 10
64.4418701616
 20
78.325750628
 10
64.4372371633
 20
78.3218070114
 10
64.4327146139
 20
78.3177765786
 10
64.4283064389
 20
78.3136613426
 10
64.4240165637
 20
78.3094633159
 10
64.4198486587
 20
78.3051843543
 10
64.4158053733
 20
78.3008256839
 10
64.4118891017
 20
78.2963883739
 10
64.4081022382
 20
78.2918734931
 10
64.404447177
 20
78.2872821107
 10
64.4009263144
 20
78.2826145091
 10
64.3975420547
 20
78.2778678241
 10
64.3942968041
 20
78.2730384052
 10
64.391192969
 20
78.2681226017
 10
64.3882329555
 20
78.263116763
 10
64.3854192581
 20
78.2580192649
 10
64.3827547236
 20
78.2528365894
 10
64.3802422867
 20
78.247577245
 10
64.3778848824
 20
78.2422497403
 10
64.3756854455
 20
78.2368625836
 10
64.3736460674
 20
78.2314246969
 10
64.3717654662
 20
78.2259466544
 10
64.3700415167
 20
78.2204394439
 10
64.3684720935
 20
78.2149140532
 10
64.3670550713
 20
78.2093814697
 10
64.3657880012
 20
78.2038510517
 10
64.3646671401
 20
78.1983256382
 10
64.3636884216
 20
78.1928064388
 10
64.3628477789
 20
78.187294663
 10
64.3621411454
 20
78.1817915203
 10
64.3614412053
 20
78.1749224142
 10
64.3609429367
 20
78.1680460853
 10
64.3606449757
 20
78.1611399317
 10
64.3605459585
 20
78.1541813515
  0
LWPOLYLINE
  5
33F
100
AcDbEntity
  8
0
100
AcDbPolyline
 62
250
  6
CONTINUOUS
 90
8
 70
0
 10
64.7072846159
 20
78.4340996822
 10
64.6807292045
 20
78.4262259015
 10
64.6544614737
 20
78.4182320575
 10
64.6284936359
 20
78.4100879045
 10
64.6028379031
 20
78.401763197
 10
64.5775064876
 20
78.3932276891
 10
64.5525116017
 20
78.3844511353
 10
64.5278654576
 20
78.3754032897
  0
LINE
  5
340
100
AcDbEntity
  8
0
100
AcDbLine
 62
250
  6
CONTINUOUS
 10
65.0692451918
 20
78.5387855195
 11
64.9001584052
 21
78.48929715
  0
LINE
  5
341
100
AcDbEntity
  8
0
100
AcDbLine
 62
250
  6
CONTINUOUS
 10
65.104040621
 20
78.5488445653
 11
65.0692451918
 21
78.5387855195
  0
LINE
  5
342
100
AcDbEntity
  8
0
100
AcDbLine
 62
250
  6
CONTINUOUS
 10
64.9001584052
 20
78.48929715
 11
64.8346255874
 21
78.4704780741
  0
LINE
  5
343
100
AcDbEntity
  8
SMUSSO
100
AcDbLine
 62
7
  6
CONTINUOUS
 10
62.535546875
 20
153.9296875
 11
62.035546875
 21
154.4296875
  0
LINE
  5
344
100
AcDbEntity
  8
0
100
AcDbLine
 62
250
  6
CONTINUOUS
 10
63.863476875
 20
74.3435775
 11
65.104040875
 21
74.8088045
  0
LINE
  5
345
100
AcDbEntity
  8
0
100
AcDbLine
 62
250
  6
CONTINUOUS
 10
64.258994875
 20
74.8387795
 11
63.204194875
 21
74.4463955
  0
LINE
  5
346
100
AcDbEntity
  8
0
100
AcDbLine
 62
250
  6
CONTINUOUS
 10
65.104040875
 20
77.4301195
 11
63.204194875
 21
76.8471995
  0
LINE
  5
347
100
AcDbEntity
  8
0
100
AcDbLine
 62
7
  6
CONTINUOUS
 10
65.5861780055
 20
65.1301924044
 11
67.085546875
 21
66.3296875
  0
LINE
  5
348
100
AcDbEntity
  8
ASSI
100
AcDbLine
 62
7
  6
CONTINUOUS
 10
65.5865905203
 20
65.1305224162
 11
67.085546875
 21
66.3296875
  0
LINE
  5
349
100
AcDbEntity
  8
0
100
AcDbLine
 62
250
  6
CONTINUOUS
 10
63.204194875
 20
71.5589235
 11
65.104040875
 21
72.1612115
  0
LINE
  5
34A
100
AcDbEntity
  8
0
100
AcDbLine
 62
7
  6
CONTINUOUS
 10
65.5865905203
 20
153.7288525838
 11
67.085546875
 21
152.5296875
  0
LINE
  5
34B
100
AcDbEntity
  8
ASSI
100
AcDbLine
 62
7
  6
CONTINUOUS
 10
65.5865905203
 20
153.7288525838
 11
67.085546875
 21
152.5296875
  0
LWPOLYLINE
  5
34C
100
AcDbEntity
  8
0
100
AcDbPolyline
 62
7
  6
CONTINUOUS
 90
10
 70
0
 43
0.3500000006
 10
74.9605775757
 20
165.6796885986
 10
75.0320042267
 20
165.5368262329
 10
75.0320042267
 20
165.4654041138
 10
74.8891463928
 20
165.322541748
 10
74.8177197418
 20
165.322541748
 10
74.7462930908
 20
165.3939819946
 10
74.7462930908
 20
165.4654041138
 10
74.8177197418
 20
165.6082664795
 10
74.8891463928
 20
165.6796885986
 10
74.9605775757
 20
165.6796885986
  0
LINE
  5
34D
100
AcDbEntity
  8
RACCORDO
100
AcDbLine
 62
250
  6
CONTINUOUS
 10
62.535546875
 20
148.4296875
 11
62.685546875
 21
148.4296875
  0
LWPOLYLINE
  5
34E
100
AcDbEntity
  8
0
100
AcDbPolyline
 62
7
  6
CONTINUOUS
 90
10
 70
0
 43
0.3500000006
 10
76.3705209045
 20
173.67969104
 10
76.4419430237
 20
173.5368286743
 10
76.4419430237
 20
173.4654065552
 10
76.2990897217
 20
173.3225441895
 10
76.2276585388
 20
173.3225441895
 10
76.156227356
 20
173.3939663086
 10
76.156227356
 20
173.4654065552
 10
76.2276585388
 20
173.6082507935
 10
76.2990897217
 20
173.67969104
 10
76.3705209045
 20
173.67969104
  0
LINE
  5
34F
100
AcDbEntity
  8
RACCORDO
100
AcDbLine
 62
7
  6
CONTINUOUS
 10
62.535546875
 20
149.4296875
 11
62.685546875
 21
149.4296875
  0
LINE
  5
350
100
AcDbEntity
  8
0
100
AcDbLine
 62
250
  6
CONTINUOUS
 10
62.685546875
 20
152.7296875
 11
65.585546875
 21
152.7296875
  0
LINE
  5
351
100
AcDbEntity
  8
ASSI
100
AcDbLine
 62
250
  6
CONTINUOUS
 10
62.685546875
 20
152.7296875
 11
65.585546875
 21
152.7296875
  0
LINE
  5
352
100
AcDbEntity
  8
SMUSSO
100
AcDbLine
 62
250
  6
CONTINUOUS
 10
59.535546875
 20
153.4296875
 11
62.535546875
 21
153.4296875
  0
LINE
  5
353
100
AcDbEntity
  8
SMUSSO
100
AcDbLine
 62
7
  6
CONTINUOUS
 10
60.535546875
 20
154.4296875
 11
62.035546875
 21
154.4296875
  0
LWPOLYLINE
  5
354
100
AcDbEntity
  8
0
100
AcDbPolyline
 62
7
  6
CONTINUOUS
 90
8
 70
0
 43
0.3500000006
 10
76.0320090637
 20
165.1796793823
 10
76.8891470032
 20
165.1796793823
 10
77.3177159729
 20
165.6082664795
 10
77.3177159729
 20
166.4654044189
 10
76.8891470032
 20
166.8939733887
 10
76.0320090637
 20
166.8939733887
 10
76.0320090637
 20
168.1796802979
 10
77.3177159729
 20
168.1796802979
  0
LWPOLYLINE
  5
355
100
AcDbEntity
  8
0
100
AcDbPolyline
 62
7
  6
CONTINUOUS
 90
8
 70
0
 43
0.3500000006
 10
78.1748629761
 20
165.1796793823
 10
79.0320009155
 20
165.1796793823
 10
79.460578949
 20
165.6082664795
 10
79.460578949
 20
166.4654044189
 10
79.0320009155
 20
166.8939733887
 10
78.1748629761
 20
166.8939733887
 10
78.1748629761
 20
168.1796802979
 10
79.460578949
 20
168.1796802979
  0
LWPOLYLINE
  5
356
100
AcDbEntity
  8
0
100
AcDbPolyline
 62
7
  6
CONTINUOUS
 90
8
 70
0
 43
0.3500000006
 10
77.4419433289
 20
173.1796818237
 10
78.299090332
 20
173.1796818237
 10
78.7276593018
 20
173.6082507935
 10
78.7276593018
 20
174.4654068604
 10
78.299090332
 20
174.8939758301
 10
77.4419433289
 20
174.8939758301
 10
77.4419433289
 20
176.1796827393
 10
78.7276593018
 20
176.1796827393
  0
LWPOLYLINE
  5
357
100
AcDbEntity
  8
0
100
AcDbPolyline
 62
7
  6
CONTINUOUS
 90
8
 70
0
 43
0.3500000006
 10
79.5848063049
 20
173.1796818237
 10
80.4419442444
 20
173.1796818237
 10
80.8705132141
 20
173.6082507935
 10
80.8705132141
 20
174.4654068604
 10
80.4419442444
 20
174.8939758301
 10
79.5848063049
 20
174.8939758301
 10
79.5848063049
 20
176.1796827393
 10
80.8705132141
 20
176.1796827393
  0
LINE
  5
358
100
AcDbEntity
  8
0
100
AcDbLine
 62
7
  6
CONTINUOUS
 10
62.685546875
 20
153.7803071883
 11
65.585546875
 21
153.7296875
  0
LINE
  5
359
100
AcDbEntity
  8
ASSI
100
AcDbLine
 62
7
  6
CONTINUOUS
 10
62.685546875
 20
153.7803071883
 11
65.585546875
 21
153.7296875
  0
LINE
  5
35A
100
AcDbEntity
  8
0
100
AcDbLine
 62
250
  6
CONTINUOUS
 10
65.5865905203
 20
152.7700942067
 11
67.085546875
 21
152.4679978281
  0
LINE
  5
35B
100
AcDbEntity
  8
ASSI
100
AcDbLine
 62
250
  6
CONTINUOUS
 10
65.5865905203
 20
152.7700942067
 11
67.085546875
 21
152.4679978281
  0
ARC
  5
35C
100
AcDbEntity
  8
RACCORDO
100
AcDbCircle
 62
7
  6
CONTINUOUS
 10
119.2285156249
 20
88.0296875
 40
1.2
100
AcDbArc
 50
180.0
 51
270.0
  0
ARC
  5
35D
100
AcDbEntity
  8
RACCORDO
100
AcDbCircle
 62
7
  6
CONTINUOUS
 10
229.5285156249
 20
88.0296875
 40
1.2
100
AcDbArc
 50
270.0
 51
360.0
  0
ARC
  5
35E
100
AcDbEntity
  8
RACCORDO
100
AcDbCircle
 62
7
  6
CONTINUOUS
 10
229.5285156249
 20
130.8296875
 40
1.2
100
AcDbArc
 50
0.0
 51
90.0
  0
ARC
  5
35F
100
AcDbEntity
  8
RACCORDO
100
AcDbCircle
 62
7
  6
CONTINUOUS
 10
119.2285156249
 20
130.8296875
 40
1.2
100
AcDbArc
 50
90.0
 51
180.0
  0
ARC
  5
360
100
AcDbEntity
  8
SMUSSO
100
AcDbCircle
 62
7
  6
CONTINUOUS
 10
95.7285156249
 20
153.4296875
 40
1.0
100
AcDbArc
 50
90.0
 51
180.0
  0
ARC
  5
361
100
AcDbEntity
  8
SMUSSO
100
AcDbCircle
 62
7
  6
CONTINUOUS
 10
95.7285156249
 20
65.4296875
 40
1.0
100
AcDbArc
 50
180.0
 51
270.0
  0
ARC
  5
362
100
AcDbEntity
  8
SMUSSO
100
AcDbCircle
 62
7
  6
CONTINUOUS
 10
253.0285156249
 20
65.4296875
 40
1.0
100
AcDbArc
 50
270.0
 51
360.0
  0
ARC
  5
363
100
AcDbEntity
  8
SMUSSO
100
AcDbCircle
 62
7
  6
CONTINUOUS
 10
253.0285156249
 20
153.4296875
 40
1.0
100
AcDbArc
 50
0.0
 51
90.0
  0
ARC
  5
364
100
AcDbEntity
  8
0
100
AcDbCircle
 62
7
  6
CONTINUOUS
 10
68.0356712539
 20
135.6296875
 40
1.0
100
AcDbArc
 50
270.0
 51
275.7105931375
  0
ARC
  5
365
100
AcDbEntity
  8
0
100
AcDbCircle
 62
7
  6
CONTINUOUS
 10
68.0356712539
 20
83.2296875
 40
1.0
100
AcDbArc
 50
84.2894068625
 51
90.0
  0
ARC
  5
366
100
AcDbEntity
  8
ASSI
100
AcDbCircle
 62
7
  6
CONTINUOUS
 10
68.0356712539
 20
135.6296875
 40
1.0
100
AcDbArc
 50
270.0
 51
275.7105931375
  0
ARC
  5
367
100
AcDbEntity
  8
ASSI
100
AcDbCircle
 62
7
  6
CONTINUOUS
 10
68.0356712539
 20
83.2296875
 40
1.0
100
AcDbArc
 50
84.2894068625
 51
90.0
  0
ARC
  5
368
100
AcDbEntity
  8
0
100
AcDbCircle
 62
7
  6
CONTINUOUS
 10
68.0108602092
 20
136.279686991
 40
0.3
100
AcDbArc
 50
62.0510335847
 51
89.8999998573
  0
ARC
  5
369
100
AcDbEntity
  8
0
100
AcDbCircle
 62
7
  6
CONTINUOUS
 10
68.0108602092
 20
82.579688009
 40
0.3
100
AcDbArc
 50
270.1000001427
 51
297.9489664153
  0
ARC
  5
36A
100
AcDbEntity
  8
0
100
AcDbCircle
 62
7
  6
CONTINUOUS
 10
69.5338507878
 20
83.3881185627
 40
0.3
100
AcDbArc
 50
270.3333333333
 51
297.9601595792
  0
ARC
  5
36B
100
AcDbEntity
  8
0
100
AcDbCircle
 62
7
  6
CONTINUOUS
 10
69.5338507878
 20
135.4712564373
 40
0.3
100
AcDbArc
 50
62.0398404207
 51
89.6666666667
  0
ARC
  5
36C
100
AcDbEntity
  8
ASSI
100
AcDbCircle
 62
7
  6
CONTINUOUS
 10
68.0108602092
 20
136.279686991
 40
0.3
100
AcDbArc
 50
62.0510335847
 51
89.8999998573
  0
ARC
  5
36D
100
AcDbEntity
  8
ASSI
100
AcDbCircle
 62
7
  6
CONTINUOUS
 10
68.0108602092
 20
82.579688009
 40
0.3
100
AcDbArc
 50
270.1000001427
 51
297.9489664153
  0
ARC
  5
36E
100
AcDbEntity
  8
ASSI
100
AcDbCircle
 62
7
  6
CONTINUOUS
 10
69.5338507878
 20
83.3881185627
 40
0.3
100
AcDbArc
 50
270.3333333333
 51
297.9601595792
  0
ARC
  5
36F
100
AcDbEntity
  8
ASSI
100
AcDbCircle
 62
7
  6
CONTINUOUS
 10
69.5338507878
 20
135.4712564373
 40
0.3
100
AcDbArc
 50
62.0398404207
 51
89.6666666667
  0
ELLIPSE
  5
370
100
AcDbEntity
  8
0
100
AcDbEllipse
 62
7
  6
CONTINUOUS
 10
69.885546875
 20
83.349888805
 30
0.0
 11
0.1417119467
 21
0.1422961243
 31
0.0
 40
0.9918061237
 41
-0.2491986107
 42
0.7350951877
  0
ELLIPSE
  5
371
100
AcDbEntity
  8
0
100
AcDbEllipse
 62
7
  6
CONTINUOUS
 10
66.8088557062
 20
66.1296875
 30
0.0
 11
1.2233088312
 21
0.0
 31
0.0
 40
0.7998095528
 41
-3.1415926536
 42
-3.1002827401
  0
ELLIPSE
  5
372
100
AcDbEntity
  8
0
100
AcDbEllipse
 62
7
  6
CONTINUOUS
 10
66.8088557062
 20
152.7296875
 30
0.0
 11
1.2233088312
 21
0.0
 31
0.0
 40
0.7998095528
 41
3.1002827401
 42
3.1415926536
  0
ELLIPSE
  5
373
100
AcDbEntity
  8
0
100
AcDbEllipse
 62
7
  6
CONTINUOUS
 10
69.885546875
 20
135.509486195
 30
0.0
 11
-0.1417119467
 21
0.1422961243
 31
0.0
 40
0.9918061237
 41
-3.8766878413
 42
-2.8923940429
  0
ELLIPSE
  5
374
100
AcDbEntity
  8
ASSI
100
AcDbEllipse
 62
7
  6
CONTINUOUS
 10
69.885546875
 20
135.509486195
 30
0.0
 11
-0.1417119467
 21
0.1422961243
 31
0.0
 40
0.9918061237
 41
-3.8766878413
 42
-2.8923940429
  0
ELLIPSE
  5
375
100
AcDbEntity
  8
ASSI
100
AcDbEllipse
 62
7
  6
CONTINUOUS
 10
69.885546875
 20
83.349888805
 30
0.0
 11
0.1417119467
 21
0.1422961243
 31
0.0
 40
0.9918061237
 41
-0.2491986107
 42
0.7350951877
  0
ELLIPSE
  5
376
100
AcDbEntity
  8
ASSI
100
AcDbEllipse
 62
7
  6
CONTINUOUS
 10
66.8088557062
 20
66.1296875
 30
0.0
 11
1.2233088312
 21
0.0
 31
0.0
 40
0.7998095528
 41
-3.1415926536
 42
-3.1002827401
  0
ELLIPSE
  5
377
100
AcDbEntity
  8
ASSI
100
AcDbEllipse
 62
7
  6
CONTINUOUS
 10
66.8088557062
 20
152.7296875
 30
0.0
 11
1.2233088312
 21
0.0
 31
0.0
 40
0.7998095528
 41
3.1002827401
 42
3.1415926536
  0
ENDSEC
  0
SECTION
  2
OBJECTS
  0
DICTIONARY
  5
C
100
AcDbDictionary
280
0
281
1
  3
ACAD_GROUP
350
D
  3
ACAD_MLINESTYLE
350
17
  3
ACAD_LAYOUT
350
1A
  3
ACAD_PLOTSETTINGS
350
19
  3
ACAD_PLOTSTYLENAME
350
E
  0
DICTIONARY
  5
D
102
{ACAD_REACTORS
330
C
102
}
100
AcDbDictionary
280
0
281
1
  0
ACDBDICTIONARYWDFLT
  5
E
102
{ACAD_REACTORS
330
C
102
}
100
AcDbDictionary
281
1
  3
Normal
350
F
100
AcDbDictionaryWithDefault
340
F
  0
DICTIONARY
  5
17
102
{ACAD_REACTORS
330
C
102
}
100
AcDbDictionary
280
0
281
1
  3
Standard
350
18
  0
DICTIONARY
  5
19
102
{ACAD_REACTORS
330
C
102
}
100
AcDbDictionary
281
1
  0
DICTIONARY
  5
1A
102
{ACAD_REACTORS
330
C
102
}
100
AcDbDictionary
281
1
  3
Model
350
378
  3
Layout1
350
379
  0
ACDBPLACEHOLDER
  5
F
102
{ACAD_REACTORS
330
E
102
}
  0
MLINESTYLE
  5
18
102
{ACAD_REACTORS
330
17
102
}
100
AcDbMlineStyle
  2
STANDARD
 70
0
  3

 62
256
 51
90.0
 52
90.0
 71
2
 49
0.5
 62
256
  6
BYLAYER
 49
-0.5
 62
256
  6
BYLAYER
  0
LAYOUT
  5
378
102
{ACAD_REACTORS
330
1A
102
}
100
AcDbPlotSettings
  1

  2
none_device
  4
ISO_A4_(297.00_x_210.00_MM)
  6

 40
0.0
 41
0.0
 42
0.0
 43
0.0
 44
297.0
 45
210.0
 46
0.0
 47
0.0
 48
0.0
 49
0.0
140
0.0
141
0.0
142
1.0
143
1.0
 70
1024
 72
1
 73
0
 74
0
  7

 75
0
147
1.0
148
0.0
149
0.0
100
AcDbLayout
  1
Model
 70
0
 71
0
 10
0.0
 20
0.0
 11
297.0
 21
210.0
 12
0.0
 22
0.0
 32
0.0
 14
0.0
 24
0.0
 34
0.0
 15
0.0
 25
0.0
 35
0.0
146
0.0
 13
0.0
 23
0.0
 33
0.0
 16
1.0
 26
0.0
 36
0.0
 17
0.0
 27
1.0
 37
0.0
 76
0
330
21D
345
0
346
0
  0
LAYOUT
  5
379
102
{ACAD_REACTORS
330
1A
102
}
100
AcDbPlotSettings
  1

  2
none_device
  4
ISO_A4_(297.00_x_210.00_MM)
  6

 40
0.0
 41
0.0
 42
0.0
 43
0.0
 44
297.0
 45
210.0
 46
0.0
 47
0.0
 48
0.0
 49
0.0
140
0.0
141
0.0
142
1.0
143
1.0
 70
0
 72
1
 73
0
 74
0
  7

 75
0
147
1.0
148
0.0
149
0.0
100
AcDbLayout
  1
Layout1
 70
0
 71
1
 10
0.0
 20
0.0
 11
297.0
 21
210.0
 12
0.0
 22
0.0
 32
0.0
 14
0.0
 24
0.0
 34
0.0
 15
0.0
 25
0.0
 35
0.0
146
0.0
 13
0.0
 23
0.0
 33
0.0
 16
1.0
 26
0.0
 36
0.0
 17
0.0
 27
1.0
 37
0.0
 76
0
330
21E
345
0
346
0
  0
ENDSEC
  0
EOF
