  0
SECTION
  2
HEADER
  9
$ACADVER
  1
AC1021
  9
$DWGCODEPAGE
  3
ANSI_1252
  9
$EXTMAX
 10
297.0
 20
210.0
 30
0.0
  9
$EXTMIN
 10
0.0
 20
0.0
 30
0.0
  9
$LIMMIN
 10
0.0
 20
0.0
  9
$LIMMAX
 10
297.0
 20
210.0
  9
$VIEWCTR
 10
148.5
 20
105.0
  9
$VIEWSIZE
 40
210.0
  9
$CLAYER
  8
0
  9
$LTSCALE
 40
16.335
  9
$CELTYPE
  6
BYLAYER
  9
$DIMSCALE
 40
1.0
  9
$DIMASZ
 40
3.0
  9
$DIMEXO
 40
0.5
  9
$DIMDLI
 40
11.286
  9
$DIMEXE
 40
1.5
  9
$DIMCEN
 40
2.673
  9
$DIMLFAC
 40
1.0
  9
$DIMBLK
  1
_FILLED
  9
$DIMALT
 70
0
  9
$DIMALTF
 40
25.4
  9
$DIMTXT
 40
3.0
  9
$DIMTOL
 70
1
  9
$DIMLIM
 70
0
  9
$DIMTFAC
 40
1.0
  9
$DIMTP
 40
0.01
  9
$DIMTM
 40
0.01
  9
$DIMGAP
 40
0.625
  9
$DIMDSEP
 70
44
  9
$AUNITS
 70
0
  9
$PDMODE
 70
3
  9
$PDSIZE
 40
3.0
  9
$HANDSEED
  5
32E
  9
$TILEMODE
 70
1
  9
$MEASUREMENT
 70
1
  9
$INSUNITS
 70
4
  0
ENDSEC
  0
SECTION
  2
CLASSES
  0
CLASS
  1
ACDBDICTIONARYWDFLT
  2
AcDbDictionaryWithDefault
  3
AutoCAD 2000
 90
0
 91
1
280
0
281
0
  0
CLASS
  1
ACDBPLACEHOLDER
  2
AcDbPlaceHolder
  3
AutoCAD 2000
 90
0
 91
1
280
0
281
0
  0
CLASS
  1
LAYOUT
  2
AcDbLayout
  3
AutoCAD 2000
 90
0
 91
0
280
0
281
0
  0
ENDSEC
  0
SECTION
  2
TABLES
  0
TABLE
  2
VPORT
  5
8
100
AcDbSymbolTable
 70
2
  0
VPORT
  5
1F4
100
AcDbSymbolTableRecord
100
AcDbViewportTableRecord
  2
*ACTIVE
 70
0
 10
0.0
 20
0.0
 11
1.0
 21
1.0
 12
148.5
 22
105.0
 13
0.0
 23
0.0
 14
1.0
 24
1.0
 15
0.0
 25
0.0
 16
0.0
 26
0.0
 36
1.0
 17
0.0
 27
0.0
 37
0.0
 40
210.0
 41
1.4142857143
 42
50.0
 43
0.0
 44
0.0
 50
0.0
 51
0.0
 71
0
 72
100
 73
1
 74
1
 75
0
 76
0
 77
0
 78
0
  0
ENDTAB
  0
TABLE
  2
LTYPE
  5
5
100
AcDbSymbolTable
 70
6
  0
LTYPE
  5
14
100
AcDbSymbolTableRecord
100
AcDbLinetypeTableRecord
  2
BYBLOCK
 70
0
  3

 72
65
 73
0
 40
0.0
  0
LTYPE
  5
15
100
AcDbSymbolTableRecord
100
AcDbLinetypeTableRecord
  2
BYLAYER
 70
0
  3

 72
65
 73
0
 40
0.0
  0
LTYPE
  5
16
100
AcDbSymbolTableRecord
100
AcDbLinetypeTableRecord
  2
CONTINUOUS
 70
64
  3
Solid line
 72
65
 73
0
 40
0.0
  0
LTYPE
  5
1F5
100
AcDbSymbolTableRecord
100
AcDbLinetypeTableRecord
  2
CENTER
 70
64
  3
____ _ ____ _ ____ _ ____ _ ____ _ ____ _ ____
 72
65
 73
4
 40
0.6
 49
0.375
 74
0
 49
-0.075
 74
0
 49
0.075
 74
0
 49
-0.075
 74
0
  0
LTYPE
  5
1F6
100
AcDbSymbolTableRecord
100
AcDbLinetypeTableRecord
  2
HIDDEN
 70
64
  3
- - - - - - - - - - - - - - - - - - - -
 72
65
 73
2
 40
0.2
 49
0.1
 74
0
 49
-0.1
 74
0
  0
LTYPE
  5
1F7
100
AcDbSymbolTableRecord
100
AcDbLinetypeTableRecord
  2
PHANTOM
 70
64
  3
_____ _ _ _____ _ _ _____ _ _ _____
 72
65
 73
6
 40
0.8
 49
0.45
 74
0
 49
-0.05
 74
0
 49
0.1
 74
0
 49
-0.05
 74
0
 49
0.1
 74
0
 49
-0.05
 74
0
  0
LTYPE
  5
1F8
100
AcDbSymbolTableRecord
100
AcDbLinetypeTableRecord
  2
DOT
 70
64
  3
. . . . . . . . . . . . . . . . . . . .
 72
65
 73
2
 40
0.2
 49
0.1
 74
0
 49
-0.1
 74
0
  0
LTYPE
  5
1F9
100
AcDbSymbolTableRecord
100
AcDbLinetypeTableRecord
  2
DASHED
 70
64
  3
- - - - - - - - - - - - - - - - - - - -
 72
65
 73
2
 40
0.2
 49
0.1
 74
0
 49
-0.1
 74
0
  0
ENDTAB
  0
TABLE
  2
LAYER
  5
2
100
AcDbSymbolTable
 70
36
  0
LAYER
  5
10
100
AcDbSymbolTableRecord
100
AcDbLayerTableRecord
  2
0
 70
0
 62
7
  6
CONTINUOUS
370
-3
390
F
  0
LAYER
  5
1FA
100
AcDbSymbolTableRecord
100
AcDbLayerTableRecord
  2
DEFAULT_1
 70
0
 62
7
  6
CENTER
370
-3
390
F
  0
LAYER
  5
1FB
100
AcDbSymbolTableRecord
100
AcDbLayerTableRecord
  2
DEFAULT_2
 70
0
 62
7
  6
HIDDEN
370
-3
390
F
  0
LAYER
  5
1FC
100
AcDbSymbolTableRecord
100
AcDbLayerTableRecord
  2
DEFAULT_3
 70
0
 62
7
  6
PHANTOM
370
-3
390
F
  0
LAYER
  5
1FD
100
AcDbSymbolTableRecord
100
AcDbLayerTableRecord
  2
ASSI
 70
0
 62
7
  6
CONTINUOUS
370
-3
390
F
  0
LAYER
  5
1FE
100
AcDbSymbolTableRecord
100
AcDbLayerTableRecord
  2
COORDINATE
 70
0
 62
7
  6
CONTINUOUS
370
-3
390
F
  0
LAYER
  5
1FF
100
AcDbSymbolTableRecord
100
AcDbLayerTableRecord
  2
COORD_ORIGINE
 70
0
 62
7
  6
CONTINUOUS
370
-3
390
F
  0
LAYER
  5
200
100
AcDbSymbolTableRecord
100
AcDbLayerTableRecord
  2
COPY_PUBLISH
 70
0
 62
7
  6
CONTINUOUS
370
-3
390
F
  0
LAYER
  5
201
100
AcDbSymbolTableRecord
100
AcDbLayerTableRecord
  2
COSMETIC
 70
0
 62
7
  6
CONTINUOUS
370
-3
390
F
  0
LAYER
  5
202
100
AcDbSymbolTableRecord
100
AcDbLayerTableRecord
  2
COSMETICI
 70
0
 62
7
  6
CONTINUOUS
370
-3
390
F
  0
LAYER
  5
203
100
AcDbSymbolTableRecord
100
AcDbLayerTableRecord
  2
CURVE
 70
0
 62
7
  6
CONTINUOUS
370
-3
390
F
  0
LAYER
  5
204
100
AcDbSymbolTableRecord
100
AcDbLayerTableRecord
  2
CURVE_COSTRUZIONE
 70
0
 62
7
  6
CONTINUOUS
370
-3
390
F
  0
LAYER
  5
205
100
AcDbSymbolTableRecord
100
AcDbLayerTableRecord
  2
CURVE_TASSELLI
 70
0
 62
7
  6
CONTINUOUS
370
-3
390
F
  0
LAYER
  5
206
100
AcDbSymbolTableRecord
100
AcDbLayerTableRecord
  2
DRAFT
 70
0
 62
7
  6
CONTINUOUS
370
-3
390
F
  0
LAYER
  5
207
100
AcDbSymbolTableRecord
100
AcDbLayerTableRecord
  2
IMPORT_IGES
 70
0
 62
7
  6
CONTINUOUS
370
-3
390
F
  0
LAYER
  5
208
100
AcDbSymbolTableRecord
100
AcDbLayerTableRecord
  2
INTFCLR_2
 70
0
 62
7
  6
CONTINUOUS
370
-3
390
F
  0
LAYER
  5
209
100
AcDbSymbolTableRecord
100
AcDbLayerTableRecord
  2
INTF_1
 70
0
 62
7
  6
CONTINUOUS
370
-3
390
F
  0
LAYER
  5
20A
100
AcDbSymbolTableRecord
100
AcDbLayerTableRecord
  2
INTF_21
 70
0
 62
7
  6
CONTINUOUS
370
-3
390
F
  0
LAYER
  5
20B
100
AcDbSymbolTableRecord
100
AcDbLayerTableRecord
  2
INTF_7
 70
0
 62
7
  6
CONTINUOUS
370
-3
390
F
  0
LAYER
  5
20C
100
AcDbSymbolTableRecord
100
AcDbLayerTableRecord
  2
INTF_CYAN
 70
0
 62
7
  6
CONTINUOUS
370
-3
390
F
  0
LAYER
  5
20D
100
AcDbSymbolTableRecord
100
AcDbLayerTableRecord
  2
NOTE
 70
0
 62
7
  6
CONTINUOUS
370
-3
390
F
  0
LAYER
  5
20E
100
AcDbSymbolTableRecord
100
AcDbLayerTableRecord
  2
PIANI
 70
0
 62
7
  6
CONTINUOUS
370
-3
390
F
  0
LAYER
  5
20F
100
AcDbSymbolTableRecord
100
AcDbLayerTableRecord
  2
PIANI_ORIGINE
 70
0
 62
7
  6
CONTINUOUS
370
-3
390
F
  0
LAYER
  5
210
100
AcDbSymbolTableRecord
100
AcDbLayerTableRecord
  2
PIANI_RIFERIMENTO
 70
0
 62
7
  6
CONTINUOUS
370
-3
390
F
  0
LAYER
  5
211
100
AcDbSymbolTableRecord
100
AcDbLayerTableRecord
  2
PUNTI
 70
0
 62
7
  6
CONTINUOUS
370
-3
390
F
  0
LAYER
  5
212
100
AcDbSymbolTableRecord
100
AcDbLayerTableRecord
  2
RACCORDO
 70
0
 62
7
  6
CONTINUOUS
370
-3
390
F
  0
LAYER
  5
213
100
AcDbSymbolTableRecord
100
AcDbLayerTableRecord
  2
RGB__255__255__255__
 70
0
 62
7
  6
CONTINUOUS
370
-3
390
F
  0
LAYER
  5
214
100
AcDbSymbolTableRecord
100
AcDbLayerTableRecord
  2
RGB____0____0____0__
 70
0
 62
7
  6
CONTINUOUS
370
-3
390
F
  0
LAYER
  5
215
100
AcDbSymbolTableRecord
100
AcDbLayerTableRecord
  2
SIMBOLI
 70
0
 62
7
  6
CONTINUOUS
370
-3
390
F
  0
LAYER
  5
216
100
AcDbSymbolTableRecord
100
AcDbLayerTableRecord
  2
SMUSSO
 70
0
 62
7
  6
CONTINUOUS
370
-3
390
F
  0
LAYER
  5
217
100
AcDbSymbolTableRecord
100
AcDbLayerTableRecord
  2
SNAPLINE
 70
0
 62
7
  6
CONTINUOUS
370
-3
390
F
  0
LAYER
  5
218
100
AcDbSymbolTableRecord
100
AcDbLayerTableRecord
  2
SUPERFICI
 70
0
 62
7
  6
CONTINUOUS
370
-3
390
F
  0
LAYER
  5
219
100
AcDbSymbolTableRecord
100
AcDbLayerTableRecord
  2
TRASH
 70
0
 62
7
  6
CONTINUOUS
370
-3
390
F
  0
LAYER
  5
21A
100
AcDbSymbolTableRecord
100
AcDbLayerTableRecord
  2
XSEC_DATUMS
 70
0
 62
7
  6
CONTINUOUS
370
-3
390
F
  0
ENDTAB
  0
TABLE
  2
STYLE
  5
3
100
AcDbSymbolTable
 70
1
  0
STYLE
  5
11
100
AcDbSymbolTableRecord
100
AcDbTextStyleTableRecord
  2
STANDARD
 70
0
 40
0.0
 41
0.8
 50
0.0
 71
0
 42
0.2
  3
txt
  4

  0
STYLE
  5
21B
100
AcDbSymbolTableRecord
100
AcDbTextStyleTableRecord
  2
TEXTSTYLE_1
 70
0
 40
0.0
 41
0.8
 50
0.0
 71
0
 42
0.2
  3
gdt
  4

  0
ENDTAB
  0
TABLE
  2
VIEW
  5
6
100
AcDbSymbolTable
 70
0
  0
ENDTAB
  0
TABLE
  2
UCS
  5
7
100
AcDbSymbolTable
 70
0
  0
ENDTAB
  0
TABLE
  2
APPID
  5
9
100
AcDbSymbolTable
 70
1
  0
APPID
  5
21C
100
AcDbSymbolTableRecord
100
AcDbRegAppTableRecord
  2
ACAD
 70
0
  0
ENDTAB
  0
TABLE
  2
BLOCK_RECORD
  5
1
100
AcDbSymbolTable
 70
0
  0
BLOCK_RECORD
  5
21D
100
AcDbSymbolTableRecord
100
AcDbBlockTableRecord
  2
*Model_Space
  0
BLOCK_RECORD
  5
21E
100
AcDbSymbolTableRecord
100
AcDbBlockTableRecord
  2
*Paper_Space
  0
BLOCK_RECORD
  5
21F
100
AcDbSymbolTableRecord
100
AcDbBlockTableRecord
  2
_FILLED
  0
BLOCK_RECORD
  5
220
100
AcDbSymbolTableRecord
100
AcDbBlockTableRecord
  2
*D0
  0
BLOCK_RECORD
  5
221
100
AcDbSymbolTableRecord
100
AcDbBlockTableRecord
  2
*D1
  0
BLOCK_RECORD
  5
222
100
AcDbSymbolTableRecord
100
AcDbBlockTableRecord
  2
*D2
  0
BLOCK_RECORD
  5
223
100
AcDbSymbolTableRecord
100
AcDbBlockTableRecord
  2
*D3
  0
ENDTAB
  0
TABLE
  2
DIMSTYLE
  5
A
100
AcDbSymbolTable
 70
1
100
AcDbDimStyleTable
 71
0
  0
DIMSTYLE
105
224
100
AcDbSymbolTableRecord
100
AcDbDimStyleTableRecord
  2
STANDARD
 70
0
  3

  4

 40
1.0
 41
3.0
 42
0.5
 43
0.38
 44
1.5
 45
0.0
 46
0.0
 47
0.01
 48
0.01
140
3.0
141
0.09
142
0.0
143
25.4
144
1.0
145
0.0
146
1.0
147
0.625
 71
1.0
 72
0.0
 73
0
 74
0
 75
0
 76
0
 77
1
 78
8
 79
2
170
0
171
1
172
0
173
0
174
0
175
0
176
0
177
0
178
0
270
2
179
2
271
2
272
2
273
2
274
2
275
0
280
0
281
0
282
0
283
1
284
8
285
0
286
0
287
3
288
0
340
11
278
44
341
21F
342
21F
343
21F
344
21F
  0
DIMSTYLE
105
225
100
AcDbSymbolTableRecord
100
AcDbDimStyleTableRecord
  2
DIMSTYLE_1
 70
0
  3

  4

 40
1.0
 41
3.0
 42
0.5
 43
0.38
 44
1.5
 45
0.0
 46
0.0
 47
0.0
 48
0.0
140
3.0
141
0.09
142
0.0
143
25.4
144
1.0
145
0.0
146
1.0
147
0.75
 71
0.0
 72
0.0
 73
0
 74
0
 75
0
 76
0
 77
1
 78
8
 79
2
170
0
171
1
172
0
173
0
174
0
175
0
176
0
177
0
178
0
270
2
179
2
271
2
272
2
273
2
274
2
275
0
280
0
281
0
282
0
283
1
284
8
285
0
286
0
287
3
288
0
340
11
278
44
341
21F
342
21F
343
21F
344
21F
  0
ENDTAB
  0
ENDSEC
  0
SECTION
  2
BLOCKS
  0
BLOCK
  5
20
100
AcDbEntity
  8
0
100
AcDbBlockBegin
  2
*Model_Space
 70
0
 10
0.0
 20
0.0
 30
0.0
  3
*Model_Space
  1

  0
ENDBLK
  5
21
100
AcDbEntity
  8
0
100
AcDbBlockEnd
  0
BLOCK
  5
1C
100
AcDbEntity
  8
0
100
AcDbBlockBegin
  2
*Paper_Space
 70
0
 10
0.0
 20
0.0
 30
0.0
  3
*Paper_Space
  1

  0
ENDBLK
  5
1D
100
AcDbEntity
  8
0
100
AcDbBlockEnd
  0
BLOCK
  5
226
100
AcDbEntity
  8
0
100
AcDbBlockBegin
  2
_FILLED
 70
64
 10
0.0
 20
0.0
  3
_FILLED
  1

  0
SOLID
  5
227
100
AcDbEntity
  8
0
  6
BYBLOCK
 62
0
100
AcDbTrace
 10
0.0
 20
0.0
 11
-1.0
 21
0.3166666667
 12
-1.0
 22
-0.3166666667
 13
-1.0
 23
-0.3166666667
  0
ENDBLK
  5
228
100
AcDbEntity
  8
0
  6
BYBLOCK
 62
0
100
AcDbBlockEnd
  0
BLOCK
  5
229
100
AcDbEntity
  8
0
100
AcDbBlockBegin
 62
7
  6
CONTINUOUS
  2
*D0
 70
65
 10
0.0
 20
0.0
  3
*D0
  1

  0
LINE
  5
22A
100
AcDbEntity
  8
0
100
AcDbLine
 62
7
  6
CONTINUOUS
 10
61.1908148904
 20
150.1005661875
 11
61.1908148904
 21
163.0622558594
  0
LINE
  5
22B
100
AcDbEntity
  8
0
100
AcDbLine
 62
7
  6
CONTINUOUS
 10
53.6408148904
 20
151.0622558594
 11
53.6408148904
 21
163.0622558594
  0
LINE
  5
22C
100
AcDbEntity
  8
0
100
AcDbLine
 62
7
  6
CONTINUOUS
 10
61.1908148904
 20
161.5622558594
 11
57.4158148904
 21
161.5622558594
  0
LINE
  5
22D
100
AcDbEntity
  8
0
100
AcDbLine
 62
7
  6
CONTINUOUS
 10
57.4158148904
 20
161.5622558594
 11
74.2181564958
 21
161.5622558594
  0
LINE
  5
22E
100
AcDbEntity
  8
0
100
AcDbLine
 62
7
  6
CONTINUOUS
 10
53.6408148904
 20
161.5622558594
 11
57.4158148904
 21
161.5622558594
  0
INSERT
  5
22F
100
AcDbEntity
  8
0
100
AcDbBlockReference
 62
7
  6
CONTINUOUS
  2
_FILLED
 10
61.1908148904
 20
161.5622558594
 41
3.0
 42
3.0
 43
3.0
  0
INSERT
  5
230
100
AcDbEntity
  8
0
100
AcDbBlockReference
 62
7
  6
CONTINUOUS
  2
_FILLED
 10
53.6408148904
 20
161.5622558594
 41
3.0
 42
3.0
 43
3.0
 50
180.0
  0
ENDBLK
  5
231
100
AcDbEntity
  8
0
  6
BYBLOCK
 62
0
100
AcDbBlockEnd
  0
BLOCK
  5
232
100
AcDbEntity
  8
0
100
AcDbBlockBegin
 62
7
  6
CONTINUOUS
  2
*D1
 70
65
 10
0.0
 20
0.0
  3
*D1
  1

  0
LINE
  5
233
100
AcDbEntity
  8
0
100
AcDbLine
 62
7
  6
CONTINUOUS
 10
64.1908148904
 20
133.1085726526
 11
64.1908148904
 21
171.0622558594
  0
LINE
  5
234
100
AcDbEntity
  8
0
100
AcDbLine
 62
7
  6
CONTINUOUS
 10
53.6408148904
 20
151.0622558594
 11
53.6408148904
 21
171.0622558594
  0
LINE
  5
235
100
AcDbEntity
  8
0
100
AcDbLine
 62
7
  6
CONTINUOUS
 10
64.1908148904
 20
169.5622558594
 11
58.9158148904
 21
169.5622558594
  0
LINE
  5
236
100
AcDbEntity
  8
0
100
AcDbLine
 62
7
  6
CONTINUOUS
 10
58.9158148904
 20
169.5622558594
 11
75.7622731619
 21
169.5622558594
  0
LINE
  5
237
100
AcDbEntity
  8
0
100
AcDbLine
 62
7
  6
CONTINUOUS
 10
53.6408148904
 20
169.5622558594
 11
58.9158148904
 21
169.5622558594
  0
INSERT
  5
238
100
AcDbEntity
  8
0
100
AcDbBlockReference
 62
7
  6
CONTINUOUS
  2
_FILLED
 10
64.1908148904
 20
169.5622558594
 41
3.0
 42
3.0
 43
3.0
  0
INSERT
  5
239
100
AcDbEntity
  8
0
100
AcDbBlockReference
 62
7
  6
CONTINUOUS
  2
_FILLED
 10
53.6408148904
 20
169.5622558594
 41
3.0
 42
3.0
 43
3.0
 50
180.0
  0
ENDBLK
  5
23A
100
AcDbEntity
  8
0
  6
BYBLOCK
 62
0
100
AcDbBlockEnd
  0
BLOCK
  5
23B
100
AcDbEntity
  8
0
100
AcDbBlockBegin
 62
7
  6
CONTINUOUS
  2
*D2
 70
65
 10
0.0
 20
0.0
  3
*D2
  1

  0
LINE
  5
23C
100
AcDbEntity
  8
0
100
AcDbLine
 62
7
  6
CONTINUOUS
 10
96.5698730469
 20
151.0622558594
 11
96.5698730469
 21
163.0622558594
  0
LINE
  5
23D
100
AcDbEntity
  8
0
100
AcDbLine
 62
7
  6
CONTINUOUS
 10
255.8698730469
 20
151.0622558594
 11
255.8698730469
 21
163.0622558594
  0
LINE
  5
23E
100
AcDbEntity
  8
0
100
AcDbLine
 62
7
  6
CONTINUOUS
 10
96.5698730469
 20
161.5622558594
 11
176.2198730469
 21
161.5622558594
  0
LINE
  5
23F
100
AcDbEntity
  8
0
100
AcDbLine
 62
7
  6
CONTINUOUS
 10
255.8698730469
 20
161.5622558594
 11
176.2198730469
 21
161.5622558594
  0
INSERT
  5
240
100
AcDbEntity
  8
0
100
AcDbBlockReference
 62
7
  6
CONTINUOUS
  2
_FILLED
 10
96.5698730469
 20
161.5622558594
 41
3.0
 42
3.0
 43
3.0
 50
180.0
  0
INSERT
  5
241
100
AcDbEntity
  8
0
100
AcDbBlockReference
 62
7
  6
CONTINUOUS
  2
_FILLED
 10
255.8698730469
 20
161.5622558594
 41
3.0
 42
3.0
 43
3.0
  0
ENDBLK
  5
242
100
AcDbEntity
  8
0
  6
BYBLOCK
 62
0
100
AcDbBlockEnd
  0
BLOCK
  5
243
100
AcDbEntity
  8
0
100
AcDbBlockBegin
 62
7
  6
CONTINUOUS
  2
*D3
 70
65
 10
0.0
 20
0.0
  3
*D3
  1

  0
LINE
  5
244
100
AcDbEntity
  8
0
100
AcDbLine
 62
7
  6
CONTINUOUS
 10
255.3698730469
 20
151.5622558594
 11
267.4198730469
 21
151.5622558594
  0
LINE
  5
245
100
AcDbEntity
  8
0
100
AcDbLine
 62
7
  6
CONTINUOUS
 10
255.3698730469
 20
61.5622558594
 11
267.4198730469
 21
61.5622558594
  0
LINE
  5
246
100
AcDbEntity
  8
0
100
AcDbLine
 62
7
  6
CONTINUOUS
 10
265.9198730469
 20
151.5622558594
 11
265.9198730469
 21
106.5622558594
  0
LINE
  5
247
100
AcDbEntity
  8
0
100
AcDbLine
 62
7
  6
CONTINUOUS
 10
265.9198730469
 20
61.5622558594
 11
265.9198730469
 21
106.5622558594
  0
INSERT
  5
248
100
AcDbEntity
  8
0
100
AcDbBlockReference
 62
7
  6
CONTINUOUS
  2
_FILLED
 10
265.9198730469
 20
151.5622558594
 41
3.0
 42
3.0
 43
3.0
 50
90.0
  0
INSERT
  5
249
100
AcDbEntity
  8
0
100
AcDbBlockReference
 62
7
  6
CONTINUOUS
  2
_FILLED
 10
265.9198730469
 20
61.5622558594
 41
3.0
 42
3.0
 43
3.0
 50
270.0
  0
ENDBLK
  5
24A
100
AcDbEntity
  8
0
  6
BYBLOCK
 62
0
100
AcDbBlockEnd
  0
ENDSEC
  0
SECTION
  2
ENTITIES
  0
DIMENSION
  5
24B
100
AcDbEntity
  8
0
100
AcDbDimension
 62
7
  6
CONTINUOUS
  2
*D0
 10
53.6408148904
 20
161.5622558594
 11
65.8610136387
 21
161.5622558594
 70
160
 71
1
 72
2
 41
0.9
 42
7.55
  3
DIMSTYLE_1
100
AcDbAlignedDimension
 13
61.1908148904
 23
149.6005661875
 14
53.6408148904
 24
150.5622558594
 50
180.0
100
AcDbRotatedDimension
  0
DIMENSION
  5
24C
100
AcDbEntity
  8
0
100
AcDbDimension
 62
7
  6
CONTINUOUS
  2
*D1
 10
53.6408148904
 20
169.5622558594
 11
65.6908445904
 21
169.5622558594
 70
160
 71
1
 72
2
 41
0.9
 42
10.55
  3
DIMSTYLE_1
100
AcDbAlignedDimension
 13
64.1908148904
 23
132.6085726526
 14
53.6408148904
 24
150.5622558594
 50
180.0
100
AcDbRotatedDimension
  0
DIMENSION
  5
24D
100
AcDbEntity
  8
0
100
AcDbDimension
 62
7
  6
CONTINUOUS
  2
*D2
 10
255.8698730469
 20
161.5622558594
 11
171.1841587612
 21
161.5622558594
 70
160
 71
2
 72
2
 41
0.9
 42
159.3
  3
DIMSTYLE_1
100
AcDbAlignedDimension
 13
96.5698730469
 23
150.5622558594
 14
255.8698730469
 24
150.5622558594
100
AcDbRotatedDimension
  0
DIMENSION
  5
24E
100
AcDbEntity
  8
0
100
AcDbDimension
 62
7
  6
CONTINUOUS
  2
*D3
 10
265.9198730469
 20
61.5622558594
 11
265.9198730469
 21
104.2051130022
 70
160
 71
2
 72
2
 41
0.9
 42
90.0
  3
DIMSTYLE_1
100
AcDbAlignedDimension
 13
254.8698730469
 23
151.5622558594
 14
254.8698730469
 24
61.5622558594
 50
270.0
100
AcDbRotatedDimension
  0
LINE
  5
24F
100
AcDbEntity
  8
SMUSSO
100
AcDbLine
 62
7
  6
CONTINUOUS
 10
96.5698730469
 20
150.5622558594
 11
97.5698730469
 21
151.5622558594
  0
LINE
  5
250
100
AcDbEntity
  8
SMUSSO
100
AcDbLine
 62
7
  6
CONTINUOUS
 10
97.5698730469
 20
61.5622558594
 11
96.5698730469
 21
62.5622558594
  0
LINE
  5
251
100
AcDbEntity
  8
SMUSSO
100
AcDbLine
 62
7
  6
CONTINUOUS
 10
96.5698730469
 20
150.5622558594
 11
96.5698730469
 21
62.5622558594
  0
LINE
  5
252
100
AcDbEntity
  8
SMUSSO
100
AcDbLine
 62
7
  6
CONTINUOUS
 10
97.5698730469
 20
150.5622558594
 11
97.5698730469
 21
62.5622558594
  0
LINE
  5
253
100
AcDbEntity
  8
RACCORDO
100
AcDbLine
 62
7
  6
CONTINUOUS
 10
119.8698730469
 20
127.9622558594
 11
119.8698730469
 21
85.1622558594
  0
LWPOLYLINE
  5
254
100
AcDbEntity
  8
0
100
AcDbPolyline
 62
7
  6
CONTINUOUS
 90
3
 70
0
 43
0.3500000006
 10
171.18415448
 20
164.4551074219
 10
172.0413105469
 20
165.3122634888
 10
172.0413105469
 20
162.3122625732
  0
LWPOLYLINE
  5
255
100
AcDbEntity
  8
0
100
AcDbPolyline
 62
7
  6
CONTINUOUS
 90
5
 70
0
 43
0.3500000006
 10
179.9698727417
 20
164.0265384521
 10
180.3270195923
 20
164.240822937
 10
180.3270195923
 20
164.8836763916
 10
179.9698727417
 20
165.3122634888
 10
179.1127348022
 20
165.3122634888
  0
LINE
  5
256
100
AcDbEntity
  8
SMUSSO
100
AcDbLine
 62
7
  6
CONTINUOUS
 10
97.5698730469
 20
61.5622558594
 11
254.8698730469
 21
61.5622558594
  0
LINE
  5
257
100
AcDbEntity
  8
SMUSSO
100
AcDbLine
 62
7
  6
CONTINUOUS
 10
97.5698730469
 20
62.5622558594
 11
254.8698730469
 21
62.5622558594
  0
LWPOLYLINE
  5
258
100
AcDbEntity
  8
0
100
AcDbPolyline
 62
7
  6
CONTINUOUS
 90
10
 70
0
 43
0.3500000006
 10
175.4698804321
 20
162.3122625732
 10
176.3270183716
 20
163.1694005127
 10
176.5413028564
 20
164.0265384521
 10
176.5413028564
 20
164.8836763916
 10
176.1127338867
 20
165.3122634888
 10
175.4698804321
 20
165.3122634888
 10
175.041293335
 20
164.8836763916
 10
175.041293335
 20
164.0265384521
 10
175.4698804321
 20
163.5979694824
 10
176.3984404907
 20
163.5979694824
  0
LINE
  5
259
100
AcDbEntity
  8
SMUSSO
100
AcDbLine
 62
7
  6
CONTINUOUS
 10
97.5698730469
 20
62.5622558594
 11
97.0698730469
 21
62.0622558594
  0
LWPOLYLINE
  5
25A
100
AcDbEntity
  8
0
100
AcDbPolyline
 62
7
  6
CONTINUOUS
 90
6
 70
0
 10
180.0252281799
 20
80.5385929684
 10
180.0302116325
 20
80.5397933918
 10
180.0352518441
 20
80.5414144391
 10
180.0403488148
 20
80.5434561101
 10
180.0454870276
 20
80.5460055588
 10
180.0506819994
 20
80.5489756312
  0
LWPOLYLINE
  5
25B
100
AcDbEntity
  8
0
100
AcDbPolyline
 62
7
  6
CONTINUOUS
 90
10
 70
0
 10
179.2867932537
 20
81.3237945601
 10
179.3288509295
 20
81.3306897878
 10
179.3701045514
 20
81.3362301228
 10
179.4105541193
 20
81.340415565
 10
179.4498237848
 20
81.3432583411
 10
179.4882893962
 20
81.3447462245
 10
179.5270784996
 20
81.344842535
 10
179.5665669434
 20
81.343535046
 10
179.6063788791
 20
81.3408359841
 10
179.6465143066
 20
81.3367453493
  0
LINE
  5
25C
100
AcDbEntity
  8
0
100
AcDbLine
 62
7
  6
CONTINUOUS
 10
172.6090163539
 20
79.4987402887
 11
173.0136759545
 21
79.4987402887
  0
LINE
  5
25D
100
AcDbEntity
  8
0
100
AcDbLine
 62
7
  6
CONTINUOUS
 10
173.8911899146
 20
79.4987402887
 11
174.3503780842
 21
79.4987402887
  0
LINE
  5
25E
100
AcDbEntity
  8
0
100
AcDbLine
 62
7
  6
CONTINUOUS
 10
174.5975732159
 20
79.4987402887
 11
175.036866053
 21
79.4987402887
  0
LINE
  5
25F
100
AcDbEntity
  8
0
100
AcDbLine
 62
7
  6
CONTINUOUS
 10
175.6746418336
 20
79.4987402887
 11
175.7390421163
 21
79.4987402887
  0
LINE
  5
260
100
AcDbEntity
  8
0
100
AcDbLine
 62
7
  6
CONTINUOUS
 10
176.379358373
 20
79.4987402887
 11
176.8285658763
 21
79.4987402887
  0
LINE
  5
261
100
AcDbEntity
  8
0
100
AcDbLine
 62
7
  6
CONTINUOUS
 10
176.9006703493
 20
79.4987402887
 11
177.3548760429
 21
79.4987402887
  0
LINE
  5
262
100
AcDbEntity
  8
0
100
AcDbLine
 62
7
  6
CONTINUOUS
 10
178.2258748605
 20
79.4987402887
 11
178.7098392194
 21
79.4987402887
  0
LINE
  5
263
100
AcDbEntity
  8
0
100
AcDbLine
 62
7
  6
CONTINUOUS
 10
178.8446791786
 20
79.498739872
 11
179.3020192263
 21
79.498739872
  0
LINE
  5
264
100
AcDbEntity
  8
0
100
AcDbLine
 62
7
  6
CONTINUOUS
 10
180.0052018194
 20
79.498739872
 11
180.4468869938
 21
79.498739872
  0
LINE
  5
265
100
AcDbEntity
  8
0
100
AcDbLine
 62
7
  6
CONTINUOUS
 10
177.4815834657
 20
79.9379011259
 11
178.1069208659
 21
79.9379011259
  0
LINE
  5
266
100
AcDbEntity
  8
RACCORDO
100
AcDbLine
 62
7
  6
CONTINUOUS
 10
180.2984775369
 20
80.0622558594
 11
179.8376027868
 21
80.0622558594
  0
LINE
  5
267
100
AcDbEntity
  8
RACCORDO
100
AcDbLine
 62
7
  6
CONTINUOUS
 10
179.3020192263
 20
80.0622558594
 11
178.8446791786
 21
80.0622558594
  0
LINE
  5
268
100
AcDbEntity
  8
RACCORDO
100
AcDbLine
 62
7
  6
CONTINUOUS
 10
178.5369386059
 20
80.0622558594
 11
177.077424929
 21
80.0622558594
  0
LINE
  5
269
100
AcDbEntity
  8
RACCORDO
100
AcDbLine
 62
7
  6
CONTINUOUS
 10
176.7758708507
 20
80.0622558594
 11
176.3421933005
 21
80.0622558594
  0
LINE
  5
26A
100
AcDbEntity
  8
RACCORDO
100
AcDbLine
 62
7
  6
CONTINUOUS
 10
175.9541251765
 20
80.0622558594
 11
175.463316251
 21
80.0622558594
  0
LINE
  5
26B
100
AcDbEntity
  8
RACCORDO
100
AcDbLine
 62
7
  6
CONTINUOUS
 10
175.0757404057
 20
80.0622558594
 11
174.648455447
 21
80.0622558594
  0
LINE
  5
26C
100
AcDbEntity
  8
RACCORDO
100
AcDbLine
 62
7
  6
CONTINUOUS
 10
174.3503780842
 20
80.0622558594
 11
173.8911899146
 21
80.0622558594
  0
LINE
  5
26D
100
AcDbEntity
  8
RACCORDO
100
AcDbLine
 62
7
  6
CONTINUOUS
 10
173.1948126397
 20
80.0622558594
 11
172.4303708858
 21
80.0622558594
  0
LINE
  5
26E
100
AcDbEntity
  8
0
100
AcDbLine
 62
7
  6
CONTINUOUS
 10
178.0151525843
 20
80.277722539
 11
177.5755129853
 21
80.277722539
  0
LINE
  5
26F
100
AcDbEntity
  8
0
100
AcDbLine
 62
7
  6
CONTINUOUS
 10
179.3020192263
 20
80.3596259298
 11
179.5482246877
 21
80.3596259298
  0
LINE
  5
270
100
AcDbEntity
  8
0
100
AcDbLine
 62
7
  6
CONTINUOUS
 10
179.5492144584
 20
80.7199024642
 11
179.2867932537
 21
80.7199024642
  0
LINE
  5
271
100
AcDbEntity
  8
0
100
AcDbLine
 62
7
  6
CONTINUOUS
 10
172.0516073457
 20
81.2570197387
 11
172.5327253345
 21
81.2570197387
  0
LINE
  5
272
100
AcDbEntity
  8
0
100
AcDbLine
 62
7
  6
CONTINUOUS
 10
173.1359018665
 20
81.2570197387
 11
173.5788580503
 21
81.2570197387
  0
LINE
  5
273
100
AcDbEntity
  8
0
100
AcDbLine
 62
7
  6
CONTINUOUS
 10
173.8911899146
 20
81.2570197387
 11
174.3503780842
 21
81.2570197387
  0
LINE
  5
274
100
AcDbEntity
  8
0
100
AcDbLine
 62
7
  6
CONTINUOUS
 10
174.7563357879
 20
81.2570197387
 11
175.4192620218
 21
81.2570197387
  0
LINE
  5
275
100
AcDbEntity
  8
0
100
AcDbLine
 62
7
  6
CONTINUOUS
 10
176.0025338324
 20
81.2570197387
 11
176.6641470287
 21
81.2570197387
  0
LINE
  5
276
100
AcDbEntity
  8
0
100
AcDbLine
 62
7
  6
CONTINUOUS
 10
177.4521794139
 20
81.2570197387
 11
178.1703552879
 21
81.2570197387
  0
LINE
  5
277
100
AcDbEntity
  8
0
100
AcDbLine
 62
7
  6
CONTINUOUS
 10
178.8446791786
 20
81.2570197387
 11
179.2867932537
 21
81.2570197387
  0
LINE
  5
278
100
AcDbEntity
  8
0
100
AcDbLine
 62
7
  6
CONTINUOUS
 10
179.8217209834
 20
81.2570197387
 11
180.3148889409
 21
81.2570197387
  0
LINE
  5
279
100
AcDbEntity
  8
0
100
AcDbLine
 62
7
  6
CONTINUOUS
 10
178.0348813453
 20
81.6985547601
 11
177.5906730798
 21
81.6985547601
  0
LINE
  5
27A
100
AcDbEntity
  8
0
100
AcDbLine
 62
7
  6
CONTINUOUS
 10
176.6228585524
 20
81.6985547601
 11
176.1685376206
 21
81.6985547601
  0
LINE
  5
27B
100
AcDbEntity
  8
0
100
AcDbLine
 62
7
  6
CONTINUOUS
 10
175.2550117574
 20
81.6985547601
 11
174.7962038735
 21
81.6985547601
  0
LINE
  5
27C
100
AcDbEntity
  8
0
100
AcDbLine
 62
7
  6
CONTINUOUS
 10
173.7207852557
 20
81.6985547601
 11
173.2619103242
 21
81.6985547601
  0
LINE
  5
27D
100
AcDbEntity
  8
0
100
AcDbLine
 62
7
  6
CONTINUOUS
 10
172.4104516962
 20
81.6985547601
 11
171.9116320998
 21
81.6985547601
  0
LINE
  5
27E
100
AcDbEntity
  8
0
100
AcDbLine
 62
7
  6
CONTINUOUS
 10
174.3503780842
 20
81.6986867601
 11
173.8911899146
 21
81.6986867601
  0
LWPOLYLINE
  5
27F
100
AcDbEntity
  8
0
100
AcDbPolyline
 62
7
  6
CONTINUOUS
 90
16
 70
0
 10
179.5482246877
 20
80.3596259298
 10
179.5708651522
 20
80.3585923095
 10
179.5928328616
 20
80.3558582375
 10
179.6141278159
 20
80.3514237136
 10
179.6348261121
 20
80.3452600583
 10
179.6548516532
 20
80.3373959512
 10
179.6739761475
 20
80.3279174316
 10
179.6921103736
 20
80.3168972353
 10
179.709343553
 20
80.3042626266
 10
179.7257150583
 20
80.289881437
 10
179.7412975231
 20
80.2737324989
 10
179.7560183139
 20
80.2558369799
 10
179.7696989031
 20
80.2361262138
 10
179.7822797814
 20
80.2145773119
 10
179.7938204582
 20
80.191213163
 10
179.8043209334
 20
80.1660337669
  0
LWPOLYLINE
  5
280
100
AcDbEntity
  8
0
100
AcDbPolyline
 62
7
  6
CONTINUOUS
 90
19
 70
0
 10
179.6465143066
 20
81.3367453493
 10
179.6717517259
 20
81.3326437109
 10
179.6959698695
 20
81.3269444599
 10
179.7191687374
 20
81.3196475963
 10
179.7414746017
 20
81.3106473659
 10
179.7627611903
 20
81.3000495229
 10
179.7826496873
 20
81.2881713305
 10
179.8010158586
 20
81.2751075481
 10
179.8179839382
 20
81.2607634162
 10
179.8335478129
 20
81.2451719196
 10
179.8477325897
 20
81.2282615862
 10
179.8605131616
 20
81.210103888
 10
179.8718080939
 20
81.190946226
 10
179.8816755601
 20
81.1706428741
 10
179.8900573867
 20
81.1493395582
 10
179.8966976191
 20
81.1277208577
 10
179.901510939
 20
81.1060149655
 10
179.9045826646
 20
81.0839936885
 10
179.9059127959
 20
81.0616570268
  0
LINE
  5
281
100
AcDbEntity
  8
SMUSSO
100
AcDbLine
 62
7
  6
CONTINUOUS
 10
97.0698730469
 20
151.0622558594
 11
97.5698730469
 21
150.5622558594
  0
LINE
  5
282
100
AcDbEntity
  8
RACCORDO
100
AcDbLine
 62
7
  6
CONTINUOUS
 10
121.0698730469
 20
83.9622558594
 11
231.3698730469
 21
83.9622558594
  0
LWPOLYLINE
  5
283
100
AcDbEntity
  8
0
100
AcDbPolyline
 62
7
  6
CONTINUOUS
 90
16
 70
0
 10
179.9778841481
 20
81.6496930589
 10
179.9218378139
 20
81.6678426905
 10
179.8627988635
 20
81.6833850882
 10
179.8007672969
 20
81.6963202517
 10
179.7356120486
 20
81.7065414205
 10
179.6674641841
 20
81.7141553553
 10
179.5967168995
 20
81.7194823381
 10
179.5234913872
 20
81.7225482151
 10
179.4476664548
 20
81.7233271402
 10
179.3692717217
 20
81.7220618578
 10
179.2883288227
 20
81.7188026754
 10
179.204816123
 20
81.7134992856
 10
179.1186983373
 20
81.7062435102
 10
179.0299637038
 20
81.6970659567
 10
178.9386239842
 20
81.6859360177
 10
178.8446791786
 20
81.6728536932
  0
LWPOLYLINE
  5
284
100
AcDbEntity
  8
0
100
AcDbPolyline
 62
7
  6
CONTINUOUS
 90
3
 70
0
 43
0.3500000006
 10
178.1127344971
 20
162.5979691772
 10
178.0412942505
 20
162.3836846924
 10
177.8984500122
 20
162.0979780884
  0
LINE
  5
285
100
AcDbEntity
  8
0
100
AcDbLine
 62
7
  6
CONTINUOUS
 10
171.9116320998
 20
81.6985547601
 11
172.6090163539
 21
79.4987402887
  0
LINE
  5
286
100
AcDbEntity
  8
0
100
AcDbLine
 62
7
  6
CONTINUOUS
 10
175.1359592866
 20
80.9351778424
 11
175.6746418336
 21
79.4987402887
  0
LINE
  5
287
100
AcDbEntity
  8
0
100
AcDbLine
 62
7
  6
CONTINUOUS
 10
175.709349451
 20
80.4772111966
 11
175.2550117574
 21
81.6985547601
  0
LINE
  5
288
100
AcDbEntity
  8
0
100
AcDbLine
 62
7
  6
CONTINUOUS
 10
178.7098392194
 20
79.4987402887
 11
178.0348813453
 21
81.6985547601
  0
LINE
  5
289
100
AcDbEntity
  8
0
100
AcDbLine
 62
7
  6
CONTINUOUS
 10
172.8297769153
 20
80.1843545432
 11
172.4104516962
 21
81.6985547601
  0
LINE
  5
28A
100
AcDbEntity
  8
0
100
AcDbLine
 62
7
  6
CONTINUOUS
 10
176.8285658763
 20
79.4987402887
 11
176.6228585524
 21
81.6985547601
  0
LINE
  5
28B
100
AcDbEntity
  8
0
100
AcDbLine
 62
7
  6
CONTINUOUS
 10
176.2850171392
 20
80.9291896522
 11
176.379358373
 21
79.4987402887
  0
LINE
  5
28C
100
AcDbEntity
  8
0
100
AcDbLine
 62
7
  6
CONTINUOUS
 10
173.8911899146
 20
81.6986867601
 11
173.8911899146
 21
79.4987402887
  0
LINE
  5
28D
100
AcDbEntity
  8
0
100
AcDbLine
 62
7
  6
CONTINUOUS
 10
174.3503780842
 20
79.4987402887
 11
174.3503780842
 21
81.6986867601
  0
LINE
  5
28E
100
AcDbEntity
  8
0
100
AcDbLine
 62
7
  6
CONTINUOUS
 10
175.036866053
 20
79.4987402887
 11
175.1359592866
 21
80.9351778424
  0
LINE
  5
28F
100
AcDbEntity
  8
0
100
AcDbLine
 62
7
  6
CONTINUOUS
 10
174.7962038735
 20
81.6985547601
 11
174.5975732159
 21
79.4987402887
  0
LWPOLYLINE
  5
290
100
AcDbEntity
  8
0
100
AcDbPolyline
 62
7
  6
CONTINUOUS
 90
13
 70
0
 43
0.3500000006
 10
264.3127245483
 20
106.5622591553
 10
263.0270176392
 20
106.5622591553
 10
262.5984486694
 20
106.7765436401
 10
262.1698796997
 20
107.2051126099
 10
262.1698796997
 20
107.4193970947
 10
262.5984486694
 20
107.8479660645
 10
263.0270176392
 20
108.062259613
 10
264.3127245483
 20
108.062259613
 10
264.7412935181
 20
107.8479660645
 10
265.1698806152
 20
107.4193970947
 10
265.1698806152
 20
107.2051126099
 10
264.7412935181
 20
106.7765436401
 10
264.3127245483
 20
106.5622591553
  0
LWPOLYLINE
  5
291
100
AcDbEntity
  8
0
100
AcDbPolyline
 62
7
  6
CONTINUOUS
 90
5
 70
0
 10
179.8043209334
 20
80.1660337669
 10
179.8257521278
 20
80.0997103341
 10
179.8473455597
 20
80.0314634421
 10
179.8691012289
 20
79.9612930908
 10
179.8909391507
 20
79.8892414458
  0
LINE
  5
292
100
AcDbEntity
  8
0
100
AcDbLine
 62
7
  6
CONTINUOUS
 10
179.8909391507
 20
79.8892414458
 11
179.9582261886
 21
79.6611241009
  0
LINE
  5
293
100
AcDbEntity
  8
0
100
AcDbLine
 62
7
  6
CONTINUOUS
 10
179.9582261886
 20
79.6611241009
 11
180.0052018194
 21
79.498739872
  0
LINE
  5
294
100
AcDbEntity
  8
0
100
AcDbLine
 62
7
  6
CONTINUOUS
 10
178.1069208659
 20
79.9379011259
 11
178.2258748605
 21
79.4987402887
  0
LINE
  5
295
100
AcDbEntity
  8
0
100
AcDbLine
 62
7
  6
CONTINUOUS
 10
180.3439759565
 20
79.8914712011
 11
180.2899419925
 21
80.09401666
  0
LWPOLYLINE
  5
296
100
AcDbEntity
  8
0
100
AcDbPolyline
 62
7
  6
CONTINUOUS
 90
19
 70
0
 10
180.2899419925
 20
80.09401666
 10
180.280447621
 20
80.1301867136
 10
180.270545556
 20
80.1652549273
 10
180.2602357975
 20
80.199221301
 10
180.2496357968
 20
80.2321862706
 10
180.2386281026
 20
80.2640494003
 10
180.2268603608
 20
80.2945093828
 10
180.2142588352
 20
80.3235708717
 10
180.200897262
 20
80.3512292134
 10
180.1866444958
 20
80.3771691402
 10
180.1714262559
 20
80.4013628651
 10
180.155316823
 20
80.423838175
 10
180.1384078941
 20
80.4443631625
 10
180.1205492983
 20
80.4628789891
 10
180.1018912065
 20
80.4794444933
 10
180.0829758278
 20
80.4940042837
 10
180.0639838987
 20
80.5065398963
 10
180.0447346827
 20
80.517069795
 10
180.0252281799
 20
80.5255939799
  0
LINE
  5
297
100
AcDbEntity
  8
0
100
AcDbLine
 62
7
  6
CONTINUOUS
 10
180.4468869938
 20
79.498739872
 11
180.3439759565
 21
79.8914712011
  0
LINE
  5
298
100
AcDbEntity
  8
0
100
AcDbLine
 62
7
  6
CONTINUOUS
 10
177.8041495463
 20
81.0941016447
 11
178.0151525843
 21
80.277722539
  0
LINE
  5
299
100
AcDbEntity
  8
0
100
AcDbLine
 62
7
  6
CONTINUOUS
 10
178.8446791786
 20
81.6728536932
 11
178.8446791786
 21
79.498739872
  0
LINE
  5
29A
100
AcDbEntity
  8
0
100
AcDbLine
 62
7
  6
CONTINUOUS
 10
179.2867932537
 20
80.7199024642
 11
179.2867932537
 21
81.3237945601
  0
LINE
  5
29B
100
AcDbEntity
  8
0
100
AcDbLine
 62
7
  6
CONTINUOUS
 10
179.3020192263
 20
79.498739872
 11
179.3020192263
 21
80.3596259298
  0
LINE
  5
29C
100
AcDbEntity
  8
0
100
AcDbLine
 62
7
  6
CONTINUOUS
 10
180.0252281799
 20
80.5255939799
 11
180.0252281799
 21
80.5385929684
  0
LWPOLYLINE
  5
29D
100
AcDbEntity
  8
0
100
AcDbPolyline
 62
7
  6
CONTINUOUS
 90
22
 70
0
 10
179.9059127959
 20
81.0616570268
 10
179.9055751147
 20
81.0303950362
 10
179.9034125544
 20
81.000615987
 10
179.899425115
 20
80.972319879
 10
179.8935862372
 20
80.9454927072
 10
179.8859224804
 20
80.9201484766
 10
179.876513523
 20
80.8963292027
 10
179.865297062
 20
80.8740469668
 10
179.8523354004
 20
80.8532896875
 10
179.837895126
 20
80.8340631357
 10
179.8220727203
 20
80.8163699724
 10
179.8047717018
 20
80.8002075365
 10
179.7859692136
 20
80.7855736161
 10
179.7656817922
 20
80.7725070877
 10
179.7438929012
 20
80.7609690747
 10
179.7205300745
 20
80.7508407349
 10
179.6954929002
 20
80.7420651835
 10
179.6688817901
 20
80.7346993054
 10
179.640925514
 20
80.7287949131
 10
179.6117003282
 20
80.7243692776
 10
179.5811299764
 20
80.721405128
 10
179.5492144584
 20
80.7199024642
  0
LINE
  5
29E
100
AcDbEntity
  8
0
100
AcDbLine
 62
7
  6
CONTINUOUS
 10
173.2619103242
 20
81.6985547601
 11
172.8297769153
 21
80.1843545432
  0
LINE
  5
29F
100
AcDbEntity
  8
0
100
AcDbLine
 62
7
  6
CONTINUOUS
 10
173.0136759545
 20
79.4987402887
 11
173.7207852557
 21
81.6985547601
  0
LINE
  5
2A0
100
AcDbEntity
  8
0
100
AcDbLine
 62
7
  6
CONTINUOUS
 10
177.5755129853
 20
80.277722539
 11
177.8041495463
 21
81.0941016447
  0
LINE
  5
2A1
100
AcDbEntity
  8
0
100
AcDbLine
 62
7
  6
CONTINUOUS
 10
177.3548760429
 20
79.4987402887
 11
177.4815834657
 21
79.9379011259
  0
LINE
  5
2A2
100
AcDbEntity
  8
0
100
AcDbLine
 62
7
  6
CONTINUOUS
 10
177.5906730798
 20
81.6985547601
 11
176.9006703493
 21
79.4987402887
  0
LINE
  5
2A3
100
AcDbEntity
  8
0
100
AcDbLine
 62
7
  6
CONTINUOUS
 10
176.1685376206
 20
81.6985547601
 11
175.709349451
 21
80.4772111966
  0
LINE
  5
2A4
100
AcDbEntity
  8
0
100
AcDbLine
 62
7
  6
CONTINUOUS
 10
175.7390421163
 20
79.4987402887
 11
176.2850171392
 21
80.9291896522
  0
LINE
  5
2A5
100
AcDbEntity
  8
SMUSSO
100
AcDbLine
 62
7
  6
CONTINUOUS
 10
255.3698730469
 20
151.0622558594
 11
254.8698730469
 21
150.5622558594
  0
LWPOLYLINE
  5
2A6
100
AcDbEntity
  8
0
100
AcDbPolyline
 62
7
  6
CONTINUOUS
 90
70
 70
0
 10
180.0506819994
 20
80.5489756312
 10
180.0613964122
 20
80.5552998608
 10
180.0669158533
 20
80.5586540179
 10
180.0725415401
 20
80.562186087
 10
180.0782745967
 20
80.5658848769
 10
180.0841138991
 20
80.5697615788
 10
180.0900590112
 20
80.5738685157
 10
180.0961159807
 20
80.5782173274
 10
180.10227876
 20
80.582796374
 10
180.108528769
 20
80.5876230589
 10
180.1148598843
 20
80.592697351
 10
180.1212782295
 20
80.5980192812
 10
180.1277835955
 20
80.6036063461
 10
180.134380788
 20
80.6094616326
 10
180.1410650014
 20
80.6155820538
 10
180.1478216096
 20
80.6219758452
 10
180.1546517266
 20
80.6286352363
 10
180.1615542385
 20
80.6355679977
 10
180.1685111762
 20
80.6428056768
 10
180.1755220773
 20
80.6503419724
 10
180.1825874043
 20
80.6581831856
 10
180.1896905764
 20
80.6663797673
 10
180.1968333564
 20
80.6749280097
 10
180.2040139815
 20
80.6838316204
 10
180.2112105825
 20
80.6931521735
 10
180.2184273488
 20
80.7028874656
 10
180.225660091
 20
80.7130396999
 10
180.232874372
 20
80.7236770599
 10
180.2400776499
 20
80.7347989917
 10
180.2472624665
 20
80.7464060491
 10
180.2543720102
 20
80.7585680774
 10
180.2614140937
 20
80.7712858678
 10
180.2683809043
 20
80.7845586291
 10
180.2751921924
 20
80.7984538329
 10
180.2818566252
 20
80.8129715271
 10
180.2883655355
 20
80.8281116638
 10
180.2946126715
 20
80.8439415706
 10
180.3006050618
 20
80.8604644452
 10
180.3063356779
 20
80.8776770899
 10
180.3116771821
 20
80.895637239
 10
180.316636758
 20
80.9143544192
 10
180.3212072221
 20
80.9338191037
 10
180.3252396862
 20
80.9540604464
 10
180.3287363454
 20
80.9750716989
 10
180.3316950045
 20
80.9968596096
 10
180.33396019
 20
81.0194735768
 10
180.3355484851
 20
81.0428877819
 10
180.3364433065
 20
81.0671280436
 10
180.3364394302
 20
81.0923212159
 10
180.3356171565
 20
81.1184931436
 10
180.3338961851
 20
81.145617982
 10
180.3308303908
 20
81.1737450513
 10
180.326467943
 20
81.2029965006
 10
180.3207606723
 20
81.2332501808
 10
180.3131179458
 20
81.2641889651
 10
180.3034892622
 20
81.2959466618
 10
180.2919251228
 20
81.3283894627
 10
180.2779863973
 20
81.3607988164
 10
180.2614490385
 20
81.3933232534
 10
180.2425370935
 20
81.4258142433
 10
180.2214835747
 20
81.4571076437
 10
180.1980124161
 20
81.4871425088
 10
180.1723996835
 20
81.5159797844
 10
180.145706587
 20
81.5426381662
 10
180.1178090349
 20
81.566982257
 10
180.0888311188
 20
81.5891474539
 10
180.0602063236
 20
81.6085586438
 10
180.0324124776
 20
81.6250241225
 10
180.0049717524
 20
81.6387355941
 10
179.9778841481
 20
81.6496930589
  0
LINE
  5
2A7
100
AcDbEntity
  8
RACCORDO
100
AcDbLine
 62
7
  6
CONTINUOUS
 10
231.3698730469
 20
129.1622558594
 11
121.0698730469
 21
129.1622558594
  0
LINE
  5
2A8
100
AcDbEntity
  8
SMUSSO
100
AcDbLine
 62
7
  6
CONTINUOUS
 10
255.3698730469
 20
62.0622558594
 11
254.8698730469
 21
62.5622558594
  0
LWPOLYLINE
  5
2A9
100
AcDbEntity
  8
0
100
AcDbPolyline
 62
7
  6
CONTINUOUS
 90
10
 70
0
 43
0.3500000006
 10
178.0412942505
 20
162.8122536621
 10
178.1127344971
 20
162.6693912964
 10
178.1127344971
 20
162.5979691772
 10
177.9698721313
 20
162.4551068115
 10
177.8984500122
 20
162.4551068115
 10
177.8270097656
 20
162.5265470581
 10
177.8270097656
 20
162.5979691772
 10
177.8984500122
 20
162.740831543
 10
177.9698721313
 20
162.8122536621
 10
178.0412942505
 20
162.8122536621
  0
LINE
  5
2AA
100
AcDbEntity
  8
SMUSSO
100
AcDbLine
 62
7
  6
CONTINUOUS
 10
254.8698730469
 20
150.5622558594
 11
97.5698730469
 21
150.5622558594
  0
LINE
  5
2AB
100
AcDbEntity
  8
SMUSSO
100
AcDbLine
 62
7
  6
CONTINUOUS
 10
254.8698730469
 20
151.5622558594
 11
97.5698730469
 21
151.5622558594
  0
LINE
  5
2AC
100
AcDbEntity
  8
RACCORDO
100
AcDbLine
 62
7
  6
CONTINUOUS
 10
232.5698730469
 20
85.1622558594
 11
232.5698730469
 21
127.9622558594
  0
LWPOLYLINE
  5
2AD
100
AcDbEntity
  8
0
100
AcDbPolyline
 62
7
  6
CONTINUOUS
 90
8
 70
0
 43
0.3500000006
 10
172.8984484863
 20
162.3122625732
 10
173.7555864258
 20
162.3122625732
 10
174.1841553955
 20
162.740831543
 10
174.1841553955
 20
163.5979694824
 10
173.7555864258
 20
164.0265384521
 10
172.8984484863
 20
164.0265384521
 10
172.8984484863
 20
165.3122634888
 10
174.1841553955
 20
165.3122634888
  0
LWPOLYLINE
  5
2AE
100
AcDbEntity
  8
0
100
AcDbPolyline
 62
7
  6
CONTINUOUS
 90
6
 70
0
 43
0.3500000006
 10
179.1127348022
 20
162.3122625732
 10
180.1841572266
 20
162.3122625732
 10
180.3984417114
 20
162.5265470581
 10
180.3984417114
 20
163.5979694824
 10
179.9698727417
 20
164.0265384521
 10
179.541303772
 20
164.0265384521
  0
LWPOLYLINE
  5
2AF
100
AcDbEntity
  8
0
100
AcDbPolyline
 62
7
  6
CONTINUOUS
 90
10
 70
0
 43
0.3500000006
 10
265.1698806152
 20
104.6336806641
 10
264.3127245483
 20
105.4908276672
 10
263.4555866089
 20
105.7051121521
 10
262.5984486694
 20
105.7051121521
 10
262.1698796997
 20
105.2765431824
 10
262.1698796997
 20
104.6336806641
 10
262.5984486694
 20
104.2051116943
 10
263.4555866089
 20
104.2051116943
 10
263.8841555786
 20
104.6336806641
 10
263.8841555786
 20
105.5622588501
  0
LINE
  5
2B0
100
AcDbEntity
  8
SMUSSO
100
AcDbLine
 62
7
  6
CONTINUOUS
 10
254.8698730469
 20
62.5622558594
 11
254.8698730469
 21
150.5622558594
  0
LINE
  5
2B1
100
AcDbEntity
  8
SMUSSO
100
AcDbLine
 62
7
  6
CONTINUOUS
 10
255.8698730469
 20
62.5622558594
 11
255.8698730469
 21
150.5622558594
  0
LINE
  5
2B2
100
AcDbEntity
  8
SMUSSO
100
AcDbLine
 62
7
  6
CONTINUOUS
 10
255.8698730469
 20
62.5622558594
 11
254.8698730469
 21
61.5622558594
  0
LINE
  5
2B3
100
AcDbEntity
  8
SMUSSO
100
AcDbLine
 62
7
  6
CONTINUOUS
 10
254.8698730469
 20
151.5622558594
 11
255.8698730469
 21
150.5622558594
  0
LINE
  5
2B4
100
AcDbEntity
  8
SMUSSO
100
AcDbLine
 62
7
  6
CONTINUOUS
 10
54.6408148904
 20
61.5622558594
 11
56.1408148904
 21
61.5622558594
  0
LINE
  5
2B5
100
AcDbEntity
  8
0
100
AcDbLine
 62
250
  6
CONTINUOUS
 10
59.6918585357
 20
63.2218491527
 11
61.1908148904
 21
63.5239455312
  0
LINE
  5
2B6
100
AcDbEntity
  8
0
100
AcDbLine
 62
7
  6
CONTINUOUS
 10
56.7908148904
 20
62.2116361711
 11
59.6908148904
 21
62.2622558594
  0
LINE
  5
2B7
100
AcDbEntity
  8
SMUSSO
100
AcDbLine
 62
7
  6
CONTINUOUS
 10
54.6408148904
 20
62.5622558594
 11
56.1408148904
 21
62.5622558594
  0
LINE
  5
2B8
100
AcDbEntity
  8
0
100
AcDbLine
 62
250
  6
CONTINUOUS
 10
56.7908148904
 20
63.2622558594
 11
59.6908148904
 21
63.2622558594
  0
LWPOLYLINE
  5
2B9
100
AcDbEntity
  8
0
100
AcDbPolyline
 62
7
  6
CONTINUOUS
 90
3
 70
0
 43
0.3500000006
 10
65.6908430328
 20
172.4551098633
 10
66.5479855042
 20
173.3122478027
 10
66.5479855042
 20
170.3122468872
  0
LINE
  5
2BA
100
AcDbEntity
  8
RACCORDO
100
AcDbLine
 62
7
  6
CONTINUOUS
 10
56.6408148904
 20
66.5622558594
 11
56.7908148904
 21
66.5622558594
  0
LINE
  5
2BB
100
AcDbEntity
  8
RACCORDO
100
AcDbLine
 62
250
  6
CONTINUOUS
 10
56.6408148904
 20
67.5622558594
 11
56.7908148904
 21
67.5622558594
  0
LINE
  5
2BC
100
AcDbEntity
  8
SMUSSO
100
AcDbLine
 62
7
  6
CONTINUOUS
 10
54.6408148904
 20
151.5622558594
 11
53.6408148904
 21
150.5622558594
  0
LINE
  5
2BD
100
AcDbEntity
  8
SMUSSO
100
AcDbLine
 62
7
  6
CONTINUOUS
 10
56.1408148904
 20
150.5622558594
 11
56.6408148904
 21
151.0622558594
  0
LINE
  5
2BE
100
AcDbEntity
  8
SMUSSO
100
AcDbLine
 62
7
  6
CONTINUOUS
 10
54.6408148904
 20
61.5622558594
 11
53.6408148904
 21
62.5622558594
  0
LINE
  5
2BF
100
AcDbEntity
  8
SMUSSO
100
AcDbLine
 62
7
  6
CONTINUOUS
 10
56.6408148904
 20
62.0622558594
 11
56.1408148904
 21
62.5622558594
  0
LINE
  5
2C0
100
AcDbEntity
  8
0
100
AcDbLine
 62
7
  6
CONTINUOUS
 10
62.1166520508
 20
79.4121264207
 11
61.1908148904
 21
79.4105105284
  0
LINE
  5
2C1
100
AcDbEntity
  8
0
100
AcDbLine
 62
250
  6
CONTINUOUS
 10
62.1165874742
 20
79.6345766155
 11
61.1908148904
 21
79.6341584209
  0
LINE
  5
2C2
100
AcDbEntity
  8
0
100
AcDbLine
 62
7
  6
CONTINUOUS
 10
63.6408641226
 20
80.220691999
 11
61.1908148904
 21
80.2064380296
  0
LINE
  5
2C3
100
AcDbEntity
  8
0
100
AcDbLine
 62
250
  6
CONTINUOUS
 10
63.6408641226
 20
80.3085584777
 11
61.1908148904
 21
80.2943045082
  0
LINE
  5
2C4
100
AcDbEntity
  8
0
100
AcDbLine
 62
7
  6
CONTINUOUS
 10
62.1409392693
 20
81.3622558594
 11
61.1908148904
 21
81.3622558594
  0
LINE
  5
2C5
100
AcDbEntity
  8
0
100
AcDbLine
 62
7
  6
CONTINUOUS
 10
61.1908148904
 20
81.5122558594
 11
61.3408148904
 21
81.5122558594
  0
LINE
  5
2C6
100
AcDbEntity
  8
0
100
AcDbLine
 62
7
  6
CONTINUOUS
 10
61.6408148904
 20
81.5122558594
 11
61.8408148904
 21
81.5122558594
  0
LINE
  5
2C7
100
AcDbEntity
  8
0
100
AcDbLine
 62
7
  6
CONTINUOUS
 10
61.1908148904
 20
80.8064359848
 11
64.0012820817
 21
80.6822691917
  0
LINE
  5
2C8
100
AcDbEntity
  8
0
100
AcDbLine
 62
7
  6
CONTINUOUS
 10
62.2404429883
 20
81.3572930496
 11
64.1908148904
 21
81.1622558594
  0
LWPOLYLINE
  5
2C9
100
AcDbEntity
  8
0
100
AcDbPolyline
 62
250
  6
CONTINUOUS
 90
4
 70
0
 10
63.6804877039
 20
132.8481851292
 10
63.6674122127
 20
132.8387211124
 10
63.6541799509
 20
132.8279573212
 10
63.6408641226
 20
132.8159532411
  0
LWPOLYLINE
  5
2CA
100
AcDbEntity
  8
0
100
AcDbPolyline
 62
250
  6
CONTINUOUS
 90
4
 70
0
 10
63.6804978791
 20
80.2763196907
 10
63.667420123
 20
80.2857845244
 10
63.6541844598
 20
80.2965505307
 10
63.6408641226
 20
80.3085584777
  0
LINE
  5
2CB
100
AcDbEntity
  8
0
100
AcDbLine
 62
7
  6
CONTINUOUS
 10
61.3408148904
 20
131.6122558594
 11
61.4908148904
 21
131.7622558594
  0
LINE
  5
2CC
100
AcDbEntity
  8
0
100
AcDbLine
 62
7
  6
CONTINUOUS
 10
61.8408148904
 20
131.6122558594
 11
61.9908148904
 21
131.7622558594
  0
LINE
  5
2CD
100
AcDbEntity
  8
0
100
AcDbLine
 62
7
  6
CONTINUOUS
 10
61.3408148904
 20
81.5122558594
 11
61.4908148904
 21
81.3622558594
  0
LINE
  5
2CE
100
AcDbEntity
  8
0
100
AcDbLine
 62
7
  6
CONTINUOUS
 10
61.8408148904
 20
81.5122558594
 11
61.9908148904
 21
81.3622558594
  0
LWPOLYLINE
  5
2CF
100
AcDbEntity
  8
0
100
AcDbPolyline
 62
250
  6
CONTINUOUS
 90
9
 70
0
 10
62.2100929035
 20
79.4885084204
 10
62.2174897121
 20
79.4791005378
 10
62.2246821524
 20
79.470490495
 10
62.2315993503
 20
79.4628435792
 10
62.2380821449
 20
79.4564223935
 10
62.2439434151
 20
79.4514883437
 10
62.2490618391
 20
79.4482160763
 10
62.2533561244
 20
79.4467481893
 10
62.2567211241
 20
79.4472400633
  0
LWPOLYLINE
  5
2D0
100
AcDbEntity
  8
0
100
AcDbPolyline
 62
7
  6
CONTINUOUS
 90
3
 70
0
 43
0.3500000006
 10
70.4765600739
 20
170.5979716187
 10
70.405128891
 20
170.3836871338
 10
70.2622710571
 20
170.0979624023
  0
LWPOLYLINE
  5
2D1
100
AcDbEntity
  8
0
100
AcDbPolyline
 62
250
  6
CONTINUOUS
 90
19
 70
0
 10
62.1165874742
 20
133.4899351033
 10
62.1250457791
 20
133.5046152395
 10
62.1335879716
 20
133.5191901645
 10
62.1421821262
 20
133.5335936282
 10
62.1507313326
 20
133.5476592508
 10
62.1592635401
 20
133.5614188762
 10
62.1679213424
 20
133.575065181
 10
62.1766594968
 20
133.5884884747
 10
62.1854072045
 20
133.6015494479
 10
62.1942339125
 20
133.6143043239
 10
62.2030921518
 20
133.6266181867
 10
62.2118182025
 20
133.6381906158
 10
62.2202757344
 20
133.648766581
 10
62.2283840129
 20
133.6581525237
 10
62.2359372427
 20
133.6660137977
 10
62.2426518191
 20
133.6719897551
 10
62.2483920916
 20
133.675920095
 10
62.253112197
 20
133.6777192759
 10
62.2567211241
 20
133.6772716554
  0
LWPOLYLINE
  5
2D2
100
AcDbEntity
  8
0
100
AcDbPolyline
 62
250
  6
CONTINUOUS
 90
14
 70
0
 10
62.1165874742
 20
79.6345766155
 10
62.1231708083
 20
79.6231125484
 10
62.1298825498
 20
79.6115799336
 10
62.136706696
 20
79.6000172908
 10
62.1435880985
 20
79.5885252888
 10
62.150544856
 20
79.5770865035
 10
62.1576643797
 20
79.5655816609
 10
62.1649322127
 20
79.5540590876
 10
62.1723000992
 20
79.5426162034
 10
62.1797910611
 20
79.531244671
 10
62.1873592714
 20
79.5200466104
 10
62.1949493187
 20
79.5091387933
 10
62.2025506982
 20
79.4985772362
 10
62.2100929035
 20
79.4885084204
  0
LWPOLYLINE
  5
2D3
100
AcDbEntity
  8
0
100
AcDbPolyline
 62
7
  6
CONTINUOUS
 90
3
 70
0
 43
0.3500000006
 10
68.9324419556
 20
162.5979691772
 10
68.8610153046
 20
162.3836846924
 10
68.7181574707
 20
162.0979780884
  0
LWPOLYLINE
  5
2D4
100
AcDbEntity
  8
0
100
AcDbPolyline
 62
7
  6
CONTINUOUS
 90
7
 70
0
 10
64.1629559754
 20
80.5856941419
 10
64.17119316
 20
80.5716906636
 10
64.1780945393
 20
80.5586382383
 10
64.1835765366
 20
80.5465368659
 10
64.1875647547
 20
80.5353865464
 10
64.1899951036
 20
80.5251872798
 10
64.1908148904
 20
80.5159390662
  0
LINE
  5
2D5
100
AcDbEntity
  8
SMUSSO
100
AcDbLine
 62
7
  6
CONTINUOUS
 10
53.6408148904
 20
62.5622558594
 11
53.6408148904
 21
150.5622558594
  0
LINE
  5
2D6
100
AcDbEntity
  8
SMUSSO
100
AcDbLine
 62
7
  6
CONTINUOUS
 10
54.6408148904
 20
62.5622558594
 11
54.6408148904
 21
150.5622558594
  0
LINE
  5
2D7
100
AcDbEntity
  8
SMUSSO
100
AcDbLine
 62
7
  6
CONTINUOUS
 10
56.1408148904
 20
150.5622558594
 11
56.1408148904
 21
62.5622558594
  0
LINE
  5
2D8
100
AcDbEntity
  8
0
100
AcDbLine
 62
7
  6
CONTINUOUS
 10
59.6978804424
 20
63.0986594984
 11
59.6918585357
 21
63.2218491527
  0
LINE
  5
2D9
100
AcDbEntity
  8
0
100
AcDbLine
 62
7
  6
CONTINUOUS
 10
59.7029799254
 20
62.9774937893
 11
59.6978804424
 21
63.0986594984
  0
LINE
  5
2DA
100
AcDbEntity
  8
0
100
AcDbLine
 62
7
  6
CONTINUOUS
 10
59.7071106206
 20
62.8605387406
 11
59.7029799254
 21
62.9774937893
  0
LINE
  5
2DB
100
AcDbEntity
  8
SMUSSO
100
AcDbLine
 62
7
  6
CONTINUOUS
 10
56.6408148904
 20
151.0622558594
 11
56.6408148904
 21
62.0622558594
  0
LINE
  5
2DC
100
AcDbEntity
  8
0
100
AcDbLine
 62
7
  6
CONTINUOUS
 10
56.7908148904
 20
62.2116361711
 11
56.7908148904
 21
150.9128755477
  0
LWPOLYLINE
  5
2DD
100
AcDbEntity
  8
0
100
AcDbPolyline
 62
7
  6
CONTINUOUS
 90
17
 70
0
 10
59.710096874
 20
150.3736577582
 10
59.7111540459
 20
150.4257177305
 10
59.7119147541
 20
150.4758670304
 10
59.7123799246
 20
150.5237602427
 10
59.7125376317
 20
150.5690945283
 10
59.7123799246
 20
150.6116951584
 10
59.711914754
 20
150.651397721
 10
59.7111540457
 20
150.6879681665
 10
59.7100968737
 20
150.7212058489
 10
59.7087441641
 20
150.7511046109
 10
59.7071106207
 20
150.7777090531
 10
59.70518569
 20
150.800958528
 10
59.7029799254
 20
150.8206325729
 10
59.7005396913
 20
150.8365522096
 10
59.6978804424
 20
150.8486582045
 10
59.6949867238
 20
150.8569519293
 10
59.6918585357
 20
150.8614209431
  0
LINE
  5
2DE
100
AcDbEntity
  8
0
100
AcDbLine
 62
7
  6
CONTINUOUS
 10
59.7071106209
 20
150.2639729877
 11
59.710096874
 21
150.3736577582
  0
LINE
  5
2DF
100
AcDbEntity
  8
0
100
AcDbLine
 62
7
  6
CONTINUOUS
 10
59.7029799256
 20
150.1470179343
 11
59.7071106209
 21
150.2639729877
  0
LINE
  5
2E0
100
AcDbEntity
  8
0
100
AcDbLine
 62
7
  6
CONTINUOUS
 10
59.6978804424
 20
150.0258522216
 11
59.7029799256
 21
150.1470179343
  0
LINE
  5
2E1
100
AcDbEntity
  8
0
100
AcDbLine
 62
7
  6
CONTINUOUS
 10
59.6918585357
 20
149.9026625661
 11
59.6978804424
 21
150.0258522216
  0
LINE
  5
2E2
100
AcDbEntity
  8
0
100
AcDbLine
 62
7
  6
CONTINUOUS
 10
59.6908148904
 20
149.8622558594
 11
59.6908148904
 21
63.2622558594
  0
LINE
  5
2E3
100
AcDbEntity
  8
0
100
AcDbLine
 62
7
  6
CONTINUOUS
 10
61.1908148904
 20
149.6622558594
 11
61.1908148904
 21
63.4622558594
  0
LINE
  5
2E4
100
AcDbEntity
  8
0
100
AcDbLine
 62
250
  6
CONTINUOUS
 10
62.1166520283
 20
79.4121264206
 11
62.1165874742
 21
79.6345766155
  0
LINE
  5
2E5
100
AcDbEntity
  8
0
100
AcDbLine
 62
250
  6
CONTINUOUS
 10
62.1165874742
 20
133.4899351033
 11
62.116652026
 21
133.7112415622
  0
LWPOLYLINE
  5
2E6
100
AcDbEntity
  8
0
100
AcDbPolyline
 62
7
  6
CONTINUOUS
 90
7
 70
0
 10
64.1908148904
 20
132.6085726526
 10
64.1899949498
 20
132.5993233479
 10
64.1875642661
 20
132.5891234266
 10
64.1835757205
 20
132.5779728889
 10
64.1780935843
 20
132.5658717347
 10
64.1711924253
 20
132.552819964
 10
64.1629559754
 20
132.5388175768
  0
LWPOLYLINE
  5
2E7
100
AcDbEntity
  8
0
100
AcDbPolyline
 62
250
  6
CONTINUOUS
 90
3
 70
0
 10
63.6409631431
 20
132.8992611452
 10
63.640920489
 20
132.9026777287
 10
63.6408641226
 20
132.9038197197
  0
LINE
  5
2E8
100
AcDbEntity
  8
0
100
AcDbLine
 62
250
  6
CONTINUOUS
 10
63.6410061216
 20
132.8857249065
 11
63.6409631431
 21
132.8992611452
  0
LINE
  5
2E9
100
AcDbEntity
  8
0
100
AcDbLine
 62
250
  6
CONTINUOUS
 10
63.6410061216
 20
80.2387868123
 11
63.6408641226
 21
80.3085584777
  0
LINE
  5
2EA
100
AcDbEntity
  8
0
100
AcDbLine
 62
250
  6
CONTINUOUS
 10
64.0012820817
 20
132.442242527
 11
64.0012820817
 21
131.9433025785
  0
LINE
  5
2EB
100
AcDbEntity
  8
0
100
AcDbLine
 62
250
  6
CONTINUOUS
 10
64.0012820817
 20
81.1812091403
 11
64.0012820817
 21
80.6822691917
  0
LINE
  5
2EC
100
AcDbEntity
  8
0
100
AcDbLine
 62
7
  6
CONTINUOUS
 10
64.1908148904
 20
132.6506201998
 11
64.1908148904
 21
131.9622558594
  0
LINE
  5
2ED
100
AcDbEntity
  8
0
100
AcDbLine
 62
7
  6
CONTINUOUS
 10
64.1908148904
 20
81.1622558594
 11
64.1908148904
 21
80.473891519
  0
LINE
  5
2EE
100
AcDbEntity
  8
0
100
AcDbLine
 62
250
  6
CONTINUOUS
 10
63.6408641226
 20
132.8159532411
 11
63.6410061216
 21
132.8857249065
  0
LWPOLYLINE
  5
2EF
100
AcDbEntity
  8
0
100
AcDbPolyline
 62
250
  6
CONTINUOUS
 90
4
 70
0
 10
63.6408641226
 20
80.220691999
 10
63.640920489
 20
80.22183399
 10
63.6409631431
 20
80.2252505735
 10
63.6410061216
 20
80.2387868123
  0
LWPOLYLINE
  5
2F0
100
AcDbEntity
  8
0
100
AcDbPolyline
 62
7
  6
CONTINUOUS
 90
4
 70
0
 43
0.3500000006
 10
65.861014389
 20
164.6693919067
 10
65.861014389
 20
165.3122634888
 10
67.3610148468
 20
165.3122634888
 10
66.5038723755
 20
162.3122625732
  0
LWPOLYLINE
  5
2F1
100
AcDbEntity
  8
0
100
AcDbPolyline
 62
7
  6
CONTINUOUS
 90
13
 70
0
 43
0.3500000006
 10
67.4051325073
 20
171.1694029541
 10
67.4051325073
 20
172.4551098633
 10
67.6194169922
 20
172.883678833
 10
68.0479859619
 20
173.3122478027
 10
68.2622749786
 20
173.3122478027
 10
68.6908439484
 20
172.883678833
 10
68.9051284332
 20
172.4551098633
 10
68.9051284332
 20
171.1694029541
 10
68.6908439484
 20
170.7408339844
 10
68.2622749786
 20
170.3122468872
 10
68.0479859619
 20
170.3122468872
 10
67.6194169922
 20
170.7408339844
 10
67.4051325073
 20
171.1694029541
  0
LINE
  5
2F2
100
AcDbEntity
  8
0
100
AcDbLine
 62
7
  6
CONTINUOUS
 10
61.4908148904
 20
81.3622558594
 11
61.6408148904
 21
81.5122558594
  0
LINE
  5
2F3
100
AcDbEntity
  8
0
100
AcDbLine
 62
7
  6
CONTINUOUS
 10
61.4908148904
 20
131.7622558594
 11
61.6408148904
 21
131.6122558594
  0
LINE
  5
2F4
100
AcDbEntity
  8
RACCORDO
100
AcDbLine
 62
250
  6
CONTINUOUS
 10
56.6408148904
 20
129.5622558594
 11
56.7908148904
 21
129.5622558594
  0
LINE
  5
2F5
100
AcDbEntity
  8
RACCORDO
100
AcDbLine
 62
7
  6
CONTINUOUS
 10
56.6408148904
 20
130.5622558594
 11
56.7908148904
 21
130.5622558594
  0
LWPOLYLINE
  5
2F6
100
AcDbEntity
  8
0
100
AcDbPolyline
 62
7
  6
CONTINUOUS
 90
18
 70
0
 10
59.6918585357
 20
62.2630907756
 10
59.6949867239
 20
62.2675597895
 10
59.6978804424
 20
62.2758535144
 10
59.7005396914
 20
62.2879595094
 10
59.7029799255
 20
62.3038791467
 10
59.7051856901
 20
62.3235531923
 10
59.7071106209
 20
62.3468026681
 10
59.7087441643
 20
62.3734071111
 10
59.7100968739
 20
62.4033058739
 10
59.7111540458
 20
62.436543557
 10
59.7119147541
 20
62.4731140027
 10
59.7123799246
 20
62.5128165652
 10
59.7125376317
 20
62.5554171957
 10
59.7123799246
 20
62.6007514832
 10
59.7119147539
 20
62.6486446982
 10
59.7111540456
 20
62.698794
 10
59.7100968737
 20
62.7508539725
 10
59.7071106206
 20
62.8605387406
  0
LINE
  5
2F7
100
AcDbEntity
  8
0
100
AcDbLine
 62
250
  6
CONTINUOUS
 10
62.1165874742
 20
79.6345766155
 11
63.216106334
 21
80.2182208305
  0
LINE
  5
2F8
100
AcDbEntity
  8
0
100
AcDbLine
 62
250
  6
CONTINUOUS
 10
63.6408641226
 20
80.3085584777
 11
64.1629559754
 21
80.5856941419
  0
LINE
  5
2F9
100
AcDbEntity
  8
0
100
AcDbLine
 62
7
  6
CONTINUOUS
 10
62.2558268522
 20
79.4467653678
 11
64.1908148904
 21
80.473891519
  0
LWPOLYLINE
  5
2FA
100
AcDbEntity
  8
0
100
AcDbPolyline
 62
250
  6
CONTINUOUS
 90
10
 70
0
 10
63.7797760517
 20
80.2557047746
 10
63.771121642
 20
80.2520526565
 10
63.7617407454
 20
80.2498911289
 10
63.7516865366
 20
80.249229602
 10
63.7410191829
 20
80.2500686654
 10
63.7297955897
 20
80.2524006723
 10
63.7180673948
 20
80.2562144591
 10
63.7058938818
 20
80.2614929751
 10
63.693346534
 20
80.2682073731
 10
63.6804978791
 20
80.2763196907
  0
LINE
  5
2FB
100
AcDbEntity
  8
0
100
AcDbLine
 62
7
  6
CONTINUOUS
 10
62.2404429883
 20
131.7672186692
 11
64.1908148904
 21
131.9622558594
  0
LINE
  5
2FC
100
AcDbEntity
  8
0
100
AcDbLine
 62
7
  6
CONTINUOUS
 10
61.1908148904
 20
132.3180757339
 11
64.0012820817
 21
132.442242527
  0
LINE
  5
2FD
100
AcDbEntity
  8
0
100
AcDbLine
 62
7
  6
CONTINUOUS
 10
61.1908148904
 20
131.6122558594
 11
61.3408148904
 21
131.6122558594
  0
LINE
  5
2FE
100
AcDbEntity
  8
0
100
AcDbLine
 62
7
  6
CONTINUOUS
 10
61.6408148904
 20
131.6122558594
 11
61.8408148904
 21
131.6122558594
  0
LINE
  5
2FF
100
AcDbEntity
  8
0
100
AcDbLine
 62
7
  6
CONTINUOUS
 10
61.1908148904
 20
131.7622558594
 11
62.1409392693
 21
131.7622558594
  0
LINE
  5
300
100
AcDbEntity
  8
RACCORDO
100
AcDbLine
 62
250
  6
CONTINUOUS
 10
56.7908148904
 20
132.0622558594
 11
56.6408148904
 21
132.0622558594
  0
LINE
  5
301
100
AcDbEntity
  8
RACCORDO
100
AcDbLine
 62
7
  6
CONTINUOUS
 10
56.6408148904
 20
133.0622558594
 11
56.7908148904
 21
133.0622558594
  0
LINE
  5
302
100
AcDbEntity
  8
RACCORDO
100
AcDbLine
 62
250
  6
CONTINUOUS
 10
56.6408148904
 20
134.0622558594
 11
56.7908148904
 21
134.0622558594
  0
LINE
  5
303
100
AcDbEntity
  8
0
100
AcDbLine
 62
250
  6
CONTINUOUS
 10
62.1165874742
 20
133.4899351033
 11
61.1908148904
 21
133.4903532978
  0
LINE
  5
304
100
AcDbEntity
  8
0
100
AcDbLine
 62
7
  6
CONTINUOUS
 10
62.1166520508
 20
133.7123852981
 11
61.1908148904
 21
133.7140011904
  0
LINE
  5
305
100
AcDbEntity
  8
0
100
AcDbLine
 62
250
  6
CONTINUOUS
 10
63.6408641226
 20
132.8159532411
 11
61.1908148904
 21
132.8302072105
  0
LINE
  5
306
100
AcDbEntity
  8
0
100
AcDbLine
 62
7
  6
CONTINUOUS
 10
63.6408641226
 20
132.9038197197
 11
61.1908148904
 21
132.9180736892
  0
LWPOLYLINE
  5
307
100
AcDbEntity
  8
0
100
AcDbPolyline
 62
250
  6
CONTINUOUS
 90
10
 70
0
 10
63.7797760517
 20
132.8688069441
 10
63.7711316923
 20
132.872455822
 10
63.7617575212
 20
132.8746181515
 10
63.7517055487
 20
132.8752822783
 10
63.7410319638
 20
132.8744449043
 10
63.7297955248
 20
132.8721110291
 10
63.7180570125
 20
132.8682933101
 10
63.70588062
 20
132.8630123094
 10
63.6933342446
 20
132.8562971703
 10
63.6804877039
 20
132.8481851292
  0
LINE
  5
308
100
AcDbEntity
  8
0
100
AcDbLine
 62
250
  6
CONTINUOUS
 10
63.216106334
 20
132.9062908882
 11
62.1165874742
 21
133.4899351033
  0
LINE
  5
309
100
AcDbEntity
  8
0
100
AcDbLine
 62
250
  6
CONTINUOUS
 10
64.1629559754
 20
132.5388175768
 11
63.6408641226
 21
132.8159532411
  0
LINE
  5
30A
100
AcDbEntity
  8
0
100
AcDbLine
 62
7
  6
CONTINUOUS
 10
64.1908148904
 20
132.6506201998
 11
62.2558268522
 21
133.6777463509
  0
LINE
  5
30B
100
AcDbEntity
  8
SMUSSO
100
AcDbLine
 62
7
  6
CONTINUOUS
 10
54.6408148904
 20
62.5622558594
 11
54.1408148904
 21
62.0622558594
  0
LINE
  5
30C
100
AcDbEntity
  8
SMUSSO
100
AcDbLine
 62
7
  6
CONTINUOUS
 10
56.1408148904
 20
61.5622558594
 11
56.6408148904
 21
62.0622558594
  0
LINE
  5
30D
100
AcDbEntity
  8
SMUSSO
100
AcDbLine
 62
7
  6
CONTINUOUS
 10
54.1408148904
 20
151.0622558594
 11
54.6408148904
 21
150.5622558594
  0
LINE
  5
30E
100
AcDbEntity
  8
SMUSSO
100
AcDbLine
 62
7
  6
CONTINUOUS
 10
56.6408148904
 20
151.0622558594
 11
56.1408148904
 21
151.5622558594
  0
LINE
  5
30F
100
AcDbEntity
  8
0
100
AcDbLine
 62
7
  6
CONTINUOUS
 10
59.6918585357
 20
62.2630907756
 11
61.1908148904
 21
63.4622558594
  0
LINE
  5
310
100
AcDbEntity
  8
0
100
AcDbLine
 62
7
  6
CONTINUOUS
 10
59.6918585357
 20
150.8614209431
 11
61.1908148904
 21
149.6622558594
  0
LWPOLYLINE
  5
311
100
AcDbEntity
  8
0
100
AcDbPolyline
 62
7
  6
CONTINUOUS
 90
10
 70
0
 43
0.3500000006
 10
68.8610153046
 20
162.8122536621
 10
68.9324419556
 20
162.6693912964
 10
68.9324419556
 20
162.5979691772
 10
68.7895841217
 20
162.4551068115
 10
68.7181574707
 20
162.4551068115
 10
68.6467262878
 20
162.5265470581
 10
68.6467262878
 20
162.5979691772
 10
68.7181574707
 20
162.740831543
 10
68.7895841217
 20
162.8122536621
 10
68.8610153046
 20
162.8122536621
  0
LINE
  5
312
100
AcDbEntity
  8
RACCORDO
100
AcDbLine
 62
250
  6
CONTINUOUS
 10
56.6408148904
 20
145.5622558594
 11
56.7908148904
 21
145.5622558594
  0
LWPOLYLINE
  5
313
100
AcDbEntity
  8
0
100
AcDbPolyline
 62
7
  6
CONTINUOUS
 90
10
 70
0
 43
0.3500000006
 10
70.405128891
 20
170.8122561035
 10
70.4765600739
 20
170.6693937378
 10
70.4765600739
 20
170.5979716187
 10
70.33370224
 20
170.4551092529
 10
70.2622710571
 20
170.4551092529
 10
70.1908444061
 20
170.5265494995
 10
70.1908444061
 20
170.5979716187
 10
70.2622710571
 20
170.7408339844
 10
70.33370224
 20
170.8122561035
 10
70.405128891
 20
170.8122561035
  0
LINE
  5
314
100
AcDbEntity
  8
RACCORDO
100
AcDbLine
 62
7
  6
CONTINUOUS
 10
56.6408148904
 20
146.5622558594
 11
56.7908148904
 21
146.5622558594
  0
LINE
  5
315
100
AcDbEntity
  8
0
100
AcDbLine
 62
250
  6
CONTINUOUS
 10
56.7908148904
 20
149.8622558594
 11
59.6908148904
 21
149.8622558594
  0
LINE
  5
316
100
AcDbEntity
  8
SMUSSO
100
AcDbLine
 62
7
  6
CONTINUOUS
 10
54.6408148904
 20
150.5622558594
 11
56.1408148904
 21
150.5622558594
  0
LINE
  5
317
100
AcDbEntity
  8
SMUSSO
100
AcDbLine
 62
7
  6
CONTINUOUS
 10
54.6408148904
 20
151.5622558594
 11
56.1408148904
 21
151.5622558594
  0
LWPOLYLINE
  5
318
100
AcDbEntity
  8
0
100
AcDbPolyline
 62
7
  6
CONTINUOUS
 90
8
 70
0
 43
0.3500000006
 10
69.9324422607
 20
162.3122625732
 10
70.7895847321
 20
162.3122625732
 10
71.2181582336
 20
162.740831543
 10
71.2181582336
 20
163.5979694824
 10
70.7895847321
 20
164.0265384521
 10
69.9324422607
 20
164.0265384521
 10
69.9324422607
 20
165.3122634888
 10
71.2181582336
 20
165.3122634888
  0
LWPOLYLINE
  5
319
100
AcDbEntity
  8
0
100
AcDbPolyline
 62
7
  6
CONTINUOUS
 90
8
 70
0
 43
0.3500000006
 10
72.075300705
 20
162.3122625732
 10
72.9324431763
 20
162.3122625732
 10
73.361012146
 20
162.740831543
 10
73.361012146
 20
163.5979694824
 10
72.9324431763
 20
164.0265384521
 10
72.075300705
 20
164.0265384521
 10
72.075300705
 20
165.3122634888
 10
73.361012146
 20
165.3122634888
  0
LWPOLYLINE
  5
31A
100
AcDbEntity
  8
0
100
AcDbPolyline
 62
7
  6
CONTINUOUS
 90
8
 70
0
 43
0.3500000006
 10
71.476560379
 20
170.3122468872
 10
72.3337028503
 20
170.3122468872
 10
72.7622718201
 20
170.7408339844
 10
72.7622718201
 20
171.5979719238
 10
72.3337028503
 20
172.0265408936
 10
71.476560379
 20
172.0265408936
 10
71.476560379
 20
173.3122478027
 10
72.7622718201
 20
173.3122478027
  0
LWPOLYLINE
  5
31B
100
AcDbEntity
  8
0
100
AcDbPolyline
 62
7
  6
CONTINUOUS
 90
8
 70
0
 43
0.3500000006
 10
73.6194142914
 20
170.3122468872
 10
74.4765567627
 20
170.3122468872
 10
74.9051302643
 20
170.7408339844
 10
74.9051302643
 20
171.5979719238
 10
74.4765567627
 20
172.0265408936
 10
73.6194142914
 20
172.0265408936
 10
73.6194142914
 20
173.3122478027
 10
74.9051302643
 20
173.3122478027
  0
LINE
  5
31C
100
AcDbEntity
  8
0
100
AcDbLine
 62
7
  6
CONTINUOUS
 10
56.7908148904
 20
150.9128755477
 11
59.6908148904
 21
150.8622558594
  0
LINE
  5
31D
100
AcDbEntity
  8
0
100
AcDbLine
 62
250
  6
CONTINUOUS
 10
59.6918585357
 20
149.9026625661
 11
61.1908148904
 21
149.6005661875
  0
ARC
  5
31E
100
AcDbEntity
  8
RACCORDO
100
AcDbCircle
 62
7
  6
CONTINUOUS
 10
121.0698730469
 20
85.1622558594
 40
1.2
100
AcDbArc
 50
180.0
 51
270.0
  0
ARC
  5
31F
100
AcDbEntity
  8
RACCORDO
100
AcDbCircle
 62
7
  6
CONTINUOUS
 10
231.3698730469
 20
85.1622558594
 40
1.2
100
AcDbArc
 50
270.0
 51
360.0
  0
ARC
  5
320
100
AcDbEntity
  8
RACCORDO
100
AcDbCircle
 62
7
  6
CONTINUOUS
 10
231.3698730469
 20
127.9622558594
 40
1.2
100
AcDbArc
 50
0.0
 51
90.0
  0
ARC
  5
321
100
AcDbEntity
  8
RACCORDO
100
AcDbCircle
 62
7
  6
CONTINUOUS
 10
121.0698730469
 20
127.9622558594
 40
1.2
100
AcDbArc
 50
90.0
 51
180.0
  0
ARC
  5
322
100
AcDbEntity
  8
0
100
AcDbCircle
 62
7
  6
CONTINUOUS
 10
62.1409392693
 20
132.7622558594
 40
1.0
100
AcDbArc
 50
270.0
 51
275.7105931375
  0
ARC
  5
323
100
AcDbEntity
  8
0
100
AcDbCircle
 62
7
  6
CONTINUOUS
 10
62.1409392693
 20
80.3622558594
 40
1.0
100
AcDbArc
 50
84.2894068625
 51
90.0
  0
ARC
  5
324
100
AcDbEntity
  8
0
100
AcDbCircle
 62
7
  6
CONTINUOUS
 10
62.1161282247
 20
133.4122553504
 40
0.3
100
AcDbArc
 50
62.0510335847
 51
89.8999998573
  0
ARC
  5
325
100
AcDbEntity
  8
0
100
AcDbCircle
 62
7
  6
CONTINUOUS
 10
62.1161282247
 20
79.7122563683
 40
0.3
100
AcDbArc
 50
270.1000001427
 51
297.9489664153
  0
ARC
  5
326
100
AcDbEntity
  8
0
100
AcDbCircle
 62
7
  6
CONTINUOUS
 10
63.6391188032
 20
80.5206869221
 40
0.3
100
AcDbArc
 50
270.3333333333
 51
297.9601595792
  0
ARC
  5
327
100
AcDbEntity
  8
0
100
AcDbCircle
 62
7
  6
CONTINUOUS
 10
63.6391188032
 20
132.6038247967
 40
0.3
100
AcDbArc
 50
62.0398404207
 51
89.6666666667
  0
ELLIPSE
  5
328
100
AcDbEntity
  8
0
100
AcDbEllipse
 62
7
  6
CONTINUOUS
 10
63.9908148904
 20
80.4824571643
 30
0.0
 11
0.1417119467
 21
0.1422961243
 31
0.0
 40
0.9918061237
 41
-0.2491986107
 42
0.7350951877
  0
ELLIPSE
  5
329
100
AcDbEntity
  8
0
100
AcDbEllipse
 62
7
  6
CONTINUOUS
 10
60.9141237216
 20
63.2622558594
 30
0.0
 11
1.2233088312
 21
-0.0
 31
0.0
 40
0.7998095528
 41
3.1415926536
 42
3.1829025671
  0
ELLIPSE
  5
32A
100
AcDbEntity
  8
0
100
AcDbEllipse
 62
7
  6
CONTINUOUS
 10
60.9141237216
 20
149.8622558594
 30
0.0
 11
1.2233088312
 21
0.0
 31
0.0
 40
0.7998095528
 41
3.1002827401
 42
3.1415926536
  0
ELLIPSE
  5
32B
100
AcDbEntity
  8
0
100
AcDbEllipse
 62
7
  6
CONTINUOUS
 10
63.9908148904
 20
132.6420545544
 30
0.0
 11
-0.1417119467
 21
0.1422961243
 31
0.0
 40
0.9918061237
 41
-3.8766878413
 42
-2.8923940429
  0
ENDSEC
  0
SECTION
  2
OBJECTS
  0
DICTIONARY
  5
C
100
AcDbDictionary
280
0
281
1
  3
ACAD_GROUP
350
D
  3
ACAD_MLINESTYLE
350
17
  3
ACAD_LAYOUT
350
1A
  3
ACAD_PLOTSETTINGS
350
19
  3
ACAD_PLOTSTYLENAME
350
E
  0
DICTIONARY
  5
D
102
{ACAD_REACTORS
330
C
102
}
100
AcDbDictionary
280
0
281
1
  0
ACDBDICTIONARYWDFLT
  5
E
102
{ACAD_REACTORS
330
C
102
}
100
AcDbDictionary
281
1
  3
Normal
350
F
100
AcDbDictionaryWithDefault
340
F
  0
DICTIONARY
  5
17
102
{ACAD_REACTORS
330
C
102
}
100
AcDbDictionary
280
0
281
1
  3
Standard
350
18
  0
DICTIONARY
  5
19
102
{ACAD_REACTORS
330
C
102
}
100
AcDbDictionary
281
1
  0
DICTIONARY
  5
1A
102
{ACAD_REACTORS
330
C
102
}
100
AcDbDictionary
281
1
  3
Model
350
32C
  3
Layout1
350
32D
  0
ACDBPLACEHOLDER
  5
F
102
{ACAD_REACTORS
330
E
102
}
  0
MLINESTYLE
  5
18
102
{ACAD_REACTORS
330
17
102
}
100
AcDbMlineStyle
  2
STANDARD
 70
0
  3

 62
256
 51
90.0
 52
90.0
 71
2
 49
0.5
 62
256
  6
BYLAYER
 49
-0.5
 62
256
  6
BYLAYER
  0
LAYOUT
  5
32C
102
{ACAD_REACTORS
330
1A
102
}
100
AcDbPlotSettings
  1

  2
none_device
  4
ISO_A4_(297.00_x_210.00_MM)
  6

 40
0.0
 41
0.0
 42
0.0
 43
0.0
 44
297.0
 45
210.0
 46
0.0
 47
0.0
 48
0.0
 49
0.0
140
0.0
141
0.0
142
1.0
143
1.0
 70
1024
 72
1
 73
0
 74
0
  7

 75
0
147
1.0
148
0.0
149
0.0
100
AcDbLayout
  1
Model
 70
0
 71
0
 10
0.0
 20
0.0
 11
297.0
 21
210.0
 12
0.0
 22
0.0
 32
0.0
 14
0.0
 24
0.0
 34
0.0
 15
0.0
 25
0.0
 35
0.0
146
0.0
 13
0.0
 23
0.0
 33
0.0
 16
1.0
 26
0.0
 36
0.0
 17
0.0
 27
1.0
 37
0.0
 76
0
330
21D
345
0
346
0
  0
LAYOUT
  5
32D
102
{ACAD_REACTORS
330
1A
102
}
100
AcDbPlotSettings
  1

  2
none_device
  4
ISO_A4_(297.00_x_210.00_MM)
  6

 40
0.0
 41
0.0
 42
0.0
 43
0.0
 44
297.0
 45
210.0
 46
0.0
 47
0.0
 48
0.0
 49
0.0
140
0.0
141
0.0
142
1.0
143
1.0
 70
0
 72
1
 73
0
 74
0
  7

 75
0
147
1.0
148
0.0
149
0.0
100
AcDbLayout
  1
Layout1
 70
0
 71
1
 10
0.0
 20
0.0
 11
297.0
 21
210.0
 12
0.0
 22
0.0
 32
0.0
 14
0.0
 24
0.0
 34
0.0
 15
0.0
 25
0.0
 35
0.0
146
0.0
 13
0.0
 23
0.0
 33
0.0
 16
1.0
 26
0.0
 36
0.0
 17
0.0
 27
1.0
 37
0.0
 76
0
330
21E
345
0
346
0
  0
ENDSEC
  0
EOF
