  0
SECTION
  2
HEADER
  9
$ACADVER
  1
AC1024
  9
$DWGCODEPAGE
  3
ANSI_1252
  9
$EXTMAX
 10
297.0
 20
210.0
 30
0.0
  9
$EXTMIN
 10
0.0
 20
0.0
 30
0.0
  9
$LIMMIN
 10
0.0
 20
0.0
  9
$LIMMAX
 10
297.0
 20
210.0
  9
$VIEWCTR
 10
148.5
 20
105.0
  9
$VIEWSIZE
 40
210.0
  9
$CLAYER
  8
0
  9
$LTSCALE
 40
16.335
  9
$CELTYPE
  6
BYLAYER
  9
$DIMSCALE
 40
1.0
  9
$DIMASZ
 40
3.0
  9
$DIMEXO
 40
0.5
  9
$DIMDLI
 40
11.286
  9
$DIMEXE
 40
1.5
  9
$DIMCEN
 40
2.673
  9
$DIMLFAC
 40
1.0
  9
$DIMBLK
  1
_FILLED
  9
$DIMALT
 70
0
  9
$DIMALTF
 40
0.0393700787
  9
$DIMTXT
 40
3.0
  9
$DIMTOL
 70
1
  9
$DIMLIM
 70
0
  9
$DIMTFAC
 40
1.0
  9
$DIMTP
 40
0.01
  9
$DIMTM
 40
0.01
  9
$DIMGAP
 40
0.625
  9
$DIMDSEP
 70
44
  9
$AUNITS
 70
0
  9
$PDMODE
 70
3
  9
$PDSIZE
 40
3.0
  9
$HANDSEED
  5
37A
  9
$TILEMODE
 70
1
  9
$MEASUREMENT
 70
1
  9
$INSUNITS
 70
4
  0
ENDSEC
  0
SECTION
  2
CLASSES
  0
CLASS
  1
ACDBDICTIONARYWDFLT
  2
AcDbDictionaryWithDefault
  3
AutoCAD 2000
 90
0
 91
1
280
0
281
0
  0
CLASS
  1
ACDBPLACEHOLDER
  2
AcDbPlaceHolder
  3
AutoCAD 2000
 90
0
 91
1
280
0
281
0
  0
CLASS
  1
LAYOUT
  2
AcDbLayout
  3
AutoCAD 2000
 90
0
 91
0
280
0
281
0
  0
ENDSEC
  0
SECTION
  2
TABLES
  0
TABLE
  2
VPORT
  5
8
100
AcDbSymbolTable
 70
2
  0
VPORT
  5
1F4
100
AcDbSymbolTableRecord
100
AcDbViewportTableRecord
  2
*ACTIVE
 70
0
 10
0.0
 20
0.0
 11
1.0
 21
1.0
 12
148.5
 22
105.0
 13
0.0
 23
0.0
 14
1.0
 24
1.0
 15
0.0
 25
0.0
 16
0.0
 26
0.0
 36
1.0
 17
0.0
 27
0.0
 37
0.0
 40
210.0
 41
1.4142857143
 42
50.0
 43
0.0
 44
0.0
 50
0.0
 51
0.0
 71
0
 72
100
 73
1
 74
1
 75
0
 76
0
 77
0
 78
0
  0
ENDTAB
  0
TABLE
  2
LTYPE
  5
5
100
AcDbSymbolTable
 70
6
  0
LTYPE
  5
14
100
AcDbSymbolTableRecord
100
AcDbLinetypeTableRecord
  2
BYBLOCK
 70
0
  3

 72
65
 73
0
 40
0.0
  0
LTYPE
  5
15
100
AcDbSymbolTableRecord
100
AcDbLinetypeTableRecord
  2
BYLAYER
 70
0
  3

 72
65
 73
0
 40
0.0
  0
LTYPE
  5
16
100
AcDbSymbolTableRecord
100
AcDbLinetypeTableRecord
  2
CONTINUOUS
 70
64
  3
Solid line
 72
65
 73
0
 40
0.0
  0
LTYPE
  5
1F5
100
AcDbSymbolTableRecord
100
AcDbLinetypeTableRecord
  2
CENTER
 70
64
  3
____ _ ____ _ ____ _ ____ _ ____ _ ____ _ ____
 72
65
 73
4
 40
0.6
 49
0.375
 74
0
 49
-0.075
 74
0
 49
0.075
 74
0
 49
-0.075
 74
0
  0
LTYPE
  5
1F6
100
AcDbSymbolTableRecord
100
AcDbLinetypeTableRecord
  2
HIDDEN
 70
64
  3
- - - - - - - - - - - - - - - - - - - -
 72
65
 73
2
 40
0.2
 49
0.1
 74
0
 49
-0.1
 74
0
  0
LTYPE
  5
1F7
100
AcDbSymbolTableRecord
100
AcDbLinetypeTableRecord
  2
PHANTOM
 70
64
  3
_____ _ _ _____ _ _ _____ _ _ _____
 72
65
 73
6
 40
0.8
 49
0.45
 74
0
 49
-0.05
 74
0
 49
0.1
 74
0
 49
-0.05
 74
0
 49
0.1
 74
0
 49
-0.05
 74
0
  0
LTYPE
  5
1F8
100
AcDbSymbolTableRecord
100
AcDbLinetypeTableRecord
  2
DOT
 70
64
  3
. . . . . . . . . . . . . . . . . . . .
 72
65
 73
2
 40
0.2
 49
0.1
 74
0
 49
-0.1
 74
0
  0
LTYPE
  5
1F9
100
AcDbSymbolTableRecord
100
AcDbLinetypeTableRecord
  2
DASHED
 70
64
  3
- - - - - - - - - - - - - - - - - - - -
 72
65
 73
2
 40
0.2
 49
0.1
 74
0
 49
-0.1
 74
0
  0
ENDTAB
  0
TABLE
  2
LAYER
  5
2
100
AcDbSymbolTable
 70
36
  0
LAYER
  5
10
100
AcDbSymbolTableRecord
100
AcDbLayerTableRecord
  2
0
 70
0
 62
7
  6
CONTINUOUS
370
-3
390
F
  0
LAYER
  5
1FA
100
AcDbSymbolTableRecord
100
AcDbLayerTableRecord
  2
DEFAULT_1
 70
0
 62
7
  6
CENTER
370
-3
390
F
  0
LAYER
  5
1FB
100
AcDbSymbolTableRecord
100
AcDbLayerTableRecord
  2
DEFAULT_2
 70
0
 62
7
  6
HIDDEN
370
-3
390
F
  0
LAYER
  5
1FC
100
AcDbSymbolTableRecord
100
AcDbLayerTableRecord
  2
DEFAULT_3
 70
0
 62
7
  6
PHANTOM
370
-3
390
F
  0
LAYER
  5
1FD
100
AcDbSymbolTableRecord
100
AcDbLayerTableRecord
  2
ASSI
 70
0
 62
7
  6
CONTINUOUS
370
-3
390
F
  0
LAYER
  5
1FE
100
AcDbSymbolTableRecord
100
AcDbLayerTableRecord
  2
COORDINATE
 70
0
 62
7
  6
CONTINUOUS
370
-3
390
F
  0
LAYER
  5
1FF
100
AcDbSymbolTableRecord
100
AcDbLayerTableRecord
  2
COORD_ORIGINE
 70
0
 62
7
  6
CONTINUOUS
370
-3
390
F
  0
LAYER
  5
200
100
AcDbSymbolTableRecord
100
AcDbLayerTableRecord
  2
COPY_PUBLISH
 70
0
 62
7
  6
CONTINUOUS
370
-3
390
F
  0
LAYER
  5
201
100
AcDbSymbolTableRecord
100
AcDbLayerTableRecord
  2
COSMETIC
 70
0
 62
7
  6
CONTINUOUS
370
-3
390
F
  0
LAYER
  5
202
100
AcDbSymbolTableRecord
100
AcDbLayerTableRecord
  2
COSMETICI
 70
0
 62
7
  6
CONTINUOUS
370
-3
390
F
  0
LAYER
  5
203
100
AcDbSymbolTableRecord
100
AcDbLayerTableRecord
  2
CURVA_TASSELLO
 70
0
 62
7
  6
CONTINUOUS
370
-3
390
F
  0
LAYER
  5
204
100
AcDbSymbolTableRecord
100
AcDbLayerTableRecord
  2
CURVE
 70
0
 62
7
  6
CONTINUOUS
370
-3
390
F
  0
LAYER
  5
205
100
AcDbSymbolTableRecord
100
AcDbLayerTableRecord
  2
DRAFT
 70
0
 62
7
  6
CONTINUOUS
370
-3
390
F
  0
LAYER
  5
206
100
AcDbSymbolTableRecord
100
AcDbLayerTableRecord
  2
IMPORT_IGES
 70
0
 62
7
  6
CONTINUOUS
370
-3
390
F
  0
LAYER
  5
207
100
AcDbSymbolTableRecord
100
AcDbLayerTableRecord
  2
INTFCLR_2
 70
0
 62
7
  6
CONTINUOUS
370
-3
390
F
  0
LAYER
  5
208
100
AcDbSymbolTableRecord
100
AcDbLayerTableRecord
  2
INTF_1
 70
0
 62
7
  6
CONTINUOUS
370
-3
390
F
  0
LAYER
  5
209
100
AcDbSymbolTableRecord
100
AcDbLayerTableRecord
  2
INTF_21
 70
0
 62
7
  6
CONTINUOUS
370
-3
390
F
  0
LAYER
  5
20A
100
AcDbSymbolTableRecord
100
AcDbLayerTableRecord
  2
INTF_7
 70
0
 62
7
  6
CONTINUOUS
370
-3
390
F
  0
LAYER
  5
20B
100
AcDbSymbolTableRecord
100
AcDbLayerTableRecord
  2
NOTE
 70
0
 62
7
  6
CONTINUOUS
370
-3
390
F
  0
LAYER
  5
20C
100
AcDbSymbolTableRecord
100
AcDbLayerTableRecord
  2
PIANI
 70
0
 62
7
  6
CONTINUOUS
370
-3
390
F
  0
LAYER
  5
20D
100
AcDbSymbolTableRecord
100
AcDbLayerTableRecord
  2
PIANI_ORIGINE
 70
0
 62
7
  6
CONTINUOUS
370
-3
390
F
  0
LAYER
  5
20E
100
AcDbSymbolTableRecord
100
AcDbLayerTableRecord
  2
PIANI_RIFERIMENTO
 70
0
 62
7
  6
CONTINUOUS
370
-3
390
F
  0
LAYER
  5
20F
100
AcDbSymbolTableRecord
100
AcDbLayerTableRecord
  2
PUNTI
 70
0
 62
7
  6
CONTINUOUS
370
-3
390
F
  0
LAYER
  5
210
100
AcDbSymbolTableRecord
100
AcDbLayerTableRecord
  2
RACCORDO
 70
0
 62
7
  6
CONTINUOUS
370
-3
390
F
  0
LAYER
  5
211
100
AcDbSymbolTableRecord
100
AcDbLayerTableRecord
  2
RGB__255__255__255__
 70
0
 62
7
  6
CONTINUOUS
370
-3
390
F
  0
LAYER
  5
212
100
AcDbSymbolTableRecord
100
AcDbLayerTableRecord
  2
RGB____0____0____0__
 70
0
 62
7
  6
CONTINUOUS
370
-3
390
F
  0
LAYER
  5
213
100
AcDbSymbolTableRecord
100
AcDbLayerTableRecord
  2
SIMBOLI
 70
0
 62
7
  6
CONTINUOUS
370
-3
390
F
  0
LAYER
  5
214
100
AcDbSymbolTableRecord
100
AcDbLayerTableRecord
  2
SMUSSO
 70
0
 62
7
  6
CONTINUOUS
370
-3
390
F
  0
LAYER
  5
215
100
AcDbSymbolTableRecord
100
AcDbLayerTableRecord
  2
SNAPLINE
 70
0
 62
7
  6
CONTINUOUS
370
-3
390
F
  0
LAYER
  5
216
100
AcDbSymbolTableRecord
100
AcDbLayerTableRecord
  2
SUPERFICI
 70
0
 62
7
  6
CONTINUOUS
370
-3
390
F
  0
LAYER
  5
217
100
AcDbSymbolTableRecord
100
AcDbLayerTableRecord
  2
TRASH
 70
0
 62
7
  6
CONTINUOUS
370
-3
390
F
  0
LAYER
  5
218
100
AcDbSymbolTableRecord
100
AcDbLayerTableRecord
  2
WHITE
 70
0
 62
7
  6
CONTINUOUS
370
-3
390
F
  0
LAYER
  5
219
100
AcDbSymbolTableRecord
100
AcDbLayerTableRecord
  2
XSEC_DATUMS
 70
0
 62
7
  6
CONTINUOUS
370
-3
390
F
  0
ENDTAB
  0
TABLE
  2
STYLE
  5
3
100
AcDbSymbolTable
 70
1
  0
STYLE
  5
11
100
AcDbSymbolTableRecord
100
AcDbTextStyleTableRecord
  2
STANDARD
 70
0
 40
0.0
 41
0.8
 50
0.0
 71
0
 42
0.2
  3
txt
  4

  0
STYLE
  5
21A
100
AcDbSymbolTableRecord
100
AcDbTextStyleTableRecord
  2
TEXTSTYLE_1
 70
0
 40
0.0
 41
0.8
 50
0.0
 71
0
 42
0.2
  3
gdt
  4

  0
ENDTAB
  0
TABLE
  2
VIEW
  5
6
100
AcDbSymbolTable
 70
0
  0
ENDTAB
  0
TABLE
  2
UCS
  5
7
100
AcDbSymbolTable
 70
0
  0
ENDTAB
  0
TABLE
  2
APPID
  5
9
100
AcDbSymbolTable
 70
1
  0
APPID
  5
21B
100
AcDbSymbolTableRecord
100
AcDbRegAppTableRecord
  2
ACAD
 70
0
  0
ENDTAB
  0
TABLE
  2
BLOCK_RECORD
  5
1
100
AcDbSymbolTable
 70
0
  0
BLOCK_RECORD
  5
21C
100
AcDbSymbolTableRecord
100
AcDbBlockTableRecord
  2
*Model_Space
  0
BLOCK_RECORD
  5
21D
100
AcDbSymbolTableRecord
100
AcDbBlockTableRecord
  2
*Paper_Space
  0
BLOCK_RECORD
  5
21E
100
AcDbSymbolTableRecord
100
AcDbBlockTableRecord
  2
_FILLED
  0
BLOCK_RECORD
  5
21F
100
AcDbSymbolTableRecord
100
AcDbBlockTableRecord
  2
*D0
  0
BLOCK_RECORD
  5
220
100
AcDbSymbolTableRecord
100
AcDbBlockTableRecord
  2
*D1
  0
BLOCK_RECORD
  5
221
100
AcDbSymbolTableRecord
100
AcDbBlockTableRecord
  2
*D2
  0
BLOCK_RECORD
  5
222
100
AcDbSymbolTableRecord
100
AcDbBlockTableRecord
  2
*D3
  0
ENDTAB
  0
TABLE
  2
DIMSTYLE
  5
A
100
AcDbSymbolTable
 70
1
100
AcDbDimStyleTable
 71
0
  0
DIMSTYLE
105
223
100
AcDbSymbolTableRecord
100
AcDbDimStyleTableRecord
  2
STANDARD
 70
0
  3

  4

 40
1.0
 41
3.0
 42
0.5
 43
0.38
 44
1.5
 45
0.0
 46
0.0
 47
0.01
 48
0.01
140
3.0
141
0.09
142
0.0
143
25.4
144
1.0
145
0.0
146
1.0
147
0.625
 71
1
 72
0
 73
0
 74
0
 75
0
 76
0
 77
1
 78
8
 79
2
170
0
171
1
172
0
173
0
174
0
175
0
176
0
177
0
178
0
270
2
179
2
271
2
272
2
273
2
274
2
275
0
280
0
281
0
282
0
283
1
284
8
285
0
286
0
287
3
288
0
340
11
278
44
341
21E
342
21E
343
21E
344
21E
  0
DIMSTYLE
105
224
100
AcDbSymbolTableRecord
100
AcDbDimStyleTableRecord
  2
DIMSTYLE_1
 70
0
  3

  4

 40
1.0
 41
3.0
 42
0.5
 43
0.38
 44
1.5
 45
0.0
 46
0.0
 47
0.0
 48
0.0
140
3.0
141
0.09
142
0.0
143
25.4
144
1.0
145
0.0
146
1.0
147
0.75
 71
0
 72
0
 73
0
 74
0
 75
0
 76
0
 77
1
 78
8
 79
2
170
0
171
1
172
0
173
0
174
0
175
0
176
0
177
0
178
0
270
2
179
2
271
2
272
2
273
2
274
2
275
0
280
0
281
0
282
0
283
1
284
8
285
0
286
0
287
3
288
0
340
11
278
44
341
21E
342
21E
343
21E
344
21E
  0
ENDTAB
  0
ENDSEC
  0
SECTION
  2
BLOCKS
  0
BLOCK
  5
20
100
AcDbEntity
  8
0
100
AcDbBlockBegin
  2
*Model_Space
 70
0
 10
0.0
 20
0.0
 30
0.0
  3
*Model_Space
  1

  0
ENDBLK
  5
21
100
AcDbEntity
  8
0
100
AcDbBlockEnd
  0
BLOCK
  5
1C
100
AcDbEntity
  8
0
100
AcDbBlockBegin
  2
*Paper_Space
 70
0
 10
0.0
 20
0.0
 30
0.0
  3
*Paper_Space
  1

  0
ENDBLK
  5
1D
100
AcDbEntity
  8
0
100
AcDbBlockEnd
  0
BLOCK
  5
225
100
AcDbEntity
  8
0
100
AcDbBlockBegin
  2
_FILLED
 70
64
 10
0.0
 20
0.0
  3
_FILLED
  1

  0
SOLID
  5
226
100
AcDbEntity
  8
0
  6
BYBLOCK
 62
0
100
AcDbTrace
 10
0.0
 20
0.0
 11
-1.0
 21
0.3166666667
 12
-1.0
 22
-0.3166666667
 13
-1.0
 23
-0.3166666667
  0
ENDBLK
  5
227
100
AcDbEntity
  8
0
  6
BYBLOCK
 62
0
100
AcDbBlockEnd
  0
BLOCK
  5
228
100
AcDbEntity
  8
0
100
AcDbBlockBegin
 62
7
  6
CONTINUOUS
  2
*D0
 70
65
 10
0.0
 20
0.0
  3
*D0
  1

  0
MTEXT
  5
229
100
AcDbEntity
  8
0
100
AcDbMText
 62
7
  6
CONTINUOUS
  7
STANDARD
 71
2
 72
1
 10
-0.25
 20
56.75
 30
0.0
 11
1.0
 21
0.0
 31
0.0
 73
2
 44
0.9
  1
{\ftxt;\W0.0001;\H0.0001;\~}{\ftxt;\W2.1428571429;\H3.0; }{\ftxt;\W0.0001;\H0.0001;\~}
 40
3.0
 41
9.6428571429
  0
LINE
  5
22A
100
AcDbEntity
  8
0
100
AcDbLine
 62
7
  6
CONTINUOUS
 10
-61.25
 20
44.5
 11
-61.25
 21
54.5
  0
LINE
  5
22B
100
AcDbEntity
  8
0
100
AcDbLine
 62
7
  6
CONTINUOUS
 10
60.75
 20
44.5
 11
60.75
 21
54.5
  0
LINE
  5
22C
100
AcDbEntity
  8
0
100
AcDbLine
 62
7
  6
CONTINUOUS
 10
-61.25
 20
53.0
 11
-0.25
 21
53.0
  0
LINE
  5
22D
100
AcDbEntity
  8
0
100
AcDbLine
 62
7
  6
CONTINUOUS
 10
60.75
 20
53.0
 11
-0.25
 21
53.0
  0
INSERT
  5
22E
100
AcDbEntity
  8
0
100
AcDbBlockReference
 62
7
  6
CONTINUOUS
  2
_FILLED
 10
-61.25
 20
53.0
 41
3.0
 42
3.0
 43
3.0
 50
180.0
  0
INSERT
  5
22F
100
AcDbEntity
  8
0
100
AcDbBlockReference
 62
7
  6
CONTINUOUS
  2
_FILLED
 10
60.75
 20
53.0
 41
3.0
 42
3.0
 43
3.0
  0
ENDBLK
  5
230
100
AcDbEntity
  8
0
  6
BYBLOCK
 62
0
100
AcDbBlockEnd
  0
BLOCK
  5
231
100
AcDbEntity
  8
0
100
AcDbBlockBegin
 62
7
  6
CONTINUOUS
  2
*D1
 70
65
 10
0.0
 20
0.0
  3
*D1
  1

  0
MTEXT
  5
232
100
AcDbEntity
  8
0
100
AcDbMText
 62
7
  6
CONTINUOUS
  7
STANDARD
 71
2
 72
1
 10
65.5
 20
0.0
 30
0.0
 11
0.0
 21
1.0
 31
0.0
 73
2
 44
0.9
  1
{\ftxt;\W0.0001;\H0.0001;\~}{\ftxt;\W1.5714285714;\H3.0; }{\ftxt;\W0.0001;\H0.0001;\~}
 40
3.0
 41
7.0714285714
  0
LINE
  5
233
100
AcDbEntity
  8
0
100
AcDbLine
 62
7
  6
CONTINUOUS
 10
60.25
 20
45.0
 11
70.75
 21
45.0
  0
LINE
  5
234
100
AcDbEntity
  8
0
100
AcDbLine
 62
7
  6
CONTINUOUS
 10
60.25
 20
-45.0
 11
70.75
 21
-45.0
  0
LINE
  5
235
100
AcDbEntity
  8
0
100
AcDbLine
 62
7
  6
CONTINUOUS
 10
69.25
 20
45.0
 11
69.25
 21
0.0
  0
LINE
  5
236
100
AcDbEntity
  8
0
100
AcDbLine
 62
7
  6
CONTINUOUS
 10
69.25
 20
-45.0
 11
69.25
 21
0.0
  0
INSERT
  5
237
100
AcDbEntity
  8
0
100
AcDbBlockReference
 62
7
  6
CONTINUOUS
  2
_FILLED
 10
69.25
 20
45.0
 41
3.0
 42
3.0
 43
3.0
 50
90.0
  0
INSERT
  5
238
100
AcDbEntity
  8
0
100
AcDbBlockReference
 62
7
  6
CONTINUOUS
  2
_FILLED
 10
69.25
 20
-45.0
 41
3.0
 42
3.0
 43
3.0
 50
270.0
  0
ENDBLK
  5
239
100
AcDbEntity
  8
0
  6
BYBLOCK
 62
0
100
AcDbBlockEnd
  0
BLOCK
  5
23A
100
AcDbEntity
  8
0
100
AcDbBlockBegin
 62
7
  6
CONTINUOUS
  2
*D2
 70
65
 10
0.0
 20
0.0
  3
*D2
  1

  0
MTEXT
  5
23B
100
AcDbEntity
  8
0
100
AcDbMText
 62
7
  6
CONTINUOUS
  7
STANDARD
 71
3
 72
1
 10
-101.3839165874
 20
56.75
 30
0.0
 11
1.0
 21
0.0
 31
0.0
 73
2
 44
0.9
  1
{\ftxt;\W0.0001;\H0.0001;\~}{\ftxt;\W2.7857142857;\H3.0; }{\ftxt;\W0.0001;\H0.0001;\~}
 40
3.0
 41
12.5357142857
  0
LINE
  5
23C
100
AcDbEntity
  8
0
100
AcDbLine
 62
7
  6
CONTINUOUS
 10
-91.4272962613
 20
43.5384032275
 11
-91.4272962613
 21
54.5
  0
LINE
  5
23D
100
AcDbEntity
  8
0
100
AcDbLine
 62
7
  6
CONTINUOUS
 10
-99.9772962613
 20
44.5
 11
-99.9772962613
 21
54.5
  0
LINE
  5
23E
100
AcDbEntity
  8
0
100
AcDbLine
 62
7
  6
CONTINUOUS
 10
-91.4272962613
 20
53.0
 11
-95.7022962613
 21
53.0
  0
LINE
  5
23F
100
AcDbEntity
  8
0
100
AcDbLine
 62
7
  6
CONTINUOUS
 10
-99.9772962613
 20
53.0
 11
-95.7022962613
 21
53.0
  0
LINE
  5
240
100
AcDbEntity
  8
0
100
AcDbLine
 62
7
  6
CONTINUOUS
 10
-95.7022962613
 20
53.0
 11
-109.7410594446
 21
53.0
  0
INSERT
  5
241
100
AcDbEntity
  8
0
100
AcDbBlockReference
 62
7
  6
CONTINUOUS
  2
_FILLED
 10
-91.4272962613
 20
53.0
 41
3.0
 42
3.0
 43
3.0
  0
INSERT
  5
242
100
AcDbEntity
  8
0
100
AcDbBlockReference
 62
7
  6
CONTINUOUS
  2
_FILLED
 10
-99.9772962613
 20
53.0
 41
3.0
 42
3.0
 43
3.0
 50
180.0
  0
ENDBLK
  5
243
100
AcDbEntity
  8
0
  6
BYBLOCK
 62
0
100
AcDbBlockEnd
  0
BLOCK
  5
244
100
AcDbEntity
  8
0
100
AcDbBlockBegin
 62
7
  6
CONTINUOUS
  2
*D3
 70
65
 10
0.0
 20
0.0
  3
*D3
  1

  0
MTEXT
  5
245
100
AcDbEntity
  8
0
100
AcDbMText
 62
7
  6
CONTINUOUS
  7
STANDARD
 71
3
 72
1
 10
-101.9584692759
 20
66.75
 30
0.0
 11
1.0
 21
0.0
 31
0.0
 73
2
 44
0.9
  1
{\ftxt;\W0.0001;\H0.0001;\~}{\ftxt;\W3.1428571429;\H3.0; }{\ftxt;\W0.0001;\H0.0001;\~}
 40
3.0
 41
14.1428571429
  0
LINE
  5
246
100
AcDbEntity
  8
0
100
AcDbLine
 62
7
  6
CONTINUOUS
 10
-88.4272962613
 20
26.5463167932
 11
-88.4272962613
 21
64.5
  0
LINE
  5
247
100
AcDbEntity
  8
0
100
AcDbLine
 62
7
  6
CONTINUOUS
 10
-99.9772962613
 20
44.5
 11
-99.9772962613
 21
64.5
  0
LINE
  5
248
100
AcDbEntity
  8
0
100
AcDbLine
 62
7
  6
CONTINUOUS
 10
-88.4272962613
 20
63.0
 11
-94.2022962613
 21
63.0
  0
LINE
  5
249
100
AcDbEntity
  8
0
100
AcDbLine
 62
7
  6
CONTINUOUS
 10
-99.9772962613
 20
63.0
 11
-94.2022962613
 21
63.0
  0
LINE
  5
24A
100
AcDbEntity
  8
0
100
AcDbLine
 62
7
  6
CONTINUOUS
 10
-94.2022962613
 20
63.0
 11
-111.3870407045
 21
63.0
  0
INSERT
  5
24B
100
AcDbEntity
  8
0
100
AcDbBlockReference
 62
7
  6
CONTINUOUS
  2
_FILLED
 10
-88.4272962613
 20
63.0
 41
3.0
 42
3.0
 43
3.0
  0
INSERT
  5
24C
100
AcDbEntity
  8
0
100
AcDbBlockReference
 62
7
  6
CONTINUOUS
  2
_FILLED
 10
-99.9772962613
 20
63.0
 41
3.0
 42
3.0
 43
3.0
 50
180.0
  0
ENDBLK
  5
24D
100
AcDbEntity
  8
0
  6
BYBLOCK
 62
0
100
AcDbBlockEnd
  0
ENDSEC
  0
SECTION
  2
ENTITIES
  0
DIMENSION
  5
24E
100
AcDbEntity
  8
0
100
AcDbDimension
 62
7
  6
CONTINUOUS
  2
*D0
 10
60.75
 20
53.0
 11
-0.6785714536
 21
53.0
 70
160
 71
2
 72
2
 41
0.9
 42
122.0
  1
{\ftxt;\W0.0001;\H0.0001;\~}{\ftxt;\W2.1428571429;\H3.0; }{\ftxt;\W0.0001;\H0.0001;\~}
  3
DIMSTYLE_1
100
AcDbAlignedDimension
 13
-61.25
 23
44.0
 14
60.75
 24
44.0
100
AcDbRotatedDimension
  0
DIMENSION
  5
24F
100
AcDbEntity
  8
0
100
AcDbDimension
 62
7
  6
CONTINUOUS
  2
*D1
 10
69.25
 20
-45.0
 11
69.25
 21
-0.4285729185
 70
160
 71
2
 72
2
 41
0.9
 42
90.0
  1
{\ftxt;\W0.0001;\H0.0001;\~}{\ftxt;\W1.5714285714;\H3.0; }{\ftxt;\W0.0001;\H0.0001;\~}
  3
DIMSTYLE_1
100
AcDbAlignedDimension
 13
59.75
 23
45.0
 14
59.75
 24
-45.0
 50
270.0
100
AcDbRotatedDimension
  0
DIMENSION
  5
250
100
AcDbEntity
  8
0
100
AcDbDimension
 62
7
  6
CONTINUOUS
  2
*D2
 10
-99.9772962613
 20
53.0
 11
-105.9910592651
 21
53.0
 70
160
 71
3
 72
2
 41
0.9
 42
8.55
  1
{\ftxt;\W0.0001;\H0.0001;\~}{\ftxt;\W2.7857142857;\H3.0; }{\ftxt;\W0.0001;\H0.0001;\~}
  3
DIMSTYLE_1
100
AcDbAlignedDimension
 13
-91.4272962613
 23
43.0384032275
 14
-99.9772962613
 24
44.0
 50
180.0
100
AcDbRotatedDimension
  0
DIMENSION
  5
251
100
AcDbEntity
  8
0
100
AcDbDimension
 62
7
  6
CONTINUOUS
  2
*D3
 10
-99.9772962613
 20
63.0
 11
-107.1013242645
 21
63.0
 70
160
 71
3
 72
2
 41
0.9
 42
11.55
  1
{\ftxt;\W0.0001;\H0.0001;\~}{\ftxt;\W3.1428571429;\H3.0; }{\ftxt;\W0.0001;\H0.0001;\~}
  3
DIMSTYLE_1
100
AcDbAlignedDimension
 13
-88.4272962613
 23
26.0463167932
 14
-99.9772962613
 24
44.0
 50
180.0
100
AcDbRotatedDimension
  0
LINE
  5
252
100
AcDbEntity
  8
SMUSSO
100
AcDbLine
 62
7
  6
CONTINUOUS
 10
-61.25
 20
44.0
 11
-60.25
 21
45.0
  0
LINE
  5
253
100
AcDbEntity
  8
SMUSSO
100
AcDbLine
 62
7
  6
CONTINUOUS
 10
-60.25
 20
-45.0
 11
-61.25
 21
-44.0
  0
LINE
  5
254
100
AcDbEntity
  8
SMUSSO
100
AcDbLine
 62
7
  6
CONTINUOUS
 10
-61.25
 20
44.0
 11
-61.25
 21
-44.0
  0
LINE
  5
255
100
AcDbEntity
  8
SMUSSO
100
AcDbLine
 62
7
  6
CONTINUOUS
 10
-60.25
 20
44.0
 11
-60.25
 21
-44.0
  0
LINE
  5
256
100
AcDbEntity
  8
SMUSSO
100
AcDbLine
 62
7
  6
CONTINUOUS
 10
-60.25
 20
-45.0
 11
59.75
 21
-45.0
  0
LWPOLYLINE
  5
257
100
AcDbEntity
  8
0
100
AcDbPolyline
 62
7
  6
CONTINUOUS
 90
3
 70
0
 43
0.3500000006
 10
-3.4642857599
 20
55.8928609314
 10
-2.6071427221
 20
56.7499988708
 10
-2.6071427221
 20
53.7499979553
  0
LINE
  5
258
100
AcDbEntity
  8
SMUSSO
100
AcDbLine
 62
7
  6
CONTINUOUS
 10
-60.25
 20
-44.0
 11
59.75
 21
-44.0
  0
LINE
  5
259
100
AcDbEntity
  8
0
100
AcDbLine
 62
7
  6
CONTINUOUS
 10
-34.6
 20
-21.4
 11
-34.6
 21
21.4
  0
LINE
  5
25A
100
AcDbEntity
  8
0
100
AcDbLine
 62
7
  6
CONTINUOUS
 10
-34.1
 20
-21.4
 11
-34.1
 21
21.4
  0
LINE
  5
25B
100
AcDbEntity
  8
0
100
AcDbLine
 62
250
  6
CONTINUOUS
 10
-32.9
 20
23.1
 11
-32.9
 21
22.6
  0
LINE
  5
25C
100
AcDbEntity
  8
0
100
AcDbLine
 62
250
  6
CONTINUOUS
 10
-32.9
 20
-23.1
 11
-32.9
 21
-22.6
  0
LINE
  5
25D
100
AcDbEntity
  8
0
100
AcDbLine
 62
7
  6
CONTINUOUS
 10
32.4
 20
-23.1
 11
-32.9
 21
-23.1
  0
LINE
  5
25E
100
AcDbEntity
  8
0
100
AcDbLine
 62
7
  6
CONTINUOUS
 10
32.4
 20
-22.6
 11
-32.9
 21
-22.6
  0
LINE
  5
25F
100
AcDbEntity
  8
0
100
AcDbLine
 62
250
  6
CONTINUOUS
 10
-34.6
 20
-21.4
 11
-34.1
 21
-21.4
  0
LINE
  5
260
100
AcDbEntity
  8
0
100
AcDbLine
 62
250
  6
CONTINUOUS
 10
34.1
 20
-21.4
 11
33.6
 21
-21.4
  0
LINE
  5
261
100
AcDbEntity
  8
SMUSSO
100
AcDbLine
 62
7
  6
CONTINUOUS
 10
-60.25
 20
-44.0
 11
-60.75
 21
-44.5
  0
LINE
  5
262
100
AcDbEntity
  8
SMUSSO
100
AcDbLine
 62
7
  6
CONTINUOUS
 10
-60.75
 20
44.5
 11
-60.25
 21
44.0
  0
LWPOLYLINE
  5
263
100
AcDbEntity
  8
0
100
AcDbPolyline
 62
7
  6
CONTINUOUS
 90
13
 70
0
 43
0.3500000006
 10
67.6428557739
 20
-0.0000003204
 10
66.3571443329
 20
-0.0000003204
 10
65.9285708313
 20
0.2142864304
 10
65.5000018616
 20
0.642857666
 10
65.5000018616
 20
0.8571421509
 10
65.9285708313
 20
1.2857133865
 10
66.3571443329
 20
1.5000001373
 10
67.6428557739
 20
1.5000001373
 10
68.0714292755
 20
1.2857133865
 10
68.4999982452
 20
0.8571421509
 10
68.4999982452
 20
0.642857666
 10
68.0714292755
 20
0.2142864304
 10
67.6428557739
 20
-0.0000003204
  0
LINE
  5
264
100
AcDbEntity
  8
SMUSSO
100
AcDbLine
 62
7
  6
CONTINUOUS
 10
60.25
 20
44.5
 11
59.75
 21
44.0
  0
LINE
  5
265
100
AcDbEntity
  8
SMUSSO
100
AcDbLine
 62
7
  6
CONTINUOUS
 10
60.25
 20
-44.5
 11
59.75
 21
-44.0
  0
LINE
  5
266
100
AcDbEntity
  8
0
100
AcDbLine
 62
250
  6
CONTINUOUS
 10
-34.6
 20
21.4
 11
-34.1
 21
21.4
  0
LINE
  5
267
100
AcDbEntity
  8
0
100
AcDbLine
 62
250
  6
CONTINUOUS
 10
34.1
 20
21.4
 11
33.6
 21
21.4
  0
LINE
  5
268
100
AcDbEntity
  8
0
100
AcDbLine
 62
7
  6
CONTINUOUS
 10
-32.9
 20
22.6
 11
32.4
 21
22.6
  0
LINE
  5
269
100
AcDbEntity
  8
0
100
AcDbLine
 62
7
  6
CONTINUOUS
 10
-32.9
 20
23.1
 11
32.4
 21
23.1
  0
LINE
  5
26A
100
AcDbEntity
  8
0
100
AcDbLine
 62
250
  6
CONTINUOUS
 10
32.4
 20
23.1
 11
32.4
 21
22.6
  0
LINE
  5
26B
100
AcDbEntity
  8
0
100
AcDbLine
 62
250
  6
CONTINUOUS
 10
32.4
 20
-23.1
 11
32.4
 21
-22.6
  0
LINE
  5
26C
100
AcDbEntity
  8
0
100
AcDbLine
 62
7
  6
CONTINUOUS
 10
33.6
 20
21.4
 11
33.6
 21
-21.4
  0
LINE
  5
26D
100
AcDbEntity
  8
0
100
AcDbLine
 62
7
  6
CONTINUOUS
 10
34.1
 20
21.4
 11
34.1
 21
-21.4
  0
LINE
  5
26E
100
AcDbEntity
  8
SMUSSO
100
AcDbLine
 62
7
  6
CONTINUOUS
 10
59.75
 20
44.0
 11
-60.25
 21
44.0
  0
LINE
  5
26F
100
AcDbEntity
  8
SMUSSO
100
AcDbLine
 62
7
  6
CONTINUOUS
 10
59.75
 20
45.0
 11
-60.25
 21
45.0
  0
LWPOLYLINE
  5
270
100
AcDbEntity
  8
0
100
AcDbPolyline
 62
7
  6
CONTINUOUS
 90
10
 70
0
 43
0.3500000006
 10
68.4999982452
 20
-1.9285708809
 10
67.6428557739
 20
-1.0714295425
 10
66.7857133026
 20
-0.8571427917
 10
65.9285708313
 20
-0.8571427917
 10
65.5000018616
 20
-1.2857140274
 10
65.5000018616
 20
-1.9285708809
 10
65.9285708313
 20
-2.3571432495
 10
66.7857133026
 20
-2.3571432495
 10
67.2142868042
 20
-1.9285708809
 10
67.2142868042
 20
-1.0000006256
  0
LWPOLYLINE
  5
271
100
AcDbEntity
  8
0
100
AcDbPolyline
 62
7
  6
CONTINUOUS
 90
7
 70
0
 43
0.3500000006
 10
2.1071428528
 20
53.7499979553
 10
0.6071428907
 20
53.7499979553
 10
2.1071428528
 20
55.8928609314
 10
2.1071428528
 20
56.3214299011
 10
1.6785714755
 20
56.7499988708
 10
1.035714268
 20
56.7499988708
 10
0.6071428907
 20
56.1071454163
  0
LWPOLYLINE
  5
272
100
AcDbEntity
  8
0
100
AcDbPolyline
 62
7
  6
CONTINUOUS
 90
7
 70
0
 43
0.3500000006
 10
-0.2500000055
 20
53.7499979553
 10
-1.7499999676
 20
53.7499979553
 10
-0.2500000055
 20
55.8928609314
 10
-0.2500000055
 20
56.3214299011
 10
-0.6785714536
 20
56.7499988708
 10
-1.3214285903
 20
56.7499988708
 10
-1.7499999676
 20
56.1071454163
  0
LINE
  5
273
100
AcDbEntity
  8
SMUSSO
100
AcDbLine
 62
7
  6
CONTINUOUS
 10
59.75
 20
-44.0
 11
59.75
 21
44.0
  0
LINE
  5
274
100
AcDbEntity
  8
SMUSSO
100
AcDbLine
 62
7
  6
CONTINUOUS
 10
60.75
 20
-44.0
 11
60.75
 21
44.0
  0
LINE
  5
275
100
AcDbEntity
  8
SMUSSO
100
AcDbLine
 62
7
  6
CONTINUOUS
 10
60.75
 20
-44.0
 11
59.75
 21
-45.0
  0
LINE
  5
276
100
AcDbEntity
  8
SMUSSO
100
AcDbLine
 62
7
  6
CONTINUOUS
 10
59.75
 20
45.0
 11
60.75
 21
44.0
  0
LWPOLYLINE
  5
277
100
AcDbEntity
  8
0
100
AcDbPolyline
 62
7
  6
CONTINUOUS
 90
3
 70
0
 43
0.3500000006
 10
-111.3870366211
 20
65.8928549194
 10
-110.5298986816
 20
66.7500019226
 10
-110.5298986816
 20
63.7500010071
  0
LWPOLYLINE
  5
278
100
AcDbEntity
  8
0
100
AcDbPolyline
 62
7
  6
CONTINUOUS
 90
3
 70
0
 43
0.3500000006
 10
-109.6727516785
 20
65.8928549194
 10
-108.815613739
 20
66.7500019226
 10
-108.815613739
 20
63.7500010071
  0
LINE
  5
279
100
AcDbEntity
  8
SMUSSO
100
AcDbLine
 62
7
  6
CONTINUOUS
 10
-98.9772962613
 20
-45.0
 11
-96.4772962613
 21
-45.0
  0
LINE
  5
27A
100
AcDbEntity
  8
0
100
AcDbLine
 62
250
  6
CONTINUOUS
 10
-92.9264987024
 20
-43.3354659698
 11
-91.4272962613
 21
-43.0384032275
  0
LINE
  5
27B
100
AcDbEntity
  8
ASSI
100
AcDbLine
 62
250
  6
CONTINUOUS
 10
-92.9264987024
 20
-43.3354659698
 11
-91.4272962613
 21
-43.0384032275
  0
LINE
  5
27C
100
AcDbEntity
  8
0
100
AcDbLine
 62
7
  6
CONTINUOUS
 10
-95.8272962613
 20
-44.3506196883
 11
-92.9272962613
 21
-44.3
  0
LINE
  5
27D
100
AcDbEntity
  8
ASSI
100
AcDbLine
 62
7
  6
CONTINUOUS
 10
-95.8272962613
 20
-44.3506196883
 11
-92.9272962613
 21
-44.3
  0
LINE
  5
27E
100
AcDbEntity
  8
0
100
AcDbLine
 62
250
  6
CONTINUOUS
 10
-95.8272962613
 20
-43.3507719931
 11
-92.9272962613
 21
-43.3001523048
  0
LINE
  5
27F
100
AcDbEntity
  8
ASSI
100
AcDbLine
 62
250
  6
CONTINUOUS
 10
-95.8272962613
 20
-43.3507719931
 11
-92.9272962613
 21
-43.3001523048
  0
LINE
  5
280
100
AcDbEntity
  8
SMUSSO
100
AcDbLine
 62
7
  6
CONTINUOUS
 10
-98.9772962613
 20
-44.0
 11
-96.4772962613
 21
-44.0
  0
LINE
  5
281
100
AcDbEntity
  8
RACCORDO
100
AcDbLine
 62
7
  6
CONTINUOUS
 10
-95.9772962613
 20
-40.0
 11
-95.8272962613
 21
-40.0
  0
LINE
  5
282
100
AcDbEntity
  8
RACCORDO
100
AcDbLine
 62
250
  6
CONTINUOUS
 10
-95.9772962613
 20
-38.0
 11
-95.8272962613
 21
-38.0
  0
LINE
  5
283
100
AcDbEntity
  8
0
100
AcDbLine
 62
250
  6
CONTINUOUS
 10
-93.4088022613
 20
-36.161141
 11
-95.3087622613
 21
-36.161141
  0
LINE
  5
284
100
AcDbEntity
  8
SMUSSO
100
AcDbLine
 62
7
  6
CONTINUOUS
 10
-98.9772962613
 20
45.0
 11
-99.9772962613
 21
44.0
  0
LINE
  5
285
100
AcDbEntity
  8
0
100
AcDbLine
 62
250
  6
CONTINUOUS
 10
-94.0009252613
 20
-37.077819
 11
-95.3086482613
 21
-37.439964
  0
LINE
  5
286
100
AcDbEntity
  8
0
100
AcDbLine
 62
250
  6
CONTINUOUS
 10
-93.4088022613
 20
-33.624309
 11
-95.3086482613
 21
-33.801966
  0
LINE
  5
287
100
AcDbEntity
  8
0
100
AcDbLine
 62
250
  6
CONTINUOUS
 10
-94.6441942613
 20
-34.093739
 11
-93.4088022613
 21
-34.012262
  0
LINE
  5
288
100
AcDbEntity
  8
0
100
AcDbLine
 62
250
  6
CONTINUOUS
 10
-95.3087622613
 20
-35.764569
 11
-93.4088022613
 21
-35.764569
  0
LINE
  5
289
100
AcDbEntity
  8
0
100
AcDbLine
 62
250
  6
CONTINUOUS
 10
-93.4088022613
 20
-35.171691
 11
-94.6493662613
 21
-35.08611
  0
LINE
  5
28A
100
AcDbEntity
  8
0
100
AcDbLine
 62
250
  6
CONTINUOUS
 10
-95.3086482613
 20
-35.379536
 11
-93.4088022613
 21
-35.551081
  0
LINE
  5
28B
100
AcDbEntity
  8
0
100
AcDbLine
 62
250
  6
CONTINUOUS
 10
-95.3086482613
 20
-36.704611
 11
-94.0009252613
 21
-37.077819
  0
LINE
  5
28C
100
AcDbEntity
  8
0
100
AcDbLine
 62
250
  6
CONTINUOUS
 10
-93.4088022613
 20
-36.918996
 11
-95.3086482613
 21
-36.30831
  0
LINE
  5
28D
100
AcDbEntity
  8
SMUSSO
100
AcDbLine
 62
7
  6
CONTINUOUS
 10
-98.9772962613
 20
-45.0
 11
-99.9772962613
 21
-44.0
  0
LWPOLYLINE
  5
28E
100
AcDbEntity
  8
0
100
AcDbPolyline
 62
7
  6
CONTINUOUS
 90
3
 70
0
 43
0.3500000006
 10
-107.2441820984
 20
64.0357166748
 10
-107.3156132813
 20
63.8214321899
 10
-107.4584665833
 20
63.5357165222
  0
LINE
  5
28F
100
AcDbEntity
  8
SMUSSO
100
AcDbLine
 62
7
  6
CONTINUOUS
 10
-96.4772962613
 20
44.0
 11
-95.9772962613
 21
44.5
  0
LINE
  5
290
100
AcDbEntity
  8
0
100
AcDbLine
 62
250
  6
CONTINUOUS
 10
-93.7880792613
 20
-32.520272
 11
-93.4088022613
 21
-32.417539
  0
LINE
  5
291
100
AcDbEntity
  8
0
100
AcDbLine
 62
250
  6
CONTINUOUS
 10
-94.7866192613
 20
-32.781757
 11
-94.0815622613
 21
-32.599527
  0
LINE
  5
292
100
AcDbEntity
  8
0
100
AcDbLine
 62
250
  6
CONTINUOUS
 10
-93.4088025152
 20
-31.8831153973
 11
-95.28645172
 21
-31.8831153973
  0
LINE
  5
293
100
AcDbEntity
  8
0
100
AcDbLine
 62
250
  6
CONTINUOUS
 10
-94.9849906845
 20
-31.5012884969
 11
-94.463445997
 21
-31.5012884969
  0
LINE
  5
294
100
AcDbEntity
  8
0
100
AcDbLine
 62
250
  6
CONTINUOUS
 10
-94.1522971778
 20
-31.4881387551
 11
-93.4088025152
 21
-31.4881387551
  0
LINE
  5
295
100
AcDbEntity
  8
0
100
AcDbLine
 62
250
  6
CONTINUOUS
 10
-94.3068600688
 20
-30.8635473914
 11
-94.295633637
 21
-30.8635473914
  0
LINE
  5
296
100
AcDbEntity
  8
0
100
AcDbLine
 62
250
  6
CONTINUOUS
 10
-94.0815622613
 20
-32.979217
 11
-94.7866192613
 21
-32.781757
  0
LINE
  5
297
100
AcDbEntity
  8
0
100
AcDbLine
 62
250
  6
CONTINUOUS
 10
-93.4088022613
 20
-33.169767
 11
-93.7880792613
 21
-33.060338
  0
LINE
  5
298
100
AcDbEntity
  8
0
100
AcDbLine
 62
250
  6
CONTINUOUS
 10
-95.3086482613
 20
-32.966124
 11
-93.4088022613
 21
-33.562037
  0
LINE
  5
299
100
AcDbEntity
  8
0
100
AcDbLine
 62
250
  6
CONTINUOUS
 10
-95.3086482613
 20
-34.194336
 11
-94.2538482613
 21
-34.590908
  0
LINE
  5
29A
100
AcDbEntity
  8
0
100
AcDbLine
 62
250
  6
CONTINUOUS
 10
-93.4088022613
 20
-34.565264
 11
-94.6441942613
 21
-34.093739
  0
LINE
  5
29B
100
AcDbEntity
  8
SMUSSO
100
AcDbLine
 62
7
  6
CONTINUOUS
 10
-95.9772962613
 20
-44.5
 11
-96.4772962613
 21
-44.0
  0
LWPOLYLINE
  5
29C
100
AcDbEntity
  8
0
100
AcDbPolyline
 62
7
  6
CONTINUOUS
 90
3
 70
0
 43
0.3500000006
 10
-106.669632843
 20
54.035713623
 10
-106.7410549622
 20
53.8214291382
 10
-106.8839173279
 20
53.5357134705
  0
LINE
  5
29D
100
AcDbEntity
  8
0
100
AcDbLine
 62
7
  6
CONTINUOUS
 10
-90.4272962613
 20
-27.15
 11
-91.4272962613
 21
-27.151745331
  0
LINE
  5
29E
100
AcDbEntity
  8
ASSI
100
AcDbLine
 62
7
  6
CONTINUOUS
 10
-90.4272962613
 20
-27.15
 11
-91.4272962613
 21
-27.151745331
  0
LINE
  5
29F
100
AcDbEntity
  8
0
100
AcDbLine
 62
250
  6
CONTINUOUS
 10
-90.5015236775
 20
-26.9276792439
 11
-91.4272962613
 21
-26.9280974384
  0
LINE
  5
2A0
100
AcDbEntity
  8
ASSI
100
AcDbLine
 62
250
  6
CONTINUOUS
 10
-90.5015236775
 20
-26.9276792439
 11
-91.4272962613
 21
-26.9280974384
  0
LINE
  5
2A1
100
AcDbEntity
  8
RACCORDO
100
AcDbLine
 62
250
  6
CONTINUOUS
 10
-95.9772962613
 20
-29.5
 11
-95.8272962613
 21
-29.5
  0
LINE
  5
2A2
100
AcDbEntity
  8
RACCORDO
100
AcDbLine
 62
7
  6
CONTINUOUS
 10
-95.9772962613
 20
-27.5
 11
-95.8272962613
 21
-27.5
  0
LINE
  5
2A3
100
AcDbEntity
  8
0
100
AcDbLine
 62
7
  6
CONTINUOUS
 10
-88.977247029
 20
-26.3415638603
 11
-91.4272962613
 21
-26.3558178298
  0
LINE
  5
2A4
100
AcDbEntity
  8
ASSI
100
AcDbLine
 62
7
  6
CONTINUOUS
 10
-88.977247029
 20
-26.3415638603
 11
-91.4272962613
 21
-26.3558178298
  0
LINE
  5
2A5
100
AcDbEntity
  8
0
100
AcDbLine
 62
250
  6
CONTINUOUS
 10
-88.977247029
 20
-26.2536973817
 11
-91.4272962613
 21
-26.2679513512
  0
LINE
  5
2A6
100
AcDbEntity
  8
ASSI
100
AcDbLine
 62
250
  6
CONTINUOUS
 10
-88.977247029
 20
-26.2536973817
 11
-91.4272962613
 21
-26.2679513512
  0
LINE
  5
2A7
100
AcDbEntity
  8
RACCORDO
100
AcDbLine
 62
250
  6
CONTINUOUS
 10
-95.8272962613
 20
-26.5
 11
-95.9772962613
 21
-26.5
  0
LINE
  5
2A8
100
AcDbEntity
  8
0
100
AcDbLine
 62
7
  6
CONTINUOUS
 10
-88.4272962613
 20
-26.1523612067
 11
-88.5478590283
 21
-26.1523612067
  0
LINE
  5
2A9
100
AcDbEntity
  8
ASSI
100
AcDbLine
 62
7
  6
CONTINUOUS
 10
-88.4272962613
 20
-26.1523612067
 11
-88.5478590283
 21
-26.1523612067
  0
LINE
  5
2AA
100
AcDbEntity
  8
0
100
AcDbLine
 62
7
  6
CONTINUOUS
 10
-90.4771718824
 20
-25.2
 11
-91.4272962613
 21
-25.2
  0
LINE
  5
2AB
100
AcDbEntity
  8
ASSI
100
AcDbLine
 62
7
  6
CONTINUOUS
 10
-90.4771718824
 20
-25.2
 11
-91.4272962613
 21
-25.2
  0
LINE
  5
2AC
100
AcDbEntity
  8
0
100
AcDbLine
 62
7
  6
CONTINUOUS
 10
-91.4272962613
 20
-25.05
 11
-91.2772962613
 21
-25.05
  0
LINE
  5
2AD
100
AcDbEntity
  8
ASSI
100
AcDbLine
 62
7
  6
CONTINUOUS
 10
-91.4272962613
 20
-25.05
 11
-91.2772962613
 21
-25.05
  0
LINE
  5
2AE
100
AcDbEntity
  8
0
100
AcDbLine
 62
7
  6
CONTINUOUS
 10
-90.9772962613
 20
-25.05
 11
-90.7772962613
 21
-25.05
  0
LINE
  5
2AF
100
AcDbEntity
  8
ASSI
100
AcDbLine
 62
7
  6
CONTINUOUS
 10
-90.9772962613
 20
-25.05
 11
-90.7772962613
 21
-25.05
  0
LINE
  5
2B0
100
AcDbEntity
  8
0
100
AcDbLine
 62
7
  6
CONTINUOUS
 10
-88.4272962613
 20
-25.3523612067
 11
-88.9492329156
 21
-25.3478063346
  0
LINE
  5
2B1
100
AcDbEntity
  8
ASSI
100
AcDbLine
 62
7
  6
CONTINUOUS
 10
-88.4272962613
 20
-25.3523612067
 11
-88.9492329156
 21
-25.3478063346
  0
LINE
  5
2B2
100
AcDbEntity
  8
0
100
AcDbLine
 62
7
  6
CONTINUOUS
 10
-91.4272962613
 20
-25.7558198745
 11
-88.61682907
 21
-25.8799866677
  0
LINE
  5
2B3
100
AcDbEntity
  8
ASSI
100
AcDbLine
 62
7
  6
CONTINUOUS
 10
-91.4272962613
 20
-25.7558198745
 11
-88.61682907
 21
-25.8799866677
  0
LINE
  5
2B4
100
AcDbEntity
  8
0
100
AcDbLine
 62
7
  6
CONTINUOUS
 10
-88.4272962613
 20
-25.4
 11
-90.3776681634
 21
-25.2049628098
  0
LINE
  5
2B5
100
AcDbEntity
  8
ASSI
100
AcDbLine
 62
7
  6
CONTINUOUS
 10
-88.4272962613
 20
-25.4
 11
-90.3776681634
 21
-25.2049628098
  0
LINE
  5
2B6
100
AcDbEntity
  8
RACCORDO
100
AcDbLine
 62
7
  6
CONTINUOUS
 10
-95.9772962613
 20
-22.0
 11
-95.8272962613
 21
-22.0
  0
LINE
  5
2B7
100
AcDbEntity
  8
RACCORDO
100
AcDbLine
 62
250
  6
CONTINUOUS
 10
-95.9772962613
 20
-20.0
 11
-95.8272962613
 21
-20.0
  0
LWPOLYLINE
  5
2B8
100
AcDbEntity
  8
0
100
AcDbPolyline
 62
7
  6
CONTINUOUS
 90
4
 70
0
 43
0.3500000006
 10
-109.7410558777
 20
54.1785714569
 10
-109.7410558777
 20
55.0357139282
 10
-109.312486908
 20
55.4642874298
 10
-108.6696334534
 20
55.4642874298
  0
LINE
  5
2B9
100
AcDbEntity
  8
0
100
AcDbLine
 62
7
  6
CONTINUOUS
 10
-91.2772962613
 20
25.05
 11
-91.1272962613
 21
25.2
  0
LINE
  5
2BA
100
AcDbEntity
  8
ASSI
100
AcDbLine
 62
7
  6
CONTINUOUS
 10
-91.2772962613
 20
25.05
 11
-91.1272962613
 21
25.2
  0
LINE
  5
2BB
100
AcDbEntity
  8
0
100
AcDbLine
 62
7
  6
CONTINUOUS
 10
-90.7772962613
 20
25.05
 11
-90.6272962613
 21
25.2
  0
LINE
  5
2BC
100
AcDbEntity
  8
ASSI
100
AcDbLine
 62
7
  6
CONTINUOUS
 10
-90.7772962613
 20
25.05
 11
-90.6272962613
 21
25.2
  0
LINE
  5
2BD
100
AcDbEntity
  8
0
100
AcDbLine
 62
7
  6
CONTINUOUS
 10
-91.2772962613
 20
-25.05
 11
-91.1272962613
 21
-25.2
  0
LINE
  5
2BE
100
AcDbEntity
  8
ASSI
100
AcDbLine
 62
7
  6
CONTINUOUS
 10
-91.2772962613
 20
-25.05
 11
-91.1272962613
 21
-25.2
  0
LINE
  5
2BF
100
AcDbEntity
  8
0
100
AcDbLine
 62
7
  6
CONTINUOUS
 10
-90.7772962613
 20
-25.05
 11
-90.6272962613
 21
-25.2
  0
LINE
  5
2C0
100
AcDbEntity
  8
ASSI
100
AcDbLine
 62
7
  6
CONTINUOUS
 10
-90.7772962613
 20
-25.05
 11
-90.6272962613
 21
-25.2
  0
LINE
  5
2C1
100
AcDbEntity
  8
SMUSSO
100
AcDbLine
 62
7
  6
CONTINUOUS
 10
-99.9772962613
 20
-44.0
 11
-99.9772962613
 21
44.0
  0
LINE
  5
2C2
100
AcDbEntity
  8
SMUSSO
100
AcDbLine
 62
7
  6
CONTINUOUS
 10
-98.9772962613
 20
-44.0
 11
-98.9772962613
 21
44.0
  0
LINE
  5
2C3
100
AcDbEntity
  8
SMUSSO
100
AcDbLine
 62
7
  6
CONTINUOUS
 10
-96.4772962613
 20
44.0
 11
-96.4772962613
 21
-44.0
  0
LINE
  5
2C4
100
AcDbEntity
  8
SMUSSO
100
AcDbLine
 62
7
  6
CONTINUOUS
 10
-95.9772962613
 20
44.5
 11
-95.9772962613
 21
-44.5
  0
LINE
  5
2C5
100
AcDbEntity
  8
0
100
AcDbLine
 62
7
  6
CONTINUOUS
 10
-95.8272962613
 20
-44.3506196883
 11
-95.8272962613
 21
44.3506196883
  0
LINE
  5
2C6
100
AcDbEntity
  8
ASSI
100
AcDbLine
 62
7
  6
CONTINUOUS
 10
-95.8272962613
 20
-44.3506196883
 11
-95.8272962613
 21
44.3506196883
  0
LINE
  5
2C7
100
AcDbEntity
  8
0
100
AcDbLine
 62
250
  6
CONTINUOUS
 10
-95.3087622613
 20
-36.161141
 11
-95.3087622613
 21
-35.764569
  0
LINE
  5
2C8
100
AcDbEntity
  8
0
100
AcDbLine
 62
250
  6
CONTINUOUS
 10
-95.3086482613
 20
-32.582488
 11
-95.3086482613
 21
-32.966124
  0
LINE
  5
2C9
100
AcDbEntity
  8
0
100
AcDbLine
 62
250
  6
CONTINUOUS
 10
-95.3086482613
 20
-33.801966
 11
-95.3086482613
 21
-34.194336
  0
LINE
  5
2CA
100
AcDbEntity
  8
0
100
AcDbLine
 62
250
  6
CONTINUOUS
 10
-95.3086482613
 20
-34.983292
 11
-95.3086482613
 21
-35.379536
  0
LINE
  5
2CB
100
AcDbEntity
  8
0
100
AcDbLine
 62
250
  6
CONTINUOUS
 10
-95.3086482613
 20
-36.30831
 11
-95.3086482613
 21
-36.704611
  0
LINE
  5
2CC
100
AcDbEntity
  8
0
100
AcDbLine
 62
250
  6
CONTINUOUS
 10
-95.3086482613
 20
-37.439964
 11
-95.3086482613
 21
-37.870764
  0
LINE
  5
2CD
100
AcDbEntity
  8
0
100
AcDbLine
 62
250
  6
CONTINUOUS
 10
-94.463445997
 20
-31.5012884969
 11
-94.463445997
 21
-31.2746513441
  0
LINE
  5
2CE
100
AcDbEntity
  8
0
100
AcDbLine
 62
250
  6
CONTINUOUS
 10
-94.1522971778
 20
-31.2755061485
 11
-94.1522971778
 21
-31.4881387551
  0
LINE
  5
2CF
100
AcDbEntity
  8
0
100
AcDbLine
 62
250
  6
CONTINUOUS
 10
-94.0815622613
 20
-32.599527
 11
-94.0815622613
 21
-32.979217
  0
LINE
  5
2D0
100
AcDbEntity
  8
0
100
AcDbLine
 62
250
  6
CONTINUOUS
 10
-93.7880792613
 20
-33.060338
 11
-93.7880792613
 21
-32.520272
  0
LINE
  5
2D1
100
AcDbEntity
  8
0
100
AcDbLine
 62
250
  6
CONTINUOUS
 10
-93.4088025152
 20
-30.4993864496
 11
-93.4088025152
 21
-30.8808429347
  0
LINE
  5
2D2
100
AcDbEntity
  8
0
100
AcDbLine
 62
250
  6
CONTINUOUS
 10
-93.4088025152
 20
-31.4881387551
 11
-93.4088025152
 21
-31.8831153973
  0
LINE
  5
2D3
100
AcDbEntity
  8
0
100
AcDbLine
 62
250
  6
CONTINUOUS
 10
-93.4088022613
 20
-37.268476
 11
-93.4088022613
 21
-36.918996
  0
LINE
  5
2D4
100
AcDbEntity
  8
0
100
AcDbLine
 62
250
  6
CONTINUOUS
 10
-93.4088022613
 20
-35.551081
 11
-93.4088022613
 21
-35.171691
  0
LINE
  5
2D5
100
AcDbEntity
  8
0
100
AcDbLine
 62
250
  6
CONTINUOUS
 10
-93.4088022613
 20
-34.620883
 11
-93.4088022613
 21
-34.565264
  0
LINE
  5
2D6
100
AcDbEntity
  8
0
100
AcDbLine
 62
250
  6
CONTINUOUS
 10
-93.4088022613
 20
-34.012262
 11
-93.4088022613
 21
-33.624309
  0
LINE
  5
2D7
100
AcDbEntity
  8
0
100
AcDbLine
 62
250
  6
CONTINUOUS
 10
-93.4088022613
 20
-33.562037
 11
-93.4088022613
 21
-33.169767
  0
LINE
  5
2D8
100
AcDbEntity
  8
0
100
AcDbLine
 62
250
  6
CONTINUOUS
 10
-93.4088022613
 20
-32.417539
 11
-93.4088022613
 21
-31.999568
  0
LINE
  5
2D9
100
AcDbEntity
  8
0
100
AcDbLine
 62
250
  6
CONTINUOUS
 10
-93.4088022613
 20
-35.764569
 11
-93.4088022613
 21
-36.161141
  0
LINE
  5
2DA
100
AcDbEntity
  8
0
100
AcDbLine
 62
7
  6
CONTINUOUS
 10
-92.9272962613
 20
43.3001523048
 11
-92.9272962613
 21
-43.3001523048
  0
LINE
  5
2DB
100
AcDbEntity
  8
ASSI
100
AcDbLine
 62
7
  6
CONTINUOUS
 10
-92.9272962613
 20
43.3001523048
 11
-92.9272962613
 21
-43.3001523048
  0
LINE
  5
2DC
100
AcDbEntity
  8
0
100
AcDbLine
 62
7
  6
CONTINUOUS
 10
-91.4272962613
 20
43.1
 11
-91.4272962613
 21
-43.1
  0
LINE
  5
2DD
100
AcDbEntity
  8
ASSI
100
AcDbLine
 62
7
  6
CONTINUOUS
 10
-91.4272962613
 20
43.1
 11
-91.4272962613
 21
-43.1
  0
LINE
  5
2DE
100
AcDbEntity
  8
0
100
AcDbLine
 62
250
  6
CONTINUOUS
 10
-90.501459058
 20
-27.1501294386
 11
-90.5015236775
 21
-26.9276792439
  0
LINE
  5
2DF
100
AcDbEntity
  8
ASSI
100
AcDbLine
 62
250
  6
CONTINUOUS
 10
-90.501459058
 20
-27.1501294386
 11
-90.5015236775
 21
-26.9276792439
  0
LINE
  5
2E0
100
AcDbEntity
  8
0
100
AcDbLine
 62
250
  6
CONTINUOUS
 10
-88.7115954744
 20
25.3715700787
 11
-88.7115954744
 21
25.3498801651
  0
LINE
  5
2E1
100
AcDbEntity
  8
ASSI
100
AcDbLine
 62
250
  6
CONTINUOUS
 10
-88.7115954744
 20
25.3715700787
 11
-88.7115954744
 21
25.3498801651
  0
LINE
  5
2E2
100
AcDbEntity
  8
0
100
AcDbLine
 62
250
  6
CONTINUOUS
 10
-88.7115954744
 20
-25.3498801651
 11
-88.7115954744
 21
-25.3715700787
  0
LINE
  5
2E3
100
AcDbEntity
  8
ASSI
100
AcDbLine
 62
250
  6
CONTINUOUS
 10
-88.7115954744
 20
-25.3498801651
 11
-88.7115954744
 21
-25.3715700787
  0
LINE
  5
2E4
100
AcDbEntity
  8
0
100
AcDbLine
 62
250
  6
CONTINUOUS
 10
-88.61682907
 20
25.8799866677
 11
-88.61682907
 21
25.3810467191
  0
LINE
  5
2E5
100
AcDbEntity
  8
ASSI
100
AcDbLine
 62
250
  6
CONTINUOUS
 10
-88.61682907
 20
25.8799866677
 11
-88.61682907
 21
25.3810467191
  0
LINE
  5
2E6
100
AcDbEntity
  8
0
100
AcDbLine
 62
250
  6
CONTINUOUS
 10
-88.61682907
 20
-25.3810467191
 11
-88.61682907
 21
-25.8799866677
  0
LINE
  5
2E7
100
AcDbEntity
  8
ASSI
100
AcDbLine
 62
250
  6
CONTINUOUS
 10
-88.61682907
 20
-25.3810467191
 11
-88.61682907
 21
-25.8799866677
  0
LINE
  5
2E8
100
AcDbEntity
  8
0
100
AcDbLine
 62
7
  6
CONTINUOUS
 10
-88.4272962613
 20
26.1523612067
 11
-88.4272962613
 21
25.3523612067
  0
LINE
  5
2E9
100
AcDbEntity
  8
ASSI
100
AcDbLine
 62
7
  6
CONTINUOUS
 10
-88.4272962613
 20
26.1523612067
 11
-88.4272962613
 21
25.3523612067
  0
LINE
  5
2EA
100
AcDbEntity
  8
0
100
AcDbLine
 62
7
  6
CONTINUOUS
 10
-88.4272962613
 20
-25.3523612067
 11
-88.4272962613
 21
-26.1523612067
  0
LINE
  5
2EB
100
AcDbEntity
  8
ASSI
100
AcDbLine
 62
7
  6
CONTINUOUS
 10
-88.4272962613
 20
-25.3523612067
 11
-88.4272962613
 21
-26.1523612067
  0
LINE
  5
2EC
100
AcDbEntity
  8
0
100
AcDbLine
 62
250
  6
CONTINUOUS
 10
-90.5015236775
 20
26.9276792439
 11
-90.501459058
 21
27.1501294386
  0
LINE
  5
2ED
100
AcDbEntity
  8
ASSI
100
AcDbLine
 62
250
  6
CONTINUOUS
 10
-90.5015236775
 20
26.9276792439
 11
-90.501459058
 21
27.1501294386
  0
LWPOLYLINE
  5
2EE
100
AcDbEntity
  8
0
100
AcDbPolyline
 62
7
  6
CONTINUOUS
 90
10
 70
0
 43
0.3500000006
 10
-106.7410549622
 20
54.2499981079
 10
-106.669632843
 20
54.1071448059
 10
-106.669632843
 20
54.035713623
 10
-106.812486145
 20
53.8928557892
 10
-106.8839173279
 20
53.8928557892
 10
-106.9553485107
 20
53.964286972
 10
-106.9553485107
 20
54.035713623
 10
-106.8839173279
 20
54.1785714569
 10
-106.812486145
 20
54.2499981079
 10
-106.7410549622
 20
54.2499981079
  0
LWPOLYLINE
  5
2EF
100
AcDbEntity
  8
0
100
AcDbPolyline
 62
7
  6
CONTINUOUS
 90
10
 70
0
 43
0.3500000006
 10
-107.3156132813
 20
64.2500011597
 10
-107.2441820984
 20
64.1071387939
 10
-107.2441820984
 20
64.0357166748
 10
-107.3870444641
 20
63.8928543091
 10
-107.4584665833
 20
63.8928543091
 10
-107.5298977661
 20
63.9642854919
 10
-107.5298977661
 20
64.0357166748
 10
-107.4584665833
 20
64.1785699768
 10
-107.3870444641
 20
64.2500011597
 10
-107.3156132813
 20
64.2500011597
  0
LINE
  5
2F0
100
AcDbEntity
  8
0
100
AcDbLine
 62
7
  6
CONTINUOUS
 10
-91.1272962613
 20
-25.2
 11
-90.9772962613
 21
-25.05
  0
LINE
  5
2F1
100
AcDbEntity
  8
ASSI
100
AcDbLine
 62
7
  6
CONTINUOUS
 10
-91.1272962613
 20
-25.2
 11
-90.9772962613
 21
-25.05
  0
LINE
  5
2F2
100
AcDbEntity
  8
0
100
AcDbLine
 62
7
  6
CONTINUOUS
 10
-91.1272962613
 20
25.2
 11
-90.9772962613
 21
25.05
  0
LINE
  5
2F3
100
AcDbEntity
  8
ASSI
100
AcDbLine
 62
7
  6
CONTINUOUS
 10
-91.1272962613
 20
25.2
 11
-90.9772962613
 21
25.05
  0
LINE
  5
2F4
100
AcDbEntity
  8
0
100
AcDbLine
 62
250
  6
CONTINUOUS
 10
-90.5015236775
 20
-26.9276792439
 11
-89.4020048176
 21
-26.3440350289
  0
LINE
  5
2F5
100
AcDbEntity
  8
ASSI
100
AcDbLine
 62
250
  6
CONTINUOUS
 10
-90.5015236775
 20
-26.9276792439
 11
-89.4020048176
 21
-26.3440350289
  0
LINE
  5
2F6
100
AcDbEntity
  8
0
100
AcDbLine
 62
250
  6
CONTINUOUS
 10
-88.977247029
 20
-26.2536973817
 11
-88.4551551763
 21
-25.9765617175
  0
LINE
  5
2F7
100
AcDbEntity
  8
ASSI
100
AcDbLine
 62
250
  6
CONTINUOUS
 10
-88.977247029
 20
-26.2536973817
 11
-88.4551551763
 21
-25.9765617175
  0
LINE
  5
2F8
100
AcDbEntity
  8
0
100
AcDbLine
 62
7
  6
CONTINUOUS
 10
-88.4272962613
 20
-26.0883643404
 11
-90.4272962658
 21
-27.1500000024
  0
LINE
  5
2F9
100
AcDbEntity
  8
ASSI
100
AcDbLine
 62
7
  6
CONTINUOUS
 10
-88.4272962613
 20
-26.0883643404
 11
-90.4272962658
 21
-27.1500000024
  0
LINE
  5
2FA
100
AcDbEntity
  8
0
100
AcDbLine
 62
7
  6
CONTINUOUS
 10
-88.4272962613
 20
25.4
 11
-90.3776681634
 21
25.2049628098
  0
LINE
  5
2FB
100
AcDbEntity
  8
ASSI
100
AcDbLine
 62
7
  6
CONTINUOUS
 10
-88.4272962613
 20
25.4
 11
-90.3776681634
 21
25.2049628098
  0
LINE
  5
2FC
100
AcDbEntity
  8
0
100
AcDbLine
 62
7
  6
CONTINUOUS
 10
-91.4272962613
 20
25.7558198745
 11
-88.61682907
 21
25.8799866677
  0
LINE
  5
2FD
100
AcDbEntity
  8
ASSI
100
AcDbLine
 62
7
  6
CONTINUOUS
 10
-91.4272962613
 20
25.7558198745
 11
-88.61682907
 21
25.8799866677
  0
LINE
  5
2FE
100
AcDbEntity
  8
0
100
AcDbLine
 62
7
  6
CONTINUOUS
 10
-88.4272962613
 20
25.3523612067
 11
-88.9492329156
 21
25.3478063346
  0
LINE
  5
2FF
100
AcDbEntity
  8
ASSI
100
AcDbLine
 62
7
  6
CONTINUOUS
 10
-88.4272962613
 20
25.3523612067
 11
-88.9492329156
 21
25.3478063346
  0
LINE
  5
300
100
AcDbEntity
  8
0
100
AcDbLine
 62
7
  6
CONTINUOUS
 10
-91.4272962613
 20
25.05
 11
-91.2772962613
 21
25.05
  0
LINE
  5
301
100
AcDbEntity
  8
ASSI
100
AcDbLine
 62
7
  6
CONTINUOUS
 10
-91.4272962613
 20
25.05
 11
-91.2772962613
 21
25.05
  0
LINE
  5
302
100
AcDbEntity
  8
0
100
AcDbLine
 62
7
  6
CONTINUOUS
 10
-90.9772962613
 20
25.05
 11
-90.7772962613
 21
25.05
  0
LINE
  5
303
100
AcDbEntity
  8
ASSI
100
AcDbLine
 62
7
  6
CONTINUOUS
 10
-90.9772962613
 20
25.05
 11
-90.7772962613
 21
25.05
  0
LINE
  5
304
100
AcDbEntity
  8
0
100
AcDbLine
 62
7
  6
CONTINUOUS
 10
-91.4272962613
 20
25.2
 11
-90.4771718824
 21
25.2
  0
LINE
  5
305
100
AcDbEntity
  8
ASSI
100
AcDbLine
 62
7
  6
CONTINUOUS
 10
-91.4272962613
 20
25.2
 11
-90.4771718824
 21
25.2
  0
LINE
  5
306
100
AcDbEntity
  8
0
100
AcDbLine
 62
7
  6
CONTINUOUS
 10
-88.4272962613
 20
26.1523612067
 11
-88.5478590283
 21
26.1523612067
  0
LINE
  5
307
100
AcDbEntity
  8
ASSI
100
AcDbLine
 62
7
  6
CONTINUOUS
 10
-88.4272962613
 20
26.1523612067
 11
-88.5478590283
 21
26.1523612067
  0
LINE
  5
308
100
AcDbEntity
  8
0
100
AcDbLine
 62
250
  6
CONTINUOUS
 10
-90.5015236775
 20
26.9276792439
 11
-91.4272962613
 21
26.9280974384
  0
LINE
  5
309
100
AcDbEntity
  8
ASSI
100
AcDbLine
 62
250
  6
CONTINUOUS
 10
-90.5015236775
 20
26.9276792439
 11
-91.4272962613
 21
26.9280974384
  0
LINE
  5
30A
100
AcDbEntity
  8
0
100
AcDbLine
 62
7
  6
CONTINUOUS
 10
-90.4272962613
 20
27.15
 11
-91.4272962613
 21
27.151745331
  0
LINE
  5
30B
100
AcDbEntity
  8
ASSI
100
AcDbLine
 62
7
  6
CONTINUOUS
 10
-90.4272962613
 20
27.15
 11
-91.4272962613
 21
27.151745331
  0
LINE
  5
30C
100
AcDbEntity
  8
0
100
AcDbLine
 62
250
  6
CONTINUOUS
 10
-88.977247029
 20
26.2536973817
 11
-91.4272962613
 21
26.2679513512
  0
LINE
  5
30D
100
AcDbEntity
  8
ASSI
100
AcDbLine
 62
250
  6
CONTINUOUS
 10
-88.977247029
 20
26.2536973817
 11
-91.4272962613
 21
26.2679513512
  0
LINE
  5
30E
100
AcDbEntity
  8
0
100
AcDbLine
 62
7
  6
CONTINUOUS
 10
-88.977247029
 20
26.3415638603
 11
-91.4272962613
 21
26.3558178298
  0
LINE
  5
30F
100
AcDbEntity
  8
ASSI
100
AcDbLine
 62
7
  6
CONTINUOUS
 10
-88.977247029
 20
26.3415638603
 11
-91.4272962613
 21
26.3558178298
  0
LINE
  5
310
100
AcDbEntity
  8
0
100
AcDbLine
 62
250
  6
CONTINUOUS
 10
-89.4020048176
 20
26.3440350289
 11
-90.5015236775
 21
26.9276792439
  0
LINE
  5
311
100
AcDbEntity
  8
ASSI
100
AcDbLine
 62
250
  6
CONTINUOUS
 10
-89.4020048176
 20
26.3440350289
 11
-90.5015236775
 21
26.9276792439
  0
LINE
  5
312
100
AcDbEntity
  8
0
100
AcDbLine
 62
250
  6
CONTINUOUS
 10
-88.4551551763
 20
25.9765617175
 11
-88.977247029
 21
26.2536973817
  0
LINE
  5
313
100
AcDbEntity
  8
ASSI
100
AcDbLine
 62
250
  6
CONTINUOUS
 10
-88.4551551763
 20
25.9765617175
 11
-88.977247029
 21
26.2536973817
  0
LINE
  5
314
100
AcDbEntity
  8
0
100
AcDbLine
 62
7
  6
CONTINUOUS
 10
-88.4272962613
 20
26.0883643404
 11
-90.4272962649
 21
27.1500000019
  0
LINE
  5
315
100
AcDbEntity
  8
ASSI
100
AcDbLine
 62
7
  6
CONTINUOUS
 10
-88.4272962613
 20
26.0883643404
 11
-90.4272962649
 21
27.1500000019
  0
LINE
  5
316
100
AcDbEntity
  8
SMUSSO
100
AcDbLine
 62
7
  6
CONTINUOUS
 10
-98.9772962613
 20
-44.0
 11
-99.4772962613
 21
-44.5
  0
LINE
  5
317
100
AcDbEntity
  8
SMUSSO
100
AcDbLine
 62
7
  6
CONTINUOUS
 10
-96.4772962613
 20
-45.0
 11
-95.9772962613
 21
-44.5
  0
LINE
  5
318
100
AcDbEntity
  8
SMUSSO
100
AcDbLine
 62
7
  6
CONTINUOUS
 10
-99.4772962613
 20
44.5
 11
-98.9772962613
 21
44.0
  0
LINE
  5
319
100
AcDbEntity
  8
SMUSSO
100
AcDbLine
 62
7
  6
CONTINUOUS
 10
-95.9772962613
 20
44.5
 11
-96.4772962613
 21
45.0
  0
LINE
  5
31A
100
AcDbEntity
  8
0
100
AcDbLine
 62
250
  6
CONTINUOUS
 10
-94.6493662613
 20
-35.08611
 11
-93.4088022613
 21
-34.620883
  0
LINE
  5
31B
100
AcDbEntity
  8
0
100
AcDbLine
 62
250
  6
CONTINUOUS
 10
-94.2538482613
 20
-34.590908
 11
-95.3086482613
 21
-34.983292
  0
LINE
  5
31C
100
AcDbEntity
  8
0
100
AcDbLine
 62
250
  6
CONTINUOUS
 10
-93.4088022613
 20
-31.999568
 11
-95.3086482613
 21
-32.582488
  0
LINE
  5
31D
100
AcDbEntity
  8
0
100
AcDbLine
 62
7
  6
CONTINUOUS
 10
-92.9264987024
 20
-44.2993619529
 11
-91.4272962613
 21
-43.1
  0
LINE
  5
31E
100
AcDbEntity
  8
ASSI
100
AcDbLine
 62
7
  6
CONTINUOUS
 10
-92.9264987024
 20
-44.2993619529
 11
-91.4272962613
 21
-43.1
  0
LINE
  5
31F
100
AcDbEntity
  8
0
100
AcDbLine
 62
250
  6
CONTINUOUS
 10
-95.3086482613
 20
-37.870764
 11
-93.4088022613
 21
-37.268476
  0
LWPOLYLINE
  5
320
100
AcDbEntity
  8
0
100
AcDbPolyline
 62
7
  6
CONTINUOUS
 90
13
 70
0
 43
0.3500000006
 10
-109.312486908
 20
55.4642874298
 10
-109.5982025757
 20
55.6785719147
 10
-109.5982025757
 20
56.3214299011
 10
-109.312486908
 20
56.7499988708
 10
-108.6696334534
 20
56.7499988708
 10
-108.3839177856
 20
56.3214299011
 10
-108.3839177856
 20
55.6785719147
 10
-108.6696334534
 20
55.4642874298
 10
-108.2410554199
 20
55.0357139282
 10
-108.2410554199
 20
54.1785714569
 10
-108.6696334534
 20
53.7499979553
 10
-109.312486908
 20
53.7499979553
 10
-109.7410558777
 20
54.1785714569
  0
LINE
  5
321
100
AcDbEntity
  8
0
100
AcDbLine
 62
7
  6
CONTINUOUS
 10
-92.9272962613
 20
44.3
 11
-91.4272962613
 21
43.1
  0
LINE
  5
322
100
AcDbEntity
  8
ASSI
100
AcDbLine
 62
7
  6
CONTINUOUS
 10
-92.9272962613
 20
44.3
 11
-91.4272962613
 21
43.1
  0
LINE
  5
323
100
AcDbEntity
  8
RACCORDO
100
AcDbLine
 62
250
  6
CONTINUOUS
 10
-95.9772962613
 20
38.0
 11
-95.8272962613
 21
38.0
  0
LINE
  5
324
100
AcDbEntity
  8
RACCORDO
100
AcDbLine
 62
7
  6
CONTINUOUS
 10
-95.9772962613
 20
40.0
 11
-95.8272962613
 21
40.0
  0
LINE
  5
325
100
AcDbEntity
  8
SMUSSO
100
AcDbLine
 62
7
  6
CONTINUOUS
 10
-98.9772962613
 20
44.0
 11
-96.4772962613
 21
44.0
  0
LINE
  5
326
100
AcDbEntity
  8
SMUSSO
100
AcDbLine
 62
7
  6
CONTINUOUS
 10
-98.9772962613
 20
45.0
 11
-96.4772962613
 21
45.0
  0
LWPOLYLINE
  5
327
100
AcDbEntity
  8
0
100
AcDbPolyline
 62
7
  6
CONTINUOUS
 90
8
 70
0
 43
0.3500000006
 10
-105.6696325378
 20
53.7499979553
 10
-104.8124855347
 20
53.7499979553
 10
-104.3839165649
 20
54.1785714569
 10
-104.3839165649
 20
55.0357139282
 10
-104.8124855347
 20
55.4642874298
 10
-105.6696325378
 20
55.4642874298
 10
-105.6696325378
 20
56.7499988708
 10
-104.3839165649
 20
56.7499988708
  0
LWPOLYLINE
  5
328
100
AcDbEntity
  8
0
100
AcDbPolyline
 62
7
  6
CONTINUOUS
 90
8
 70
0
 43
0.3500000006
 10
-103.5267695618
 20
53.7499979553
 10
-102.6696316223
 20
53.7499979553
 10
-102.2410626526
 20
54.1785714569
 10
-102.2410626526
 20
55.0357139282
 10
-102.6696316223
 20
55.4642874298
 10
-103.5267695618
 20
55.4642874298
 10
-103.5267695618
 20
56.7499988708
 10
-102.2410626526
 20
56.7499988708
  0
LWPOLYLINE
  5
329
100
AcDbEntity
  8
0
100
AcDbPolyline
 62
7
  6
CONTINUOUS
 90
8
 70
0
 43
0.3500000006
 10
-106.2441817932
 20
63.7500010071
 10
-105.3870438538
 20
63.7500010071
 10
-104.9584658203
 20
64.1785699768
 10
-104.9584658203
 20
65.03571698
 10
-105.3870438538
 20
65.4642859497
 10
-106.2441817932
 20
65.4642859497
 10
-106.2441817932
 20
66.7500019226
 10
-104.9584658203
 20
66.7500019226
  0
LWPOLYLINE
  5
32A
100
AcDbEntity
  8
0
100
AcDbPolyline
 62
7
  6
CONTINUOUS
 90
8
 70
0
 43
0.3500000006
 10
-104.1013278809
 20
63.7500010071
 10
-103.2441808777
 20
63.7500010071
 10
-102.815611908
 20
64.1785699768
 10
-102.815611908
 20
65.03571698
 10
-103.2441808777
 20
65.4642859497
 10
-104.1013278809
 20
65.4642859497
 10
-104.1013278809
 20
66.7500019226
 10
-102.815611908
 20
66.7500019226
  0
LINE
  5
32B
100
AcDbEntity
  8
0
100
AcDbLine
 62
250
  6
CONTINUOUS
 10
-95.8272962613
 20
43.3507719931
 11
-92.9272962613
 21
43.3001523048
  0
LINE
  5
32C
100
AcDbEntity
  8
ASSI
100
AcDbLine
 62
250
  6
CONTINUOUS
 10
-95.8272962613
 20
43.3507719931
 11
-92.9272962613
 21
43.3001523048
  0
LINE
  5
32D
100
AcDbEntity
  8
0
100
AcDbLine
 62
7
  6
CONTINUOUS
 10
-95.8272962613
 20
44.3506196883
 11
-92.9272962613
 21
44.3
  0
LINE
  5
32E
100
AcDbEntity
  8
ASSI
100
AcDbLine
 62
7
  6
CONTINUOUS
 10
-95.8272962613
 20
44.3506196883
 11
-92.9272962613
 21
44.3
  0
LINE
  5
32F
100
AcDbEntity
  8
0
100
AcDbLine
 62
250
  6
CONTINUOUS
 10
-92.9264987024
 20
43.3354659698
 11
-91.4272962613
 21
43.0384032275
  0
LINE
  5
330
100
AcDbEntity
  8
ASSI
100
AcDbLine
 62
250
  6
CONTINUOUS
 10
-92.9264987024
 20
43.3354659698
 11
-91.4272962613
 21
43.0384032275
  0
ARC
  5
331
100
AcDbEntity
  8
0
100
AcDbCircle
 62
7
  6
CONTINUOUS
 10
32.4
 20
21.4
 40
1.7
100
AcDbArc
 50
0.0
 51
90.0
  0
ARC
  5
332
100
AcDbEntity
  8
0
100
AcDbCircle
 62
7
  6
CONTINUOUS
 10
-32.9
 20
21.4
 40
1.7
100
AcDbArc
 50
90.0
 51
180.0
  0
ARC
  5
333
100
AcDbEntity
  8
0
100
AcDbCircle
 62
7
  6
CONTINUOUS
 10
-32.9
 20
-21.4
 40
1.7
100
AcDbArc
 50
180.0
 51
270.0
  0
ARC
  5
334
100
AcDbEntity
  8
0
100
AcDbCircle
 62
7
  6
CONTINUOUS
 10
32.4
 20
-21.4
 40
1.7
100
AcDbArc
 50
270.0
 51
360.0
  0
ARC
  5
335
100
AcDbEntity
  8
0
100
AcDbCircle
 62
7
  6
CONTINUOUS
 10
-32.9
 20
-21.4
 40
1.2
100
AcDbArc
 50
180.0
 51
270.0
  0
ARC
  5
336
100
AcDbEntity
  8
0
100
AcDbCircle
 62
7
  6
CONTINUOUS
 10
32.4
 20
-21.4
 40
1.2
100
AcDbArc
 50
270.0
 51
360.0
  0
ARC
  5
337
100
AcDbEntity
  8
0
100
AcDbCircle
 62
7
  6
CONTINUOUS
 10
32.4
 20
21.4
 40
1.2
100
AcDbArc
 50
0.0
 51
90.0
  0
ARC
  5
338
100
AcDbEntity
  8
0
100
AcDbCircle
 62
7
  6
CONTINUOUS
 10
-32.9
 20
21.4
 40
1.2
100
AcDbArc
 50
90.0
 51
180.0
  0
ARC
  5
339
100
AcDbEntity
  8
0
100
AcDbCircle
 62
7
  6
CONTINUOUS
 10
-90.4771718824
 20
26.2
 40
1.0
100
AcDbArc
 50
270.0
 51
275.7105931375
  0
ARC
  5
33A
100
AcDbEntity
  8
0
100
AcDbCircle
 62
7
  6
CONTINUOUS
 10
-90.4771718824
 20
-26.2
 40
1.0
100
AcDbArc
 50
84.2894068625
 51
90.0
  0
ARC
  5
33B
100
AcDbEntity
  8
ASSI
100
AcDbCircle
 62
7
  6
CONTINUOUS
 10
-90.4771718824
 20
26.2
 40
1.0
100
AcDbArc
 50
270.0
 51
275.7105931375
  0
ARC
  5
33C
100
AcDbEntity
  8
ASSI
100
AcDbCircle
 62
7
  6
CONTINUOUS
 10
-90.4771718824
 20
-26.2
 40
1.0
100
AcDbArc
 50
84.2894068625
 51
90.0
  0
ARC
  5
33D
100
AcDbEntity
  8
0
100
AcDbCircle
 62
7
  6
CONTINUOUS
 10
-90.5019828896
 20
26.8499994712
 40
0.3
100
AcDbArc
 50
62.0510415412
 51
89.8999989552
  0
ARC
  5
33E
100
AcDbEntity
  8
0
100
AcDbCircle
 62
7
  6
CONTINUOUS
 10
-90.5019828896
 20
-26.8499994712
 40
0.3
100
AcDbArc
 50
270.1000010448
 51
297.9489584588
  0
ARC
  5
33F
100
AcDbEntity
  8
0
100
AcDbCircle
 62
7
  6
CONTINUOUS
 10
-88.9789923484
 20
-26.0415689373
 40
0.3
100
AcDbArc
 50
270.3333333333
 51
297.9601595788
  0
ARC
  5
340
100
AcDbEntity
  8
0
100
AcDbCircle
 62
7
  6
CONTINUOUS
 10
-88.9789923484
 20
26.0415689373
 40
0.3
100
AcDbArc
 50
62.0398404207
 51
89.6666666667
  0
ARC
  5
341
100
AcDbEntity
  8
ASSI
100
AcDbCircle
 62
7
  6
CONTINUOUS
 10
-90.5019828896
 20
26.8499994712
 40
0.3
100
AcDbArc
 50
62.0510415412
 51
89.8999989556
  0
ARC
  5
342
100
AcDbEntity
  8
ASSI
100
AcDbCircle
 62
7
  6
CONTINUOUS
 10
-90.5019828896
 20
-26.8499994712
 40
0.3
100
AcDbArc
 50
270.1000010444
 51
297.9489584588
  0
ARC
  5
343
100
AcDbEntity
  8
ASSI
100
AcDbCircle
 62
7
  6
CONTINUOUS
 10
-88.9789923484
 20
-26.0415689373
 40
0.3
100
AcDbArc
 50
270.3333333333
 51
297.9601595788
  0
ARC
  5
344
100
AcDbEntity
  8
ASSI
100
AcDbCircle
 62
7
  6
CONTINUOUS
 10
-88.9789923484
 20
26.0415689373
 40
0.3
100
AcDbArc
 50
62.0398404207
 51
89.6666666667
  0
SPLINE
  5
345
100
AcDbEntity
  8
0
100
AcDbSpline
 62
250
  6
CONTINUOUS
 70
0
 71
3
 72
17
 73
13
 74
0
 42
0.0000001
 43
0.0000001
 44
0.0000000001
 40
0.0
 40
0.0
 40
0.0
 40
0.0
 40
0.0041509426
 40
0.0165131528
 40
0.0370394731
 40
0.0656738303
 40
0.147033967
 40
0.259883893
 40
0.4031301725
 40
0.5755840394
 40
0.7753335906
 40
1.0
 40
1.0
 40
1.0
 40
1.0
 10
-88.977247029
 20
-26.3415638603
 30
0.0
 10
-88.9771254515
 20
-26.341563153
 30
0.0
 10
-88.977342572
 20
-26.3407901078
 30
0.0
 10
-88.9770888295
 20
-26.3399838662
 30
0.0
 10
-88.9771960519
 20
-26.3380251079
 30
0.0
 10
-88.9770889289
 20
-26.3342971317
 30
0.0
 10
-88.9771269949
 20
-26.3277000543
 30
0.0
 10
-88.9770925557
 20
-26.3178494928
 30
0.0
 10
-88.9771139276
 20
-26.3052846155
 30
0.0
 10
-88.9771383975
 20
-26.2901918491
 30
0.0
 10
-88.9771853504
 20
-26.2727082659
 30
0.0
 10
-88.9772246036
 20
-26.2602777389
 30
0.0
 10
-88.977247029
 20
-26.2536973817
 30
0.0
  0
SPLINE
  5
346
100
AcDbEntity
  8
0
100
AcDbSpline
 62
250
  6
CONTINUOUS
 70
0
 71
3
 72
17
 73
13
 74
0
 42
0.0000001
 43
0.0000001
 44
0.0000000001
 40
0.0
 40
0.0
 40
0.0
 40
0.0
 40
0.2246664094
 40
0.4244159606
 40
0.5968698275
 40
0.740116107
 40
0.852966033
 40
0.9343261697
 40
0.9629605269
 40
0.9834868471
 40
0.9958490574
 40
1.0
 40
1.0
 40
1.0
 40
1.0
 10
-88.977247029
 20
26.2536973817
 30
0.0
 10
-88.9772246036
 20
26.2602777389
 30
0.0
 10
-88.9771853504
 20
26.2727082659
 30
0.0
 10
-88.9771383975
 20
26.2901918491
 30
0.0
 10
-88.9771139276
 20
26.3052846155
 30
0.0
 10
-88.9770925557
 20
26.3178494928
 30
0.0
 10
-88.9771269949
 20
26.3277000543
 30
0.0
 10
-88.9770889289
 20
26.3342971317
 30
0.0
 10
-88.9771960519
 20
26.3380251079
 30
0.0
 10
-88.9770888295
 20
26.3399838662
 30
0.0
 10
-88.977342572
 20
26.3407901078
 30
0.0
 10
-88.9771254515
 20
26.341563153
 30
0.0
 10
-88.977247029
 20
26.3415638603
 30
0.0
  0
SPLINE
  5
347
100
AcDbEntity
  8
0
100
AcDbSpline
 62
250
  6
CONTINUOUS
 70
0
 71
3
 72
9
 73
5
 74
0
 42
0.0000001
 43
0.0000001
 44
0.0000000001
 40
0.0
 40
0.0
 40
0.0
 40
0.0
 40
0.4669075258
 40
1.0
 40
1.0
 40
1.0
 40
1.0
 10
-88.8383351
 20
26.3065510847
 30
0.0
 10
-88.8453418645
 20
26.3102704003
 30
0.0
 10
-88.8623795118
 20
26.3146638405
 30
0.0
 10
-88.8795305039
 20
26.3122032377
 30
0.0
 10
-88.8882803971
 20
26.309863965
 30
0.0
  0
SPLINE
  5
348
100
AcDbEntity
  8
0
100
AcDbSpline
 62
250
  6
CONTINUOUS
 70
0
 71
3
 72
9
 73
5
 74
0
 42
0.0000001
 43
0.0000001
 44
0.0000000001
 40
0.0
 40
0.0
 40
0.0
 40
0.0
 40
0.2246249652
 40
1.0
 40
1.0
 40
1.0
 40
1.0
 10
-88.8882803971
 20
26.309863965
 30
0.0
 10
-88.8922463143
 20
26.3088036822
 30
0.0
 10
-88.9096345363
 20
26.3030771544
 30
0.0
 10
-88.9257534183
 20
26.293967565
 30
0.0
 10
-88.9374867888
 20
26.286021863
 30
0.0
  0
SPLINE
  5
349
100
AcDbEntity
  8
0
100
AcDbSpline
 62
250
  6
CONTINUOUS
 70
0
 71
3
 72
9
 73
5
 74
0
 42
0.0000001
 43
0.0000001
 44
0.0000000001
 40
0.0
 40
0.0
 40
0.0
 40
0.0
 40
0.2353089167
 40
1.0
 40
1.0
 40
1.0
 40
1.0
 10
-88.9374867888
 20
26.286021863
 30
0.0
 10
-88.940816845
 20
26.2837667877
 30
0.0
 10
-88.9547330141
 20
26.2738360857
 30
0.0
 10
-88.967748869
 20
26.2626752144
 30
0.0
 10
-88.977247029
 20
26.2536973817
 30
0.0
  0
SPLINE
  5
34A
100
AcDbEntity
  8
0
100
AcDbSpline
 62
250
  6
CONTINUOUS
 70
0
 71
3
 72
9
 73
5
 74
0
 42
0.0000001
 43
0.0000001
 44
0.0000000001
 40
0.0
 40
0.0
 40
0.0
 40
0.0
 40
0.4668799879
 40
1.0
 40
1.0
 40
1.0
 40
1.0
 10
-88.8383351
 20
-26.3065510847
 30
0.0
 10
-88.8453450161
 20
-26.3102720732
 30
0.0
 10
-88.8623922774
 20
-26.3146660571
 30
0.0
 10
-88.8795515273
 20
-26.3121998209
 30
0.0
 10
-88.8883057647
 20
-26.3098571438
 30
0.0
  0
SPLINE
  5
34B
100
AcDbEntity
  8
0
100
AcDbSpline
 62
250
  6
CONTINUOUS
 70
0
 71
3
 72
9
 73
5
 74
0
 42
0.0000001
 43
0.0000001
 44
0.0000000001
 40
0.0
 40
0.0
 40
0.0
 40
0.0
 40
0.224584937
 40
1.0
 40
1.0
 40
1.0
 40
1.0
 10
-88.8883057647
 20
-26.3098571438
 30
0.0
 10
-88.892280093
 20
-26.308793594
 30
0.0
 10
-88.9097075891
 20
-26.3030476432
 30
0.0
 10
-88.9258594904
 20
-26.2939064819
 30
0.0
 10
-88.9376161882
 20
-26.285934192
 30
0.0
  0
SPLINE
  5
34C
100
AcDbEntity
  8
0
100
AcDbSpline
 62
250
  6
CONTINUOUS
 70
0
 71
3
 72
9
 73
5
 74
0
 42
0.0000001
 43
0.0000001
 44
0.0000000001
 40
0.0
 40
0.0
 40
0.0
 40
0.0
 40
0.2353653196
 40
1.0
 40
1.0
 40
1.0
 40
1.0
 10
-88.9376161882
 20
-26.285934192
 30
0.0
 10
-88.9409354898
 20
-26.2836833529
 30
0.0
 10
-88.9548041641
 20
-26.2737757566
 30
0.0
 10
-88.9677784756
 20
-26.2626472297
 30
0.0
 10
-88.977247029
 20
-26.2536973817
 30
0.0
  0
SPLINE
  5
34D
100
AcDbEntity
  8
0
100
AcDbSpline
 62
250
  6
CONTINUOUS
 70
0
 71
3
 72
9
 73
5
 74
0
 42
0.0000001
 43
0.0000001
 44
0.0000000001
 40
0.0
 40
0.0
 40
0.0
 40
0.0
 40
0.5597674652
 40
1.0
 40
1.0
 40
1.0
 40
1.0
 10
-90.5015236775
 20
26.9276792439
 30
0.0
 10
-90.4852501408
 20
26.9562793392
 30
0.0
 10
-90.4550126271
 20
27.0066983323
 30
0.0
 10
-90.4221117906
 20
27.0555254921
 30
0.0
 10
-90.4062585606
 20
27.0759802501
 30
0.0
  0
SPLINE
  5
34E
100
AcDbEntity
  8
0
100
AcDbSpline
 62
250
  6
CONTINUOUS
 70
0
 71
3
 72
10
 73
6
 74
0
 42
0.0000001
 43
0.0000001
 44
0.0000000001
 40
0.0
 40
0.0
 40
0.0
 40
0.0
 40
0.6949101874
 40
0.8907704955
 40
1.0
 40
1.0
 40
1.0
 40
1.0
 10
-90.4062585606
 20
27.0759802501
 30
0.0
 10
-90.3975745878
 20
27.0871848162
 30
0.0
 10
-90.3856307579
 20
27.1013984189
 30
0.0
 10
-90.3703311723
 20
27.114261842
 30
0.0
 10
-90.3633562586
 20
27.1160640935
 30
0.0
 10
-90.3613900276
 20
27.1150157961
 30
0.0
  0
SPLINE
  5
34F
100
AcDbEntity
  8
0
100
AcDbSpline
 62
250
  6
CONTINUOUS
 70
0
 71
3
 72
9
 73
5
 74
0
 42
0.0000001
 43
0.0000001
 44
0.0000000001
 40
0.0
 40
0.0
 40
0.0
 40
0.0
 40
0.5591441426
 40
1.0
 40
1.0
 40
1.0
 40
1.0
 10
-90.5015236775
 20
-26.9276792439
 30
0.0
 10
-90.485342407
 20
-26.9561298307
 30
0.0
 10
-90.4552729408
 20
-27.0063608044
 30
0.0
 10
-90.4225212372
 20
-27.0549860392
 30
0.0
 10
-90.4067424064
 20
-27.0754061939
 30
0.0
  0
SPLINE
  5
350
100
AcDbEntity
  8
0
100
AcDbSpline
 62
250
  6
CONTINUOUS
 70
0
 71
3
 72
10
 73
6
 74
0
 42
0.0000001
 43
0.0000001
 44
0.0000000001
 40
0.0
 40
0.0
 40
0.0
 40
0.0
 40
0.695043648
 40
0.890922753
 40
1.0
 40
1.0
 40
1.0
 40
1.0
 10
-90.4067424064
 20
-27.0754061939
 30
0.0
 10
-90.3979654729
 20
-27.0867648516
 30
0.0
 10
-90.3859114528
 20
-27.1011923506
 30
0.0
 10
-90.3704313816
 20
-27.1142291054
 30
0.0
 10
-90.3633819423
 20
-27.1160680039
 30
0.0
 10
-90.3613900276
 20
-27.1150157961
 30
0.0
  0
SPLINE
  5
351
100
AcDbEntity
  8
0
100
AcDbSpline
 62
7
  6
CONTINUOUS
 70
0
 71
3
 72
9
 73
5
 74
0
 42
0.0000001
 43
0.0000001
 44
0.0000000001
 40
0.0
 40
0.0
 40
0.0
 40
0.0
 40
0.570136028
 40
1.0
 40
1.0
 40
1.0
 40
1.0
 10
-88.4551551763
 20
-25.9765617175
 30
0.0
 10
-88.4478057654
 20
-25.9889263852
 30
0.0
 10
-88.4352056823
 20
-26.0106368775
 30
0.0
 10
-88.4272962613
 20
-26.0354717422
 30
0.0
 10
-88.4272962613
 20
-26.0463167932
 30
0.0
  0
SPLINE
  5
352
100
AcDbEntity
  8
0
100
AcDbSpline
 62
7
  6
CONTINUOUS
 70
0
 71
3
 72
19
 73
15
 74
0
 42
0.0000001
 43
0.0000001
 44
0.0000000001
 40
0.0
 40
0.0
 40
0.0
 40
0.0
 40
0.1921796393
 40
0.3763677526
 40
0.546037227
 40
0.6953100726
 40
0.7606312182
 40
0.8189574771
 40
0.8698008769
 40
0.9127175953
 40
0.9473603179
 40
0.9734756973
 40
0.9909322945
 40
1.0
 40
1.0
 40
1.0
 40
1.0
 10
-92.9264987024
 20
43.3354659698
 30
0.0
 10
-92.9237043672
 20
43.3972845873
 30
0.0
 10
-92.9186322998
 20
43.5183698274
 30
0.0
 10
-92.9127246291
 20
43.6940969545
 30
0.0
 10
-92.9089607526
 20
43.8560637003
 30
0.0
 10
-92.9077207867
 20
43.9797971971
 30
0.0
 10
-92.908110244
 20
44.0676762539
 30
0.0
 10
-92.9090077992
 20
44.1238609159
 30
0.0
 10
-92.9105019197
 20
44.1727988006
 30
0.0
 10
-92.9125397087
 20
44.2141356543
 30
0.0
 10
-92.9151305721
 20
44.2473219526
 30
0.0
 10
-92.9180265276
 20
44.2725979879
 30
0.0
 10
-92.9214493141
 20
44.2887313827
 30
0.0
 10
-92.9242187245
 20
44.2975379706
 30
0.0
 10
-92.9264987024
 20
44.2993619529
 30
0.0
  0
SPLINE
  5
353
100
AcDbEntity
  8
0
100
AcDbSpline
 62
7
  6
CONTINUOUS
 70
0
 71
3
 72
19
 73
15
 74
0
 42
0.0000001
 43
0.0000001
 44
0.0000000001
 40
0.0
 40
0.0
 40
0.0
 40
0.0
 40
0.0090677233
 40
0.0265243552
 40
0.0526397743
 40
0.0872825456
 40
0.1301992449
 40
0.1810426061
 40
0.2393688239
 40
0.3046899335
 40
0.4539626353
 40
0.6236319372
 40
0.8078201905
 40
1.0
 40
1.0
 40
1.0
 40
1.0
 10
-92.9264987024
 20
-44.2993619529
 30
0.0
 10
-92.9242187201
 20
-44.297537967
 30
0.0
 10
-92.9214493167
 20
-44.2887313551
 30
0.0
 10
-92.9180265203
 20
-44.2725979358
 30
0.0
 10
-92.9151305612
 20
-44.247321859
 30
0.0
 10
-92.9125397048
 20
-44.2141355385
 30
0.0
 10
-92.9105019115
 20
-44.1727986879
 30
0.0
 10
-92.9090077967
 20
-44.1238608349
 30
0.0
 10
-92.9081102441
 20
-44.0676762103
 30
0.0
 10
-92.9077207876
 20
-43.9797972248
 30
0.0
 10
-92.9089607485
 20
-43.8560638416
 30
0.0
 10
-92.9127246249
 20
-43.6940971529
 30
0.0
 10
-92.9186322946
 20
-43.5183699817
 30
0.0
 10
-92.9237043647
 20
-43.397284642
 30
0.0
 10
-92.9264987024
 20
-43.3354659698
 30
0.0
  0
SPLINE
  5
354
100
AcDbEntity
  8
0
100
AcDbSpline
 62
7
  6
CONTINUOUS
 70
0
 71
3
 72
9
 73
5
 74
0
 42
0.0000001
 43
0.0000001
 44
0.0000000001
 40
0.0
 40
0.0
 40
0.0
 40
0.0
 40
0.2171221839
 40
1.0
 40
1.0
 40
1.0
 40
1.0
 10
-88.4272962613
 20
26.0463167932
 30
0.0
 10
-88.4272962613
 20
26.0430886892
 30
0.0
 10
-88.4287755515
 20
26.0282099128
 30
0.0
 10
-88.4348078089
 20
26.0142392822
 30
0.0
 10
-88.4400058246
 20
26.0038248474
 30
0.0
  0
SPLINE
  5
355
100
AcDbEntity
  8
0
100
AcDbSpline
 62
7
  6
CONTINUOUS
 70
0
 71
3
 72
9
 73
5
 74
0
 42
0.0000001
 43
0.0000001
 44
0.0000000001
 40
0.0
 40
0.0
 40
0.0
 40
0.0
 40
0.2349004574
 40
1.0
 40
1.0
 40
1.0
 40
1.0
 10
-88.4400058246
 20
26.0038248474
 30
0.0
 10
-88.4410965937
 20
26.0016394475
 30
0.0
 10
-88.4458800462
 20
25.9924055579
 30
0.0
 10
-88.4510903678
 20
25.9834003617
 30
0.0
 10
-88.4551551763
 20
25.9765617175
 30
0.0
  0
SPLINE
  5
356
100
AcDbEntity
  8
ASSI
100
AcDbSpline
 62
250
  6
CONTINUOUS
 70
0
 71
3
 72
17
 73
13
 74
0
 42
0.0000001
 43
0.0000001
 44
0.0000000001
 40
0.0
 40
0.0
 40
0.0
 40
0.0
 40
0.0041509426
 40
0.0165131528
 40
0.0370394731
 40
0.0656738303
 40
0.147033967
 40
0.259883893
 40
0.4031301725
 40
0.5755840394
 40
0.7753335906
 40
1.0
 40
1.0
 40
1.0
 40
1.0
 10
-88.977247029
 20
-26.3415638603
 30
0.0
 10
-88.9771254515
 20
-26.341563153
 30
0.0
 10
-88.977342572
 20
-26.3407901078
 30
0.0
 10
-88.9770888295
 20
-26.3399838662
 30
0.0
 10
-88.9771960519
 20
-26.3380251079
 30
0.0
 10
-88.9770889289
 20
-26.3342971317
 30
0.0
 10
-88.9771269949
 20
-26.3277000543
 30
0.0
 10
-88.9770925557
 20
-26.3178494928
 30
0.0
 10
-88.9771139276
 20
-26.3052846155
 30
0.0
 10
-88.9771383975
 20
-26.2901918491
 30
0.0
 10
-88.9771853504
 20
-26.2727082659
 30
0.0
 10
-88.9772246036
 20
-26.2602777389
 30
0.0
 10
-88.977247029
 20
-26.2536973817
 30
0.0
  0
SPLINE
  5
357
100
AcDbEntity
  8
ASSI
100
AcDbSpline
 62
250
  6
CONTINUOUS
 70
0
 71
3
 72
17
 73
13
 74
0
 42
0.0000001
 43
0.0000001
 44
0.0000000001
 40
0.0
 40
0.0
 40
0.0
 40
0.0
 40
0.2246664094
 40
0.4244159606
 40
0.5968698275
 40
0.740116107
 40
0.852966033
 40
0.9343261697
 40
0.9629605269
 40
0.9834868471
 40
0.9958490574
 40
1.0
 40
1.0
 40
1.0
 40
1.0
 10
-88.977247029
 20
26.2536973817
 30
0.0
 10
-88.9772246036
 20
26.2602777389
 30
0.0
 10
-88.9771853504
 20
26.2727082659
 30
0.0
 10
-88.9771383975
 20
26.2901918491
 30
0.0
 10
-88.9771139276
 20
26.3052846155
 30
0.0
 10
-88.9770925557
 20
26.3178494928
 30
0.0
 10
-88.9771269949
 20
26.3277000543
 30
0.0
 10
-88.9770889289
 20
26.3342971317
 30
0.0
 10
-88.9771960519
 20
26.3380251079
 30
0.0
 10
-88.9770888295
 20
26.3399838662
 30
0.0
 10
-88.977342572
 20
26.3407901078
 30
0.0
 10
-88.9771254515
 20
26.341563153
 30
0.0
 10
-88.977247029
 20
26.3415638603
 30
0.0
  0
SPLINE
  5
358
100
AcDbEntity
  8
ASSI
100
AcDbSpline
 62
250
  6
CONTINUOUS
 70
0
 71
3
 72
9
 73
5
 74
0
 42
0.0000001
 43
0.0000001
 44
0.0000000001
 40
0.0
 40
0.0
 40
0.0
 40
0.0
 40
0.4669075321
 40
1.0
 40
1.0
 40
1.0
 40
1.0
 10
-88.8383351
 20
26.3065510847
 30
0.0
 10
-88.8453418637
 20
26.3102703998
 30
0.0
 10
-88.8623795084
 20
26.3146638399
 30
0.0
 10
-88.8795304983
 20
26.3122032386
 30
0.0
 10
-88.8882803904
 20
26.3098639668
 30
0.0
  0
SPLINE
  5
359
100
AcDbEntity
  8
ASSI
100
AcDbSpline
 62
250
  6
CONTINUOUS
 70
0
 71
3
 72
9
 73
5
 74
0
 42
0.0000001
 43
0.0000001
 44
0.0000000001
 40
0.0
 40
0.0
 40
0.0
 40
0.0
 40
0.2246249608
 40
1.0
 40
1.0
 40
1.0
 40
1.0
 10
-88.8882803904
 20
26.3098639668
 30
0.0
 10
-88.8922463081
 20
26.3088036841
 30
0.0
 10
-88.909634533
 20
26.3030771563
 30
0.0
 10
-88.9257534175
 20
26.2939675656
 30
0.0
 10
-88.9374867898
 20
26.2860218624
 30
0.0
  0
SPLINE
  5
35A
100
AcDbEntity
  8
ASSI
100
AcDbSpline
 62
250
  6
CONTINUOUS
 70
0
 71
3
 72
9
 73
5
 74
0
 42
0.0000001
 43
0.0000001
 44
0.0000000001
 40
0.0
 40
0.0
 40
0.0
 40
0.0
 40
0.2353089172
 40
1.0
 40
1.0
 40
1.0
 40
1.0
 10
-88.9374867898
 20
26.2860218624
 30
0.0
 10
-88.9408168459
 20
26.2837667871
 30
0.0
 10
-88.9547330147
 20
26.2738360852
 30
0.0
 10
-88.9677488692
 20
26.2626752142
 30
0.0
 10
-88.977247029
 20
26.2536973817
 30
0.0
  0
SPLINE
  5
35B
100
AcDbEntity
  8
ASSI
100
AcDbSpline
 62
250
  6
CONTINUOUS
 70
0
 71
3
 72
9
 73
5
 74
0
 42
0.0000001
 43
0.0000001
 44
0.0000000001
 40
0.0
 40
0.0
 40
0.0
 40
0.0
 40
0.4668799884
 40
1.0
 40
1.0
 40
1.0
 40
1.0
 10
-88.8383351
 20
-26.3065510847
 30
0.0
 10
-88.845345016
 20
-26.3102720731
 30
0.0
 10
-88.8623922771
 20
-26.314666057
 30
0.0
 10
-88.8795515269
 20
-26.3121998209
 30
0.0
 10
-88.8883057642
 20
-26.309857144
 30
0.0
  0
SPLINE
  5
35C
100
AcDbEntity
  8
ASSI
100
AcDbSpline
 62
250
  6
CONTINUOUS
 70
0
 71
3
 72
9
 73
5
 74
0
 42
0.0000001
 43
0.0000001
 44
0.0000000001
 40
0.0
 40
0.0
 40
0.0
 40
0.0
 40
0.2245849367
 40
1.0
 40
1.0
 40
1.0
 40
1.0
 10
-88.8883057642
 20
-26.309857144
 30
0.0
 10
-88.8922800925
 20
-26.3087935942
 30
0.0
 10
-88.9097075888
 20
-26.3030476433
 30
0.0
 10
-88.9258594903
 20
-26.293906482
 30
0.0
 10
-88.9376161882
 20
-26.285934192
 30
0.0
  0
SPLINE
  5
35D
100
AcDbEntity
  8
ASSI
100
AcDbSpline
 62
250
  6
CONTINUOUS
 70
0
 71
3
 72
9
 73
5
 74
0
 42
0.0000001
 43
0.0000001
 44
0.0000000001
 40
0.0
 40
0.0
 40
0.0
 40
0.0
 40
0.2353653196
 40
1.0
 40
1.0
 40
1.0
 40
1.0
 10
-88.9376161882
 20
-26.285934192
 30
0.0
 10
-88.9409354898
 20
-26.2836833529
 30
0.0
 10
-88.9548041641
 20
-26.2737757566
 30
0.0
 10
-88.9677784756
 20
-26.2626472297
 30
0.0
 10
-88.977247029
 20
-26.2536973817
 30
0.0
  0
SPLINE
  5
35E
100
AcDbEntity
  8
ASSI
100
AcDbSpline
 62
7
  6
CONTINUOUS
 70
0
 71
3
 72
9
 73
5
 74
0
 42
0.0000001
 43
0.0000001
 44
0.0000000001
 40
0.0
 40
0.0
 40
0.0
 40
0.0
 40
0.570136028
 40
1.0
 40
1.0
 40
1.0
 40
1.0
 10
-88.4551551763
 20
-25.9765617175
 30
0.0
 10
-88.4478057654
 20
-25.9889263852
 30
0.0
 10
-88.4352056823
 20
-26.0106368775
 30
0.0
 10
-88.4272962613
 20
-26.0354717422
 30
0.0
 10
-88.4272962613
 20
-26.0463167932
 30
0.0
  0
SPLINE
  5
35F
100
AcDbEntity
  8
ASSI
100
AcDbSpline
 62
250
  6
CONTINUOUS
 70
0
 71
3
 72
9
 73
5
 74
0
 42
0.0000001
 43
0.0000001
 44
0.0000000001
 40
0.0
 40
0.0
 40
0.0
 40
0.0
 40
0.5597674603
 40
1.0
 40
1.0
 40
1.0
 40
1.0
 10
-90.5015236775
 20
26.9276792439
 30
0.0
 10
-90.4852501414
 20
26.9562793381
 30
0.0
 10
-90.4550126286
 20
27.0066983298
 30
0.0
 10
-90.4221117933
 20
27.0555254882
 30
0.0
 10
-90.4062585638
 20
27.0759802461
 30
0.0
  0
SPLINE
  5
360
100
AcDbEntity
  8
ASSI
100
AcDbSpline
 62
250
  6
CONTINUOUS
 70
0
 71
3
 72
10
 73
6
 74
0
 42
0.0000001
 43
0.0000001
 44
0.0000000001
 40
0.0
 40
0.0
 40
0.0
 40
0.0
 40
0.6949101909
 40
0.8907704986
 40
1.0
 40
1.0
 40
1.0
 40
1.0
 10
-90.4062585638
 20
27.0759802461
 30
0.0
 10
-90.3975745903
 20
27.0871848133
 30
0.0
 10
-90.3856307594
 20
27.1013984173
 30
0.0
 10
-90.3703311729
 20
27.1142618418
 30
0.0
 10
-90.3633562587
 20
27.1160640936
 30
0.0
 10
-90.3613900276
 20
27.1150157961
 30
0.0
  0
SPLINE
  5
361
100
AcDbEntity
  8
ASSI
100
AcDbSpline
 62
250
  6
CONTINUOUS
 70
0
 71
3
 72
9
 73
5
 74
0
 42
0.0000001
 43
0.0000001
 44
0.0000000001
 40
0.0
 40
0.0
 40
0.0
 40
0.0
 40
0.5591441552
 40
1.0
 40
1.0
 40
1.0
 40
1.0
 10
-90.5015236775
 20
-26.9276792439
 30
0.0
 10
-90.4853424052
 20
-26.9561298339
 30
0.0
 10
-90.4552729363
 20
-27.0063608119
 30
0.0
 10
-90.4225212293
 20
-27.0549860508
 30
0.0
 10
-90.4067423969
 20
-27.0754062062
 30
0.0
  0
SPLINE
  5
362
100
AcDbEntity
  8
ASSI
100
AcDbSpline
 62
250
  6
CONTINUOUS
 70
0
 71
3
 72
10
 73
6
 74
0
 42
0.0000001
 43
0.0000001
 44
0.0000000001
 40
0.0
 40
0.0
 40
0.0
 40
0.0
 40
0.6950436406
 40
0.8909227457
 40
1.0
 40
1.0
 40
1.0
 40
1.0
 10
-90.4067423969
 20
-27.0754062062
 30
0.0
 10
-90.3979654653
 20
-27.0867648607
 30
0.0
 10
-90.385911448
 20
-27.1011923555
 30
0.0
 10
-90.3704313796
 20
-27.1142291064
 30
0.0
 10
-90.3633819419
 20
-27.1160680037
 30
0.0
 10
-90.3613900276
 20
-27.1150157961
 30
0.0
  0
SPLINE
  5
363
100
AcDbEntity
  8
ASSI
100
AcDbSpline
 62
7
  6
CONTINUOUS
 70
0
 71
3
 72
9
 73
5
 74
0
 42
0.0000001
 43
0.0000001
 44
0.0000000001
 40
0.0
 40
0.0
 40
0.0
 40
0.0
 40
0.2171221841
 40
1.0
 40
1.0
 40
1.0
 40
1.0
 10
-88.4272962613
 20
26.0463167932
 30
0.0
 10
-88.4272962613
 20
26.0430886893
 30
0.0
 10
-88.4287755514
 20
26.0282099129
 30
0.0
 10
-88.4348078089
 20
26.0142392823
 30
0.0
 10
-88.4400058245
 20
26.0038248477
 30
0.0
  0
SPLINE
  5
364
100
AcDbEntity
  8
ASSI
100
AcDbSpline
 62
7
  6
CONTINUOUS
 70
0
 71
3
 72
9
 73
5
 74
0
 42
0.0000001
 43
0.0000001
 44
0.0000000001
 40
0.0
 40
0.0
 40
0.0
 40
0.0
 40
0.2349004573
 40
1.0
 40
1.0
 40
1.0
 40
1.0
 10
-88.4400058245
 20
26.0038248477
 30
0.0
 10
-88.4410965936
 20
26.0016394478
 30
0.0
 10
-88.4458800461
 20
25.992405558
 30
0.0
 10
-88.4510903677
 20
25.9834003618
 30
0.0
 10
-88.4551551763
 20
25.9765617175
 30
0.0
  0
SPLINE
  5
365
100
AcDbEntity
  8
ASSI
100
AcDbSpline
 62
7
  6
CONTINUOUS
 70
0
 71
3
 72
19
 73
15
 74
0
 42
0.0000001
 43
0.0000001
 44
0.0000000001
 40
0.0
 40
0.0
 40
0.0
 40
0.0
 40
0.1921796393
 40
0.3763677526
 40
0.546037227
 40
0.6953100726
 40
0.7606312182
 40
0.8189574771
 40
0.8698008769
 40
0.9127175953
 40
0.9473603179
 40
0.9734756973
 40
0.9909322945
 40
1.0
 40
1.0
 40
1.0
 40
1.0
 10
-92.9264987024
 20
43.3354659698
 30
0.0
 10
-92.9237043672
 20
43.3972845873
 30
0.0
 10
-92.9186322998
 20
43.5183698273
 30
0.0
 10
-92.9127246291
 20
43.6940969545
 30
0.0
 10
-92.9089607526
 20
43.8560637003
 30
0.0
 10
-92.9077207867
 20
43.9797971971
 30
0.0
 10
-92.908110244
 20
44.0676762539
 30
0.0
 10
-92.9090077992
 20
44.1238609159
 30
0.0
 10
-92.9105019197
 20
44.1727988006
 30
0.0
 10
-92.9125397087
 20
44.2141356543
 30
0.0
 10
-92.9151305721
 20
44.2473219526
 30
0.0
 10
-92.9180265276
 20
44.272597988
 30
0.0
 10
-92.9214493141
 20
44.2887313827
 30
0.0
 10
-92.9242187245
 20
44.2975379706
 30
0.0
 10
-92.9264987024
 20
44.2993619529
 30
0.0
  0
SPLINE
  5
366
100
AcDbEntity
  8
ASSI
100
AcDbSpline
 62
7
  6
CONTINUOUS
 70
0
 71
3
 72
19
 73
15
 74
0
 42
0.0000001
 43
0.0000001
 44
0.0000000001
 40
0.0
 40
0.0
 40
0.0
 40
0.0
 40
0.0090677233
 40
0.0265243552
 40
0.0526397743
 40
0.0872825456
 40
0.1301992449
 40
0.1810426061
 40
0.2393688239
 40
0.3046899335
 40
0.4539626353
 40
0.6236319372
 40
0.8078201905
 40
1.0
 40
1.0
 40
1.0
 40
1.0
 10
-92.9264987024
 20
-44.2993619529
 30
0.0
 10
-92.9242187201
 20
-44.297537967
 30
0.0
 10
-92.9214493167
 20
-44.2887313551
 30
0.0
 10
-92.9180265203
 20
-44.2725979358
 30
0.0
 10
-92.9151305612
 20
-44.247321859
 30
0.0
 10
-92.9125397048
 20
-44.2141355385
 30
0.0
 10
-92.9105019115
 20
-44.1727986879
 30
0.0
 10
-92.9090077967
 20
-44.1238608349
 30
0.0
 10
-92.9081102441
 20
-44.0676762103
 30
0.0
 10
-92.9077207876
 20
-43.9797972248
 30
0.0
 10
-92.9089607485
 20
-43.8560638416
 30
0.0
 10
-92.9127246249
 20
-43.6940971529
 30
0.0
 10
-92.9186322946
 20
-43.5183699817
 30
0.0
 10
-92.9237043647
 20
-43.397284642
 30
0.0
 10
-92.9264987024
 20
-43.3354659698
 30
0.0
  0
SPLINE
  5
367
100
AcDbEntity
  8
0
100
AcDbSpline
 62
250
  6
CONTINUOUS
 70
0
 71
3
 72
10
 73
6
 74
0
 42
0.0000001
 43
0.0000001
 44
0.0000000001
 40
0.0
 40
0.0
 40
0.0
 40
0.0
 40
0.3333333333
 40
0.6666666667
 40
1.0
 40
1.0
 40
1.0
 40
1.0
 10
-93.9229694815
 20
-30.6349473604
 30
0.0
 10
-93.863941459
 20
-30.6188656796
 30
0.0
 10
-93.7470228457
 20
-30.5878597758
 30
0.0
 10
-93.5755683115
 20
-30.5433004307
 30
0.0
 10
-93.4638359568
 20
-30.5143333764
 30
0.0
 10
-93.4088025152
 20
-30.4993864496
 30
0.0
  0
SPLINE
  5
368
100
AcDbEntity
  8
0
100
AcDbSpline
 62
250
  6
CONTINUOUS
 70
0
 71
3
 72
16
 73
12
 74
0
 42
0.0000001
 43
0.0000001
 44
0.0000000001
 40
0.0
 40
0.0
 40
0.0
 40
0.0
 40
0.1111111111
 40
0.2222222222
 40
0.3333333333
 40
0.4444444444
 40
0.5555555556
 40
0.6666666667
 40
0.7777777778
 40
0.8888888889
 40
1.0
 40
1.0
 40
1.0
 40
1.0
 10
-94.295633637
 20
-30.8635473914
 30
0.0
 10
-94.2896332368
 20
-30.8484993657
 30
0.0
 10
-94.2744695601
 20
-30.8203425236
 30
0.0
 10
-94.2428378415
 20
-30.7825945712
 30
0.0
 10
-94.2060610926
 20
-30.7510786822
 30
0.0
 10
-94.1656879247
 20
-30.7244248151
 30
0.0
 10
-94.1239622561
 20
-30.7023277412
 30
0.0
 10
-94.0799052016
 20
-30.6830969154
 30
0.0
 10
-94.0327258828
 20
-30.6659690903
 30
0.0
 10
-93.9812089278
 20
-30.6505188991
 30
0.0
 10
-93.9428990698
 20
-30.6403770068
 30
0.0
 10
-93.9229694814
 20
-30.6349473606
 30
0.0
  0
SPLINE
  5
369
100
AcDbEntity
  8
0
100
AcDbSpline
 62
250
  6
CONTINUOUS
 70
0
 71
3
 72
32
 73
28
 74
0
 42
0.0000001
 43
0.0000001
 44
0.0000000001
 40
0.0
 40
0.0
 40
0.0
 40
0.0
 40
0.0555555556
 40
0.1111111111
 40
0.1388888889
 40
0.1666666667
 40
0.1944444444
 40
0.2222222222
 40
0.25
 40
0.2777777778
 40
0.3333333333
 40
0.3888888889
 40
0.4444444444
 40
0.5
 40
0.5555555556
 40
0.6111111111
 40
0.6666666667
 40
0.7222222222
 40
0.7777777778
 40
0.8055555556
 40
0.8333333333
 40
0.8611111111
 40
0.8888888889
 40
0.9166666667
 40
0.9444444444
 40
0.9722222222
 40
1.0
 40
1.0
 40
1.0
 40
1.0
 10
-95.2664492959
 20
-30.9044355375
 30
0.0
 10
-95.2566689936
 20
-30.8773247779
 30
0.0
 10
-95.2287901429
 20
-30.8240490197
 30
0.0
 10
-95.172193463
 20
-30.754100863
 30
0.0
 10
-95.1172841635
 20
-30.7058047132
 30
0.0
 10
-95.0718527978
 20
-30.6739002494
 30
0.0
 10
-95.0231317311
 20
-30.6470755408
 30
0.0
 10
-94.972679599
 20
-30.6261836127
 30
0.0
 10
-94.9236637315
 20
-30.6115415487
 30
0.0
 10
-94.8594380458
 20
-30.5986617626
 30
0.0
 10
-94.785124444
 20
-30.5929744031
 30
0.0
 10
-94.70565648
 20
-30.5969128401
 30
0.0
 10
-94.6351039167
 20
-30.609553884
 30
0.0
 10
-94.5737071963
 20
-30.6284730864
 30
0.0
 10
-94.5204807402
 20
-30.6516764555
 30
0.0
 10
-94.4748119667
 20
-30.6775881851
 30
0.0
 10
-94.4361608662
 20
-30.7050560438
 30
0.0
 10
-94.4038255308
 20
-30.7334592526
 30
0.0
 10
-94.3811587139
 20
-30.7567274859
 30
0.0
 10
-94.3649036259
 20
-30.7747079551
 30
0.0
 10
-94.3534960713
 20
-30.787854053
 30
0.0
 10
-94.3428724138
 20
-30.800520618
 30
0.0
 10
-94.3327504821
 20
-30.8127634199
 30
0.0
 10
-94.3231649764
 20
-30.8252577393
 30
0.0
 10
-94.3152371737
 20
-30.8378294656
 30
0.0
 10
-94.3095231812
 20
-30.8504975624
 30
0.0
 10
-94.3074235523
 20
-30.8591803942
 30
0.0
 10
-94.3068600688
 20
-30.8635473914
 30
0.0
  0
SPLINE
  5
36A
100
AcDbEntity
  8
0
100
AcDbSpline
 62
250
  6
CONTINUOUS
 70
0
 71
3
 72
15
 73
11
 74
0
 42
0.0000001
 43
0.0000001
 44
0.0000000001
 40
0.0
 40
0.0
 40
0.0
 40
0.0
 40
0.125
 40
0.25
 40
0.375
 40
0.5
 40
0.625
 40
0.75
 40
0.875
 40
1.0
 40
1.0
 40
1.0
 40
1.0
 10
-95.28645172
 20
-31.8831153973
 30
0.0
 10
-95.293689134
 20
-31.8339204526
 30
0.0
 10
-95.3070782909
 20
-31.7389883992
 30
0.0
 10
-95.3221488692
 20
-31.6081590393
 30
0.0
 10
-95.3318639501
 20
-31.4844779825
 30
0.0
 10
-95.3356501553
 20
-31.3655791421
 30
0.0
 10
-95.332643509
 20
-31.2482548755
 30
0.0
 10
-95.3215163874
 20
-31.1318743671
 30
0.0
 10
-95.3007638073
 20
-31.0168271191
 30
0.0
 10
-95.2798146852
 20
-30.9414303765
 30
0.0
 10
-95.2664492959
 20
-30.9044355375
 30
0.0
  0
SPLINE
  5
36B
100
AcDbEntity
  8
0
100
AcDbSpline
 62
250
  6
CONTINUOUS
 70
0
 71
3
 72
12
 73
8
 74
0
 42
0.0000001
 43
0.0000001
 44
0.0000000001
 40
0.0
 40
0.0
 40
0.0
 40
0.0
 40
0.3333333333
 40
0.5
 40
0.6666666667
 40
0.8333333333
 40
1.0
 40
1.0
 40
1.0
 40
1.0
 10
-94.9961755448
 20
-31.1906198897
 30
0.0
 10
-95.0001297188
 20
-31.2246892767
 30
0.0
 10
-95.0034373742
 20
-31.2760065759
 30
0.0
 10
-95.0026842493
 20
-31.3445750143
 30
0.0
 10
-94.9995361741
 20
-31.396256602
 30
0.0
 10
-94.9935600133
 20
-31.4485731218
 30
0.0
 10
-94.9880049634
 20
-31.4836233708
 30
0.0
 10
-94.9849906845
 20
-31.5012884969
 30
0.0
  0
SPLINE
  5
36C
100
AcDbEntity
  8
0
100
AcDbSpline
 62
250
  6
CONTINUOUS
 70
0
 71
3
 72
19
 73
15
 74
0
 42
0.0000001
 43
0.0000001
 44
0.0000000001
 40
0.0
 40
0.0
 40
0.0
 40
0.0
 40
0.1
 40
0.2
 40
0.25
 40
0.3
 40
0.4
 40
0.5
 40
0.6
 40
0.7
 40
0.75
 40
0.8
 40
0.9
 40
1.0
 40
1.0
 40
1.0
 40
1.0
 10
-94.7585769079
 20
-30.9665924606
 30
0.0
 10
-94.7700631712
 20
-30.9667667561
 30
0.0
 10
-94.7923223565
 20
-30.9688104285
 30
0.0
 10
-94.8200611791
 20
-30.9752810178
 30
0.0
 10
-94.8417274273
 20
-30.9827568115
 30
0.0
 10
-94.8630686813
 20
-30.9918082983
 30
0.0
 10
-94.8885153916
 20
-31.0058768426
 30
0.0
 10
-94.9170662023
 20
-31.0277064515
 30
0.0
 10
-94.9418080354
 20
-31.0542446247
 30
0.0
 10
-94.9587403932
 20
-31.079241453
 30
0.0
 10
-94.9702596965
 20
-31.1009209819
 30
0.0
 10
-94.9802656631
 20
-31.1233856822
 30
0.0
 10
-94.9900128194
 20
-31.1530188564
 30
0.0
 10
-94.9946731308
 20
-31.1776750043
 30
0.0
 10
-94.9961755449
 20
-31.1906198896
 30
0.0
  0
SPLINE
  5
36D
100
AcDbEntity
  8
0
100
AcDbSpline
 62
250
  6
CONTINUOUS
 70
0
 71
3
 72
15
 73
11
 74
0
 42
0.0000001
 43
0.0000001
 44
0.0000000001
 40
0.0
 40
0.0
 40
0.0
 40
0.0
 40
0.1666666667
 40
0.3333333333
 40
0.5
 40
0.5833333333
 40
0.6666666667
 40
0.75
 40
0.8333333333
 40
1.0
 40
1.0
 40
1.0
 40
1.0
 10
-94.463445997
 20
-31.2746513441
 30
0.0
 10
-94.464147872
 20
-31.2432274748
 30
0.0
 10
-94.4701534591
 20
-31.1849989174
 30
0.0
 10
-94.4915275986
 20
-31.1133259321
 30
0.0
 10
-94.5225794651
 20
-31.0621108135
 30
0.0
 10
-94.5591024662
 20
-31.0282471143
 30
0.0
 10
-94.5914573883
 20
-31.0068258912
 30
0.0
 10
-94.6272238352
 20
-30.9898189394
 30
0.0
 10
-94.6804192958
 20
-30.9724766945
 30
0.0
 10
-94.7257968733
 20
-30.9660920116
 30
0.0
 10
-94.7586290567
 20
-30.9665932672
 30
0.0
  0
SPLINE
  5
36E
100
AcDbEntity
  8
0
100
AcDbSpline
 62
250
  6
CONTINUOUS
 70
0
 71
3
 72
16
 73
12
 74
0
 42
0.0000001
 43
0.0000001
 44
0.0000000001
 40
0.0
 40
0.0
 40
0.0
 40
0.0
 40
0.125
 40
0.25
 40
0.3125
 40
0.375
 40
0.5
 40
0.625
 40
0.75
 40
0.875
 40
1.0
 40
1.0
 40
1.0
 40
1.0
 10
-93.9850972481
 20
-31.0543291296
 30
0.0
 10
-93.9978384497
 20
-31.0591210245
 30
0.0
 10
-94.0215509872
 20
-31.0699214029
 30
0.0
 10
-94.0491707751
 20
-31.0869314182
 30
0.0
 10
-94.0693936135
 20
-31.1023489658
 30
0.0
 10
-94.0883951177
 20
-31.1190375776
 30
0.0
 10
-94.1092321722
 20
-31.1418325596
 30
0.0
 10
-94.129308169
 20
-31.1727381889
 30
0.0
 10
-94.1429640929
 20
-31.206388094
 30
0.0
 10
-94.1506060181
 20
-31.2407288293
 30
0.0
 10
-94.1522971778
 20
-31.2635934255
 30
0.0
 10
-94.1522971778
 20
-31.2755061485
 30
0.0
  0
SPLINE
  5
36F
100
AcDbEntity
  8
0
100
AcDbSpline
 62
250
  6
CONTINUOUS
 70
0
 71
3
 72
12
 73
8
 74
0
 42
0.0000001
 43
0.0000001
 44
0.0000000001
 40
0.0
 40
0.0
 40
0.0
 40
0.0
 40
0.1666666667
 40
0.3333333333
 40
0.5
 40
0.6666666667
 40
1.0
 40
1.0
 40
1.0
 40
1.0
 10
-93.4088025152
 20
-30.8808429347
 30
0.0
 10
-93.4436505641
 20
-30.8908618887
 30
0.0
 10
-93.512359471
 20
-30.9109789446
 30
0.0
 10
-93.6126290577
 20
-30.9405342769
 30
0.0
 10
-93.7104765836
 20
-30.9684251093
 30
0.0
 10
-93.8374109869
 20
-31.0042254755
 30
0.0
 10
-93.9277264991
 20
-31.0327691968
 30
0.0
 10
-93.9850573874
 20
-31.0543141626
 30
0.0
  0
ELLIPSE
  5
370
100
AcDbEntity
  8
0
100
AcDbEllipse
 62
7
  6
CONTINUOUS
 10
-88.6272962613
 20
-26.079798695
 30
0.0
 11
0.1417119467
 21
0.1422961243
 31
0.0
 40
0.9918061237
 41
-0.2491986107
 42
0.7350951877
  0
ELLIPSE
  5
371
100
AcDbEntity
  8
0
100
AcDbEllipse
 62
7
  6
CONTINUOUS
 10
-88.6272962613
 20
26.079798695
 30
0.0
 11
-0.1417119467
 21
0.1422961243
 31
0.0
 40
0.9918061237
 41
-3.8766878413
 42
-2.8923940429
  0
ELLIPSE
  5
372
100
AcDbEntity
  8
0
100
AcDbEllipse
 62
7
  6
CONTINUOUS
 10
-91.6492197148
 20
43.2775387629
 30
0.0
 11
1.2772653435
 21
-0.0582277698
 31
0.0
 40
0.7819142031
 41
-3.1412917057
 42
-3.1059619589
  0
ELLIPSE
  5
373
100
AcDbEntity
  8
0
100
AcDbEllipse
 62
7
  6
CONTINUOUS
 10
-91.6492197148
 20
-43.2775387629
 30
0.0
 11
1.2772653435
 21
0.0582277698
 31
0.0
 40
0.7819142031
 41
3.1059619589
 42
3.1412917057
  0
ELLIPSE
  5
374
100
AcDbEntity
  8
ASSI
100
AcDbEllipse
 62
7
  6
CONTINUOUS
 10
-88.6272962613
 20
-26.079798695
 30
0.0
 11
0.1417119467
 21
0.1422961243
 31
0.0
 40
0.9918061237
 41
-0.2491986107
 42
0.7350951877
  0
ELLIPSE
  5
375
100
AcDbEntity
  8
ASSI
100
AcDbEllipse
 62
7
  6
CONTINUOUS
 10
-88.6272962613
 20
26.079798695
 30
0.0
 11
-0.1417119467
 21
0.1422961243
 31
0.0
 40
0.9918061237
 41
-3.8766878413
 42
-2.8923940429
  0
ELLIPSE
  5
376
100
AcDbEntity
  8
ASSI
100
AcDbEllipse
 62
7
  6
CONTINUOUS
 10
-91.6492197148
 20
43.2775387629
 30
0.0
 11
1.2772653435
 21
-0.0582277698
 31
0.0
 40
0.7819142031
 41
-3.1412917057
 42
-3.1059619589
  0
ELLIPSE
  5
377
100
AcDbEntity
  8
ASSI
100
AcDbEllipse
 62
7
  6
CONTINUOUS
 10
-91.6492197148
 20
-43.2775387629
 30
0.0
 11
1.2772653435
 21
0.0582277698
 31
0.0
 40
0.7819142031
 41
3.1059619589
 42
3.1412917057
  0
ENDSEC
  0
SECTION
  2
OBJECTS
  0
DICTIONARY
  5
C
100
AcDbDictionary
280
0
281
1
  3
ACAD_GROUP
350
D
  3
ACAD_MLINESTYLE
350
17
  3
ACAD_LAYOUT
350
1A
  3
ACAD_PLOTSETTINGS
350
19
  3
ACAD_PLOTSTYLENAME
350
E
  0
DICTIONARY
  5
D
102
{ACAD_REACTORS
330
C
102
}
100
AcDbDictionary
280
0
281
1
  0
ACDBDICTIONARYWDFLT
  5
E
102
{ACAD_REACTORS
330
C
102
}
100
AcDbDictionary
281
1
  3
Normal
350
F
100
AcDbDictionaryWithDefault
340
F
  0
DICTIONARY
  5
17
102
{ACAD_REACTORS
330
C
102
}
100
AcDbDictionary
280
0
281
1
  3
Standard
350
18
  0
DICTIONARY
  5
19
102
{ACAD_REACTORS
330
C
102
}
100
AcDbDictionary
281
1
  0
DICTIONARY
  5
1A
102
{ACAD_REACTORS
330
C
102
}
100
AcDbDictionary
281
1
  3
Model
350
378
  3
Layout1
350
379
  0
ACDBPLACEHOLDER
  5
F
102
{ACAD_REACTORS
330
E
102
}
  0
MLINESTYLE
  5
18
102
{ACAD_REACTORS
330
17
102
}
100
AcDbMlineStyle
  2
STANDARD
 70
0
  3

 62
256
 51
90.0
 52
90.0
 71
2
 49
0.5
 62
256
  6
BYLAYER
 49
-0.5
 62
256
  6
BYLAYER
  0
LAYOUT
  5
378
102
{ACAD_REACTORS
330
1A
102
}
100
AcDbPlotSettings
  1

  2
none_device
  4
ISO_A4_(297.00_x_210.00_MM)
  6

 40
0.0
 41
0.0
 42
0.0
 43
0.0
 44
297.0
 45
210.0
 46
0.0
 47
0.0
 48
0.0
 49
0.0
140
0.0
141
0.0
142
1.0
143
1.0
 70
1024
 72
1
 73
0
 74
0
  7

 75
0
147
1.0
148
0.0
149
0.0
100
AcDbLayout
  1
Model
 70
0
 71
0
 10
0.0
 20
0.0
 11
297.0
 21
210.0
 12
0.0
 22
0.0
 32
0.0
 14
0.0
 24
0.0
 34
0.0
 15
0.0
 25
0.0
 35
0.0
146
0.0
 13
0.0
 23
0.0
 33
0.0
 16
1.0
 26
0.0
 36
0.0
 17
0.0
 27
1.0
 37
0.0
 76
0
330
21C
345
0
346
0
  0
LAYOUT
  5
379
102
{ACAD_REACTORS
330
1A
102
}
100
AcDbPlotSettings
  1

  2
none_device
  4
ISO_A4_(297.00_x_210.00_MM)
  6

 40
0.0
 41
0.0
 42
0.0
 43
0.0
 44
297.0
 45
210.0
 46
0.0
 47
0.0
 48
0.0
 49
0.0
140
0.0
141
0.0
142
1.0
143
1.0
 70
0
 72
1
 73
0
 74
0
  7

 75
0
147
1.0
148
0.0
149
0.0
100
AcDbLayout
  1
Layout1
 70
0
 71
1
 10
0.0
 20
0.0
 11
297.0
 21
210.0
 12
0.0
 22
0.0
 32
0.0
 14
0.0
 24
0.0
 34
0.0
 15
0.0
 25
0.0
 35
0.0
146
0.0
 13
0.0
 23
0.0
 33
0.0
 16
1.0
 26
0.0
 36
0.0
 17
0.0
 27
1.0
 37
0.0
 76
0
330
21D
345
0
346
0
  0
ENDSEC
  0
EOF
