  0
SECTION
  2
HEADER
  9
$ACADVER
  1
AC1024
  9
$DWGCODEPAGE
  3
ANSI_1252
  9
$EXTMAX
 10
297.0
 20
210.0
 30
0.0
  9
$EXTMIN
 10
0.0
 20
0.0
 30
0.0
  9
$LIMMIN
 10
0.0
 20
0.0
  9
$LIMMAX
 10
297.0
 20
210.0
  9
$VIEWCTR
 10
148.5
 20
105.0
  9
$VIEWSIZE
 40
210.0
  9
$CLAYER
  8
0
  9
$LTSCALE
 40
16.335
  9
$CELTYPE
  6
BYLAYER
  9
$DIMSCALE
 40
1.0
  9
$DIMASZ
 40
3.0
  9
$DIMEXO
 40
0.5
  9
$DIMDLI
 40
11.286
  9
$DIMEXE
 40
1.5
  9
$DIMCEN
 40
2.673
  9
$DIMLFAC
 40
1.0
  9
$DIMBLK
  1
_FILLED
  9
$DIMALT
 70
0
  9
$DIMALTF
 40
0.0393700787
  9
$DIMTXT
 40
3.0
  9
$DIMTOL
 70
1
  9
$DIMLIM
 70
0
  9
$DIMTFAC
 40
1.0
  9
$DIMTP
 40
0.01
  9
$DIMTM
 40
0.01
  9
$DIMGAP
 40
0.625
  9
$DIMDSEP
 70
44
  9
$AUNITS
 70
0
  9
$PDMODE
 70
3
  9
$PDSIZE
 40
3.0
  9
$HANDSEED
  5
369
  9
$TILEMODE
 70
1
  9
$MEASUREMENT
 70
1
  9
$INSUNITS
 70
4
  0
ENDSEC
  0
SECTION
  2
CLASSES
  0
CLASS
  1
ACDBDICTIONARYWDFLT
  2
AcDbDictionaryWithDefault
  3
AutoCAD 2000
 90
0
 91
1
280
0
281
0
  0
CLASS
  1
ACDBPLACEHOLDER
  2
AcDbPlaceHolder
  3
AutoCAD 2000
 90
0
 91
1
280
0
281
0
  0
CLASS
  1
LAYOUT
  2
AcDbLayout
  3
AutoCAD 2000
 90
0
 91
0
280
0
281
0
  0
ENDSEC
  0
SECTION
  2
TABLES
  0
TABLE
  2
VPORT
  5
8
100
AcDbSymbolTable
 70
2
  0
VPORT
  5
1F4
100
AcDbSymbolTableRecord
100
AcDbViewportTableRecord
  2
*ACTIVE
 70
0
 10
0.0
 20
0.0
 11
1.0
 21
1.0
 12
148.5
 22
105.0
 13
0.0
 23
0.0
 14
1.0
 24
1.0
 15
0.0
 25
0.0
 16
0.0
 26
0.0
 36
1.0
 17
0.0
 27
0.0
 37
0.0
 40
210.0
 41
1.4142857143
 42
50.0
 43
0.0
 44
0.0
 50
0.0
 51
0.0
 71
0
 72
100
 73
1
 74
1
 75
0
 76
0
 77
0
 78
0
  0
ENDTAB
  0
TABLE
  2
LTYPE
  5
5
100
AcDbSymbolTable
 70
6
  0
LTYPE
  5
14
100
AcDbSymbolTableRecord
100
AcDbLinetypeTableRecord
  2
BYBLOCK
 70
0
  3

 72
65
 73
0
 40
0.0
  0
LTYPE
  5
15
100
AcDbSymbolTableRecord
100
AcDbLinetypeTableRecord
  2
BYLAYER
 70
0
  3

 72
65
 73
0
 40
0.0
  0
LTYPE
  5
16
100
AcDbSymbolTableRecord
100
AcDbLinetypeTableRecord
  2
CONTINUOUS
 70
64
  3
Solid line
 72
65
 73
0
 40
0.0
  0
LTYPE
  5
1F5
100
AcDbSymbolTableRecord
100
AcDbLinetypeTableRecord
  2
CENTER
 70
64
  3
____ _ ____ _ ____ _ ____ _ ____ _ ____ _ ____
 72
65
 73
4
 40
0.6
 49
0.375
 74
0
 49
-0.075
 74
0
 49
0.075
 74
0
 49
-0.075
 74
0
  0
LTYPE
  5
1F6
100
AcDbSymbolTableRecord
100
AcDbLinetypeTableRecord
  2
HIDDEN
 70
64
  3
- - - - - - - - - - - - - - - - - - - -
 72
65
 73
2
 40
0.2
 49
0.1
 74
0
 49
-0.1
 74
0
  0
LTYPE
  5
1F7
100
AcDbSymbolTableRecord
100
AcDbLinetypeTableRecord
  2
PHANTOM
 70
64
  3
_____ _ _ _____ _ _ _____ _ _ _____
 72
65
 73
6
 40
0.8
 49
0.45
 74
0
 49
-0.05
 74
0
 49
0.1
 74
0
 49
-0.05
 74
0
 49
0.1
 74
0
 49
-0.05
 74
0
  0
LTYPE
  5
1F8
100
AcDbSymbolTableRecord
100
AcDbLinetypeTableRecord
  2
DOT
 70
64
  3
. . . . . . . . . . . . . . . . . . . .
 72
65
 73
2
 40
0.2
 49
0.1
 74
0
 49
-0.1
 74
0
  0
LTYPE
  5
1F9
100
AcDbSymbolTableRecord
100
AcDbLinetypeTableRecord
  2
DASHED
 70
64
  3
- - - - - - - - - - - - - - - - - - - -
 72
65
 73
2
 40
0.2
 49
0.1
 74
0
 49
-0.1
 74
0
  0
ENDTAB
  0
TABLE
  2
LAYER
  5
2
100
AcDbSymbolTable
 70
36
  0
LAYER
  5
10
100
AcDbSymbolTableRecord
100
AcDbLayerTableRecord
  2
0
 70
0
 62
7
  6
CONTINUOUS
370
-3
390
F
  0
LAYER
  5
1FA
100
AcDbSymbolTableRecord
100
AcDbLayerTableRecord
  2
DEFAULT_1
 70
0
 62
7
  6
CENTER
370
-3
390
F
  0
LAYER
  5
1FB
100
AcDbSymbolTableRecord
100
AcDbLayerTableRecord
  2
DEFAULT_2
 70
0
 62
7
  6
HIDDEN
370
-3
390
F
  0
LAYER
  5
1FC
100
AcDbSymbolTableRecord
100
AcDbLayerTableRecord
  2
DEFAULT_3
 70
0
 62
7
  6
PHANTOM
370
-3
390
F
  0
LAYER
  5
1FD
100
AcDbSymbolTableRecord
100
AcDbLayerTableRecord
  2
ASSI
 70
0
 62
7
  6
CONTINUOUS
370
-3
390
F
  0
LAYER
  5
1FE
100
AcDbSymbolTableRecord
100
AcDbLayerTableRecord
  2
COORDINATE
 70
0
 62
7
  6
CONTINUOUS
370
-3
390
F
  0
LAYER
  5
1FF
100
AcDbSymbolTableRecord
100
AcDbLayerTableRecord
  2
COORD_ORIGINE
 70
0
 62
7
  6
CONTINUOUS
370
-3
390
F
  0
LAYER
  5
200
100
AcDbSymbolTableRecord
100
AcDbLayerTableRecord
  2
COPY_PUBLISH
 70
0
 62
7
  6
CONTINUOUS
370
-3
390
F
  0
LAYER
  5
201
100
AcDbSymbolTableRecord
100
AcDbLayerTableRecord
  2
COSMETIC
 70
0
 62
7
  6
CONTINUOUS
370
-3
390
F
  0
LAYER
  5
202
100
AcDbSymbolTableRecord
100
AcDbLayerTableRecord
  2
COSMETICI
 70
0
 62
7
  6
CONTINUOUS
370
-3
390
F
  0
LAYER
  5
203
100
AcDbSymbolTableRecord
100
AcDbLayerTableRecord
  2
CURVA_TASSELLO
 70
0
 62
7
  6
CONTINUOUS
370
-3
390
F
  0
LAYER
  5
204
100
AcDbSymbolTableRecord
100
AcDbLayerTableRecord
  2
CURVE
 70
0
 62
7
  6
CONTINUOUS
370
-3
390
F
  0
LAYER
  5
205
100
AcDbSymbolTableRecord
100
AcDbLayerTableRecord
  2
DRAFT
 70
0
 62
7
  6
CONTINUOUS
370
-3
390
F
  0
LAYER
  5
206
100
AcDbSymbolTableRecord
100
AcDbLayerTableRecord
  2
IMPORT_IGES
 70
0
 62
7
  6
CONTINUOUS
370
-3
390
F
  0
LAYER
  5
207
100
AcDbSymbolTableRecord
100
AcDbLayerTableRecord
  2
INTFCLR_2
 70
0
 62
7
  6
CONTINUOUS
370
-3
390
F
  0
LAYER
  5
208
100
AcDbSymbolTableRecord
100
AcDbLayerTableRecord
  2
INTF_1
 70
0
 62
7
  6
CONTINUOUS
370
-3
390
F
  0
LAYER
  5
209
100
AcDbSymbolTableRecord
100
AcDbLayerTableRecord
  2
INTF_21
 70
0
 62
7
  6
CONTINUOUS
370
-3
390
F
  0
LAYER
  5
20A
100
AcDbSymbolTableRecord
100
AcDbLayerTableRecord
  2
INTF_7
 70
0
 62
7
  6
CONTINUOUS
370
-3
390
F
  0
LAYER
  5
20B
100
AcDbSymbolTableRecord
100
AcDbLayerTableRecord
  2
NOTE
 70
0
 62
7
  6
CONTINUOUS
370
-3
390
F
  0
LAYER
  5
20C
100
AcDbSymbolTableRecord
100
AcDbLayerTableRecord
  2
PIANI
 70
0
 62
7
  6
CONTINUOUS
370
-3
390
F
  0
LAYER
  5
20D
100
AcDbSymbolTableRecord
100
AcDbLayerTableRecord
  2
PIANI_ORIGINE
 70
0
 62
7
  6
CONTINUOUS
370
-3
390
F
  0
LAYER
  5
20E
100
AcDbSymbolTableRecord
100
AcDbLayerTableRecord
  2
PIANI_RIFERIMENTO
 70
0
 62
7
  6
CONTINUOUS
370
-3
390
F
  0
LAYER
  5
20F
100
AcDbSymbolTableRecord
100
AcDbLayerTableRecord
  2
PUNTI
 70
0
 62
7
  6
CONTINUOUS
370
-3
390
F
  0
LAYER
  5
210
100
AcDbSymbolTableRecord
100
AcDbLayerTableRecord
  2
RACCORDO
 70
0
 62
7
  6
CONTINUOUS
370
-3
390
F
  0
LAYER
  5
211
100
AcDbSymbolTableRecord
100
AcDbLayerTableRecord
  2
RGB__255__255__255__
 70
0
 62
7
  6
CONTINUOUS
370
-3
390
F
  0
LAYER
  5
212
100
AcDbSymbolTableRecord
100
AcDbLayerTableRecord
  2
RGB____0____0____0__
 70
0
 62
7
  6
CONTINUOUS
370
-3
390
F
  0
LAYER
  5
213
100
AcDbSymbolTableRecord
100
AcDbLayerTableRecord
  2
SIMBOLI
 70
0
 62
7
  6
CONTINUOUS
370
-3
390
F
  0
LAYER
  5
214
100
AcDbSymbolTableRecord
100
AcDbLayerTableRecord
  2
SMUSSO
 70
0
 62
7
  6
CONTINUOUS
370
-3
390
F
  0
LAYER
  5
215
100
AcDbSymbolTableRecord
100
AcDbLayerTableRecord
  2
SNAPLINE
 70
0
 62
7
  6
CONTINUOUS
370
-3
390
F
  0
LAYER
  5
216
100
AcDbSymbolTableRecord
100
AcDbLayerTableRecord
  2
SUPERFICI
 70
0
 62
7
  6
CONTINUOUS
370
-3
390
F
  0
LAYER
  5
217
100
AcDbSymbolTableRecord
100
AcDbLayerTableRecord
  2
TRASH
 70
0
 62
7
  6
CONTINUOUS
370
-3
390
F
  0
LAYER
  5
218
100
AcDbSymbolTableRecord
100
AcDbLayerTableRecord
  2
WHITE
 70
0
 62
7
  6
CONTINUOUS
370
-3
390
F
  0
LAYER
  5
219
100
AcDbSymbolTableRecord
100
AcDbLayerTableRecord
  2
XSEC_DATUMS
 70
0
 62
7
  6
CONTINUOUS
370
-3
390
F
  0
ENDTAB
  0
TABLE
  2
STYLE
  5
3
100
AcDbSymbolTable
 70
1
  0
STYLE
  5
11
100
AcDbSymbolTableRecord
100
AcDbTextStyleTableRecord
  2
STANDARD
 70
0
 40
0.0
 41
0.8
 50
0.0
 71
0
 42
0.2
  3
txt
  4

  0
STYLE
  5
21A
100
AcDbSymbolTableRecord
100
AcDbTextStyleTableRecord
  2
TEXTSTYLE_1
 70
0
 40
0.0
 41
0.8
 50
0.0
 71
0
 42
0.2
  3
gdt
  4

  0
ENDTAB
  0
TABLE
  2
VIEW
  5
6
100
AcDbSymbolTable
 70
0
  0
ENDTAB
  0
TABLE
  2
UCS
  5
7
100
AcDbSymbolTable
 70
0
  0
ENDTAB
  0
TABLE
  2
APPID
  5
9
100
AcDbSymbolTable
 70
1
  0
APPID
  5
21B
100
AcDbSymbolTableRecord
100
AcDbRegAppTableRecord
  2
ACAD
 70
0
  0
ENDTAB
  0
TABLE
  2
BLOCK_RECORD
  5
1
100
AcDbSymbolTable
 70
0
  0
BLOCK_RECORD
  5
21C
100
AcDbSymbolTableRecord
100
AcDbBlockTableRecord
  2
*Model_Space
  0
BLOCK_RECORD
  5
21D
100
AcDbSymbolTableRecord
100
AcDbBlockTableRecord
  2
*Paper_Space
  0
BLOCK_RECORD
  5
21E
100
AcDbSymbolTableRecord
100
AcDbBlockTableRecord
  2
_FILLED
  0
BLOCK_RECORD
  5
21F
100
AcDbSymbolTableRecord
100
AcDbBlockTableRecord
  2
*D0
  0
BLOCK_RECORD
  5
220
100
AcDbSymbolTableRecord
100
AcDbBlockTableRecord
  2
*D1
  0
BLOCK_RECORD
  5
221
100
AcDbSymbolTableRecord
100
AcDbBlockTableRecord
  2
*D2
  0
BLOCK_RECORD
  5
222
100
AcDbSymbolTableRecord
100
AcDbBlockTableRecord
  2
*D3
  0
ENDTAB
  0
TABLE
  2
DIMSTYLE
  5
A
100
AcDbSymbolTable
 70
1
100
AcDbDimStyleTable
 71
0
  0
DIMSTYLE
105
223
100
AcDbSymbolTableRecord
100
AcDbDimStyleTableRecord
  2
STANDARD
 70
0
  3

  4

 40
1.0
 41
3.0
 42
0.5
 43
0.38
 44
1.5
 45
0.0
 46
0.0
 47
0.01
 48
0.01
140
3.0
141
0.09
142
0.0
143
25.4
144
1.0
145
0.0
146
1.0
147
0.625
 71
1
 72
0
 73
0
 74
0
 75
0
 76
0
 77
1
 78
8
 79
2
170
0
171
1
172
0
173
0
174
0
175
0
176
0
177
0
178
0
270
2
179
2
271
2
272
2
273
2
274
2
275
0
280
0
281
0
282
0
283
1
284
8
285
0
286
0
287
3
288
0
340
11
278
44
341
21E
342
21E
343
21E
344
21E
  0
DIMSTYLE
105
224
100
AcDbSymbolTableRecord
100
AcDbDimStyleTableRecord
  2
DIMSTYLE_1
 70
0
  3

  4

 40
1.0
 41
3.0
 42
0.5
 43
0.38
 44
1.5
 45
0.0
 46
0.0
 47
0.0
 48
0.0
140
3.0
141
0.09
142
0.0
143
25.4
144
1.0
145
0.0
146
1.0
147
0.75
 71
0
 72
0
 73
0
 74
0
 75
0
 76
0
 77
1
 78
8
 79
2
170
0
171
1
172
0
173
0
174
0
175
0
176
0
177
0
178
0
270
2
179
2
271
2
272
2
273
2
274
2
275
0
280
0
281
0
282
0
283
1
284
8
285
0
286
0
287
3
288
0
340
11
278
44
341
21E
342
21E
343
21E
344
21E
  0
ENDTAB
  0
ENDSEC
  0
SECTION
  2
BLOCKS
  0
BLOCK
  5
20
100
AcDbEntity
  8
0
100
AcDbBlockBegin
  2
*Model_Space
 70
0
 10
0.0
 20
0.0
 30
0.0
  3
*Model_Space
  1

  0
ENDBLK
  5
21
100
AcDbEntity
  8
0
100
AcDbBlockEnd
  0
BLOCK
  5
1C
100
AcDbEntity
  8
0
100
AcDbBlockBegin
  2
*Paper_Space
 70
0
 10
0.0
 20
0.0
 30
0.0
  3
*Paper_Space
  1

  0
ENDBLK
  5
1D
100
AcDbEntity
  8
0
100
AcDbBlockEnd
  0
BLOCK
  5
225
100
AcDbEntity
  8
0
100
AcDbBlockBegin
  2
_FILLED
 70
64
 10
0.0
 20
0.0
  3
_FILLED
  1

  0
SOLID
  5
226
100
AcDbEntity
  8
0
  6
BYBLOCK
 62
0
100
AcDbTrace
 10
0.0
 20
0.0
 11
-1.0
 21
0.3166666667
 12
-1.0
 22
-0.3166666667
 13
-1.0
 23
-0.3166666667
  0
ENDBLK
  5
227
100
AcDbEntity
  8
0
  6
BYBLOCK
 62
0
100
AcDbBlockEnd
  0
BLOCK
  5
228
100
AcDbEntity
  8
0
100
AcDbBlockBegin
 62
7
  6
CONTINUOUS
  2
*D0
 70
65
 10
0.0
 20
0.0
  3
*D0
  1

  0
MTEXT
  5
229
100
AcDbEntity
  8
0
100
AcDbMText
 62
7
  6
CONTINUOUS
  7
STANDARD
 71
2
 72
1
 10
-0.2500000001
 20
56.7499999997
 30
0.0
 11
1.0
 21
0.0
 31
0.0
 73
2
 44
0.9
  1
{\ftxt;\W0.0001;\H0.0001;\~}{\ftxt;\W2.1428571429;\H3.0; }{\ftxt;\W0.0001;\H0.0001;\~}
 40
3.0
 41
9.6428571429
  0
LINE
  5
22A
100
AcDbEntity
  8
0
100
AcDbLine
 62
7
  6
CONTINUOUS
 10
-61.2500000001
 20
44.5
 11
-61.2500000001
 21
54.4999999997
  0
LINE
  5
22B
100
AcDbEntity
  8
0
100
AcDbLine
 62
7
  6
CONTINUOUS
 10
60.7499999999
 20
44.5
 11
60.7499999999
 21
54.4999999997
  0
LINE
  5
22C
100
AcDbEntity
  8
0
100
AcDbLine
 62
7
  6
CONTINUOUS
 10
-61.2500000001
 20
52.9999999997
 11
-0.2500000001
 21
52.9999999997
  0
LINE
  5
22D
100
AcDbEntity
  8
0
100
AcDbLine
 62
7
  6
CONTINUOUS
 10
60.7499999999
 20
52.9999999997
 11
-0.2500000001
 21
52.9999999997
  0
INSERT
  5
22E
100
AcDbEntity
  8
0
100
AcDbBlockReference
 62
7
  6
CONTINUOUS
  2
_FILLED
 10
-61.2500000001
 20
52.9999999997
 41
3.0
 42
3.0
 43
3.0
 50
180.0
  0
INSERT
  5
22F
100
AcDbEntity
  8
0
100
AcDbBlockReference
 62
7
  6
CONTINUOUS
  2
_FILLED
 10
60.7499999999
 20
52.9999999997
 41
3.0
 42
3.0
 43
3.0
  0
ENDBLK
  5
230
100
AcDbEntity
  8
0
  6
BYBLOCK
 62
0
100
AcDbBlockEnd
  0
BLOCK
  5
231
100
AcDbEntity
  8
0
100
AcDbBlockBegin
 62
7
  6
CONTINUOUS
  2
*D1
 70
65
 10
0.0
 20
0.0
  3
*D1
  1

  0
MTEXT
  5
232
100
AcDbEntity
  8
0
100
AcDbMText
 62
7
  6
CONTINUOUS
  7
STANDARD
 71
2
 72
1
 10
65.4999999999
 20
0.0
 30
0.0
 11
0.0
 21
1.0
 31
0.0
 73
2
 44
0.9
  1
{\ftxt;\W0.0001;\H0.0001;\~}{\ftxt;\W1.5714285714;\H3.0; }{\ftxt;\W0.0001;\H0.0001;\~}
 40
3.0
 41
7.0714285714
  0
LINE
  5
233
100
AcDbEntity
  8
0
100
AcDbLine
 62
7
  6
CONTINUOUS
 10
60.2499999999
 20
45.0
 11
70.7499999999
 21
45.0
  0
LINE
  5
234
100
AcDbEntity
  8
0
100
AcDbLine
 62
7
  6
CONTINUOUS
 10
60.2499999999
 20
-45.0
 11
70.7499999999
 21
-45.0
  0
LINE
  5
235
100
AcDbEntity
  8
0
100
AcDbLine
 62
7
  6
CONTINUOUS
 10
69.2499999999
 20
45.0
 11
69.2499999999
 21
0.0
  0
LINE
  5
236
100
AcDbEntity
  8
0
100
AcDbLine
 62
7
  6
CONTINUOUS
 10
69.2499999999
 20
-45.0
 11
69.2499999999
 21
0.0
  0
INSERT
  5
237
100
AcDbEntity
  8
0
100
AcDbBlockReference
 62
7
  6
CONTINUOUS
  2
_FILLED
 10
69.2499999999
 20
45.0
 41
3.0
 42
3.0
 43
3.0
 50
90.0
  0
INSERT
  5
238
100
AcDbEntity
  8
0
100
AcDbBlockReference
 62
7
  6
CONTINUOUS
  2
_FILLED
 10
69.2499999999
 20
-45.0
 41
3.0
 42
3.0
 43
3.0
 50
270.0
  0
ENDBLK
  5
239
100
AcDbEntity
  8
0
  6
BYBLOCK
 62
0
100
AcDbBlockEnd
  0
BLOCK
  5
23A
100
AcDbEntity
  8
0
100
AcDbBlockBegin
 62
7
  6
CONTINUOUS
  2
*D2
 70
65
 10
0.0
 20
0.0
  3
*D2
  1

  0
MTEXT
  5
23B
100
AcDbEntity
  8
0
100
AcDbMText
 62
7
  6
CONTINUOUS
  7
STANDARD
 71
1
 72
1
 10
-79.021096868
 20
56.7499999997
 30
0.0
 11
1.0
 21
0.0
 31
0.0
 73
2
 44
0.9
  1
{\ftxt;\W0.0001;\H0.0001;\~}{\ftxt;\W2.7857142857;\H3.0; }{\ftxt;\W0.0001;\H0.0001;\~}
 40
3.0
 41
12.5357142857
  0
LINE
  5
23C
100
AcDbEntity
  8
0
100
AcDbLine
 62
7
  6
CONTINUOUS
 10
-91.6485742787
 20
44.5
 11
-91.6485742787
 21
54.4999999997
  0
LINE
  5
23D
100
AcDbEntity
  8
0
100
AcDbLine
 62
7
  6
CONTINUOUS
 10
-84.0985742787
 20
43.5384032275
 11
-84.0985742787
 21
54.4999999997
  0
LINE
  5
23E
100
AcDbEntity
  8
0
100
AcDbLine
 62
7
  6
CONTINUOUS
 10
-91.6485742787
 20
52.9999999997
 11
-87.8735742787
 21
52.9999999997
  0
LINE
  5
23F
100
AcDbEntity
  8
0
100
AcDbLine
 62
7
  6
CONTINUOUS
 10
-84.0985742787
 20
52.9999999997
 11
-87.8735742787
 21
52.9999999997
  0
LINE
  5
240
100
AcDbEntity
  8
0
100
AcDbLine
 62
7
  6
CONTINUOUS
 10
-87.8735742787
 20
52.9999999997
 11
-70.6639540109
 21
52.9999999997
  0
INSERT
  5
241
100
AcDbEntity
  8
0
100
AcDbBlockReference
 62
7
  6
CONTINUOUS
  2
_FILLED
 10
-91.6485742787
 20
52.9999999997
 41
3.0
 42
3.0
 43
3.0
 50
180.0
  0
INSERT
  5
242
100
AcDbEntity
  8
0
100
AcDbBlockReference
 62
7
  6
CONTINUOUS
  2
_FILLED
 10
-84.0985742787
 20
52.9999999997
 41
3.0
 42
3.0
 43
3.0
  0
ENDBLK
  5
243
100
AcDbEntity
  8
0
  6
BYBLOCK
 62
0
100
AcDbBlockEnd
  0
BLOCK
  5
244
100
AcDbEntity
  8
0
100
AcDbBlockBegin
 62
7
  6
CONTINUOUS
  2
*D3
 70
65
 10
0.0
 20
0.0
  3
*D3
  1

  0
MTEXT
  5
245
100
AcDbEntity
  8
0
100
AcDbMText
 62
7
  6
CONTINUOUS
  7
STANDARD
 71
1
 72
1
 10
-79.6340290555
 20
66.7499999997
 30
0.0
 11
1.0
 21
0.0
 31
0.0
 73
2
 44
0.9
  1
{\ftxt;\W0.0001;\H0.0001;\~}{\ftxt;\W3.3571428571;\H3.0; }{\ftxt;\W0.0001;\H0.0001;\~}
 40
3.0
 41
15.1071428571
  0
LINE
  5
246
100
AcDbEntity
  8
0
100
AcDbLine
 62
7
  6
CONTINUOUS
 10
-81.0985742787
 20
26.5463167932
 11
-81.0985742787
 21
64.4999999997
  0
LINE
  5
247
100
AcDbEntity
  8
0
100
AcDbLine
 62
7
  6
CONTINUOUS
 10
-91.6485742787
 20
44.5
 11
-91.6485742787
 21
64.4999999997
  0
LINE
  5
248
100
AcDbEntity
  8
0
100
AcDbLine
 62
7
  6
CONTINUOUS
 10
-81.0985742787
 20
62.9999999997
 11
-86.3735742787
 21
62.9999999997
  0
LINE
  5
249
100
AcDbEntity
  8
0
100
AcDbLine
 62
7
  6
CONTINUOUS
 10
-86.3735742787
 20
62.9999999997
 11
-69.5626004841
 21
62.9999999997
  0
LINE
  5
24A
100
AcDbEntity
  8
0
100
AcDbLine
 62
7
  6
CONTINUOUS
 10
-91.6485742787
 20
62.9999999997
 11
-86.3735742787
 21
62.9999999997
  0
INSERT
  5
24B
100
AcDbEntity
  8
0
100
AcDbBlockReference
 62
7
  6
CONTINUOUS
  2
_FILLED
 10
-81.0985742787
 20
62.9999999997
 41
3.0
 42
3.0
 43
3.0
  0
INSERT
  5
24C
100
AcDbEntity
  8
0
100
AcDbBlockReference
 62
7
  6
CONTINUOUS
  2
_FILLED
 10
-91.6485742787
 20
62.9999999997
 41
3.0
 42
3.0
 43
3.0
 50
180.0
  0
ENDBLK
  5
24D
100
AcDbEntity
  8
0
  6
BYBLOCK
 62
0
100
AcDbBlockEnd
  0
ENDSEC
  0
SECTION
  2
ENTITIES
  0
DIMENSION
  5
24E
100
AcDbEntity
  8
0
100
AcDbDimension
 62
7
  6
CONTINUOUS
  2
*D0
 10
60.7499999999
 20
52.9999999997
 11
-0.6785714536
 21
52.9999999997
 70
160
 71
2
 72
2
 41
0.9
 42
122.0
  1
{\ftxt;\W0.0001;\H0.0001;\~}{\ftxt;\W2.1428571429;\H3.0; }{\ftxt;\W0.0001;\H0.0001;\~}
  3
DIMSTYLE_1
100
AcDbAlignedDimension
 13
-61.2500000001
 23
44.0
 14
60.7499999999
 24
44.0
100
AcDbRotatedDimension
  0
DIMENSION
  5
24F
100
AcDbEntity
  8
0
100
AcDbDimension
 62
7
  6
CONTINUOUS
  2
*D1
 10
69.2499999999
 20
-45.0
 11
69.2499999999
 21
-0.4285729183
 70
160
 71
2
 72
2
 41
0.9
 42
90.0
  1
{\ftxt;\W0.0001;\H0.0001;\~}{\ftxt;\W1.5714285714;\H3.0; }{\ftxt;\W0.0001;\H0.0001;\~}
  3
DIMSTYLE_1
100
AcDbAlignedDimension
 13
59.7499999999
 23
45.0
 14
59.7499999999
 24
-45.0
 50
270.0
100
AcDbRotatedDimension
  0
DIMENSION
  5
250
100
AcDbEntity
  8
0
100
AcDbDimension
 62
7
  6
CONTINUOUS
  2
*D2
 10
-84.0985742787
 20
52.9999999997
 11
-75.2710961151
 21
52.9999999997
 70
160
 71
1
 72
2
 41
0.9
 42
7.55
  1
{\ftxt;\W0.0001;\H0.0001;\~}{\ftxt;\W2.7857142857;\H3.0; }{\ftxt;\W0.0001;\H0.0001;\~}
  3
DIMSTYLE_1
100
AcDbAlignedDimension
 13
-91.6485742787
 23
44.0
 14
-84.0985742787
 24
43.0384032275
100
AcDbRotatedDimension
  0
DIMENSION
  5
251
100
AcDbEntity
  8
0
100
AcDbDimension
 62
7
  6
CONTINUOUS
  2
*D3
 10
-91.6485742787
 20
62.9999999997
 11
-75.0268877563
 21
62.9999999997
 70
160
 71
1
 72
2
 41
0.9
 42
10.55
  1
{\ftxt;\W0.0001;\H0.0001;\~}{\ftxt;\W3.3571428571;\H3.0; }{\ftxt;\W0.0001;\H0.0001;\~}
  3
DIMSTYLE_1
100
AcDbAlignedDimension
 13
-81.0985742787
 23
26.0463167932
 14
-91.6485742787
 24
44.0
 50
180.0
100
AcDbRotatedDimension
  0
LINE
  5
252
100
AcDbEntity
  8
SMUSSO
100
AcDbLine
 62
7
  6
CONTINUOUS
 10
-61.2500000001
 20
44.0
 11
-61.2500000001
 21
-44.0
  0
LINE
  5
253
100
AcDbEntity
  8
SMUSSO
100
AcDbLine
 62
7
  6
CONTINUOUS
 10
-60.2500000001
 20
44.0
 11
-60.2500000001
 21
-44.0
  0
LINE
  5
254
100
AcDbEntity
  8
SMUSSO
100
AcDbLine
 62
250
  6
CONTINUOUS
 10
-60.2500000001
 20
-44.0
 11
-60.2500000001
 21
-45.0
  0
LINE
  5
255
100
AcDbEntity
  8
SMUSSO
100
AcDbLine
 62
250
  6
CONTINUOUS
 10
-60.2500000001
 20
44.0
 11
-60.2500000001
 21
45.0
  0
LINE
  5
256
100
AcDbEntity
  8
SMUSSO
100
AcDbLine
 62
7
  6
CONTINUOUS
 10
-60.2500000001
 20
-45.0
 11
59.7499999999
 21
-45.0
  0
LWPOLYLINE
  5
257
100
AcDbEntity
  8
0
100
AcDbPolyline
 62
7
  6
CONTINUOUS
 90
3
 70
0
 43
0.3500000006
 10
-3.4642857599
 20
55.8928609314
 10
-2.6071427221
 20
56.7499988708
 10
-2.6071427221
 20
53.7499979553
  0
LINE
  5
258
100
AcDbEntity
  8
SMUSSO
100
AcDbLine
 62
7
  6
CONTINUOUS
 10
-60.2500000001
 20
-44.0
 11
59.7499999999
 21
-44.0
  0
LINE
  5
259
100
AcDbEntity
  8
SMUSSO
100
AcDbLine
 62
250
  6
CONTINUOUS
 10
59.7499999999
 20
-44.0
 11
60.7499999999
 21
-44.0
  0
LINE
  5
25A
100
AcDbEntity
  8
SMUSSO
100
AcDbLine
 62
250
  6
CONTINUOUS
 10
-60.2500000001
 20
-44.0
 11
-61.2500000001
 21
-44.0
  0
LINE
  5
25B
100
AcDbEntity
  8
RACCORDO
100
AcDbLine
 62
7
  6
CONTINUOUS
 10
-34.2500000001
 20
21.55
 11
-34.2500000001
 21
-21.55
  0
LINE
  5
25C
100
AcDbEntity
  8
RACCORDO
100
AcDbLine
 62
7
  6
CONTINUOUS
 10
-33.0500000001
 20
-22.75
 11
32.5499999999
 21
-22.75
  0
LWPOLYLINE
  5
25D
100
AcDbEntity
  8
0
100
AcDbPolyline
 62
7
  6
CONTINUOUS
 90
13
 70
0
 43
0.3500000006
 10
67.6428557739
 20
-0.0000003204
 10
66.3571443329
 20
-0.0000003204
 10
65.9285708313
 20
0.2142864304
 10
65.5000018616
 20
0.642857666
 10
65.5000018616
 20
0.8571421509
 10
65.9285708313
 20
1.2857133865
 10
66.3571443329
 20
1.5000001373
 10
67.6428557739
 20
1.5000001373
 10
68.0714292755
 20
1.2857133865
 10
68.4999982452
 20
0.8571421509
 10
68.4999982452
 20
0.642857666
 10
68.0714292755
 20
0.2142864304
 10
67.6428557739
 20
-0.0000003204
  0
LINE
  5
25E
100
AcDbEntity
  8
RACCORDO
100
AcDbLine
 62
7
  6
CONTINUOUS
 10
32.5499999999
 20
22.75
 11
-33.0500000001
 21
22.75
  0
LINE
  5
25F
100
AcDbEntity
  8
RACCORDO
100
AcDbLine
 62
7
  6
CONTINUOUS
 10
33.7499999999
 20
-21.55
 11
33.7499999999
 21
21.55
  0
LINE
  5
260
100
AcDbEntity
  8
SMUSSO
100
AcDbLine
 62
250
  6
CONTINUOUS
 10
59.7499999999
 20
44.0
 11
60.7499999999
 21
44.0
  0
LINE
  5
261
100
AcDbEntity
  8
SMUSSO
100
AcDbLine
 62
7
  6
CONTINUOUS
 10
59.7499999999
 20
44.0
 11
-60.2500000001
 21
44.0
  0
LINE
  5
262
100
AcDbEntity
  8
SMUSSO
100
AcDbLine
 62
250
  6
CONTINUOUS
 10
-60.2500000001
 20
44.0
 11
-61.2500000001
 21
44.0
  0
LINE
  5
263
100
AcDbEntity
  8
SMUSSO
100
AcDbLine
 62
7
  6
CONTINUOUS
 10
59.7499999999
 20
45.0
 11
-60.2500000001
 21
45.0
  0
LWPOLYLINE
  5
264
100
AcDbEntity
  8
0
100
AcDbPolyline
 62
7
  6
CONTINUOUS
 90
10
 70
0
 43
0.3500000006
 10
68.4999982452
 20
-1.9285708809
 10
67.6428557739
 20
-1.0714295425
 10
66.7857133026
 20
-0.8571427917
 10
65.9285708313
 20
-0.8571427917
 10
65.5000018616
 20
-1.2857140274
 10
65.5000018616
 20
-1.9285708809
 10
65.9285708313
 20
-2.3571432495
 10
66.7857133026
 20
-2.3571432495
 10
67.2142868042
 20
-1.9285708809
 10
67.2142868042
 20
-1.0000006256
  0
LWPOLYLINE
  5
265
100
AcDbEntity
  8
0
100
AcDbPolyline
 62
7
  6
CONTINUOUS
 90
7
 70
0
 43
0.3500000006
 10
2.1071428528
 20
53.7499979553
 10
0.6071428907
 20
53.7499979553
 10
2.1071428528
 20
55.8928609314
 10
2.1071428528
 20
56.3214299011
 10
1.6785714755
 20
56.7499988708
 10
1.035714268
 20
56.7499988708
 10
0.6071428907
 20
56.1071454163
  0
LWPOLYLINE
  5
266
100
AcDbEntity
  8
0
100
AcDbPolyline
 62
7
  6
CONTINUOUS
 90
7
 70
0
 43
0.3500000006
 10
-0.2500000055
 20
53.7499979553
 10
-1.7499999676
 20
53.7499979553
 10
-0.2500000055
 20
55.8928609314
 10
-0.2500000055
 20
56.3214299011
 10
-0.6785714536
 20
56.7499988708
 10
-1.3214285903
 20
56.7499988708
 10
-1.7499999676
 20
56.1071454163
  0
LINE
  5
267
100
AcDbEntity
  8
SMUSSO
100
AcDbLine
 62
250
  6
CONTINUOUS
 10
59.7499999999
 20
-44.0
 11
59.7499999999
 21
-45.0
  0
LINE
  5
268
100
AcDbEntity
  8
SMUSSO
100
AcDbLine
 62
7
  6
CONTINUOUS
 10
59.7499999999
 20
-44.0
 11
59.7499999999
 21
44.0
  0
LINE
  5
269
100
AcDbEntity
  8
SMUSSO
100
AcDbLine
 62
250
  6
CONTINUOUS
 10
59.7499999999
 20
44.0
 11
59.7499999999
 21
45.0
  0
LINE
  5
26A
100
AcDbEntity
  8
SMUSSO
100
AcDbLine
 62
7
  6
CONTINUOUS
 10
60.7499999999
 20
-44.0
 11
60.7499999999
 21
44.0
  0
LINE
  5
26B
100
AcDbEntity
  8
SMUSSO
100
AcDbLine
 62
7
  6
CONTINUOUS
 10
-90.6485742787
 20
-45.0
 11
-89.1485742787
 21
-45.0
  0
LINE
  5
26C
100
AcDbEntity
  8
0
100
AcDbLine
 62
250
  6
CONTINUOUS
 10
-85.5977767199
 20
-43.3354659698
 11
-84.0985742787
 21
-43.0384032275
  0
LINE
  5
26D
100
AcDbEntity
  8
ASSI
100
AcDbLine
 62
250
  6
CONTINUOUS
 10
-85.5977767199
 20
-43.3354659698
 11
-84.0985742787
 21
-43.0384032275
  0
LINE
  5
26E
100
AcDbEntity
  8
0
100
AcDbLine
 62
7
  6
CONTINUOUS
 10
-88.4985742787
 20
-44.3506196883
 11
-85.5985742787
 21
-44.3
  0
LINE
  5
26F
100
AcDbEntity
  8
ASSI
100
AcDbLine
 62
7
  6
CONTINUOUS
 10
-88.4985742787
 20
-44.3506196883
 11
-85.5985742787
 21
-44.3
  0
LINE
  5
270
100
AcDbEntity
  8
0
100
AcDbLine
 62
250
  6
CONTINUOUS
 10
-88.4985742787
 20
-43.3507719931
 11
-85.5985742787
 21
-43.3001523048
  0
LINE
  5
271
100
AcDbEntity
  8
ASSI
100
AcDbLine
 62
250
  6
CONTINUOUS
 10
-88.4985742787
 20
-43.3507719931
 11
-85.5985742787
 21
-43.3001523048
  0
LINE
  5
272
100
AcDbEntity
  8
SMUSSO
100
AcDbLine
 62
250
  6
CONTINUOUS
 10
-88.6485742787
 20
-44.0
 11
-91.6485742787
 21
-44.0
  0
LWPOLYLINE
  5
273
100
AcDbEntity
  8
0
100
AcDbPolyline
 62
7
  6
CONTINUOUS
 90
3
 70
0
 43
0.3500000006
 10
-79.6340313721
 20
65.8928549194
 10
-78.7768843689
 20
66.7500019226
 10
-78.7768843689
 20
63.7500010071
  0
LINE
  5
274
100
AcDbEntity
  8
RACCORDO
100
AcDbLine
 62
7
  6
CONTINUOUS
 10
-88.6485742787
 20
-40.0
 11
-88.4985742787
 21
-40.0
  0
LINE
  5
275
100
AcDbEntity
  8
RACCORDO
100
AcDbLine
 62
250
  6
CONTINUOUS
 10
-88.6485742787
 20
-38.0
 11
-88.4985742787
 21
-38.0
  0
LINE
  5
276
100
AcDbEntity
  8
0
100
AcDbLine
 62
250
  6
CONTINUOUS
 10
-86.0800802787
 20
-36.161141
 11
-87.9800402787
 21
-36.161141
  0
LINE
  5
277
100
AcDbEntity
  8
SMUSSO
100
AcDbLine
 62
7
  6
CONTINUOUS
 10
-91.6485742787
 20
44.0
 11
-90.6485742787
 21
45.0
  0
LINE
  5
278
100
AcDbEntity
  8
0
100
AcDbLine
 62
250
  6
CONTINUOUS
 10
-86.6722032787
 20
-37.077819
 11
-87.9799262787
 21
-37.439964
  0
LINE
  5
279
100
AcDbEntity
  8
0
100
AcDbLine
 62
250
  6
CONTINUOUS
 10
-86.0800802787
 20
-33.624309
 11
-87.9799262787
 21
-33.801966
  0
LINE
  5
27A
100
AcDbEntity
  8
0
100
AcDbLine
 62
250
  6
CONTINUOUS
 10
-87.3154722787
 20
-34.093739
 11
-86.0800802787
 21
-34.012262
  0
LINE
  5
27B
100
AcDbEntity
  8
0
100
AcDbLine
 62
250
  6
CONTINUOUS
 10
-87.9800402787
 20
-35.764569
 11
-86.0800802787
 21
-35.764569
  0
LINE
  5
27C
100
AcDbEntity
  8
0
100
AcDbLine
 62
250
  6
CONTINUOUS
 10
-86.0800802787
 20
-35.171691
 11
-87.3206442787
 21
-35.08611
  0
LINE
  5
27D
100
AcDbEntity
  8
0
100
AcDbLine
 62
250
  6
CONTINUOUS
 10
-87.9799262787
 20
-35.379536
 11
-86.0800802787
 21
-35.551081
  0
LINE
  5
27E
100
AcDbEntity
  8
0
100
AcDbLine
 62
250
  6
CONTINUOUS
 10
-87.9799262787
 20
-36.704611
 11
-86.6722032787
 21
-37.077819
  0
LINE
  5
27F
100
AcDbEntity
  8
0
100
AcDbLine
 62
250
  6
CONTINUOUS
 10
-86.0800802787
 20
-36.918996
 11
-87.9799262787
 21
-36.30831
  0
LINE
  5
280
100
AcDbEntity
  8
SMUSSO
100
AcDbLine
 62
7
  6
CONTINUOUS
 10
-91.6485742787
 20
-44.0
 11
-90.6485742787
 21
-45.0
  0
LINE
  5
281
100
AcDbEntity
  8
0
100
AcDbLine
 62
250
  6
CONTINUOUS
 10
-86.4593572787
 20
-32.520272
 11
-86.0800802787
 21
-32.417539
  0
LINE
  5
282
100
AcDbEntity
  8
0
100
AcDbLine
 62
250
  6
CONTINUOUS
 10
-87.4578972787
 20
-32.781757
 11
-86.7528402787
 21
-32.599527
  0
LINE
  5
283
100
AcDbEntity
  8
0
100
AcDbLine
 62
250
  6
CONTINUOUS
 10
-86.0800805327
 20
-31.8831153973
 11
-87.9577297375
 21
-31.8831153973
  0
LINE
  5
284
100
AcDbEntity
  8
0
100
AcDbLine
 62
250
  6
CONTINUOUS
 10
-87.656268702
 20
-31.5012884969
 11
-87.1347240145
 21
-31.5012884969
  0
LINE
  5
285
100
AcDbEntity
  8
0
100
AcDbLine
 62
250
  6
CONTINUOUS
 10
-86.8235751952
 20
-31.4881387551
 11
-86.0800805327
 21
-31.4881387551
  0
LINE
  5
286
100
AcDbEntity
  8
0
100
AcDbLine
 62
250
  6
CONTINUOUS
 10
-86.9781380863
 20
-30.8635473914
 11
-86.9669116545
 21
-30.8635473914
  0
LINE
  5
287
100
AcDbEntity
  8
0
100
AcDbLine
 62
250
  6
CONTINUOUS
 10
-86.7528402787
 20
-32.979217
 11
-87.4578972787
 21
-32.781757
  0
LINE
  5
288
100
AcDbEntity
  8
0
100
AcDbLine
 62
250
  6
CONTINUOUS
 10
-86.0800802787
 20
-33.169767
 11
-86.4593572787
 21
-33.060338
  0
LINE
  5
289
100
AcDbEntity
  8
0
100
AcDbLine
 62
250
  6
CONTINUOUS
 10
-87.9799262787
 20
-32.966124
 11
-86.0800802787
 21
-33.562037
  0
LINE
  5
28A
100
AcDbEntity
  8
0
100
AcDbLine
 62
250
  6
CONTINUOUS
 10
-87.9799262787
 20
-34.194336
 11
-86.9251262787
 21
-34.590908
  0
LINE
  5
28B
100
AcDbEntity
  8
0
100
AcDbLine
 62
250
  6
CONTINUOUS
 10
-86.0800802787
 20
-34.565264
 11
-87.3154722787
 21
-34.093739
  0
LINE
  5
28C
100
AcDbEntity
  8
0
100
AcDbLine
 62
7
  6
CONTINUOUS
 10
-83.0985742787
 20
-27.15
 11
-84.0985742787
 21
-27.151745331
  0
LINE
  5
28D
100
AcDbEntity
  8
ASSI
100
AcDbLine
 62
7
  6
CONTINUOUS
 10
-83.0985742787
 20
-27.15
 11
-84.0985742787
 21
-27.151745331
  0
LINE
  5
28E
100
AcDbEntity
  8
0
100
AcDbLine
 62
250
  6
CONTINUOUS
 10
-83.172801695
 20
-26.9276792439
 11
-84.0985742787
 21
-26.9280974384
  0
LINE
  5
28F
100
AcDbEntity
  8
ASSI
100
AcDbLine
 62
250
  6
CONTINUOUS
 10
-83.172801695
 20
-26.9276792439
 11
-84.0985742787
 21
-26.9280974384
  0
LINE
  5
290
100
AcDbEntity
  8
RACCORDO
100
AcDbLine
 62
250
  6
CONTINUOUS
 10
-88.6485742787
 20
-29.5
 11
-88.4985742787
 21
-29.5
  0
LINE
  5
291
100
AcDbEntity
  8
RACCORDO
100
AcDbLine
 62
7
  6
CONTINUOUS
 10
-88.6485742787
 20
-27.5
 11
-88.4985742787
 21
-27.5
  0
LINE
  5
292
100
AcDbEntity
  8
0
100
AcDbLine
 62
7
  6
CONTINUOUS
 10
-81.6485250465
 20
-26.3415638603
 11
-84.0985742787
 21
-26.3558178298
  0
LINE
  5
293
100
AcDbEntity
  8
ASSI
100
AcDbLine
 62
7
  6
CONTINUOUS
 10
-81.6485250465
 20
-26.3415638603
 11
-84.0985742787
 21
-26.3558178298
  0
LINE
  5
294
100
AcDbEntity
  8
0
100
AcDbLine
 62
250
  6
CONTINUOUS
 10
-81.6485250465
 20
-26.2536973817
 11
-84.0985742787
 21
-26.2679513512
  0
LINE
  5
295
100
AcDbEntity
  8
ASSI
100
AcDbLine
 62
250
  6
CONTINUOUS
 10
-81.6485250465
 20
-26.2536973817
 11
-84.0985742787
 21
-26.2679513512
  0
LINE
  5
296
100
AcDbEntity
  8
RACCORDO
100
AcDbLine
 62
250
  6
CONTINUOUS
 10
-88.4985742787
 20
-26.5
 11
-88.6485742787
 21
-26.5
  0
LINE
  5
297
100
AcDbEntity
  8
0
100
AcDbLine
 62
7
  6
CONTINUOUS
 10
-81.0985742787
 20
-26.1523612067
 11
-81.2191370458
 21
-26.1523612067
  0
LINE
  5
298
100
AcDbEntity
  8
ASSI
100
AcDbLine
 62
7
  6
CONTINUOUS
 10
-81.0985742787
 20
-26.1523612067
 11
-81.2191370458
 21
-26.1523612067
  0
LINE
  5
299
100
AcDbEntity
  8
0
100
AcDbLine
 62
7
  6
CONTINUOUS
 10
-83.1484498998
 20
-25.2
 11
-84.0985742787
 21
-25.2
  0
LINE
  5
29A
100
AcDbEntity
  8
ASSI
100
AcDbLine
 62
7
  6
CONTINUOUS
 10
-83.1484498998
 20
-25.2
 11
-84.0985742787
 21
-25.2
  0
LINE
  5
29B
100
AcDbEntity
  8
0
100
AcDbLine
 62
7
  6
CONTINUOUS
 10
-84.0985742787
 20
-25.05
 11
-83.9485742787
 21
-25.05
  0
LINE
  5
29C
100
AcDbEntity
  8
ASSI
100
AcDbLine
 62
7
  6
CONTINUOUS
 10
-84.0985742787
 20
-25.05
 11
-83.9485742787
 21
-25.05
  0
LINE
  5
29D
100
AcDbEntity
  8
0
100
AcDbLine
 62
7
  6
CONTINUOUS
 10
-83.6485742787
 20
-25.05
 11
-83.4485742787
 21
-25.05
  0
LINE
  5
29E
100
AcDbEntity
  8
ASSI
100
AcDbLine
 62
7
  6
CONTINUOUS
 10
-83.6485742787
 20
-25.05
 11
-83.4485742787
 21
-25.05
  0
LINE
  5
29F
100
AcDbEntity
  8
0
100
AcDbLine
 62
7
  6
CONTINUOUS
 10
-81.0985742787
 20
-25.3523612067
 11
-81.620510933
 21
-25.3478063346
  0
LINE
  5
2A0
100
AcDbEntity
  8
ASSI
100
AcDbLine
 62
7
  6
CONTINUOUS
 10
-81.0985742787
 20
-25.3523612067
 11
-81.620510933
 21
-25.3478063346
  0
LINE
  5
2A1
100
AcDbEntity
  8
0
100
AcDbLine
 62
7
  6
CONTINUOUS
 10
-84.0985742787
 20
-25.7558198745
 11
-81.2881070875
 21
-25.8799866677
  0
LINE
  5
2A2
100
AcDbEntity
  8
ASSI
100
AcDbLine
 62
7
  6
CONTINUOUS
 10
-84.0985742787
 20
-25.7558198745
 11
-81.2881070875
 21
-25.8799866677
  0
LINE
  5
2A3
100
AcDbEntity
  8
0
100
AcDbLine
 62
7
  6
CONTINUOUS
 10
-81.0985742787
 20
-25.4
 11
-83.0489461808
 21
-25.2049628098
  0
LINE
  5
2A4
100
AcDbEntity
  8
ASSI
100
AcDbLine
 62
7
  6
CONTINUOUS
 10
-81.0985742787
 20
-25.4
 11
-83.0489461808
 21
-25.2049628098
  0
LINE
  5
2A5
100
AcDbEntity
  8
RACCORDO
100
AcDbLine
 62
7
  6
CONTINUOUS
 10
-88.6485742787
 20
-22.0
 11
-88.4985742787
 21
-22.0
  0
LINE
  5
2A6
100
AcDbEntity
  8
RACCORDO
100
AcDbLine
 62
250
  6
CONTINUOUS
 10
-88.6485742787
 20
-20.0
 11
-88.4985742787
 21
-20.0
  0
LINE
  5
2A7
100
AcDbEntity
  8
0
100
AcDbLine
 62
7
  6
CONTINUOUS
 10
-83.9485742787
 20
25.05
 11
-83.7985742787
 21
25.2
  0
LINE
  5
2A8
100
AcDbEntity
  8
ASSI
100
AcDbLine
 62
7
  6
CONTINUOUS
 10
-83.9485742787
 20
25.05
 11
-83.7985742787
 21
25.2
  0
LINE
  5
2A9
100
AcDbEntity
  8
0
100
AcDbLine
 62
7
  6
CONTINUOUS
 10
-83.4485742787
 20
25.05
 11
-83.2985742787
 21
25.2
  0
LINE
  5
2AA
100
AcDbEntity
  8
ASSI
100
AcDbLine
 62
7
  6
CONTINUOUS
 10
-83.4485742787
 20
25.05
 11
-83.2985742787
 21
25.2
  0
LINE
  5
2AB
100
AcDbEntity
  8
0
100
AcDbLine
 62
7
  6
CONTINUOUS
 10
-83.9485742787
 20
-25.05
 11
-83.7985742787
 21
-25.2
  0
LINE
  5
2AC
100
AcDbEntity
  8
ASSI
100
AcDbLine
 62
7
  6
CONTINUOUS
 10
-83.9485742787
 20
-25.05
 11
-83.7985742787
 21
-25.2
  0
LINE
  5
2AD
100
AcDbEntity
  8
0
100
AcDbLine
 62
7
  6
CONTINUOUS
 10
-83.4485742787
 20
-25.05
 11
-83.2985742787
 21
-25.2
  0
LINE
  5
2AE
100
AcDbEntity
  8
ASSI
100
AcDbLine
 62
7
  6
CONTINUOUS
 10
-83.4485742787
 20
-25.05
 11
-83.2985742787
 21
-25.2
  0
LWPOLYLINE
  5
2AF
100
AcDbEntity
  8
0
100
AcDbPolyline
 62
7
  6
CONTINUOUS
 90
3
 70
0
 43
0.3500000006
 10
-74.8483143311
 20
64.0357166748
 10
-74.9197455139
 20
63.8214321899
 10
-75.0625988159
 20
63.5357165222
  0
LWPOLYLINE
  5
2B0
100
AcDbEntity
  8
0
100
AcDbPolyline
 62
7
  6
CONTINUOUS
 90
3
 70
0
 43
0.3500000006
 10
-75.949669693
 20
54.035713623
 10
-76.021096344
 20
53.8214291382
 10
-76.163949646
 20
53.5357134705
  0
LINE
  5
2B1
100
AcDbEntity
  8
SMUSSO
100
AcDbLine
 62
7
  6
CONTINUOUS
 10
-91.6485742787
 20
-44.0
 11
-91.6485742787
 21
44.0
  0
LINE
  5
2B2
100
AcDbEntity
  8
SMUSSO
100
AcDbLine
 62
7
  6
CONTINUOUS
 10
-90.6485742787
 20
-45.0
 11
-90.6485742787
 21
45.0
  0
LINE
  5
2B3
100
AcDbEntity
  8
SMUSSO
100
AcDbLine
 62
7
  6
CONTINUOUS
 10
-89.1485742787
 20
45.0
 11
-89.1485742787
 21
-45.0
  0
LINE
  5
2B4
100
AcDbEntity
  8
SMUSSO
100
AcDbLine
 62
7
  6
CONTINUOUS
 10
-88.6485742787
 20
44.5
 11
-88.6485742787
 21
-44.5
  0
LINE
  5
2B5
100
AcDbEntity
  8
0
100
AcDbLine
 62
7
  6
CONTINUOUS
 10
-88.4985742787
 20
-44.3506196883
 11
-88.4985742787
 21
44.3506196883
  0
LINE
  5
2B6
100
AcDbEntity
  8
ASSI
100
AcDbLine
 62
7
  6
CONTINUOUS
 10
-88.4985742787
 20
-44.3506196883
 11
-88.4985742787
 21
44.3506196883
  0
LINE
  5
2B7
100
AcDbEntity
  8
0
100
AcDbLine
 62
250
  6
CONTINUOUS
 10
-87.9800402787
 20
-36.161141
 11
-87.9800402787
 21
-35.764569
  0
LINE
  5
2B8
100
AcDbEntity
  8
0
100
AcDbLine
 62
250
  6
CONTINUOUS
 10
-87.9799262787
 20
-32.582488
 11
-87.9799262787
 21
-32.966124
  0
LINE
  5
2B9
100
AcDbEntity
  8
0
100
AcDbLine
 62
250
  6
CONTINUOUS
 10
-87.9799262787
 20
-33.801966
 11
-87.9799262787
 21
-34.194336
  0
LINE
  5
2BA
100
AcDbEntity
  8
0
100
AcDbLine
 62
250
  6
CONTINUOUS
 10
-87.9799262787
 20
-34.983292
 11
-87.9799262787
 21
-35.379536
  0
LINE
  5
2BB
100
AcDbEntity
  8
0
100
AcDbLine
 62
250
  6
CONTINUOUS
 10
-87.9799262787
 20
-36.30831
 11
-87.9799262787
 21
-36.704611
  0
LINE
  5
2BC
100
AcDbEntity
  8
0
100
AcDbLine
 62
250
  6
CONTINUOUS
 10
-87.9799262787
 20
-37.439964
 11
-87.9799262787
 21
-37.870764
  0
LINE
  5
2BD
100
AcDbEntity
  8
0
100
AcDbLine
 62
250
  6
CONTINUOUS
 10
-87.1347240145
 20
-31.5012884969
 11
-87.1347240145
 21
-31.2746513441
  0
LINE
  5
2BE
100
AcDbEntity
  8
0
100
AcDbLine
 62
250
  6
CONTINUOUS
 10
-86.8235751952
 20
-31.2755061485
 11
-86.8235751952
 21
-31.4881387551
  0
LINE
  5
2BF
100
AcDbEntity
  8
0
100
AcDbLine
 62
250
  6
CONTINUOUS
 10
-86.7528402787
 20
-32.599527
 11
-86.7528402787
 21
-32.979217
  0
LINE
  5
2C0
100
AcDbEntity
  8
0
100
AcDbLine
 62
250
  6
CONTINUOUS
 10
-86.4593572787
 20
-33.060338
 11
-86.4593572787
 21
-32.520272
  0
LINE
  5
2C1
100
AcDbEntity
  8
0
100
AcDbLine
 62
250
  6
CONTINUOUS
 10
-86.0800805327
 20
-30.4993864496
 11
-86.0800805327
 21
-30.8808429347
  0
LINE
  5
2C2
100
AcDbEntity
  8
0
100
AcDbLine
 62
250
  6
CONTINUOUS
 10
-86.0800805327
 20
-31.4881387551
 11
-86.0800805327
 21
-31.8831153973
  0
LINE
  5
2C3
100
AcDbEntity
  8
0
100
AcDbLine
 62
250
  6
CONTINUOUS
 10
-86.0800802787
 20
-37.268476
 11
-86.0800802787
 21
-36.918996
  0
LINE
  5
2C4
100
AcDbEntity
  8
0
100
AcDbLine
 62
250
  6
CONTINUOUS
 10
-86.0800802787
 20
-35.551081
 11
-86.0800802787
 21
-35.171691
  0
LINE
  5
2C5
100
AcDbEntity
  8
0
100
AcDbLine
 62
250
  6
CONTINUOUS
 10
-86.0800802787
 20
-34.620883
 11
-86.0800802787
 21
-34.565264
  0
LINE
  5
2C6
100
AcDbEntity
  8
0
100
AcDbLine
 62
250
  6
CONTINUOUS
 10
-86.0800802787
 20
-34.012262
 11
-86.0800802787
 21
-33.624309
  0
LINE
  5
2C7
100
AcDbEntity
  8
0
100
AcDbLine
 62
250
  6
CONTINUOUS
 10
-86.0800802787
 20
-33.562037
 11
-86.0800802787
 21
-33.169767
  0
LINE
  5
2C8
100
AcDbEntity
  8
0
100
AcDbLine
 62
250
  6
CONTINUOUS
 10
-86.0800802787
 20
-32.417539
 11
-86.0800802787
 21
-31.999568
  0
LINE
  5
2C9
100
AcDbEntity
  8
0
100
AcDbLine
 62
250
  6
CONTINUOUS
 10
-86.0800802787
 20
-35.764569
 11
-86.0800802787
 21
-36.161141
  0
LINE
  5
2CA
100
AcDbEntity
  8
0
100
AcDbLine
 62
250
  6
CONTINUOUS
 10
-83.1727370755
 20
-27.1501294386
 11
-83.172801695
 21
-26.9276792439
  0
LINE
  5
2CB
100
AcDbEntity
  8
ASSI
100
AcDbLine
 62
250
  6
CONTINUOUS
 10
-83.1727370755
 20
-27.1501294386
 11
-83.172801695
 21
-26.9276792439
  0
LINE
  5
2CC
100
AcDbEntity
  8
0
100
AcDbLine
 62
7
  6
CONTINUOUS
 10
-85.5985742787
 20
43.3001523048
 11
-85.5985742787
 21
-43.3001523048
  0
LINE
  5
2CD
100
AcDbEntity
  8
ASSI
100
AcDbLine
 62
7
  6
CONTINUOUS
 10
-85.5985742787
 20
43.3001523048
 11
-85.5985742787
 21
-43.3001523048
  0
LINE
  5
2CE
100
AcDbEntity
  8
0
100
AcDbLine
 62
7
  6
CONTINUOUS
 10
-84.0985742787
 20
43.1
 11
-84.0985742787
 21
-43.1
  0
LINE
  5
2CF
100
AcDbEntity
  8
ASSI
100
AcDbLine
 62
7
  6
CONTINUOUS
 10
-84.0985742787
 20
43.1
 11
-84.0985742787
 21
-43.1
  0
LINE
  5
2D0
100
AcDbEntity
  8
0
100
AcDbLine
 62
250
  6
CONTINUOUS
 10
-83.172801695
 20
26.9276792439
 11
-83.1727370755
 21
27.1501294386
  0
LINE
  5
2D1
100
AcDbEntity
  8
ASSI
100
AcDbLine
 62
250
  6
CONTINUOUS
 10
-83.172801695
 20
26.9276792439
 11
-83.1727370755
 21
27.1501294386
  0
LINE
  5
2D2
100
AcDbEntity
  8
0
100
AcDbLine
 62
250
  6
CONTINUOUS
 10
-81.3828734918
 20
25.3715700787
 11
-81.3828734918
 21
25.3498801651
  0
LINE
  5
2D3
100
AcDbEntity
  8
ASSI
100
AcDbLine
 62
250
  6
CONTINUOUS
 10
-81.3828734918
 20
25.3715700787
 11
-81.3828734918
 21
25.3498801651
  0
LINE
  5
2D4
100
AcDbEntity
  8
0
100
AcDbLine
 62
250
  6
CONTINUOUS
 10
-81.3828734918
 20
-25.3498801651
 11
-81.3828734918
 21
-25.3715700787
  0
LINE
  5
2D5
100
AcDbEntity
  8
ASSI
100
AcDbLine
 62
250
  6
CONTINUOUS
 10
-81.3828734918
 20
-25.3498801651
 11
-81.3828734918
 21
-25.3715700787
  0
LINE
  5
2D6
100
AcDbEntity
  8
0
100
AcDbLine
 62
250
  6
CONTINUOUS
 10
-81.2881070875
 20
25.8799866677
 11
-81.2881070875
 21
25.3810467191
  0
LINE
  5
2D7
100
AcDbEntity
  8
ASSI
100
AcDbLine
 62
250
  6
CONTINUOUS
 10
-81.2881070875
 20
25.8799866677
 11
-81.2881070875
 21
25.3810467191
  0
LINE
  5
2D8
100
AcDbEntity
  8
0
100
AcDbLine
 62
250
  6
CONTINUOUS
 10
-81.2881070875
 20
-25.3810467191
 11
-81.2881070875
 21
-25.8799866677
  0
LINE
  5
2D9
100
AcDbEntity
  8
ASSI
100
AcDbLine
 62
250
  6
CONTINUOUS
 10
-81.2881070875
 20
-25.3810467191
 11
-81.2881070875
 21
-25.8799866677
  0
LINE
  5
2DA
100
AcDbEntity
  8
0
100
AcDbLine
 62
7
  6
CONTINUOUS
 10
-81.0985742787
 20
26.1523612067
 11
-81.0985742787
 21
25.3523612067
  0
LINE
  5
2DB
100
AcDbEntity
  8
ASSI
100
AcDbLine
 62
7
  6
CONTINUOUS
 10
-81.0985742787
 20
26.1523612067
 11
-81.0985742787
 21
25.3523612067
  0
LINE
  5
2DC
100
AcDbEntity
  8
0
100
AcDbLine
 62
7
  6
CONTINUOUS
 10
-81.0985742787
 20
-25.3523612067
 11
-81.0985742787
 21
-26.1523612067
  0
LINE
  5
2DD
100
AcDbEntity
  8
ASSI
100
AcDbLine
 62
7
  6
CONTINUOUS
 10
-81.0985742787
 20
-25.3523612067
 11
-81.0985742787
 21
-26.1523612067
  0
LWPOLYLINE
  5
2DE
100
AcDbEntity
  8
0
100
AcDbPolyline
 62
7
  6
CONTINUOUS
 90
4
 70
0
 43
0.3500000006
 10
-79.0210972595
 20
56.1071454163
 10
-79.0210972595
 20
56.7499988708
 10
-77.5210968018
 20
56.7499988708
 10
-78.3782438049
 20
53.7499979553
  0
LWPOLYLINE
  5
2DF
100
AcDbEntity
  8
0
100
AcDbPolyline
 62
7
  6
CONTINUOUS
 90
13
 70
0
 43
0.3500000006
 10
-77.9197464294
 20
64.6071389465
 10
-77.9197464294
 20
65.8928549194
 10
-77.7054619446
 20
66.3214329529
 10
-77.2768839111
 20
66.7500019226
 10
-77.0625994263
 20
66.7500019226
 10
-76.6340304565
 20
66.3214329529
 10
-76.4197459717
 20
65.8928549194
 10
-76.4197459717
 20
64.6071389465
 10
-76.6340304565
 20
64.1785699768
 10
-77.0625994263
 20
63.7500010071
 10
-77.2768839111
 20
63.7500010071
 10
-77.7054619446
 20
64.1785699768
 10
-77.9197464294
 20
64.6071389465
  0
LINE
  5
2E0
100
AcDbEntity
  8
0
100
AcDbLine
 62
7
  6
CONTINUOUS
 10
-83.7985742787
 20
-25.2
 11
-83.6485742787
 21
-25.05
  0
LINE
  5
2E1
100
AcDbEntity
  8
ASSI
100
AcDbLine
 62
7
  6
CONTINUOUS
 10
-83.7985742787
 20
-25.2
 11
-83.6485742787
 21
-25.05
  0
LINE
  5
2E2
100
AcDbEntity
  8
0
100
AcDbLine
 62
7
  6
CONTINUOUS
 10
-83.7985742787
 20
25.2
 11
-83.6485742787
 21
25.05
  0
LINE
  5
2E3
100
AcDbEntity
  8
ASSI
100
AcDbLine
 62
7
  6
CONTINUOUS
 10
-83.7985742787
 20
25.2
 11
-83.6485742787
 21
25.05
  0
LINE
  5
2E4
100
AcDbEntity
  8
0
100
AcDbLine
 62
250
  6
CONTINUOUS
 10
-83.172801695
 20
-26.9276792439
 11
-82.0732828351
 21
-26.3440350289
  0
LINE
  5
2E5
100
AcDbEntity
  8
ASSI
100
AcDbLine
 62
250
  6
CONTINUOUS
 10
-83.172801695
 20
-26.9276792439
 11
-82.0732828351
 21
-26.3440350289
  0
LINE
  5
2E6
100
AcDbEntity
  8
0
100
AcDbLine
 62
250
  6
CONTINUOUS
 10
-81.6485250465
 20
-26.2536973817
 11
-81.1264331938
 21
-25.9765617175
  0
LINE
  5
2E7
100
AcDbEntity
  8
ASSI
100
AcDbLine
 62
250
  6
CONTINUOUS
 10
-81.6485250465
 20
-26.2536973817
 11
-81.1264331938
 21
-25.9765617175
  0
LINE
  5
2E8
100
AcDbEntity
  8
0
100
AcDbLine
 62
7
  6
CONTINUOUS
 10
-81.0985742787
 20
-26.0883643404
 11
-83.0985742833
 21
-27.1500000024
  0
LINE
  5
2E9
100
AcDbEntity
  8
ASSI
100
AcDbLine
 62
7
  6
CONTINUOUS
 10
-81.0985742787
 20
-26.0883643404
 11
-83.0985742833
 21
-27.1500000024
  0
LINE
  5
2EA
100
AcDbEntity
  8
0
100
AcDbLine
 62
7
  6
CONTINUOUS
 10
-81.0985742787
 20
25.4
 11
-83.0489461808
 21
25.2049628098
  0
LINE
  5
2EB
100
AcDbEntity
  8
ASSI
100
AcDbLine
 62
7
  6
CONTINUOUS
 10
-81.0985742787
 20
25.4
 11
-83.0489461808
 21
25.2049628098
  0
LINE
  5
2EC
100
AcDbEntity
  8
0
100
AcDbLine
 62
7
  6
CONTINUOUS
 10
-84.0985742787
 20
25.7558198745
 11
-81.2881070875
 21
25.8799866677
  0
LINE
  5
2ED
100
AcDbEntity
  8
ASSI
100
AcDbLine
 62
7
  6
CONTINUOUS
 10
-84.0985742787
 20
25.7558198745
 11
-81.2881070875
 21
25.8799866677
  0
LINE
  5
2EE
100
AcDbEntity
  8
0
100
AcDbLine
 62
7
  6
CONTINUOUS
 10
-81.0985742787
 20
25.3523612067
 11
-81.620510933
 21
25.3478063346
  0
LINE
  5
2EF
100
AcDbEntity
  8
ASSI
100
AcDbLine
 62
7
  6
CONTINUOUS
 10
-81.0985742787
 20
25.3523612067
 11
-81.620510933
 21
25.3478063346
  0
LINE
  5
2F0
100
AcDbEntity
  8
0
100
AcDbLine
 62
7
  6
CONTINUOUS
 10
-84.0985742787
 20
25.05
 11
-83.9485742787
 21
25.05
  0
LINE
  5
2F1
100
AcDbEntity
  8
ASSI
100
AcDbLine
 62
7
  6
CONTINUOUS
 10
-84.0985742787
 20
25.05
 11
-83.9485742787
 21
25.05
  0
LINE
  5
2F2
100
AcDbEntity
  8
0
100
AcDbLine
 62
7
  6
CONTINUOUS
 10
-83.6485742787
 20
25.05
 11
-83.4485742787
 21
25.05
  0
LINE
  5
2F3
100
AcDbEntity
  8
ASSI
100
AcDbLine
 62
7
  6
CONTINUOUS
 10
-83.6485742787
 20
25.05
 11
-83.4485742787
 21
25.05
  0
LINE
  5
2F4
100
AcDbEntity
  8
0
100
AcDbLine
 62
7
  6
CONTINUOUS
 10
-84.0985742787
 20
25.2
 11
-83.1484498998
 21
25.2
  0
LINE
  5
2F5
100
AcDbEntity
  8
ASSI
100
AcDbLine
 62
7
  6
CONTINUOUS
 10
-84.0985742787
 20
25.2
 11
-83.1484498998
 21
25.2
  0
LINE
  5
2F6
100
AcDbEntity
  8
0
100
AcDbLine
 62
7
  6
CONTINUOUS
 10
-81.0985742787
 20
26.1523612067
 11
-81.2191370458
 21
26.1523612067
  0
LINE
  5
2F7
100
AcDbEntity
  8
ASSI
100
AcDbLine
 62
7
  6
CONTINUOUS
 10
-81.0985742787
 20
26.1523612067
 11
-81.2191370458
 21
26.1523612067
  0
LINE
  5
2F8
100
AcDbEntity
  8
0
100
AcDbLine
 62
250
  6
CONTINUOUS
 10
-83.172801695
 20
26.9276792439
 11
-84.0985742787
 21
26.9280974384
  0
LINE
  5
2F9
100
AcDbEntity
  8
ASSI
100
AcDbLine
 62
250
  6
CONTINUOUS
 10
-83.172801695
 20
26.9276792439
 11
-84.0985742787
 21
26.9280974384
  0
LINE
  5
2FA
100
AcDbEntity
  8
0
100
AcDbLine
 62
7
  6
CONTINUOUS
 10
-83.0985742787
 20
27.15
 11
-84.0985742787
 21
27.151745331
  0
LINE
  5
2FB
100
AcDbEntity
  8
ASSI
100
AcDbLine
 62
7
  6
CONTINUOUS
 10
-83.0985742787
 20
27.15
 11
-84.0985742787
 21
27.151745331
  0
LINE
  5
2FC
100
AcDbEntity
  8
0
100
AcDbLine
 62
250
  6
CONTINUOUS
 10
-81.6485250465
 20
26.2536973817
 11
-84.0985742787
 21
26.2679513512
  0
LINE
  5
2FD
100
AcDbEntity
  8
ASSI
100
AcDbLine
 62
250
  6
CONTINUOUS
 10
-81.6485250465
 20
26.2536973817
 11
-84.0985742787
 21
26.2679513512
  0
LINE
  5
2FE
100
AcDbEntity
  8
0
100
AcDbLine
 62
7
  6
CONTINUOUS
 10
-81.6485250465
 20
26.3415638603
 11
-84.0985742787
 21
26.3558178298
  0
LINE
  5
2FF
100
AcDbEntity
  8
ASSI
100
AcDbLine
 62
7
  6
CONTINUOUS
 10
-81.6485250465
 20
26.3415638603
 11
-84.0985742787
 21
26.3558178298
  0
LINE
  5
300
100
AcDbEntity
  8
0
100
AcDbLine
 62
250
  6
CONTINUOUS
 10
-82.0732828351
 20
26.3440350289
 11
-83.172801695
 21
26.9276792439
  0
LINE
  5
301
100
AcDbEntity
  8
ASSI
100
AcDbLine
 62
250
  6
CONTINUOUS
 10
-82.0732828351
 20
26.3440350289
 11
-83.172801695
 21
26.9276792439
  0
LINE
  5
302
100
AcDbEntity
  8
0
100
AcDbLine
 62
250
  6
CONTINUOUS
 10
-81.1264331938
 20
25.9765617175
 11
-81.6485250465
 21
26.2536973817
  0
LINE
  5
303
100
AcDbEntity
  8
ASSI
100
AcDbLine
 62
250
  6
CONTINUOUS
 10
-81.1264331938
 20
25.9765617175
 11
-81.6485250465
 21
26.2536973817
  0
LINE
  5
304
100
AcDbEntity
  8
0
100
AcDbLine
 62
7
  6
CONTINUOUS
 10
-81.0985742787
 20
26.0883643404
 11
-83.0985742824
 21
27.1500000019
  0
LINE
  5
305
100
AcDbEntity
  8
ASSI
100
AcDbLine
 62
7
  6
CONTINUOUS
 10
-81.0985742787
 20
26.0883643404
 11
-83.0985742824
 21
27.1500000019
  0
LINE
  5
306
100
AcDbEntity
  8
SMUSSO
100
AcDbLine
 62
7
  6
CONTINUOUS
 10
-88.6485742787
 20
-44.5
 11
-89.1485742787
 21
-45.0
  0
LINE
  5
307
100
AcDbEntity
  8
SMUSSO
100
AcDbLine
 62
7
  6
CONTINUOUS
 10
-88.6485742787
 20
44.5
 11
-89.1485742787
 21
45.0
  0
LINE
  5
308
100
AcDbEntity
  8
0
100
AcDbLine
 62
250
  6
CONTINUOUS
 10
-87.3206442787
 20
-35.08611
 11
-86.0800802787
 21
-34.620883
  0
LINE
  5
309
100
AcDbEntity
  8
0
100
AcDbLine
 62
250
  6
CONTINUOUS
 10
-86.9251262787
 20
-34.590908
 11
-87.9799262787
 21
-34.983292
  0
LINE
  5
30A
100
AcDbEntity
  8
0
100
AcDbLine
 62
250
  6
CONTINUOUS
 10
-86.0800802787
 20
-31.999568
 11
-87.9799262787
 21
-32.582488
  0
LWPOLYLINE
  5
30B
100
AcDbEntity
  8
0
100
AcDbPolyline
 62
7
  6
CONTINUOUS
 90
10
 70
0
 43
0.3500000006
 10
-76.021096344
 20
54.2499981079
 10
-75.949669693
 20
54.1071448059
 10
-75.949669693
 20
54.035713623
 10
-76.0925275269
 20
53.8928557892
 10
-76.163949646
 20
53.8928557892
 10
-76.2353808289
 20
53.964286972
 10
-76.2353808289
 20
54.035713623
 10
-76.163949646
 20
54.1785714569
 10
-76.0925275269
 20
54.2499981079
 10
-76.021096344
 20
54.2499981079
  0
LINE
  5
30C
100
AcDbEntity
  8
0
100
AcDbLine
 62
7
  6
CONTINUOUS
 10
-85.5977767199
 20
-44.2993619529
 11
-84.0985742787
 21
-43.1
  0
LINE
  5
30D
100
AcDbEntity
  8
ASSI
100
AcDbLine
 62
7
  6
CONTINUOUS
 10
-85.5977767199
 20
-44.2993619529
 11
-84.0985742787
 21
-43.1
  0
LINE
  5
30E
100
AcDbEntity
  8
0
100
AcDbLine
 62
250
  6
CONTINUOUS
 10
-87.9799262787
 20
-37.870764
 11
-86.0800802787
 21
-37.268476
  0
LINE
  5
30F
100
AcDbEntity
  8
0
100
AcDbLine
 62
7
  6
CONTINUOUS
 10
-85.5985742787
 20
44.3
 11
-84.0985742787
 21
43.1
  0
LINE
  5
310
100
AcDbEntity
  8
ASSI
100
AcDbLine
 62
7
  6
CONTINUOUS
 10
-85.5985742787
 20
44.3
 11
-84.0985742787
 21
43.1
  0
LINE
  5
311
100
AcDbEntity
  8
RACCORDO
100
AcDbLine
 62
250
  6
CONTINUOUS
 10
-88.6485742787
 20
38.0
 11
-88.4985742787
 21
38.0
  0
LWPOLYLINE
  5
312
100
AcDbEntity
  8
0
100
AcDbPolyline
 62
7
  6
CONTINUOUS
 90
10
 70
0
 43
0.3500000006
 10
-74.9197455139
 20
64.2500011597
 10
-74.8483143311
 20
64.1071387939
 10
-74.8483143311
 20
64.0357166748
 10
-74.9911721649
 20
63.8928543091
 10
-75.0625988159
 20
63.8928543091
 10
-75.1340299988
 20
63.9642854919
 10
-75.1340299988
 20
64.0357166748
 10
-75.0625988159
 20
64.1785699768
 10
-74.9911721649
 20
64.2500011597
 10
-74.9197455139
 20
64.2500011597
  0
LINE
  5
313
100
AcDbEntity
  8
RACCORDO
100
AcDbLine
 62
7
  6
CONTINUOUS
 10
-88.6485742787
 20
40.0
 11
-88.4985742787
 21
40.0
  0
LINE
  5
314
100
AcDbEntity
  8
SMUSSO
100
AcDbLine
 62
250
  6
CONTINUOUS
 10
-88.6485742787
 20
44.0
 11
-91.6485742787
 21
44.0
  0
LINE
  5
315
100
AcDbEntity
  8
SMUSSO
100
AcDbLine
 62
7
  6
CONTINUOUS
 10
-90.6485742787
 20
45.0
 11
-89.1485742787
 21
45.0
  0
LWPOLYLINE
  5
316
100
AcDbEntity
  8
0
100
AcDbPolyline
 62
7
  6
CONTINUOUS
 90
8
 70
0
 43
0.3500000006
 10
-74.9496693878
 20
53.7499979553
 10
-74.0925269165
 20
53.7499979553
 10
-73.6639534149
 20
54.1785714569
 10
-73.6639534149
 20
55.0357139282
 10
-74.0925269165
 20
55.4642874298
 10
-74.9496693878
 20
55.4642874298
 10
-74.9496693878
 20
56.7499988708
 10
-73.6639534149
 20
56.7499988708
  0
LWPOLYLINE
  5
317
100
AcDbEntity
  8
0
100
AcDbPolyline
 62
7
  6
CONTINUOUS
 90
8
 70
0
 43
0.3500000006
 10
-72.8068109436
 20
53.7499979553
 10
-71.9496684723
 20
53.7499979553
 10
-71.5210949707
 20
54.1785714569
 10
-71.5210949707
 20
55.0357139282
 10
-71.9496684723
 20
55.4642874298
 10
-72.8068109436
 20
55.4642874298
 10
-72.8068109436
 20
56.7499988708
 10
-71.5210949707
 20
56.7499988708
  0
LWPOLYLINE
  5
318
100
AcDbEntity
  8
0
100
AcDbPolyline
 62
7
  6
CONTINUOUS
 90
8
 70
0
 43
0.3500000006
 10
-73.8483140259
 20
63.7500010071
 10
-72.9911715546
 20
63.7500010071
 10
-72.5626025848
 20
64.1785699768
 10
-72.5626025848
 20
65.03571698
 10
-72.9911715546
 20
65.4642859497
 10
-73.8483140259
 20
65.4642859497
 10
-73.8483140259
 20
66.7500019226
 10
-72.5626025848
 20
66.7500019226
  0
LWPOLYLINE
  5
319
100
AcDbEntity
  8
0
100
AcDbPolyline
 62
7
  6
CONTINUOUS
 90
8
 70
0
 43
0.3500000006
 10
-71.7054555817
 20
63.7500010071
 10
-70.8483131104
 20
63.7500010071
 10
-70.4197441406
 20
64.1785699768
 10
-70.4197441406
 20
65.03571698
 10
-70.8483131104
 20
65.4642859497
 10
-71.7054555817
 20
65.4642859497
 10
-71.7054555817
 20
66.7500019226
 10
-70.4197441406
 20
66.7500019226
  0
LINE
  5
31A
100
AcDbEntity
  8
0
100
AcDbLine
 62
250
  6
CONTINUOUS
 10
-88.4985742787
 20
43.3507719931
 11
-85.5985742787
 21
43.3001523048
  0
LINE
  5
31B
100
AcDbEntity
  8
ASSI
100
AcDbLine
 62
250
  6
CONTINUOUS
 10
-88.4985742787
 20
43.3507719931
 11
-85.5985742787
 21
43.3001523048
  0
LINE
  5
31C
100
AcDbEntity
  8
0
100
AcDbLine
 62
7
  6
CONTINUOUS
 10
-88.4985742787
 20
44.3506196883
 11
-85.5985742787
 21
44.3
  0
LINE
  5
31D
100
AcDbEntity
  8
ASSI
100
AcDbLine
 62
7
  6
CONTINUOUS
 10
-88.4985742787
 20
44.3506196883
 11
-85.5985742787
 21
44.3
  0
LINE
  5
31E
100
AcDbEntity
  8
0
100
AcDbLine
 62
250
  6
CONTINUOUS
 10
-85.5977767199
 20
43.3354659698
 11
-84.0985742787
 21
43.0384032275
  0
LINE
  5
31F
100
AcDbEntity
  8
ASSI
100
AcDbLine
 62
250
  6
CONTINUOUS
 10
-85.5977767199
 20
43.3354659698
 11
-84.0985742787
 21
43.0384032275
  0
ARC
  5
320
100
AcDbEntity
  8
RACCORDO
100
AcDbCircle
 62
7
  6
CONTINUOUS
 10
32.5499999999
 20
21.55
 40
1.2
100
AcDbArc
 50
0.0
 51
90.0
  0
ARC
  5
321
100
AcDbEntity
  8
RACCORDO
100
AcDbCircle
 62
7
  6
CONTINUOUS
 10
-33.0500000001
 20
21.55
 40
1.2
100
AcDbArc
 50
90.0
 51
180.0
  0
ARC
  5
322
100
AcDbEntity
  8
RACCORDO
100
AcDbCircle
 62
7
  6
CONTINUOUS
 10
-33.0500000001
 20
-21.55
 40
1.2
100
AcDbArc
 50
180.0
 51
270.0
  0
ARC
  5
323
100
AcDbEntity
  8
RACCORDO
100
AcDbCircle
 62
7
  6
CONTINUOUS
 10
32.5499999999
 20
-21.55
 40
1.2
100
AcDbArc
 50
270.0
 51
360.0
  0
ARC
  5
324
100
AcDbEntity
  8
SMUSSO
100
AcDbCircle
 62
7
  6
CONTINUOUS
 10
59.7499999999
 20
-44.0
 40
1.0
100
AcDbArc
 50
270.0
 51
360.0
  0
ARC
  5
325
100
AcDbEntity
  8
SMUSSO
100
AcDbCircle
 62
7
  6
CONTINUOUS
 10
59.7499999999
 20
44.0
 40
1.0
100
AcDbArc
 50
0.0
 51
90.0
  0
ARC
  5
326
100
AcDbEntity
  8
SMUSSO
100
AcDbCircle
 62
7
  6
CONTINUOUS
 10
-60.2500000001
 20
44.0
 40
1.0
100
AcDbArc
 50
90.0
 51
180.0
  0
ARC
  5
327
100
AcDbEntity
  8
SMUSSO
100
AcDbCircle
 62
7
  6
CONTINUOUS
 10
-60.2500000001
 20
-44.0
 40
1.0
100
AcDbArc
 50
180.0
 51
270.0
  0
ARC
  5
328
100
AcDbEntity
  8
0
100
AcDbCircle
 62
7
  6
CONTINUOUS
 10
-83.1484498998
 20
26.2
 40
1.0
100
AcDbArc
 50
270.0
 51
275.7105931375
  0
ARC
  5
329
100
AcDbEntity
  8
0
100
AcDbCircle
 62
7
  6
CONTINUOUS
 10
-83.1484498998
 20
-26.2
 40
1.0
100
AcDbArc
 50
84.2894068625
 51
90.0
  0
ARC
  5
32A
100
AcDbEntity
  8
ASSI
100
AcDbCircle
 62
7
  6
CONTINUOUS
 10
-83.1484498998
 20
26.2
 40
1.0
100
AcDbArc
 50
270.0
 51
275.7105931375
  0
ARC
  5
32B
100
AcDbEntity
  8
ASSI
100
AcDbCircle
 62
7
  6
CONTINUOUS
 10
-83.1484498998
 20
-26.2
 40
1.0
100
AcDbArc
 50
84.2894068625
 51
90.0
  0
ARC
  5
32C
100
AcDbEntity
  8
0
100
AcDbCircle
 62
7
  6
CONTINUOUS
 10
-83.173260907
 20
26.8499994712
 40
0.3
100
AcDbArc
 50
62.0510415412
 51
89.8999989552
  0
ARC
  5
32D
100
AcDbEntity
  8
0
100
AcDbCircle
 62
7
  6
CONTINUOUS
 10
-83.173260907
 20
-26.8499994712
 40
0.3
100
AcDbArc
 50
270.1000010448
 51
297.9489584588
  0
ARC
  5
32E
100
AcDbEntity
  8
0
100
AcDbCircle
 62
7
  6
CONTINUOUS
 10
-81.6502703659
 20
-26.0415689373
 40
0.3
100
AcDbArc
 50
270.3333333333
 51
297.9601595788
  0
ARC
  5
32F
100
AcDbEntity
  8
0
100
AcDbCircle
 62
7
  6
CONTINUOUS
 10
-81.6502703659
 20
26.0415689373
 40
0.3
100
AcDbArc
 50
62.0398404207
 51
89.6666666667
  0
ARC
  5
330
100
AcDbEntity
  8
ASSI
100
AcDbCircle
 62
7
  6
CONTINUOUS
 10
-83.173260907
 20
26.8499994712
 40
0.3
100
AcDbArc
 50
62.0510415412
 51
89.8999989556
  0
ARC
  5
331
100
AcDbEntity
  8
ASSI
100
AcDbCircle
 62
7
  6
CONTINUOUS
 10
-83.173260907
 20
-26.8499994712
 40
0.3
100
AcDbArc
 50
270.1000010444
 51
297.9489584588
  0
ARC
  5
332
100
AcDbEntity
  8
ASSI
100
AcDbCircle
 62
7
  6
CONTINUOUS
 10
-81.6502703659
 20
-26.0415689373
 40
0.3
100
AcDbArc
 50
270.3333333333
 51
297.9601595788
  0
ARC
  5
333
100
AcDbEntity
  8
ASSI
100
AcDbCircle
 62
7
  6
CONTINUOUS
 10
-81.6502703659
 20
26.0415689373
 40
0.3
100
AcDbArc
 50
62.0398404207
 51
89.6666666667
  0
SPLINE
  5
334
100
AcDbEntity
  8
0
100
AcDbSpline
 62
250
  6
CONTINUOUS
 70
0
 71
3
 72
17
 73
13
 74
0
 42
0.0000001
 43
0.0000001
 44
0.0000000001
 40
0.0
 40
0.0
 40
0.0
 40
0.0
 40
0.0041509426
 40
0.0165131528
 40
0.0370394731
 40
0.0656738303
 40
0.147033967
 40
0.259883893
 40
0.4031301725
 40
0.5755840394
 40
0.7753335906
 40
1.0
 40
1.0
 40
1.0
 40
1.0
 10
-81.6485250465
 20
-26.3415638603
 30
0.0
 10
-81.648403469
 20
-26.341563153
 30
0.0
 10
-81.6486205894
 20
-26.3407901078
 30
0.0
 10
-81.648366847
 20
-26.3399838662
 30
0.0
 10
-81.6484740693
 20
-26.3380251079
 30
0.0
 10
-81.6483669464
 20
-26.3342971317
 30
0.0
 10
-81.6484050123
 20
-26.3277000543
 30
0.0
 10
-81.6483705732
 20
-26.3178494928
 30
0.0
 10
-81.6483919451
 20
-26.3052846155
 30
0.0
 10
-81.648416415
 20
-26.2901918491
 30
0.0
 10
-81.6484633679
 20
-26.2727082659
 30
0.0
 10
-81.6485026211
 20
-26.2602777389
 30
0.0
 10
-81.6485250465
 20
-26.2536973817
 30
0.0
  0
SPLINE
  5
335
100
AcDbEntity
  8
0
100
AcDbSpline
 62
250
  6
CONTINUOUS
 70
0
 71
3
 72
17
 73
13
 74
0
 42
0.0000001
 43
0.0000001
 44
0.0000000001
 40
0.0
 40
0.0
 40
0.0
 40
0.0
 40
0.2246664094
 40
0.4244159606
 40
0.5968698275
 40
0.740116107
 40
0.852966033
 40
0.9343261697
 40
0.9629605269
 40
0.9834868471
 40
0.9958490574
 40
1.0
 40
1.0
 40
1.0
 40
1.0
 10
-81.6485250465
 20
26.2536973817
 30
0.0
 10
-81.648502621
 20
26.2602777389
 30
0.0
 10
-81.6484633678
 20
26.2727082659
 30
0.0
 10
-81.6484164149
 20
26.2901918491
 30
0.0
 10
-81.6483919451
 20
26.3052846155
 30
0.0
 10
-81.6483705732
 20
26.3178494928
 30
0.0
 10
-81.6484050123
 20
26.3277000543
 30
0.0
 10
-81.6483669464
 20
26.3342971317
 30
0.0
 10
-81.6484740693
 20
26.3380251079
 30
0.0
 10
-81.648366847
 20
26.3399838662
 30
0.0
 10
-81.6486205894
 20
26.3407901078
 30
0.0
 10
-81.648403469
 20
26.341563153
 30
0.0
 10
-81.6485250465
 20
26.3415638603
 30
0.0
  0
SPLINE
  5
336
100
AcDbEntity
  8
0
100
AcDbSpline
 62
250
  6
CONTINUOUS
 70
0
 71
3
 72
9
 73
5
 74
0
 42
0.0000001
 43
0.0000001
 44
0.0000000001
 40
0.0
 40
0.0
 40
0.0
 40
0.0
 40
0.4669075258
 40
1.0
 40
1.0
 40
1.0
 40
1.0
 10
-81.5096131175
 20
26.3065510847
 30
0.0
 10
-81.516619882
 20
26.3102704003
 30
0.0
 10
-81.5336575293
 20
26.3146638405
 30
0.0
 10
-81.5508085214
 20
26.3122032377
 30
0.0
 10
-81.5595584146
 20
26.309863965
 30
0.0
  0
SPLINE
  5
337
100
AcDbEntity
  8
0
100
AcDbSpline
 62
250
  6
CONTINUOUS
 70
0
 71
3
 72
9
 73
5
 74
0
 42
0.0000001
 43
0.0000001
 44
0.0000000001
 40
0.0
 40
0.0
 40
0.0
 40
0.0
 40
0.2246249652
 40
1.0
 40
1.0
 40
1.0
 40
1.0
 10
-81.5595584146
 20
26.309863965
 30
0.0
 10
-81.5635243318
 20
26.3088036822
 30
0.0
 10
-81.5809125538
 20
26.3030771544
 30
0.0
 10
-81.5970314357
 20
26.293967565
 30
0.0
 10
-81.6087648063
 20
26.286021863
 30
0.0
  0
SPLINE
  5
338
100
AcDbEntity
  8
0
100
AcDbSpline
 62
250
  6
CONTINUOUS
 70
0
 71
3
 72
9
 73
5
 74
0
 42
0.0000001
 43
0.0000001
 44
0.0000000001
 40
0.0
 40
0.0
 40
0.0
 40
0.0
 40
0.2353089167
 40
1.0
 40
1.0
 40
1.0
 40
1.0
 10
-81.6087648063
 20
26.286021863
 30
0.0
 10
-81.6120948625
 20
26.2837667877
 30
0.0
 10
-81.6260110316
 20
26.2738360857
 30
0.0
 10
-81.6390268865
 20
26.2626752144
 30
0.0
 10
-81.6485250465
 20
26.2536973817
 30
0.0
  0
SPLINE
  5
339
100
AcDbEntity
  8
0
100
AcDbSpline
 62
250
  6
CONTINUOUS
 70
0
 71
3
 72
9
 73
5
 74
0
 42
0.0000001
 43
0.0000001
 44
0.0000000001
 40
0.0
 40
0.0
 40
0.0
 40
0.0
 40
0.4668799879
 40
1.0
 40
1.0
 40
1.0
 40
1.0
 10
-81.5096131175
 20
-26.3065510847
 30
0.0
 10
-81.5166230336
 20
-26.3102720732
 30
0.0
 10
-81.5336702948
 20
-26.3146660571
 30
0.0
 10
-81.5508295448
 20
-26.3121998209
 30
0.0
 10
-81.5595837822
 20
-26.3098571438
 30
0.0
  0
SPLINE
  5
33A
100
AcDbEntity
  8
0
100
AcDbSpline
 62
250
  6
CONTINUOUS
 70
0
 71
3
 72
9
 73
5
 74
0
 42
0.0000001
 43
0.0000001
 44
0.0000000001
 40
0.0
 40
0.0
 40
0.0
 40
0.0
 40
0.224584937
 40
1.0
 40
1.0
 40
1.0
 40
1.0
 10
-81.5595837822
 20
-26.3098571438
 30
0.0
 10
-81.5635581105
 20
-26.308793594
 30
0.0
 10
-81.5809856066
 20
-26.3030476432
 30
0.0
 10
-81.5971375078
 20
-26.2939064819
 30
0.0
 10
-81.6088942056
 20
-26.285934192
 30
0.0
  0
SPLINE
  5
33B
100
AcDbEntity
  8
0
100
AcDbSpline
 62
250
  6
CONTINUOUS
 70
0
 71
3
 72
9
 73
5
 74
0
 42
0.0000001
 43
0.0000001
 44
0.0000000001
 40
0.0
 40
0.0
 40
0.0
 40
0.0
 40
0.2353653196
 40
1.0
 40
1.0
 40
1.0
 40
1.0
 10
-81.6088942056
 20
-26.285934192
 30
0.0
 10
-81.6122135073
 20
-26.2836833529
 30
0.0
 10
-81.6260821816
 20
-26.2737757566
 30
0.0
 10
-81.6390564931
 20
-26.2626472297
 30
0.0
 10
-81.6485250465
 20
-26.2536973817
 30
0.0
  0
SPLINE
  5
33C
100
AcDbEntity
  8
0
100
AcDbSpline
 62
250
  6
CONTINUOUS
 70
0
 71
3
 72
9
 73
5
 74
0
 42
0.0000001
 43
0.0000001
 44
0.0000000001
 40
0.0
 40
0.0
 40
0.0
 40
0.0
 40
0.5597674652
 40
1.0
 40
1.0
 40
1.0
 40
1.0
 10
-83.172801695
 20
26.9276792439
 30
0.0
 10
-83.1565281582
 20
26.9562793392
 30
0.0
 10
-83.1262906446
 20
27.0066983323
 30
0.0
 10
-83.0933898081
 20
27.0555254921
 30
0.0
 10
-83.0775365781
 20
27.0759802501
 30
0.0
  0
SPLINE
  5
33D
100
AcDbEntity
  8
0
100
AcDbSpline
 62
250
  6
CONTINUOUS
 70
0
 71
3
 72
10
 73
6
 74
0
 42
0.0000001
 43
0.0000001
 44
0.0000000001
 40
0.0
 40
0.0
 40
0.0
 40
0.0
 40
0.6949101874
 40
0.8907704955
 40
1.0
 40
1.0
 40
1.0
 40
1.0
 10
-83.0775365781
 20
27.0759802501
 30
0.0
 10
-83.0688526052
 20
27.0871848162
 30
0.0
 10
-83.0569087754
 20
27.1013984189
 30
0.0
 10
-83.0416091897
 20
27.114261842
 30
0.0
 10
-83.0346342761
 20
27.1160640935
 30
0.0
 10
-83.032668045
 20
27.1150157961
 30
0.0
  0
SPLINE
  5
33E
100
AcDbEntity
  8
0
100
AcDbSpline
 62
250
  6
CONTINUOUS
 70
0
 71
3
 72
9
 73
5
 74
0
 42
0.0000001
 43
0.0000001
 44
0.0000000001
 40
0.0
 40
0.0
 40
0.0
 40
0.0
 40
0.5591441426
 40
1.0
 40
1.0
 40
1.0
 40
1.0
 10
-83.172801695
 20
-26.9276792439
 30
0.0
 10
-83.1566204244
 20
-26.9561298307
 30
0.0
 10
-83.1265509583
 20
-27.0063608044
 30
0.0
 10
-83.0937992547
 20
-27.0549860392
 30
0.0
 10
-83.0780204239
 20
-27.0754061939
 30
0.0
  0
SPLINE
  5
33F
100
AcDbEntity
  8
0
100
AcDbSpline
 62
250
  6
CONTINUOUS
 70
0
 71
3
 72
10
 73
6
 74
0
 42
0.0000001
 43
0.0000001
 44
0.0000000001
 40
0.0
 40
0.0
 40
0.0
 40
0.0
 40
0.695043648
 40
0.890922753
 40
1.0
 40
1.0
 40
1.0
 40
1.0
 10
-83.0780204239
 20
-27.0754061939
 30
0.0
 10
-83.0692434904
 20
-27.0867648516
 30
0.0
 10
-83.0571894703
 20
-27.1011923506
 30
0.0
 10
-83.041709399
 20
-27.1142291054
 30
0.0
 10
-83.0346599597
 20
-27.1160680039
 30
0.0
 10
-83.032668045
 20
-27.1150157961
 30
0.0
  0
SPLINE
  5
340
100
AcDbEntity
  8
0
100
AcDbSpline
 62
7
  6
CONTINUOUS
 70
0
 71
3
 72
9
 73
5
 74
0
 42
0.0000001
 43
0.0000001
 44
0.0000000001
 40
0.0
 40
0.0
 40
0.0
 40
0.0
 40
0.570136028
 40
1.0
 40
1.0
 40
1.0
 40
1.0
 10
-81.1264331938
 20
-25.9765617175
 30
0.0
 10
-81.1190837828
 20
-25.9889263852
 30
0.0
 10
-81.1064836998
 20
-26.0106368775
 30
0.0
 10
-81.0985742787
 20
-26.0354717422
 30
0.0
 10
-81.0985742787
 20
-26.0463167932
 30
0.0
  0
SPLINE
  5
341
100
AcDbEntity
  8
0
100
AcDbSpline
 62
7
  6
CONTINUOUS
 70
0
 71
3
 72
19
 73
15
 74
0
 42
0.0000001
 43
0.0000001
 44
0.0000000001
 40
0.0
 40
0.0
 40
0.0
 40
0.0
 40
0.1921796393
 40
0.3763677526
 40
0.546037227
 40
0.6953100726
 40
0.7606312182
 40
0.8189574771
 40
0.8698008769
 40
0.9127175953
 40
0.9473603179
 40
0.9734756973
 40
0.9909322945
 40
1.0
 40
1.0
 40
1.0
 40
1.0
 10
-85.5977767199
 20
43.3354659698
 30
0.0
 10
-85.5949823847
 20
43.3972845873
 30
0.0
 10
-85.5899103173
 20
43.5183698274
 30
0.0
 10
-85.5840026466
 20
43.6940969545
 30
0.0
 10
-85.5802387701
 20
43.8560637003
 30
0.0
 10
-85.5789988042
 20
43.9797971971
 30
0.0
 10
-85.5793882615
 20
44.0676762539
 30
0.0
 10
-85.5802858166
 20
44.1238609159
 30
0.0
 10
-85.5817799372
 20
44.1727988006
 30
0.0
 10
-85.5838177262
 20
44.2141356543
 30
0.0
 10
-85.5864085896
 20
44.2473219526
 30
0.0
 10
-85.589304545
 20
44.2725979879
 30
0.0
 10
-85.5927273316
 20
44.2887313827
 30
0.0
 10
-85.595496742
 20
44.2975379706
 30
0.0
 10
-85.5977767199
 20
44.2993619529
 30
0.0
  0
SPLINE
  5
342
100
AcDbEntity
  8
0
100
AcDbSpline
 62
7
  6
CONTINUOUS
 70
0
 71
3
 72
19
 73
15
 74
0
 42
0.0000001
 43
0.0000001
 44
0.0000000001
 40
0.0
 40
0.0
 40
0.0
 40
0.0
 40
0.0090677233
 40
0.0265243552
 40
0.0526397743
 40
0.0872825456
 40
0.1301992449
 40
0.1810426061
 40
0.2393688239
 40
0.3046899335
 40
0.4539626353
 40
0.6236319372
 40
0.8078201905
 40
1.0
 40
1.0
 40
1.0
 40
1.0
 10
-85.5977767199
 20
-44.2993619529
 30
0.0
 10
-85.5954967375
 20
-44.297537967
 30
0.0
 10
-85.5927273341
 20
-44.2887313551
 30
0.0
 10
-85.5893045378
 20
-44.2725979358
 30
0.0
 10
-85.5864085787
 20
-44.247321859
 30
0.0
 10
-85.5838177223
 20
-44.2141355385
 30
0.0
 10
-85.581779929
 20
-44.1727986879
 30
0.0
 10
-85.5802858141
 20
-44.1238608349
 30
0.0
 10
-85.5793882615
 20
-44.0676762103
 30
0.0
 10
-85.5789988051
 20
-43.9797972248
 30
0.0
 10
-85.580238766
 20
-43.8560638416
 30
0.0
 10
-85.5840026424
 20
-43.6940971529
 30
0.0
 10
-85.589910312
 20
-43.5183699817
 30
0.0
 10
-85.5949823822
 20
-43.397284642
 30
0.0
 10
-85.5977767199
 20
-43.3354659698
 30
0.0
  0
SPLINE
  5
343
100
AcDbEntity
  8
0
100
AcDbSpline
 62
7
  6
CONTINUOUS
 70
0
 71
3
 72
9
 73
5
 74
0
 42
0.0000001
 43
0.0000001
 44
0.0000000001
 40
0.0
 40
0.0
 40
0.0
 40
0.0
 40
0.2171221839
 40
1.0
 40
1.0
 40
1.0
 40
1.0
 10
-81.0985742787
 20
26.0463167932
 30
0.0
 10
-81.0985742787
 20
26.0430886892
 30
0.0
 10
-81.1000535689
 20
26.0282099128
 30
0.0
 10
-81.1060858264
 20
26.0142392822
 30
0.0
 10
-81.1112838421
 20
26.0038248474
 30
0.0
  0
SPLINE
  5
344
100
AcDbEntity
  8
0
100
AcDbSpline
 62
7
  6
CONTINUOUS
 70
0
 71
3
 72
9
 73
5
 74
0
 42
0.0000001
 43
0.0000001
 44
0.0000000001
 40
0.0
 40
0.0
 40
0.0
 40
0.0
 40
0.2349004574
 40
1.0
 40
1.0
 40
1.0
 40
1.0
 10
-81.1112838421
 20
26.0038248474
 30
0.0
 10
-81.1123746111
 20
26.0016394475
 30
0.0
 10
-81.1171580637
 20
25.9924055579
 30
0.0
 10
-81.1223683853
 20
25.9834003617
 30
0.0
 10
-81.1264331938
 20
25.9765617175
 30
0.0
  0
SPLINE
  5
345
100
AcDbEntity
  8
ASSI
100
AcDbSpline
 62
250
  6
CONTINUOUS
 70
0
 71
3
 72
17
 73
13
 74
0
 42
0.0000001
 43
0.0000001
 44
0.0000000001
 40
0.0
 40
0.0
 40
0.0
 40
0.0
 40
0.0041509426
 40
0.0165131528
 40
0.0370394731
 40
0.0656738303
 40
0.147033967
 40
0.259883893
 40
0.4031301725
 40
0.5755840394
 40
0.7753335906
 40
1.0
 40
1.0
 40
1.0
 40
1.0
 10
-81.6485250465
 20
-26.3415638603
 30
0.0
 10
-81.648403469
 20
-26.341563153
 30
0.0
 10
-81.6486205894
 20
-26.3407901078
 30
0.0
 10
-81.648366847
 20
-26.3399838662
 30
0.0
 10
-81.6484740693
 20
-26.3380251079
 30
0.0
 10
-81.6483669464
 20
-26.3342971317
 30
0.0
 10
-81.6484050123
 20
-26.3277000543
 30
0.0
 10
-81.6483705732
 20
-26.3178494928
 30
0.0
 10
-81.6483919451
 20
-26.3052846155
 30
0.0
 10
-81.648416415
 20
-26.2901918491
 30
0.0
 10
-81.6484633679
 20
-26.2727082659
 30
0.0
 10
-81.6485026211
 20
-26.2602777389
 30
0.0
 10
-81.6485250465
 20
-26.2536973817
 30
0.0
  0
SPLINE
  5
346
100
AcDbEntity
  8
ASSI
100
AcDbSpline
 62
250
  6
CONTINUOUS
 70
0
 71
3
 72
17
 73
13
 74
0
 42
0.0000001
 43
0.0000001
 44
0.0000000001
 40
0.0
 40
0.0
 40
0.0
 40
0.0
 40
0.2246664094
 40
0.4244159606
 40
0.5968698275
 40
0.740116107
 40
0.852966033
 40
0.9343261697
 40
0.9629605269
 40
0.9834868471
 40
0.9958490574
 40
1.0
 40
1.0
 40
1.0
 40
1.0
 10
-81.6485250465
 20
26.2536973817
 30
0.0
 10
-81.648502621
 20
26.2602777389
 30
0.0
 10
-81.6484633678
 20
26.2727082659
 30
0.0
 10
-81.6484164149
 20
26.2901918491
 30
0.0
 10
-81.6483919451
 20
26.3052846155
 30
0.0
 10
-81.6483705732
 20
26.3178494928
 30
0.0
 10
-81.6484050123
 20
26.3277000543
 30
0.0
 10
-81.6483669464
 20
26.3342971317
 30
0.0
 10
-81.6484740693
 20
26.3380251079
 30
0.0
 10
-81.648366847
 20
26.3399838662
 30
0.0
 10
-81.6486205894
 20
26.3407901078
 30
0.0
 10
-81.648403469
 20
26.341563153
 30
0.0
 10
-81.6485250465
 20
26.3415638603
 30
0.0
  0
SPLINE
  5
347
100
AcDbEntity
  8
ASSI
100
AcDbSpline
 62
250
  6
CONTINUOUS
 70
0
 71
3
 72
9
 73
5
 74
0
 42
0.0000001
 43
0.0000001
 44
0.0000000001
 40
0.0
 40
0.0
 40
0.0
 40
0.0
 40
0.4669075321
 40
1.0
 40
1.0
 40
1.0
 40
1.0
 10
-81.5096131175
 20
26.3065510847
 30
0.0
 10
-81.5166198811
 20
26.3102703998
 30
0.0
 10
-81.5336575259
 20
26.3146638399
 30
0.0
 10
-81.5508085158
 20
26.3122032386
 30
0.0
 10
-81.5595584078
 20
26.3098639668
 30
0.0
  0
SPLINE
  5
348
100
AcDbEntity
  8
ASSI
100
AcDbSpline
 62
250
  6
CONTINUOUS
 70
0
 71
3
 72
9
 73
5
 74
0
 42
0.0000001
 43
0.0000001
 44
0.0000000001
 40
0.0
 40
0.0
 40
0.0
 40
0.0
 40
0.2246249608
 40
1.0
 40
1.0
 40
1.0
 40
1.0
 10
-81.5595584078
 20
26.3098639668
 30
0.0
 10
-81.5635243256
 20
26.3088036841
 30
0.0
 10
-81.5809125505
 20
26.3030771563
 30
0.0
 10
-81.5970314349
 20
26.2939675656
 30
0.0
 10
-81.6087648073
 20
26.2860218624
 30
0.0
  0
SPLINE
  5
349
100
AcDbEntity
  8
ASSI
100
AcDbSpline
 62
250
  6
CONTINUOUS
 70
0
 71
3
 72
9
 73
5
 74
0
 42
0.0000001
 43
0.0000001
 44
0.0000000001
 40
0.0
 40
0.0
 40
0.0
 40
0.0
 40
0.2353089172
 40
1.0
 40
1.0
 40
1.0
 40
1.0
 10
-81.6087648073
 20
26.2860218624
 30
0.0
 10
-81.6120948634
 20
26.2837667871
 30
0.0
 10
-81.6260110322
 20
26.2738360852
 30
0.0
 10
-81.6390268867
 20
26.2626752142
 30
0.0
 10
-81.6485250465
 20
26.2536973817
 30
0.0
  0
SPLINE
  5
34A
100
AcDbEntity
  8
ASSI
100
AcDbSpline
 62
250
  6
CONTINUOUS
 70
0
 71
3
 72
9
 73
5
 74
0
 42
0.0000001
 43
0.0000001
 44
0.0000000001
 40
0.0
 40
0.0
 40
0.0
 40
0.0
 40
0.4668799884
 40
1.0
 40
1.0
 40
1.0
 40
1.0
 10
-81.5096131175
 20
-26.3065510847
 30
0.0
 10
-81.5166230335
 20
-26.3102720731
 30
0.0
 10
-81.5336702946
 20
-26.314666057
 30
0.0
 10
-81.5508295443
 20
-26.3121998209
 30
0.0
 10
-81.5595837817
 20
-26.309857144
 30
0.0
  0
SPLINE
  5
34B
100
AcDbEntity
  8
ASSI
100
AcDbSpline
 62
250
  6
CONTINUOUS
 70
0
 71
3
 72
9
 73
5
 74
0
 42
0.0000001
 43
0.0000001
 44
0.0000000001
 40
0.0
 40
0.0
 40
0.0
 40
0.0
 40
0.2245849367
 40
1.0
 40
1.0
 40
1.0
 40
1.0
 10
-81.5595837817
 20
-26.309857144
 30
0.0
 10
-81.56355811
 20
-26.3087935942
 30
0.0
 10
-81.5809856063
 20
-26.3030476433
 30
0.0
 10
-81.5971375077
 20
-26.293906482
 30
0.0
 10
-81.6088942057
 20
-26.285934192
 30
0.0
  0
SPLINE
  5
34C
100
AcDbEntity
  8
ASSI
100
AcDbSpline
 62
250
  6
CONTINUOUS
 70
0
 71
3
 72
9
 73
5
 74
0
 42
0.0000001
 43
0.0000001
 44
0.0000000001
 40
0.0
 40
0.0
 40
0.0
 40
0.0
 40
0.2353653196
 40
1.0
 40
1.0
 40
1.0
 40
1.0
 10
-81.6088942057
 20
-26.285934192
 30
0.0
 10
-81.6122135073
 20
-26.2836833529
 30
0.0
 10
-81.6260821816
 20
-26.2737757566
 30
0.0
 10
-81.6390564931
 20
-26.2626472297
 30
0.0
 10
-81.6485250465
 20
-26.2536973817
 30
0.0
  0
SPLINE
  5
34D
100
AcDbEntity
  8
ASSI
100
AcDbSpline
 62
7
  6
CONTINUOUS
 70
0
 71
3
 72
9
 73
5
 74
0
 42
0.0000001
 43
0.0000001
 44
0.0000000001
 40
0.0
 40
0.0
 40
0.0
 40
0.0
 40
0.570136028
 40
1.0
 40
1.0
 40
1.0
 40
1.0
 10
-81.1264331938
 20
-25.9765617175
 30
0.0
 10
-81.1190837828
 20
-25.9889263852
 30
0.0
 10
-81.1064836998
 20
-26.0106368775
 30
0.0
 10
-81.0985742787
 20
-26.0354717422
 30
0.0
 10
-81.0985742787
 20
-26.0463167932
 30
0.0
  0
SPLINE
  5
34E
100
AcDbEntity
  8
ASSI
100
AcDbSpline
 62
250
  6
CONTINUOUS
 70
0
 71
3
 72
9
 73
5
 74
0
 42
0.0000001
 43
0.0000001
 44
0.0000000001
 40
0.0
 40
0.0
 40
0.0
 40
0.0
 40
0.5597674603
 40
1.0
 40
1.0
 40
1.0
 40
1.0
 10
-83.172801695
 20
26.9276792439
 30
0.0
 10
-83.1565281588
 20
26.9562793381
 30
0.0
 10
-83.1262906461
 20
27.0066983298
 30
0.0
 10
-83.0933898107
 20
27.0555254882
 30
0.0
 10
-83.0775365812
 20
27.0759802461
 30
0.0
  0
SPLINE
  5
34F
100
AcDbEntity
  8
ASSI
100
AcDbSpline
 62
250
  6
CONTINUOUS
 70
0
 71
3
 72
10
 73
6
 74
0
 42
0.0000001
 43
0.0000001
 44
0.0000000001
 40
0.0
 40
0.0
 40
0.0
 40
0.0
 40
0.6949101909
 40
0.8907704986
 40
1.0
 40
1.0
 40
1.0
 40
1.0
 10
-83.0775365812
 20
27.0759802461
 30
0.0
 10
-83.0688526077
 20
27.0871848133
 30
0.0
 10
-83.0569087769
 20
27.1013984173
 30
0.0
 10
-83.0416091903
 20
27.1142618418
 30
0.0
 10
-83.0346342762
 20
27.1160640936
 30
0.0
 10
-83.032668045
 20
27.1150157961
 30
0.0
  0
SPLINE
  5
350
100
AcDbEntity
  8
ASSI
100
AcDbSpline
 62
250
  6
CONTINUOUS
 70
0
 71
3
 72
9
 73
5
 74
0
 42
0.0000001
 43
0.0000001
 44
0.0000000001
 40
0.0
 40
0.0
 40
0.0
 40
0.0
 40
0.5591441552
 40
1.0
 40
1.0
 40
1.0
 40
1.0
 10
-83.172801695
 20
-26.9276792439
 30
0.0
 10
-83.1566204226
 20
-26.9561298339
 30
0.0
 10
-83.1265509537
 20
-27.0063608119
 30
0.0
 10
-83.0937992467
 20
-27.0549860508
 30
0.0
 10
-83.0780204143
 20
-27.0754062062
 30
0.0
  0
SPLINE
  5
351
100
AcDbEntity
  8
ASSI
100
AcDbSpline
 62
250
  6
CONTINUOUS
 70
0
 71
3
 72
10
 73
6
 74
0
 42
0.0000001
 43
0.0000001
 44
0.0000000001
 40
0.0
 40
0.0
 40
0.0
 40
0.0
 40
0.6950436406
 40
0.8909227457
 40
1.0
 40
1.0
 40
1.0
 40
1.0
 10
-83.0780204143
 20
-27.0754062062
 30
0.0
 10
-83.0692434828
 20
-27.0867648607
 30
0.0
 10
-83.0571894654
 20
-27.1011923555
 30
0.0
 10
-83.0417093971
 20
-27.1142291064
 30
0.0
 10
-83.0346599594
 20
-27.1160680037
 30
0.0
 10
-83.032668045
 20
-27.1150157961
 30
0.0
  0
SPLINE
  5
352
100
AcDbEntity
  8
ASSI
100
AcDbSpline
 62
7
  6
CONTINUOUS
 70
0
 71
3
 72
9
 73
5
 74
0
 42
0.0000001
 43
0.0000001
 44
0.0000000001
 40
0.0
 40
0.0
 40
0.0
 40
0.0
 40
0.2171221841
 40
1.0
 40
1.0
 40
1.0
 40
1.0
 10
-81.0985742787
 20
26.0463167932
 30
0.0
 10
-81.0985742787
 20
26.0430886893
 30
0.0
 10
-81.1000535689
 20
26.0282099129
 30
0.0
 10
-81.1060858263
 20
26.0142392823
 30
0.0
 10
-81.111283842
 20
26.0038248477
 30
0.0
  0
SPLINE
  5
353
100
AcDbEntity
  8
ASSI
100
AcDbSpline
 62
7
  6
CONTINUOUS
 70
0
 71
3
 72
9
 73
5
 74
0
 42
0.0000001
 43
0.0000001
 44
0.0000000001
 40
0.0
 40
0.0
 40
0.0
 40
0.0
 40
0.2349004573
 40
1.0
 40
1.0
 40
1.0
 40
1.0
 10
-81.111283842
 20
26.0038248477
 30
0.0
 10
-81.112374611
 20
26.0016394478
 30
0.0
 10
-81.1171580636
 20
25.992405558
 30
0.0
 10
-81.1223683852
 20
25.9834003618
 30
0.0
 10
-81.1264331938
 20
25.9765617175
 30
0.0
  0
SPLINE
  5
354
100
AcDbEntity
  8
ASSI
100
AcDbSpline
 62
7
  6
CONTINUOUS
 70
0
 71
3
 72
19
 73
15
 74
0
 42
0.0000001
 43
0.0000001
 44
0.0000000001
 40
0.0
 40
0.0
 40
0.0
 40
0.0
 40
0.1921796393
 40
0.3763677526
 40
0.546037227
 40
0.6953100726
 40
0.7606312182
 40
0.8189574771
 40
0.8698008769
 40
0.9127175953
 40
0.9473603179
 40
0.9734756973
 40
0.9909322945
 40
1.0
 40
1.0
 40
1.0
 40
1.0
 10
-85.5977767199
 20
43.3354659698
 30
0.0
 10
-85.5949823847
 20
43.3972845873
 30
0.0
 10
-85.5899103173
 20
43.5183698273
 30
0.0
 10
-85.5840026466
 20
43.6940969545
 30
0.0
 10
-85.5802387701
 20
43.8560637003
 30
0.0
 10
-85.5789988042
 20
43.9797971971
 30
0.0
 10
-85.5793882615
 20
44.0676762539
 30
0.0
 10
-85.5802858166
 20
44.1238609159
 30
0.0
 10
-85.5817799372
 20
44.1727988006
 30
0.0
 10
-85.5838177262
 20
44.2141356543
 30
0.0
 10
-85.5864085896
 20
44.2473219526
 30
0.0
 10
-85.589304545
 20
44.272597988
 30
0.0
 10
-85.5927273316
 20
44.2887313827
 30
0.0
 10
-85.595496742
 20
44.2975379706
 30
0.0
 10
-85.5977767199
 20
44.2993619529
 30
0.0
  0
SPLINE
  5
355
100
AcDbEntity
  8
ASSI
100
AcDbSpline
 62
7
  6
CONTINUOUS
 70
0
 71
3
 72
19
 73
15
 74
0
 42
0.0000001
 43
0.0000001
 44
0.0000000001
 40
0.0
 40
0.0
 40
0.0
 40
0.0
 40
0.0090677233
 40
0.0265243552
 40
0.0526397743
 40
0.0872825456
 40
0.1301992449
 40
0.1810426061
 40
0.2393688239
 40
0.3046899335
 40
0.4539626353
 40
0.6236319372
 40
0.8078201905
 40
1.0
 40
1.0
 40
1.0
 40
1.0
 10
-85.5977767199
 20
-44.2993619529
 30
0.0
 10
-85.5954967375
 20
-44.297537967
 30
0.0
 10
-85.5927273341
 20
-44.2887313551
 30
0.0
 10
-85.5893045378
 20
-44.2725979358
 30
0.0
 10
-85.5864085787
 20
-44.247321859
 30
0.0
 10
-85.5838177223
 20
-44.2141355385
 30
0.0
 10
-85.581779929
 20
-44.1727986879
 30
0.0
 10
-85.5802858141
 20
-44.1238608349
 30
0.0
 10
-85.5793882615
 20
-44.0676762103
 30
0.0
 10
-85.5789988051
 20
-43.9797972248
 30
0.0
 10
-85.580238766
 20
-43.8560638416
 30
0.0
 10
-85.5840026424
 20
-43.6940971529
 30
0.0
 10
-85.589910312
 20
-43.5183699817
 30
0.0
 10
-85.5949823822
 20
-43.397284642
 30
0.0
 10
-85.5977767199
 20
-43.3354659698
 30
0.0
  0
SPLINE
  5
356
100
AcDbEntity
  8
0
100
AcDbSpline
 62
250
  6
CONTINUOUS
 70
0
 71
3
 72
10
 73
6
 74
0
 42
0.0000001
 43
0.0000001
 44
0.0000000001
 40
0.0
 40
0.0
 40
0.0
 40
0.0
 40
0.3333333333
 40
0.6666666667
 40
1.0
 40
1.0
 40
1.0
 40
1.0
 10
-86.5942474989
 20
-30.6349473604
 30
0.0
 10
-86.5352194765
 20
-30.6188656796
 30
0.0
 10
-86.4183008632
 20
-30.5878597758
 30
0.0
 10
-86.246846329
 20
-30.5433004307
 30
0.0
 10
-86.1351139743
 20
-30.5143333764
 30
0.0
 10
-86.0800805327
 20
-30.4993864496
 30
0.0
  0
SPLINE
  5
357
100
AcDbEntity
  8
0
100
AcDbSpline
 62
250
  6
CONTINUOUS
 70
0
 71
3
 72
16
 73
12
 74
0
 42
0.0000001
 43
0.0000001
 44
0.0000000001
 40
0.0
 40
0.0
 40
0.0
 40
0.0
 40
0.1111111111
 40
0.2222222222
 40
0.3333333333
 40
0.4444444444
 40
0.5555555556
 40
0.6666666667
 40
0.7777777778
 40
0.8888888889
 40
1.0
 40
1.0
 40
1.0
 40
1.0
 10
-86.9669116545
 20
-30.8635473914
 30
0.0
 10
-86.9609112543
 20
-30.8484993657
 30
0.0
 10
-86.9457475776
 20
-30.8203425236
 30
0.0
 10
-86.914115859
 20
-30.7825945712
 30
0.0
 10
-86.87733911
 20
-30.7510786822
 30
0.0
 10
-86.8369659422
 20
-30.7244248151
 30
0.0
 10
-86.7952402736
 20
-30.7023277412
 30
0.0
 10
-86.751183219
 20
-30.6830969154
 30
0.0
 10
-86.7040039003
 20
-30.6659690903
 30
0.0
 10
-86.6524869453
 20
-30.6505188991
 30
0.0
 10
-86.6141770873
 20
-30.6403770068
 30
0.0
 10
-86.5942474989
 20
-30.6349473606
 30
0.0
  0
SPLINE
  5
358
100
AcDbEntity
  8
0
100
AcDbSpline
 62
250
  6
CONTINUOUS
 70
0
 71
3
 72
32
 73
28
 74
0
 42
0.0000001
 43
0.0000001
 44
0.0000000001
 40
0.0
 40
0.0
 40
0.0
 40
0.0
 40
0.0555555556
 40
0.1111111111
 40
0.1388888889
 40
0.1666666667
 40
0.1944444444
 40
0.2222222222
 40
0.25
 40
0.2777777778
 40
0.3333333333
 40
0.3888888889
 40
0.4444444444
 40
0.5
 40
0.5555555556
 40
0.6111111111
 40
0.6666666667
 40
0.7222222222
 40
0.7777777778
 40
0.8055555556
 40
0.8333333333
 40
0.8611111111
 40
0.8888888889
 40
0.9166666667
 40
0.9444444444
 40
0.9722222222
 40
1.0
 40
1.0
 40
1.0
 40
1.0
 10
-87.9377273134
 20
-30.9044355375
 30
0.0
 10
-87.9279470111
 20
-30.8773247779
 30
0.0
 10
-87.9000681603
 20
-30.8240490197
 30
0.0
 10
-87.8434714805
 20
-30.754100863
 30
0.0
 10
-87.7885621809
 20
-30.7058047132
 30
0.0
 10
-87.7431308153
 20
-30.6739002494
 30
0.0
 10
-87.6944097485
 20
-30.6470755408
 30
0.0
 10
-87.6439576165
 20
-30.6261836127
 30
0.0
 10
-87.594941749
 20
-30.6115415487
 30
0.0
 10
-87.5307160632
 20
-30.5986617626
 30
0.0
 10
-87.4564024614
 20
-30.5929744031
 30
0.0
 10
-87.3769344975
 20
-30.5969128401
 30
0.0
 10
-87.3063819342
 20
-30.609553884
 30
0.0
 10
-87.2449852137
 20
-30.6284730864
 30
0.0
 10
-87.1917587576
 20
-30.6516764555
 30
0.0
 10
-87.1460899842
 20
-30.6775881851
 30
0.0
 10
-87.1074388837
 20
-30.7050560438
 30
0.0
 10
-87.0751035483
 20
-30.7334592526
 30
0.0
 10
-87.0524367314
 20
-30.7567274859
 30
0.0
 10
-87.0361816434
 20
-30.7747079551
 30
0.0
 10
-87.0247740888
 20
-30.787854053
 30
0.0
 10
-87.0141504312
 20
-30.800520618
 30
0.0
 10
-87.0040284995
 20
-30.8127634199
 30
0.0
 10
-86.9944429939
 20
-30.8252577393
 30
0.0
 10
-86.9865151912
 20
-30.8378294656
 30
0.0
 10
-86.9808011986
 20
-30.8504975624
 30
0.0
 10
-86.9787015698
 20
-30.8591803942
 30
0.0
 10
-86.9781380863
 20
-30.8635473914
 30
0.0
  0
SPLINE
  5
359
100
AcDbEntity
  8
0
100
AcDbSpline
 62
250
  6
CONTINUOUS
 70
0
 71
3
 72
15
 73
11
 74
0
 42
0.0000001
 43
0.0000001
 44
0.0000000001
 40
0.0
 40
0.0
 40
0.0
 40
0.0
 40
0.125
 40
0.25
 40
0.375
 40
0.5
 40
0.625
 40
0.75
 40
0.875
 40
1.0
 40
1.0
 40
1.0
 40
1.0
 10
-87.9577297375
 20
-31.8831153973
 30
0.0
 10
-87.9649671515
 20
-31.8339204526
 30
0.0
 10
-87.9783563083
 20
-31.7389883992
 30
0.0
 10
-87.9934268866
 20
-31.6081590393
 30
0.0
 10
-88.0031419676
 20
-31.4844779825
 30
0.0
 10
-88.0069281727
 20
-31.3655791421
 30
0.0
 10
-88.0039215265
 20
-31.2482548755
 30
0.0
 10
-87.9927944049
 20
-31.1318743671
 30
0.0
 10
-87.9720418248
 20
-31.0168271191
 30
0.0
 10
-87.9510927027
 20
-30.9414303765
 30
0.0
 10
-87.9377273134
 20
-30.9044355375
 30
0.0
  0
SPLINE
  5
35A
100
AcDbEntity
  8
0
100
AcDbSpline
 62
250
  6
CONTINUOUS
 70
0
 71
3
 72
12
 73
8
 74
0
 42
0.0000001
 43
0.0000001
 44
0.0000000001
 40
0.0
 40
0.0
 40
0.0
 40
0.0
 40
0.3333333333
 40
0.5
 40
0.6666666667
 40
0.8333333333
 40
1.0
 40
1.0
 40
1.0
 40
1.0
 10
-87.6674535622
 20
-31.1906198897
 30
0.0
 10
-87.6714077363
 20
-31.2246892767
 30
0.0
 10
-87.6747153917
 20
-31.2760065759
 30
0.0
 10
-87.6739622667
 20
-31.3445750143
 30
0.0
 10
-87.6708141916
 20
-31.396256602
 30
0.0
 10
-87.6648380308
 20
-31.4485731218
 30
0.0
 10
-87.6592829809
 20
-31.4836233708
 30
0.0
 10
-87.656268702
 20
-31.5012884969
 30
0.0
  0
SPLINE
  5
35B
100
AcDbEntity
  8
0
100
AcDbSpline
 62
250
  6
CONTINUOUS
 70
0
 71
3
 72
19
 73
15
 74
0
 42
0.0000001
 43
0.0000001
 44
0.0000000001
 40
0.0
 40
0.0
 40
0.0
 40
0.0
 40
0.1
 40
0.2
 40
0.25
 40
0.3
 40
0.4
 40
0.5
 40
0.6
 40
0.7
 40
0.75
 40
0.8
 40
0.9
 40
1.0
 40
1.0
 40
1.0
 40
1.0
 10
-87.4298549254
 20
-30.9665924606
 30
0.0
 10
-87.4413411886
 20
-30.9667667561
 30
0.0
 10
-87.463600374
 20
-30.9688104285
 30
0.0
 10
-87.4913391965
 20
-30.9752810178
 30
0.0
 10
-87.5130054447
 20
-30.9827568115
 30
0.0
 10
-87.5343466988
 20
-30.9918082983
 30
0.0
 10
-87.559793409
 20
-31.0058768426
 30
0.0
 10
-87.5883442198
 20
-31.0277064515
 30
0.0
 10
-87.6130860529
 20
-31.0542446247
 30
0.0
 10
-87.6300184106
 20
-31.079241453
 30
0.0
 10
-87.641537714
 20
-31.1009209819
 30
0.0
 10
-87.6515436805
 20
-31.1233856822
 30
0.0
 10
-87.6612908369
 20
-31.1530188564
 30
0.0
 10
-87.6659511482
 20
-31.1776750043
 30
0.0
 10
-87.6674535624
 20
-31.1906198896
 30
0.0
  0
SPLINE
  5
35C
100
AcDbEntity
  8
0
100
AcDbSpline
 62
250
  6
CONTINUOUS
 70
0
 71
3
 72
15
 73
11
 74
0
 42
0.0000001
 43
0.0000001
 44
0.0000000001
 40
0.0
 40
0.0
 40
0.0
 40
0.0
 40
0.1666666667
 40
0.3333333333
 40
0.5
 40
0.5833333333
 40
0.6666666667
 40
0.75
 40
0.8333333333
 40
1.0
 40
1.0
 40
1.0
 40
1.0
 10
-87.1347240145
 20
-31.2746513441
 30
0.0
 10
-87.1354258895
 20
-31.2432274748
 30
0.0
 10
-87.1414314766
 20
-31.1849989174
 30
0.0
 10
-87.162805616
 20
-31.1133259321
 30
0.0
 10
-87.1938574826
 20
-31.0621108135
 30
0.0
 10
-87.2303804837
 20
-31.0282471143
 30
0.0
 10
-87.2627354058
 20
-31.0068258912
 30
0.0
 10
-87.2985018527
 20
-30.9898189394
 30
0.0
 10
-87.3516973133
 20
-30.9724766945
 30
0.0
 10
-87.3970748908
 20
-30.9660920116
 30
0.0
 10
-87.4299070742
 20
-30.9665932672
 30
0.0
  0
SPLINE
  5
35D
100
AcDbEntity
  8
0
100
AcDbSpline
 62
250
  6
CONTINUOUS
 70
0
 71
3
 72
16
 73
12
 74
0
 42
0.0000001
 43
0.0000001
 44
0.0000000001
 40
0.0
 40
0.0
 40
0.0
 40
0.0
 40
0.125
 40
0.25
 40
0.3125
 40
0.375
 40
0.5
 40
0.625
 40
0.75
 40
0.875
 40
1.0
 40
1.0
 40
1.0
 40
1.0
 10
-86.6563752656
 20
-31.0543291296
 30
0.0
 10
-86.6691164672
 20
-31.0591210245
 30
0.0
 10
-86.6928290046
 20
-31.0699214029
 30
0.0
 10
-86.7204487926
 20
-31.0869314182
 30
0.0
 10
-86.740671631
 20
-31.1023489658
 30
0.0
 10
-86.7596731352
 20
-31.1190375776
 30
0.0
 10
-86.7805101897
 20
-31.1418325596
 30
0.0
 10
-86.8005861865
 20
-31.1727381889
 30
0.0
 10
-86.8142421104
 20
-31.206388094
 30
0.0
 10
-86.8218840356
 20
-31.2407288293
 30
0.0
 10
-86.8235751952
 20
-31.2635934255
 30
0.0
 10
-86.8235751952
 20
-31.2755061485
 30
0.0
  0
SPLINE
  5
35E
100
AcDbEntity
  8
0
100
AcDbSpline
 62
250
  6
CONTINUOUS
 70
0
 71
3
 72
12
 73
8
 74
0
 42
0.0000001
 43
0.0000001
 44
0.0000000001
 40
0.0
 40
0.0
 40
0.0
 40
0.0
 40
0.1666666667
 40
0.3333333333
 40
0.5
 40
0.6666666667
 40
1.0
 40
1.0
 40
1.0
 40
1.0
 10
-86.0800805327
 20
-30.8808429347
 30
0.0
 10
-86.1149285815
 20
-30.8908618887
 30
0.0
 10
-86.1836374885
 20
-30.9109789446
 30
0.0
 10
-86.2839070752
 20
-30.9405342769
 30
0.0
 10
-86.381754601
 20
-30.9684251093
 30
0.0
 10
-86.5086890044
 20
-31.0042254755
 30
0.0
 10
-86.5990045166
 20
-31.0327691968
 30
0.0
 10
-86.6563354048
 20
-31.0543141626
 30
0.0
  0
ELLIPSE
  5
35F
100
AcDbEntity
  8
0
100
AcDbEllipse
 62
7
  6
CONTINUOUS
 10
-81.2985742787
 20
-26.079798695
 30
0.0
 11
0.1417119467
 21
0.1422961243
 31
0.0
 40
0.9918061237
 41
-0.2491986107
 42
0.7350951877
  0
ELLIPSE
  5
360
100
AcDbEntity
  8
0
100
AcDbEllipse
 62
7
  6
CONTINUOUS
 10
-81.2985742787
 20
26.079798695
 30
0.0
 11
-0.1417119467
 21
0.1422961243
 31
0.0
 40
0.9918061237
 41
-3.8766878413
 42
-2.8923940429
  0
ELLIPSE
  5
361
100
AcDbEntity
  8
0
100
AcDbEllipse
 62
7
  6
CONTINUOUS
 10
-84.3204977323
 20
43.2775387629
 30
0.0
 11
1.2772653435
 21
-0.0582277698
 31
0.0
 40
0.7819142031
 41
-3.1412917057
 42
-3.1059619589
  0
ELLIPSE
  5
362
100
AcDbEntity
  8
0
100
AcDbEllipse
 62
7
  6
CONTINUOUS
 10
-84.3204977323
 20
-43.2775387629
 30
0.0
 11
1.2772653435
 21
0.0582277698
 31
0.0
 40
0.7819142031
 41
3.1059619589
 42
3.1412917057
  0
ELLIPSE
  5
363
100
AcDbEntity
  8
ASSI
100
AcDbEllipse
 62
7
  6
CONTINUOUS
 10
-81.2985742787
 20
-26.079798695
 30
0.0
 11
0.1417119467
 21
0.1422961243
 31
0.0
 40
0.9918061237
 41
-0.2491986107
 42
0.7350951877
  0
ELLIPSE
  5
364
100
AcDbEntity
  8
ASSI
100
AcDbEllipse
 62
7
  6
CONTINUOUS
 10
-81.2985742787
 20
26.079798695
 30
0.0
 11
-0.1417119467
 21
0.1422961243
 31
0.0
 40
0.9918061237
 41
-3.8766878413
 42
-2.8923940429
  0
ELLIPSE
  5
365
100
AcDbEntity
  8
ASSI
100
AcDbEllipse
 62
7
  6
CONTINUOUS
 10
-84.3204977323
 20
43.2775387629
 30
0.0
 11
1.2772653435
 21
-0.0582277698
 31
0.0
 40
0.7819142031
 41
-3.1412917057
 42
-3.1059619589
  0
ELLIPSE
  5
366
100
AcDbEntity
  8
ASSI
100
AcDbEllipse
 62
7
  6
CONTINUOUS
 10
-84.3204977323
 20
-43.2775387629
 30
0.0
 11
1.2772653435
 21
0.0582277698
 31
0.0
 40
0.7819142031
 41
3.1059619589
 42
3.1412917057
  0
ENDSEC
  0
SECTION
  2
OBJECTS
  0
DICTIONARY
  5
C
100
AcDbDictionary
280
0
281
1
  3
ACAD_GROUP
350
D
  3
ACAD_MLINESTYLE
350
17
  3
ACAD_LAYOUT
350
1A
  3
ACAD_PLOTSETTINGS
350
19
  3
ACAD_PLOTSTYLENAME
350
E
  0
DICTIONARY
  5
D
102
{ACAD_REACTORS
330
C
102
}
100
AcDbDictionary
280
0
281
1
  0
ACDBDICTIONARYWDFLT
  5
E
102
{ACAD_REACTORS
330
C
102
}
100
AcDbDictionary
281
1
  3
Normal
350
F
100
AcDbDictionaryWithDefault
340
F
  0
DICTIONARY
  5
17
102
{ACAD_REACTORS
330
C
102
}
100
AcDbDictionary
280
0
281
1
  3
Standard
350
18
  0
DICTIONARY
  5
19
102
{ACAD_REACTORS
330
C
102
}
100
AcDbDictionary
281
1
  0
DICTIONARY
  5
1A
102
{ACAD_REACTORS
330
C
102
}
100
AcDbDictionary
281
1
  3
Model
350
367
  3
Layout1
350
368
  0
ACDBPLACEHOLDER
  5
F
102
{ACAD_REACTORS
330
E
102
}
  0
MLINESTYLE
  5
18
102
{ACAD_REACTORS
330
17
102
}
100
AcDbMlineStyle
  2
STANDARD
 70
0
  3

 62
256
 51
90.0
 52
90.0
 71
2
 49
0.5
 62
256
  6
BYLAYER
 49
-0.5
 62
256
  6
BYLAYER
  0
LAYOUT
  5
367
102
{ACAD_REACTORS
330
1A
102
}
100
AcDbPlotSettings
  1

  2
none_device
  4
ISO_A4_(297.00_x_210.00_MM)
  6

 40
0.0
 41
0.0
 42
0.0
 43
0.0
 44
297.0
 45
210.0
 46
0.0
 47
0.0
 48
0.0
 49
0.0
140
0.0
141
0.0
142
1.0
143
1.0
 70
1024
 72
1
 73
0
 74
0
  7

 75
0
147
1.0
148
0.0
149
0.0
100
AcDbLayout
  1
Model
 70
0
 71
0
 10
0.0
 20
0.0
 11
297.0
 21
210.0
 12
0.0
 22
0.0
 32
0.0
 14
0.0
 24
0.0
 34
0.0
 15
0.0
 25
0.0
 35
0.0
146
0.0
 13
0.0
 23
0.0
 33
0.0
 16
1.0
 26
0.0
 36
0.0
 17
0.0
 27
1.0
 37
0.0
 76
0
330
21C
345
0
346
0
  0
LAYOUT
  5
368
102
{ACAD_REACTORS
330
1A
102
}
100
AcDbPlotSettings
  1

  2
none_device
  4
ISO_A4_(297.00_x_210.00_MM)
  6

 40
0.0
 41
0.0
 42
0.0
 43
0.0
 44
297.0
 45
210.0
 46
0.0
 47
0.0
 48
0.0
 49
0.0
140
0.0
141
0.0
142
1.0
143
1.0
 70
0
 72
1
 73
0
 74
0
  7

 75
0
147
1.0
148
0.0
149
0.0
100
AcDbLayout
  1
Layout1
 70
0
 71
1
 10
0.0
 20
0.0
 11
297.0
 21
210.0
 12
0.0
 22
0.0
 32
0.0
 14
0.0
 24
0.0
 34
0.0
 15
0.0
 25
0.0
 35
0.0
146
0.0
 13
0.0
 23
0.0
 33
0.0
 16
1.0
 26
0.0
 36
0.0
 17
0.0
 27
1.0
 37
0.0
 76
0
330
21D
345
0
346
0
  0
ENDSEC
  0
EOF
