  0
SECTION
  2
HEADER
  9
$ACADVER
  1
AC1024
  9
$DWGCODEPAGE
  3
ANSI_1252
  9
$EXTMAX
 10
297.0
 20
210.0
 30
0.0
  9
$EXTMIN
 10
0.0
 20
0.0
 30
0.0
  9
$LIMMIN
 10
0.0
 20
0.0
  9
$LIMMAX
 10
297.0
 20
210.0
  9
$VIEWCTR
 10
148.5
 20
105.0
  9
$VIEWSIZE
 40
210.0
  9
$CLAYER
  8
0
  9
$LTSCALE
 40
16.335
  9
$CELTYPE
  6
BYLAYER
  9
$DIMSCALE
 40
1.0
  9
$DIMASZ
 40
3.0
  9
$DIMEXO
 40
0.5
  9
$DIMDLI
 40
11.286
  9
$DIMEXE
 40
1.5
  9
$DIMCEN
 40
2.673
  9
$DIMLFAC
 40
1.0
  9
$DIMBLK
  1
_FILLED
  9
$DIMALT
 70
0
  9
$DIMALTF
 40
0.0393700787
  9
$DIMTXT
 40
3.0
  9
$DIMTOL
 70
1
  9
$DIMLIM
 70
0
  9
$DIMTFAC
 40
1.0
  9
$DIMTP
 40
0.01
  9
$DIMTM
 40
0.01
  9
$DIMGAP
 40
0.625
  9
$DIMDSEP
 70
44
  9
$AUNITS
 70
0
  9
$PDMODE
 70
3
  9
$PDSIZE
 40
3.0
  9
$HANDSEED
  5
369
  9
$TILEMODE
 70
1
  9
$MEASUREMENT
 70
1
  9
$INSUNITS
 70
4
  0
ENDSEC
  0
SECTION
  2
CLASSES
  0
CLASS
  1
ACDBDICTIONARYWDFLT
  2
AcDbDictionaryWithDefault
  3
AutoCAD 2000
 90
0
 91
1
280
0
281
0
  0
CLASS
  1
ACDBPLACEHOLDER
  2
AcDbPlaceHolder
  3
AutoCAD 2000
 90
0
 91
1
280
0
281
0
  0
CLASS
  1
LAYOUT
  2
AcDbLayout
  3
AutoCAD 2000
 90
0
 91
0
280
0
281
0
  0
ENDSEC
  0
SECTION
  2
TABLES
  0
TABLE
  2
VPORT
  5
8
100
AcDbSymbolTable
 70
2
  0
VPORT
  5
1F4
100
AcDbSymbolTableRecord
100
AcDbViewportTableRecord
  2
*ACTIVE
 70
0
 10
0.0
 20
0.0
 11
1.0
 21
1.0
 12
148.5
 22
105.0
 13
0.0
 23
0.0
 14
1.0
 24
1.0
 15
0.0
 25
0.0
 16
0.0
 26
0.0
 36
1.0
 17
0.0
 27
0.0
 37
0.0
 40
210.0
 41
1.4142857143
 42
50.0
 43
0.0
 44
0.0
 50
0.0
 51
0.0
 71
0
 72
100
 73
1
 74
1
 75
0
 76
0
 77
0
 78
0
  0
ENDTAB
  0
TABLE
  2
LTYPE
  5
5
100
AcDbSymbolTable
 70
6
  0
LTYPE
  5
14
100
AcDbSymbolTableRecord
100
AcDbLinetypeTableRecord
  2
BYBLOCK
 70
0
  3

 72
65
 73
0
 40
0.0
  0
LTYPE
  5
15
100
AcDbSymbolTableRecord
100
AcDbLinetypeTableRecord
  2
BYLAYER
 70
0
  3

 72
65
 73
0
 40
0.0
  0
LTYPE
  5
16
100
AcDbSymbolTableRecord
100
AcDbLinetypeTableRecord
  2
CONTINUOUS
 70
64
  3
Solid line
 72
65
 73
0
 40
0.0
  0
LTYPE
  5
1F5
100
AcDbSymbolTableRecord
100
AcDbLinetypeTableRecord
  2
CENTER
 70
64
  3
____ _ ____ _ ____ _ ____ _ ____ _ ____ _ ____
 72
65
 73
4
 40
0.6
 49
0.375
 74
0
 49
-0.075
 74
0
 49
0.075
 74
0
 49
-0.075
 74
0
  0
LTYPE
  5
1F6
100
AcDbSymbolTableRecord
100
AcDbLinetypeTableRecord
  2
HIDDEN
 70
64
  3
- - - - - - - - - - - - - - - - - - - -
 72
65
 73
2
 40
0.2
 49
0.1
 74
0
 49
-0.1
 74
0
  0
LTYPE
  5
1F7
100
AcDbSymbolTableRecord
100
AcDbLinetypeTableRecord
  2
PHANTOM
 70
64
  3
_____ _ _ _____ _ _ _____ _ _ _____
 72
65
 73
6
 40
0.8
 49
0.45
 74
0
 49
-0.05
 74
0
 49
0.1
 74
0
 49
-0.05
 74
0
 49
0.1
 74
0
 49
-0.05
 74
0
  0
LTYPE
  5
1F8
100
AcDbSymbolTableRecord
100
AcDbLinetypeTableRecord
  2
DOT
 70
64
  3
. . . . . . . . . . . . . . . . . . . .
 72
65
 73
2
 40
0.2
 49
0.1
 74
0
 49
-0.1
 74
0
  0
LTYPE
  5
1F9
100
AcDbSymbolTableRecord
100
AcDbLinetypeTableRecord
  2
DASHED
 70
64
  3
- - - - - - - - - - - - - - - - - - - -
 72
65
 73
2
 40
0.2
 49
0.1
 74
0
 49
-0.1
 74
0
  0
ENDTAB
  0
TABLE
  2
LAYER
  5
2
100
AcDbSymbolTable
 70
36
  0
LAYER
  5
10
100
AcDbSymbolTableRecord
100
AcDbLayerTableRecord
  2
0
 70
0
 62
7
  6
CONTINUOUS
370
-3
390
F
  0
LAYER
  5
1FA
100
AcDbSymbolTableRecord
100
AcDbLayerTableRecord
  2
DEFAULT_1
 70
0
 62
7
  6
CENTER
370
-3
390
F
  0
LAYER
  5
1FB
100
AcDbSymbolTableRecord
100
AcDbLayerTableRecord
  2
DEFAULT_2
 70
0
 62
7
  6
HIDDEN
370
-3
390
F
  0
LAYER
  5
1FC
100
AcDbSymbolTableRecord
100
AcDbLayerTableRecord
  2
DEFAULT_3
 70
0
 62
7
  6
PHANTOM
370
-3
390
F
  0
LAYER
  5
1FD
100
AcDbSymbolTableRecord
100
AcDbLayerTableRecord
  2
ASSI
 70
0
 62
7
  6
CONTINUOUS
370
-3
390
F
  0
LAYER
  5
1FE
100
AcDbSymbolTableRecord
100
AcDbLayerTableRecord
  2
COORDINATE
 70
0
 62
7
  6
CONTINUOUS
370
-3
390
F
  0
LAYER
  5
1FF
100
AcDbSymbolTableRecord
100
AcDbLayerTableRecord
  2
COORD_ORIGINE
 70
0
 62
7
  6
CONTINUOUS
370
-3
390
F
  0
LAYER
  5
200
100
AcDbSymbolTableRecord
100
AcDbLayerTableRecord
  2
COPY_PUBLISH
 70
0
 62
7
  6
CONTINUOUS
370
-3
390
F
  0
LAYER
  5
201
100
AcDbSymbolTableRecord
100
AcDbLayerTableRecord
  2
COSMETIC
 70
0
 62
7
  6
CONTINUOUS
370
-3
390
F
  0
LAYER
  5
202
100
AcDbSymbolTableRecord
100
AcDbLayerTableRecord
  2
COSMETICI
 70
0
 62
7
  6
CONTINUOUS
370
-3
390
F
  0
LAYER
  5
203
100
AcDbSymbolTableRecord
100
AcDbLayerTableRecord
  2
CURVA_TASSELLO
 70
0
 62
7
  6
CONTINUOUS
370
-3
390
F
  0
LAYER
  5
204
100
AcDbSymbolTableRecord
100
AcDbLayerTableRecord
  2
CURVE
 70
0
 62
7
  6
CONTINUOUS
370
-3
390
F
  0
LAYER
  5
205
100
AcDbSymbolTableRecord
100
AcDbLayerTableRecord
  2
DRAFT
 70
0
 62
7
  6
CONTINUOUS
370
-3
390
F
  0
LAYER
  5
206
100
AcDbSymbolTableRecord
100
AcDbLayerTableRecord
  2
IMPORT_IGES
 70
0
 62
7
  6
CONTINUOUS
370
-3
390
F
  0
LAYER
  5
207
100
AcDbSymbolTableRecord
100
AcDbLayerTableRecord
  2
INTFCLR_2
 70
0
 62
7
  6
CONTINUOUS
370
-3
390
F
  0
LAYER
  5
208
100
AcDbSymbolTableRecord
100
AcDbLayerTableRecord
  2
INTF_1
 70
0
 62
7
  6
CONTINUOUS
370
-3
390
F
  0
LAYER
  5
209
100
AcDbSymbolTableRecord
100
AcDbLayerTableRecord
  2
INTF_21
 70
0
 62
7
  6
CONTINUOUS
370
-3
390
F
  0
LAYER
  5
20A
100
AcDbSymbolTableRecord
100
AcDbLayerTableRecord
  2
INTF_7
 70
0
 62
7
  6
CONTINUOUS
370
-3
390
F
  0
LAYER
  5
20B
100
AcDbSymbolTableRecord
100
AcDbLayerTableRecord
  2
NOTE
 70
0
 62
7
  6
CONTINUOUS
370
-3
390
F
  0
LAYER
  5
20C
100
AcDbSymbolTableRecord
100
AcDbLayerTableRecord
  2
PIANI
 70
0
 62
7
  6
CONTINUOUS
370
-3
390
F
  0
LAYER
  5
20D
100
AcDbSymbolTableRecord
100
AcDbLayerTableRecord
  2
PIANI_ORIGINE
 70
0
 62
7
  6
CONTINUOUS
370
-3
390
F
  0
LAYER
  5
20E
100
AcDbSymbolTableRecord
100
AcDbLayerTableRecord
  2
PIANI_RIFERIMENTO
 70
0
 62
7
  6
CONTINUOUS
370
-3
390
F
  0
LAYER
  5
20F
100
AcDbSymbolTableRecord
100
AcDbLayerTableRecord
  2
PUNTI
 70
0
 62
7
  6
CONTINUOUS
370
-3
390
F
  0
LAYER
  5
210
100
AcDbSymbolTableRecord
100
AcDbLayerTableRecord
  2
RACCORDO
 70
0
 62
7
  6
CONTINUOUS
370
-3
390
F
  0
LAYER
  5
211
100
AcDbSymbolTableRecord
100
AcDbLayerTableRecord
  2
RGB__255__255__255__
 70
0
 62
7
  6
CONTINUOUS
370
-3
390
F
  0
LAYER
  5
212
100
AcDbSymbolTableRecord
100
AcDbLayerTableRecord
  2
RGB____0____0____0__
 70
0
 62
7
  6
CONTINUOUS
370
-3
390
F
  0
LAYER
  5
213
100
AcDbSymbolTableRecord
100
AcDbLayerTableRecord
  2
SIMBOLI
 70
0
 62
7
  6
CONTINUOUS
370
-3
390
F
  0
LAYER
  5
214
100
AcDbSymbolTableRecord
100
AcDbLayerTableRecord
  2
SMUSSO
 70
0
 62
7
  6
CONTINUOUS
370
-3
390
F
  0
LAYER
  5
215
100
AcDbSymbolTableRecord
100
AcDbLayerTableRecord
  2
SNAPLINE
 70
0
 62
7
  6
CONTINUOUS
370
-3
390
F
  0
LAYER
  5
216
100
AcDbSymbolTableRecord
100
AcDbLayerTableRecord
  2
SUPERFICI
 70
0
 62
7
  6
CONTINUOUS
370
-3
390
F
  0
LAYER
  5
217
100
AcDbSymbolTableRecord
100
AcDbLayerTableRecord
  2
TRASH
 70
0
 62
7
  6
CONTINUOUS
370
-3
390
F
  0
LAYER
  5
218
100
AcDbSymbolTableRecord
100
AcDbLayerTableRecord
  2
WHITE
 70
0
 62
7
  6
CONTINUOUS
370
-3
390
F
  0
LAYER
  5
219
100
AcDbSymbolTableRecord
100
AcDbLayerTableRecord
  2
XSEC_DATUMS
 70
0
 62
7
  6
CONTINUOUS
370
-3
390
F
  0
ENDTAB
  0
TABLE
  2
STYLE
  5
3
100
AcDbSymbolTable
 70
1
  0
STYLE
  5
11
100
AcDbSymbolTableRecord
100
AcDbTextStyleTableRecord
  2
STANDARD
 70
0
 40
0.0
 41
0.8
 50
0.0
 71
0
 42
0.2
  3
txt
  4

  0
STYLE
  5
21A
100
AcDbSymbolTableRecord
100
AcDbTextStyleTableRecord
  2
TEXTSTYLE_1
 70
0
 40
0.0
 41
0.8
 50
0.0
 71
0
 42
0.2
  3
gdt
  4

  0
ENDTAB
  0
TABLE
  2
VIEW
  5
6
100
AcDbSymbolTable
 70
0
  0
ENDTAB
  0
TABLE
  2
UCS
  5
7
100
AcDbSymbolTable
 70
0
  0
ENDTAB
  0
TABLE
  2
APPID
  5
9
100
AcDbSymbolTable
 70
1
  0
APPID
  5
21B
100
AcDbSymbolTableRecord
100
AcDbRegAppTableRecord
  2
ACAD
 70
0
  0
ENDTAB
  0
TABLE
  2
BLOCK_RECORD
  5
1
100
AcDbSymbolTable
 70
0
  0
BLOCK_RECORD
  5
21C
100
AcDbSymbolTableRecord
100
AcDbBlockTableRecord
  2
*Model_Space
  0
BLOCK_RECORD
  5
21D
100
AcDbSymbolTableRecord
100
AcDbBlockTableRecord
  2
*Paper_Space
  0
BLOCK_RECORD
  5
21E
100
AcDbSymbolTableRecord
100
AcDbBlockTableRecord
  2
_FILLED
  0
BLOCK_RECORD
  5
21F
100
AcDbSymbolTableRecord
100
AcDbBlockTableRecord
  2
*D0
  0
BLOCK_RECORD
  5
220
100
AcDbSymbolTableRecord
100
AcDbBlockTableRecord
  2
*D1
  0
BLOCK_RECORD
  5
221
100
AcDbSymbolTableRecord
100
AcDbBlockTableRecord
  2
*D2
  0
BLOCK_RECORD
  5
222
100
AcDbSymbolTableRecord
100
AcDbBlockTableRecord
  2
*D3
  0
ENDTAB
  0
TABLE
  2
DIMSTYLE
  5
A
100
AcDbSymbolTable
 70
1
100
AcDbDimStyleTable
 71
0
  0
DIMSTYLE
105
223
100
AcDbSymbolTableRecord
100
AcDbDimStyleTableRecord
  2
STANDARD
 70
0
  3

  4

 40
1.0
 41
3.0
 42
0.5
 43
0.38
 44
1.5
 45
0.0
 46
0.0
 47
0.01
 48
0.01
140
3.0
141
0.09
142
0.0
143
25.4
144
1.0
145
0.0
146
1.0
147
0.625
 71
1
 72
0
 73
0
 74
0
 75
0
 76
0
 77
1
 78
8
 79
2
170
0
171
1
172
0
173
0
174
0
175
0
176
0
177
0
178
0
270
2
179
2
271
2
272
2
273
2
274
2
275
0
280
0
281
0
282
0
283
1
284
8
285
0
286
0
287
3
288
0
340
11
278
44
341
21E
342
21E
343
21E
344
21E
  0
DIMSTYLE
105
224
100
AcDbSymbolTableRecord
100
AcDbDimStyleTableRecord
  2
DIMSTYLE_1
 70
0
  3

  4

 40
1.0
 41
3.0
 42
0.5
 43
0.38
 44
1.5
 45
0.0
 46
0.0
 47
0.0
 48
0.0
140
3.0
141
0.09
142
0.0
143
25.4
144
1.0
145
0.0
146
1.0
147
0.75
 71
0
 72
0
 73
0
 74
0
 75
0
 76
0
 77
1
 78
8
 79
2
170
0
171
1
172
0
173
0
174
0
175
0
176
0
177
0
178
0
270
2
179
2
271
2
272
2
273
2
274
2
275
0
280
0
281
0
282
0
283
1
284
8
285
0
286
0
287
3
288
0
340
11
278
44
341
21E
342
21E
343
21E
344
21E
  0
ENDTAB
  0
ENDSEC
  0
SECTION
  2
BLOCKS
  0
BLOCK
  5
20
100
AcDbEntity
  8
0
100
AcDbBlockBegin
  2
*Model_Space
 70
0
 10
0.0
 20
0.0
 30
0.0
  3
*Model_Space
  1

  0
ENDBLK
  5
21
100
AcDbEntity
  8
0
100
AcDbBlockEnd
  0
BLOCK
  5
1C
100
AcDbEntity
  8
0
100
AcDbBlockBegin
  2
*Paper_Space
 70
0
 10
0.0
 20
0.0
 30
0.0
  3
*Paper_Space
  1

  0
ENDBLK
  5
1D
100
AcDbEntity
  8
0
100
AcDbBlockEnd
  0
BLOCK
  5
225
100
AcDbEntity
  8
0
100
AcDbBlockBegin
  2
_FILLED
 70
64
 10
0.0
 20
0.0
  3
_FILLED
  1

  0
SOLID
  5
226
100
AcDbEntity
  8
0
  6
BYBLOCK
 62
0
100
AcDbTrace
 10
0.0
 20
0.0
 11
-1.0
 21
0.3166666667
 12
-1.0
 22
-0.3166666667
 13
-1.0
 23
-0.3166666667
  0
ENDBLK
  5
227
100
AcDbEntity
  8
0
  6
BYBLOCK
 62
0
100
AcDbBlockEnd
  0
BLOCK
  5
228
100
AcDbEntity
  8
0
100
AcDbBlockBegin
 62
7
  6
CONTINUOUS
  2
*D0
 70
65
 10
0.0
 20
0.0
  3
*D0
  1

  0
MTEXT
  5
229
100
AcDbEntity
  8
0
100
AcDbMText
 62
7
  6
CONTINUOUS
  7
STANDARD
 71
2
 72
1
 10
65.5
 20
0.0
 30
0.0
 11
0.0
 21
1.0
 31
0.0
 73
2
 44
0.9
  1
{\ftxt;\W0.0001;\H0.0001;\~}{\ftxt;\W1.5714285714;\H3.0; }{\ftxt;\W0.0001;\H0.0001;\~}
 40
3.0
 41
7.0714285714
  0
LINE
  5
22A
100
AcDbEntity
  8
0
100
AcDbLine
 62
7
  6
CONTINUOUS
 10
60.25
 20
45.0
 11
70.75
 21
45.0
  0
LINE
  5
22B
100
AcDbEntity
  8
0
100
AcDbLine
 62
7
  6
CONTINUOUS
 10
60.25
 20
-45.0
 11
70.75
 21
-45.0
  0
LINE
  5
22C
100
AcDbEntity
  8
0
100
AcDbLine
 62
7
  6
CONTINUOUS
 10
69.25
 20
45.0
 11
69.25
 21
0.0
  0
LINE
  5
22D
100
AcDbEntity
  8
0
100
AcDbLine
 62
7
  6
CONTINUOUS
 10
69.25
 20
-45.0
 11
69.25
 21
0.0
  0
INSERT
  5
22E
100
AcDbEntity
  8
0
100
AcDbBlockReference
 62
7
  6
CONTINUOUS
  2
_FILLED
 10
69.25
 20
45.0
 41
3.0
 42
3.0
 43
3.0
 50
90.0
  0
INSERT
  5
22F
100
AcDbEntity
  8
0
100
AcDbBlockReference
 62
7
  6
CONTINUOUS
  2
_FILLED
 10
69.25
 20
-45.0
 41
3.0
 42
3.0
 43
3.0
 50
270.0
  0
ENDBLK
  5
230
100
AcDbEntity
  8
0
  6
BYBLOCK
 62
0
100
AcDbBlockEnd
  0
BLOCK
  5
231
100
AcDbEntity
  8
0
100
AcDbBlockBegin
 62
7
  6
CONTINUOUS
  2
*D1
 70
65
 10
0.0
 20
0.0
  3
*D1
  1

  0
MTEXT
  5
232
100
AcDbEntity
  8
0
100
AcDbMText
 62
7
  6
CONTINUOUS
  7
STANDARD
 71
2
 72
1
 10
-0.25
 20
56.75
 30
0.0
 11
1.0
 21
0.0
 31
0.0
 73
2
 44
0.9
  1
{\ftxt;\W0.0001;\H0.0001;\~}{\ftxt;\W2.1428571429;\H3.0; }{\ftxt;\W0.0001;\H0.0001;\~}
 40
3.0
 41
9.6428571429
  0
LINE
  5
233
100
AcDbEntity
  8
0
100
AcDbLine
 62
7
  6
CONTINUOUS
 10
60.75
 20
44.5
 11
60.75
 21
54.5
  0
LINE
  5
234
100
AcDbEntity
  8
0
100
AcDbLine
 62
7
  6
CONTINUOUS
 10
-61.25
 20
44.5
 11
-61.25
 21
54.5
  0
LINE
  5
235
100
AcDbEntity
  8
0
100
AcDbLine
 62
7
  6
CONTINUOUS
 10
60.75
 20
53.0
 11
-0.25
 21
53.0
  0
LINE
  5
236
100
AcDbEntity
  8
0
100
AcDbLine
 62
7
  6
CONTINUOUS
 10
-61.25
 20
53.0
 11
-0.25
 21
53.0
  0
INSERT
  5
237
100
AcDbEntity
  8
0
100
AcDbBlockReference
 62
7
  6
CONTINUOUS
  2
_FILLED
 10
60.75
 20
53.0
 41
3.0
 42
3.0
 43
3.0
  0
INSERT
  5
238
100
AcDbEntity
  8
0
100
AcDbBlockReference
 62
7
  6
CONTINUOUS
  2
_FILLED
 10
-61.25
 20
53.0
 41
3.0
 42
3.0
 43
3.0
 50
180.0
  0
ENDBLK
  5
239
100
AcDbEntity
  8
0
  6
BYBLOCK
 62
0
100
AcDbBlockEnd
  0
BLOCK
  5
23A
100
AcDbEntity
  8
0
100
AcDbBlockBegin
 62
7
  6
CONTINUOUS
  2
*D2
 70
65
 10
0.0
 20
0.0
  3
*D2
  1

  0
MTEXT
  5
23B
100
AcDbEntity
  8
0
100
AcDbMText
 62
7
  6
CONTINUOUS
  7
STANDARD
 71
1
 72
1
 10
-76.0491290591
 20
56.75
 30
0.0
 11
1.0
 21
0.0
 31
0.0
 73
2
 44
0.9
  1
{\ftxt;\W0.0001;\H0.0001;\~}{\ftxt;\W2.7857142857;\H3.0; }{\ftxt;\W0.0001;\H0.0001;\~}
 40
3.0
 41
12.5357142857
  0
LINE
  5
23C
100
AcDbEntity
  8
0
100
AcDbLine
 62
7
  6
CONTINUOUS
 10
-87.7533667591
 20
44.5
 11
-87.7533667591
 21
54.5
  0
LINE
  5
23D
100
AcDbEntity
  8
0
100
AcDbLine
 62
7
  6
CONTINUOUS
 10
-80.2033667591
 20
43.5384032275
 11
-80.2033667591
 21
54.5
  0
LINE
  5
23E
100
AcDbEntity
  8
0
100
AcDbLine
 62
7
  6
CONTINUOUS
 10
-87.7533667591
 20
53.0
 11
-83.9783667591
 21
53.0
  0
LINE
  5
23F
100
AcDbEntity
  8
0
100
AcDbLine
 62
7
  6
CONTINUOUS
 10
-80.2033667591
 20
53.0
 11
-83.9783667591
 21
53.0
  0
LINE
  5
240
100
AcDbEntity
  8
0
100
AcDbLine
 62
7
  6
CONTINUOUS
 10
-83.9783667591
 20
53.0
 11
-67.691986202
 21
53.0
  0
INSERT
  5
241
100
AcDbEntity
  8
0
100
AcDbBlockReference
 62
7
  6
CONTINUOUS
  2
_FILLED
 10
-87.7533667591
 20
53.0
 41
3.0
 42
3.0
 43
3.0
 50
180.0
  0
INSERT
  5
242
100
AcDbEntity
  8
0
100
AcDbBlockReference
 62
7
  6
CONTINUOUS
  2
_FILLED
 10
-80.2033667591
 20
53.0
 41
3.0
 42
3.0
 43
3.0
  0
ENDBLK
  5
243
100
AcDbEntity
  8
0
  6
BYBLOCK
 62
0
100
AcDbBlockEnd
  0
BLOCK
  5
244
100
AcDbEntity
  8
0
100
AcDbBlockBegin
 62
7
  6
CONTINUOUS
  2
*D3
 70
65
 10
0.0
 20
0.0
  3
*D3
  1

  0
MTEXT
  5
245
100
AcDbEntity
  8
0
100
AcDbMText
 62
7
  6
CONTINUOUS
  7
STANDARD
 71
1
 72
1
 10
-75.9521690591
 20
66.75
 30
0.0
 11
1.0
 21
0.0
 31
0.0
 73
2
 44
0.9
  1
{\ftxt;\W0.0001;\H0.0001;\~}{\ftxt;\W3.3571428571;\H3.0; }{\ftxt;\W0.0001;\H0.0001;\~}
 40
3.0
 41
15.1071428571
  0
LINE
  5
246
100
AcDbEntity
  8
0
100
AcDbLine
 62
7
  6
CONTINUOUS
 10
-77.2033667591
 20
26.5463167932
 11
-77.2033667591
 21
64.5
  0
LINE
  5
247
100
AcDbEntity
  8
0
100
AcDbLine
 62
7
  6
CONTINUOUS
 10
-87.7533667591
 20
44.5
 11
-87.7533667591
 21
64.5
  0
LINE
  5
248
100
AcDbEntity
  8
0
100
AcDbLine
 62
7
  6
CONTINUOUS
 10
-77.2033667591
 20
63.0
 11
-82.4783667591
 21
63.0
  0
LINE
  5
249
100
AcDbEntity
  8
0
100
AcDbLine
 62
7
  6
CONTINUOUS
 10
-82.4783667591
 20
63.0
 11
-65.8807404877
 21
63.0
  0
LINE
  5
24A
100
AcDbEntity
  8
0
100
AcDbLine
 62
7
  6
CONTINUOUS
 10
-87.7533667591
 20
63.0
 11
-82.4783667591
 21
63.0
  0
INSERT
  5
24B
100
AcDbEntity
  8
0
100
AcDbBlockReference
 62
7
  6
CONTINUOUS
  2
_FILLED
 10
-77.2033667591
 20
63.0
 41
3.0
 42
3.0
 43
3.0
  0
INSERT
  5
24C
100
AcDbEntity
  8
0
100
AcDbBlockReference
 62
7
  6
CONTINUOUS
  2
_FILLED
 10
-87.7533667591
 20
63.0
 41
3.0
 42
3.0
 43
3.0
 50
180.0
  0
ENDBLK
  5
24D
100
AcDbEntity
  8
0
  6
BYBLOCK
 62
0
100
AcDbBlockEnd
  0
ENDSEC
  0
SECTION
  2
ENTITIES
  0
DIMENSION
  5
24E
100
AcDbEntity
  8
0
100
AcDbDimension
 62
7
  6
CONTINUOUS
  2
*D0
 10
69.25
 20
-45.0
 11
69.25
 21
-0.4285729185
 70
160
 71
2
 72
2
 41
0.9
 42
90.0
  1
{\ftxt;\W0.0001;\H0.0001;\~}{\ftxt;\W1.5714285714;\H3.0; }{\ftxt;\W0.0001;\H0.0001;\~}
  3
DIMSTYLE_1
100
AcDbAlignedDimension
 13
59.75
 23
45.0
 14
59.75
 24
-45.0
 50
270.0
100
AcDbRotatedDimension
  0
DIMENSION
  5
24F
100
AcDbEntity
  8
0
100
AcDbDimension
 62
7
  6
CONTINUOUS
  2
*D1
 10
-61.25
 20
53.0
 11
-0.6785714536
 21
53.0
 70
160
 71
2
 72
2
 41
0.9
 42
122.0
  1
{\ftxt;\W0.0001;\H0.0001;\~}{\ftxt;\W2.1428571429;\H3.0; }{\ftxt;\W0.0001;\H0.0001;\~}
  3
DIMSTYLE_1
100
AcDbAlignedDimension
 13
60.75
 23
44.0
 14
-61.25
 24
44.0
 50
180.0
100
AcDbRotatedDimension
  0
DIMENSION
  5
250
100
AcDbEntity
  8
0
100
AcDbDimension
 62
7
  6
CONTINUOUS
  2
*D2
 10
-80.2033667591
 20
53.0
 11
-72.2991292877
 21
53.0
 70
160
 71
1
 72
2
 41
0.9
 42
7.55
  1
{\ftxt;\W0.0001;\H0.0001;\~}{\ftxt;\W2.7857142857;\H3.0; }{\ftxt;\W0.0001;\H0.0001;\~}
  3
DIMSTYLE_1
100
AcDbAlignedDimension
 13
-87.7533667591
 23
44.0
 14
-80.2033667591
 24
43.0384032275
100
AcDbRotatedDimension
  0
DIMENSION
  5
251
100
AcDbEntity
  8
0
100
AcDbDimension
 62
7
  6
CONTINUOUS
  2
*D3
 10
-87.7533667591
 20
63.0
 11
-71.3450276642
 21
63.0
 70
160
 71
1
 72
2
 41
0.9
 42
10.55
  1
{\ftxt;\W0.0001;\H0.0001;\~}{\ftxt;\W3.3571428571;\H3.0; }{\ftxt;\W0.0001;\H0.0001;\~}
  3
DIMSTYLE_1
100
AcDbAlignedDimension
 13
-77.2033667591
 23
26.0463167932
 14
-87.7533667591
 24
44.0
 50
180.0
100
AcDbRotatedDimension
  0
LINE
  5
252
100
AcDbEntity
  8
SMUSSO
100
AcDbLine
 62
7
  6
CONTINUOUS
 10
-61.25
 20
44.0
 11
-60.25
 21
45.0
  0
LINE
  5
253
100
AcDbEntity
  8
SMUSSO
100
AcDbLine
 62
7
  6
CONTINUOUS
 10
-60.25
 20
-45.0
 11
-61.25
 21
-44.0
  0
LINE
  5
254
100
AcDbEntity
  8
SMUSSO
100
AcDbLine
 62
7
  6
CONTINUOUS
 10
-61.25
 20
44.0
 11
-61.25
 21
-44.0
  0
LINE
  5
255
100
AcDbEntity
  8
SMUSSO
100
AcDbLine
 62
7
  6
CONTINUOUS
 10
-60.25
 20
44.0
 11
-60.25
 21
-44.0
  0
LINE
  5
256
100
AcDbEntity
  8
SMUSSO
100
AcDbLine
 62
7
  6
CONTINUOUS
 10
-60.25
 20
-45.0
 11
59.75
 21
-45.0
  0
LWPOLYLINE
  5
257
100
AcDbEntity
  8
0
100
AcDbPolyline
 62
7
  6
CONTINUOUS
 90
3
 70
0
 43
0.3500000006
 10
-3.4642857599
 20
55.8928609314
 10
-2.6071427221
 20
56.7499988708
 10
-2.6071427221
 20
53.7499979553
  0
LINE
  5
258
100
AcDbEntity
  8
SMUSSO
100
AcDbLine
 62
7
  6
CONTINUOUS
 10
-60.25
 20
-44.0
 11
59.75
 21
-44.0
  0
LINE
  5
259
100
AcDbEntity
  8
RACCORDO
100
AcDbLine
 62
7
  6
CONTINUOUS
 10
-34.1
 20
21.4
 11
-34.1
 21
-21.4
  0
LINE
  5
25A
100
AcDbEntity
  8
RACCORDO
100
AcDbLine
 62
7
  6
CONTINUOUS
 10
-32.9
 20
-22.6
 11
32.4
 21
-22.6
  0
LINE
  5
25B
100
AcDbEntity
  8
SMUSSO
100
AcDbLine
 62
7
  6
CONTINUOUS
 10
-60.25
 20
-44.0
 11
-60.75
 21
-44.5
  0
LINE
  5
25C
100
AcDbEntity
  8
SMUSSO
100
AcDbLine
 62
7
  6
CONTINUOUS
 10
-60.75
 20
44.5
 11
-60.25
 21
44.0
  0
LWPOLYLINE
  5
25D
100
AcDbEntity
  8
0
100
AcDbPolyline
 62
7
  6
CONTINUOUS
 90
13
 70
0
 43
0.3500000006
 10
67.6428557739
 20
-0.0000003204
 10
66.3571443329
 20
-0.0000003204
 10
65.9285708313
 20
0.2142864304
 10
65.5000018616
 20
0.642857666
 10
65.5000018616
 20
0.8571421509
 10
65.9285708313
 20
1.2857133865
 10
66.3571443329
 20
1.5000001373
 10
67.6428557739
 20
1.5000001373
 10
68.0714292755
 20
1.2857133865
 10
68.4999982452
 20
0.8571421509
 10
68.4999982452
 20
0.642857666
 10
68.0714292755
 20
0.2142864304
 10
67.6428557739
 20
-0.0000003204
  0
LINE
  5
25E
100
AcDbEntity
  8
SMUSSO
100
AcDbLine
 62
7
  6
CONTINUOUS
 10
60.25
 20
44.5
 11
59.75
 21
44.0
  0
LINE
  5
25F
100
AcDbEntity
  8
SMUSSO
100
AcDbLine
 62
7
  6
CONTINUOUS
 10
60.25
 20
-44.5
 11
59.75
 21
-44.0
  0
LINE
  5
260
100
AcDbEntity
  8
RACCORDO
100
AcDbLine
 62
7
  6
CONTINUOUS
 10
32.4
 20
22.6
 11
-32.9
 21
22.6
  0
LINE
  5
261
100
AcDbEntity
  8
RACCORDO
100
AcDbLine
 62
7
  6
CONTINUOUS
 10
33.6
 20
-21.4
 11
33.6
 21
21.4
  0
LINE
  5
262
100
AcDbEntity
  8
SMUSSO
100
AcDbLine
 62
7
  6
CONTINUOUS
 10
59.75
 20
44.0
 11
-60.25
 21
44.0
  0
LINE
  5
263
100
AcDbEntity
  8
SMUSSO
100
AcDbLine
 62
7
  6
CONTINUOUS
 10
59.75
 20
45.0
 11
-60.25
 21
45.0
  0
LWPOLYLINE
  5
264
100
AcDbEntity
  8
0
100
AcDbPolyline
 62
7
  6
CONTINUOUS
 90
10
 70
0
 43
0.3500000006
 10
68.4999982452
 20
-1.9285708809
 10
67.6428557739
 20
-1.0714295425
 10
66.7857133026
 20
-0.8571427917
 10
65.9285708313
 20
-0.8571427917
 10
65.5000018616
 20
-1.2857140274
 10
65.5000018616
 20
-1.9285708809
 10
65.9285708313
 20
-2.3571432495
 10
66.7857133026
 20
-2.3571432495
 10
67.2142868042
 20
-1.9285708809
 10
67.2142868042
 20
-1.0000006256
  0
LWPOLYLINE
  5
265
100
AcDbEntity
  8
0
100
AcDbPolyline
 62
7
  6
CONTINUOUS
 90
7
 70
0
 43
0.3500000006
 10
2.1071428528
 20
53.7499979553
 10
0.6071428907
 20
53.7499979553
 10
2.1071428528
 20
55.8928609314
 10
2.1071428528
 20
56.3214299011
 10
1.6785714755
 20
56.7499988708
 10
1.035714268
 20
56.7499988708
 10
0.6071428907
 20
56.1071454163
  0
LWPOLYLINE
  5
266
100
AcDbEntity
  8
0
100
AcDbPolyline
 62
7
  6
CONTINUOUS
 90
7
 70
0
 43
0.3500000006
 10
-0.2500000055
 20
53.7499979553
 10
-1.7499999676
 20
53.7499979553
 10
-0.2500000055
 20
55.8928609314
 10
-0.2500000055
 20
56.3214299011
 10
-0.6785714536
 20
56.7499988708
 10
-1.3214285903
 20
56.7499988708
 10
-1.7499999676
 20
56.1071454163
  0
LINE
  5
267
100
AcDbEntity
  8
SMUSSO
100
AcDbLine
 62
7
  6
CONTINUOUS
 10
59.75
 20
-44.0
 11
59.75
 21
44.0
  0
LINE
  5
268
100
AcDbEntity
  8
SMUSSO
100
AcDbLine
 62
7
  6
CONTINUOUS
 10
60.75
 20
-44.0
 11
60.75
 21
44.0
  0
LINE
  5
269
100
AcDbEntity
  8
SMUSSO
100
AcDbLine
 62
7
  6
CONTINUOUS
 10
60.75
 20
-44.0
 11
59.75
 21
-45.0
  0
LINE
  5
26A
100
AcDbEntity
  8
SMUSSO
100
AcDbLine
 62
7
  6
CONTINUOUS
 10
59.75
 20
45.0
 11
60.75
 21
44.0
  0
LINE
  5
26B
100
AcDbEntity
  8
SMUSSO
100
AcDbLine
 62
7
  6
CONTINUOUS
 10
-86.7533667591
 20
-45.0
 11
-85.2533667591
 21
-45.0
  0
LWPOLYLINE
  5
26C
100
AcDbEntity
  8
0
100
AcDbPolyline
 62
7
  6
CONTINUOUS
 90
3
 70
0
 43
0.3500000006
 10
-75.9521712799
 20
65.8928549194
 10
-75.0950242767
 20
66.7500019226
 10
-75.0950242767
 20
63.7500010071
  0
LINE
  5
26D
100
AcDbEntity
  8
0
100
AcDbLine
 62
250
  6
CONTINUOUS
 10
-81.7025692003
 20
-43.3354659698
 11
-80.2033667591
 21
-43.0384032275
  0
LINE
  5
26E
100
AcDbEntity
  8
ASSI
100
AcDbLine
 62
250
  6
CONTINUOUS
 10
-81.7025692003
 20
-43.3354659698
 11
-80.2033667591
 21
-43.0384032275
  0
LINE
  5
26F
100
AcDbEntity
  8
0
100
AcDbLine
 62
7
  6
CONTINUOUS
 10
-84.6033667591
 20
-44.3506196883
 11
-81.7033667591
 21
-44.3
  0
LINE
  5
270
100
AcDbEntity
  8
ASSI
100
AcDbLine
 62
7
  6
CONTINUOUS
 10
-84.6033667591
 20
-44.3506196883
 11
-81.7033667591
 21
-44.3
  0
LINE
  5
271
100
AcDbEntity
  8
0
100
AcDbLine
 62
250
  6
CONTINUOUS
 10
-84.6033667591
 20
-43.3507719931
 11
-81.7033667591
 21
-43.3001523048
  0
LINE
  5
272
100
AcDbEntity
  8
ASSI
100
AcDbLine
 62
250
  6
CONTINUOUS
 10
-84.6033667591
 20
-43.3507719931
 11
-81.7033667591
 21
-43.3001523048
  0
LINE
  5
273
100
AcDbEntity
  8
SMUSSO
100
AcDbLine
 62
7
  6
CONTINUOUS
 10
-86.7533667591
 20
-44.0
 11
-85.2533667591
 21
-44.0
  0
LINE
  5
274
100
AcDbEntity
  8
RACCORDO
100
AcDbLine
 62
7
  6
CONTINUOUS
 10
-84.7533667591
 20
-40.0
 11
-84.6033667591
 21
-40.0
  0
LINE
  5
275
100
AcDbEntity
  8
RACCORDO
100
AcDbLine
 62
250
  6
CONTINUOUS
 10
-84.7533667591
 20
-38.0
 11
-84.6033667591
 21
-38.0
  0
LINE
  5
276
100
AcDbEntity
  8
0
100
AcDbLine
 62
250
  6
CONTINUOUS
 10
-82.1848727591
 20
-36.161141
 11
-84.0848327591
 21
-36.161141
  0
LINE
  5
277
100
AcDbEntity
  8
SMUSSO
100
AcDbLine
 62
7
  6
CONTINUOUS
 10
-86.7533667591
 20
45.0
 11
-87.7533667591
 21
44.0
  0
LINE
  5
278
100
AcDbEntity
  8
SMUSSO
100
AcDbLine
 62
7
  6
CONTINUOUS
 10
-85.2533667591
 20
44.0
 11
-84.7533667591
 21
44.5
  0
LINE
  5
279
100
AcDbEntity
  8
0
100
AcDbLine
 62
250
  6
CONTINUOUS
 10
-82.7769957591
 20
-37.077819
 11
-84.0847187591
 21
-37.439964
  0
LINE
  5
27A
100
AcDbEntity
  8
0
100
AcDbLine
 62
250
  6
CONTINUOUS
 10
-82.1848727591
 20
-33.624309
 11
-84.0847187591
 21
-33.801966
  0
LINE
  5
27B
100
AcDbEntity
  8
0
100
AcDbLine
 62
250
  6
CONTINUOUS
 10
-83.4202647591
 20
-34.093739
 11
-82.1848727591
 21
-34.012262
  0
LINE
  5
27C
100
AcDbEntity
  8
0
100
AcDbLine
 62
250
  6
CONTINUOUS
 10
-84.0848327591
 20
-35.764569
 11
-82.1848727591
 21
-35.764569
  0
LINE
  5
27D
100
AcDbEntity
  8
0
100
AcDbLine
 62
250
  6
CONTINUOUS
 10
-82.1848727591
 20
-35.171691
 11
-83.4254367591
 21
-35.08611
  0
LINE
  5
27E
100
AcDbEntity
  8
0
100
AcDbLine
 62
250
  6
CONTINUOUS
 10
-84.0847187591
 20
-35.379536
 11
-82.1848727591
 21
-35.551081
  0
LINE
  5
27F
100
AcDbEntity
  8
0
100
AcDbLine
 62
250
  6
CONTINUOUS
 10
-84.0847187591
 20
-36.704611
 11
-82.7769957591
 21
-37.077819
  0
LINE
  5
280
100
AcDbEntity
  8
0
100
AcDbLine
 62
250
  6
CONTINUOUS
 10
-82.1848727591
 20
-36.918996
 11
-84.0847187591
 21
-36.30831
  0
LINE
  5
281
100
AcDbEntity
  8
SMUSSO
100
AcDbLine
 62
7
  6
CONTINUOUS
 10
-86.7533667591
 20
-45.0
 11
-87.7533667591
 21
-44.0
  0
LINE
  5
282
100
AcDbEntity
  8
SMUSSO
100
AcDbLine
 62
7
  6
CONTINUOUS
 10
-84.7533667591
 20
-44.5
 11
-85.2533667591
 21
-44.0
  0
LINE
  5
283
100
AcDbEntity
  8
0
100
AcDbLine
 62
250
  6
CONTINUOUS
 10
-82.5641497591
 20
-32.520272
 11
-82.1848727591
 21
-32.417539
  0
LINE
  5
284
100
AcDbEntity
  8
0
100
AcDbLine
 62
250
  6
CONTINUOUS
 10
-83.5626897591
 20
-32.781757
 11
-82.8576327591
 21
-32.599527
  0
LINE
  5
285
100
AcDbEntity
  8
0
100
AcDbLine
 62
250
  6
CONTINUOUS
 10
-82.1848730131
 20
-31.8831153973
 11
-84.0625222179
 21
-31.8831153973
  0
LINE
  5
286
100
AcDbEntity
  8
0
100
AcDbLine
 62
250
  6
CONTINUOUS
 10
-83.7610611824
 20
-31.5012884969
 11
-83.2395164949
 21
-31.5012884969
  0
LINE
  5
287
100
AcDbEntity
  8
0
100
AcDbLine
 62
250
  6
CONTINUOUS
 10
-82.9283676757
 20
-31.4881387551
 11
-82.1848730131
 21
-31.4881387551
  0
LINE
  5
288
100
AcDbEntity
  8
0
100
AcDbLine
 62
250
  6
CONTINUOUS
 10
-83.0829305667
 20
-30.8635473914
 11
-83.0717041349
 21
-30.8635473914
  0
LINE
  5
289
100
AcDbEntity
  8
0
100
AcDbLine
 62
250
  6
CONTINUOUS
 10
-82.8576327591
 20
-32.979217
 11
-83.5626897591
 21
-32.781757
  0
LINE
  5
28A
100
AcDbEntity
  8
0
100
AcDbLine
 62
250
  6
CONTINUOUS
 10
-82.1848727591
 20
-33.169767
 11
-82.5641497591
 21
-33.060338
  0
LINE
  5
28B
100
AcDbEntity
  8
0
100
AcDbLine
 62
250
  6
CONTINUOUS
 10
-84.0847187591
 20
-32.966124
 11
-82.1848727591
 21
-33.562037
  0
LINE
  5
28C
100
AcDbEntity
  8
0
100
AcDbLine
 62
250
  6
CONTINUOUS
 10
-84.0847187591
 20
-34.194336
 11
-83.0299187591
 21
-34.590908
  0
LINE
  5
28D
100
AcDbEntity
  8
0
100
AcDbLine
 62
250
  6
CONTINUOUS
 10
-82.1848727591
 20
-34.565264
 11
-83.4202647591
 21
-34.093739
  0
LINE
  5
28E
100
AcDbEntity
  8
0
100
AcDbLine
 62
7
  6
CONTINUOUS
 10
-79.2033667591
 20
-27.15
 11
-80.2033667591
 21
-27.151745331
  0
LINE
  5
28F
100
AcDbEntity
  8
ASSI
100
AcDbLine
 62
7
  6
CONTINUOUS
 10
-79.2033667591
 20
-27.15
 11
-80.2033667591
 21
-27.151745331
  0
LINE
  5
290
100
AcDbEntity
  8
0
100
AcDbLine
 62
250
  6
CONTINUOUS
 10
-79.2775941754
 20
-26.9276792439
 11
-80.2033667591
 21
-26.9280974384
  0
LINE
  5
291
100
AcDbEntity
  8
ASSI
100
AcDbLine
 62
250
  6
CONTINUOUS
 10
-79.2775941754
 20
-26.9276792439
 11
-80.2033667591
 21
-26.9280974384
  0
LINE
  5
292
100
AcDbEntity
  8
RACCORDO
100
AcDbLine
 62
250
  6
CONTINUOUS
 10
-84.7533667591
 20
-29.5
 11
-84.6033667591
 21
-29.5
  0
LINE
  5
293
100
AcDbEntity
  8
RACCORDO
100
AcDbLine
 62
7
  6
CONTINUOUS
 10
-84.7533667591
 20
-27.5
 11
-84.6033667591
 21
-27.5
  0
LINE
  5
294
100
AcDbEntity
  8
0
100
AcDbLine
 62
7
  6
CONTINUOUS
 10
-77.7533175269
 20
-26.3415638603
 11
-80.2033667591
 21
-26.3558178298
  0
LINE
  5
295
100
AcDbEntity
  8
ASSI
100
AcDbLine
 62
7
  6
CONTINUOUS
 10
-77.7533175269
 20
-26.3415638603
 11
-80.2033667591
 21
-26.3558178298
  0
LINE
  5
296
100
AcDbEntity
  8
0
100
AcDbLine
 62
250
  6
CONTINUOUS
 10
-77.7533175269
 20
-26.2536973817
 11
-80.2033667591
 21
-26.2679513512
  0
LINE
  5
297
100
AcDbEntity
  8
ASSI
100
AcDbLine
 62
250
  6
CONTINUOUS
 10
-77.7533175269
 20
-26.2536973817
 11
-80.2033667591
 21
-26.2679513512
  0
LINE
  5
298
100
AcDbEntity
  8
RACCORDO
100
AcDbLine
 62
250
  6
CONTINUOUS
 10
-84.6033667591
 20
-26.5
 11
-84.7533667591
 21
-26.5
  0
LINE
  5
299
100
AcDbEntity
  8
0
100
AcDbLine
 62
7
  6
CONTINUOUS
 10
-77.2033667591
 20
-26.1523612067
 11
-77.3239295262
 21
-26.1523612067
  0
LINE
  5
29A
100
AcDbEntity
  8
ASSI
100
AcDbLine
 62
7
  6
CONTINUOUS
 10
-77.2033667591
 20
-26.1523612067
 11
-77.3239295262
 21
-26.1523612067
  0
LINE
  5
29B
100
AcDbEntity
  8
0
100
AcDbLine
 62
7
  6
CONTINUOUS
 10
-79.2532423803
 20
-25.2
 11
-80.2033667591
 21
-25.2
  0
LINE
  5
29C
100
AcDbEntity
  8
ASSI
100
AcDbLine
 62
7
  6
CONTINUOUS
 10
-79.2532423803
 20
-25.2
 11
-80.2033667591
 21
-25.2
  0
LINE
  5
29D
100
AcDbEntity
  8
0
100
AcDbLine
 62
7
  6
CONTINUOUS
 10
-80.2033667591
 20
-25.05
 11
-80.0533667591
 21
-25.05
  0
LINE
  5
29E
100
AcDbEntity
  8
ASSI
100
AcDbLine
 62
7
  6
CONTINUOUS
 10
-80.2033667591
 20
-25.05
 11
-80.0533667591
 21
-25.05
  0
LINE
  5
29F
100
AcDbEntity
  8
0
100
AcDbLine
 62
7
  6
CONTINUOUS
 10
-79.7533667591
 20
-25.05
 11
-79.5533667591
 21
-25.05
  0
LINE
  5
2A0
100
AcDbEntity
  8
ASSI
100
AcDbLine
 62
7
  6
CONTINUOUS
 10
-79.7533667591
 20
-25.05
 11
-79.5533667591
 21
-25.05
  0
LINE
  5
2A1
100
AcDbEntity
  8
0
100
AcDbLine
 62
7
  6
CONTINUOUS
 10
-77.2033667591
 20
-25.3523612067
 11
-77.7253034135
 21
-25.3478063346
  0
LINE
  5
2A2
100
AcDbEntity
  8
ASSI
100
AcDbLine
 62
7
  6
CONTINUOUS
 10
-77.2033667591
 20
-25.3523612067
 11
-77.7253034135
 21
-25.3478063346
  0
LINE
  5
2A3
100
AcDbEntity
  8
0
100
AcDbLine
 62
7
  6
CONTINUOUS
 10
-80.2033667591
 20
-25.7558198745
 11
-77.3928995679
 21
-25.8799866677
  0
LINE
  5
2A4
100
AcDbEntity
  8
ASSI
100
AcDbLine
 62
7
  6
CONTINUOUS
 10
-80.2033667591
 20
-25.7558198745
 11
-77.3928995679
 21
-25.8799866677
  0
LINE
  5
2A5
100
AcDbEntity
  8
0
100
AcDbLine
 62
7
  6
CONTINUOUS
 10
-77.2033667591
 20
-25.4
 11
-79.1537386612
 21
-25.2049628098
  0
LINE
  5
2A6
100
AcDbEntity
  8
ASSI
100
AcDbLine
 62
7
  6
CONTINUOUS
 10
-77.2033667591
 20
-25.4
 11
-79.1537386612
 21
-25.2049628098
  0
LINE
  5
2A7
100
AcDbEntity
  8
RACCORDO
100
AcDbLine
 62
7
  6
CONTINUOUS
 10
-84.7533667591
 20
-22.0
 11
-84.6033667591
 21
-22.0
  0
LINE
  5
2A8
100
AcDbEntity
  8
RACCORDO
100
AcDbLine
 62
250
  6
CONTINUOUS
 10
-84.7533667591
 20
-20.0
 11
-84.6033667591
 21
-20.0
  0
LINE
  5
2A9
100
AcDbEntity
  8
0
100
AcDbLine
 62
7
  6
CONTINUOUS
 10
-80.0533667591
 20
25.05
 11
-79.9033667591
 21
25.2
  0
LINE
  5
2AA
100
AcDbEntity
  8
ASSI
100
AcDbLine
 62
7
  6
CONTINUOUS
 10
-80.0533667591
 20
25.05
 11
-79.9033667591
 21
25.2
  0
LINE
  5
2AB
100
AcDbEntity
  8
0
100
AcDbLine
 62
7
  6
CONTINUOUS
 10
-79.5533667591
 20
25.05
 11
-79.4033667591
 21
25.2
  0
LINE
  5
2AC
100
AcDbEntity
  8
ASSI
100
AcDbLine
 62
7
  6
CONTINUOUS
 10
-79.5533667591
 20
25.05
 11
-79.4033667591
 21
25.2
  0
LINE
  5
2AD
100
AcDbEntity
  8
0
100
AcDbLine
 62
7
  6
CONTINUOUS
 10
-80.0533667591
 20
-25.05
 11
-79.9033667591
 21
-25.2
  0
LINE
  5
2AE
100
AcDbEntity
  8
ASSI
100
AcDbLine
 62
7
  6
CONTINUOUS
 10
-80.0533667591
 20
-25.05
 11
-79.9033667591
 21
-25.2
  0
LINE
  5
2AF
100
AcDbEntity
  8
0
100
AcDbLine
 62
7
  6
CONTINUOUS
 10
-79.5533667591
 20
-25.05
 11
-79.4033667591
 21
-25.2
  0
LINE
  5
2B0
100
AcDbEntity
  8
ASSI
100
AcDbLine
 62
7
  6
CONTINUOUS
 10
-79.5533667591
 20
-25.05
 11
-79.4033667591
 21
-25.2
  0
LWPOLYLINE
  5
2B1
100
AcDbEntity
  8
0
100
AcDbPolyline
 62
7
  6
CONTINUOUS
 90
3
 70
0
 43
0.3500000006
 10
-71.1664542389
 20
64.0357166748
 10
-71.2378854218
 20
63.8214321899
 10
-71.3807387238
 20
63.5357165222
  0
LWPOLYLINE
  5
2B2
100
AcDbEntity
  8
0
100
AcDbPolyline
 62
7
  6
CONTINUOUS
 90
3
 70
0
 43
0.3500000006
 10
-72.9776983337
 20
54.035713623
 10
-73.0491295166
 20
53.8214291382
 10
-73.1919873505
 20
53.5357134705
  0
LINE
  5
2B3
100
AcDbEntity
  8
SMUSSO
100
AcDbLine
 62
7
  6
CONTINUOUS
 10
-87.7533667591
 20
-44.0
 11
-87.7533667591
 21
44.0
  0
LINE
  5
2B4
100
AcDbEntity
  8
SMUSSO
100
AcDbLine
 62
7
  6
CONTINUOUS
 10
-86.7533667591
 20
-44.0
 11
-86.7533667591
 21
44.0
  0
LINE
  5
2B5
100
AcDbEntity
  8
SMUSSO
100
AcDbLine
 62
7
  6
CONTINUOUS
 10
-85.2533667591
 20
44.0
 11
-85.2533667591
 21
-44.0
  0
LINE
  5
2B6
100
AcDbEntity
  8
SMUSSO
100
AcDbLine
 62
7
  6
CONTINUOUS
 10
-84.7533667591
 20
44.5
 11
-84.7533667591
 21
-44.5
  0
LINE
  5
2B7
100
AcDbEntity
  8
0
100
AcDbLine
 62
7
  6
CONTINUOUS
 10
-84.6033667591
 20
-44.3506196883
 11
-84.6033667591
 21
44.3506196883
  0
LINE
  5
2B8
100
AcDbEntity
  8
ASSI
100
AcDbLine
 62
7
  6
CONTINUOUS
 10
-84.6033667591
 20
-44.3506196883
 11
-84.6033667591
 21
44.3506196883
  0
LINE
  5
2B9
100
AcDbEntity
  8
0
100
AcDbLine
 62
250
  6
CONTINUOUS
 10
-84.0848327591
 20
-36.161141
 11
-84.0848327591
 21
-35.764569
  0
LINE
  5
2BA
100
AcDbEntity
  8
0
100
AcDbLine
 62
250
  6
CONTINUOUS
 10
-84.0847187591
 20
-32.582488
 11
-84.0847187591
 21
-32.966124
  0
LINE
  5
2BB
100
AcDbEntity
  8
0
100
AcDbLine
 62
250
  6
CONTINUOUS
 10
-84.0847187591
 20
-33.801966
 11
-84.0847187591
 21
-34.194336
  0
LINE
  5
2BC
100
AcDbEntity
  8
0
100
AcDbLine
 62
250
  6
CONTINUOUS
 10
-84.0847187591
 20
-34.983292
 11
-84.0847187591
 21
-35.379536
  0
LINE
  5
2BD
100
AcDbEntity
  8
0
100
AcDbLine
 62
250
  6
CONTINUOUS
 10
-84.0847187591
 20
-36.30831
 11
-84.0847187591
 21
-36.704611
  0
LINE
  5
2BE
100
AcDbEntity
  8
0
100
AcDbLine
 62
250
  6
CONTINUOUS
 10
-84.0847187591
 20
-37.439964
 11
-84.0847187591
 21
-37.870764
  0
LINE
  5
2BF
100
AcDbEntity
  8
0
100
AcDbLine
 62
250
  6
CONTINUOUS
 10
-83.2395164949
 20
-31.5012884969
 11
-83.2395164949
 21
-31.2746513441
  0
LINE
  5
2C0
100
AcDbEntity
  8
0
100
AcDbLine
 62
250
  6
CONTINUOUS
 10
-82.9283676757
 20
-31.2755061485
 11
-82.9283676757
 21
-31.4881387551
  0
LINE
  5
2C1
100
AcDbEntity
  8
0
100
AcDbLine
 62
250
  6
CONTINUOUS
 10
-82.8576327591
 20
-32.599527
 11
-82.8576327591
 21
-32.979217
  0
LINE
  5
2C2
100
AcDbEntity
  8
0
100
AcDbLine
 62
250
  6
CONTINUOUS
 10
-82.5641497591
 20
-33.060338
 11
-82.5641497591
 21
-32.520272
  0
LINE
  5
2C3
100
AcDbEntity
  8
0
100
AcDbLine
 62
250
  6
CONTINUOUS
 10
-82.1848730131
 20
-30.4993864496
 11
-82.1848730131
 21
-30.8808429347
  0
LINE
  5
2C4
100
AcDbEntity
  8
0
100
AcDbLine
 62
250
  6
CONTINUOUS
 10
-82.1848730131
 20
-31.4881387551
 11
-82.1848730131
 21
-31.8831153973
  0
LINE
  5
2C5
100
AcDbEntity
  8
0
100
AcDbLine
 62
250
  6
CONTINUOUS
 10
-82.1848727591
 20
-37.268476
 11
-82.1848727591
 21
-36.918996
  0
LINE
  5
2C6
100
AcDbEntity
  8
0
100
AcDbLine
 62
250
  6
CONTINUOUS
 10
-82.1848727591
 20
-35.551081
 11
-82.1848727591
 21
-35.171691
  0
LINE
  5
2C7
100
AcDbEntity
  8
0
100
AcDbLine
 62
250
  6
CONTINUOUS
 10
-82.1848727591
 20
-34.620883
 11
-82.1848727591
 21
-34.565264
  0
LINE
  5
2C8
100
AcDbEntity
  8
0
100
AcDbLine
 62
250
  6
CONTINUOUS
 10
-82.1848727591
 20
-34.012262
 11
-82.1848727591
 21
-33.624309
  0
LINE
  5
2C9
100
AcDbEntity
  8
0
100
AcDbLine
 62
250
  6
CONTINUOUS
 10
-82.1848727591
 20
-33.562037
 11
-82.1848727591
 21
-33.169767
  0
LINE
  5
2CA
100
AcDbEntity
  8
0
100
AcDbLine
 62
250
  6
CONTINUOUS
 10
-82.1848727591
 20
-32.417539
 11
-82.1848727591
 21
-31.999568
  0
LINE
  5
2CB
100
AcDbEntity
  8
0
100
AcDbLine
 62
250
  6
CONTINUOUS
 10
-82.1848727591
 20
-35.764569
 11
-82.1848727591
 21
-36.161141
  0
LINE
  5
2CC
100
AcDbEntity
  8
0
100
AcDbLine
 62
250
  6
CONTINUOUS
 10
-79.2775295559
 20
-27.1501294386
 11
-79.2775941754
 21
-26.9276792439
  0
LINE
  5
2CD
100
AcDbEntity
  8
ASSI
100
AcDbLine
 62
250
  6
CONTINUOUS
 10
-79.2775295559
 20
-27.1501294386
 11
-79.2775941754
 21
-26.9276792439
  0
LINE
  5
2CE
100
AcDbEntity
  8
0
100
AcDbLine
 62
7
  6
CONTINUOUS
 10
-81.7033667591
 20
43.3001523048
 11
-81.7033667591
 21
-43.3001523048
  0
LINE
  5
2CF
100
AcDbEntity
  8
ASSI
100
AcDbLine
 62
7
  6
CONTINUOUS
 10
-81.7033667591
 20
43.3001523048
 11
-81.7033667591
 21
-43.3001523048
  0
LINE
  5
2D0
100
AcDbEntity
  8
0
100
AcDbLine
 62
7
  6
CONTINUOUS
 10
-80.2033667591
 20
43.1
 11
-80.2033667591
 21
-43.1
  0
LINE
  5
2D1
100
AcDbEntity
  8
ASSI
100
AcDbLine
 62
7
  6
CONTINUOUS
 10
-80.2033667591
 20
43.1
 11
-80.2033667591
 21
-43.1
  0
LINE
  5
2D2
100
AcDbEntity
  8
0
100
AcDbLine
 62
250
  6
CONTINUOUS
 10
-79.2775941754
 20
26.9276792439
 11
-79.2775295559
 21
27.1501294386
  0
LINE
  5
2D3
100
AcDbEntity
  8
ASSI
100
AcDbLine
 62
250
  6
CONTINUOUS
 10
-79.2775941754
 20
26.9276792439
 11
-79.2775295559
 21
27.1501294386
  0
LINE
  5
2D4
100
AcDbEntity
  8
0
100
AcDbLine
 62
250
  6
CONTINUOUS
 10
-77.4876659723
 20
25.3715700787
 11
-77.4876659723
 21
25.3498801651
  0
LINE
  5
2D5
100
AcDbEntity
  8
ASSI
100
AcDbLine
 62
250
  6
CONTINUOUS
 10
-77.4876659723
 20
25.3715700787
 11
-77.4876659723
 21
25.3498801651
  0
LINE
  5
2D6
100
AcDbEntity
  8
0
100
AcDbLine
 62
250
  6
CONTINUOUS
 10
-77.4876659723
 20
-25.3498801651
 11
-77.4876659723
 21
-25.3715700787
  0
LINE
  5
2D7
100
AcDbEntity
  8
ASSI
100
AcDbLine
 62
250
  6
CONTINUOUS
 10
-77.4876659723
 20
-25.3498801651
 11
-77.4876659723
 21
-25.3715700787
  0
LINE
  5
2D8
100
AcDbEntity
  8
0
100
AcDbLine
 62
250
  6
CONTINUOUS
 10
-77.3928995679
 20
25.8799866677
 11
-77.3928995679
 21
25.3810467191
  0
LINE
  5
2D9
100
AcDbEntity
  8
ASSI
100
AcDbLine
 62
250
  6
CONTINUOUS
 10
-77.3928995679
 20
25.8799866677
 11
-77.3928995679
 21
25.3810467191
  0
LINE
  5
2DA
100
AcDbEntity
  8
0
100
AcDbLine
 62
250
  6
CONTINUOUS
 10
-77.3928995679
 20
-25.3810467191
 11
-77.3928995679
 21
-25.8799866677
  0
LINE
  5
2DB
100
AcDbEntity
  8
ASSI
100
AcDbLine
 62
250
  6
CONTINUOUS
 10
-77.3928995679
 20
-25.3810467191
 11
-77.3928995679
 21
-25.8799866677
  0
LINE
  5
2DC
100
AcDbEntity
  8
0
100
AcDbLine
 62
7
  6
CONTINUOUS
 10
-77.2033667591
 20
26.1523612067
 11
-77.2033667591
 21
25.3523612067
  0
LINE
  5
2DD
100
AcDbEntity
  8
ASSI
100
AcDbLine
 62
7
  6
CONTINUOUS
 10
-77.2033667591
 20
26.1523612067
 11
-77.2033667591
 21
25.3523612067
  0
LINE
  5
2DE
100
AcDbEntity
  8
0
100
AcDbLine
 62
7
  6
CONTINUOUS
 10
-77.2033667591
 20
-25.3523612067
 11
-77.2033667591
 21
-26.1523612067
  0
LINE
  5
2DF
100
AcDbEntity
  8
ASSI
100
AcDbLine
 62
7
  6
CONTINUOUS
 10
-77.2033667591
 20
-25.3523612067
 11
-77.2033667591
 21
-26.1523612067
  0
LWPOLYLINE
  5
2E0
100
AcDbEntity
  8
0
100
AcDbPolyline
 62
7
  6
CONTINUOUS
 90
4
 70
0
 43
0.3500000006
 10
-76.0491304321
 20
56.1071454163
 10
-76.0491304321
 20
56.7499988708
 10
-74.5491299744
 20
56.7499988708
 10
-75.4062724457
 20
53.7499979553
  0
LWPOLYLINE
  5
2E1
100
AcDbEntity
  8
0
100
AcDbPolyline
 62
7
  6
CONTINUOUS
 90
13
 70
0
 43
0.3500000006
 10
-74.2378818054
 20
64.6071389465
 10
-74.2378818054
 20
65.8928549194
 10
-74.0235973206
 20
66.3214329529
 10
-73.5950283508
 20
66.7500019226
 10
-73.3807393341
 20
66.7500019226
 10
-72.9521703644
 20
66.3214329529
 10
-72.7378813477
 20
65.8928549194
 10
-72.7378813477
 20
64.6071389465
 10
-72.9521703644
 20
64.1785699768
 10
-73.3807393341
 20
63.7500010071
 10
-73.5950283508
 20
63.7500010071
 10
-74.0235973206
 20
64.1785699768
 10
-74.2378818054
 20
64.6071389465
  0
LINE
  5
2E2
100
AcDbEntity
  8
0
100
AcDbLine
 62
7
  6
CONTINUOUS
 10
-79.9033667591
 20
-25.2
 11
-79.7533667591
 21
-25.05
  0
LINE
  5
2E3
100
AcDbEntity
  8
ASSI
100
AcDbLine
 62
7
  6
CONTINUOUS
 10
-79.9033667591
 20
-25.2
 11
-79.7533667591
 21
-25.05
  0
LINE
  5
2E4
100
AcDbEntity
  8
0
100
AcDbLine
 62
7
  6
CONTINUOUS
 10
-79.9033667591
 20
25.2
 11
-79.7533667591
 21
25.05
  0
LINE
  5
2E5
100
AcDbEntity
  8
ASSI
100
AcDbLine
 62
7
  6
CONTINUOUS
 10
-79.9033667591
 20
25.2
 11
-79.7533667591
 21
25.05
  0
LINE
  5
2E6
100
AcDbEntity
  8
0
100
AcDbLine
 62
250
  6
CONTINUOUS
 10
-79.2775941754
 20
-26.9276792439
 11
-78.1780753155
 21
-26.3440350289
  0
LINE
  5
2E7
100
AcDbEntity
  8
ASSI
100
AcDbLine
 62
250
  6
CONTINUOUS
 10
-79.2775941754
 20
-26.9276792439
 11
-78.1780753155
 21
-26.3440350289
  0
LINE
  5
2E8
100
AcDbEntity
  8
0
100
AcDbLine
 62
250
  6
CONTINUOUS
 10
-77.7533175269
 20
-26.2536973817
 11
-77.2312256742
 21
-25.9765617175
  0
LINE
  5
2E9
100
AcDbEntity
  8
ASSI
100
AcDbLine
 62
250
  6
CONTINUOUS
 10
-77.7533175269
 20
-26.2536973817
 11
-77.2312256742
 21
-25.9765617175
  0
LINE
  5
2EA
100
AcDbEntity
  8
0
100
AcDbLine
 62
7
  6
CONTINUOUS
 10
-77.2033667591
 20
-26.0883643404
 11
-79.2033667637
 21
-27.1500000024
  0
LINE
  5
2EB
100
AcDbEntity
  8
ASSI
100
AcDbLine
 62
7
  6
CONTINUOUS
 10
-77.2033667591
 20
-26.0883643404
 11
-79.2033667637
 21
-27.1500000024
  0
LINE
  5
2EC
100
AcDbEntity
  8
0
100
AcDbLine
 62
7
  6
CONTINUOUS
 10
-77.2033667591
 20
25.4
 11
-79.1537386612
 21
25.2049628098
  0
LINE
  5
2ED
100
AcDbEntity
  8
ASSI
100
AcDbLine
 62
7
  6
CONTINUOUS
 10
-77.2033667591
 20
25.4
 11
-79.1537386612
 21
25.2049628098
  0
LINE
  5
2EE
100
AcDbEntity
  8
0
100
AcDbLine
 62
7
  6
CONTINUOUS
 10
-80.2033667591
 20
25.7558198745
 11
-77.3928995679
 21
25.8799866677
  0
LINE
  5
2EF
100
AcDbEntity
  8
ASSI
100
AcDbLine
 62
7
  6
CONTINUOUS
 10
-80.2033667591
 20
25.7558198745
 11
-77.3928995679
 21
25.8799866677
  0
LINE
  5
2F0
100
AcDbEntity
  8
0
100
AcDbLine
 62
7
  6
CONTINUOUS
 10
-77.2033667591
 20
25.3523612067
 11
-77.7253034135
 21
25.3478063346
  0
LINE
  5
2F1
100
AcDbEntity
  8
ASSI
100
AcDbLine
 62
7
  6
CONTINUOUS
 10
-77.2033667591
 20
25.3523612067
 11
-77.7253034135
 21
25.3478063346
  0
LINE
  5
2F2
100
AcDbEntity
  8
0
100
AcDbLine
 62
7
  6
CONTINUOUS
 10
-80.2033667591
 20
25.05
 11
-80.0533667591
 21
25.05
  0
LINE
  5
2F3
100
AcDbEntity
  8
ASSI
100
AcDbLine
 62
7
  6
CONTINUOUS
 10
-80.2033667591
 20
25.05
 11
-80.0533667591
 21
25.05
  0
LINE
  5
2F4
100
AcDbEntity
  8
0
100
AcDbLine
 62
7
  6
CONTINUOUS
 10
-79.7533667591
 20
25.05
 11
-79.5533667591
 21
25.05
  0
LINE
  5
2F5
100
AcDbEntity
  8
ASSI
100
AcDbLine
 62
7
  6
CONTINUOUS
 10
-79.7533667591
 20
25.05
 11
-79.5533667591
 21
25.05
  0
LINE
  5
2F6
100
AcDbEntity
  8
0
100
AcDbLine
 62
7
  6
CONTINUOUS
 10
-80.2033667591
 20
25.2
 11
-79.2532423803
 21
25.2
  0
LINE
  5
2F7
100
AcDbEntity
  8
ASSI
100
AcDbLine
 62
7
  6
CONTINUOUS
 10
-80.2033667591
 20
25.2
 11
-79.2532423803
 21
25.2
  0
LINE
  5
2F8
100
AcDbEntity
  8
0
100
AcDbLine
 62
7
  6
CONTINUOUS
 10
-77.2033667591
 20
26.1523612067
 11
-77.3239295262
 21
26.1523612067
  0
LINE
  5
2F9
100
AcDbEntity
  8
ASSI
100
AcDbLine
 62
7
  6
CONTINUOUS
 10
-77.2033667591
 20
26.1523612067
 11
-77.3239295262
 21
26.1523612067
  0
LINE
  5
2FA
100
AcDbEntity
  8
0
100
AcDbLine
 62
250
  6
CONTINUOUS
 10
-79.2775941754
 20
26.9276792439
 11
-80.2033667591
 21
26.9280974384
  0
LINE
  5
2FB
100
AcDbEntity
  8
ASSI
100
AcDbLine
 62
250
  6
CONTINUOUS
 10
-79.2775941754
 20
26.9276792439
 11
-80.2033667591
 21
26.9280974384
  0
LINE
  5
2FC
100
AcDbEntity
  8
0
100
AcDbLine
 62
7
  6
CONTINUOUS
 10
-79.2033667591
 20
27.15
 11
-80.2033667591
 21
27.151745331
  0
LINE
  5
2FD
100
AcDbEntity
  8
ASSI
100
AcDbLine
 62
7
  6
CONTINUOUS
 10
-79.2033667591
 20
27.15
 11
-80.2033667591
 21
27.151745331
  0
LINE
  5
2FE
100
AcDbEntity
  8
0
100
AcDbLine
 62
250
  6
CONTINUOUS
 10
-77.7533175269
 20
26.2536973817
 11
-80.2033667591
 21
26.2679513512
  0
LINE
  5
2FF
100
AcDbEntity
  8
ASSI
100
AcDbLine
 62
250
  6
CONTINUOUS
 10
-77.7533175269
 20
26.2536973817
 11
-80.2033667591
 21
26.2679513512
  0
LINE
  5
300
100
AcDbEntity
  8
0
100
AcDbLine
 62
7
  6
CONTINUOUS
 10
-77.7533175269
 20
26.3415638603
 11
-80.2033667591
 21
26.3558178298
  0
LINE
  5
301
100
AcDbEntity
  8
ASSI
100
AcDbLine
 62
7
  6
CONTINUOUS
 10
-77.7533175269
 20
26.3415638603
 11
-80.2033667591
 21
26.3558178298
  0
LINE
  5
302
100
AcDbEntity
  8
0
100
AcDbLine
 62
250
  6
CONTINUOUS
 10
-78.1780753155
 20
26.3440350289
 11
-79.2775941754
 21
26.9276792439
  0
LINE
  5
303
100
AcDbEntity
  8
ASSI
100
AcDbLine
 62
250
  6
CONTINUOUS
 10
-78.1780753155
 20
26.3440350289
 11
-79.2775941754
 21
26.9276792439
  0
LINE
  5
304
100
AcDbEntity
  8
0
100
AcDbLine
 62
250
  6
CONTINUOUS
 10
-77.2312256742
 20
25.9765617175
 11
-77.7533175269
 21
26.2536973817
  0
LINE
  5
305
100
AcDbEntity
  8
ASSI
100
AcDbLine
 62
250
  6
CONTINUOUS
 10
-77.2312256742
 20
25.9765617175
 11
-77.7533175269
 21
26.2536973817
  0
LINE
  5
306
100
AcDbEntity
  8
0
100
AcDbLine
 62
7
  6
CONTINUOUS
 10
-77.2033667591
 20
26.0883643404
 11
-79.2033667628
 21
27.1500000019
  0
LINE
  5
307
100
AcDbEntity
  8
ASSI
100
AcDbLine
 62
7
  6
CONTINUOUS
 10
-77.2033667591
 20
26.0883643404
 11
-79.2033667628
 21
27.1500000019
  0
LINE
  5
308
100
AcDbEntity
  8
SMUSSO
100
AcDbLine
 62
7
  6
CONTINUOUS
 10
-86.7533667591
 20
-44.0
 11
-87.2533667591
 21
-44.5
  0
LINE
  5
309
100
AcDbEntity
  8
SMUSSO
100
AcDbLine
 62
7
  6
CONTINUOUS
 10
-85.2533667591
 20
-45.0
 11
-84.7533667591
 21
-44.5
  0
LINE
  5
30A
100
AcDbEntity
  8
SMUSSO
100
AcDbLine
 62
7
  6
CONTINUOUS
 10
-87.2533667591
 20
44.5
 11
-86.7533667591
 21
44.0
  0
LINE
  5
30B
100
AcDbEntity
  8
SMUSSO
100
AcDbLine
 62
7
  6
CONTINUOUS
 10
-84.7533667591
 20
44.5
 11
-85.2533667591
 21
45.0
  0
LINE
  5
30C
100
AcDbEntity
  8
0
100
AcDbLine
 62
250
  6
CONTINUOUS
 10
-83.4254367591
 20
-35.08611
 11
-82.1848727591
 21
-34.620883
  0
LINE
  5
30D
100
AcDbEntity
  8
0
100
AcDbLine
 62
250
  6
CONTINUOUS
 10
-83.0299187591
 20
-34.590908
 11
-84.0847187591
 21
-34.983292
  0
LINE
  5
30E
100
AcDbEntity
  8
0
100
AcDbLine
 62
250
  6
CONTINUOUS
 10
-82.1848727591
 20
-31.999568
 11
-84.0847187591
 21
-32.582488
  0
LWPOLYLINE
  5
30F
100
AcDbEntity
  8
0
100
AcDbPolyline
 62
7
  6
CONTINUOUS
 90
10
 70
0
 43
0.3500000006
 10
-73.0491295166
 20
54.2499981079
 10
-72.9776983337
 20
54.1071448059
 10
-72.9776983337
 20
54.035713623
 10
-73.1205561676
 20
53.8928557892
 10
-73.1919873505
 20
53.8928557892
 10
-73.2634140015
 20
53.964286972
 10
-73.2634140015
 20
54.035713623
 10
-73.1919873505
 20
54.1785714569
 10
-73.1205561676
 20
54.2499981079
 10
-73.0491295166
 20
54.2499981079
  0
LINE
  5
310
100
AcDbEntity
  8
0
100
AcDbLine
 62
7
  6
CONTINUOUS
 10
-81.7025692003
 20
-44.2993619529
 11
-80.2033667591
 21
-43.1
  0
LINE
  5
311
100
AcDbEntity
  8
ASSI
100
AcDbLine
 62
7
  6
CONTINUOUS
 10
-81.7025692003
 20
-44.2993619529
 11
-80.2033667591
 21
-43.1
  0
LINE
  5
312
100
AcDbEntity
  8
0
100
AcDbLine
 62
250
  6
CONTINUOUS
 10
-84.0847187591
 20
-37.870764
 11
-82.1848727591
 21
-37.268476
  0
LINE
  5
313
100
AcDbEntity
  8
0
100
AcDbLine
 62
7
  6
CONTINUOUS
 10
-81.7033667591
 20
44.3
 11
-80.2033667591
 21
43.1
  0
LINE
  5
314
100
AcDbEntity
  8
ASSI
100
AcDbLine
 62
7
  6
CONTINUOUS
 10
-81.7033667591
 20
44.3
 11
-80.2033667591
 21
43.1
  0
LINE
  5
315
100
AcDbEntity
  8
RACCORDO
100
AcDbLine
 62
250
  6
CONTINUOUS
 10
-84.7533667591
 20
38.0
 11
-84.6033667591
 21
38.0
  0
LWPOLYLINE
  5
316
100
AcDbEntity
  8
0
100
AcDbPolyline
 62
7
  6
CONTINUOUS
 90
10
 70
0
 43
0.3500000006
 10
-71.2378854218
 20
64.2500011597
 10
-71.1664542389
 20
64.1071387939
 10
-71.1664542389
 20
64.0357166748
 10
-71.3093120728
 20
63.8928543091
 10
-71.3807387238
 20
63.8928543091
 10
-71.4521699066
 20
63.9642854919
 10
-71.4521699066
 20
64.0357166748
 10
-71.3807387238
 20
64.1785699768
 10
-71.3093120728
 20
64.2500011597
 10
-71.2378854218
 20
64.2500011597
  0
LINE
  5
317
100
AcDbEntity
  8
RACCORDO
100
AcDbLine
 62
7
  6
CONTINUOUS
 10
-84.7533667591
 20
40.0
 11
-84.6033667591
 21
40.0
  0
LINE
  5
318
100
AcDbEntity
  8
SMUSSO
100
AcDbLine
 62
7
  6
CONTINUOUS
 10
-86.7533667591
 20
44.0
 11
-85.2533667591
 21
44.0
  0
LINE
  5
319
100
AcDbEntity
  8
SMUSSO
100
AcDbLine
 62
7
  6
CONTINUOUS
 10
-86.7533667591
 20
45.0
 11
-85.2533667591
 21
45.0
  0
LWPOLYLINE
  5
31A
100
AcDbEntity
  8
0
100
AcDbPolyline
 62
7
  6
CONTINUOUS
 90
8
 70
0
 43
0.3500000006
 10
-71.9777025604
 20
53.7499979553
 10
-71.1205555573
 20
53.7499979553
 10
-70.6919865875
 20
54.1785714569
 10
-70.6919865875
 20
55.0357139282
 10
-71.1205555573
 20
55.4642874298
 10
-71.9777025604
 20
55.4642874298
 10
-71.9777025604
 20
56.7499988708
 10
-70.6919865875
 20
56.7499988708
  0
LWPOLYLINE
  5
31B
100
AcDbEntity
  8
0
100
AcDbPolyline
 62
7
  6
CONTINUOUS
 90
8
 70
0
 43
0.3500000006
 10
-69.8348441162
 20
53.7499979553
 10
-68.9777016449
 20
53.7499979553
 10
-68.5491281433
 20
54.1785714569
 10
-68.5491281433
 20
55.0357139282
 10
-68.9777016449
 20
55.4642874298
 10
-69.8348441162
 20
55.4642874298
 10
-69.8348441162
 20
56.7499988708
 10
-68.5491281433
 20
56.7499988708
  0
LWPOLYLINE
  5
31C
100
AcDbEntity
  8
0
100
AcDbPolyline
 62
7
  6
CONTINUOUS
 90
8
 70
0
 43
0.3500000006
 10
-70.1664539337
 20
63.7500010071
 10
-69.3093114624
 20
63.7500010071
 10
-68.8807424927
 20
64.1785699768
 10
-68.8807424927
 20
65.03571698
 10
-69.3093114624
 20
65.4642859497
 10
-70.1664539337
 20
65.4642859497
 10
-70.1664539337
 20
66.7500019226
 10
-68.8807424927
 20
66.7500019226
  0
LWPOLYLINE
  5
31D
100
AcDbEntity
  8
0
100
AcDbPolyline
 62
7
  6
CONTINUOUS
 90
8
 70
0
 43
0.3500000006
 10
-68.0235954895
 20
63.7500010071
 10
-67.1664530182
 20
63.7500010071
 10
-66.7378840485
 20
64.1785699768
 10
-66.7378840485
 20
65.03571698
 10
-67.1664530182
 20
65.4642859497
 10
-68.0235954895
 20
65.4642859497
 10
-68.0235954895
 20
66.7500019226
 10
-66.7378840485
 20
66.7500019226
  0
LINE
  5
31E
100
AcDbEntity
  8
0
100
AcDbLine
 62
250
  6
CONTINUOUS
 10
-84.6033667591
 20
43.3507719931
 11
-81.7033667591
 21
43.3001523048
  0
LINE
  5
31F
100
AcDbEntity
  8
ASSI
100
AcDbLine
 62
250
  6
CONTINUOUS
 10
-84.6033667591
 20
43.3507719931
 11
-81.7033667591
 21
43.3001523048
  0
LINE
  5
320
100
AcDbEntity
  8
0
100
AcDbLine
 62
7
  6
CONTINUOUS
 10
-84.6033667591
 20
44.3506196883
 11
-81.7033667591
 21
44.3
  0
LINE
  5
321
100
AcDbEntity
  8
ASSI
100
AcDbLine
 62
7
  6
CONTINUOUS
 10
-84.6033667591
 20
44.3506196883
 11
-81.7033667591
 21
44.3
  0
LINE
  5
322
100
AcDbEntity
  8
0
100
AcDbLine
 62
250
  6
CONTINUOUS
 10
-81.7025692003
 20
43.3354659698
 11
-80.2033667591
 21
43.0384032275
  0
LINE
  5
323
100
AcDbEntity
  8
ASSI
100
AcDbLine
 62
250
  6
CONTINUOUS
 10
-81.7025692003
 20
43.3354659698
 11
-80.2033667591
 21
43.0384032275
  0
ARC
  5
324
100
AcDbEntity
  8
RACCORDO
100
AcDbCircle
 62
7
  6
CONTINUOUS
 10
-32.9
 20
-21.4
 40
1.2
100
AcDbArc
 50
180.0
 51
270.0
  0
ARC
  5
325
100
AcDbEntity
  8
RACCORDO
100
AcDbCircle
 62
7
  6
CONTINUOUS
 10
32.4
 20
-21.4
 40
1.2
100
AcDbArc
 50
270.0
 51
360.0
  0
ARC
  5
326
100
AcDbEntity
  8
RACCORDO
100
AcDbCircle
 62
7
  6
CONTINUOUS
 10
32.4
 20
21.4
 40
1.2
100
AcDbArc
 50
0.0
 51
90.0
  0
ARC
  5
327
100
AcDbEntity
  8
RACCORDO
100
AcDbCircle
 62
7
  6
CONTINUOUS
 10
-32.9
 20
21.4
 40
1.2
100
AcDbArc
 50
90.0
 51
180.0
  0
ARC
  5
328
100
AcDbEntity
  8
0
100
AcDbCircle
 62
7
  6
CONTINUOUS
 10
-79.2532423803
 20
26.2
 40
1.0
100
AcDbArc
 50
270.0
 51
275.7105931375
  0
ARC
  5
329
100
AcDbEntity
  8
0
100
AcDbCircle
 62
7
  6
CONTINUOUS
 10
-79.2532423803
 20
-26.2
 40
1.0
100
AcDbArc
 50
84.2894068625
 51
90.0
  0
ARC
  5
32A
100
AcDbEntity
  8
ASSI
100
AcDbCircle
 62
7
  6
CONTINUOUS
 10
-79.2532423803
 20
26.2
 40
1.0
100
AcDbArc
 50
270.0
 51
275.7105931375
  0
ARC
  5
32B
100
AcDbEntity
  8
ASSI
100
AcDbCircle
 62
7
  6
CONTINUOUS
 10
-79.2532423803
 20
-26.2
 40
1.0
100
AcDbArc
 50
84.2894068625
 51
90.0
  0
ARC
  5
32C
100
AcDbEntity
  8
0
100
AcDbCircle
 62
7
  6
CONTINUOUS
 10
-79.2780533875
 20
26.8499994712
 40
0.3
100
AcDbArc
 50
62.0510415412
 51
89.8999989552
  0
ARC
  5
32D
100
AcDbEntity
  8
0
100
AcDbCircle
 62
7
  6
CONTINUOUS
 10
-79.2780533875
 20
-26.8499994712
 40
0.3
100
AcDbArc
 50
270.1000010448
 51
297.9489584588
  0
ARC
  5
32E
100
AcDbEntity
  8
0
100
AcDbCircle
 62
7
  6
CONTINUOUS
 10
-77.7550628463
 20
-26.0415689373
 40
0.3
100
AcDbArc
 50
270.3333333333
 51
297.9601595788
  0
ARC
  5
32F
100
AcDbEntity
  8
0
100
AcDbCircle
 62
7
  6
CONTINUOUS
 10
-77.7550628463
 20
26.0415689373
 40
0.3
100
AcDbArc
 50
62.0398404207
 51
89.6666666667
  0
ARC
  5
330
100
AcDbEntity
  8
ASSI
100
AcDbCircle
 62
7
  6
CONTINUOUS
 10
-79.2780533875
 20
26.8499994712
 40
0.3
100
AcDbArc
 50
62.0510415412
 51
89.8999989556
  0
ARC
  5
331
100
AcDbEntity
  8
ASSI
100
AcDbCircle
 62
7
  6
CONTINUOUS
 10
-79.2780533875
 20
-26.8499994712
 40
0.3
100
AcDbArc
 50
270.1000010444
 51
297.9489584588
  0
ARC
  5
332
100
AcDbEntity
  8
ASSI
100
AcDbCircle
 62
7
  6
CONTINUOUS
 10
-77.7550628463
 20
-26.0415689373
 40
0.3
100
AcDbArc
 50
270.3333333333
 51
297.9601595788
  0
ARC
  5
333
100
AcDbEntity
  8
ASSI
100
AcDbCircle
 62
7
  6
CONTINUOUS
 10
-77.7550628463
 20
26.0415689373
 40
0.3
100
AcDbArc
 50
62.0398404207
 51
89.6666666667
  0
SPLINE
  5
334
100
AcDbEntity
  8
0
100
AcDbSpline
 62
250
  6
CONTINUOUS
 70
0
 71
3
 72
17
 73
13
 74
0
 42
0.0000001
 43
0.0000001
 44
0.0000000001
 40
0.0
 40
0.0
 40
0.0
 40
0.0
 40
0.0041509426
 40
0.0165131528
 40
0.0370394731
 40
0.0656738303
 40
0.147033967
 40
0.259883893
 40
0.4031301725
 40
0.5755840394
 40
0.7753335906
 40
1.0
 40
1.0
 40
1.0
 40
1.0
 10
-77.7533175269
 20
-26.3415638603
 30
0.0
 10
-77.7531959494
 20
-26.341563153
 30
0.0
 10
-77.7534130699
 20
-26.3407901078
 30
0.0
 10
-77.7531593274
 20
-26.3399838662
 30
0.0
 10
-77.7532665497
 20
-26.3380251079
 30
0.0
 10
-77.7531594268
 20
-26.3342971317
 30
0.0
 10
-77.7531974928
 20
-26.3277000543
 30
0.0
 10
-77.7531630536
 20
-26.3178494928
 30
0.0
 10
-77.7531844255
 20
-26.3052846155
 30
0.0
 10
-77.7532088954
 20
-26.2901918491
 30
0.0
 10
-77.7532558483
 20
-26.2727082659
 30
0.0
 10
-77.7532951015
 20
-26.2602777389
 30
0.0
 10
-77.7533175269
 20
-26.2536973817
 30
0.0
  0
SPLINE
  5
335
100
AcDbEntity
  8
0
100
AcDbSpline
 62
250
  6
CONTINUOUS
 70
0
 71
3
 72
17
 73
13
 74
0
 42
0.0000001
 43
0.0000001
 44
0.0000000001
 40
0.0
 40
0.0
 40
0.0
 40
0.0
 40
0.2246664094
 40
0.4244159606
 40
0.5968698275
 40
0.740116107
 40
0.852966033
 40
0.9343261697
 40
0.9629605269
 40
0.9834868471
 40
0.9958490574
 40
1.0
 40
1.0
 40
1.0
 40
1.0
 10
-77.7533175269
 20
26.2536973817
 30
0.0
 10
-77.7532951015
 20
26.2602777389
 30
0.0
 10
-77.7532558483
 20
26.2727082659
 30
0.0
 10
-77.7532088954
 20
26.2901918491
 30
0.0
 10
-77.7531844255
 20
26.3052846155
 30
0.0
 10
-77.7531630536
 20
26.3178494928
 30
0.0
 10
-77.7531974928
 20
26.3277000543
 30
0.0
 10
-77.7531594268
 20
26.3342971317
 30
0.0
 10
-77.7532665497
 20
26.3380251079
 30
0.0
 10
-77.7531593274
 20
26.3399838662
 30
0.0
 10
-77.7534130699
 20
26.3407901078
 30
0.0
 10
-77.7531959494
 20
26.341563153
 30
0.0
 10
-77.7533175269
 20
26.3415638603
 30
0.0
  0
SPLINE
  5
336
100
AcDbEntity
  8
0
100
AcDbSpline
 62
250
  6
CONTINUOUS
 70
0
 71
3
 72
9
 73
5
 74
0
 42
0.0000001
 43
0.0000001
 44
0.0000000001
 40
0.0
 40
0.0
 40
0.0
 40
0.0
 40
0.4669075258
 40
1.0
 40
1.0
 40
1.0
 40
1.0
 10
-77.6144055979
 20
26.3065510847
 30
0.0
 10
-77.6214123624
 20
26.3102704003
 30
0.0
 10
-77.6384500097
 20
26.3146638405
 30
0.0
 10
-77.6556010018
 20
26.3122032377
 30
0.0
 10
-77.664350895
 20
26.309863965
 30
0.0
  0
SPLINE
  5
337
100
AcDbEntity
  8
0
100
AcDbSpline
 62
250
  6
CONTINUOUS
 70
0
 71
3
 72
9
 73
5
 74
0
 42
0.0000001
 43
0.0000001
 44
0.0000000001
 40
0.0
 40
0.0
 40
0.0
 40
0.0
 40
0.2246249652
 40
1.0
 40
1.0
 40
1.0
 40
1.0
 10
-77.664350895
 20
26.309863965
 30
0.0
 10
-77.6683168122
 20
26.3088036822
 30
0.0
 10
-77.6857050342
 20
26.3030771544
 30
0.0
 10
-77.7018239161
 20
26.293967565
 30
0.0
 10
-77.7135572867
 20
26.286021863
 30
0.0
  0
SPLINE
  5
338
100
AcDbEntity
  8
0
100
AcDbSpline
 62
250
  6
CONTINUOUS
 70
0
 71
3
 72
9
 73
5
 74
0
 42
0.0000001
 43
0.0000001
 44
0.0000000001
 40
0.0
 40
0.0
 40
0.0
 40
0.0
 40
0.2353089167
 40
1.0
 40
1.0
 40
1.0
 40
1.0
 10
-77.7135572867
 20
26.286021863
 30
0.0
 10
-77.7168873429
 20
26.2837667877
 30
0.0
 10
-77.730803512
 20
26.2738360857
 30
0.0
 10
-77.7438193669
 20
26.2626752144
 30
0.0
 10
-77.7533175269
 20
26.2536973817
 30
0.0
  0
SPLINE
  5
339
100
AcDbEntity
  8
0
100
AcDbSpline
 62
250
  6
CONTINUOUS
 70
0
 71
3
 72
9
 73
5
 74
0
 42
0.0000001
 43
0.0000001
 44
0.0000000001
 40
0.0
 40
0.0
 40
0.0
 40
0.0
 40
0.4668799879
 40
1.0
 40
1.0
 40
1.0
 40
1.0
 10
-77.6144055979
 20
-26.3065510847
 30
0.0
 10
-77.621415514
 20
-26.3102720732
 30
0.0
 10
-77.6384627753
 20
-26.3146660571
 30
0.0
 10
-77.6556220252
 20
-26.3121998209
 30
0.0
 10
-77.6643762626
 20
-26.3098571438
 30
0.0
  0
SPLINE
  5
33A
100
AcDbEntity
  8
0
100
AcDbSpline
 62
250
  6
CONTINUOUS
 70
0
 71
3
 72
9
 73
5
 74
0
 42
0.0000001
 43
0.0000001
 44
0.0000000001
 40
0.0
 40
0.0
 40
0.0
 40
0.0
 40
0.224584937
 40
1.0
 40
1.0
 40
1.0
 40
1.0
 10
-77.6643762626
 20
-26.3098571438
 30
0.0
 10
-77.6683505909
 20
-26.308793594
 30
0.0
 10
-77.685778087
 20
-26.3030476432
 30
0.0
 10
-77.7019299883
 20
-26.2939064819
 30
0.0
 10
-77.7136866861
 20
-26.285934192
 30
0.0
  0
SPLINE
  5
33B
100
AcDbEntity
  8
0
100
AcDbSpline
 62
250
  6
CONTINUOUS
 70
0
 71
3
 72
9
 73
5
 74
0
 42
0.0000001
 43
0.0000001
 44
0.0000000001
 40
0.0
 40
0.0
 40
0.0
 40
0.0
 40
0.2353653196
 40
1.0
 40
1.0
 40
1.0
 40
1.0
 10
-77.7136866861
 20
-26.285934192
 30
0.0
 10
-77.7170059877
 20
-26.2836833529
 30
0.0
 10
-77.730874662
 20
-26.2737757566
 30
0.0
 10
-77.7438489735
 20
-26.2626472297
 30
0.0
 10
-77.7533175269
 20
-26.2536973817
 30
0.0
  0
SPLINE
  5
33C
100
AcDbEntity
  8
0
100
AcDbSpline
 62
250
  6
CONTINUOUS
 70
0
 71
3
 72
9
 73
5
 74
0
 42
0.0000001
 43
0.0000001
 44
0.0000000001
 40
0.0
 40
0.0
 40
0.0
 40
0.0
 40
0.5597674652
 40
1.0
 40
1.0
 40
1.0
 40
1.0
 10
-79.2775941754
 20
26.9276792439
 30
0.0
 10
-79.2613206386
 20
26.9562793392
 30
0.0
 10
-79.231083125
 20
27.0066983323
 30
0.0
 10
-79.1981822885
 20
27.0555254921
 30
0.0
 10
-79.1823290585
 20
27.0759802501
 30
0.0
  0
SPLINE
  5
33D
100
AcDbEntity
  8
0
100
AcDbSpline
 62
250
  6
CONTINUOUS
 70
0
 71
3
 72
10
 73
6
 74
0
 42
0.0000001
 43
0.0000001
 44
0.0000000001
 40
0.0
 40
0.0
 40
0.0
 40
0.0
 40
0.6949101874
 40
0.8907704955
 40
1.0
 40
1.0
 40
1.0
 40
1.0
 10
-79.1823290585
 20
27.0759802501
 30
0.0
 10
-79.1736450857
 20
27.0871848162
 30
0.0
 10
-79.1617012558
 20
27.1013984189
 30
0.0
 10
-79.1464016701
 20
27.114261842
 30
0.0
 10
-79.1394267565
 20
27.1160640935
 30
0.0
 10
-79.1374605255
 20
27.1150157961
 30
0.0
  0
SPLINE
  5
33E
100
AcDbEntity
  8
0
100
AcDbSpline
 62
250
  6
CONTINUOUS
 70
0
 71
3
 72
9
 73
5
 74
0
 42
0.0000001
 43
0.0000001
 44
0.0000000001
 40
0.0
 40
0.0
 40
0.0
 40
0.0
 40
0.5591441426
 40
1.0
 40
1.0
 40
1.0
 40
1.0
 10
-79.2775941754
 20
-26.9276792439
 30
0.0
 10
-79.2614129048
 20
-26.9561298307
 30
0.0
 10
-79.2313434387
 20
-27.0063608044
 30
0.0
 10
-79.1985917351
 20
-27.0549860392
 30
0.0
 10
-79.1828129043
 20
-27.0754061939
 30
0.0
  0
SPLINE
  5
33F
100
AcDbEntity
  8
0
100
AcDbSpline
 62
250
  6
CONTINUOUS
 70
0
 71
3
 72
10
 73
6
 74
0
 42
0.0000001
 43
0.0000001
 44
0.0000000001
 40
0.0
 40
0.0
 40
0.0
 40
0.0
 40
0.695043648
 40
0.890922753
 40
1.0
 40
1.0
 40
1.0
 40
1.0
 10
-79.1828129043
 20
-27.0754061939
 30
0.0
 10
-79.1740359708
 20
-27.0867648516
 30
0.0
 10
-79.1619819507
 20
-27.1011923506
 30
0.0
 10
-79.1465018795
 20
-27.1142291054
 30
0.0
 10
-79.1394524402
 20
-27.1160680039
 30
0.0
 10
-79.1374605255
 20
-27.1150157961
 30
0.0
  0
SPLINE
  5
340
100
AcDbEntity
  8
0
100
AcDbSpline
 62
7
  6
CONTINUOUS
 70
0
 71
3
 72
9
 73
5
 74
0
 42
0.0000001
 43
0.0000001
 44
0.0000000001
 40
0.0
 40
0.0
 40
0.0
 40
0.0
 40
0.570136028
 40
1.0
 40
1.0
 40
1.0
 40
1.0
 10
-77.2312256742
 20
-25.9765617175
 30
0.0
 10
-77.2238762632
 20
-25.9889263852
 30
0.0
 10
-77.2112761802
 20
-26.0106368775
 30
0.0
 10
-77.2033667591
 20
-26.0354717422
 30
0.0
 10
-77.2033667591
 20
-26.0463167932
 30
0.0
  0
SPLINE
  5
341
100
AcDbEntity
  8
0
100
AcDbSpline
 62
7
  6
CONTINUOUS
 70
0
 71
3
 72
19
 73
15
 74
0
 42
0.0000001
 43
0.0000001
 44
0.0000000001
 40
0.0
 40
0.0
 40
0.0
 40
0.0
 40
0.1921796393
 40
0.3763677526
 40
0.546037227
 40
0.6953100726
 40
0.7606312182
 40
0.8189574771
 40
0.8698008769
 40
0.9127175953
 40
0.9473603179
 40
0.9734756973
 40
0.9909322945
 40
1.0
 40
1.0
 40
1.0
 40
1.0
 10
-81.7025692003
 20
43.3354659698
 30
0.0
 10
-81.6997748651
 20
43.3972845873
 30
0.0
 10
-81.6947027977
 20
43.5183698274
 30
0.0
 10
-81.688795127
 20
43.6940969545
 30
0.0
 10
-81.6850312505
 20
43.8560637003
 30
0.0
 10
-81.6837912846
 20
43.9797971971
 30
0.0
 10
-81.6841807419
 20
44.0676762539
 30
0.0
 10
-81.6850782971
 20
44.1238609159
 30
0.0
 10
-81.6865724176
 20
44.1727988006
 30
0.0
 10
-81.6886102066
 20
44.2141356543
 30
0.0
 10
-81.69120107
 20
44.2473219526
 30
0.0
 10
-81.6940970254
 20
44.2725979879
 30
0.0
 10
-81.697519812
 20
44.2887313827
 30
0.0
 10
-81.7002892224
 20
44.2975379706
 30
0.0
 10
-81.7025692003
 20
44.2993619529
 30
0.0
  0
SPLINE
  5
342
100
AcDbEntity
  8
0
100
AcDbSpline
 62
7
  6
CONTINUOUS
 70
0
 71
3
 72
19
 73
15
 74
0
 42
0.0000001
 43
0.0000001
 44
0.0000000001
 40
0.0
 40
0.0
 40
0.0
 40
0.0
 40
0.0090677233
 40
0.0265243552
 40
0.0526397743
 40
0.0872825456
 40
0.1301992449
 40
0.1810426061
 40
0.2393688239
 40
0.3046899335
 40
0.4539626353
 40
0.6236319372
 40
0.8078201905
 40
1.0
 40
1.0
 40
1.0
 40
1.0
 10
-81.7025692003
 20
-44.2993619529
 30
0.0
 10
-81.7002892179
 20
-44.297537967
 30
0.0
 10
-81.6975198146
 20
-44.2887313551
 30
0.0
 10
-81.6940970182
 20
-44.2725979358
 30
0.0
 10
-81.6912010591
 20
-44.247321859
 30
0.0
 10
-81.6886102027
 20
-44.2141355385
 30
0.0
 10
-81.6865724094
 20
-44.1727986879
 30
0.0
 10
-81.6850782946
 20
-44.1238608349
 30
0.0
 10
-81.684180742
 20
-44.0676762103
 30
0.0
 10
-81.6837912855
 20
-43.9797972248
 30
0.0
 10
-81.6850312464
 20
-43.8560638416
 30
0.0
 10
-81.6887951228
 20
-43.6940971529
 30
0.0
 10
-81.6947027924
 20
-43.5183699817
 30
0.0
 10
-81.6997748626
 20
-43.397284642
 30
0.0
 10
-81.7025692003
 20
-43.3354659698
 30
0.0
  0
SPLINE
  5
343
100
AcDbEntity
  8
0
100
AcDbSpline
 62
7
  6
CONTINUOUS
 70
0
 71
3
 72
9
 73
5
 74
0
 42
0.0000001
 43
0.0000001
 44
0.0000000001
 40
0.0
 40
0.0
 40
0.0
 40
0.0
 40
0.2171221839
 40
1.0
 40
1.0
 40
1.0
 40
1.0
 10
-77.2033667591
 20
26.0463167932
 30
0.0
 10
-77.2033667591
 20
26.0430886892
 30
0.0
 10
-77.2048460493
 20
26.0282099128
 30
0.0
 10
-77.2108783068
 20
26.0142392822
 30
0.0
 10
-77.2160763225
 20
26.0038248474
 30
0.0
  0
SPLINE
  5
344
100
AcDbEntity
  8
0
100
AcDbSpline
 62
7
  6
CONTINUOUS
 70
0
 71
3
 72
9
 73
5
 74
0
 42
0.0000001
 43
0.0000001
 44
0.0000000001
 40
0.0
 40
0.0
 40
0.0
 40
0.0
 40
0.2349004574
 40
1.0
 40
1.0
 40
1.0
 40
1.0
 10
-77.2160763225
 20
26.0038248474
 30
0.0
 10
-77.2171670916
 20
26.0016394475
 30
0.0
 10
-77.2219505441
 20
25.9924055579
 30
0.0
 10
-77.2271608657
 20
25.9834003617
 30
0.0
 10
-77.2312256742
 20
25.9765617175
 30
0.0
  0
SPLINE
  5
345
100
AcDbEntity
  8
ASSI
100
AcDbSpline
 62
250
  6
CONTINUOUS
 70
0
 71
3
 72
17
 73
13
 74
0
 42
0.0000001
 43
0.0000001
 44
0.0000000001
 40
0.0
 40
0.0
 40
0.0
 40
0.0
 40
0.0041509426
 40
0.0165131528
 40
0.0370394731
 40
0.0656738303
 40
0.147033967
 40
0.259883893
 40
0.4031301725
 40
0.5755840394
 40
0.7753335906
 40
1.0
 40
1.0
 40
1.0
 40
1.0
 10
-77.7533175269
 20
-26.3415638603
 30
0.0
 10
-77.7531959494
 20
-26.341563153
 30
0.0
 10
-77.7534130699
 20
-26.3407901078
 30
0.0
 10
-77.7531593274
 20
-26.3399838662
 30
0.0
 10
-77.7532665497
 20
-26.3380251079
 30
0.0
 10
-77.7531594268
 20
-26.3342971317
 30
0.0
 10
-77.7531974928
 20
-26.3277000543
 30
0.0
 10
-77.7531630536
 20
-26.3178494928
 30
0.0
 10
-77.7531844255
 20
-26.3052846155
 30
0.0
 10
-77.7532088954
 20
-26.2901918491
 30
0.0
 10
-77.7532558483
 20
-26.2727082659
 30
0.0
 10
-77.7532951015
 20
-26.2602777389
 30
0.0
 10
-77.7533175269
 20
-26.2536973817
 30
0.0
  0
SPLINE
  5
346
100
AcDbEntity
  8
ASSI
100
AcDbSpline
 62
250
  6
CONTINUOUS
 70
0
 71
3
 72
17
 73
13
 74
0
 42
0.0000001
 43
0.0000001
 44
0.0000000001
 40
0.0
 40
0.0
 40
0.0
 40
0.0
 40
0.2246664094
 40
0.4244159606
 40
0.5968698275
 40
0.740116107
 40
0.852966033
 40
0.9343261697
 40
0.9629605269
 40
0.9834868471
 40
0.9958490574
 40
1.0
 40
1.0
 40
1.0
 40
1.0
 10
-77.7533175269
 20
26.2536973817
 30
0.0
 10
-77.7532951015
 20
26.2602777389
 30
0.0
 10
-77.7532558483
 20
26.2727082659
 30
0.0
 10
-77.7532088954
 20
26.2901918491
 30
0.0
 10
-77.7531844255
 20
26.3052846155
 30
0.0
 10
-77.7531630536
 20
26.3178494928
 30
0.0
 10
-77.7531974928
 20
26.3277000543
 30
0.0
 10
-77.7531594268
 20
26.3342971317
 30
0.0
 10
-77.7532665497
 20
26.3380251079
 30
0.0
 10
-77.7531593274
 20
26.3399838662
 30
0.0
 10
-77.7534130699
 20
26.3407901078
 30
0.0
 10
-77.7531959494
 20
26.341563153
 30
0.0
 10
-77.7533175269
 20
26.3415638603
 30
0.0
  0
SPLINE
  5
347
100
AcDbEntity
  8
ASSI
100
AcDbSpline
 62
250
  6
CONTINUOUS
 70
0
 71
3
 72
9
 73
5
 74
0
 42
0.0000001
 43
0.0000001
 44
0.0000000001
 40
0.0
 40
0.0
 40
0.0
 40
0.0
 40
0.4669075321
 40
1.0
 40
1.0
 40
1.0
 40
1.0
 10
-77.6144055979
 20
26.3065510847
 30
0.0
 10
-77.6214123616
 20
26.3102703998
 30
0.0
 10
-77.6384500063
 20
26.3146638399
 30
0.0
 10
-77.6556009962
 20
26.3122032386
 30
0.0
 10
-77.6643508883
 20
26.3098639668
 30
0.0
  0
SPLINE
  5
348
100
AcDbEntity
  8
ASSI
100
AcDbSpline
 62
250
  6
CONTINUOUS
 70
0
 71
3
 72
9
 73
5
 74
0
 42
0.0000001
 43
0.0000001
 44
0.0000000001
 40
0.0
 40
0.0
 40
0.0
 40
0.0
 40
0.2246249608
 40
1.0
 40
1.0
 40
1.0
 40
1.0
 10
-77.6643508883
 20
26.3098639668
 30
0.0
 10
-77.668316806
 20
26.3088036841
 30
0.0
 10
-77.6857050309
 20
26.3030771563
 30
0.0
 10
-77.7018239154
 20
26.2939675656
 30
0.0
 10
-77.7135572877
 20
26.2860218624
 30
0.0
  0
SPLINE
  5
349
100
AcDbEntity
  8
ASSI
100
AcDbSpline
 62
250
  6
CONTINUOUS
 70
0
 71
3
 72
9
 73
5
 74
0
 42
0.0000001
 43
0.0000001
 44
0.0000000001
 40
0.0
 40
0.0
 40
0.0
 40
0.0
 40
0.2353089172
 40
1.0
 40
1.0
 40
1.0
 40
1.0
 10
-77.7135572877
 20
26.2860218624
 30
0.0
 10
-77.7168873438
 20
26.2837667871
 30
0.0
 10
-77.7308035126
 20
26.2738360852
 30
0.0
 10
-77.7438193671
 20
26.2626752142
 30
0.0
 10
-77.7533175269
 20
26.2536973817
 30
0.0
  0
SPLINE
  5
34A
100
AcDbEntity
  8
ASSI
100
AcDbSpline
 62
250
  6
CONTINUOUS
 70
0
 71
3
 72
9
 73
5
 74
0
 42
0.0000001
 43
0.0000001
 44
0.0000000001
 40
0.0
 40
0.0
 40
0.0
 40
0.0
 40
0.4668799884
 40
1.0
 40
1.0
 40
1.0
 40
1.0
 10
-77.6144055979
 20
-26.3065510847
 30
0.0
 10
-77.6214155139
 20
-26.3102720731
 30
0.0
 10
-77.638462775
 20
-26.314666057
 30
0.0
 10
-77.6556220248
 20
-26.3121998209
 30
0.0
 10
-77.6643762621
 20
-26.309857144
 30
0.0
  0
SPLINE
  5
34B
100
AcDbEntity
  8
ASSI
100
AcDbSpline
 62
250
  6
CONTINUOUS
 70
0
 71
3
 72
9
 73
5
 74
0
 42
0.0000001
 43
0.0000001
 44
0.0000000001
 40
0.0
 40
0.0
 40
0.0
 40
0.0
 40
0.2245849367
 40
1.0
 40
1.0
 40
1.0
 40
1.0
 10
-77.6643762621
 20
-26.309857144
 30
0.0
 10
-77.6683505904
 20
-26.3087935942
 30
0.0
 10
-77.6857780867
 20
-26.3030476433
 30
0.0
 10
-77.7019299881
 20
-26.293906482
 30
0.0
 10
-77.7136866861
 20
-26.285934192
 30
0.0
  0
SPLINE
  5
34C
100
AcDbEntity
  8
ASSI
100
AcDbSpline
 62
250
  6
CONTINUOUS
 70
0
 71
3
 72
9
 73
5
 74
0
 42
0.0000001
 43
0.0000001
 44
0.0000000001
 40
0.0
 40
0.0
 40
0.0
 40
0.0
 40
0.2353653196
 40
1.0
 40
1.0
 40
1.0
 40
1.0
 10
-77.7136866861
 20
-26.285934192
 30
0.0
 10
-77.7170059877
 20
-26.2836833529
 30
0.0
 10
-77.730874662
 20
-26.2737757566
 30
0.0
 10
-77.7438489735
 20
-26.2626472297
 30
0.0
 10
-77.7533175269
 20
-26.2536973817
 30
0.0
  0
SPLINE
  5
34D
100
AcDbEntity
  8
ASSI
100
AcDbSpline
 62
7
  6
CONTINUOUS
 70
0
 71
3
 72
9
 73
5
 74
0
 42
0.0000001
 43
0.0000001
 44
0.0000000001
 40
0.0
 40
0.0
 40
0.0
 40
0.0
 40
0.570136028
 40
1.0
 40
1.0
 40
1.0
 40
1.0
 10
-77.2312256742
 20
-25.9765617175
 30
0.0
 10
-77.2238762632
 20
-25.9889263852
 30
0.0
 10
-77.2112761802
 20
-26.0106368775
 30
0.0
 10
-77.2033667591
 20
-26.0354717422
 30
0.0
 10
-77.2033667591
 20
-26.0463167932
 30
0.0
  0
SPLINE
  5
34E
100
AcDbEntity
  8
ASSI
100
AcDbSpline
 62
250
  6
CONTINUOUS
 70
0
 71
3
 72
9
 73
5
 74
0
 42
0.0000001
 43
0.0000001
 44
0.0000000001
 40
0.0
 40
0.0
 40
0.0
 40
0.0
 40
0.5597674603
 40
1.0
 40
1.0
 40
1.0
 40
1.0
 10
-79.2775941754
 20
26.9276792439
 30
0.0
 10
-79.2613206393
 20
26.9562793381
 30
0.0
 10
-79.2310831265
 20
27.0066983298
 30
0.0
 10
-79.1981822912
 20
27.0555254882
 30
0.0
 10
-79.1823290616
 20
27.0759802461
 30
0.0
  0
SPLINE
  5
34F
100
AcDbEntity
  8
ASSI
100
AcDbSpline
 62
250
  6
CONTINUOUS
 70
0
 71
3
 72
10
 73
6
 74
0
 42
0.0000001
 43
0.0000001
 44
0.0000000001
 40
0.0
 40
0.0
 40
0.0
 40
0.0
 40
0.6949101909
 40
0.8907704986
 40
1.0
 40
1.0
 40
1.0
 40
1.0
 10
-79.1823290616
 20
27.0759802461
 30
0.0
 10
-79.1736450881
 20
27.0871848133
 30
0.0
 10
-79.1617012573
 20
27.1013984173
 30
0.0
 10
-79.1464016707
 20
27.1142618418
 30
0.0
 10
-79.1394267566
 20
27.1160640936
 30
0.0
 10
-79.1374605255
 20
27.1150157961
 30
0.0
  0
SPLINE
  5
350
100
AcDbEntity
  8
ASSI
100
AcDbSpline
 62
250
  6
CONTINUOUS
 70
0
 71
3
 72
9
 73
5
 74
0
 42
0.0000001
 43
0.0000001
 44
0.0000000001
 40
0.0
 40
0.0
 40
0.0
 40
0.0
 40
0.5591441552
 40
1.0
 40
1.0
 40
1.0
 40
1.0
 10
-79.2775941754
 20
-26.9276792439
 30
0.0
 10
-79.2614129031
 20
-26.9561298339
 30
0.0
 10
-79.2313434341
 20
-27.0063608119
 30
0.0
 10
-79.1985917272
 20
-27.0549860508
 30
0.0
 10
-79.1828128948
 20
-27.0754062062
 30
0.0
  0
SPLINE
  5
351
100
AcDbEntity
  8
ASSI
100
AcDbSpline
 62
250
  6
CONTINUOUS
 70
0
 71
3
 72
10
 73
6
 74
0
 42
0.0000001
 43
0.0000001
 44
0.0000000001
 40
0.0
 40
0.0
 40
0.0
 40
0.0
 40
0.6950436406
 40
0.8909227457
 40
1.0
 40
1.0
 40
1.0
 40
1.0
 10
-79.1828128948
 20
-27.0754062062
 30
0.0
 10
-79.1740359632
 20
-27.0867648607
 30
0.0
 10
-79.1619819458
 20
-27.1011923555
 30
0.0
 10
-79.1465018775
 20
-27.1142291064
 30
0.0
 10
-79.1394524398
 20
-27.1160680037
 30
0.0
 10
-79.1374605255
 20
-27.1150157961
 30
0.0
  0
SPLINE
  5
352
100
AcDbEntity
  8
ASSI
100
AcDbSpline
 62
7
  6
CONTINUOUS
 70
0
 71
3
 72
9
 73
5
 74
0
 42
0.0000001
 43
0.0000001
 44
0.0000000001
 40
0.0
 40
0.0
 40
0.0
 40
0.0
 40
0.2171221841
 40
1.0
 40
1.0
 40
1.0
 40
1.0
 10
-77.2033667591
 20
26.0463167932
 30
0.0
 10
-77.2033667591
 20
26.0430886893
 30
0.0
 10
-77.2048460493
 20
26.0282099129
 30
0.0
 10
-77.2108783067
 20
26.0142392823
 30
0.0
 10
-77.2160763224
 20
26.0038248477
 30
0.0
  0
SPLINE
  5
353
100
AcDbEntity
  8
ASSI
100
AcDbSpline
 62
7
  6
CONTINUOUS
 70
0
 71
3
 72
9
 73
5
 74
0
 42
0.0000001
 43
0.0000001
 44
0.0000000001
 40
0.0
 40
0.0
 40
0.0
 40
0.0
 40
0.2349004573
 40
1.0
 40
1.0
 40
1.0
 40
1.0
 10
-77.2160763224
 20
26.0038248477
 30
0.0
 10
-77.2171670914
 20
26.0016394478
 30
0.0
 10
-77.221950544
 20
25.992405558
 30
0.0
 10
-77.2271608656
 20
25.9834003618
 30
0.0
 10
-77.2312256742
 20
25.9765617175
 30
0.0
  0
SPLINE
  5
354
100
AcDbEntity
  8
ASSI
100
AcDbSpline
 62
7
  6
CONTINUOUS
 70
0
 71
3
 72
19
 73
15
 74
0
 42
0.0000001
 43
0.0000001
 44
0.0000000001
 40
0.0
 40
0.0
 40
0.0
 40
0.0
 40
0.1921796393
 40
0.3763677526
 40
0.546037227
 40
0.6953100726
 40
0.7606312182
 40
0.8189574771
 40
0.8698008769
 40
0.9127175953
 40
0.9473603179
 40
0.9734756973
 40
0.9909322945
 40
1.0
 40
1.0
 40
1.0
 40
1.0
 10
-81.7025692003
 20
43.3354659698
 30
0.0
 10
-81.6997748651
 20
43.3972845873
 30
0.0
 10
-81.6947027977
 20
43.5183698273
 30
0.0
 10
-81.688795127
 20
43.6940969545
 30
0.0
 10
-81.6850312505
 20
43.8560637003
 30
0.0
 10
-81.6837912846
 20
43.9797971971
 30
0.0
 10
-81.6841807419
 20
44.0676762539
 30
0.0
 10
-81.6850782971
 20
44.1238609159
 30
0.0
 10
-81.6865724176
 20
44.1727988006
 30
0.0
 10
-81.6886102066
 20
44.2141356543
 30
0.0
 10
-81.69120107
 20
44.2473219526
 30
0.0
 10
-81.6940970254
 20
44.2725979879
 30
0.0
 10
-81.697519812
 20
44.2887313827
 30
0.0
 10
-81.7002892224
 20
44.2975379706
 30
0.0
 10
-81.7025692003
 20
44.2993619529
 30
0.0
  0
SPLINE
  5
355
100
AcDbEntity
  8
ASSI
100
AcDbSpline
 62
7
  6
CONTINUOUS
 70
0
 71
3
 72
19
 73
15
 74
0
 42
0.0000001
 43
0.0000001
 44
0.0000000001
 40
0.0
 40
0.0
 40
0.0
 40
0.0
 40
0.0090677233
 40
0.0265243552
 40
0.0526397743
 40
0.0872825456
 40
0.1301992449
 40
0.1810426061
 40
0.2393688239
 40
0.3046899335
 40
0.4539626353
 40
0.6236319372
 40
0.8078201905
 40
1.0
 40
1.0
 40
1.0
 40
1.0
 10
-81.7025692003
 20
-44.2993619529
 30
0.0
 10
-81.7002892179
 20
-44.297537967
 30
0.0
 10
-81.6975198146
 20
-44.2887313551
 30
0.0
 10
-81.6940970182
 20
-44.2725979358
 30
0.0
 10
-81.6912010591
 20
-44.247321859
 30
0.0
 10
-81.6886102027
 20
-44.2141355385
 30
0.0
 10
-81.6865724094
 20
-44.1727986879
 30
0.0
 10
-81.6850782946
 20
-44.1238608349
 30
0.0
 10
-81.684180742
 20
-44.0676762103
 30
0.0
 10
-81.6837912855
 20
-43.9797972248
 30
0.0
 10
-81.6850312464
 20
-43.8560638416
 30
0.0
 10
-81.6887951228
 20
-43.6940971529
 30
0.0
 10
-81.6947027924
 20
-43.5183699817
 30
0.0
 10
-81.6997748626
 20
-43.397284642
 30
0.0
 10
-81.7025692003
 20
-43.3354659698
 30
0.0
  0
SPLINE
  5
356
100
AcDbEntity
  8
0
100
AcDbSpline
 62
250
  6
CONTINUOUS
 70
0
 71
3
 72
10
 73
6
 74
0
 42
0.0000001
 43
0.0000001
 44
0.0000000001
 40
0.0
 40
0.0
 40
0.0
 40
0.0
 40
0.3333333333
 40
0.6666666667
 40
1.0
 40
1.0
 40
1.0
 40
1.0
 10
-82.6990399794
 20
-30.6349473604
 30
0.0
 10
-82.6400119569
 20
-30.6188656796
 30
0.0
 10
-82.5230933436
 20
-30.5878597758
 30
0.0
 10
-82.3516388094
 20
-30.5433004307
 30
0.0
 10
-82.2399064547
 20
-30.5143333764
 30
0.0
 10
-82.1848730131
 20
-30.4993864496
 30
0.0
  0
SPLINE
  5
357
100
AcDbEntity
  8
0
100
AcDbSpline
 62
250
  6
CONTINUOUS
 70
0
 71
3
 72
16
 73
12
 74
0
 42
0.0000001
 43
0.0000001
 44
0.0000000001
 40
0.0
 40
0.0
 40
0.0
 40
0.0
 40
0.1111111111
 40
0.2222222222
 40
0.3333333333
 40
0.4444444444
 40
0.5555555556
 40
0.6666666667
 40
0.7777777778
 40
0.8888888889
 40
1.0
 40
1.0
 40
1.0
 40
1.0
 10
-83.0717041349
 20
-30.8635473914
 30
0.0
 10
-83.0657037347
 20
-30.8484993657
 30
0.0
 10
-83.050540058
 20
-30.8203425236
 30
0.0
 10
-83.0189083394
 20
-30.7825945712
 30
0.0
 10
-82.9821315904
 20
-30.7510786822
 30
0.0
 10
-82.9417584226
 20
-30.7244248151
 30
0.0
 10
-82.900032754
 20
-30.7023277412
 30
0.0
 10
-82.8559756994
 20
-30.6830969154
 30
0.0
 10
-82.8087963807
 20
-30.6659690903
 30
0.0
 10
-82.7572794257
 20
-30.6505188991
 30
0.0
 10
-82.7189695677
 20
-30.6403770068
 30
0.0
 10
-82.6990399793
 20
-30.6349473606
 30
0.0
  0
SPLINE
  5
358
100
AcDbEntity
  8
0
100
AcDbSpline
 62
250
  6
CONTINUOUS
 70
0
 71
3
 72
32
 73
28
 74
0
 42
0.0000001
 43
0.0000001
 44
0.0000000001
 40
0.0
 40
0.0
 40
0.0
 40
0.0
 40
0.0555555556
 40
0.1111111111
 40
0.1388888889
 40
0.1666666667
 40
0.1944444444
 40
0.2222222222
 40
0.25
 40
0.2777777778
 40
0.3333333333
 40
0.3888888889
 40
0.4444444444
 40
0.5
 40
0.5555555556
 40
0.6111111111
 40
0.6666666667
 40
0.7222222222
 40
0.7777777778
 40
0.8055555556
 40
0.8333333333
 40
0.8611111111
 40
0.8888888889
 40
0.9166666667
 40
0.9444444444
 40
0.9722222222
 40
1.0
 40
1.0
 40
1.0
 40
1.0
 10
-84.0425197938
 20
-30.9044355375
 30
0.0
 10
-84.0327394915
 20
-30.8773247779
 30
0.0
 10
-84.0048606408
 20
-30.8240490197
 30
0.0
 10
-83.9482639609
 20
-30.754100863
 30
0.0
 10
-83.8933546613
 20
-30.7058047132
 30
0.0
 10
-83.8479232957
 20
-30.6739002494
 30
0.0
 10
-83.799202229
 20
-30.6470755408
 30
0.0
 10
-83.7487500969
 20
-30.6261836127
 30
0.0
 10
-83.6997342294
 20
-30.6115415487
 30
0.0
 10
-83.6355085436
 20
-30.5986617626
 30
0.0
 10
-83.5611949419
 20
-30.5929744031
 30
0.0
 10
-83.4817269779
 20
-30.5969128401
 30
0.0
 10
-83.4111744146
 20
-30.609553884
 30
0.0
 10
-83.3497776942
 20
-30.6284730864
 30
0.0
 10
-83.296551238
 20
-30.6516764555
 30
0.0
 10
-83.2508824646
 20
-30.6775881851
 30
0.0
 10
-83.2122313641
 20
-30.7050560438
 30
0.0
 10
-83.1798960287
 20
-30.7334592526
 30
0.0
 10
-83.1572292118
 20
-30.7567274859
 30
0.0
 10
-83.1409741238
 20
-30.7747079551
 30
0.0
 10
-83.1295665692
 20
-30.787854053
 30
0.0
 10
-83.1189429116
 20
-30.800520618
 30
0.0
 10
-83.10882098
 20
-30.8127634199
 30
0.0
 10
-83.0992354743
 20
-30.8252577393
 30
0.0
 10
-83.0913076716
 20
-30.8378294656
 30
0.0
 10
-83.085593679
 20
-30.8504975624
 30
0.0
 10
-83.0834940502
 20
-30.8591803942
 30
0.0
 10
-83.0829305667
 20
-30.8635473914
 30
0.0
  0
SPLINE
  5
359
100
AcDbEntity
  8
0
100
AcDbSpline
 62
250
  6
CONTINUOUS
 70
0
 71
3
 72
15
 73
11
 74
0
 42
0.0000001
 43
0.0000001
 44
0.0000000001
 40
0.0
 40
0.0
 40
0.0
 40
0.0
 40
0.125
 40
0.25
 40
0.375
 40
0.5
 40
0.625
 40
0.75
 40
0.875
 40
1.0
 40
1.0
 40
1.0
 40
1.0
 10
-84.0625222179
 20
-31.8831153973
 30
0.0
 10
-84.0697596319
 20
-31.8339204526
 30
0.0
 10
-84.0831487887
 20
-31.7389883992
 30
0.0
 10
-84.0982193671
 20
-31.6081590393
 30
0.0
 10
-84.107934448
 20
-31.4844779825
 30
0.0
 10
-84.1117206532
 20
-31.3655791421
 30
0.0
 10
-84.1087140069
 20
-31.2482548755
 30
0.0
 10
-84.0975868853
 20
-31.1318743671
 30
0.0
 10
-84.0768343052
 20
-31.0168271191
 30
0.0
 10
-84.0558851831
 20
-30.9414303765
 30
0.0
 10
-84.0425197938
 20
-30.9044355375
 30
0.0
  0
SPLINE
  5
35A
100
AcDbEntity
  8
0
100
AcDbSpline
 62
250
  6
CONTINUOUS
 70
0
 71
3
 72
12
 73
8
 74
0
 42
0.0000001
 43
0.0000001
 44
0.0000000001
 40
0.0
 40
0.0
 40
0.0
 40
0.0
 40
0.3333333333
 40
0.5
 40
0.6666666667
 40
0.8333333333
 40
1.0
 40
1.0
 40
1.0
 40
1.0
 10
-83.7722460427
 20
-31.1906198897
 30
0.0
 10
-83.7762002167
 20
-31.2246892767
 30
0.0
 10
-83.7795078721
 20
-31.2760065759
 30
0.0
 10
-83.7787547472
 20
-31.3445750143
 30
0.0
 10
-83.775606672
 20
-31.396256602
 30
0.0
 10
-83.7696305112
 20
-31.4485731218
 30
0.0
 10
-83.7640754613
 20
-31.4836233708
 30
0.0
 10
-83.7610611824
 20
-31.5012884969
 30
0.0
  0
SPLINE
  5
35B
100
AcDbEntity
  8
0
100
AcDbSpline
 62
250
  6
CONTINUOUS
 70
0
 71
3
 72
19
 73
15
 74
0
 42
0.0000001
 43
0.0000001
 44
0.0000000001
 40
0.0
 40
0.0
 40
0.0
 40
0.0
 40
0.1
 40
0.2
 40
0.25
 40
0.3
 40
0.4
 40
0.5
 40
0.6
 40
0.7
 40
0.75
 40
0.8
 40
0.9
 40
1.0
 40
1.0
 40
1.0
 40
1.0
 10
-83.5346474058
 20
-30.9665924606
 30
0.0
 10
-83.5461336691
 20
-30.9667667561
 30
0.0
 10
-83.5683928544
 20
-30.9688104285
 30
0.0
 10
-83.5961316769
 20
-30.9752810178
 30
0.0
 10
-83.6177979252
 20
-30.9827568115
 30
0.0
 10
-83.6391391792
 20
-30.9918082983
 30
0.0
 10
-83.6645858894
 20
-31.0058768426
 30
0.0
 10
-83.6931367002
 20
-31.0277064515
 30
0.0
 10
-83.7178785333
 20
-31.0542446247
 30
0.0
 10
-83.7348108911
 20
-31.079241453
 30
0.0
 10
-83.7463301944
 20
-31.1009209819
 30
0.0
 10
-83.7563361609
 20
-31.1233856822
 30
0.0
 10
-83.7660833173
 20
-31.1530188564
 30
0.0
 10
-83.7707436286
 20
-31.1776750043
 30
0.0
 10
-83.7722460428
 20
-31.1906198896
 30
0.0
  0
SPLINE
  5
35C
100
AcDbEntity
  8
0
100
AcDbSpline
 62
250
  6
CONTINUOUS
 70
0
 71
3
 72
15
 73
11
 74
0
 42
0.0000001
 43
0.0000001
 44
0.0000000001
 40
0.0
 40
0.0
 40
0.0
 40
0.0
 40
0.1666666667
 40
0.3333333333
 40
0.5
 40
0.5833333333
 40
0.6666666667
 40
0.75
 40
0.8333333333
 40
1.0
 40
1.0
 40
1.0
 40
1.0
 10
-83.2395164949
 20
-31.2746513441
 30
0.0
 10
-83.2402183699
 20
-31.2432274748
 30
0.0
 10
-83.246223957
 20
-31.1849989174
 30
0.0
 10
-83.2675980964
 20
-31.1133259321
 30
0.0
 10
-83.298649963
 20
-31.0621108135
 30
0.0
 10
-83.3351729641
 20
-31.0282471143
 30
0.0
 10
-83.3675278862
 20
-31.0068258912
 30
0.0
 10
-83.4032943331
 20
-30.9898189394
 30
0.0
 10
-83.4564897937
 20
-30.9724766945
 30
0.0
 10
-83.5018673712
 20
-30.9660920116
 30
0.0
 10
-83.5346995546
 20
-30.9665932672
 30
0.0
  0
SPLINE
  5
35D
100
AcDbEntity
  8
0
100
AcDbSpline
 62
250
  6
CONTINUOUS
 70
0
 71
3
 72
16
 73
12
 74
0
 42
0.0000001
 43
0.0000001
 44
0.0000000001
 40
0.0
 40
0.0
 40
0.0
 40
0.0
 40
0.125
 40
0.25
 40
0.3125
 40
0.375
 40
0.5
 40
0.625
 40
0.75
 40
0.875
 40
1.0
 40
1.0
 40
1.0
 40
1.0
 10
-82.761167746
 20
-31.0543291296
 30
0.0
 10
-82.7739089476
 20
-31.0591210245
 30
0.0
 10
-82.7976214851
 20
-31.0699214029
 30
0.0
 10
-82.825241273
 20
-31.0869314182
 30
0.0
 10
-82.8454641114
 20
-31.1023489658
 30
0.0
 10
-82.8644656156
 20
-31.1190375776
 30
0.0
 10
-82.8853026701
 20
-31.1418325596
 30
0.0
 10
-82.9053786669
 20
-31.1727381889
 30
0.0
 10
-82.9190345908
 20
-31.206388094
 30
0.0
 10
-82.926676516
 20
-31.2407288293
 30
0.0
 10
-82.9283676757
 20
-31.2635934255
 30
0.0
 10
-82.9283676757
 20
-31.2755061485
 30
0.0
  0
SPLINE
  5
35E
100
AcDbEntity
  8
0
100
AcDbSpline
 62
250
  6
CONTINUOUS
 70
0
 71
3
 72
12
 73
8
 74
0
 42
0.0000001
 43
0.0000001
 44
0.0000000001
 40
0.0
 40
0.0
 40
0.0
 40
0.0
 40
0.1666666667
 40
0.3333333333
 40
0.5
 40
0.6666666667
 40
1.0
 40
1.0
 40
1.0
 40
1.0
 10
-82.1848730131
 20
-30.8808429347
 30
0.0
 10
-82.219721062
 20
-30.8908618887
 30
0.0
 10
-82.2884299689
 20
-30.9109789446
 30
0.0
 10
-82.3886995556
 20
-30.9405342769
 30
0.0
 10
-82.4865470815
 20
-30.9684251093
 30
0.0
 10
-82.6134814848
 20
-31.0042254755
 30
0.0
 10
-82.703796997
 20
-31.0327691968
 30
0.0
 10
-82.7611278852
 20
-31.0543141626
 30
0.0
  0
ELLIPSE
  5
35F
100
AcDbEntity
  8
0
100
AcDbEllipse
 62
7
  6
CONTINUOUS
 10
-77.4033667591
 20
-26.079798695
 30
0.0
 11
0.1417119467
 21
0.1422961243
 31
0.0
 40
0.9918061237
 41
-0.2491986107
 42
0.7350951877
  0
ELLIPSE
  5
360
100
AcDbEntity
  8
0
100
AcDbEllipse
 62
7
  6
CONTINUOUS
 10
-77.4033667591
 20
26.079798695
 30
0.0
 11
-0.1417119467
 21
0.1422961243
 31
0.0
 40
0.9918061237
 41
-3.8766878413
 42
-2.8923940429
  0
ELLIPSE
  5
361
100
AcDbEntity
  8
0
100
AcDbEllipse
 62
7
  6
CONTINUOUS
 10
-80.4252902127
 20
43.2775387629
 30
0.0
 11
1.2772653435
 21
-0.0582277698
 31
0.0
 40
0.7819142031
 41
-3.1412917057
 42
-3.1059619589
  0
ELLIPSE
  5
362
100
AcDbEntity
  8
0
100
AcDbEllipse
 62
7
  6
CONTINUOUS
 10
-80.4252902127
 20
-43.2775387629
 30
0.0
 11
1.2772653435
 21
0.0582277698
 31
0.0
 40
0.7819142031
 41
3.1059619589
 42
3.1412917057
  0
ELLIPSE
  5
363
100
AcDbEntity
  8
ASSI
100
AcDbEllipse
 62
7
  6
CONTINUOUS
 10
-77.4033667591
 20
-26.079798695
 30
0.0
 11
0.1417119467
 21
0.1422961243
 31
0.0
 40
0.9918061237
 41
-0.2491986107
 42
0.7350951877
  0
ELLIPSE
  5
364
100
AcDbEntity
  8
ASSI
100
AcDbEllipse
 62
7
  6
CONTINUOUS
 10
-77.4033667591
 20
26.079798695
 30
0.0
 11
-0.1417119467
 21
0.1422961243
 31
0.0
 40
0.9918061237
 41
-3.8766878413
 42
-2.8923940429
  0
ELLIPSE
  5
365
100
AcDbEntity
  8
ASSI
100
AcDbEllipse
 62
7
  6
CONTINUOUS
 10
-80.4252902127
 20
43.2775387629
 30
0.0
 11
1.2772653435
 21
-0.0582277698
 31
0.0
 40
0.7819142031
 41
-3.1412917057
 42
-3.1059619589
  0
ELLIPSE
  5
366
100
AcDbEntity
  8
ASSI
100
AcDbEllipse
 62
7
  6
CONTINUOUS
 10
-80.4252902127
 20
-43.2775387629
 30
0.0
 11
1.2772653435
 21
0.0582277698
 31
0.0
 40
0.7819142031
 41
3.1059619589
 42
3.1412917057
  0
ENDSEC
  0
SECTION
  2
OBJECTS
  0
DICTIONARY
  5
C
100
AcDbDictionary
280
0
281
1
  3
ACAD_GROUP
350
D
  3
ACAD_MLINESTYLE
350
17
  3
ACAD_LAYOUT
350
1A
  3
ACAD_PLOTSETTINGS
350
19
  3
ACAD_PLOTSTYLENAME
350
E
  0
DICTIONARY
  5
D
102
{ACAD_REACTORS
330
C
102
}
100
AcDbDictionary
280
0
281
1
  0
ACDBDICTIONARYWDFLT
  5
E
102
{ACAD_REACTORS
330
C
102
}
100
AcDbDictionary
281
1
  3
Normal
350
F
100
AcDbDictionaryWithDefault
340
F
  0
DICTIONARY
  5
17
102
{ACAD_REACTORS
330
C
102
}
100
AcDbDictionary
280
0
281
1
  3
Standard
350
18
  0
DICTIONARY
  5
19
102
{ACAD_REACTORS
330
C
102
}
100
AcDbDictionary
281
1
  0
DICTIONARY
  5
1A
102
{ACAD_REACTORS
330
C
102
}
100
AcDbDictionary
281
1
  3
Model
350
367
  3
Layout1
350
368
  0
ACDBPLACEHOLDER
  5
F
102
{ACAD_REACTORS
330
E
102
}
  0
MLINESTYLE
  5
18
102
{ACAD_REACTORS
330
17
102
}
100
AcDbMlineStyle
  2
STANDARD
 70
0
  3

 62
256
 51
90.0
 52
90.0
 71
2
 49
0.5
 62
256
  6
BYLAYER
 49
-0.5
 62
256
  6
BYLAYER
  0
LAYOUT
  5
367
102
{ACAD_REACTORS
330
1A
102
}
100
AcDbPlotSettings
  1

  2
none_device
  4
ISO_A4_(297.00_x_210.00_MM)
  6

 40
0.0
 41
0.0
 42
0.0
 43
0.0
 44
297.0
 45
210.0
 46
0.0
 47
0.0
 48
0.0
 49
0.0
140
0.0
141
0.0
142
1.0
143
1.0
 70
1024
 72
1
 73
0
 74
0
  7

 75
0
147
1.0
148
0.0
149
0.0
100
AcDbLayout
  1
Model
 70
0
 71
0
 10
0.0
 20
0.0
 11
297.0
 21
210.0
 12
0.0
 22
0.0
 32
0.0
 14
0.0
 24
0.0
 34
0.0
 15
0.0
 25
0.0
 35
0.0
146
0.0
 13
0.0
 23
0.0
 33
0.0
 16
1.0
 26
0.0
 36
0.0
 17
0.0
 27
1.0
 37
0.0
 76
0
330
21C
345
0
346
0
  0
LAYOUT
  5
368
102
{ACAD_REACTORS
330
1A
102
}
100
AcDbPlotSettings
  1

  2
none_device
  4
ISO_A4_(297.00_x_210.00_MM)
  6

 40
0.0
 41
0.0
 42
0.0
 43
0.0
 44
297.0
 45
210.0
 46
0.0
 47
0.0
 48
0.0
 49
0.0
140
0.0
141
0.0
142
1.0
143
1.0
 70
0
 72
1
 73
0
 74
0
  7

 75
0
147
1.0
148
0.0
149
0.0
100
AcDbLayout
  1
Layout1
 70
0
 71
1
 10
0.0
 20
0.0
 11
297.0
 21
210.0
 12
0.0
 22
0.0
 32
0.0
 14
0.0
 24
0.0
 34
0.0
 15
0.0
 25
0.0
 35
0.0
146
0.0
 13
0.0
 23
0.0
 33
0.0
 16
1.0
 26
0.0
 36
0.0
 17
0.0
 27
1.0
 37
0.0
 76
0
330
21D
345
0
346
0
  0
ENDSEC
  0
EOF
