  0
SECTION
  2
HEADER
  9
$ACADVER
  1
AC1021
  9
$DWGCODEPAGE
  3
ANSI_1252
  9
$EXTMAX
 10
297.0
 20
210.0
 30
0.0
  9
$EXTMIN
 10
0.0
 20
0.0
 30
0.0
  9
$LIMMIN
 10
0.0
 20
0.0
  9
$LIMMAX
 10
297.0
 20
210.0
  9
$VIEWCTR
 10
148.5
 20
105.0
  9
$VIEWSIZE
 40
210.0
  9
$CLAYER
  8
0
  9
$LTSCALE
 40
16.335
  9
$CELTYPE
  6
BYLAYER
  9
$DIMSCALE
 40
1.0
  9
$DIMASZ
 40
3.0
  9
$DIMEXO
 40
0.5
  9
$DIMDLI
 40
11.286
  9
$DIMEXE
 40
1.5
  9
$DIMCEN
 40
2.673
  9
$DIMLFAC
 40
1.0
  9
$DIMBLK
  1
_FILLED
  9
$DIMALT
 70
0
  9
$DIMALTF
 40
25.4
  9
$DIMTXT
 40
3.0
  9
$DIMTOL
 70
1
  9
$DIMLIM
 70
0
  9
$DIMTFAC
 40
1.0
  9
$DIMTP
 40
0.01
  9
$DIMTM
 40
0.01
  9
$DIMGAP
 40
0.625
  9
$DIMDSEP
 70
44
  9
$AUNITS
 70
0
  9
$PDMODE
 70
3
  9
$PDSIZE
 40
3.0
  9
$HANDSEED
  5
4F1
  9
$TILEMODE
 70
1
  9
$MEASUREMENT
 70
1
  9
$INSUNITS
 70
4
  0
ENDSEC
  0
SECTION
  2
CLASSES
  0
CLASS
  1
ACDBDICTIONARYWDFLT
  2
AcDbDictionaryWithDefault
  3
AutoCAD 2000
 90
0
 91
1
280
0
281
0
  0
CLASS
  1
ACDBPLACEHOLDER
  2
AcDbPlaceHolder
  3
AutoCAD 2000
 90
0
 91
1
280
0
281
0
  0
CLASS
  1
LAYOUT
  2
AcDbLayout
  3
AutoCAD 2000
 90
0
 91
0
280
0
281
0
  0
ENDSEC
  0
SECTION
  2
TABLES
  0
TABLE
  2
VPORT
  5
8
100
AcDbSymbolTable
 70
2
  0
VPORT
  5
1F4
100
AcDbSymbolTableRecord
100
AcDbViewportTableRecord
  2
*ACTIVE
 70
0
 10
0.0
 20
0.0
 11
1.0
 21
1.0
 12
148.5
 22
105.0
 13
0.0
 23
0.0
 14
1.0
 24
1.0
 15
0.0
 25
0.0
 16
0.0
 26
0.0
 36
1.0
 17
0.0
 27
0.0
 37
0.0
 40
210.0
 41
1.4142857143
 42
50.0
 43
0.0
 44
0.0
 50
0.0
 51
0.0
 71
0
 72
100
 73
1
 74
1
 75
0
 76
0
 77
0
 78
0
  0
ENDTAB
  0
TABLE
  2
LTYPE
  5
5
100
AcDbSymbolTable
 70
6
  0
LTYPE
  5
14
100
AcDbSymbolTableRecord
100
AcDbLinetypeTableRecord
  2
BYBLOCK
 70
0
  3

 72
65
 73
0
 40
0.0
  0
LTYPE
  5
15
100
AcDbSymbolTableRecord
100
AcDbLinetypeTableRecord
  2
BYLAYER
 70
0
  3

 72
65
 73
0
 40
0.0
  0
LTYPE
  5
16
100
AcDbSymbolTableRecord
100
AcDbLinetypeTableRecord
  2
CONTINUOUS
 70
64
  3
Solid line
 72
65
 73
0
 40
0.0
  0
LTYPE
  5
1F5
100
AcDbSymbolTableRecord
100
AcDbLinetypeTableRecord
  2
CENTER
 70
64
  3
____ _ ____ _ ____ _ ____ _ ____ _ ____ _ ____
 72
65
 73
4
 40
0.6
 49
0.375
 74
0
 49
-0.075
 74
0
 49
0.075
 74
0
 49
-0.075
 74
0
  0
LTYPE
  5
1F6
100
AcDbSymbolTableRecord
100
AcDbLinetypeTableRecord
  2
HIDDEN
 70
64
  3
- - - - - - - - - - - - - - - - - - - -
 72
65
 73
2
 40
0.2
 49
0.1
 74
0
 49
-0.1
 74
0
  0
LTYPE
  5
1F7
100
AcDbSymbolTableRecord
100
AcDbLinetypeTableRecord
  2
PHANTOM
 70
64
  3
_____ _ _ _____ _ _ _____ _ _ _____
 72
65
 73
6
 40
0.8
 49
0.45
 74
0
 49
-0.05
 74
0
 49
0.1
 74
0
 49
-0.05
 74
0
 49
0.1
 74
0
 49
-0.05
 74
0
  0
LTYPE
  5
1F8
100
AcDbSymbolTableRecord
100
AcDbLinetypeTableRecord
  2
DOT
 70
64
  3
. . . . . . . . . . . . . . . . . . . .
 72
65
 73
2
 40
0.2
 49
0.1
 74
0
 49
-0.1
 74
0
  0
LTYPE
  5
1F9
100
AcDbSymbolTableRecord
100
AcDbLinetypeTableRecord
  2
DASHED
 70
64
  3
- - - - - - - - - - - - - - - - - - - -
 72
65
 73
2
 40
0.2
 49
0.1
 74
0
 49
-0.1
 74
0
  0
ENDTAB
  0
TABLE
  2
LAYER
  5
2
100
AcDbSymbolTable
 70
36
  0
LAYER
  5
10
100
AcDbSymbolTableRecord
100
AcDbLayerTableRecord
  2
0
 70
0
 62
7
  6
CONTINUOUS
370
-3
390
F
  0
LAYER
  5
1FA
100
AcDbSymbolTableRecord
100
AcDbLayerTableRecord
  2
DEFAULT_1
 70
0
 62
7
  6
CENTER
370
-3
390
F
  0
LAYER
  5
1FB
100
AcDbSymbolTableRecord
100
AcDbLayerTableRecord
  2
DEFAULT_2
 70
0
 62
7
  6
HIDDEN
370
-3
390
F
  0
LAYER
  5
1FC
100
AcDbSymbolTableRecord
100
AcDbLayerTableRecord
  2
DEFAULT_3
 70
0
 62
7
  6
PHANTOM
370
-3
390
F
  0
LAYER
  5
1FD
100
AcDbSymbolTableRecord
100
AcDbLayerTableRecord
  2
ASSI
 70
0
 62
7
  6
CONTINUOUS
370
-3
390
F
  0
LAYER
  5
1FE
100
AcDbSymbolTableRecord
100
AcDbLayerTableRecord
  2
COORDINATE
 70
0
 62
7
  6
CONTINUOUS
370
-3
390
F
  0
LAYER
  5
1FF
100
AcDbSymbolTableRecord
100
AcDbLayerTableRecord
  2
COORD_ORIGINE
 70
0
 62
7
  6
CONTINUOUS
370
-3
390
F
  0
LAYER
  5
200
100
AcDbSymbolTableRecord
100
AcDbLayerTableRecord
  2
COPY_PUBLISH
 70
0
 62
7
  6
CONTINUOUS
370
-3
390
F
  0
LAYER
  5
201
100
AcDbSymbolTableRecord
100
AcDbLayerTableRecord
  2
COSMETIC
 70
0
 62
7
  6
CONTINUOUS
370
-3
390
F
  0
LAYER
  5
202
100
AcDbSymbolTableRecord
100
AcDbLayerTableRecord
  2
COSMETICI
 70
0
 62
7
  6
CONTINUOUS
370
-3
390
F
  0
LAYER
  5
203
100
AcDbSymbolTableRecord
100
AcDbLayerTableRecord
  2
CURVA_TASSELLO
 70
0
 62
7
  6
CONTINUOUS
370
-3
390
F
  0
LAYER
  5
204
100
AcDbSymbolTableRecord
100
AcDbLayerTableRecord
  2
CURVE
 70
0
 62
7
  6
CONTINUOUS
370
-3
390
F
  0
LAYER
  5
205
100
AcDbSymbolTableRecord
100
AcDbLayerTableRecord
  2
DRAFT
 70
0
 62
7
  6
CONTINUOUS
370
-3
390
F
  0
LAYER
  5
206
100
AcDbSymbolTableRecord
100
AcDbLayerTableRecord
  2
IMPORT_IGES
 70
0
 62
7
  6
CONTINUOUS
370
-3
390
F
  0
LAYER
  5
207
100
AcDbSymbolTableRecord
100
AcDbLayerTableRecord
  2
INTFCLR_2
 70
0
 62
7
  6
CONTINUOUS
370
-3
390
F
  0
LAYER
  5
208
100
AcDbSymbolTableRecord
100
AcDbLayerTableRecord
  2
INTF_1
 70
0
 62
7
  6
CONTINUOUS
370
-3
390
F
  0
LAYER
  5
209
100
AcDbSymbolTableRecord
100
AcDbLayerTableRecord
  2
INTF_21
 70
0
 62
7
  6
CONTINUOUS
370
-3
390
F
  0
LAYER
  5
20A
100
AcDbSymbolTableRecord
100
AcDbLayerTableRecord
  2
INTF_7
 70
0
 62
7
  6
CONTINUOUS
370
-3
390
F
  0
LAYER
  5
20B
100
AcDbSymbolTableRecord
100
AcDbLayerTableRecord
  2
INTF_9
 70
0
 62
7
  6
CONTINUOUS
370
-3
390
F
  0
LAYER
  5
20C
100
AcDbSymbolTableRecord
100
AcDbLayerTableRecord
  2
NOTE
 70
0
 62
7
  6
CONTINUOUS
370
-3
390
F
  0
LAYER
  5
20D
100
AcDbSymbolTableRecord
100
AcDbLayerTableRecord
  2
PIANI
 70
0
 62
7
  6
CONTINUOUS
370
-3
390
F
  0
LAYER
  5
20E
100
AcDbSymbolTableRecord
100
AcDbLayerTableRecord
  2
PIANI_ORIGINE
 70
0
 62
7
  6
CONTINUOUS
370
-3
390
F
  0
LAYER
  5
20F
100
AcDbSymbolTableRecord
100
AcDbLayerTableRecord
  2
PIANI_RIFERIMENTO
 70
0
 62
7
  6
CONTINUOUS
370
-3
390
F
  0
LAYER
  5
210
100
AcDbSymbolTableRecord
100
AcDbLayerTableRecord
  2
PUNTI
 70
0
 62
7
  6
CONTINUOUS
370
-3
390
F
  0
LAYER
  5
211
100
AcDbSymbolTableRecord
100
AcDbLayerTableRecord
  2
RACCORDO
 70
0
 62
7
  6
CONTINUOUS
370
-3
390
F
  0
LAYER
  5
212
100
AcDbSymbolTableRecord
100
AcDbLayerTableRecord
  2
RGB__255__255__255__
 70
0
 62
7
  6
CONTINUOUS
370
-3
390
F
  0
LAYER
  5
213
100
AcDbSymbolTableRecord
100
AcDbLayerTableRecord
  2
RGB____0____0____0__
 70
0
 62
7
  6
CONTINUOUS
370
-3
390
F
  0
LAYER
  5
214
100
AcDbSymbolTableRecord
100
AcDbLayerTableRecord
  2
SIMBOLI
 70
0
 62
7
  6
CONTINUOUS
370
-3
390
F
  0
LAYER
  5
215
100
AcDbSymbolTableRecord
100
AcDbLayerTableRecord
  2
SMUSSO
 70
0
 62
7
  6
CONTINUOUS
370
-3
390
F
  0
LAYER
  5
216
100
AcDbSymbolTableRecord
100
AcDbLayerTableRecord
  2
SNAPLINE
 70
0
 62
7
  6
CONTINUOUS
370
-3
390
F
  0
LAYER
  5
217
100
AcDbSymbolTableRecord
100
AcDbLayerTableRecord
  2
SUPERFICI
 70
0
 62
7
  6
CONTINUOUS
370
-3
390
F
  0
LAYER
  5
218
100
AcDbSymbolTableRecord
100
AcDbLayerTableRecord
  2
TRASH
 70
0
 62
7
  6
CONTINUOUS
370
-3
390
F
  0
LAYER
  5
219
100
AcDbSymbolTableRecord
100
AcDbLayerTableRecord
  2
XSEC_DATUMS
 70
0
 62
7
  6
CONTINUOUS
370
-3
390
F
  0
ENDTAB
  0
TABLE
  2
STYLE
  5
3
100
AcDbSymbolTable
 70
1
  0
STYLE
  5
11
100
AcDbSymbolTableRecord
100
AcDbTextStyleTableRecord
  2
STANDARD
 70
0
 40
0.0
 41
0.8
 50
0.0
 71
0
 42
0.2
  3
txt
  4

  0
STYLE
  5
21A
100
AcDbSymbolTableRecord
100
AcDbTextStyleTableRecord
  2
TEXTSTYLE_1
 70
0
 40
0.0
 41
0.8
 50
0.0
 71
0
 42
0.2
  3
gdt
  4

  0
ENDTAB
  0
TABLE
  2
VIEW
  5
6
100
AcDbSymbolTable
 70
0
  0
ENDTAB
  0
TABLE
  2
UCS
  5
7
100
AcDbSymbolTable
 70
0
  0
ENDTAB
  0
TABLE
  2
APPID
  5
9
100
AcDbSymbolTable
 70
1
  0
APPID
  5
21B
100
AcDbSymbolTableRecord
100
AcDbRegAppTableRecord
  2
ACAD
 70
0
  0
ENDTAB
  0
TABLE
  2
BLOCK_RECORD
  5
1
100
AcDbSymbolTable
 70
0
  0
BLOCK_RECORD
  5
21C
100
AcDbSymbolTableRecord
100
AcDbBlockTableRecord
  2
*Model_Space
  0
BLOCK_RECORD
  5
21D
100
AcDbSymbolTableRecord
100
AcDbBlockTableRecord
  2
*Paper_Space
  0
BLOCK_RECORD
  5
21E
100
AcDbSymbolTableRecord
100
AcDbBlockTableRecord
  2
_FILLED
  0
BLOCK_RECORD
  5
21F
100
AcDbSymbolTableRecord
100
AcDbBlockTableRecord
  2
*D0
  0
BLOCK_RECORD
  5
220
100
AcDbSymbolTableRecord
100
AcDbBlockTableRecord
  2
*D1
  0
BLOCK_RECORD
  5
221
100
AcDbSymbolTableRecord
100
AcDbBlockTableRecord
  2
*D2
  0
BLOCK_RECORD
  5
222
100
AcDbSymbolTableRecord
100
AcDbBlockTableRecord
  2
*D3
  0
ENDTAB
  0
TABLE
  2
DIMSTYLE
  5
A
100
AcDbSymbolTable
 70
1
100
AcDbDimStyleTable
 71
0
  0
DIMSTYLE
105
223
100
AcDbSymbolTableRecord
100
AcDbDimStyleTableRecord
  2
STANDARD
 70
0
  3

  4

 40
1.0
 41
3.0
 42
0.5
 43
0.38
 44
1.5
 45
0.0
 46
0.0
 47
0.01
 48
0.01
140
3.0
141
0.09
142
0.0
143
25.4
144
1.0
145
0.0
146
1.0
147
0.625
 71
1.0
 72
0.0
 73
0
 74
0
 75
0
 76
0
 77
1
 78
8
 79
2
170
0
171
1
172
0
173
0
174
0
175
0
176
0
177
0
178
0
270
2
179
2
271
2
272
2
273
2
274
2
275
0
280
0
281
0
282
0
283
1
284
8
285
0
286
0
287
3
288
0
340
11
278
44
341
21E
342
21E
343
21E
344
21E
  0
DIMSTYLE
105
224
100
AcDbSymbolTableRecord
100
AcDbDimStyleTableRecord
  2
DIMSTYLE_1
 70
0
  3

  4

 40
1.0
 41
3.0
 42
0.5
 43
0.38
 44
1.5
 45
0.0
 46
0.0
 47
0.0
 48
0.0
140
3.0
141
0.09
142
0.0
143
25.4
144
1.0
145
0.0
146
1.0
147
0.75
 71
0.0
 72
0.0
 73
0
 74
0
 75
0
 76
0
 77
1
 78
8
 79
2
170
0
171
1
172
0
173
0
174
0
175
0
176
0
177
0
178
0
270
2
179
2
271
2
272
2
273
2
274
2
275
0
280
0
281
0
282
0
283
1
284
8
285
0
286
0
287
3
288
0
340
11
278
44
341
21E
342
21E
343
21E
344
21E
  0
ENDTAB
  0
ENDSEC
  0
SECTION
  2
BLOCKS
  0
BLOCK
  5
20
100
AcDbEntity
  8
0
100
AcDbBlockBegin
  2
*Model_Space
 70
0
 10
0.0
 20
0.0
 30
0.0
  3
*Model_Space
  1

  0
ENDBLK
  5
21
100
AcDbEntity
  8
0
100
AcDbBlockEnd
  0
BLOCK
  5
1C
100
AcDbEntity
  8
0
100
AcDbBlockBegin
  2
*Paper_Space
 70
0
 10
0.0
 20
0.0
 30
0.0
  3
*Paper_Space
  1

  0
ENDBLK
  5
1D
100
AcDbEntity
  8
0
100
AcDbBlockEnd
  0
BLOCK
  5
225
100
AcDbEntity
  8
0
100
AcDbBlockBegin
  2
_FILLED
 70
64
 10
0.0
 20
0.0
  3
_FILLED
  1

  0
SOLID
  5
226
100
AcDbEntity
  8
0
  6
BYBLOCK
 62
0
100
AcDbTrace
 10
0.0
 20
0.0
 11
-1.0
 21
0.3166666667
 12
-1.0
 22
-0.3166666667
 13
-1.0
 23
-0.3166666667
  0
ENDBLK
  5
227
100
AcDbEntity
  8
0
  6
BYBLOCK
 62
0
100
AcDbBlockEnd
  0
BLOCK
  5
228
100
AcDbEntity
  8
0
100
AcDbBlockBegin
 62
7
  6
CONTINUOUS
  2
*D0
 70
65
 10
0.0
 20
0.0
  3
*D0
  1

  0
LINE
  5
229
100
AcDbEntity
  8
0
100
AcDbLine
 62
7
  6
CONTINUOUS
 10
229.2253436682
 20
145.6494164894
 11
239.2259524703
 21
145.6494164894
  0
LINE
  5
22A
100
AcDbEntity
  8
0
100
AcDbLine
 62
7
  6
CONTINUOUS
 10
229.2253436682
 20
55.6494164894
 11
239.2259524703
 21
55.6494164894
  0
LINE
  5
22B
100
AcDbEntity
  8
0
100
AcDbLine
 62
7
  6
CONTINUOUS
 10
237.7259524703
 20
145.6494164894
 11
237.7259524703
 21
100.6494164894
  0
LINE
  5
22C
100
AcDbEntity
  8
0
100
AcDbLine
 62
7
  6
CONTINUOUS
 10
237.7259524703
 20
55.6494164894
 11
237.7259524703
 21
100.6494164894
  0
INSERT
  5
22D
100
AcDbEntity
  8
0
100
AcDbBlockReference
 62
7
  6
CONTINUOUS
  2
_FILLED
 10
237.7259524703
 20
145.6494164894
 41
3.0
 42
3.0
 43
3.0
 50
90.0
  0
INSERT
  5
22E
100
AcDbEntity
  8
0
100
AcDbBlockReference
 62
7
  6
CONTINUOUS
  2
_FILLED
 10
237.7259524703
 20
55.6494164894
 41
3.0
 42
3.0
 43
3.0
 50
270.0
  0
ENDBLK
  5
22F
100
AcDbEntity
  8
0
  6
BYBLOCK
 62
0
100
AcDbBlockEnd
  0
BLOCK
  5
230
100
AcDbEntity
  8
0
100
AcDbBlockBegin
 62
7
  6
CONTINUOUS
  2
*D1
 70
65
 10
0.0
 20
0.0
  3
*D1
  1

  0
LINE
  5
231
100
AcDbEntity
  8
0
100
AcDbLine
 62
7
  6
CONTINUOUS
 10
229.7259524703
 20
145.1488076873
 11
229.7259524703
 21
155.1494164894
  0
LINE
  5
232
100
AcDbEntity
  8
0
100
AcDbLine
 62
7
  6
CONTINUOUS
 10
107.7259524703
 20
145.1488076873
 11
107.7259524703
 21
155.1494164894
  0
LINE
  5
233
100
AcDbEntity
  8
0
100
AcDbLine
 62
7
  6
CONTINUOUS
 10
229.7259524703
 20
153.6494164894
 11
168.7259524703
 21
153.6494164894
  0
LINE
  5
234
100
AcDbEntity
  8
0
100
AcDbLine
 62
7
  6
CONTINUOUS
 10
107.7259524703
 20
153.6494164894
 11
168.7259524703
 21
153.6494164894
  0
INSERT
  5
235
100
AcDbEntity
  8
0
100
AcDbBlockReference
 62
7
  6
CONTINUOUS
  2
_FILLED
 10
229.7259524703
 20
153.6494164894
 41
3.0
 42
3.0
 43
3.0
  0
INSERT
  5
236
100
AcDbEntity
  8
0
100
AcDbBlockReference
 62
7
  6
CONTINUOUS
  2
_FILLED
 10
107.7259524703
 20
153.6494164894
 41
3.0
 42
3.0
 43
3.0
 50
180.0
  0
ENDBLK
  5
237
100
AcDbEntity
  8
0
  6
BYBLOCK
 62
0
100
AcDbBlockEnd
  0
BLOCK
  5
238
100
AcDbEntity
  8
0
100
AcDbBlockBegin
 62
7
  6
CONTINUOUS
  2
*D2
 70
65
 10
0.0
 20
0.0
  3
*D2
  1

  0
LINE
  5
239
100
AcDbEntity
  8
0
100
AcDbLine
 62
7
  6
CONTINUOUS
 10
72.7681329727
 20
144.5261538996
 11
72.7681329727
 21
165.1494164894
  0
LINE
  5
23A
100
AcDbEntity
  8
0
100
AcDbLine
 62
7
  6
CONTINUOUS
 10
82.9181329727
 20
127.1957332827
 11
82.9181329727
 21
165.1494164894
  0
LINE
  5
23B
100
AcDbEntity
  8
0
100
AcDbLine
 62
7
  6
CONTINUOUS
 10
72.7681329727
 20
163.6494164894
 11
77.8431329727
 21
163.6494164894
  0
LINE
  5
23C
100
AcDbEntity
  8
0
100
AcDbLine
 62
7
  6
CONTINUOUS
 10
82.9181329727
 20
163.6494164894
 11
77.8431329727
 21
163.6494164894
  0
LINE
  5
23D
100
AcDbEntity
  8
0
100
AcDbLine
 62
7
  6
CONTINUOUS
 10
77.8431329727
 20
163.6494164894
 11
93.8110198156
 21
163.6494164894
  0
INSERT
  5
23E
100
AcDbEntity
  8
0
100
AcDbBlockReference
 62
7
  6
CONTINUOUS
  2
_FILLED
 10
72.7681329727
 20
163.6494164894
 41
3.0
 42
3.0
 43
3.0
 50
180.0
  0
INSERT
  5
23F
100
AcDbEntity
  8
0
100
AcDbBlockReference
 62
7
  6
CONTINUOUS
  2
_FILLED
 10
82.9181329727
 20
163.6494164894
 41
3.0
 42
3.0
 43
3.0
  0
ENDBLK
  5
240
100
AcDbEntity
  8
0
  6
BYBLOCK
 62
0
100
AcDbBlockEnd
  0
BLOCK
  5
241
100
AcDbEntity
  8
0
100
AcDbBlockBegin
 62
7
  6
CONTINUOUS
  2
*D3
 70
65
 10
0.0
 20
0.0
  3
*D3
  1

  0
LINE
  5
242
100
AcDbEntity
  8
0
100
AcDbLine
 62
7
  6
CONTINUOUS
 10
79.9181329727
 20
142.353314009
 11
79.9181329727
 21
155.1494164894
  0
LINE
  5
243
100
AcDbEntity
  8
0
100
AcDbLine
 62
7
  6
CONTINUOUS
 10
72.7681329727
 20
144.5261538996
 11
72.7681329727
 21
155.1494164894
  0
LINE
  5
244
100
AcDbEntity
  8
0
100
AcDbLine
 62
7
  6
CONTINUOUS
 10
79.9181329727
 20
153.6494164894
 11
76.3431329727
 21
153.6494164894
  0
LINE
  5
245
100
AcDbEntity
  8
0
100
AcDbLine
 62
7
  6
CONTINUOUS
 10
76.3431329727
 20
153.6494164894
 11
91.802117564
 21
153.6494164894
  0
LINE
  5
246
100
AcDbEntity
  8
0
100
AcDbLine
 62
7
  6
CONTINUOUS
 10
72.7681329727
 20
153.6494164894
 11
76.3431329727
 21
153.6494164894
  0
INSERT
  5
247
100
AcDbEntity
  8
0
100
AcDbBlockReference
 62
7
  6
CONTINUOUS
  2
_FILLED
 10
79.9181329727
 20
153.6494164894
 41
3.0
 42
3.0
 43
3.0
  0
INSERT
  5
248
100
AcDbEntity
  8
0
100
AcDbBlockReference
 62
7
  6
CONTINUOUS
  2
_FILLED
 10
72.7681329727
 20
153.6494164894
 41
3.0
 42
3.0
 43
3.0
 50
180.0
  0
ENDBLK
  5
249
100
AcDbEntity
  8
0
  6
BYBLOCK
 62
0
100
AcDbBlockEnd
  0
ENDSEC
  0
SECTION
  2
ENTITIES
  0
DIMENSION
  5
24A
100
AcDbEntity
  8
0
100
AcDbDimension
 62
7
  6
CONTINUOUS
  2
*D0
 10
237.7259524703
 20
55.6494164894
 11
237.7259524703
 21
98.2922736323
 70
160
 71
2
 72
2
 41
0.9
 42
90.0
  3
DIMSTYLE_1
100
AcDbAlignedDimension
 13
228.7253436682
 23
145.6494164894
 14
228.7253436682
 24
55.6494164894
 50
270.0
100
AcDbRotatedDimension
  0
DIMENSION
  5
24B
100
AcDbEntity
  8
0
100
AcDbDimension
 62
7
  6
CONTINUOUS
  2
*D1
 10
107.7259524703
 20
153.6494164894
 11
165.511666756
 21
153.6494164894
 70
160
 71
2
 72
2
 41
0.9
 42
122.0
  3
DIMSTYLE_1
100
AcDbAlignedDimension
 13
229.7259524703
 23
144.6488076873
 14
107.7259524703
 24
144.6488076873
 50
180.0
100
AcDbRotatedDimension
  0
DIMENSION
  5
24C
100
AcDbEntity
  8
0
100
AcDbDimension
 62
7
  6
CONTINUOUS
  2
*D2
 10
82.9181329727
 20
163.6494164894
 11
84.1681626727
 21
163.6494164894
 70
160
 71
1
 72
2
 41
0.9
 42
10.15
  3
DIMSTYLE_1
100
AcDbAlignedDimension
 13
72.7681329727
 23
144.0261538996
 14
82.9181329727
 24
126.6957332827
100
AcDbRotatedDimension
  0
DIMENSION
  5
24D
100
AcDbEntity
  8
0
100
AcDbDimension
 62
7
  6
CONTINUOUS
  2
*D3
 10
72.7681329727
 20
153.6494164894
 11
83.8735461354
 21
153.6494164894
 70
160
 71
1
 72
2
 41
0.9
 42
7.15
  3
DIMSTYLE_1
100
AcDbAlignedDimension
 13
79.9181329727
 23
141.853314009
 14
72.7681329727
 24
144.0261538996
 50
180.0
100
AcDbRotatedDimension
  0
LINE
  5
24E
100
AcDbEntity
  8
SMUSSO
100
AcDbLine
 62
7
  6
CONTINUOUS
 10
108.9059670004
 20
145.4401158118
 11
108.9203928159
 21
145.455584946
  0
LINE
  5
24F
100
AcDbEntity
  8
ASSI
100
AcDbLine
 62
7
  6
CONTINUOUS
 10
108.9059670004
 20
145.4401158118
 11
108.9203928159
 21
145.455584946
  0
LINE
  5
250
100
AcDbEntity
  8
SMUSSO
100
AcDbLine
 62
7
  6
CONTINUOUS
 10
107.7259524703
 20
144.6488076873
 11
108.7265612724
 21
145.6494164894
  0
LINE
  5
251
100
AcDbEntity
  8
ASSI
100
AcDbLine
 62
7
  6
CONTINUOUS
 10
107.7259524703
 20
144.6488076873
 11
108.7265612724
 21
145.6494164894
  0
LINE
  5
252
100
AcDbEntity
  8
SMUSSO
100
AcDbLine
 62
7
  6
CONTINUOUS
 10
108.9059670004
 20
145.4401158118
 11
107.935253148
 21
144.4694019594
  0
LINE
  5
253
100
AcDbEntity
  8
ASSI
100
AcDbLine
 62
7
  6
CONTINUOUS
 10
108.9059670004
 20
145.4401158118
 11
107.935253148
 21
144.4694019594
  0
LINE
  5
254
100
AcDbEntity
  8
SMUSSO
100
AcDbLine
 62
7
  6
CONTINUOUS
 10
109.3492150601
 20
144.4206854493
 11
108.9546835105
 21
144.0261538996
  0
LINE
  5
255
100
AcDbEntity
  8
ASSI
100
AcDbLine
 62
7
  6
CONTINUOUS
 10
109.3492150601
 20
144.4206854493
 11
108.9546835105
 21
144.0261538996
  0
LINE
  5
256
100
AcDbEntity
  8
SMUSSO
100
AcDbLine
 62
7
  6
CONTINUOUS
 10
107.9197840138
 20
144.4549761439
 11
107.935253148
 21
144.4694019594
  0
LINE
  5
257
100
AcDbEntity
  8
ASSI
100
AcDbLine
 62
7
  6
CONTINUOUS
 10
107.9197840138
 20
144.4549761439
 11
107.935253148
 21
144.4694019594
  0
LINE
  5
258
100
AcDbEntity
  8
SMUSSO
100
AcDbLine
 62
7
  6
CONTINUOUS
 10
107.935253148
 20
56.8294310195
 11
107.9197840138
 21
56.843856835
  0
LINE
  5
259
100
AcDbEntity
  8
ASSI
100
AcDbLine
 62
7
  6
CONTINUOUS
 10
107.935253148
 20
56.8294310195
 11
107.9197840138
 21
56.843856835
  0
LINE
  5
25A
100
AcDbEntity
  8
SMUSSO
100
AcDbLine
 62
7
  6
CONTINUOUS
 10
108.7265612724
 20
55.6494164894
 11
107.7259524703
 21
56.6500252916
  0
LINE
  5
25B
100
AcDbEntity
  8
ASSI
100
AcDbLine
 62
7
  6
CONTINUOUS
 10
108.7265612724
 20
55.6494164894
 11
107.7259524703
 21
56.6500252916
  0
LINE
  5
25C
100
AcDbEntity
  8
SMUSSO
100
AcDbLine
 62
7
  6
CONTINUOUS
 10
107.935253148
 20
56.8294310195
 11
108.9059670004
 21
55.8587171671
  0
LINE
  5
25D
100
AcDbEntity
  8
ASSI
100
AcDbLine
 62
7
  6
CONTINUOUS
 10
107.935253148
 20
56.8294310195
 11
108.9059670004
 21
55.8587171671
  0
LINE
  5
25E
100
AcDbEntity
  8
SMUSSO
100
AcDbLine
 62
7
  6
CONTINUOUS
 10
108.9546835105
 20
57.2726790792
 11
109.3492150601
 21
56.8781475296
  0
LINE
  5
25F
100
AcDbEntity
  8
ASSI
100
AcDbLine
 62
7
  6
CONTINUOUS
 10
108.9546835105
 20
57.2726790792
 11
109.3492150601
 21
56.8781475296
  0
LINE
  5
260
100
AcDbEntity
  8
SMUSSO
100
AcDbLine
 62
7
  6
CONTINUOUS
 10
108.9203928159
 20
55.8432480329
 11
108.9059670004
 21
55.8587171671
  0
LINE
  5
261
100
AcDbEntity
  8
ASSI
100
AcDbLine
 62
7
  6
CONTINUOUS
 10
108.9203928159
 20
55.8432480329
 11
108.9059670004
 21
55.8587171671
  0
LINE
  5
262
100
AcDbEntity
  8
SMUSSO
100
AcDbLine
 62
7
  6
CONTINUOUS
 10
107.7259524703
 20
144.6488076873
 11
107.7259524703
 21
56.6500252916
  0
LINE
  5
263
100
AcDbEntity
  8
ASSI
100
AcDbLine
 62
7
  6
CONTINUOUS
 10
107.7259524703
 20
144.6488076873
 11
107.7259524703
 21
56.6500252916
  0
LINE
  5
264
100
AcDbEntity
  8
SMUSSO
100
AcDbLine
 62
7
  6
CONTINUOUS
 10
107.9197840138
 20
144.4549761439
 11
107.9197840138
 21
56.843856835
  0
LINE
  5
265
100
AcDbEntity
  8
ASSI
100
AcDbLine
 62
7
  6
CONTINUOUS
 10
107.9197840138
 20
144.4549761439
 11
107.9197840138
 21
56.843856835
  0
LINE
  5
266
100
AcDbEntity
  8
SMUSSO
100
AcDbLine
 62
7
  6
CONTINUOUS
 10
108.9546835105
 20
144.0261538996
 11
108.9546835105
 21
57.2726790792
  0
LINE
  5
267
100
AcDbEntity
  8
ASSI
100
AcDbLine
 62
7
  6
CONTINUOUS
 10
108.9546835105
 20
144.0261538996
 11
108.9546835105
 21
57.2726790792
  0
LINE
  5
268
100
AcDbEntity
  8
SMUSSO
100
AcDbLine
 62
7
  6
CONTINUOUS
 10
108.7265612724
 20
55.6494164894
 11
228.7253436682
 21
55.6494164894
  0
LINE
  5
269
100
AcDbEntity
  8
ASSI
100
AcDbLine
 62
7
  6
CONTINUOUS
 10
108.7265612724
 20
55.6494164894
 11
228.7253436682
 21
55.6494164894
  0
LINE
  5
26A
100
AcDbEntity
  8
SMUSSO
100
AcDbLine
 62
7
  6
CONTINUOUS
 10
108.9203928159
 20
55.8432480329
 11
228.5315121247
 21
55.8432480329
  0
LINE
  5
26B
100
AcDbEntity
  8
ASSI
100
AcDbLine
 62
7
  6
CONTINUOUS
 10
108.9203928159
 20
55.8432480329
 11
228.5315121247
 21
55.8432480329
  0
LWPOLYLINE
  5
26C
100
AcDbEntity
  8
0
100
AcDbPolyline
 62
7
  6
CONTINUOUS
 90
3
 70
0
 43
0.3500000006
 10
165.5116611328
 20
156.5422798462
 10
166.3688171997
 20
157.3994177856
 10
166.3688171997
 20
154.3994168701
  0
LINE
  5
26D
100
AcDbEntity
  8
SMUSSO
100
AcDbLine
 62
7
  6
CONTINUOUS
 10
109.3492150601
 20
56.8781475296
 11
228.1026898805
 21
56.8781475296
  0
LINE
  5
26E
100
AcDbEntity
  8
ASSI
100
AcDbLine
 62
7
  6
CONTINUOUS
 10
109.3492150601
 20
56.8781475296
 11
228.1026898805
 21
56.8781475296
  0
LWPOLYLINE
  5
26F
100
AcDbEntity
  8
0
100
AcDbPolyline
 62
250
  6
CONTINUOUS
 90
25
 70
0
 10
134.577566554
 20
122.8495075706
 10
134.5791624991
 20
122.8954824858
 10
134.5835808506
 20
122.9407087621
 10
134.5908216082
 20
122.9851863996
 10
134.6009335026
 20
123.0290260209
 10
134.6138678033
 20
123.0721170033
 10
134.6294783184
 20
123.1141274786
 10
134.647802322
 20
123.1551159957
 10
134.66880254
 20
123.1950240057
 10
134.6922209582
 20
123.2333439937
 10
134.7180996875
 20
123.2700604552
 10
134.746396617
 20
123.3051888946
 10
134.7767274
 20
123.3382683104
 10
134.8090853362
 20
123.3692465536
 10
134.8434771259
 20
123.3981757733
 10
134.8795385226
 20
123.4247514152
 10
134.9171078683
 20
123.4489249621
 10
134.956346821
 20
123.4707449313
 10
134.9973761079
 20
123.49005232
 10
135.0404407461
 20
123.5069797588
 10
135.0852957186
 20
123.5213946171
 10
135.1313267016
 20
123.5327400004
 10
135.1783289203
 20
123.5408302772
 10
135.2265071495
 20
123.545851079
 10
135.2758613891
 20
123.5478024058
  0
LWPOLYLINE
  5
270
100
AcDbEntity
  8
ASSI
100
AcDbPolyline
 62
250
  6
CONTINUOUS
 90
25
 70
0
 10
134.577566554
 20
122.8495075706
 10
134.5791624991
 20
122.8954824858
 10
134.5835808506
 20
122.9407087621
 10
134.5908216082
 20
122.9851863996
 10
134.6009335026
 20
123.0290260209
 10
134.6138678033
 20
123.0721170033
 10
134.6294783184
 20
123.1141274786
 10
134.647802322
 20
123.1551159957
 10
134.66880254
 20
123.1950240057
 10
134.6922209582
 20
123.2333439937
 10
134.7180996875
 20
123.2700604552
 10
134.746396617
 20
123.3051888946
 10
134.7767274
 20
123.3382683104
 10
134.8090853362
 20
123.3692465536
 10
134.8434771259
 20
123.3981757733
 10
134.8795385226
 20
123.4247514152
 10
134.9171078683
 20
123.4489249621
 10
134.956346821
 20
123.4707449313
 10
134.9973761079
 20
123.49005232
 10
135.0404407461
 20
123.5069797588
 10
135.0852957186
 20
123.5213946171
 10
135.1313267016
 20
123.5327400004
 10
135.1783289203
 20
123.5408302772
 10
135.2265071495
 20
123.545851079
 10
135.2758613891
 20
123.5478024058
  0
LINE
  5
271
100
AcDbEntity
  8
SMUSSO
100
AcDbLine
 62
7
  6
CONTINUOUS
 10
109.3492150601
 20
56.8781475296
 11
108.9059670004
 21
55.8587171671
  0
LINE
  5
272
100
AcDbEntity
  8
ASSI
100
AcDbLine
 62
7
  6
CONTINUOUS
 10
109.3492150601
 20
56.8781475296
 11
108.9059670004
 21
55.8587171671
  0
LINE
  5
273
100
AcDbEntity
  8
SMUSSO
100
AcDbLine
 62
7
  6
CONTINUOUS
 10
109.3492150601
 20
144.4206854493
 11
108.9059670004
 21
145.4401158118
  0
LINE
  5
274
100
AcDbEntity
  8
ASSI
100
AcDbLine
 62
7
  6
CONTINUOUS
 10
109.3492150601
 20
144.4206854493
 11
108.9059670004
 21
145.4401158118
  0
LINE
  5
275
100
AcDbEntity
  8
0
100
AcDbLine
 62
250
  6
CONTINUOUS
 10
134.577566554
 20
78.4493254083
 11
134.577566554
 21
122.8495075706
  0
LINE
  5
276
100
AcDbEntity
  8
ASSI
100
AcDbLine
 62
250
  6
CONTINUOUS
 10
134.577566554
 20
78.4493254083
 11
134.577566554
 21
122.8495075706
  0
LINE
  5
277
100
AcDbEntity
  8
0
100
AcDbLine
 62
250
  6
CONTINUOUS
 10
134.777079364
 20
78.4493254083
 11
134.777079364
 21
122.8495075706
  0
LINE
  5
278
100
AcDbEntity
  8
ASSI
100
AcDbLine
 62
250
  6
CONTINUOUS
 10
134.777079364
 20
78.4493254083
 11
134.777079364
 21
122.8495075706
  0
LINE
  5
279
100
AcDbEntity
  8
RACCORDO
100
AcDbLine
 62
7
  6
CONTINUOUS
 10
134.8759524703
 20
122.7506344643
 11
134.8759524703
 21
78.5481985146
  0
LINE
  5
27A
100
AcDbEntity
  8
ASSI
100
AcDbLine
 62
7
  6
CONTINUOUS
 10
134.8759524703
 20
122.7506344643
 11
134.8759524703
 21
78.5481985146
  0
LINE
  5
27B
100
AcDbEntity
  8
0
100
AcDbLine
 62
250
  6
CONTINUOUS
 10
135.2758613891
 20
123.5478024058
 11
135.2758613891
 21
123.3482895957
  0
LINE
  5
27C
100
AcDbEntity
  8
ASSI
100
AcDbLine
 62
250
  6
CONTINUOUS
 10
135.2758613891
 20
123.5478024058
 11
135.2758613891
 21
123.3482895957
  0
LINE
  5
27D
100
AcDbEntity
  8
0
100
AcDbLine
 62
250
  6
CONTINUOUS
 10
135.2758613891
 20
77.7510305731
 11
135.2758613891
 21
77.9505433832
  0
LINE
  5
27E
100
AcDbEntity
  8
ASSI
100
AcDbLine
 62
250
  6
CONTINUOUS
 10
135.2758613891
 20
77.7510305731
 11
135.2758613891
 21
77.9505433832
  0
LWPOLYLINE
  5
27F
100
AcDbEntity
  8
0
100
AcDbPolyline
 62
250
  6
CONTINUOUS
 90
25
 70
0
 10
134.777079364
 20
122.8495075706
 10
134.7780805037
 20
122.8821936749
 10
134.781192815
 20
122.9145990107
 10
134.7863778509
 20
122.9465903974
 10
134.7935763148
 20
122.9779933271
 10
134.8027407142
 20
123.0087310111
 10
134.8138649146
 20
123.0388160794
 10
134.8269280426
 20
123.0681708241
 10
134.8418621712
 20
123.0966247861
 10
134.8586029404
 20
123.1240488702
 10
134.8770865353
 20
123.1503355515
 10
134.897233082
 20
123.175369769
 10
134.9189364371
 20
123.1990230588
 10
134.94208081
 20
123.2211815634
 10
134.9665866087
 20
123.2417812973
 10
134.9923955431
 20
123.2607741157
 10
135.0192961936
 20
123.2780134726
 10
135.0472812748
 20
123.293502136
 10
135.0766379384
 20
123.3073449184
 10
135.1074471566
 20
123.319461902
 10
135.139451287
 20
123.3296347663
 10
135.1724431953
 20
123.3377099086
 10
135.2062588135
 20
123.3435730958
 10
135.2407836573
 20
123.3471307644
 10
135.2758613891
 20
123.3482895957
  0
LWPOLYLINE
  5
280
100
AcDbEntity
  8
ASSI
100
AcDbPolyline
 62
250
  6
CONTINUOUS
 90
25
 70
0
 10
134.777079364
 20
122.8495075706
 10
134.7780805037
 20
122.8821936749
 10
134.781192815
 20
122.9145990107
 10
134.7863778509
 20
122.9465903974
 10
134.7935763148
 20
122.9779933271
 10
134.8027407142
 20
123.0087310111
 10
134.8138649146
 20
123.0388160794
 10
134.8269280426
 20
123.0681708241
 10
134.8418621712
 20
123.0966247861
 10
134.8586029404
 20
123.1240488702
 10
134.8770865353
 20
123.1503355515
 10
134.897233082
 20
123.175369769
 10
134.9189364371
 20
123.1990230588
 10
134.94208081
 20
123.2211815634
 10
134.9665866087
 20
123.2417812973
 10
134.9923955431
 20
123.2607741157
 10
135.0192961936
 20
123.2780134726
 10
135.0472812748
 20
123.293502136
 10
135.0766379384
 20
123.3073449184
 10
135.1074471566
 20
123.319461902
 10
135.139451287
 20
123.3296347663
 10
135.1724431953
 20
123.3377099086
 10
135.2062588135
 20
123.3435730958
 10
135.2407836573
 20
123.3471307644
 10
135.2758613891
 20
123.3482895957
  0
LWPOLYLINE
  5
281
100
AcDbEntity
  8
0
100
AcDbPolyline
 62
7
  6
CONTINUOUS
 90
6
 70
0
 10
172.5313076033
 20
74.6257535984
 10
172.5366457711
 20
74.6271041443
 10
172.5420435548
 20
74.628900425
 10
172.5475009546
 20
74.6311424408
 10
172.5530014324
 20
74.633922104
 10
172.5585615262
 20
74.6371475021
  0
LINE
  5
282
100
AcDbEntity
  8
CURVE
100
AcDbLine
 62
250
  6
CONTINUOUS
 10
171.7928726771
 20
75.4109551901
 11
171.8045001935
 21
75.4129066529
  0
LINE
  5
283
100
AcDbEntity
  8
IMPORT_IGES
100
AcDbLine
 62
7
  6
CONTINUOUS
 10
171.7928726771
 20
75.4109551901
 11
171.8045001935
 21
75.4129066529
  0
LWPOLYLINE
  5
284
100
AcDbEntity
  8
0
100
AcDbPolyline
 62
7
  6
CONTINUOUS
 90
10
 70
0
 10
171.7928726771
 20
75.4109551901
 10
171.8348271579
 20
75.4178408045
 10
171.8760175728
 20
75.4233753929
 10
171.9164439216
 20
75.4275589555
 10
171.9557488634
 20
75.430405718
 10
171.9942897393
 20
75.4319014547
 10
172.0331385723
 20
75.432003488
 10
172.0726527035
 20
75.430697592
 10
172.112474792
 20
75.4279979927
 10
172.1526048377
 20
75.4239046901
  0
LINE
  5
285
100
AcDbEntity
  8
CURVE
100
AcDbLine
 62
250
  6
CONTINUOUS
 10
171.8045001935
 20
75.4129066529
 11
171.8161423137
 21
75.4147922835
  0
LINE
  5
286
100
AcDbEntity
  8
IMPORT_IGES
100
AcDbLine
 62
7
  6
CONTINUOUS
 10
171.8045001935
 20
75.4129066529
 11
171.8161423137
 21
75.4147922835
  0
LWPOLYLINE
  5
287
100
AcDbEntity
  8
CURVE
100
AcDbPolyline
 62
250
  6
CONTINUOUS
 90
9
 70
0
 10
171.8161423137
 20
75.4147922835
 10
171.8318251705
 20
75.4172165117
 10
171.8396756804
 20
75.4183770332
 10
171.8475320112
 20
75.4195012088
 10
171.8553939878
 20
75.4205875755
 10
171.863261435
 20
75.4216346701
 10
171.8711341777
 20
75.4226410297
 10
171.879012041
 20
75.423605191
 10
171.8868948495
 20
75.4245256911
  0
LWPOLYLINE
  5
288
100
AcDbEntity
  8
IMPORT_IGES
100
AcDbPolyline
 62
7
  6
CONTINUOUS
 90
9
 70
0
 10
171.8161423137
 20
75.4147922835
 10
171.8318251705
 20
75.4172165117
 10
171.8396756804
 20
75.4183770332
 10
171.8475320112
 20
75.4195012088
 10
171.8553939878
 20
75.4205875755
 10
171.863261435
 20
75.4216346701
 10
171.8711341777
 20
75.4226410297
 10
171.879012041
 20
75.423605191
 10
171.8868948495
 20
75.4245256911
  0
LINE
  5
289
100
AcDbEntity
  8
CURVE
100
AcDbLine
 62
250
  6
CONTINUOUS
 10
171.3834542248
 20
75.764735472
 11
171.3507586021
 21
75.7600143233
  0
LINE
  5
28A
100
AcDbEntity
  8
IMPORT_IGES
100
AcDbLine
 62
7
  6
CONTINUOUS
 10
171.3834542248
 20
75.764735472
 11
171.3507586021
 21
75.7600143233
  0
LWPOLYLINE
  5
28B
100
AcDbEntity
  8
CURVE
100
AcDbPolyline
 62
250
  6
CONTINUOUS
 90
26
 70
0
 10
172.5313076033
 20
74.6257535984
 10
172.5319750748
 20
74.6258461188
 10
172.5326396543
 20
74.6259508456
 10
172.5333013968
 20
74.6260674709
 10
172.5339603579
 20
74.6261956865
 10
172.5346165926
 20
74.6263351841
 10
172.5352701562
 20
74.6264856556
 10
172.5359211041
 20
74.6266467929
 10
172.5365694915
 20
74.6268182879
 10
172.5372153736
 20
74.6269998323
 10
172.5378588058
 20
74.627191118
 10
172.5384998433
 20
74.6273918368
 10
172.5391385413
 20
74.6276016807
 10
172.5397749552
 20
74.6278203413
 10
172.5404091402
 20
74.6280475106
 10
172.5410411516
 20
74.6282828805
 10
172.5416710447
 20
74.6285261427
 10
172.5422988746
 20
74.6287769891
 10
172.5429246967
 20
74.6290351116
 10
172.5435485663
 20
74.6293002019
 10
172.5441705386
 20
74.629571952
 10
172.5447906689
 20
74.6298500536
 10
172.5454090125
 20
74.6301341987
 10
172.5460256246
 20
74.630424079
 10
172.5466405605
 20
74.6307193864
 10
172.5472538754
 20
74.6310198128
  0
LWPOLYLINE
  5
28C
100
AcDbEntity
  8
IMPORT_IGES
100
AcDbPolyline
 62
7
  6
CONTINUOUS
 90
26
 70
0
 10
172.5313076033
 20
74.6257535984
 10
172.5319750748
 20
74.6258461188
 10
172.5326396543
 20
74.6259508456
 10
172.5333013968
 20
74.6260674709
 10
172.5339603579
 20
74.6261956865
 10
172.5346165926
 20
74.6263351841
 10
172.5352701562
 20
74.6264856556
 10
172.5359211041
 20
74.6266467929
 10
172.5365694915
 20
74.6268182879
 10
172.5372153736
 20
74.6269998323
 10
172.5378588058
 20
74.627191118
 10
172.5384998433
 20
74.6273918368
 10
172.5391385413
 20
74.6276016807
 10
172.5397749552
 20
74.6278203413
 10
172.5404091402
 20
74.6280475106
 10
172.5410411516
 20
74.6282828805
 10
172.5416710447
 20
74.6285261427
 10
172.5422988746
 20
74.6287769891
 10
172.5429246967
 20
74.6290351116
 10
172.5435485663
 20
74.6293002019
 10
172.5441705386
 20
74.629571952
 10
172.5447906689
 20
74.6298500536
 10
172.5454090125
 20
74.6301341987
 10
172.5460256246
 20
74.630424079
 10
172.5466405605
 20
74.6307193864
 10
172.5472538754
 20
74.6310198128
  0
LINE
  5
28D
100
AcDbEntity
  8
CURVE
100
AcDbLine
 62
250
  6
CONTINUOUS
 10
171.4161824725
 20
75.7692779641
 11
171.3834542248
 21
75.764735472
  0
LINE
  5
28E
100
AcDbEntity
  8
IMPORT_IGES
100
AcDbLine
 62
7
  6
CONTINUOUS
 10
171.4161824725
 20
75.7692779641
 11
171.3834542248
 21
75.764735472
  0
LINE
  5
28F
100
AcDbEntity
  8
CURVE
100
AcDbLine
 62
250
  6
CONTINUOUS
 10
171.4497076719
 20
75.773732651
 11
171.4161824725
 21
75.7692779641
  0
LINE
  5
290
100
AcDbEntity
  8
IMPORT_IGES
100
AcDbLine
 62
7
  6
CONTINUOUS
 10
171.4497076719
 20
75.773732651
 11
171.4161824725
 21
75.7692779641
  0
LINE
  5
291
100
AcDbEntity
  8
CURVE
100
AcDbLine
 62
250
  6
CONTINUOUS
 10
171.47984999
 20
75.7775595011
 11
171.4497076719
 21
75.773732651
  0
LINE
  5
292
100
AcDbEntity
  8
IMPORT_IGES
100
AcDbLine
 62
7
  6
CONTINUOUS
 10
171.47984999
 20
75.7775595011
 11
171.4497076719
 21
75.773732651
  0
LINE
  5
293
100
AcDbEntity
  8
CURVE
100
AcDbLine
 62
250
  6
CONTINUOUS
 10
171.5100156011
 20
75.7812138873
 11
171.47984999
 21
75.7775595011
  0
LINE
  5
294
100
AcDbEntity
  8
IMPORT_IGES
100
AcDbLine
 62
7
  6
CONTINUOUS
 10
171.5100156011
 20
75.7812138873
 11
171.47984999
 21
75.7775595011
  0
LINE
  5
295
100
AcDbEntity
  8
CURVE
100
AcDbLine
 62
250
  6
CONTINUOUS
 10
171.5432106472
 20
75.785025124
 11
171.5100156011
 21
75.7812138873
  0
LINE
  5
296
100
AcDbEntity
  8
IMPORT_IGES
100
AcDbLine
 62
7
  6
CONTINUOUS
 10
171.5432106472
 20
75.785025124
 11
171.5100156011
 21
75.7812138873
  0
LINE
  5
297
100
AcDbEntity
  8
CURVE
100
AcDbLine
 62
250
  6
CONTINUOUS
 10
171.8868948495
 20
75.4245256911
 11
171.8961154008
 21
75.4255443913
  0
LINE
  5
298
100
AcDbEntity
  8
IMPORT_IGES
100
AcDbLine
 62
7
  6
CONTINUOUS
 10
171.8868948495
 20
75.4245256911
 11
171.8961154008
 21
75.4255443913
  0
LINE
  5
299
100
AcDbEntity
  8
CURVE
100
AcDbLine
 62
250
  6
CONTINUOUS
 10
171.5735153091
 20
75.7883055038
 11
171.5432106472
 21
75.785025124
  0
LINE
  5
29A
100
AcDbEntity
  8
IMPORT_IGES
100
AcDbLine
 62
7
  6
CONTINUOUS
 10
171.5735153091
 20
75.7883055038
 11
171.5432106472
 21
75.785025124
  0
LINE
  5
29B
100
AcDbEntity
  8
CURVE
100
AcDbLine
 62
250
  6
CONTINUOUS
 10
171.8961154008
 20
75.4255443913
 11
171.9053421905
 21
75.4264990959
  0
LINE
  5
29C
100
AcDbEntity
  8
IMPORT_IGES
100
AcDbLine
 62
7
  6
CONTINUOUS
 10
171.8961154008
 20
75.4255443913
 11
171.9053421905
 21
75.4264990959
  0
LINE
  5
29D
100
AcDbEntity
  8
CURVE
100
AcDbLine
 62
250
  6
CONTINUOUS
 10
171.6038392354
 20
75.7913913933
 11
171.5735153091
 21
75.7883055038
  0
LINE
  5
29E
100
AcDbEntity
  8
IMPORT_IGES
100
AcDbLine
 62
7
  6
CONTINUOUS
 10
171.6038392354
 20
75.7913913933
 11
171.5735153091
 21
75.7883055038
  0
LINE
  5
29F
100
AcDbEntity
  8
CURVE
100
AcDbLine
 62
250
  6
CONTINUOUS
 10
171.9053421905
 20
75.4264990959
 11
171.9145749389
 21
75.427387468
  0
LINE
  5
2A0
100
AcDbEntity
  8
IMPORT_IGES
100
AcDbLine
 62
7
  6
CONTINUOUS
 10
171.9053421905
 20
75.4264990959
 11
171.9145749389
 21
75.427387468
  0
LINE
  5
2A1
100
AcDbEntity
  8
CURVE
100
AcDbLine
 62
250
  6
CONTINUOUS
 10
171.6313609314
 20
75.7940166386
 11
171.6038392354
 21
75.7913913933
  0
LINE
  5
2A2
100
AcDbEntity
  8
IMPORT_IGES
100
AcDbLine
 62
7
  6
CONTINUOUS
 10
171.6313609314
 20
75.7940166386
 11
171.6038392354
 21
75.7913913933
  0
LWPOLYLINE
  5
2A3
100
AcDbEntity
  8
CURVE
100
AcDbPolyline
 62
250
  6
CONTINUOUS
 90
14
 70
0
 10
171.9145749389
 20
75.427387468
 10
171.9236121751
 20
75.4281900723
 10
171.9326545839
 20
75.4289247771
 10
171.9417019035
 20
75.4295893947
 10
171.9507538721
 20
75.4301817376
 10
171.9598102278
 20
75.4306996182
 10
171.9688707089
 20
75.431140849
 10
171.9779350536
 20
75.4315032422
 10
171.9868892607
 20
75.4317821137
 10
171.995846307
 20
75.431982988
 10
172.0048055196
 20
75.4321068744
 10
172.0137662256
 20
75.4321547826
 10
172.0227277522
 20
75.432127722
 10
172.0316894265
 20
75.4320267023
  0
LWPOLYLINE
  5
2A4
100
AcDbEntity
  8
IMPORT_IGES
100
AcDbPolyline
 62
7
  6
CONTINUOUS
 90
14
 70
0
 10
171.9145749389
 20
75.427387468
 10
171.9236121751
 20
75.4281900723
 10
171.9326545839
 20
75.4289247771
 10
171.9417019035
 20
75.4295893947
 10
171.9507538721
 20
75.4301817376
 10
171.9598102278
 20
75.4306996182
 10
171.9688707089
 20
75.431140849
 10
171.9779350536
 20
75.4315032422
 10
171.9868892607
 20
75.4317821137
 10
171.995846307
 20
75.431982988
 10
172.0048055196
 20
75.4321068744
 10
172.0137662256
 20
75.4321547826
 10
172.0227277522
 20
75.432127722
 10
172.0316894265
 20
75.4320267023
  0
LINE
  5
2A5
100
AcDbEntity
  8
CURVE
100
AcDbLine
 62
250
  6
CONTINUOUS
 10
171.6570698195
 20
75.79631383
 11
171.6313609314
 21
75.7940166386
  0
LINE
  5
2A6
100
AcDbEntity
  8
IMPORT_IGES
100
AcDbLine
 62
7
  6
CONTINUOUS
 10
171.6570698195
 20
75.79631383
 11
171.6313609314
 21
75.7940166386
  0
LINE
  5
2A7
100
AcDbEntity
  8
CURVE
100
AcDbLine
 62
250
  6
CONTINUOUS
 10
171.6827898596
 20
75.7984581412
 11
171.6570698195
 21
75.79631383
  0
LINE
  5
2A8
100
AcDbEntity
  8
IMPORT_IGES
100
AcDbLine
 62
7
  6
CONTINUOUS
 10
171.6827898596
 20
75.7984581412
 11
171.6570698195
 21
75.79631383
  0
LINE
  5
2A9
100
AcDbEntity
  8
CURVE
100
AcDbLine
 62
250
  6
CONTINUOUS
 10
171.7144318533
 20
75.8008793396
 11
171.6827898596
 21
75.7984581412
  0
LINE
  5
2AA
100
AcDbEntity
  8
IMPORT_IGES
100
AcDbLine
 62
7
  6
CONTINUOUS
 10
171.7144318533
 20
75.8008793396
 11
171.6827898596
 21
75.7984581412
  0
LINE
  5
2AB
100
AcDbEntity
  8
CURVE
100
AcDbLine
 62
250
  6
CONTINUOUS
 10
171.7399997718
 20
75.8026564245
 11
171.7144318533
 21
75.8008793396
  0
LINE
  5
2AC
100
AcDbEntity
  8
IMPORT_IGES
100
AcDbLine
 62
7
  6
CONTINUOUS
 10
171.7399997718
 20
75.8026564245
 11
171.7144318533
 21
75.8008793396
  0
LWPOLYLINE
  5
2AD
100
AcDbEntity
  8
CURVE
100
AcDbPolyline
 62
250
  6
CONTINUOUS
 90
3
 70
0
 10
171.7783671388
 20
75.8050134792
 10
171.7655760851
 20
75.8042696091
 10
171.7399997718
 20
75.8026564245
  0
LWPOLYLINE
  5
2AE
100
AcDbEntity
  8
IMPORT_IGES
100
AcDbPolyline
 62
7
  6
CONTINUOUS
 90
3
 70
0
 10
171.7783671388
 20
75.8050134792
 10
171.7655760851
 20
75.8042696091
 10
171.7399997718
 20
75.8026564245
  0
LINE
  5
2AF
100
AcDbEntity
  8
CURVE
100
AcDbLine
 62
250
  6
CONTINUOUS
 10
171.8072853549
 20
75.8065375274
 11
171.7783671388
 21
75.8050134792
  0
LINE
  5
2B0
100
AcDbEntity
  8
IMPORT_IGES
100
AcDbLine
 62
7
  6
CONTINUOUS
 10
171.8072853549
 20
75.8065375274
 11
171.7783671388
 21
75.8050134792
  0
LINE
  5
2B1
100
AcDbEntity
  8
CURVE
100
AcDbLine
 62
250
  6
CONTINUOUS
 10
171.8225400228
 20
75.8072519032
 11
171.8072853549
 21
75.8065375274
  0
LINE
  5
2B2
100
AcDbEntity
  8
IMPORT_IGES
100
AcDbLine
 62
7
  6
CONTINUOUS
 10
171.8225400228
 20
75.8072519032
 11
171.8072853549
 21
75.8065375274
  0
LINE
  5
2B3
100
AcDbEntity
  8
CURVE
100
AcDbLine
 62
250
  6
CONTINUOUS
 10
171.8460280667
 20
75.8082275181
 11
171.8225400228
 21
75.8072519032
  0
LINE
  5
2B4
100
AcDbEntity
  8
IMPORT_IGES
100
AcDbLine
 62
7
  6
CONTINUOUS
 10
171.8460280667
 20
75.8082275181
 11
171.8225400228
 21
75.8072519032
  0
LINE
  5
2B5
100
AcDbEntity
  8
CURVE
100
AcDbLine
 62
250
  6
CONTINUOUS
 10
171.8695206764
 20
75.8090451197
 11
171.8460280667
 21
75.8082275181
  0
LINE
  5
2B6
100
AcDbEntity
  8
IMPORT_IGES
100
AcDbLine
 62
7
  6
CONTINUOUS
 10
171.8695206764
 20
75.8090451197
 11
171.8460280667
 21
75.8082275181
  0
LINE
  5
2B7
100
AcDbEntity
  8
CURVE
100
AcDbLine
 62
250
  6
CONTINUOUS
 10
171.2159186428
 20
73.5859009187
 11
170.7319542839
 21
73.5859009187
  0
LINE
  5
2B8
100
AcDbEntity
  8
IMPORT_IGES
100
AcDbLine
 62
7
  6
CONTINUOUS
 10
171.2159186428
 20
73.5859009187
 11
170.7319542839
 21
73.5859009187
  0
LINE
  5
2B9
100
AcDbEntity
  8
CURVE
100
AcDbLine
 62
250
  6
CONTINUOUS
 10
169.8609554663
 20
73.5859009187
 11
169.4067497727
 21
73.5859009187
  0
LINE
  5
2BA
100
AcDbEntity
  8
IMPORT_IGES
100
AcDbLine
 62
7
  6
CONTINUOUS
 10
169.8609554663
 20
73.5859009187
 11
169.4067497727
 21
73.5859009187
  0
LINE
  5
2BB
100
AcDbEntity
  8
CURVE
100
AcDbLine
 62
250
  6
CONTINUOUS
 10
169.3346452998
 20
73.5859009187
 11
168.8854377964
 21
73.5859009187
  0
LINE
  5
2BC
100
AcDbEntity
  8
IMPORT_IGES
100
AcDbLine
 62
7
  6
CONTINUOUS
 10
169.3346452998
 20
73.5859009187
 11
168.8854377964
 21
73.5859009187
  0
LINE
  5
2BD
100
AcDbEntity
  8
CURVE
100
AcDbLine
 62
250
  6
CONTINUOUS
 10
168.2451215398
 20
73.5859009187
 11
168.180721257
 21
73.5859009187
  0
LINE
  5
2BE
100
AcDbEntity
  8
IMPORT_IGES
100
AcDbLine
 62
7
  6
CONTINUOUS
 10
168.2451215398
 20
73.5859009187
 11
168.180721257
 21
73.5859009187
  0
LINE
  5
2BF
100
AcDbEntity
  8
CURVE
100
AcDbLine
 62
250
  6
CONTINUOUS
 10
167.5429454764
 20
73.5859009187
 11
167.1036526393
 21
73.5859009187
  0
LINE
  5
2C0
100
AcDbEntity
  8
IMPORT_IGES
100
AcDbLine
 62
7
  6
CONTINUOUS
 10
167.5429454764
 20
73.5859009187
 11
167.1036526393
 21
73.5859009187
  0
LINE
  5
2C1
100
AcDbEntity
  8
CURVE
100
AcDbLine
 62
250
  6
CONTINUOUS
 10
165.5197553779
 20
73.5859009187
 11
165.1150957773
 21
73.5859009187
  0
LINE
  5
2C2
100
AcDbEntity
  8
IMPORT_IGES
100
AcDbLine
 62
7
  6
CONTINUOUS
 10
165.5197553779
 20
73.5859009187
 11
165.1150957773
 21
73.5859009187
  0
LINE
  5
2C3
100
AcDbEntity
  8
0
100
AcDbLine
 62
7
  6
CONTINUOUS
 10
165.1150957773
 20
73.5859009187
 11
165.5197553779
 21
73.5859009187
  0
LINE
  5
2C4
100
AcDbEntity
  8
0
100
AcDbLine
 62
7
  6
CONTINUOUS
 10
166.397269338
 20
73.5859009187
 11
166.8564575076
 21
73.5859009187
  0
LINE
  5
2C5
100
AcDbEntity
  8
CURVE
100
AcDbLine
 62
250
  6
CONTINUOUS
 10
166.397269338
 20
73.5859009187
 11
166.8564575076
 21
73.5859009187
  0
LINE
  5
2C6
100
AcDbEntity
  8
IMPORT_IGES
100
AcDbLine
 62
7
  6
CONTINUOUS
 10
166.397269338
 20
73.5859009187
 11
166.8564575076
 21
73.5859009187
  0
LINE
  5
2C7
100
AcDbEntity
  8
0
100
AcDbLine
 62
7
  6
CONTINUOUS
 10
167.1036526393
 20
73.5859009187
 11
167.5429454764
 21
73.5859009187
  0
LINE
  5
2C8
100
AcDbEntity
  8
0
100
AcDbLine
 62
7
  6
CONTINUOUS
 10
168.180721257
 20
73.5859009187
 11
168.2451215398
 21
73.5859009187
  0
LINE
  5
2C9
100
AcDbEntity
  8
0
100
AcDbLine
 62
7
  6
CONTINUOUS
 10
168.8854377964
 20
73.5859009187
 11
169.3346452998
 21
73.5859009187
  0
LINE
  5
2CA
100
AcDbEntity
  8
0
100
AcDbLine
 62
7
  6
CONTINUOUS
 10
169.4067497727
 20
73.5859009187
 11
169.8609554663
 21
73.5859009187
  0
LINE
  5
2CB
100
AcDbEntity
  8
0
100
AcDbLine
 62
7
  6
CONTINUOUS
 10
170.7319542839
 20
73.5859009187
 11
171.2159186428
 21
73.5859009187
  0
LINE
  5
2CC
100
AcDbEntity
  8
0
100
AcDbLine
 62
7
  6
CONTINUOUS
 10
171.3507586021
 20
73.5859005021
 11
171.8080986497
 21
73.5859005021
  0
LINE
  5
2CD
100
AcDbEntity
  8
CURVE
100
AcDbLine
 62
250
  6
CONTINUOUS
 10
171.3507586021
 20
73.5859005021
 11
171.8080986497
 21
73.5859005021
  0
LINE
  5
2CE
100
AcDbEntity
  8
IMPORT_IGES
100
AcDbLine
 62
7
  6
CONTINUOUS
 10
171.3507586021
 20
73.5859005021
 11
171.8080986497
 21
73.5859005021
  0
LINE
  5
2CF
100
AcDbEntity
  8
0
100
AcDbLine
 62
7
  6
CONTINUOUS
 10
172.5112812428
 20
73.5859005021
 11
172.9529664172
 21
73.5859005021
  0
LINE
  5
2D0
100
AcDbEntity
  8
CURVE
100
AcDbLine
 62
250
  6
CONTINUOUS
 10
172.5112812428
 20
73.5859005021
 11
172.9529664172
 21
73.5859005021
  0
LINE
  5
2D1
100
AcDbEntity
  8
IMPORT_IGES
100
AcDbLine
 62
7
  6
CONTINUOUS
 10
172.5112812428
 20
73.5859005021
 11
172.9529664172
 21
73.5859005021
  0
LINE
  5
2D2
100
AcDbEntity
  8
CURVE
100
AcDbLine
 62
250
  6
CONTINUOUS
 10
170.6130002893
 20
74.0250617559
 11
169.9876628891
 21
74.0250617559
  0
LINE
  5
2D3
100
AcDbEntity
  8
IMPORT_IGES
100
AcDbLine
 62
7
  6
CONTINUOUS
 10
170.6130002893
 20
74.0250617559
 11
169.9876628891
 21
74.0250617559
  0
LINE
  5
2D4
100
AcDbEntity
  8
0
100
AcDbLine
 62
7
  6
CONTINUOUS
 10
169.9876628891
 20
74.0250617559
 11
170.6130002893
 21
74.0250617559
  0
LINE
  5
2D5
100
AcDbEntity
  8
0
100
AcDbLine
 62
7
  6
CONTINUOUS
 10
170.5212320077
 20
74.364883169
 11
170.0815924087
 21
74.364883169
  0
LINE
  5
2D6
100
AcDbEntity
  8
CURVE
100
AcDbLine
 62
250
  6
CONTINUOUS
 10
170.0815924087
 20
74.364883169
 11
170.5212320077
 21
74.364883169
  0
LINE
  5
2D7
100
AcDbEntity
  8
IMPORT_IGES
100
AcDbLine
 62
7
  6
CONTINUOUS
 10
170.0815924087
 20
74.364883169
 11
170.5212320077
 21
74.364883169
  0
LINE
  5
2D8
100
AcDbEntity
  8
0
100
AcDbLine
 62
7
  6
CONTINUOUS
 10
171.8080986497
 20
74.4467865599
 11
172.0543041111
 21
74.4467865599
  0
LINE
  5
2D9
100
AcDbEntity
  8
CURVE
100
AcDbLine
 62
250
  6
CONTINUOUS
 10
171.8080986497
 20
74.4467865599
 11
172.0543041111
 21
74.4467865599
  0
LINE
  5
2DA
100
AcDbEntity
  8
IMPORT_IGES
100
AcDbLine
 62
7
  6
CONTINUOUS
 10
171.8080986497
 20
74.4467865599
 11
172.0543041111
 21
74.4467865599
  0
LINE
  5
2DB
100
AcDbEntity
  8
0
100
AcDbLine
 62
7
  6
CONTINUOUS
 10
172.0552938818
 20
74.8070630943
 11
171.7928726771
 21
74.8070630943
  0
LINE
  5
2DC
100
AcDbEntity
  8
CURVE
100
AcDbLine
 62
250
  6
CONTINUOUS
 10
172.0552938818
 20
74.8070630943
 11
171.7928726771
 21
74.8070630943
  0
LINE
  5
2DD
100
AcDbEntity
  8
IMPORT_IGES
100
AcDbLine
 62
7
  6
CONTINUOUS
 10
172.0552938818
 20
74.8070630943
 11
171.7928726771
 21
74.8070630943
  0
LINE
  5
2DE
100
AcDbEntity
  8
0
100
AcDbLine
 62
7
  6
CONTINUOUS
 10
170.5409607687
 20
75.7857153902
 11
170.0967525032
 21
75.7857153902
  0
LINE
  5
2DF
100
AcDbEntity
  8
0
100
AcDbLine
 62
7
  6
CONTINUOUS
 10
169.1289379758
 20
75.7857153902
 11
168.6746170441
 21
75.7857153902
  0
LINE
  5
2E0
100
AcDbEntity
  8
0
100
AcDbLine
 62
7
  6
CONTINUOUS
 10
167.7610911808
 20
75.7857153902
 11
167.3022832969
 21
75.7857153902
  0
LINE
  5
2E1
100
AcDbEntity
  8
0
100
AcDbLine
 62
7
  6
CONTINUOUS
 10
166.2268646791
 20
75.7857153902
 11
165.7679897476
 21
75.7857153902
  0
LINE
  5
2E2
100
AcDbEntity
  8
0
100
AcDbLine
 62
7
  6
CONTINUOUS
 10
164.9165311196
 20
75.7857153902
 11
164.4177115233
 21
75.7857153902
  0
LINE
  5
2E3
100
AcDbEntity
  8
CURVE
100
AcDbLine
 62
250
  6
CONTINUOUS
 10
164.4177115233
 20
75.7857153902
 11
164.9165311196
 21
75.7857153902
  0
LINE
  5
2E4
100
AcDbEntity
  8
IMPORT_IGES
100
AcDbLine
 62
7
  6
CONTINUOUS
 10
164.4177115233
 20
75.7857153902
 11
164.9165311196
 21
75.7857153902
  0
LINE
  5
2E5
100
AcDbEntity
  8
CURVE
100
AcDbLine
 62
250
  6
CONTINUOUS
 10
165.7679897476
 20
75.7857153902
 11
166.2268646791
 21
75.7857153902
  0
LINE
  5
2E6
100
AcDbEntity
  8
IMPORT_IGES
100
AcDbLine
 62
7
  6
CONTINUOUS
 10
165.7679897476
 20
75.7857153902
 11
166.2268646791
 21
75.7857153902
  0
LINE
  5
2E7
100
AcDbEntity
  8
CURVE
100
AcDbLine
 62
250
  6
CONTINUOUS
 10
167.3022832969
 20
75.7857153902
 11
167.7610911808
 21
75.7857153902
  0
LINE
  5
2E8
100
AcDbEntity
  8
IMPORT_IGES
100
AcDbLine
 62
7
  6
CONTINUOUS
 10
167.3022832969
 20
75.7857153902
 11
167.7610911808
 21
75.7857153902
  0
LINE
  5
2E9
100
AcDbEntity
  8
CURVE
100
AcDbLine
 62
250
  6
CONTINUOUS
 10
168.6746170441
 20
75.7857153902
 11
169.1289379758
 21
75.7857153902
  0
LINE
  5
2EA
100
AcDbEntity
  8
IMPORT_IGES
100
AcDbLine
 62
7
  6
CONTINUOUS
 10
168.6746170441
 20
75.7857153902
 11
169.1289379758
 21
75.7857153902
  0
LINE
  5
2EB
100
AcDbEntity
  8
CURVE
100
AcDbLine
 62
250
  6
CONTINUOUS
 10
170.0967525032
 20
75.7857153902
 11
170.5409607687
 21
75.7857153902
  0
LINE
  5
2EC
100
AcDbEntity
  8
IMPORT_IGES
100
AcDbLine
 62
7
  6
CONTINUOUS
 10
170.0967525032
 20
75.7857153902
 11
170.5409607687
 21
75.7857153902
  0
LINE
  5
2ED
100
AcDbEntity
  8
0
100
AcDbLine
 62
7
  6
CONTINUOUS
 10
166.8564575076
 20
75.7858473902
 11
166.397269338
 21
75.7858473902
  0
LINE
  5
2EE
100
AcDbEntity
  8
CURVE
100
AcDbLine
 62
250
  6
CONTINUOUS
 10
166.8564575076
 20
75.7858473902
 11
166.397269338
 21
75.7858473902
  0
LINE
  5
2EF
100
AcDbEntity
  8
IMPORT_IGES
100
AcDbLine
 62
7
  6
CONTINUOUS
 10
166.8564575076
 20
75.7858473902
 11
166.397269338
 21
75.7858473902
  0
LWPOLYLINE
  5
2F0
100
AcDbEntity
  8
CURVE
100
AcDbPolyline
 62
250
  6
CONTINUOUS
 90
19
 70
0
 10
172.0543041111
 20
74.4467865599
 10
172.0579591919
 20
74.4467614784
 10
172.0616181064
 20
74.4466862355
 10
172.0652798941
 20
74.4465608336
 10
172.0689435945
 20
74.4463852751
 10
172.0726082471
 20
74.4461595623
 10
172.0762728913
 20
74.4458836976
 10
172.0799365667
 20
74.4455576835
 10
172.0835983126
 20
74.4451815222
 10
172.0872571686
 20
74.4447552162
 10
172.0909121742
 20
74.4442787678
 10
172.0945623689
 20
74.4437521795
 10
172.0982067921
 20
74.4431754536
 10
172.1018444834
 20
74.4425485924
 10
172.1054744821
 20
74.4418715984
 10
172.1090958278
 20
74.441144474
 10
172.11270756
 20
74.4403672215
 10
172.1163087182
 20
74.4395398433
 10
172.1198983418
 20
74.4386623417
  0
LWPOLYLINE
  5
2F1
100
AcDbEntity
  8
IMPORT_IGES
100
AcDbPolyline
 62
7
  6
CONTINUOUS
 90
19
 70
0
 10
172.0543041111
 20
74.4467865599
 10
172.0579591919
 20
74.4467614784
 10
172.0616181064
 20
74.4466862355
 10
172.0652798941
 20
74.4465608336
 10
172.0689435945
 20
74.4463852751
 10
172.0726082471
 20
74.4461595623
 10
172.0762728913
 20
74.4458836976
 10
172.0799365667
 20
74.4455576835
 10
172.0835983126
 20
74.4451815222
 10
172.0872571686
 20
74.4447552162
 10
172.0909121742
 20
74.4442787678
 10
172.0945623689
 20
74.4437521795
 10
172.0982067921
 20
74.4431754536
 10
172.1018444834
 20
74.4425485924
 10
172.1054744821
 20
74.4418715984
 10
172.1090958278
 20
74.441144474
 10
172.11270756
 20
74.4403672215
 10
172.1163087182
 20
74.4395398433
 10
172.1198983418
 20
74.4386623417
  0
LWPOLYLINE
  5
2F2
100
AcDbEntity
  8
CURVE
100
AcDbPolyline
 62
250
  6
CONTINUOUS
 90
8
 70
0
 10
172.0316894265
 20
75.4320267023
 10
172.0369369736
 20
75.4319336167
 10
172.0421842055
 20
75.4318157193
 10
172.0474309871
 20
75.431673213
 10
172.0526771834
 20
75.4315063003
 10
172.0579226591
 20
75.4313151839
 10
172.0631672792
 20
75.4311000667
 10
172.0684109086
 20
75.4308611512
  0
LWPOLYLINE
  5
2F3
100
AcDbEntity
  8
IMPORT_IGES
100
AcDbPolyline
 62
7
  6
CONTINUOUS
 90
8
 70
0
 10
172.0316894265
 20
75.4320267023
 10
172.0369369736
 20
75.4319336167
 10
172.0421842055
 20
75.4318157193
 10
172.0474309871
 20
75.431673213
 10
172.0526771834
 20
75.4315063003
 10
172.0579226591
 20
75.4313151839
 10
172.0631672792
 20
75.4311000667
 10
172.0684109086
 20
75.4308611512
  0
LWPOLYLINE
  5
2F4
100
AcDbEntity
  8
CURVE
100
AcDbPolyline
 62
250
  6
CONTINUOUS
 90
10
 70
0
 10
172.0280000246
 20
75.809744026
 10
172.0112420815
 20
75.8101120179
 10
171.9944853138
 20
75.8103673944
 10
171.9777298372
 20
75.810513437
 10
171.9609757679
 20
75.8105534271
 10
171.9442232216
 20
75.8104906464
 10
171.9274723142
 20
75.8103283763
 10
171.9107231618
 20
75.8100698983
 10
171.8939758803
 20
75.809718494
 10
171.8695206764
 20
75.8090451197
  0
LWPOLYLINE
  5
2F5
100
AcDbEntity
  8
IMPORT_IGES
100
AcDbPolyline
 62
7
  6
CONTINUOUS
 90
10
 70
0
 10
172.0280000246
 20
75.809744026
 10
172.0112420815
 20
75.8101120179
 10
171.9944853138
 20
75.8103673944
 10
171.9777298372
 20
75.810513437
 10
171.9609757679
 20
75.8105534271
 10
171.9442232216
 20
75.8104906464
 10
171.9274723142
 20
75.8103283763
 10
171.9107231618
 20
75.8100698983
 10
171.8939758803
 20
75.809718494
 10
171.8695206764
 20
75.8090451197
  0
LINE
  5
2F6
100
AcDbEntity
  8
CURVE
100
AcDbLine
 62
250
  6
CONTINUOUS
 10
172.0467641639
 20
75.8091943262
 11
172.0280000246
 21
75.809744026
  0
LINE
  5
2F7
100
AcDbEntity
  8
IMPORT_IGES
100
AcDbLine
 62
7
  6
CONTINUOUS
 10
172.0467641639
 20
75.8091943262
 11
172.0280000246
 21
75.809744026
  0
LINE
  5
2F8
100
AcDbEntity
  8
CURVE
100
AcDbLine
 62
250
  6
CONTINUOUS
 10
172.0655294685
 20
75.8084947325
 11
172.0467641639
 21
75.8091943262
  0
LINE
  5
2F9
100
AcDbEntity
  8
IMPORT_IGES
100
AcDbLine
 62
7
  6
CONTINUOUS
 10
172.0655294685
 20
75.8084947325
 11
172.0467641639
 21
75.8091943262
  0
LWPOLYLINE
  5
2FA
100
AcDbEntity
  8
0
100
AcDbPolyline
 62
7
  6
CONTINUOUS
 90
16
 70
0
 10
172.0543041111
 20
74.4467865599
 10
172.0769973458
 20
74.4457481047
 10
172.0990137628
 20
74.4430016877
 10
172.1203533621
 20
74.438547309
 10
172.1410919709
 20
74.4323564815
 10
172.1611537619
 20
74.4244576923
 10
172.1803112538
 20
74.4149364021
 10
172.1984789512
 20
74.4038611381
 10
172.2157423495
 20
74.391163373
 10
172.2321304538
 20
74.3767229855
 10
172.2477139012
 20
74.3605106344
 10
172.2624220545
 20
74.3425556609
 10
172.2760720076
 20
74.322825967
 10
172.288602792
 20
74.3013108533
 10
172.3000753762
 20
74.2780210192
 10
172.3104897603
 20
74.2529564647
  0
LINE
  5
2FB
100
AcDbEntity
  8
CURVE
100
AcDbLine
 62
250
  6
CONTINUOUS
 10
172.0684109086
 20
75.4308611512
 11
172.0773288068
 21
75.4304005978
  0
LINE
  5
2FC
100
AcDbEntity
  8
IMPORT_IGES
100
AcDbLine
 62
7
  6
CONTINUOUS
 10
172.0684109086
 20
75.4308611512
 11
172.0773288068
 21
75.4304005978
  0
LWPOLYLINE
  5
2FD
100
AcDbEntity
  8
CURVE
100
AcDbPolyline
 62
250
  6
CONTINUOUS
 90
3
 70
0
 10
172.0936792546
 20
75.8071542155
 10
172.0842957758
 20
75.807640639
 10
172.0655294685
 20
75.8084947325
  0
LWPOLYLINE
  5
2FE
100
AcDbEntity
  8
IMPORT_IGES
100
AcDbPolyline
 62
7
  6
CONTINUOUS
 90
3
 70
0
 10
172.0936792546
 20
75.8071542155
 10
172.0842957758
 20
75.807640639
 10
172.0655294685
 20
75.8084947325
  0
LINE
  5
2FF
100
AcDbEntity
  8
CURVE
100
AcDbLine
 62
250
  6
CONTINUOUS
 10
172.1039284362
 20
75.8065767999
 11
172.0936792546
 21
75.8071542155
  0
LINE
  5
300
100
AcDbEntity
  8
IMPORT_IGES
100
AcDbLine
 62
7
  6
CONTINUOUS
 10
172.1039284362
 20
75.8065767999
 11
172.0936792546
 21
75.8071542155
  0
LINE
  5
301
100
AcDbEntity
  8
CURVE
100
AcDbLine
 62
250
  6
CONTINUOUS
 10
172.0773288068
 20
75.4304005978
 11
172.0873638307
 21
75.429801637
  0
LINE
  5
302
100
AcDbEntity
  8
IMPORT_IGES
100
AcDbLine
 62
7
  6
CONTINUOUS
 10
172.0773288068
 20
75.4304005978
 11
172.0873638307
 21
75.429801637
  0
LINE
  5
303
100
AcDbEntity
  8
CURVE
100
AcDbLine
 62
250
  6
CONTINUOUS
 10
172.0873638307
 20
75.429801637
 11
172.0973929328
 21
75.4291188146
  0
LINE
  5
304
100
AcDbEntity
  8
IMPORT_IGES
100
AcDbLine
 62
7
  6
CONTINUOUS
 10
172.0873638307
 20
75.429801637
 11
172.0973929328
 21
75.4291188146
  0
LINE
  5
305
100
AcDbEntity
  8
CURVE
100
AcDbLine
 62
250
  6
CONTINUOUS
 10
172.0973929328
 20
75.4291188146
 11
172.1074151638
 21
75.4283535546
  0
LINE
  5
306
100
AcDbEntity
  8
IMPORT_IGES
100
AcDbLine
 62
7
  6
CONTINUOUS
 10
172.0973929328
 20
75.4291188146
 11
172.1074151638
 21
75.4283535546
  0
LINE
  5
307
100
AcDbEntity
  8
CURVE
100
AcDbLine
 62
250
  6
CONTINUOUS
 10
172.1074151638
 20
75.4283535546
 11
172.1176008644
 21
75.4274921033
  0
LINE
  5
308
100
AcDbEntity
  8
IMPORT_IGES
100
AcDbLine
 62
7
  6
CONTINUOUS
 10
172.1074151638
 20
75.4283535546
 11
172.1176008644
 21
75.4274921033
  0
LWPOLYLINE
  5
309
100
AcDbEntity
  8
CURVE
100
AcDbPolyline
 62
250
  6
CONTINUOUS
 90
7
 70
0
 10
172.1176008644
 20
75.4274921033
 10
172.1234434482
 20
75.4269603478
 10
172.1292828485
 20
75.4264017558
 10
172.1351188765
 20
75.4258166107
 10
172.1409513433
 20
75.4252051957
 10
172.14678006
 20
75.4245677944
 10
172.1526048377
 20
75.4239046901
  0
LWPOLYLINE
  5
30A
100
AcDbEntity
  8
IMPORT_IGES
100
AcDbPolyline
 62
7
  6
CONTINUOUS
 90
7
 70
0
 10
172.1176008644
 20
75.4274921033
 10
172.1234434482
 20
75.4269603478
 10
172.1292828485
 20
75.4264017558
 10
172.1351188765
 20
75.4258166107
 10
172.1409513433
 20
75.4252051957
 10
172.14678006
 20
75.4245677944
 10
172.1526048377
 20
75.4239046901
  0
LWPOLYLINE
  5
30B
100
AcDbEntity
  8
CURVE
100
AcDbPolyline
 62
250
  6
CONTINUOUS
 90
20
 70
0
 10
172.1526048377
 20
75.4239046901
 10
172.1571811216
 20
75.4233398054
 10
172.1617588259
 20
75.4227075505
 10
172.1663364594
 20
75.4220080284
 10
172.1709125311
 20
75.4212413419
 10
172.17548555
 20
75.420407594
 10
172.1800540251
 20
75.4195068873
 10
172.1846164653
 20
75.4185393249
 10
172.1891713795
 20
75.4175050096
 10
172.1937172767
 20
75.4164040443
 10
172.1982526659
 20
75.4152365318
 10
172.202776056
 20
75.414002575
 10
172.2072859561
 20
75.4127022768
 10
172.2117808749
 20
75.41133574
 10
172.2162593216
 20
75.4099030675
 10
172.220719805
 20
75.4084043623
 10
172.2251608341
 20
75.4068397271
 10
172.2295809179
 20
75.4052092648
 10
172.2339785653
 20
75.4035130782
 10
172.2383522853
 20
75.4017512704
  0
LWPOLYLINE
  5
30C
100
AcDbEntity
  8
IMPORT_IGES
100
AcDbPolyline
 62
7
  6
CONTINUOUS
 90
20
 70
0
 10
172.1526048377
 20
75.4239046901
 10
172.1571811216
 20
75.4233398054
 10
172.1617588259
 20
75.4227075505
 10
172.1663364594
 20
75.4220080284
 10
172.1709125311
 20
75.4212413419
 10
172.17548555
 20
75.420407594
 10
172.1800540251
 20
75.4195068873
 10
172.1846164653
 20
75.4185393249
 10
172.1891713795
 20
75.4175050096
 10
172.1937172767
 20
75.4164040443
 10
172.1982526659
 20
75.4152365318
 10
172.202776056
 20
75.414002575
 10
172.2072859561
 20
75.4127022768
 10
172.2117808749
 20
75.41133574
 10
172.2162593216
 20
75.4099030675
 10
172.220719805
 20
75.4084043623
 10
172.2251608341
 20
75.4068397271
 10
172.2295809179
 20
75.4052092648
 10
172.2339785653
 20
75.4035130782
 10
172.2383522853
 20
75.4017512704
  0
LINE
  5
30D
100
AcDbEntity
  8
0
100
AcDbLine
 62
250
  6
CONTINUOUS
 10
202.1760435514
 20
77.7510305731
 11
135.2758613891
 21
77.7510305731
  0
LINE
  5
30E
100
AcDbEntity
  8
ASSI
100
AcDbLine
 62
250
  6
CONTINUOUS
 10
202.1760435514
 20
77.7510305731
 11
135.2758613891
 21
77.7510305731
  0
LINE
  5
30F
100
AcDbEntity
  8
0
100
AcDbLine
 62
250
  6
CONTINUOUS
 10
202.1760435514
 20
77.9505433832
 11
135.2758613891
 21
77.9505433832
  0
LINE
  5
310
100
AcDbEntity
  8
ASSI
100
AcDbLine
 62
250
  6
CONTINUOUS
 10
202.1760435514
 20
77.9505433832
 11
135.2758613891
 21
77.9505433832
  0
LINE
  5
311
100
AcDbEntity
  8
RACCORDO
100
AcDbLine
 62
7
  6
CONTINUOUS
 10
135.3747344954
 20
78.0494164894
 11
202.0771704452
 21
78.0494164894
  0
LINE
  5
312
100
AcDbEntity
  8
ASSI
100
AcDbLine
 62
7
  6
CONTINUOUS
 10
135.3747344954
 20
78.0494164894
 11
202.0771704452
 21
78.0494164894
  0
LINE
  5
313
100
AcDbEntity
  8
0
100
AcDbLine
 62
250
  6
CONTINUOUS
 10
202.8743383866
 20
78.4493254083
 11
202.6748255766
 21
78.4493254083
  0
LINE
  5
314
100
AcDbEntity
  8
ASSI
100
AcDbLine
 62
250
  6
CONTINUOUS
 10
202.8743383866
 20
78.4493254083
 11
202.6748255766
 21
78.4493254083
  0
LINE
  5
315
100
AcDbEntity
  8
0
100
AcDbLine
 62
250
  6
CONTINUOUS
 10
134.577566554
 20
78.4493254083
 11
134.777079364
 21
78.4493254083
  0
LINE
  5
316
100
AcDbEntity
  8
ASSI
100
AcDbLine
 62
250
  6
CONTINUOUS
 10
134.577566554
 20
78.4493254083
 11
134.777079364
 21
78.4493254083
  0
LWPOLYLINE
  5
317
100
AcDbEntity
  8
0
100
AcDbPolyline
 62
250
  6
CONTINUOUS
 90
25
 70
0
 10
135.2758613891
 20
77.9505433832
 10
135.2431752848
 20
77.9515445229
 10
135.210769949
 20
77.9546568341
 10
135.1787785623
 20
77.95984187
 10
135.1473756326
 20
77.9670403339
 10
135.1166379486
 20
77.9762047334
 10
135.0865528804
 20
77.9873289337
 10
135.0571981356
 20
78.0003920618
 10
135.0287441736
 20
78.0153261904
 10
135.0013200896
 20
78.0320669596
 10
134.9750334082
 20
78.0505505544
 10
134.9499991907
 20
78.0706971012
 10
134.9263459009
 20
78.0924004562
 10
134.9041873963
 20
78.1155448292
 10
134.8835876624
 20
78.1400506279
 10
134.864594844
 20
78.1658595622
 10
134.8473554871
 20
78.1927602128
 10
134.8318668238
 20
78.2207452939
 10
134.8180240413
 20
78.2501019576
 10
134.8059070578
 20
78.2809111757
 10
134.7957341934
 20
78.3129153062
 10
134.7876590511
 20
78.3459072144
 10
134.7817958639
 20
78.3797228326
 10
134.7782381954
 20
78.4142476764
 10
134.777079364
 20
78.4493254083
  0
LWPOLYLINE
  5
318
100
AcDbEntity
  8
ASSI
100
AcDbPolyline
 62
250
  6
CONTINUOUS
 90
25
 70
0
 10
135.2758613891
 20
77.9505433832
 10
135.2431752848
 20
77.9515445229
 10
135.210769949
 20
77.9546568341
 10
135.1787785623
 20
77.95984187
 10
135.1473756326
 20
77.9670403339
 10
135.1166379486
 20
77.9762047334
 10
135.0865528804
 20
77.9873289337
 10
135.0571981356
 20
78.0003920618
 10
135.0287441736
 20
78.0153261904
 10
135.0013200896
 20
78.0320669596
 10
134.9750334082
 20
78.0505505544
 10
134.9499991907
 20
78.0706971012
 10
134.9263459009
 20
78.0924004562
 10
134.9041873963
 20
78.1155448292
 10
134.8835876624
 20
78.1400506279
 10
134.864594844
 20
78.1658595622
 10
134.8473554871
 20
78.1927602128
 10
134.8318668238
 20
78.2207452939
 10
134.8180240413
 20
78.2501019576
 10
134.8059070578
 20
78.2809111757
 10
134.7957341934
 20
78.3129153062
 10
134.7876590511
 20
78.3459072144
 10
134.7817958639
 20
78.3797228326
 10
134.7782381954
 20
78.4142476764
 10
134.777079364
 20
78.4493254083
  0
LWPOLYLINE
  5
319
100
AcDbEntity
  8
0
100
AcDbPolyline
 62
250
  6
CONTINUOUS
 90
25
 70
0
 10
135.2758613891
 20
77.7510305731
 10
135.2298864739
 20
77.7526265183
 10
135.1846601976
 20
77.7570448697
 10
135.1401825602
 20
77.7642856273
 10
135.0963429389
 20
77.7743975218
 10
135.0532519565
 20
77.7873318225
 10
135.0112414811
 20
77.8029423375
 10
134.970252964
 20
77.8212663411
 10
134.930344954
 20
77.8422665592
 10
134.892024966
 20
77.8656849774
 10
134.8553085046
 20
77.8915637067
 10
134.8201800652
 20
77.9198606362
 10
134.7871006493
 20
77.9501914191
 10
134.7561224061
 20
77.9825493554
 10
134.7271931864
 20
78.0169411451
 10
134.7006175446
 20
78.0530025417
 10
134.6764439976
 20
78.0905718874
 10
134.6546240284
 20
78.1298108401
 10
134.6353166398
 20
78.1708401271
 10
134.618389201
 20
78.2139047653
 10
134.6039743427
 20
78.2587597378
 10
134.5926289593
 20
78.3047907207
 10
134.5845386825
 20
78.3517929395
 10
134.5795178807
 20
78.3999711687
 10
134.577566554
 20
78.4493254083
  0
LWPOLYLINE
  5
31A
100
AcDbEntity
  8
ASSI
100
AcDbPolyline
 62
250
  6
CONTINUOUS
 90
25
 70
0
 10
135.2758613891
 20
77.7510305731
 10
135.2298864739
 20
77.7526265183
 10
135.1846601976
 20
77.7570448697
 10
135.1401825602
 20
77.7642856273
 10
135.0963429389
 20
77.7743975218
 10
135.0532519565
 20
77.7873318225
 10
135.0112414811
 20
77.8029423375
 10
134.970252964
 20
77.8212663411
 10
134.930344954
 20
77.8422665592
 10
134.892024966
 20
77.8656849774
 10
134.8553085046
 20
77.8915637067
 10
134.8201800652
 20
77.9198606362
 10
134.7871006493
 20
77.9501914191
 10
134.7561224061
 20
77.9825493554
 10
134.7271931864
 20
78.0169411451
 10
134.7006175446
 20
78.0530025417
 10
134.6764439976
 20
78.0905718874
 10
134.6546240284
 20
78.1298108401
 10
134.6353166398
 20
78.1708401271
 10
134.618389201
 20
78.2139047653
 10
134.6039743427
 20
78.2587597378
 10
134.5926289593
 20
78.3047907207
 10
134.5845386825
 20
78.3517929395
 10
134.5795178807
 20
78.3999711687
 10
134.577566554
 20
78.4493254083
  0
LWPOLYLINE
  5
31B
100
AcDbEntity
  8
CURVE
100
AcDbPolyline
 62
250
  6
CONTINUOUS
 90
8
 70
0
 10
172.1733146133
 20
75.8013430108
 10
172.1632138634
 20
75.8022541238
 10
172.1531120951
 20
75.8031126512
 10
172.143275136
 20
75.8038995186
 10
172.1334382671
 20
75.8046387041
 10
172.1236015119
 20
75.8053308707
 10
172.1137648938
 20
75.8059766816
 10
172.1039284362
 20
75.8065767999
  0
LWPOLYLINE
  5
31C
100
AcDbEntity
  8
IMPORT_IGES
100
AcDbPolyline
 62
7
  6
CONTINUOUS
 90
8
 70
0
 10
172.1733146133
 20
75.8013430108
 10
172.1632138634
 20
75.8022541238
 10
172.1531120951
 20
75.8031126512
 10
172.143275136
 20
75.8038995186
 10
172.1334382671
 20
75.8046387041
 10
172.1236015119
 20
75.8053308707
 10
172.1137648938
 20
75.8059766816
 10
172.1039284362
 20
75.8065767999
  0
LWPOLYLINE
  5
31D
100
AcDbEntity
  8
CURVE
100
AcDbPolyline
 62
250
  6
CONTINUOUS
 90
8
 70
0
 10
172.2365127578
 20
75.7943366646
 10
172.2286266692
 20
75.795342267
 10
172.2207356259
 20
75.7963092422
 10
172.212840151
 20
75.7972383595
 10
172.2049407677
 20
75.7981303885
 10
172.1970379991
 20
75.7989860987
 10
172.1891323684
 20
75.7998062595
 10
172.1733146133
 20
75.8013430108
  0
LWPOLYLINE
  5
31E
100
AcDbEntity
  8
IMPORT_IGES
100
AcDbPolyline
 62
7
  6
CONTINUOUS
 90
8
 70
0
 10
172.2365127578
 20
75.7943366646
 10
172.2286266692
 20
75.795342267
 10
172.2207356259
 20
75.7963092422
 10
172.212840151
 20
75.7972383595
 10
172.2049407677
 20
75.7981303885
 10
172.1970379991
 20
75.7989860987
 10
172.1891323684
 20
75.7998062595
 10
172.1733146133
 20
75.8013430108
  0
LINE
  5
31F
100
AcDbEntity
  8
CURVE
100
AcDbLine
 62
250
  6
CONTINUOUS
 10
172.2445871522
 20
75.7932654561
 11
172.2365127578
 21
75.7943366646
  0
LINE
  5
320
100
AcDbEntity
  8
IMPORT_IGES
100
AcDbLine
 62
7
  6
CONTINUOUS
 10
172.2445871522
 20
75.7932654561
 11
172.2365127578
 21
75.7943366646
  0
LWPOLYLINE
  5
321
100
AcDbEntity
  8
0
100
AcDbPolyline
 62
7
  6
CONTINUOUS
 90
16
 70
0
 10
172.1526048377
 20
75.4239046901
 10
172.1829510719
 20
75.4186494283
 10
172.2116973984
 20
75.4111973751
 10
172.2388438171
 20
75.4015485304
 10
172.2645407213
 20
75.3895699965
 10
172.2886377178
 20
75.3753946711
 10
172.3106836265
 20
75.3594212481
 10
172.3305286691
 20
75.3417289514
 10
172.348322624
 20
75.3222385571
 10
172.3640636463
 20
75.3011110869
 10
172.3778771864
 20
75.2780808188
 10
172.3896377939
 20
75.2534134748
 10
172.3989672731
 20
75.228067242
 10
172.4057395589
 20
75.202361516
 10
172.4100807163
 20
75.1759769012
 10
172.4119907455
 20
75.1489133976
  0
LWPOLYLINE
  5
322
100
AcDbEntity
  8
CURVE
100
AcDbPolyline
 62
250
  6
CONTINUOUS
 90
9
 70
0
 10
172.3022606338
 20
75.7842996105
 10
172.2950762867
 20
75.7855493678
 10
172.2878840329
 20
75.7867610686
 10
172.2806842773
 20
75.787935309
 10
172.2734774252
 20
75.7890726845
 10
172.2662638815
 20
75.7901737912
 10
172.2590440513
 20
75.7912392248
 10
172.2518183399
 20
75.7922695812
 10
172.2445871522
 20
75.7932654561
  0
LWPOLYLINE
  5
323
100
AcDbEntity
  8
IMPORT_IGES
100
AcDbPolyline
 62
7
  6
CONTINUOUS
 90
9
 70
0
 10
172.3022606338
 20
75.7842996105
 10
172.2950762867
 20
75.7855493678
 10
172.2878840329
 20
75.7867610686
 10
172.2806842773
 20
75.787935309
 10
172.2734774252
 20
75.7890726845
 10
172.2662638815
 20
75.7901737912
 10
172.2590440513
 20
75.7912392248
 10
172.2518183399
 20
75.7922695812
 10
172.2445871522
 20
75.7932654561
  0
LINE
  5
324
100
AcDbEntity
  8
CURVE
100
AcDbLine
 62
250
  6
CONTINUOUS
 10
172.3080006088
 20
75.7832722824
 11
172.3022606338
 21
75.7842996105
  0
LINE
  5
325
100
AcDbEntity
  8
IMPORT_IGES
100
AcDbLine
 62
7
  6
CONTINUOUS
 10
172.3080006088
 20
75.7832722824
 11
172.3022606338
 21
75.7842996105
  0
LWPOLYLINE
  5
326
100
AcDbEntity
  8
CURVE
100
AcDbPolyline
 62
250
  6
CONTINUOUS
 90
12
 70
0
 10
172.1198983418
 20
74.4386623417
 10
172.1217988384
 20
74.4381761646
 10
172.1236956703
 20
74.4376758643
 10
172.1255886938
 20
74.437161441
 10
172.1274777653
 20
74.4366328953
 10
172.1293627411
 20
74.4360902274
 10
172.1312434776
 20
74.4355334377
 10
172.1331198309
 20
74.4349625265
 10
172.1349916575
 20
74.4343774943
 10
172.1368588137
 20
74.4337783413
 10
172.1387211558
 20
74.4331650679
 10
172.1405785401
 20
74.4325376745
  0
LWPOLYLINE
  5
327
100
AcDbEntity
  8
IMPORT_IGES
100
AcDbPolyline
 62
7
  6
CONTINUOUS
 90
12
 70
0
 10
172.1198983418
 20
74.4386623417
 10
172.1217988384
 20
74.4381761646
 10
172.1236956703
 20
74.4376758643
 10
172.1255886938
 20
74.437161441
 10
172.1274777653
 20
74.4366328953
 10
172.1293627411
 20
74.4360902274
 10
172.1312434776
 20
74.4355334377
 10
172.1331198309
 20
74.4349625265
 10
172.1349916575
 20
74.4343774943
 10
172.1368588137
 20
74.4337783413
 10
172.1387211558
 20
74.4331650679
 10
172.1405785401
 20
74.4325376745
  0
LWPOLYLINE
  5
328
100
AcDbEntity
  8
0
100
AcDbPolyline
 62
7
  6
CONTINUOUS
 90
16
 70
0
 10
172.4839635715
 20
75.7368536889
 10
172.4273094202
 20
75.7551476451
 10
172.3677332789
 20
75.7707865706
 10
172.3052351474
 20
75.7837704654
 10
172.2396769725
 20
75.7939799866
 10
172.1711968075
 20
75.8015344772
 10
172.1002088126
 20
75.8067919661
 10
172.026835791
 20
75.8097826253
 10
171.9509549394
 20
75.8104762829
 10
171.8726120086
 20
75.809140452
 10
171.791829051
 20
75.8058282633
 10
171.7085840141
 20
75.800486586
 10
171.6228564914
 20
75.7932235413
 10
171.5346396808
 20
75.7840751694
 10
171.4439403843
 20
75.7730054301
 10
171.3507586021
 20
75.7600143233
  0
LWPOLYLINE
  5
329
100
AcDbEntity
  8
CURVE
100
AcDbPolyline
 62
250
  6
CONTINUOUS
 90
12
 70
0
 10
172.1405785401
 20
74.4325376745
 10
172.1424576765
 20
74.4318867438
 10
172.1443314123
 20
74.4312212809
 10
172.1461995973
 20
74.4305412861
 10
172.1480620815
 20
74.4298467597
 10
172.149918715
 20
74.4291377023
 10
172.1517693476
 20
74.428414114
 10
172.1536138295
 20
74.4276759954
 10
172.1554520105
 20
74.4269233467
 10
172.1572837405
 20
74.4261561683
 10
172.1591088697
 20
74.4253744607
 10
172.1609272479
 20
74.4245782242
  0
LWPOLYLINE
  5
32A
100
AcDbEntity
  8
IMPORT_IGES
100
AcDbPolyline
 62
7
  6
CONTINUOUS
 90
12
 70
0
 10
172.1405785401
 20
74.4325376745
 10
172.1424576765
 20
74.4318867438
 10
172.1443314123
 20
74.4312212809
 10
172.1461995973
 20
74.4305412861
 10
172.1480620815
 20
74.4298467597
 10
172.149918715
 20
74.4291377023
 10
172.1517693476
 20
74.428414114
 10
172.1536138295
 20
74.4276759954
 10
172.1554520105
 20
74.4269233467
 10
172.1572837405
 20
74.4261561683
 10
172.1591088697
 20
74.4253744607
 10
172.1609272479
 20
74.4245782242
  0
LWPOLYLINE
  5
32B
100
AcDbEntity
  8
CURVE
100
AcDbPolyline
 62
250
  6
CONTINUOUS
 90
17
 70
0
 10
172.4839635715
 20
75.7368536889
 10
172.4732452795
 20
75.7406518344
 10
172.4624824754
 20
75.7443197043
 10
172.451676715
 20
75.7478595868
 10
172.4408295537
 20
75.7512737701
 10
172.4299425473
 20
75.754564542
 10
172.4190172514
 20
75.7577341908
 10
172.4080552216
 20
75.7607850046
 10
172.3970580136
 20
75.7637192713
 10
172.386027183
 20
75.7665392791
 10
172.3749642853
 20
75.769247316
 10
172.3638708764
 20
75.7718456702
 10
172.3527485117
 20
75.7743366297
 10
172.341598747
 20
75.7767224826
 10
172.3304231379
 20
75.7790055169
 10
172.3192232399
 20
75.7811880208
 10
172.3080006088
 20
75.7832722824
  0
LWPOLYLINE
  5
32C
100
AcDbEntity
  8
IMPORT_IGES
100
AcDbPolyline
 62
7
  6
CONTINUOUS
 90
17
 70
0
 10
172.4839635715
 20
75.7368536889
 10
172.4732452795
 20
75.7406518344
 10
172.4624824754
 20
75.7443197043
 10
172.451676715
 20
75.7478595868
 10
172.4408295537
 20
75.7512737701
 10
172.4299425473
 20
75.754564542
 10
172.4190172514
 20
75.7577341908
 10
172.4080552216
 20
75.7607850046
 10
172.3970580136
 20
75.7637192713
 10
172.386027183
 20
75.7665392791
 10
172.3749642853
 20
75.769247316
 10
172.3638708764
 20
75.7718456702
 10
172.3527485117
 20
75.7743366297
 10
172.341598747
 20
75.7767224826
 10
172.3304231379
 20
75.7790055169
 10
172.3192232399
 20
75.7811880208
 10
172.3080006088
 20
75.7832722824
  0
LWPOLYLINE
  5
32D
100
AcDbEntity
  8
CURVE
100
AcDbPolyline
 62
250
  6
CONTINUOUS
 90
12
 70
0
 10
172.2383522853
 20
75.4017512704
 10
172.2406512238
 20
75.4007946951
 10
172.2429428581
 20
75.399819873
 10
172.2452269686
 20
75.3988268193
 10
172.2475033361
 20
75.3978155491
 10
172.249771741
 20
75.3967860776
 10
172.2520319641
 20
75.3957384199
 10
172.2542837858
 20
75.3946725911
 10
172.2565269867
 20
75.3935886063
 10
172.2587613474
 20
75.3924864808
 10
172.2609866486
 20
75.3913662297
 10
172.2632026708
 20
75.390227868
  0
LWPOLYLINE
  5
32E
100
AcDbEntity
  8
IMPORT_IGES
100
AcDbPolyline
 62
7
  6
CONTINUOUS
 90
12
 70
0
 10
172.2383522853
 20
75.4017512704
 10
172.2406512238
 20
75.4007946951
 10
172.2429428581
 20
75.399819873
 10
172.2452269686
 20
75.3988268193
 10
172.2475033361
 20
75.3978155491
 10
172.249771741
 20
75.3967860776
 10
172.2520319641
 20
75.3957384199
 10
172.2542837858
 20
75.3946725911
 10
172.2565269867
 20
75.3935886063
 10
172.2587613474
 20
75.3924864808
 10
172.2609866486
 20
75.3913662297
 10
172.2632026708
 20
75.390227868
  0
LWPOLYLINE
  5
32F
100
AcDbEntity
  8
CURVE
100
AcDbPolyline
 62
250
  6
CONTINUOUS
 90
12
 70
0
 10
172.1609272479
 20
74.4245782242
 10
172.1626653313
 20
74.423800652
 10
172.16439693
 20
74.4230097071
 10
172.1661219117
 20
74.4222053898
 10
172.1678401438
 20
74.4213877006
 10
172.1695514938
 20
74.4205566396
 10
172.1712558293
 20
74.4197122072
 10
172.1729865575
 20
74.4188373026
 10
172.1747097924
 20
74.4179485876
 10
172.1764254734
 20
74.4170461575
 10
172.17813354
 20
74.4161301078
 10
172.1798339318
 20
74.4152005337
  0
LWPOLYLINE
  5
330
100
AcDbEntity
  8
IMPORT_IGES
100
AcDbPolyline
 62
7
  6
CONTINUOUS
 90
12
 70
0
 10
172.1609272479
 20
74.4245782242
 10
172.1626653313
 20
74.423800652
 10
172.16439693
 20
74.4230097071
 10
172.1661219117
 20
74.4222053898
 10
172.1678401438
 20
74.4213877006
 10
172.1695514938
 20
74.4205566396
 10
172.1712558293
 20
74.4197122072
 10
172.1729865575
 20
74.4188373026
 10
172.1747097924
 20
74.4179485876
 10
172.1764254734
 20
74.4170461575
 10
172.17813354
 20
74.4161301078
 10
172.1798339318
 20
74.4152005337
  0
LWPOLYLINE
  5
331
100
AcDbEntity
  8
CURVE
100
AcDbPolyline
 62
250
  6
CONTINUOUS
 90
12
 70
0
 10
172.5133364484
 20
75.7247705398
 10
172.5107079612
 20
75.7259719063
 10
172.5080711366
 20
75.7271535698
 10
172.5054259688
 20
75.7283152381
 10
172.502772452
 20
75.729456619
 10
172.5001105804
 20
75.7305774203
 10
172.4974403481
 20
75.7316773496
 10
172.4947617492
 20
75.7327561147
 10
172.492074778
 20
75.7338134234
 10
172.4893794285
 20
75.7348489836
 10
172.486675695
 20
75.7358625028
 10
172.4839635715
 20
75.7368536889
  0
LWPOLYLINE
  5
332
100
AcDbEntity
  8
IMPORT_IGES
100
AcDbPolyline
 62
7
  6
CONTINUOUS
 90
12
 70
0
 10
172.5133364484
 20
75.7247705398
 10
172.5107079612
 20
75.7259719063
 10
172.5080711366
 20
75.7271535698
 10
172.5054259688
 20
75.7283152381
 10
172.502772452
 20
75.729456619
 10
172.5001105804
 20
75.7305774203
 10
172.4974403481
 20
75.7316773496
 10
172.4947617492
 20
75.7327561147
 10
172.492074778
 20
75.7338134234
 10
172.4893794285
 20
75.7348489836
 10
172.486675695
 20
75.7358625028
 10
172.4839635715
 20
75.7368536889
  0
LWPOLYLINE
  5
333
100
AcDbEntity
  8
CURVE
100
AcDbPolyline
 62
250
  6
CONTINUOUS
 90
12
 70
0
 10
172.5500970585
 20
74.6043898095
 10
172.5484138053
 20
74.6052112782
 10
172.5467254279
 20
74.6060208075
 10
172.5450319757
 20
74.6068183084
 10
172.5433334983
 20
74.6076036918
 10
172.5416300451
 20
74.6083768689
 10
172.5399216655
 20
74.6091377504
 10
172.538208409
 20
74.6098862474
 10
172.5364903251
 20
74.6106222709
 10
172.5347674632
 20
74.6113457318
 10
172.5330398727
 20
74.6120565412
 10
172.5313076033
 20
74.6127546099
  0
LWPOLYLINE
  5
334
100
AcDbEntity
  8
IMPORT_IGES
100
AcDbPolyline
 62
7
  6
CONTINUOUS
 90
12
 70
0
 10
172.5500970585
 20
74.6043898095
 10
172.5484138053
 20
74.6052112782
 10
172.5467254279
 20
74.6060208075
 10
172.5450319757
 20
74.6068183084
 10
172.5433334983
 20
74.6076036918
 10
172.5416300451
 20
74.6083768689
 10
172.5399216655
 20
74.6091377504
 10
172.538208409
 20
74.6098862474
 10
172.5364903251
 20
74.6106222709
 10
172.5347674632
 20
74.6113457318
 10
172.5330398727
 20
74.6120565412
 10
172.5313076033
 20
74.6127546099
  0
LWPOLYLINE
  5
335
100
AcDbEntity
  8
CURVE
100
AcDbPolyline
 62
250
  6
CONTINUOUS
 90
13
 70
0
 10
172.2632026708
 20
75.390227868
 10
172.2653453151
 20
75.3891052166
 10
172.2674788032
 20
75.3879655184
 10
172.2696029343
 20
75.3868087873
 10
172.2717175076
 20
75.3856350371
 10
172.2738223221
 20
75.3844442817
 10
172.2759171771
 20
75.383236535
 10
172.2780018716
 20
75.3820118107
 10
172.2800762047
 20
75.3807701229
 10
172.2821399757
 20
75.3795114852
 10
172.2841929836
 20
75.3782359116
 10
172.2862350276
 20
75.3769434159
 10
172.2882659068
 20
75.375634012
  0
LWPOLYLINE
  5
336
100
AcDbEntity
  8
IMPORT_IGES
100
AcDbPolyline
 62
7
  6
CONTINUOUS
 90
13
 70
0
 10
172.2632026708
 20
75.390227868
 10
172.2653453151
 20
75.3891052166
 10
172.2674788032
 20
75.3879655184
 10
172.2696029343
 20
75.3868087873
 10
172.2717175076
 20
75.3856350371
 10
172.2738223221
 20
75.3844442817
 10
172.2759171771
 20
75.383236535
 10
172.2780018716
 20
75.3820118107
 10
172.2800762047
 20
75.3807701229
 10
172.2821399757
 20
75.3795114852
 10
172.2841929836
 20
75.3782359116
 10
172.2862350276
 20
75.3769434159
 10
172.2882659068
 20
75.375634012
  0
LWPOLYLINE
  5
337
100
AcDbEntity
  8
CURVE
100
AcDbPolyline
 62
250
  6
CONTINUOUS
 90
12
 70
0
 10
172.1798339318
 20
74.4152005337
 10
172.1814538308
 20
74.4142984295
 10
172.1830665935
 20
74.4133841119
 10
172.1846721668
 20
74.4124576644
 10
172.1862704978
 20
74.4115191706
 10
172.1878615332
 20
74.410568714
 10
172.1894452202
 20
74.4096063781
 10
172.1910215057
 20
74.4086322466
 10
172.1925903367
 20
74.4076464029
 10
172.1941516601
 20
74.4066489306
 10
172.1957054229
 20
74.4056399132
 10
172.197251572
 20
74.4046194342
  0
LWPOLYLINE
  5
338
100
AcDbEntity
  8
IMPORT_IGES
100
AcDbPolyline
 62
7
  6
CONTINUOUS
 90
12
 70
0
 10
172.1798339318
 20
74.4152005337
 10
172.1814538308
 20
74.4142984295
 10
172.1830665935
 20
74.4133841119
 10
172.1846721668
 20
74.4124576644
 10
172.1862704978
 20
74.4115191706
 10
172.1878615332
 20
74.410568714
 10
172.1894452202
 20
74.4096063781
 10
172.1910215057
 20
74.4086322466
 10
172.1925903367
 20
74.4076464029
 10
172.1941516601
 20
74.4066489306
 10
172.1957054229
 20
74.4056399132
 10
172.197251572
 20
74.4046194342
  0
LWPOLYLINE
  5
339
100
AcDbEntity
  8
CURVE
100
AcDbPolyline
 62
250
  6
CONTINUOUS
 90
10
 70
0
 10
172.5643376967
 20
74.59685471
 10
172.5627752296
 20
74.5977333683
 10
172.5612077057
 20
74.598601851
 10
172.5596351679
 20
74.5994600806
 10
172.5580576593
 20
74.6003079797
 10
172.5564752228
 20
74.601145471
 10
172.5548879015
 20
74.601972477
 10
172.5532957383
 20
74.6027889204
 10
172.5516987763
 20
74.6035947237
 10
172.5500970585
 20
74.6043898095
  0
LWPOLYLINE
  5
33A
100
AcDbEntity
  8
IMPORT_IGES
100
AcDbPolyline
 62
7
  6
CONTINUOUS
 90
10
 70
0
 10
172.5643376967
 20
74.59685471
 10
172.5627752296
 20
74.5977333683
 10
172.5612077057
 20
74.598601851
 10
172.5596351679
 20
74.5994600806
 10
172.5580576593
 20
74.6003079797
 10
172.5564752228
 20
74.601145471
 10
172.5548879015
 20
74.601972477
 10
172.5532957383
 20
74.6027889204
 10
172.5516987763
 20
74.6035947237
 10
172.5500970585
 20
74.6043898095
  0
LINE
  5
33B
100
AcDbEntity
  8
CURVE
100
AcDbLine
 62
250
  6
CONTINUOUS
 10
172.5702935653
 20
74.5933852477
 11
172.5643376967
 21
74.59685471
  0
LINE
  5
33C
100
AcDbEntity
  8
IMPORT_IGES
100
AcDbLine
 62
7
  6
CONTINUOUS
 10
172.5702935653
 20
74.5933852477
 11
172.5643376967
 21
74.59685471
  0
LWPOLYLINE
  5
33D
100
AcDbEntity
  8
CURVE
100
AcDbPolyline
 62
250
  6
CONTINUOUS
 90
12
 70
0
 10
172.197251572
 20
74.4046194342
 10
172.1988185251
 20
74.4035683263
 10
172.2003774683
 20
74.4025055026
 10
172.2019283456
 20
74.4014310513
 10
172.2034711011
 20
74.4003450607
 10
172.2050056787
 20
74.3992476191
 10
172.2065320223
 20
74.3981388148
 10
172.2080500759
 20
74.397018736
 10
172.2095597835
 20
74.395887471
 10
172.211061089
 20
74.3947451081
 10
172.2125539364
 20
74.3935917355
 10
172.2140382697
 20
74.3924274416
  0
LWPOLYLINE
  5
33E
100
AcDbEntity
  8
IMPORT_IGES
100
AcDbPolyline
 62
7
  6
CONTINUOUS
 90
12
 70
0
 10
172.197251572
 20
74.4046194342
 10
172.1988185251
 20
74.4035683263
 10
172.2003774683
 20
74.4025055026
 10
172.2019283456
 20
74.4014310513
 10
172.2034711011
 20
74.4003450607
 10
172.2050056787
 20
74.3992476191
 10
172.2065320223
 20
74.3981388148
 10
172.2080500759
 20
74.397018736
 10
172.2095597835
 20
74.395887471
 10
172.211061089
 20
74.3947451081
 10
172.2125539364
 20
74.3935917355
 10
172.2140382697
 20
74.3924274416
  0
LINE
  5
33F
100
AcDbEntity
  8
SMUSSO
100
AcDbLine
 62
7
  6
CONTINUOUS
 10
228.4972214301
 20
144.0261538996
 11
229.5166517926
 21
144.4694019594
  0
LINE
  5
340
100
AcDbEntity
  8
ASSI
100
AcDbLine
 62
7
  6
CONTINUOUS
 10
228.4972214301
 20
144.0261538996
 11
229.5166517926
 21
144.4694019594
  0
LINE
  5
341
100
AcDbEntity
  8
SMUSSO
100
AcDbLine
 62
7
  6
CONTINUOUS
 10
228.4972214301
 20
57.2726790792
 11
229.5166517926
 21
56.8294310195
  0
LINE
  5
342
100
AcDbEntity
  8
ASSI
100
AcDbLine
 62
7
  6
CONTINUOUS
 10
228.4972214301
 20
57.2726790792
 11
229.5166517926
 21
56.8294310195
  0
LWPOLYLINE
  5
343
100
AcDbEntity
  8
CURVE
100
AcDbPolyline
 62
250
  6
CONTINUOUS
 90
13
 70
0
 10
172.2882659068
 20
75.375634012
 10
172.2901904871
 20
75.3743706091
 10
172.2921045742
 20
75.373091879
 10
172.2940079943
 20
75.3717978336
 10
172.2959005736
 20
75.3704884849
 10
172.2977821383
 20
75.369163845
 10
172.2996525147
 20
75.3678239258
 10
172.301511529
 20
75.3664687393
 10
172.3033590073
 20
75.3650982975
 10
172.305194776
 20
75.3637126123
 10
172.3070186613
 20
75.3623116959
 10
172.3088304892
 20
75.3608955601
 10
172.3106300862
 20
75.359464217
  0
LWPOLYLINE
  5
344
100
AcDbEntity
  8
IMPORT_IGES
100
AcDbPolyline
 62
7
  6
CONTINUOUS
 90
13
 70
0
 10
172.2882659068
 20
75.375634012
 10
172.2901904871
 20
75.3743706091
 10
172.2921045742
 20
75.373091879
 10
172.2940079943
 20
75.3717978336
 10
172.2959005736
 20
75.3704884849
 10
172.2977821383
 20
75.369163845
 10
172.2996525147
 20
75.3678239258
 10
172.301511529
 20
75.3664687393
 10
172.3033590073
 20
75.3650982975
 10
172.305194776
 20
75.3637126123
 10
172.3070186613
 20
75.3623116959
 10
172.3088304892
 20
75.3608955601
 10
172.3106300862
 20
75.359464217
  0
LWPOLYLINE
  5
345
100
AcDbEntity
  8
CURVE
100
AcDbPolyline
 62
250
  6
CONTINUOUS
 90
10
 70
0
 10
172.5834452972
 20
74.5850303705
 10
172.5820044169
 20
74.5859935156
 10
172.5805583411
 20
74.5869481159
 10
172.5791071082
 20
74.5878941021
 10
172.5776507566
 20
74.5888314051
 10
172.5761893248
 20
74.5897599556
 10
172.5747228514
 20
74.5906796843
 10
172.5732513746
 20
74.591590522
 10
172.5717749331
 20
74.5924923996
 10
172.5702935653
 20
74.5933852477
  0
LWPOLYLINE
  5
346
100
AcDbEntity
  8
IMPORT_IGES
100
AcDbPolyline
 62
7
  6
CONTINUOUS
 90
10
 70
0
 10
172.5834452972
 20
74.5850303705
 10
172.5820044169
 20
74.5859935156
 10
172.5805583411
 20
74.5869481159
 10
172.5791071082
 20
74.5878941021
 10
172.5776507566
 20
74.5888314051
 10
172.5761893248
 20
74.5897599556
 10
172.5747228514
 20
74.5906796843
 10
172.5732513746
 20
74.591590522
 10
172.5717749331
 20
74.5924923996
 10
172.5702935653
 20
74.5933852477
  0
LWPOLYLINE
  5
347
100
AcDbEntity
  8
CURVE
100
AcDbPolyline
 62
250
  6
CONTINUOUS
 90
11
 70
0
 10
172.6013013948
 20
74.5720648113
 10
172.5995561399
 20
74.5734190033
 10
172.5978017062
 20
74.574760767
 10
172.5960381729
 20
74.5760899601
 10
172.5942656191
 20
74.5774064402
 10
172.5924841239
 20
74.5787100648
 10
172.5906937665
 20
74.5800006915
 10
172.588894626
 20
74.5812781779
 10
172.5870867815
 20
74.5825423814
 10
172.5852703122
 20
74.5837931598
 10
172.5834452972
 20
74.5850303705
  0
LWPOLYLINE
  5
348
100
AcDbEntity
  8
IMPORT_IGES
100
AcDbPolyline
 62
7
  6
CONTINUOUS
 90
11
 70
0
 10
172.6013013948
 20
74.5720648113
 10
172.5995561399
 20
74.5734190033
 10
172.5978017062
 20
74.574760767
 10
172.5960381729
 20
74.5760899601
 10
172.5942656191
 20
74.5774064402
 10
172.5924841239
 20
74.5787100648
 10
172.5906937665
 20
74.5800006915
 10
172.588894626
 20
74.5812781779
 10
172.5870867815
 20
74.5825423814
 10
172.5852703122
 20
74.5837931598
 10
172.5834452972
 20
74.5850303705
  0
LWPOLYLINE
  5
349
100
AcDbEntity
  8
CURVE
100
AcDbPolyline
 62
250
  6
CONTINUOUS
 90
12
 70
0
 10
172.2140382697
 20
74.3924274416
 10
172.2157203799
 20
74.3910865937
 10
172.2173912636
 20
74.3897317908
 10
172.2190508376
 20
74.3883631639
 10
172.2206990188
 20
74.3869808437
 10
172.2223357243
 20
74.3855849612
 10
172.2239608708
 20
74.3841756472
 10
172.2255743753
 20
74.3827530327
 10
172.2271761548
 20
74.3813172484
 10
172.2287661261
 20
74.3798684254
 10
172.2303442061
 20
74.3784066944
 10
172.2319103118
 20
74.3769321864
  0
LWPOLYLINE
  5
34A
100
AcDbEntity
  8
IMPORT_IGES
100
AcDbPolyline
 62
7
  6
CONTINUOUS
 90
12
 70
0
 10
172.2140382697
 20
74.3924274416
 10
172.2157203799
 20
74.3910865937
 10
172.2173912636
 20
74.3897317908
 10
172.2190508376
 20
74.3883631639
 10
172.2206990188
 20
74.3869808437
 10
172.2223357243
 20
74.3855849612
 10
172.2239608708
 20
74.3841756472
 10
172.2255743753
 20
74.3827530327
 10
172.2271761548
 20
74.3813172484
 10
172.2287661261
 20
74.3798684254
 10
172.2303442061
 20
74.3784066944
 10
172.2319103118
 20
74.3769321864
  0
LWPOLYLINE
  5
34B
100
AcDbEntity
  8
CURVE
100
AcDbPolyline
 62
250
  6
CONTINUOUS
 90
22
 70
0
 10
172.3106300862
 20
75.359464217
 10
172.3135946106
 20
75.3570507915
 10
172.3165240451
 20
75.3545954158
 10
172.319417591
 20
75.3520981452
 10
172.3222744497
 20
75.3495590347
 10
172.3250938225
 20
75.3469781394
 10
172.3278749106
 20
75.3443555145
 10
172.3306169153
 20
75.3416912149
 10
172.333319038
 20
75.3389852959
 10
172.3359804799
 20
75.3362378124
 10
172.338522623
 20
75.3335331281
 10
172.3410255226
 20
75.3307901798
 10
172.343488966
 20
75.3280097622
 10
172.3459127401
 20
75.32519267
 10
172.3482966322
 20
75.322339698
 10
172.3506404293
 20
75.3194516408
 10
172.3529439187
 20
75.316529293
 10
172.3552068874
 20
75.3135734494
 10
172.3574291225
 20
75.3105849047
 10
172.3596104113
 20
75.3075644535
 10
172.3617505408
 20
75.3045128905
 10
172.3638492981
 20
75.3014310104
  0
LWPOLYLINE
  5
34C
100
AcDbEntity
  8
IMPORT_IGES
100
AcDbPolyline
 62
7
  6
CONTINUOUS
 90
22
 70
0
 10
172.3106300862
 20
75.359464217
 10
172.3135946106
 20
75.3570507915
 10
172.3165240451
 20
75.3545954158
 10
172.319417591
 20
75.3520981452
 10
172.3222744497
 20
75.3495590347
 10
172.3250938225
 20
75.3469781394
 10
172.3278749106
 20
75.3443555145
 10
172.3306169153
 20
75.3416912149
 10
172.333319038
 20
75.3389852959
 10
172.3359804799
 20
75.3362378124
 10
172.338522623
 20
75.3335331281
 10
172.3410255226
 20
75.3307901798
 10
172.343488966
 20
75.3280097622
 10
172.3459127401
 20
75.32519267
 10
172.3482966322
 20
75.322339698
 10
172.3506404293
 20
75.3194516408
 10
172.3529439187
 20
75.316529293
 10
172.3552068874
 20
75.3135734494
 10
172.3574291225
 20
75.3105849047
 10
172.3596104113
 20
75.3075644535
 10
172.3617505408
 20
75.3045128905
 10
172.3638492981
 20
75.3014310104
  0
LWPOLYLINE
  5
34D
100
AcDbEntity
  8
CURVE
100
AcDbPolyline
 62
250
  6
CONTINUOUS
 90
20
 70
0
 10
172.2319103118
 20
74.3769321864
 10
172.234445511
 20
74.3744935729
 10
172.2369480985
 20
74.3720217089
 10
172.239417711
 20
74.369517167
 10
172.2418539849
 20
74.3669805197
 10
172.244256557
 20
74.3644123395
 10
172.2466250637
 20
74.3618131988
 10
172.2491057438
 20
74.3590163313
 10
172.2515477227
 20
74.3561859135
 10
172.253951222
 20
74.3533227497
 10
172.2563164632
 20
74.3504276439
 10
172.2586436676
 20
74.3475014003
 10
172.2609330568
 20
74.3445448231
 10
172.2631848523
 20
74.3415587164
 10
172.2653992754
 20
74.3385438844
 10
172.2675765478
 20
74.3355011313
 10
172.2697168907
 20
74.3324312612
 10
172.2718205259
 20
74.3293350782
 10
172.2738876746
 20
74.3262133865
 10
172.2759185583
 20
74.3230669903
  0
LWPOLYLINE
  5
34E
100
AcDbEntity
  8
IMPORT_IGES
100
AcDbPolyline
 62
7
  6
CONTINUOUS
 90
20
 70
0
 10
172.2319103118
 20
74.3769321864
 10
172.234445511
 20
74.3744935729
 10
172.2369480985
 20
74.3720217089
 10
172.239417711
 20
74.369517167
 10
172.2418539849
 20
74.3669805197
 10
172.244256557
 20
74.3644123395
 10
172.2466250637
 20
74.3618131988
 10
172.2491057438
 20
74.3590163313
 10
172.2515477227
 20
74.3561859135
 10
172.253951222
 20
74.3533227497
 10
172.2563164632
 20
74.3504276439
 10
172.2586436676
 20
74.3475014003
 10
172.2609330568
 20
74.3445448231
 10
172.2631848523
 20
74.3415587164
 10
172.2653992754
 20
74.3385438844
 10
172.2675765478
 20
74.3355011313
 10
172.2697168907
 20
74.3324312612
 10
172.2718205259
 20
74.3293350782
 10
172.2738876746
 20
74.3262133865
 10
172.2759185583
 20
74.3230669903
  0
LINE
  5
34F
100
AcDbEntity
  8
SMUSSO
100
AcDbLine
 62
7
  6
CONTINUOUS
 10
107.9197840138
 20
56.843856835
 11
107.7259524703
 21
56.6500252916
  0
LINE
  5
350
100
AcDbEntity
  8
ASSI
100
AcDbLine
 62
7
  6
CONTINUOUS
 10
107.9197840138
 20
56.843856835
 11
107.7259524703
 21
56.6500252916
  0
LINE
  5
351
100
AcDbEntity
  8
SMUSSO
100
AcDbLine
 62
7
  6
CONTINUOUS
 10
108.9203928159
 20
55.8432480329
 11
108.7265612724
 21
55.6494164894
  0
LINE
  5
352
100
AcDbEntity
  8
ASSI
100
AcDbLine
 62
7
  6
CONTINUOUS
 10
108.9203928159
 20
55.8432480329
 11
108.7265612724
 21
55.6494164894
  0
LINE
  5
353
100
AcDbEntity
  8
SMUSSO
100
AcDbLine
 62
7
  6
CONTINUOUS
 10
107.9197840138
 20
144.4549761439
 11
107.7259524703
 21
144.6488076873
  0
LINE
  5
354
100
AcDbEntity
  8
ASSI
100
AcDbLine
 62
7
  6
CONTINUOUS
 10
107.9197840138
 20
144.4549761439
 11
107.7259524703
 21
144.6488076873
  0
LINE
  5
355
100
AcDbEntity
  8
SMUSSO
100
AcDbLine
 62
7
  6
CONTINUOUS
 10
108.9203928159
 20
145.455584946
 11
108.7265612724
 21
145.6494164894
  0
LINE
  5
356
100
AcDbEntity
  8
ASSI
100
AcDbLine
 62
7
  6
CONTINUOUS
 10
108.9203928159
 20
145.455584946
 11
108.7265612724
 21
145.6494164894
  0
LWPOLYLINE
  5
357
100
AcDbEntity
  8
CURVE
100
AcDbPolyline
 62
250
  6
CONTINUOUS
 90
21
 70
0
 10
172.6660416024
 20
74.5049809544
 10
172.6632677296
 20
74.5086831874
 10
172.6604498386
 20
74.512353167
 10
172.6575872394
 20
74.5159899428
 10
172.6546792417
 20
74.5195925642
 10
172.6517251556
 20
74.5231600809
 10
172.6487242908
 20
74.5266915424
 10
172.6456759574
 20
74.5301859983
 10
172.6425794651
 20
74.5336424981
 10
172.6394341238
 20
74.5370600914
 10
172.6362051461
 20
74.5404735675
 10
172.6329263357
 20
74.5438449484
 10
172.6295984611
 20
74.5471728506
 10
172.6262222911
 20
74.5504558905
 10
172.6227985943
 20
74.5536926847
 10
172.6193281393
 20
74.5568818496
 10
172.6158116949
 20
74.5600220017
 10
172.6122500295
 20
74.5631117574
 10
172.608643912
 20
74.5661497333
 10
172.6049941108
 20
74.5691345458
 10
172.6013013948
 20
74.5720648113
  0
LWPOLYLINE
  5
358
100
AcDbEntity
  8
IMPORT_IGES
100
AcDbPolyline
 62
7
  6
CONTINUOUS
 90
21
 70
0
 10
172.6660416024
 20
74.5049809544
 10
172.6632677296
 20
74.5086831874
 10
172.6604498386
 20
74.512353167
 10
172.6575872394
 20
74.5159899428
 10
172.6546792417
 20
74.5195925642
 10
172.6517251556
 20
74.5231600809
 10
172.6487242908
 20
74.5266915424
 10
172.6456759574
 20
74.5301859983
 10
172.6425794651
 20
74.5336424981
 10
172.6394341238
 20
74.5370600914
 10
172.6362051461
 20
74.5404735675
 10
172.6329263357
 20
74.5438449484
 10
172.6295984611
 20
74.5471728506
 10
172.6262222911
 20
74.5504558905
 10
172.6227985943
 20
74.5536926847
 10
172.6193281393
 20
74.5568818496
 10
172.6158116949
 20
74.5600220017
 10
172.6122500295
 20
74.5631117574
 10
172.608643912
 20
74.5661497333
 10
172.6049941108
 20
74.5691345458
 10
172.6013013948
 20
74.5720648113
  0
LWPOLYLINE
  5
359
100
AcDbEntity
  8
CURVE
100
AcDbPolyline
 62
250
  6
CONTINUOUS
 90
13
 70
0
 10
172.3638492981
 20
75.3014310104
 10
172.3650994802
 20
75.2995511627
 10
172.3663343789
 20
75.2976606748
 10
172.3675539471
 20
75.2957597227
 10
172.3687581375
 20
75.2938484828
 10
172.369946903
 20
75.2919271312
 10
172.3711201963
 20
75.2899958443
 10
172.3722779703
 20
75.2880547983
 10
172.3734201777
 20
75.2861041693
 10
172.3745467714
 20
75.2841441338
 10
172.375657704
 20
75.2821748677
 10
172.3767529285
 20
75.2801965475
 10
172.3778323975
 20
75.2782093494
  0
LWPOLYLINE
  5
35A
100
AcDbEntity
  8
IMPORT_IGES
100
AcDbPolyline
 62
7
  6
CONTINUOUS
 90
13
 70
0
 10
172.3638492981
 20
75.3014310104
 10
172.3650994802
 20
75.2995511627
 10
172.3663343789
 20
75.2976606748
 10
172.3675539471
 20
75.2957597227
 10
172.3687581375
 20
75.2938484828
 10
172.369946903
 20
75.2919271312
 10
172.3711201963
 20
75.2899958443
 10
172.3722779703
 20
75.2880547983
 10
172.3734201777
 20
75.2861041693
 10
172.3745467714
 20
75.2841441338
 10
172.375657704
 20
75.2821748677
 10
172.3767529285
 20
75.2801965475
 10
172.3778323975
 20
75.2782093494
  0
LWPOLYLINE
  5
35B
100
AcDbEntity
  8
CURVE
100
AcDbPolyline
 62
250
  6
CONTINUOUS
 90
19
 70
0
 10
172.2759185583
 20
74.3230669903
 10
172.278234637
 20
74.3193785643
 10
172.2805023347
 20
74.3156590901
 10
172.2827219994
 20
74.3119098319
 10
172.2848939794
 20
74.3081320537
 10
172.2870186228
 20
74.3043270197
 10
172.2890962777
 20
74.300495994
 10
172.2911272922
 20
74.2966402406
 10
172.2931120146
 20
74.2927610237
 10
172.295050793
 20
74.2888596074
 10
172.2969439755
 20
74.2849372558
 10
172.2987919102
 20
74.280995233
 10
172.3005949453
 20
74.2770348031
 10
172.3023534289
 20
74.2730572302
 10
172.3040677093
 20
74.2690637784
 10
172.3057381344
 20
74.2650557119
 10
172.3073650526
 20
74.2610342947
 10
172.3089488118
 20
74.2570007909
 10
172.3104897603
 20
74.2529564647
  0
LWPOLYLINE
  5
35C
100
AcDbEntity
  8
IMPORT_IGES
100
AcDbPolyline
 62
7
  6
CONTINUOUS
 90
19
 70
0
 10
172.2759185583
 20
74.3230669903
 10
172.278234637
 20
74.3193785643
 10
172.2805023347
 20
74.3156590901
 10
172.2827219994
 20
74.3119098319
 10
172.2848939794
 20
74.3081320537
 10
172.2870186228
 20
74.3043270197
 10
172.2890962777
 20
74.300495994
 10
172.2911272922
 20
74.2966402406
 10
172.2931120146
 20
74.2927610237
 10
172.295050793
 20
74.2888596074
 10
172.2969439755
 20
74.2849372558
 10
172.2987919102
 20
74.280995233
 10
172.3005949453
 20
74.2770348031
 10
172.3023534289
 20
74.2730572302
 10
172.3040677093
 20
74.2690637784
 10
172.3057381344
 20
74.2650557119
 10
172.3073650526
 20
74.2610342947
 10
172.3089488118
 20
74.2570007909
 10
172.3104897603
 20
74.2529564647
  0
LINE
  5
35D
100
AcDbEntity
  8
0
100
AcDbLine
 62
7
  6
CONTINUOUS
 10
167.64203871
 20
75.0223384725
 11
168.180721257
 21
73.5859009187
  0
LINE
  5
35E
100
AcDbEntity
  8
CURVE
100
AcDbLine
 62
250
  6
CONTINUOUS
 10
168.180721257
 20
73.5859009187
 11
167.64203871
 21
75.0223384725
  0
LINE
  5
35F
100
AcDbEntity
  8
IMPORT_IGES
100
AcDbLine
 62
7
  6
CONTINUOUS
 10
168.180721257
 20
73.5859009187
 11
167.64203871
 21
75.0223384725
  0
LINE
  5
360
100
AcDbEntity
  8
CURVE
100
AcDbLine
 62
250
  6
CONTINUOUS
 10
167.7610911808
 20
75.7857153902
 11
168.2154288744
 21
74.5643718266
  0
LINE
  5
361
100
AcDbEntity
  8
IMPORT_IGES
100
AcDbLine
 62
7
  6
CONTINUOUS
 10
167.7610911808
 20
75.7857153902
 11
168.2154288744
 21
74.5643718266
  0
LINE
  5
362
100
AcDbEntity
  8
0
100
AcDbLine
 62
7
  6
CONTINUOUS
 10
168.2154288744
 20
74.5643718266
 11
167.7610911808
 21
75.7857153902
  0
LINE
  5
363
100
AcDbEntity
  8
0
100
AcDbLine
 62
7
  6
CONTINUOUS
 10
164.4177115233
 20
75.7857153902
 11
165.1150957773
 21
73.5859009187
  0
LINE
  5
364
100
AcDbEntity
  8
CURVE
100
AcDbLine
 62
250
  6
CONTINUOUS
 10
165.1150957773
 20
73.5859009187
 11
164.4177115233
 21
75.7857153902
  0
LINE
  5
365
100
AcDbEntity
  8
IMPORT_IGES
100
AcDbLine
 62
7
  6
CONTINUOUS
 10
165.1150957773
 20
73.5859009187
 11
164.4177115233
 21
75.7857153902
  0
LINE
  5
366
100
AcDbEntity
  8
CURVE
100
AcDbLine
 62
250
  6
CONTINUOUS
 10
164.9165311196
 20
75.7857153902
 11
165.3358563387
 21
74.2715151733
  0
LINE
  5
367
100
AcDbEntity
  8
IMPORT_IGES
100
AcDbLine
 62
7
  6
CONTINUOUS
 10
164.9165311196
 20
75.7857153902
 11
165.3358563387
 21
74.2715151733
  0
LINE
  5
368
100
AcDbEntity
  8
0
100
AcDbLine
 62
7
  6
CONTINUOUS
 10
165.3358563387
 20
74.2715151733
 11
164.9165311196
 21
75.7857153902
  0
LINE
  5
369
100
AcDbEntity
  8
0
100
AcDbLine
 62
250
  6
CONTINUOUS
 10
134.777079364
 20
78.4493254083
 11
134.8759524703
 21
78.5481985146
  0
LINE
  5
36A
100
AcDbEntity
  8
ASSI
100
AcDbLine
 62
250
  6
CONTINUOUS
 10
134.777079364
 20
78.4493254083
 11
134.8759524703
 21
78.5481985146
  0
LINE
  5
36B
100
AcDbEntity
  8
0
100
AcDbLine
 62
250
  6
CONTINUOUS
 10
135.2758613891
 20
77.9505433832
 11
135.3747344954
 21
78.0494164894
  0
LINE
  5
36C
100
AcDbEntity
  8
ASSI
100
AcDbLine
 62
250
  6
CONTINUOUS
 10
135.2758613891
 20
77.9505433832
 11
135.3747344954
 21
78.0494164894
  0
LINE
  5
36D
100
AcDbEntity
  8
0
100
AcDbLine
 62
250
  6
CONTINUOUS
 10
134.777079364
 20
122.8495075706
 11
134.8759524703
 21
122.7506344643
  0
LINE
  5
36E
100
AcDbEntity
  8
ASSI
100
AcDbLine
 62
250
  6
CONTINUOUS
 10
134.777079364
 20
122.8495075706
 11
134.8759524703
 21
122.7506344643
  0
LINE
  5
36F
100
AcDbEntity
  8
0
100
AcDbLine
 62
250
  6
CONTINUOUS
 10
135.2758613891
 20
123.3482895957
 11
135.3747344954
 21
123.2494164894
  0
LINE
  5
370
100
AcDbEntity
  8
ASSI
100
AcDbLine
 62
250
  6
CONTINUOUS
 10
135.2758613891
 20
123.3482895957
 11
135.3747344954
 21
123.2494164894
  0
LWPOLYLINE
  5
371
100
AcDbEntity
  8
CURVE
100
AcDbPolyline
 62
250
  6
CONTINUOUS
 90
17
 70
0
 10
172.3778323975
 20
75.2782093494
 10
172.3794093812
 20
75.2752363448
 10
172.38095122
 20
75.272244654
 10
172.3824577586
 20
75.2692348577
 10
172.3839288413
 20
75.2662075365
 10
172.3853643126
 20
75.2631632711
 10
172.386764017
 20
75.2601026421
 10
172.388127799
 20
75.25702623
 10
172.389455503
 20
75.2539346157
 10
172.3907469735
 20
75.2508283797
 10
172.392002055
 20
75.2477081027
 10
172.3932205919
 20
75.2445743653
 10
172.3944024286
 20
75.2414277481
 10
172.3955474097
 20
75.2382688318
 10
172.3966553797
 20
75.2350981971
 10
172.3977261829
 20
75.2319164245
 10
172.3987596639
 20
75.2287240948
  0
LWPOLYLINE
  5
372
100
AcDbEntity
  8
IMPORT_IGES
100
AcDbPolyline
 62
7
  6
CONTINUOUS
 90
17
 70
0
 10
172.3778323975
 20
75.2782093494
 10
172.3794093812
 20
75.2752363448
 10
172.38095122
 20
75.272244654
 10
172.3824577586
 20
75.2692348577
 10
172.3839288413
 20
75.2662075365
 10
172.3853643126
 20
75.2631632711
 10
172.386764017
 20
75.2601026421
 10
172.388127799
 20
75.25702623
 10
172.389455503
 20
75.2539346157
 10
172.3907469735
 20
75.2508283797
 10
172.392002055
 20
75.2477081027
 10
172.3932205919
 20
75.2445743653
 10
172.3944024286
 20
75.2414277481
 10
172.3955474097
 20
75.2382688318
 10
172.3966553797
 20
75.2350981971
 10
172.3977261829
 20
75.2319164245
 10
172.3987596639
 20
75.2287240948
  0
LWPOLYLINE
  5
373
100
AcDbEntity
  8
CURVE
100
AcDbPolyline
 62
250
  6
CONTINUOUS
 90
19
 70
0
 10
172.7188316631
 20
74.4140737334
 10
172.7159623825
 20
74.4201772388
 10
172.7130315656
 20
74.4262550039
 10
172.7104926843
 20
74.4313960535
 10
172.7079068858
 20
74.4365161472
 10
172.7052728527
 20
74.4416134705
 10
172.7025892675
 20
74.4466862088
 10
172.6998548126
 20
74.4517325476
 10
172.6970681706
 20
74.4567506725
 10
172.6942280238
 20
74.4617387688
 10
172.6913330549
 20
74.466695022
 10
172.6883819463
 20
74.4716176177
 10
172.6853733804
 20
74.4765047412
 10
172.6823060398
 20
74.4813545781
 10
172.6791786069
 20
74.4861653138
 10
172.6759897643
 20
74.4909351338
 10
172.6727381943
 20
74.4956622236
 10
172.6694225796
 20
74.5003447686
 10
172.6660416024
 20
74.5049809544
  0
LWPOLYLINE
  5
374
100
AcDbEntity
  8
IMPORT_IGES
100
AcDbPolyline
 62
7
  6
CONTINUOUS
 90
19
 70
0
 10
172.7188316631
 20
74.4140737334
 10
172.7159623825
 20
74.4201772388
 10
172.7130315656
 20
74.4262550039
 10
172.7104926843
 20
74.4313960535
 10
172.7079068858
 20
74.4365161472
 10
172.7052728527
 20
74.4416134705
 10
172.7025892675
 20
74.4466862088
 10
172.6998548126
 20
74.4517325476
 10
172.6970681706
 20
74.4567506725
 10
172.6942280238
 20
74.4617387688
 10
172.6913330549
 20
74.466695022
 10
172.6883819463
 20
74.4716176177
 10
172.6853733804
 20
74.4765047412
 10
172.6823060398
 20
74.4813545781
 10
172.6791786069
 20
74.4861653138
 10
172.6759897643
 20
74.4909351338
 10
172.6727381943
 20
74.4956622236
 10
172.6694225796
 20
74.5003447686
 10
172.6660416024
 20
74.5049809544
  0
LWPOLYLINE
  5
375
100
AcDbEntity
  8
CURVE
100
AcDbPolyline
 62
250
  6
CONTINUOUS
 90
8
 70
0
 10
172.3104897603
 20
74.2529564647
 10
172.3149562586
 20
74.2408538177
 10
172.3192893525
 20
74.2287041961
 10
172.3235016545
 20
74.2165121387
 10
172.3276057769
 20
74.2042821842
 10
172.3316143321
 20
74.1920188714
 10
172.3355399326
 20
74.1797267391
 10
172.3393951907
 20
74.1674103262
  0
LWPOLYLINE
  5
376
100
AcDbEntity
  8
IMPORT_IGES
100
AcDbPolyline
 62
7
  6
CONTINUOUS
 90
8
 70
0
 10
172.3104897603
 20
74.2529564647
 10
172.3149562586
 20
74.2408538177
 10
172.3192893525
 20
74.2287041961
 10
172.3235016545
 20
74.2165121387
 10
172.3276057769
 20
74.2042821842
 10
172.3316143321
 20
74.1920188714
 10
172.3355399326
 20
74.1797267391
 10
172.3393951907
 20
74.1674103262
  0
LWPOLYLINE
  5
377
100
AcDbEntity
  8
0
100
AcDbPolyline
 62
7
  6
CONTINUOUS
 90
5
 70
0
 10
172.3104897603
 20
74.2529564647
 10
172.3319713251
 20
74.18644038
 10
172.3536032136
 20
74.1180454207
 10
172.3753854259
 20
74.0477715866
 10
172.3972421935
 20
73.9756474597
  0
LINE
  5
378
100
AcDbEntity
  8
CURVE
100
AcDbLine
 62
250
  6
CONTINUOUS
 10
170.5409607687
 20
75.7857153902
 11
171.2159186428
 21
73.5859009187
  0
LINE
  5
379
100
AcDbEntity
  8
IMPORT_IGES
100
AcDbLine
 62
7
  6
CONTINUOUS
 10
170.5409607687
 20
75.7857153902
 11
171.2159186428
 21
73.5859009187
  0
LINE
  5
37A
100
AcDbEntity
  8
0
100
AcDbLine
 62
7
  6
CONTINUOUS
 10
171.2159186428
 20
73.5859009187
 11
170.5409607687
 21
75.7857153902
  0
LINE
  5
37B
100
AcDbEntity
  8
0
100
AcDbLine
 62
7
  6
CONTINUOUS
 10
170.6130002893
 20
74.0250617559
 11
170.7319542839
 21
73.5859009187
  0
LINE
  5
37C
100
AcDbEntity
  8
CURVE
100
AcDbLine
 62
250
  6
CONTINUOUS
 10
170.7319542839
 20
73.5859009187
 11
170.6130002893
 21
74.0250617559
  0
LINE
  5
37D
100
AcDbEntity
  8
IMPORT_IGES
100
AcDbLine
 62
7
  6
CONTINUOUS
 10
170.7319542839
 20
73.5859009187
 11
170.6130002893
 21
74.0250617559
  0
LINE
  5
37E
100
AcDbEntity
  8
0
100
AcDbLine
 62
7
  6
CONTINUOUS
 10
170.3102289697
 20
75.1812622748
 11
170.5212320077
 21
74.364883169
  0
LINE
  5
37F
100
AcDbEntity
  8
CURVE
100
AcDbLine
 62
250
  6
CONTINUOUS
 10
170.5212320077
 20
74.364883169
 11
170.3102289697
 21
75.1812622748
  0
LINE
  5
380
100
AcDbEntity
  8
IMPORT_IGES
100
AcDbLine
 62
7
  6
CONTINUOUS
 10
170.5212320077
 20
74.364883169
 11
170.3102289697
 21
75.1812622748
  0
LINE
  5
381
100
AcDbEntity
  8
CURVE
100
AcDbLine
 62
250
  6
CONTINUOUS
 10
169.1289379758
 20
75.7857153902
 11
169.3346452998
 21
73.5859009187
  0
LINE
  5
382
100
AcDbEntity
  8
IMPORT_IGES
100
AcDbLine
 62
7
  6
CONTINUOUS
 10
169.1289379758
 20
75.7857153902
 11
169.3346452998
 21
73.5859009187
  0
LINE
  5
383
100
AcDbEntity
  8
0
100
AcDbLine
 62
7
  6
CONTINUOUS
 10
169.3346452998
 20
73.5859009187
 11
169.1289379758
 21
75.7857153902
  0
LINE
  5
384
100
AcDbEntity
  8
0
100
AcDbLine
 62
7
  6
CONTINUOUS
 10
168.7910965626
 20
75.0163502823
 11
168.8854377964
 21
73.5859009187
  0
LINE
  5
385
100
AcDbEntity
  8
CURVE
100
AcDbLine
 62
250
  6
CONTINUOUS
 10
168.8854377964
 20
73.5859009187
 11
168.7910965626
 21
75.0163502823
  0
LINE
  5
386
100
AcDbEntity
  8
IMPORT_IGES
100
AcDbLine
 62
7
  6
CONTINUOUS
 10
168.8854377964
 20
73.5859009187
 11
168.7910965626
 21
75.0163502823
  0
LINE
  5
387
100
AcDbEntity
  8
0
100
AcDbLine
 62
7
  6
CONTINUOUS
 10
166.397269338
 20
75.7858473902
 11
166.397269338
 21
73.5859009187
  0
LINE
  5
388
100
AcDbEntity
  8
CURVE
100
AcDbLine
 62
250
  6
CONTINUOUS
 10
166.397269338
 20
75.7858473902
 11
166.397269338
 21
73.5859009187
  0
LINE
  5
389
100
AcDbEntity
  8
IMPORT_IGES
100
AcDbLine
 62
7
  6
CONTINUOUS
 10
166.397269338
 20
75.7858473902
 11
166.397269338
 21
73.5859009187
  0
LINE
  5
38A
100
AcDbEntity
  8
0
100
AcDbLine
 62
7
  6
CONTINUOUS
 10
166.8564575076
 20
73.5859009187
 11
166.8564575076
 21
75.7858473902
  0
LINE
  5
38B
100
AcDbEntity
  8
CURVE
100
AcDbLine
 62
250
  6
CONTINUOUS
 10
166.8564575076
 20
73.5859009187
 11
166.8564575076
 21
75.7858473902
  0
LINE
  5
38C
100
AcDbEntity
  8
IMPORT_IGES
100
AcDbLine
 62
7
  6
CONTINUOUS
 10
166.8564575076
 20
73.5859009187
 11
166.8564575076
 21
75.7858473902
  0
LWPOLYLINE
  5
38D
100
AcDbEntity
  8
0
100
AcDbPolyline
 62
7
  6
CONTINUOUS
 90
13
 70
0
 43
0.3500000006
 10
236.1188067627
 20
100.6494140625
 10
234.8330998535
 20
100.6494140625
 10
234.4045308838
 20
100.8636985474
 10
233.9759437866
 20
101.2922765808
 10
233.9759437866
 20
101.5065610657
 10
234.4045308838
 20
101.9351300354
 10
234.8330998535
 20
102.1494145203
 10
236.1188067627
 20
102.1494145203
 10
236.5473757324
 20
101.9351300354
 10
236.9759447021
 20
101.5065610657
 10
236.9759447021
 20
101.2922765808
 10
236.5473757324
 20
100.8636985474
 10
236.1188067627
 20
100.6494140625
  0
LWPOLYLINE
  5
38E
100
AcDbEntity
  8
CURVE
100
AcDbPolyline
 62
250
  6
CONTINUOUS
 90
16
 70
0
 10
172.7603519595
 20
74.3054795602
 10
172.757965969
 20
74.3128684845
 10
172.7555364639
 20
74.3202413215
 10
172.7530608918
 20
74.3275968611
 10
172.7505367
 20
74.3349338935
 10
172.7479613361
 20
74.3422512087
 10
172.7453322474
 20
74.3495475969
 10
172.7426468814
 20
74.356821848
 10
172.7399026856
 20
74.3640727522
 10
172.7370971073
 20
74.3712990995
 10
172.734227594
 20
74.3784996801
 10
172.7312915932
 20
74.3856732839
 10
172.7282865522
 20
74.3928187011
 10
172.7252099186
 20
74.3999347217
 10
172.7220591397
 20
74.4070201358
 10
172.7188316631
 20
74.4140737334
  0
LWPOLYLINE
  5
38F
100
AcDbEntity
  8
IMPORT_IGES
100
AcDbPolyline
 62
7
  6
CONTINUOUS
 90
16
 70
0
 10
172.7603519595
 20
74.3054795602
 10
172.757965969
 20
74.3128684845
 10
172.7555364639
 20
74.3202413215
 10
172.7530608918
 20
74.3275968611
 10
172.7505367
 20
74.3349338935
 10
172.7479613361
 20
74.3422512087
 10
172.7453322474
 20
74.3495475969
 10
172.7426468814
 20
74.356821848
 10
172.7399026856
 20
74.3640727522
 10
172.7370971073
 20
74.3712990995
 10
172.734227594
 20
74.3784996801
 10
172.7312915932
 20
74.3856732839
 10
172.7282865522
 20
74.3928187011
 10
172.7252099186
 20
74.3999347217
 10
172.7220591397
 20
74.4070201358
 10
172.7188316631
 20
74.4140737334
  0
LWPOLYLINE
  5
390
100
AcDbEntity
  8
CURVE
100
AcDbPolyline
 62
250
  6
CONTINUOUS
 90
21
 70
0
 10
172.3987596639
 20
75.2287240948
 10
172.399973149
 20
75.2248047175
 10
172.4011302454
 20
75.220871469
 10
172.4022306682
 20
75.2169254127
 10
172.4032741324
 20
75.2129676121
 10
172.4042603533
 20
75.2089991308
 10
172.4051890459
 20
75.2050210321
 10
172.4060599253
 20
75.2010343797
 10
172.4068727068
 20
75.197040237
 10
172.4076271054
 20
75.1930396676
 10
172.4083228362
 20
75.1890337349
 10
172.4089596144
 20
75.1850235024
 10
172.4095371551
 20
75.1810100336
 10
172.4100551734
 20
75.176994392
 10
172.4105133845
 20
75.1729776412
 10
172.4109115034
 20
75.1689608446
 10
172.4112492453
 20
75.1649450657
 10
172.4115263254
 20
75.1609313681
 10
172.4117424587
 20
75.1569208152
 10
172.4118973603
 20
75.1529144705
 10
172.4119907455
 20
75.1489133976
  0
LWPOLYLINE
  5
391
100
AcDbEntity
  8
IMPORT_IGES
100
AcDbPolyline
 62
7
  6
CONTINUOUS
 90
21
 70
0
 10
172.3987596639
 20
75.2287240948
 10
172.399973149
 20
75.2248047175
 10
172.4011302454
 20
75.220871469
 10
172.4022306682
 20
75.2169254127
 10
172.4032741324
 20
75.2129676121
 10
172.4042603533
 20
75.2089991308
 10
172.4051890459
 20
75.2050210321
 10
172.4060599253
 20
75.2010343797
 10
172.4068727068
 20
75.197040237
 10
172.4076271054
 20
75.1930396676
 10
172.4083228362
 20
75.1890337349
 10
172.4089596144
 20
75.1850235024
 10
172.4095371551
 20
75.1810100336
 10
172.4100551734
 20
75.176994392
 10
172.4105133845
 20
75.1729776412
 10
172.4109115034
 20
75.1689608446
 10
172.4112492453
 20
75.1649450657
 10
172.4115263254
 20
75.1609313681
 10
172.4117424587
 20
75.1569208152
 10
172.4118973603
 20
75.1529144705
 10
172.4119907455
 20
75.1489133976
  0
LINE
  5
392
100
AcDbEntity
  8
CURVE
100
AcDbLine
 62
250
  6
CONTINUOUS
 10
172.3393951907
 20
74.1674103262
 11
172.3469451293
 21
74.1427228137
  0
LINE
  5
393
100
AcDbEntity
  8
IMPORT_IGES
100
AcDbLine
 62
7
  6
CONTINUOUS
 10
172.3393951907
 20
74.1674103262
 11
172.3469451293
 21
74.1427228137
  0
LINE
  5
394
100
AcDbEntity
  8
CURVE
100
AcDbLine
 62
250
  6
CONTINUOUS
 10
172.3469451293
 20
74.1427228137
 11
172.4252804792
 21
73.8811119852
  0
LINE
  5
395
100
AcDbEntity
  8
IMPORT_IGES
100
AcDbLine
 62
7
  6
CONTINUOUS
 10
172.3469451293
 20
74.1427228137
 11
172.4252804792
 21
73.8811119852
  0
LINE
  5
396
100
AcDbEntity
  8
0
100
AcDbLine
 62
7
  6
CONTINUOUS
 10
172.3972421935
 20
73.9756474597
 11
172.4644721223
 21
73.7477160119
  0
LWPOLYLINE
  5
397
100
AcDbEntity
  8
CURVE
100
AcDbPolyline
 62
250
  6
CONTINUOUS
 90
5
 70
0
 10
172.774004405
 20
74.2605057167
 10
172.7707009291
 20
74.2717855729
 10
172.7673302498
 20
74.283043956
 10
172.7638835367
 20
74.2942766803
 10
172.7603519595
 20
74.3054795602
  0
LWPOLYLINE
  5
398
100
AcDbEntity
  8
IMPORT_IGES
100
AcDbPolyline
 62
7
  6
CONTINUOUS
 90
5
 70
0
 10
172.774004405
 20
74.2605057167
 10
172.7707009291
 20
74.2717855729
 10
172.7673302498
 20
74.283043956
 10
172.7638835367
 20
74.2942766803
 10
172.7603519595
 20
74.3054795602
  0
LINE
  5
399
100
AcDbEntity
  8
CURVE
100
AcDbLine
 62
250
  6
CONTINUOUS
 10
172.4252804792
 20
73.8811119852
 11
172.4661619829
 21
73.7417018294
  0
LINE
  5
39A
100
AcDbEntity
  8
IMPORT_IGES
100
AcDbLine
 62
7
  6
CONTINUOUS
 10
172.4252804792
 20
73.8811119852
 11
172.4661619829
 21
73.7417018294
  0
LINE
  5
39B
100
AcDbEntity
  8
CURVE
100
AcDbLine
 62
250
  6
CONTINUOUS
 10
172.4661619829
 20
73.7417018294
 11
172.5112812428
 21
73.5859005021
  0
LINE
  5
39C
100
AcDbEntity
  8
IMPORT_IGES
100
AcDbLine
 62
7
  6
CONTINUOUS
 10
172.4661619829
 20
73.7417018294
 11
172.5112812428
 21
73.5859005021
  0
LINE
  5
39D
100
AcDbEntity
  8
0
100
AcDbLine
 62
7
  6
CONTINUOUS
 10
172.4644721223
 20
73.7477160119
 11
172.5112812428
 21
73.5859005021
  0
LINE
  5
39E
100
AcDbEntity
  8
CURVE
100
AcDbLine
 62
250
  6
CONTINUOUS
 10
172.7804450674
 20
74.2378983272
 11
172.774004405
 21
74.2605057167
  0
LINE
  5
39F
100
AcDbEntity
  8
IMPORT_IGES
100
AcDbLine
 62
7
  6
CONTINUOUS
 10
172.7804450674
 20
74.2378983272
 11
172.774004405
 21
74.2605057167
  0
LINE
  5
3A0
100
AcDbEntity
  8
CURVE
100
AcDbLine
 62
250
  6
CONTINUOUS
 10
172.7867228797
 20
74.2152552724
 11
172.7804450674
 21
74.2378983272
  0
LINE
  5
3A1
100
AcDbEntity
  8
IMPORT_IGES
100
AcDbLine
 62
7
  6
CONTINUOUS
 10
172.7867228797
 20
74.2152552724
 11
172.7804450674
 21
74.2378983272
  0
LINE
  5
3A2
100
AcDbEntity
  8
CURVE
100
AcDbLine
 62
250
  6
CONTINUOUS
 10
172.8089392288
 20
74.1334864047
 11
172.7867228797
 21
74.2152552724
  0
LINE
  5
3A3
100
AcDbEntity
  8
IMPORT_IGES
100
AcDbLine
 62
7
  6
CONTINUOUS
 10
172.8089392288
 20
74.1334864047
 11
172.7867228797
 21
74.2152552724
  0
LINE
  5
3A4
100
AcDbEntity
  8
CURVE
100
AcDbLine
 62
250
  6
CONTINUOUS
 10
172.9529664172
 20
73.5859005021
 11
172.9371990094
 21
73.6447888364
  0
LINE
  5
3A5
100
AcDbEntity
  8
IMPORT_IGES
100
AcDbLine
 62
7
  6
CONTINUOUS
 10
172.9529664172
 20
73.5859005021
 11
172.9371990094
 21
73.6447888364
  0
LINE
  5
3A6
100
AcDbEntity
  8
0
100
AcDbLine
 62
7
  6
CONTINUOUS
 10
172.8499848206
 20
73.9789006991
 11
172.7959887844
 21
74.181297066
  0
LINE
  5
3A7
100
AcDbEntity
  8
CURVE
100
AcDbLine
 62
250
  6
CONTINUOUS
 10
172.847104047
 20
73.989870721
 11
172.8089392288
 21
74.1334864047
  0
LINE
  5
3A8
100
AcDbEntity
  8
IMPORT_IGES
100
AcDbLine
 62
7
  6
CONTINUOUS
 10
172.847104047
 20
73.989870721
 11
172.8089392288
 21
74.1334864047
  0
LINE
  5
3A9
100
AcDbEntity
  8
CURVE
100
AcDbLine
 62
250
  6
CONTINUOUS
 10
172.9371990094
 20
73.6447888364
 11
172.847104047
 21
73.989870721
  0
LINE
  5
3AA
100
AcDbEntity
  8
IMPORT_IGES
100
AcDbLine
 62
7
  6
CONTINUOUS
 10
172.9371990094
 20
73.6447888364
 11
172.847104047
 21
73.989870721
  0
LWPOLYLINE
  5
3AB
100
AcDbEntity
  8
0
100
AcDbPolyline
 62
7
  6
CONTINUOUS
 90
16
 70
0
 10
172.7959887844
 20
74.181297066
 10
172.7848299396
 20
74.2242631108
 10
172.7729616985
 20
74.2656238061
 10
172.7603840613
 20
74.3053791519
 10
172.7472605978
 20
74.3437005773
 10
172.7334277382
 20
74.3804166533
 10
172.7183947725
 20
74.4150130926
 10
172.702028836
 20
74.4474997437
 10
172.6844627935
 20
74.4778667582
 10
172.6656045295
 20
74.5055703029
 10
172.6451946893
 20
74.5305037827
 10
172.6234926275
 20
74.5527737928
 10
172.6011842931
 20
74.5721562854
 10
172.5784983358
 20
74.5885765778
 10
172.5552061058
 20
74.6021093526
 10
172.5313076033
 20
74.6127546099
  0
LINE
  5
3AC
100
AcDbEntity
  8
0
100
AcDbLine
 62
7
  6
CONTINUOUS
 10
172.9529664172
 20
73.5859005021
 11
172.8499848206
 21
73.9789006991
  0
LWPOLYLINE
  5
3AD
100
AcDbEntity
  8
CURVE
100
AcDbPolyline
 62
250
  6
CONTINUOUS
 90
58
 70
0
 10
172.4119907455
 20
75.1489133976
 10
172.4120599225
 20
75.1387144999
 10
172.4119456893
 20
75.1284861621
 10
172.4116366664
 20
75.1182392887
 10
172.4111214745
 20
75.1079847845
 10
172.4103887341
 20
75.0977335539
 10
172.4094270657
 20
75.0874965016
 10
172.4082250898
 20
75.0772845323
 10
172.406771427
 20
75.0671085505
 10
172.4050546978
 20
75.0569794609
 10
172.4030635229
 20
75.046908168
 10
172.4007865226
 20
75.0369055765
 10
172.3982123176
 20
75.026982591
 10
172.3953295285
 20
75.0171501161
 10
172.3921267756
 20
75.0074190564
 10
172.3885926797
 20
74.9978003166
 10
172.3847158612
 20
74.9883048012
 10
172.380858518
 20
74.9797286431
 10
172.3767106468
 20
74.9712765703
 10
172.3722785689
 20
74.9629602254
 10
172.3675686061
 20
74.9547912509
 10
172.3625870797
 20
74.9467812896
 10
172.3573403115
 20
74.9389419841
 10
172.3518346228
 20
74.9312849769
 10
172.3460763354
 20
74.9238219108
 10
172.3400717706
 20
74.9165644282
 10
172.3338272502
 20
74.9095241719
 10
172.3273490955
 20
74.9027127844
 10
172.3206436283
 20
74.8961419085
 10
172.3137171699
 20
74.8898231866
 10
172.306576042
 20
74.8837682615
 10
172.2989006118
 20
74.8777389277
 10
172.2910090592
 20
74.8720038149
 10
172.2829122605
 20
74.8665570479
 10
172.2746210922
 20
74.8613927516
 10
172.2661464305
 20
74.856505051
 10
172.257499152
 20
74.8518880708
 10
172.248690133
 20
74.847535936
 10
172.2397302498
 20
74.8434427715
 10
172.230630379
 20
74.8396027022
 10
172.2214013967
 20
74.8360098528
 10
172.2120541796
 20
74.8326583484
 10
172.2025996038
 20
74.8295423138
 10
172.1930485459
 20
74.8266558739
 10
172.1834118821
 20
74.8239931536
 10
172.173700489
 20
74.8215482777
 10
172.1639252428
 20
74.8193153712
 10
172.15409702
 20
74.8172885589
 10
172.1442266969
 20
74.8154619658
 10
172.13432515
 20
74.8138297167
 10
172.1244032556
 20
74.8123859364
 10
172.1144718901
 20
74.81112475
 10
172.1045419299
 20
74.8100402822
 10
172.0946242513
 20
74.809126658
 10
172.0847297309
 20
74.8083780022
 10
172.0748692449
 20
74.8077884397
 10
172.0650536697
 20
74.8073520955
 10
172.0552938818
 20
74.8070630943
  0
LWPOLYLINE
  5
3AE
100
AcDbEntity
  8
IMPORT_IGES
100
AcDbPolyline
 62
7
  6
CONTINUOUS
 90
58
 70
0
 10
172.4119907455
 20
75.1489133976
 10
172.4120599225
 20
75.1387144999
 10
172.4119456893
 20
75.1284861621
 10
172.4116366664
 20
75.1182392887
 10
172.4111214745
 20
75.1079847845
 10
172.4103887341
 20
75.0977335539
 10
172.4094270657
 20
75.0874965016
 10
172.4082250898
 20
75.0772845323
 10
172.406771427
 20
75.0671085505
 10
172.4050546978
 20
75.0569794609
 10
172.4030635229
 20
75.046908168
 10
172.4007865226
 20
75.0369055765
 10
172.3982123176
 20
75.026982591
 10
172.3953295285
 20
75.0171501161
 10
172.3921267756
 20
75.0074190564
 10
172.3885926797
 20
74.9978003166
 10
172.3847158612
 20
74.9883048012
 10
172.380858518
 20
74.9797286431
 10
172.3767106468
 20
74.9712765703
 10
172.3722785689
 20
74.9629602254
 10
172.3675686061
 20
74.9547912509
 10
172.3625870797
 20
74.9467812896
 10
172.3573403115
 20
74.9389419841
 10
172.3518346228
 20
74.9312849769
 10
172.3460763354
 20
74.9238219108
 10
172.3400717706
 20
74.9165644282
 10
172.3338272502
 20
74.9095241719
 10
172.3273490955
 20
74.9027127844
 10
172.3206436283
 20
74.8961419085
 10
172.3137171699
 20
74.8898231866
 10
172.306576042
 20
74.8837682615
 10
172.2989006118
 20
74.8777389277
 10
172.2910090592
 20
74.8720038149
 10
172.2829122605
 20
74.8665570479
 10
172.2746210922
 20
74.8613927516
 10
172.2661464305
 20
74.856505051
 10
172.257499152
 20
74.8518880708
 10
172.248690133
 20
74.847535936
 10
172.2397302498
 20
74.8434427715
 10
172.230630379
 20
74.8396027022
 10
172.2214013967
 20
74.8360098528
 10
172.2120541796
 20
74.8326583484
 10
172.2025996038
 20
74.8295423138
 10
172.1930485459
 20
74.8266558739
 10
172.1834118821
 20
74.8239931536
 10
172.173700489
 20
74.8215482777
 10
172.1639252428
 20
74.8193153712
 10
172.15409702
 20
74.8172885589
 10
172.1442266969
 20
74.8154619658
 10
172.13432515
 20
74.8138297167
 10
172.1244032556
 20
74.8123859364
 10
172.1144718901
 20
74.81112475
 10
172.1045419299
 20
74.8100402822
 10
172.0946242513
 20
74.809126658
 10
172.0847297309
 20
74.8083780022
 10
172.0748692449
 20
74.8077884397
 10
172.0650536697
 20
74.8073520955
 10
172.0552938818
 20
74.8070630943
  0
LINE
  5
3AF
100
AcDbEntity
  8
0
100
AcDbLine
 62
7
  6
CONTINUOUS
 10
171.3507586021
 20
75.7600143233
 11
171.3507586021
 21
73.5859005021
  0
LINE
  5
3B0
100
AcDbEntity
  8
CURVE
100
AcDbLine
 62
250
  6
CONTINUOUS
 10
171.3507586021
 20
75.7600143233
 11
171.3507586021
 21
73.5859005021
  0
LINE
  5
3B1
100
AcDbEntity
  8
IMPORT_IGES
100
AcDbLine
 62
7
  6
CONTINUOUS
 10
171.3507586021
 20
75.7600143233
 11
171.3507586021
 21
73.5859005021
  0
LINE
  5
3B2
100
AcDbEntity
  8
0
100
AcDbLine
 62
7
  6
CONTINUOUS
 10
171.7928726771
 20
74.8070630943
 11
171.7928726771
 21
75.4109551901
  0
LINE
  5
3B3
100
AcDbEntity
  8
CURVE
100
AcDbLine
 62
250
  6
CONTINUOUS
 10
171.7928726771
 20
74.8070630943
 11
171.7928726771
 21
75.4109551901
  0
LINE
  5
3B4
100
AcDbEntity
  8
IMPORT_IGES
100
AcDbLine
 62
7
  6
CONTINUOUS
 10
171.7928726771
 20
74.8070630943
 11
171.7928726771
 21
75.4109551901
  0
LINE
  5
3B5
100
AcDbEntity
  8
0
100
AcDbLine
 62
7
  6
CONTINUOUS
 10
171.8080986497
 20
73.5859005021
 11
171.8080986497
 21
74.4467865599
  0
LINE
  5
3B6
100
AcDbEntity
  8
CURVE
100
AcDbLine
 62
250
  6
CONTINUOUS
 10
171.8080986497
 20
73.5859005021
 11
171.8080986497
 21
74.4467865599
  0
LINE
  5
3B7
100
AcDbEntity
  8
IMPORT_IGES
100
AcDbLine
 62
7
  6
CONTINUOUS
 10
171.8080986497
 20
73.5859005021
 11
171.8080986497
 21
74.4467865599
  0
LINE
  5
3B8
100
AcDbEntity
  8
0
100
AcDbLine
 62
7
  6
CONTINUOUS
 10
172.5313076033
 20
74.6127546099
 11
172.5313076033
 21
74.6257535984
  0
LINE
  5
3B9
100
AcDbEntity
  8
CURVE
100
AcDbLine
 62
250
  6
CONTINUOUS
 10
172.5313076033
 20
74.6127546099
 11
172.5313076033
 21
74.6257535984
  0
LINE
  5
3BA
100
AcDbEntity
  8
IMPORT_IGES
100
AcDbLine
 62
7
  6
CONTINUOUS
 10
172.5313076033
 20
74.6127546099
 11
172.5313076033
 21
74.6257535984
  0
LWPOLYLINE
  5
3BB
100
AcDbEntity
  8
0
100
AcDbPolyline
 62
7
  6
CONTINUOUS
 90
22
 70
0
 10
172.4119907455
 20
75.1489133976
 10
172.411666877
 20
75.117670038
 10
172.40951037
 20
75.0878906283
 10
172.4055212245
 20
75.0595751683
 10
172.3996748702
 20
75.0327035818
 10
172.3919958775
 20
75.007295945
 10
172.3825579567
 20
74.983412487
 10
172.3712947761
 20
74.9610668226
 10
172.3582726675
 20
74.9402453369
 10
172.3437643366
 20
74.920967414
 10
172.3278646457
 20
74.9032399753
 10
172.3104787324
 20
74.8870560994
 10
172.2915947153
 20
74.8724144059
 10
172.2712239404
 20
74.8593552414
 10
172.2493550617
 20
74.8478382592
 10
172.2259421602
 20
74.8377410394
 10
172.2008830614
 20
74.8290103602
 10
172.1742799398
 20
74.8216994432
 10
172.1463934006
 20
74.8158455337
 10
172.117310312
 20
74.8114610465
 10
172.0869438057
 20
74.8085335667
 10
172.0552938818
 20
74.8070630943
  0
LINE
  5
3BC
100
AcDbEntity
  8
CURVE
100
AcDbLine
 62
250
  6
CONTINUOUS
 10
167.64203871
 20
75.0223384725
 11
167.5429454764
 21
73.5859009187
  0
LINE
  5
3BD
100
AcDbEntity
  8
IMPORT_IGES
100
AcDbLine
 62
7
  6
CONTINUOUS
 10
167.64203871
 20
75.0223384725
 11
167.5429454764
 21
73.5859009187
  0
LINE
  5
3BE
100
AcDbEntity
  8
0
100
AcDbLine
 62
7
  6
CONTINUOUS
 10
167.5429454764
 20
73.5859009187
 11
167.64203871
 21
75.0223384725
  0
LINE
  5
3BF
100
AcDbEntity
  8
0
100
AcDbLine
 62
7
  6
CONTINUOUS
 10
167.3022832969
 20
75.7857153902
 11
167.1036526393
 21
73.5859009187
  0
LINE
  5
3C0
100
AcDbEntity
  8
CURVE
100
AcDbLine
 62
250
  6
CONTINUOUS
 10
167.1036526393
 20
73.5859009187
 11
167.3022832969
 21
75.7857153902
  0
LINE
  5
3C1
100
AcDbEntity
  8
IMPORT_IGES
100
AcDbLine
 62
7
  6
CONTINUOUS
 10
167.1036526393
 20
73.5859009187
 11
167.3022832969
 21
75.7857153902
  0
LINE
  5
3C2
100
AcDbEntity
  8
0
100
AcDbLine
 62
7
  6
CONTINUOUS
 10
165.7679897476
 20
75.7857153902
 11
165.3358563387
 21
74.2715151733
  0
LINE
  5
3C3
100
AcDbEntity
  8
CURVE
100
AcDbLine
 62
250
  6
CONTINUOUS
 10
165.3358563387
 20
74.2715151733
 11
165.7679897476
 21
75.7857153902
  0
LINE
  5
3C4
100
AcDbEntity
  8
IMPORT_IGES
100
AcDbLine
 62
7
  6
CONTINUOUS
 10
165.3358563387
 20
74.2715151733
 11
165.7679897476
 21
75.7857153902
  0
LINE
  5
3C5
100
AcDbEntity
  8
CURVE
100
AcDbLine
 62
250
  6
CONTINUOUS
 10
166.2268646791
 20
75.7857153902
 11
165.5197553779
 21
73.5859009187
  0
LINE
  5
3C6
100
AcDbEntity
  8
IMPORT_IGES
100
AcDbLine
 62
7
  6
CONTINUOUS
 10
166.2268646791
 20
75.7857153902
 11
165.5197553779
 21
73.5859009187
  0
LINE
  5
3C7
100
AcDbEntity
  8
0
100
AcDbLine
 62
7
  6
CONTINUOUS
 10
165.5197553779
 20
73.5859009187
 11
166.2268646791
 21
75.7857153902
  0
LINE
  5
3C8
100
AcDbEntity
  8
CURVE
100
AcDbLine
 62
250
  6
CONTINUOUS
 10
170.3102289697
 20
75.1812622748
 11
170.0815924087
 21
74.364883169
  0
LINE
  5
3C9
100
AcDbEntity
  8
IMPORT_IGES
100
AcDbLine
 62
7
  6
CONTINUOUS
 10
170.3102289697
 20
75.1812622748
 11
170.0815924087
 21
74.364883169
  0
LINE
  5
3CA
100
AcDbEntity
  8
0
100
AcDbLine
 62
7
  6
CONTINUOUS
 10
170.0815924087
 20
74.364883169
 11
170.3102289697
 21
75.1812622748
  0
LINE
  5
3CB
100
AcDbEntity
  8
CURVE
100
AcDbLine
 62
250
  6
CONTINUOUS
 10
169.9876628891
 20
74.0250617559
 11
169.8609554663
 21
73.5859009187
  0
LINE
  5
3CC
100
AcDbEntity
  8
IMPORT_IGES
100
AcDbLine
 62
7
  6
CONTINUOUS
 10
169.9876628891
 20
74.0250617559
 11
169.8609554663
 21
73.5859009187
  0
LINE
  5
3CD
100
AcDbEntity
  8
0
100
AcDbLine
 62
7
  6
CONTINUOUS
 10
169.8609554663
 20
73.5859009187
 11
169.9876628891
 21
74.0250617559
  0
LINE
  5
3CE
100
AcDbEntity
  8
0
100
AcDbLine
 62
7
  6
CONTINUOUS
 10
170.0967525032
 20
75.7857153902
 11
169.4067497727
 21
73.5859009187
  0
LINE
  5
3CF
100
AcDbEntity
  8
CURVE
100
AcDbLine
 62
250
  6
CONTINUOUS
 10
169.4067497727
 20
73.5859009187
 11
170.0967525032
 21
75.7857153902
  0
LINE
  5
3D0
100
AcDbEntity
  8
IMPORT_IGES
100
AcDbLine
 62
7
  6
CONTINUOUS
 10
169.4067497727
 20
73.5859009187
 11
170.0967525032
 21
75.7857153902
  0
LINE
  5
3D1
100
AcDbEntity
  8
0
100
AcDbLine
 62
7
  6
CONTINUOUS
 10
168.6746170441
 20
75.7857153902
 11
168.2154288744
 21
74.5643718266
  0
LINE
  5
3D2
100
AcDbEntity
  8
CURVE
100
AcDbLine
 62
250
  6
CONTINUOUS
 10
168.2154288744
 20
74.5643718266
 11
168.6746170441
 21
75.7857153902
  0
LINE
  5
3D3
100
AcDbEntity
  8
IMPORT_IGES
100
AcDbLine
 62
7
  6
CONTINUOUS
 10
168.2154288744
 20
74.5643718266
 11
168.6746170441
 21
75.7857153902
  0
LINE
  5
3D4
100
AcDbEntity
  8
CURVE
100
AcDbLine
 62
250
  6
CONTINUOUS
 10
168.7910965626
 20
75.0163502823
 11
168.2451215398
 21
73.5859009187
  0
LINE
  5
3D5
100
AcDbEntity
  8
IMPORT_IGES
100
AcDbLine
 62
7
  6
CONTINUOUS
 10
168.7910965626
 20
75.0163502823
 11
168.2451215398
 21
73.5859009187
  0
LINE
  5
3D6
100
AcDbEntity
  8
0
100
AcDbLine
 62
7
  6
CONTINUOUS
 10
168.2451215398
 20
73.5859009187
 11
168.7910965626
 21
75.0163502823
  0
LINE
  5
3D7
100
AcDbEntity
  8
0
100
AcDbLine
 62
250
  6
CONTINUOUS
 10
202.1760435514
 20
123.3482895957
 11
202.0771704452
 21
123.2494164894
  0
LINE
  5
3D8
100
AcDbEntity
  8
ASSI
100
AcDbLine
 62
250
  6
CONTINUOUS
 10
202.1760435514
 20
123.3482895957
 11
202.0771704452
 21
123.2494164894
  0
LINE
  5
3D9
100
AcDbEntity
  8
0
100
AcDbLine
 62
250
  6
CONTINUOUS
 10
202.6748255766
 20
122.8495075706
 11
202.5759524703
 21
122.7506344643
  0
LINE
  5
3DA
100
AcDbEntity
  8
ASSI
100
AcDbLine
 62
250
  6
CONTINUOUS
 10
202.6748255766
 20
122.8495075706
 11
202.5759524703
 21
122.7506344643
  0
LINE
  5
3DB
100
AcDbEntity
  8
SMUSSO
100
AcDbLine
 62
7
  6
CONTINUOUS
 10
228.5315121247
 20
145.455584946
 11
228.7253436682
 21
145.6494164894
  0
LINE
  5
3DC
100
AcDbEntity
  8
ASSI
100
AcDbLine
 62
7
  6
CONTINUOUS
 10
228.5315121247
 20
145.455584946
 11
228.7253436682
 21
145.6494164894
  0
LINE
  5
3DD
100
AcDbEntity
  8
0
100
AcDbLine
 62
250
  6
CONTINUOUS
 10
202.1760435514
 20
77.9505433832
 11
202.0771704452
 21
78.0494164894
  0
LINE
  5
3DE
100
AcDbEntity
  8
ASSI
100
AcDbLine
 62
250
  6
CONTINUOUS
 10
202.1760435514
 20
77.9505433832
 11
202.0771704452
 21
78.0494164894
  0
LINE
  5
3DF
100
AcDbEntity
  8
0
100
AcDbLine
 62
250
  6
CONTINUOUS
 10
202.6748255766
 20
78.4493254083
 11
202.5759524703
 21
78.5481985146
  0
LINE
  5
3E0
100
AcDbEntity
  8
ASSI
100
AcDbLine
 62
250
  6
CONTINUOUS
 10
202.6748255766
 20
78.4493254083
 11
202.5759524703
 21
78.5481985146
  0
LINE
  5
3E1
100
AcDbEntity
  8
SMUSSO
100
AcDbLine
 62
7
  6
CONTINUOUS
 10
228.5315121247
 20
55.8432480329
 11
228.7253436682
 21
55.6494164894
  0
LINE
  5
3E2
100
AcDbEntity
  8
ASSI
100
AcDbLine
 62
7
  6
CONTINUOUS
 10
228.5315121247
 20
55.8432480329
 11
228.7253436682
 21
55.6494164894
  0
LINE
  5
3E3
100
AcDbEntity
  8
SMUSSO
100
AcDbLine
 62
7
  6
CONTINUOUS
 10
229.5321209268
 20
144.4549761439
 11
229.7259524703
 21
144.6488076873
  0
LINE
  5
3E4
100
AcDbEntity
  8
ASSI
100
AcDbLine
 62
7
  6
CONTINUOUS
 10
229.5321209268
 20
144.4549761439
 11
229.7259524703
 21
144.6488076873
  0
LINE
  5
3E5
100
AcDbEntity
  8
CURVE
100
AcDbLine
 62
7
  6
CONTINUOUS
 10
164.504778279
 20
75.511073816
 11
164.7794198532
 21
75.7857153902
  0
LINE
  5
3E6
100
AcDbEntity
  8
CURVE
100
AcDbLine
 62
7
  6
CONTINUOUS
 10
164.6058815716
 20
75.1921556805
 11
164.9778860743
 21
75.5641601833
  0
LINE
  5
3E7
100
AcDbEntity
  8
CURVE
100
AcDbLine
 62
7
  6
CONTINUOUS
 10
164.7069848641
 20
74.873237545
 11
165.0689764598
 21
75.2352291407
  0
LINE
  5
3E8
100
AcDbEntity
  8
CURVE
100
AcDbLine
 62
7
  6
CONTINUOUS
 10
164.8080881566
 20
74.5543194095
 11
165.1600668453
 21
74.9062980982
  0
LINE
  5
3E9
100
AcDbEntity
  8
CURVE
100
AcDbLine
 62
7
  6
CONTINUOUS
 10
165.6595659467
 20
75.4057971996
 11
166.0394841373
 21
75.7857153902
  0
LINE
  5
3EA
100
AcDbEntity
  8
SMUSSO
100
AcDbLine
 62
7
  6
CONTINUOUS
 10
229.5321209268
 20
56.843856835
 11
229.7259524703
 21
56.6500252916
  0
LINE
  5
3EB
100
AcDbEntity
  8
ASSI
100
AcDbLine
 62
7
  6
CONTINUOUS
 10
229.5321209268
 20
56.843856835
 11
229.7259524703
 21
56.6500252916
  0
LINE
  5
3EC
100
AcDbEntity
  8
CURVE
100
AcDbLine
 62
7
  6
CONTINUOUS
 10
164.9091914491
 20
74.235401274
 11
165.2511572308
 21
74.5773670556
  0
LINE
  5
3ED
100
AcDbEntity
  8
CURVE
100
AcDbLine
 62
7
  6
CONTINUOUS
 10
165.4918264965
 20
74.8180363213
 11
166.1166603751
 21
75.4428701999
  0
LINE
  5
3EE
100
AcDbEntity
  8
CURVE
100
AcDbLine
 62
7
  6
CONTINUOUS
 10
166.397269338
 20
75.7234791629
 11
166.4596375653
 21
75.7858473902
  0
LINE
  5
3EF
100
AcDbEntity
  8
CURVE
100
AcDbLine
 62
7
  6
CONTINUOUS
 10
165.0102947417
 20
73.9164831385
 11
165.9176920427
 21
74.8238804395
  0
LINE
  5
3F0
100
AcDbEntity
  8
CURVE
100
AcDbLine
 62
7
  6
CONTINUOUS
 10
166.397269338
 20
75.3034577349
 11
166.8564575076
 21
75.7626459045
  0
LINE
  5
3F1
100
AcDbEntity
  8
CURVE
100
AcDbLine
 62
7
  6
CONTINUOUS
 10
165.1113980342
 20
73.597565003
 11
165.7187237103
 21
74.2048906791
  0
LINE
  5
3F2
100
AcDbEntity
  8
CURVE
100
AcDbLine
 62
7
  6
CONTINUOUS
 10
166.397269338
 20
74.8834363069
 11
166.8564575076
 21
75.3426244765
  0
LINE
  5
3F3
100
AcDbEntity
  8
CURVE
100
AcDbLine
 62
7
  6
CONTINUOUS
 10
166.397269338
 20
74.4634148788
 11
166.8564575076
 21
74.9226030484
  0
LINE
  5
3F4
100
AcDbEntity
  8
CURVE
100
AcDbLine
 62
7
  6
CONTINUOUS
 10
167.2608648616
 20
75.3270104024
 11
167.7195698494
 21
75.7857153902
  0
LINE
  5
3F5
100
AcDbEntity
  8
CURVE
100
AcDbLine
 62
7
  6
CONTINUOUS
 10
166.397269338
 20
74.0433934508
 11
166.8564575076
 21
74.5025816204
  0
LINE
  5
3F6
100
AcDbEntity
  8
CURVE
100
AcDbLine
 62
7
  6
CONTINUOUS
 10
167.2191749719
 20
74.8652990847
 11
167.8637162237
 21
75.5098403365
  0
LINE
  5
3F7
100
AcDbEntity
  8
CURVE
100
AcDbLine
 62
7
  6
CONTINUOUS
 10
166.397269338
 20
73.6233720228
 11
166.8564575076
 21
74.0825601924
  0
LINE
  5
3F8
100
AcDbEntity
  8
CURVE
100
AcDbLine
 62
7
  6
CONTINUOUS
 10
167.1774850822
 20
74.4035877669
 11
167.6306131655
 21
74.8567158503
  0
LINE
  5
3F9
100
AcDbEntity
  8
CURVE
100
AcDbLine
 62
7
  6
CONTINUOUS
 10
167.6840935069
 20
74.9101961916
 11
167.9775991988
 21
75.2037018836
  0
LINE
  5
3FA
100
AcDbEntity
  8
CURVE
100
AcDbLine
 62
7
  6
CONTINUOUS
 10
166.779819662
 20
73.5859009187
 11
166.8564575076
 21
73.6625387644
  0
LINE
  5
3FB
100
AcDbEntity
  8
CURVE
100
AcDbLine
 62
7
  6
CONTINUOUS
 10
167.1357951925
 20
73.9418764492
 11
167.5994908279
 21
74.4055720846
  0
LINE
  5
3FC
100
AcDbEntity
  8
CURVE
100
AcDbLine
 62
7
  6
CONTINUOUS
 10
167.7986476611
 20
74.6047289178
 11
168.0914821739
 21
74.8975634306
  0
LINE
  5
3FD
100
AcDbEntity
  8
CURVE
100
AcDbLine
 62
7
  6
CONTINUOUS
 10
168.4908484319
 20
75.2969296886
 11
168.9796341334
 21
75.7857153902
  0
LINE
  5
3FE
100
AcDbEntity
  8
CURVE
100
AcDbLine
 62
7
  6
CONTINUOUS
 10
167.19984109
 20
73.5859009187
 11
167.5683684902
 21
73.9544283189
  0
LINE
  5
3FF
100
AcDbEntity
  8
CURVE
100
AcDbLine
 62
7
  6
CONTINUOUS
 10
167.9132018153
 20
74.299261644
 11
168.205365149
 21
74.5914249777
  0
LINE
  5
400
100
AcDbEntity
  8
CURVE
100
AcDbLine
 62
7
  6
CONTINUOUS
 10
168.2377912834
 20
74.6238511121
 11
169.1520882919
 21
75.5381481206
  0
LINE
  5
401
100
AcDbEntity
  8
CURVE
100
AcDbLine
 62
7
  6
CONTINUOUS
 10
168.0277559695
 20
73.9937943702
 11
168.6310861663
 21
74.597124567
  0
LINE
  5
402
100
AcDbEntity
  8
CURVE
100
AcDbLine
 62
7
  6
CONTINUOUS
 10
168.8071346291
 20
74.7731730298
 11
169.188006272
 21
75.1540446727
  0
LINE
  5
403
100
AcDbEntity
  8
CURVE
100
AcDbLine
 62
7
  6
CONTINUOUS
 10
168.1423101237
 20
73.6883270964
 11
168.3718121567
 21
73.9178291294
  0
LINE
  5
404
100
AcDbEntity
  8
CURVE
100
AcDbLine
 62
7
  6
CONTINUOUS
 10
168.8331220268
 20
74.3791389995
 11
169.2239242521
 21
74.7699412248
  0
LINE
  5
405
100
AcDbEntity
  8
CURVE
100
AcDbLine
 62
7
  6
CONTINUOUS
 10
170.0314244438
 20
75.5774414164
 11
170.2396984175
 21
75.7857153902
  0
LINE
  5
406
100
AcDbEntity
  8
CURVE
100
AcDbLine
 62
7
  6
CONTINUOUS
 10
168.8591094246
 20
73.9851049692
 11
169.2598422322
 21
74.3858377769
  0
LINE
  5
407
100
AcDbEntity
  8
CURVE
100
AcDbLine
 62
7
  6
CONTINUOUS
 10
169.8394694308
 20
74.9654649755
 11
170.5688438024
 21
75.694839347
  0
LINE
  5
408
100
AcDbEntity
  8
CURVE
100
AcDbLine
 62
7
  6
CONTINUOUS
 10
168.8850968223
 20
73.5910709389
 11
169.2957602123
 21
74.0017343289
  0
LINE
  5
409
100
AcDbEntity
  8
CURVE
100
AcDbLine
 62
7
  6
CONTINUOUS
 10
169.6475144179
 20
74.3534885345
 11
170.2460196223
 21
74.9519937389
  0
LINE
  5
40A
100
AcDbEntity
  8
CURVE
100
AcDbLine
 62
7
  6
CONTINUOUS
 10
170.3441287123
 20
75.0501028289
 11
170.6674591834
 21
75.3734333
  0
LINE
  5
40B
100
AcDbEntity
  8
CURVE
100
AcDbLine
 62
7
  6
CONTINUOUS
 10
169.2999482302
 20
73.5859009187
 11
169.3316781924
 21
73.617630881
  0
LINE
  5
40C
100
AcDbEntity
  8
CURVE
100
AcDbLine
 62
7
  6
CONTINUOUS
 10
169.455559405
 20
73.7415120936
 11
170.0826279201
 21
74.3685806087
  0
LINE
  5
40D
100
AcDbEntity
  8
CURVE
100
AcDbLine
 62
7
  6
CONTINUOUS
 10
170.4303924243
 20
74.7163451129
 11
170.7660745644
 21
75.0520272529
  0
LINE
  5
40E
100
AcDbEntity
  8
CURVE
100
AcDbLine
 62
7
  6
CONTINUOUS
 10
171.3507586021
 20
75.6367112906
 11
171.493034528
 21
75.7789872166
  0
LINE
  5
40F
100
AcDbEntity
  8
CURVE
100
AcDbLine
 62
7
  6
CONTINUOUS
 10
169.7199696582
 20
73.5859009187
 11
169.9181286242
 21
73.7840598848
  0
LINE
  5
410
100
AcDbEntity
  8
CURVE
100
AcDbLine
 62
7
  6
CONTINUOUS
 10
170.1591304954
 20
74.0250617559
 11
170.4989519085
 21
74.364883169
  0
LINE
  5
411
100
AcDbEntity
  8
CURVE
100
AcDbLine
 62
7
  6
CONTINUOUS
 10
170.5166561363
 20
74.3825873968
 11
170.8646899454
 21
74.7306212059
  0
LINE
  5
412
100
AcDbEntity
  8
CURVE
100
AcDbLine
 62
7
  6
CONTINUOUS
 10
171.3507586021
 20
75.2166898626
 11
171.9443446625
 21
75.810275923
  0
LINE
  5
413
100
AcDbEntity
  8
CURVE
100
AcDbLine
 62
7
  6
CONTINUOUS
 10
170.5791519234
 20
74.0250617559
 11
170.9633053264
 21
74.4092151589
  0
LINE
  5
414
100
AcDbEntity
  8
CURVE
100
AcDbLine
 62
7
  6
CONTINUOUS
 10
171.3507586021
 20
74.7966684346
 11
171.7928726771
 21
75.2387825096
  0
LINE
  5
415
100
AcDbEntity
  8
CURVE
100
AcDbLine
 62
7
  6
CONTINUOUS
 10
171.9857056085
 20
75.431615441
 11
172.3323501668
 21
75.7782599993
  0
LINE
  5
416
100
AcDbEntity
  8
CURVE
100
AcDbLine
 62
7
  6
CONTINUOUS
 10
170.6953074163
 20
73.7211958208
 11
171.0619207074
 21
74.0878091119
  0
LINE
  5
417
100
AcDbEntity
  8
CURVE
100
AcDbLine
 62
7
  6
CONTINUOUS
 10
171.3507586021
 20
74.3766470066
 11
171.7928726771
 21
74.8187610816
  0
LINE
  5
418
100
AcDbEntity
  8
CURVE
100
AcDbLine
 62
7
  6
CONTINUOUS
 10
172.322812179
 20
75.3487005835
 11
172.6261007206
 21
75.6519891251
  0
LINE
  5
419
100
AcDbEntity
  8
CURVE
100
AcDbLine
 62
7
  6
CONTINUOUS
 10
170.9800339423
 20
73.5859009187
 11
171.1605360884
 21
73.7664030648
  0
LINE
  5
41A
100
AcDbEntity
  8
CURVE
100
AcDbLine
 62
7
  6
CONTINUOUS
 10
171.3507586021
 20
73.9566255785
 11
171.8080986497
 21
74.4139656262
  0
LINE
  5
41B
100
AcDbEntity
  8
CURVE
100
AcDbLine
 62
7
  6
CONTINUOUS
 10
171.8409195834
 20
74.4467865599
 11
172.2363517355
 21
74.842218712
  0
LINE
  5
41C
100
AcDbEntity
  8
CURVE
100
AcDbLine
 62
7
  6
CONTINUOUS
 10
172.3860201524
 20
74.9918871289
 11
172.8007774452
 21
75.4066444217
  0
LINE
  5
41D
100
AcDbEntity
  8
SMUSSO
100
AcDbLine
 62
7
  6
CONTINUOUS
 10
108.9546835105
 20
57.2726790792
 11
107.935253148
 21
56.8294310195
  0
LINE
  5
41E
100
AcDbEntity
  8
ASSI
100
AcDbLine
 62
7
  6
CONTINUOUS
 10
108.9546835105
 20
57.2726790792
 11
107.935253148
 21
56.8294310195
  0
LINE
  5
41F
100
AcDbEntity
  8
SMUSSO
100
AcDbLine
 62
7
  6
CONTINUOUS
 10
108.9546835105
 20
144.0261538996
 11
107.935253148
 21
144.4694019594
  0
LINE
  5
420
100
AcDbEntity
  8
ASSI
100
AcDbLine
 62
7
  6
CONTINUOUS
 10
108.9546835105
 20
144.0261538996
 11
107.935253148
 21
144.4694019594
  0
LINE
  5
421
100
AcDbEntity
  8
CURVE
100
AcDbLine
 62
7
  6
CONTINUOUS
 10
171.4000549536
 20
73.5859005021
 11
171.8080986497
 21
73.9939441982
  0
LINE
  5
422
100
AcDbEntity
  8
CURVE
100
AcDbLine
 62
7
  6
CONTINUOUS
 10
172.2097639904
 20
74.3956095389
 11
172.8247514633
 21
75.0105970118
  0
LINE
  5
423
100
AcDbEntity
  8
CURVE
100
AcDbLine
 62
7
  6
CONTINUOUS
 10
172.3538376843
 20
74.1196618048
 11
172.6947314499
 21
74.4605555703
  0
LINE
  5
424
100
AcDbEntity
  8
CURVE
100
AcDbLine
 62
7
  6
CONTINUOUS
 10
172.4501676423
 20
73.7959703347
 11
172.8042904965
 21
74.1500931889
  0
LINE
  5
425
100
AcDbEntity
  8
CURVE
100
AcDbLine
 62
7
  6
CONTINUOUS
 10
172.6601192377
 20
73.5859005021
 11
172.89200697
 21
73.8177882343
  0
LWPOLYLINE
  5
426
100
AcDbEntity
  8
CURVE
100
AcDbPolyline
 62
250
  6
CONTINUOUS
 90
63
 70
0
 10
172.5985310764
 20
74.6627230806
 10
172.6124515325
 20
74.6730974163
 10
172.6260049135
 20
74.6840435379
 10
172.6391944716
 20
74.6954841144
 10
172.652023459
 20
74.7073418153
 10
172.6672354272
 20
74.7223312906
 10
172.6818985796
 20
74.7378228698
 10
172.6959993234
 20
74.753809684
 10
172.7095240657
 20
74.7702848647
 10
172.7214940843
 20
74.7859298257
 10
172.7329487574
 20
74.8019655904
 10
172.743875879
 20
74.8183720688
 10
172.7542632429
 20
74.8351291711
 10
172.7640986431
 20
74.8522168073
 10
172.774512517
 20
74.8718553627
 10
172.7842000147
 20
74.8918613567
 10
172.7931520128
 20
74.9122075472
 10
172.8013593878
 20
74.9328666924
 10
172.8088130165
 20
74.9538115501
 10
172.8151202299
 20
74.9737157061
 10
172.8207594893
 20
74.9938216605
 10
172.8257355949
 20
75.0141032737
 10
172.830053347
 20
75.0345344058
 10
172.8337175458
 20
75.0550889171
 10
172.8367329916
 20
75.0757406679
 10
172.8393164441
 20
75.0986148653
 10
172.8411400392
 20
75.1215550157
 10
172.8422281441
 20
75.1445404846
 10
172.8426019337
 20
75.1692602986
 10
172.84216426
 20
75.193981187
 10
172.8409243741
 20
75.2186757357
 10
172.8393412263
 20
75.238558908
 10
172.8372193201
 20
75.2583893564
 10
172.8345359552
 20
75.2781493397
 10
172.8314682066
 20
75.296727358
 10
172.8278718404
 20
75.3152122486
 10
172.8237390937
 20
75.3335895314
 10
172.8185179339
 20
75.3538343467
 10
172.8126241381
 20
75.3738998939
 10
172.8060549221
 20
75.393757198
 10
172.7988075019
 20
75.413377284
 10
172.7908790931
 20
75.4327311765
 10
172.7830590093
 20
75.4501152079
 10
172.7746791038
 20
75.4672352549
 10
172.7657475781
 20
75.4840725353
 10
172.7562726338
 20
75.5006082668
 10
172.7462624725
 20
75.5168236674
 10
172.7341426176
 20
75.5349914929
 10
172.7213482659
 20
75.5526906317
 10
172.7078972324
 20
75.5698978717
 10
172.6938073318
 20
75.5865900006
 10
172.6793337721
 20
75.6024943273
 10
172.6642799385
 20
75.6178605113
 10
172.6486671806
 20
75.6326718925
 10
172.6325168475
 20
75.6469118104
 10
172.6158502887
 20
75.6605636046
 10
172.5986888534
 20
75.6736106148
 10
172.581053891
 20
75.6860361806
 10
172.5679889863
 20
75.6946362927
 10
172.5546857045
 20
75.7028555435
 10
172.5411431307
 20
75.7106481742
 10
172.5273603503
 20
75.7179684259
 10
172.5133364484
 20
75.7247705398
  0
LWPOLYLINE
  5
427
100
AcDbEntity
  8
IMPORT_IGES
100
AcDbPolyline
 62
7
  6
CONTINUOUS
 90
63
 70
0
 10
172.5985310764
 20
74.6627230806
 10
172.6124515325
 20
74.6730974163
 10
172.6260049135
 20
74.6840435379
 10
172.6391944716
 20
74.6954841144
 10
172.652023459
 20
74.7073418153
 10
172.6672354272
 20
74.7223312906
 10
172.6818985796
 20
74.7378228698
 10
172.6959993234
 20
74.753809684
 10
172.7095240657
 20
74.7702848647
 10
172.7214940843
 20
74.7859298257
 10
172.7329487574
 20
74.8019655904
 10
172.743875879
 20
74.8183720688
 10
172.7542632429
 20
74.8351291711
 10
172.7640986431
 20
74.8522168073
 10
172.774512517
 20
74.8718553627
 10
172.7842000147
 20
74.8918613567
 10
172.7931520128
 20
74.9122075472
 10
172.8013593878
 20
74.9328666924
 10
172.8088130165
 20
74.9538115501
 10
172.8151202299
 20
74.9737157061
 10
172.8207594893
 20
74.9938216605
 10
172.8257355949
 20
75.0141032737
 10
172.830053347
 20
75.0345344058
 10
172.8337175458
 20
75.0550889171
 10
172.8367329916
 20
75.0757406679
 10
172.8393164441
 20
75.0986148653
 10
172.8411400392
 20
75.1215550157
 10
172.8422281441
 20
75.1445404846
 10
172.8426019337
 20
75.1692602986
 10
172.84216426
 20
75.193981187
 10
172.8409243741
 20
75.2186757357
 10
172.8393412263
 20
75.238558908
 10
172.8372193201
 20
75.2583893564
 10
172.8345359552
 20
75.2781493397
 10
172.8314682066
 20
75.296727358
 10
172.8278718404
 20
75.3152122486
 10
172.8237390937
 20
75.3335895314
 10
172.8185179339
 20
75.3538343467
 10
172.8126241381
 20
75.3738998939
 10
172.8060549221
 20
75.393757198
 10
172.7988075019
 20
75.413377284
 10
172.7908790931
 20
75.4327311765
 10
172.7830590093
 20
75.4501152079
 10
172.7746791038
 20
75.4672352549
 10
172.7657475781
 20
75.4840725353
 10
172.7562726338
 20
75.5006082668
 10
172.7462624725
 20
75.5168236674
 10
172.7341426176
 20
75.5349914929
 10
172.7213482659
 20
75.5526906317
 10
172.7078972324
 20
75.5698978717
 10
172.6938073318
 20
75.5865900006
 10
172.6793337721
 20
75.6024943273
 10
172.6642799385
 20
75.6178605113
 10
172.6486671806
 20
75.6326718925
 10
172.6325168475
 20
75.6469118104
 10
172.6158502887
 20
75.6605636046
 10
172.5986888534
 20
75.6736106148
 10
172.581053891
 20
75.6860361806
 10
172.5679889863
 20
75.6946362927
 10
172.5546857045
 20
75.7028555435
 10
172.5411431307
 20
75.7106481742
 10
172.5273603503
 20
75.7179684259
 10
172.5133364484
 20
75.7247705398
  0
LWPOLYLINE
  5
428
100
AcDbEntity
  8
CURVE
100
AcDbPolyline
 62
250
  6
CONTINUOUS
 90
12
 70
0
 10
172.5705812172
 20
74.6443519886
 10
172.5731881786
 20
74.6459493546
 10
172.575781143
 20
74.6475589499
 10
172.5783603717
 20
74.649181547
 10
172.5809261262
 20
74.6508179183
 10
172.5834786676
 20
74.6524688362
 10
172.5860182573
 20
74.6541350732
 10
172.5885451567
 20
74.6558174018
 10
172.5910596269
 20
74.6575165944
 10
172.5935619295
 20
74.6592334234
 10
172.5960523255
 20
74.6609686613
 10
172.5985310764
 20
74.6627230806
  0
LWPOLYLINE
  5
429
100
AcDbEntity
  8
IMPORT_IGES
100
AcDbPolyline
 62
7
  6
CONTINUOUS
 90
12
 70
0
 10
172.5705812172
 20
74.6443519886
 10
172.5731881786
 20
74.6459493546
 10
172.575781143
 20
74.6475589499
 10
172.5783603717
 20
74.649181547
 10
172.5809261262
 20
74.6508179183
 10
172.5834786676
 20
74.6524688362
 10
172.5860182573
 20
74.6541350732
 10
172.5885451567
 20
74.6558174018
 10
172.5910596269
 20
74.6575165944
 10
172.5935619295
 20
74.6592334234
 10
172.5960523255
 20
74.6609686613
 10
172.5985310764
 20
74.6627230806
  0
LWPOLYLINE
  5
42A
100
AcDbEntity
  8
0
100
AcDbPolyline
 62
7
  6
CONTINUOUS
 90
67
 70
0
 10
172.5585615262
 20
74.6371475021
 10
172.5700253063
 20
74.6440046618
 10
172.5759289926
 20
74.6476364233
 10
172.5819438117
 20
74.6514733307
 10
172.5880719864
 20
74.6555091622
 10
172.5943112939
 20
74.6597501396
 10
172.60065697
 20
74.6642500775
 10
172.6071128484
 20
74.6690216716
 10
172.6136750954
 20
74.6740522262
 10
172.620327445
 20
74.6793574692
 10
172.6270659507
 20
74.6849379522
 10
172.6338945589
 20
74.6907931234
 10
172.6408088429
 20
74.6969370561
 10
172.6478139863
 20
74.7033693809
 10
172.6549048053
 20
74.7100904671
 10
172.6620613224
 20
74.7171154954
 10
172.6692824391
 20
74.7244335125
 10
172.6765692539
 20
74.7320554716
 10
172.6839050834
 20
74.7400294136
 10
172.6912926923
 20
74.7483523109
 10
172.6987293159
 20
74.757027191
 10
172.7061899777
 20
74.7661111765
 10
172.7136762977
 20
74.775599573
 10
172.7211866558
 20
74.785497075
 10
172.7286912158
 20
74.7958748888
 10
172.7361972989
 20
74.8067323203
 10
172.7436975838
 20
74.8180700637
 10
172.7511402699
 20
74.8299614079
 10
172.7585337062
 20
74.8424063323
 10
172.7658695436
 20
74.8554048574
 10
172.7730709348
 20
74.8690303346
 10
172.7801471481
 20
74.8832841833
 10
172.7870889151
 20
74.8981649841
 10
172.7937915829
 20
74.9137418291
 10
172.8002633422
 20
74.9300140249
 10
172.8064960022
 20
74.946982265
 10
172.8123603381
 20
74.9647177219
 10
172.8178638306
 20
74.9832301029
 10
172.8229989989
 20
75.0025097008
 10
172.8276141753
 20
75.0225985669
 10
172.8317150766
 20
75.04350033
 10
172.835295986
 20
75.0652113613
 10
172.8381880848
 20
75.0877628256
 10
172.8403978529
 20
75.1111317932
 10
172.8419188103
 20
75.1353411938
 10
172.8425626992
 20
75.1604909815
 10
172.842395872
 20
75.1865940313
 10
172.8413519761
 20
75.2136374682
 10
172.8390436964
 20
75.2416826217
 10
172.835548875
 20
75.2708114988
 10
172.8307896697
 20
75.3009420925
 10
172.8241452385
 20
75.3318897115
 10
172.8156035064
 20
75.3637879618
 10
172.8051765484
 20
75.3965032374
 10
172.7922797479
 20
75.4294500293
 10
172.7767175667
 20
75.462826277
 10
172.758685543
 20
75.496434041
 10
172.7381856747
 20
75.5290939927
 10
172.7148802223
 20
75.5608229333
 10
172.6891069253
 20
75.5916040617
 10
172.661881
 20
75.6202076459
 10
172.6330255599
 20
75.6464751668
 10
172.6027174915
 20
75.6705651435
 10
172.5725026709
 20
75.6917234015
 10
172.5428963901
 20
75.7096985493
 10
172.5133833569
 20
75.7247419785
 10
172.4839635715
 20
75.7368536889
  0
LWPOLYLINE
  5
42B
100
AcDbEntity
  8
CURVE
100
AcDbPolyline
 62
250
  6
CONTINUOUS
 90
5
 70
0
 10
172.5608983844
 20
74.6385871252
 10
172.5633377684
 20
74.6400159831
 10
172.5657645677
 20
74.6414526829
 10
172.5681789836
 20
74.6428978198
 10
172.5705812172
 20
74.6443519886
  0
LWPOLYLINE
  5
42C
100
AcDbEntity
  8
IMPORT_IGES
100
AcDbPolyline
 62
7
  6
CONTINUOUS
 90
5
 70
0
 10
172.5608983844
 20
74.6385871252
 10
172.5633377684
 20
74.6400159831
 10
172.5657645677
 20
74.6414526829
 10
172.5681789836
 20
74.6428978198
 10
172.5705812172
 20
74.6443519886
  0
LWPOLYLINE
  5
42D
100
AcDbEntity
  8
CURVE
100
AcDbPolyline
 62
250
  6
CONTINUOUS
 90
3
 70
0
 10
172.5549023636
 20
74.6351360382
 10
172.5559810571
 20
74.6357505556
 10
172.5608983844
 20
74.6385871252
  0
LWPOLYLINE
  5
42E
100
AcDbEntity
  8
IMPORT_IGES
100
AcDbPolyline
 62
7
  6
CONTINUOUS
 90
3
 70
0
 10
172.5549023636
 20
74.6351360382
 10
172.5559810571
 20
74.6357505556
 10
172.5608983844
 20
74.6385871252
  0
LWPOLYLINE
  5
42F
100
AcDbEntity
  8
CURVE
100
AcDbPolyline
 62
250
  6
CONTINUOUS
 90
7
 70
0
 10
172.5472538754
 20
74.6310198128
 10
172.5483592667
 20
74.6315752166
 10
172.5494598629
 20
74.6321445357
 10
172.5505559909
 20
74.6327259466
 10
172.551647978
 20
74.6333176258
 10
172.5527361511
 20
74.6339177498
 10
172.5538208373
 20
74.6345244951
  0
LWPOLYLINE
  5
430
100
AcDbEntity
  8
IMPORT_IGES
100
AcDbPolyline
 62
7
  6
CONTINUOUS
 90
7
 70
0
 10
172.5472538754
 20
74.6310198128
 10
172.5483592667
 20
74.6315752166
 10
172.5494598629
 20
74.6321445357
 10
172.5505559909
 20
74.6327259466
 10
172.551647978
 20
74.6333176258
 10
172.5527361511
 20
74.6339177498
 10
172.5538208373
 20
74.6345244951
  0
LINE
  5
431
100
AcDbEntity
  8
0
100
AcDbLine
 62
250
  6
CONTINUOUS
 10
202.8743383866
 20
122.8495075706
 11
202.6748255766
 21
122.8495075706
  0
LINE
  5
432
100
AcDbEntity
  8
ASSI
100
AcDbLine
 62
250
  6
CONTINUOUS
 10
202.8743383866
 20
122.8495075706
 11
202.6748255766
 21
122.8495075706
  0
LINE
  5
433
100
AcDbEntity
  8
0
100
AcDbLine
 62
250
  6
CONTINUOUS
 10
134.577566554
 20
122.8495075706
 11
134.777079364
 21
122.8495075706
  0
LINE
  5
434
100
AcDbEntity
  8
ASSI
100
AcDbLine
 62
250
  6
CONTINUOUS
 10
134.577566554
 20
122.8495075706
 11
134.777079364
 21
122.8495075706
  0
LINE
  5
435
100
AcDbEntity
  8
RACCORDO
100
AcDbLine
 62
7
  6
CONTINUOUS
 10
202.0771704452
 20
123.2494164894
 11
135.3747344954
 21
123.2494164894
  0
LINE
  5
436
100
AcDbEntity
  8
ASSI
100
AcDbLine
 62
7
  6
CONTINUOUS
 10
202.0771704452
 20
123.2494164894
 11
135.3747344954
 21
123.2494164894
  0
LINE
  5
437
100
AcDbEntity
  8
0
100
AcDbLine
 62
250
  6
CONTINUOUS
 10
135.2758613891
 20
123.3482895957
 11
202.1760435514
 21
123.3482895957
  0
LINE
  5
438
100
AcDbEntity
  8
ASSI
100
AcDbLine
 62
250
  6
CONTINUOUS
 10
135.2758613891
 20
123.3482895957
 11
202.1760435514
 21
123.3482895957
  0
LINE
  5
439
100
AcDbEntity
  8
0
100
AcDbLine
 62
250
  6
CONTINUOUS
 10
135.2758613891
 20
123.5478024058
 11
202.1760435514
 21
123.5478024058
  0
LINE
  5
43A
100
AcDbEntity
  8
ASSI
100
AcDbLine
 62
250
  6
CONTINUOUS
 10
135.2758613891
 20
123.5478024058
 11
202.1760435514
 21
123.5478024058
  0
LWPOLYLINE
  5
43B
100
AcDbEntity
  8
0
100
AcDbPolyline
 62
250
  6
CONTINUOUS
 90
25
 70
0
 10
202.1760435514
 20
123.3482895957
 10
202.2087296558
 20
123.347288456
 10
202.2411349916
 20
123.3441761448
 10
202.2731263783
 20
123.3389911088
 10
202.304529308
 20
123.3317926449
 10
202.3352669919
 20
123.3226282455
 10
202.3653520602
 20
123.3115040451
 10
202.394706805
 20
123.2984409171
 10
202.423160767
 20
123.2835067885
 10
202.450584851
 20
123.2667660193
 10
202.4768715324
 20
123.2482824245
 10
202.5019057498
 20
123.2281358777
 10
202.5255590397
 20
123.2064325226
 10
202.5477175443
 20
123.1832881497
 10
202.5683172782
 20
123.158782351
 10
202.5873100966
 20
123.1329734167
 10
202.6045494535
 20
123.1060727661
 10
202.6200381168
 20
123.078087685
 10
202.6338808993
 20
123.0487310213
 10
202.6459978828
 20
123.0179218031
 10
202.6561707472
 20
122.9859176727
 10
202.6642458895
 20
122.9529257645
 10
202.6701090767
 20
122.9191101463
 10
202.6736667452
 20
122.8845853024
 10
202.6748255766
 20
122.8495075706
  0
LWPOLYLINE
  5
43C
100
AcDbEntity
  8
ASSI
100
AcDbPolyline
 62
250
  6
CONTINUOUS
 90
25
 70
0
 10
202.1760435514
 20
123.3482895957
 10
202.2087296558
 20
123.347288456
 10
202.2411349916
 20
123.3441761448
 10
202.2731263783
 20
123.3389911088
 10
202.304529308
 20
123.3317926449
 10
202.3352669919
 20
123.3226282455
 10
202.3653520602
 20
123.3115040451
 10
202.394706805
 20
123.2984409171
 10
202.423160767
 20
123.2835067885
 10
202.450584851
 20
123.2667660193
 10
202.4768715324
 20
123.2482824245
 10
202.5019057498
 20
123.2281358777
 10
202.5255590397
 20
123.2064325226
 10
202.5477175443
 20
123.1832881497
 10
202.5683172782
 20
123.158782351
 10
202.5873100966
 20
123.1329734167
 10
202.6045494535
 20
123.1060727661
 10
202.6200381168
 20
123.078087685
 10
202.6338808993
 20
123.0487310213
 10
202.6459978828
 20
123.0179218031
 10
202.6561707472
 20
122.9859176727
 10
202.6642458895
 20
122.9529257645
 10
202.6701090767
 20
122.9191101463
 10
202.6736667452
 20
122.8845853024
 10
202.6748255766
 20
122.8495075706
  0
LWPOLYLINE
  5
43D
100
AcDbEntity
  8
0
100
AcDbPolyline
 62
250
  6
CONTINUOUS
 90
25
 70
0
 10
202.1760435514
 20
123.5478024058
 10
202.2220184667
 20
123.5462064606
 10
202.267244743
 20
123.5417881092
 10
202.3117223804
 20
123.5345473515
 10
202.3555620017
 20
123.5244354571
 10
202.3986529841
 20
123.5115011564
 10
202.4406634594
 20
123.4958906413
 10
202.4816519766
 20
123.4775666377
 10
202.5215599866
 20
123.4565664197
 10
202.5598799746
 20
123.4331480015
 10
202.596596436
 20
123.4072692722
 10
202.6317248754
 20
123.3789723427
 10
202.6648042913
 20
123.3486415598
 10
202.6957825345
 20
123.3162836235
 10
202.7247117541
 20
123.2818918338
 10
202.751287396
 20
123.2458304372
 10
202.775460943
 20
123.2082610914
 10
202.7972809121
 20
123.1690221388
 10
202.8165883008
 20
123.1279928518
 10
202.8335157396
 20
123.0849282136
 10
202.8479305979
 20
123.0400732411
 10
202.8592759812
 20
122.9940422582
 10
202.867366258
 20
122.9470400394
 10
202.8723870598
 20
122.8988618102
 10
202.8743383866
 20
122.8495075706
  0
LWPOLYLINE
  5
43E
100
AcDbEntity
  8
ASSI
100
AcDbPolyline
 62
250
  6
CONTINUOUS
 90
25
 70
0
 10
202.1760435514
 20
123.5478024058
 10
202.2220184667
 20
123.5462064606
 10
202.267244743
 20
123.5417881092
 10
202.3117223804
 20
123.5345473515
 10
202.3555620017
 20
123.5244354571
 10
202.3986529841
 20
123.5115011564
 10
202.4406634594
 20
123.4958906413
 10
202.4816519766
 20
123.4775666377
 10
202.5215599866
 20
123.4565664197
 10
202.5598799746
 20
123.4331480015
 10
202.596596436
 20
123.4072692722
 10
202.6317248754
 20
123.3789723427
 10
202.6648042913
 20
123.3486415598
 10
202.6957825345
 20
123.3162836235
 10
202.7247117541
 20
123.2818918338
 10
202.751287396
 20
123.2458304372
 10
202.775460943
 20
123.2082610914
 10
202.7972809121
 20
123.1690221388
 10
202.8165883008
 20
123.1279928518
 10
202.8335157396
 20
123.0849282136
 10
202.8479305979
 20
123.0400732411
 10
202.8592759812
 20
122.9940422582
 10
202.867366258
 20
122.9470400394
 10
202.8723870598
 20
122.8988618102
 10
202.8743383866
 20
122.8495075706
  0
LINE
  5
43F
100
AcDbEntity
  8
0
100
AcDbLine
 62
250
  6
CONTINUOUS
 10
202.1760435514
 20
123.5478024058
 11
202.1760435514
 21
123.3482895957
  0
LINE
  5
440
100
AcDbEntity
  8
ASSI
100
AcDbLine
 62
250
  6
CONTINUOUS
 10
202.1760435514
 20
123.5478024058
 11
202.1760435514
 21
123.3482895957
  0
LINE
  5
441
100
AcDbEntity
  8
0
100
AcDbLine
 62
250
  6
CONTINUOUS
 10
202.1760435514
 20
77.7510305731
 11
202.1760435514
 21
77.9505433832
  0
LINE
  5
442
100
AcDbEntity
  8
ASSI
100
AcDbLine
 62
250
  6
CONTINUOUS
 10
202.1760435514
 20
77.7510305731
 11
202.1760435514
 21
77.9505433832
  0
LINE
  5
443
100
AcDbEntity
  8
RACCORDO
100
AcDbLine
 62
7
  6
CONTINUOUS
 10
202.5759524703
 20
78.5481985146
 11
202.5759524703
 21
122.7506344643
  0
LINE
  5
444
100
AcDbEntity
  8
ASSI
100
AcDbLine
 62
7
  6
CONTINUOUS
 10
202.5759524703
 20
78.5481985146
 11
202.5759524703
 21
122.7506344643
  0
LINE
  5
445
100
AcDbEntity
  8
0
100
AcDbLine
 62
250
  6
CONTINUOUS
 10
202.6748255766
 20
122.8495075706
 11
202.6748255766
 21
78.4493254083
  0
LINE
  5
446
100
AcDbEntity
  8
ASSI
100
AcDbLine
 62
250
  6
CONTINUOUS
 10
202.6748255766
 20
122.8495075706
 11
202.6748255766
 21
78.4493254083
  0
LINE
  5
447
100
AcDbEntity
  8
0
100
AcDbLine
 62
250
  6
CONTINUOUS
 10
202.8743383866
 20
122.8495075706
 11
202.8743383866
 21
78.4493254083
  0
LINE
  5
448
100
AcDbEntity
  8
ASSI
100
AcDbLine
 62
250
  6
CONTINUOUS
 10
202.8743383866
 20
122.8495075706
 11
202.8743383866
 21
78.4493254083
  0
LWPOLYLINE
  5
449
100
AcDbEntity
  8
0
100
AcDbPolyline
 62
250
  6
CONTINUOUS
 90
25
 70
0
 10
202.6748255766
 20
78.4493254083
 10
202.6738244369
 20
78.416639304
 10
202.6707121256
 20
78.3842339682
 10
202.6655270897
 20
78.3522425815
 10
202.6583286258
 20
78.3208396518
 10
202.6491642263
 20
78.2901019678
 10
202.638040026
 20
78.2600168995
 10
202.6249768979
 20
78.2306621547
 10
202.6100427693
 20
78.2022081928
 10
202.5933020002
 20
78.1747841087
 10
202.5748184053
 20
78.1484974273
 10
202.5546718585
 20
78.1234632099
 10
202.5329685035
 20
78.09980992
 10
202.5098241306
 20
78.0776514154
 10
202.4853183318
 20
78.0570516815
 10
202.4595093975
 20
78.0380588632
 10
202.432608747
 20
78.0208195063
 10
202.4046236658
 20
78.0053308429
 10
202.3752670021
 20
77.9914880604
 10
202.344457784
 20
77.9793710769
 10
202.3124536536
 20
77.9691982125
 10
202.2794617453
 20
77.9611230702
 10
202.2456461271
 20
77.9552598831
 10
202.2111212833
 20
77.9517022145
 10
202.1760435514
 20
77.9505433832
  0
LWPOLYLINE
  5
44A
100
AcDbEntity
  8
ASSI
100
AcDbPolyline
 62
250
  6
CONTINUOUS
 90
25
 70
0
 10
202.6748255766
 20
78.4493254083
 10
202.6738244369
 20
78.416639304
 10
202.6707121256
 20
78.3842339682
 10
202.6655270897
 20
78.3522425815
 10
202.6583286258
 20
78.3208396518
 10
202.6491642263
 20
78.2901019678
 10
202.638040026
 20
78.2600168995
 10
202.6249768979
 20
78.2306621547
 10
202.6100427693
 20
78.2022081928
 10
202.5933020002
 20
78.1747841087
 10
202.5748184053
 20
78.1484974273
 10
202.5546718585
 20
78.1234632099
 10
202.5329685035
 20
78.09980992
 10
202.5098241306
 20
78.0776514154
 10
202.4853183318
 20
78.0570516815
 10
202.4595093975
 20
78.0380588632
 10
202.432608747
 20
78.0208195063
 10
202.4046236658
 20
78.0053308429
 10
202.3752670021
 20
77.9914880604
 10
202.344457784
 20
77.9793710769
 10
202.3124536536
 20
77.9691982125
 10
202.2794617453
 20
77.9611230702
 10
202.2456461271
 20
77.9552598831
 10
202.2111212833
 20
77.9517022145
 10
202.1760435514
 20
77.9505433832
  0
LWPOLYLINE
  5
44B
100
AcDbEntity
  8
0
100
AcDbPolyline
 62
250
  6
CONTINUOUS
 90
25
 70
0
 10
202.8743383866
 20
78.4493254083
 10
202.8727424414
 20
78.4033504931
 10
202.86832409
 20
78.3581242167
 10
202.8610833324
 20
78.3136465793
 10
202.8509714379
 20
78.269806958
 10
202.8380371373
 20
78.2267159756
 10
202.8224266222
 20
78.1847055003
 10
202.8041026186
 20
78.1437169832
 10
202.7831024006
 20
78.1038089731
 10
202.7596839823
 20
78.0654889852
 10
202.7338052531
 20
78.0287725237
 10
202.7055083235
 20
77.9936440843
 10
202.6751775406
 20
77.9605646684
 10
202.6428196044
 20
77.9295864252
 10
202.6084278147
 20
77.9006572056
 10
202.572366418
 20
77.8740815637
 10
202.5347970723
 20
77.8499080168
 10
202.4955581196
 20
77.8280880476
 10
202.4545288327
 20
77.8087806589
 10
202.4114641944
 20
77.7918532201
 10
202.366609222
 20
77.7774383618
 10
202.320578239
 20
77.7660929785
 10
202.2735760203
 20
77.7580027017
 10
202.2253977911
 20
77.7529818999
 10
202.1760435514
 20
77.7510305731
  0
LWPOLYLINE
  5
44C
100
AcDbEntity
  8
ASSI
100
AcDbPolyline
 62
250
  6
CONTINUOUS
 90
25
 70
0
 10
202.8743383866
 20
78.4493254083
 10
202.8727424414
 20
78.4033504931
 10
202.86832409
 20
78.3581242167
 10
202.8610833324
 20
78.3136465793
 10
202.8509714379
 20
78.269806958
 10
202.8380371373
 20
78.2267159756
 10
202.8224266222
 20
78.1847055003
 10
202.8041026186
 20
78.1437169832
 10
202.7831024006
 20
78.1038089731
 10
202.7596839823
 20
78.0654889852
 10
202.7338052531
 20
78.0287725237
 10
202.7055083235
 20
77.9936440843
 10
202.6751775406
 20
77.9605646684
 10
202.6428196044
 20
77.9295864252
 10
202.6084278147
 20
77.9006572056
 10
202.572366418
 20
77.8740815637
 10
202.5347970723
 20
77.8499080168
 10
202.4955581196
 20
77.8280880476
 10
202.4545288327
 20
77.8087806589
 10
202.4114641944
 20
77.7918532201
 10
202.366609222
 20
77.7774383618
 10
202.320578239
 20
77.7660929785
 10
202.2735760203
 20
77.7580027017
 10
202.2253977911
 20
77.7529818999
 10
202.1760435514
 20
77.7510305731
  0
LINE
  5
44D
100
AcDbEntity
  8
SMUSSO
100
AcDbLine
 62
7
  6
CONTINUOUS
 10
228.1026898805
 20
144.4206854493
 11
228.5459379402
 21
145.4401158118
  0
LINE
  5
44E
100
AcDbEntity
  8
ASSI
100
AcDbLine
 62
7
  6
CONTINUOUS
 10
228.1026898805
 20
144.4206854493
 11
228.5459379402
 21
145.4401158118
  0
LINE
  5
44F
100
AcDbEntity
  8
SMUSSO
100
AcDbLine
 62
7
  6
CONTINUOUS
 10
228.1026898805
 20
56.8781475296
 11
228.5459379402
 21
55.8587171671
  0
LINE
  5
450
100
AcDbEntity
  8
ASSI
100
AcDbLine
 62
7
  6
CONTINUOUS
 10
228.1026898805
 20
56.8781475296
 11
228.5459379402
 21
55.8587171671
  0
LINE
  5
451
100
AcDbEntity
  8
SMUSSO
100
AcDbLine
 62
7
  6
CONTINUOUS
 10
228.1026898805
 20
144.4206854493
 11
109.3492150601
 21
144.4206854493
  0
LINE
  5
452
100
AcDbEntity
  8
ASSI
100
AcDbLine
 62
7
  6
CONTINUOUS
 10
228.1026898805
 20
144.4206854493
 11
109.3492150601
 21
144.4206854493
  0
LINE
  5
453
100
AcDbEntity
  8
SMUSSO
100
AcDbLine
 62
7
  6
CONTINUOUS
 10
228.5315121247
 20
145.455584946
 11
108.9203928159
 21
145.455584946
  0
LINE
  5
454
100
AcDbEntity
  8
ASSI
100
AcDbLine
 62
7
  6
CONTINUOUS
 10
228.5315121247
 20
145.455584946
 11
108.9203928159
 21
145.455584946
  0
LINE
  5
455
100
AcDbEntity
  8
SMUSSO
100
AcDbLine
 62
7
  6
CONTINUOUS
 10
228.7253436682
 20
145.6494164894
 11
108.7265612724
 21
145.6494164894
  0
LINE
  5
456
100
AcDbEntity
  8
ASSI
100
AcDbLine
 62
7
  6
CONTINUOUS
 10
228.7253436682
 20
145.6494164894
 11
108.7265612724
 21
145.6494164894
  0
LWPOLYLINE
  5
457
100
AcDbEntity
  8
0
100
AcDbPolyline
 62
7
  6
CONTINUOUS
 90
10
 70
0
 43
0.3500000006
 10
236.9759447021
 20
98.720844635
 10
236.1188067627
 20
99.5779916382
 10
235.2616688232
 20
99.792276123
 10
234.4045308838
 20
99.792276123
 10
233.9759437866
 20
99.3636980896
 10
233.9759437866
 20
98.720844635
 10
234.4045308838
 20
98.2922756653
 10
235.2616688232
 20
98.2922756653
 10
235.690237793
 20
98.720844635
 10
235.690237793
 20
99.6494137573
  0
LWPOLYLINE
  5
458
100
AcDbEntity
  8
0
100
AcDbPolyline
 62
7
  6
CONTINUOUS
 90
7
 70
0
 43
0.3500000006
 10
171.0830939941
 20
154.3994168701
 10
169.5831026001
 20
154.3994168701
 10
171.0830939941
 20
156.5422798462
 10
171.0830939941
 20
156.9708488159
 10
170.6545250244
 20
157.3994177856
 10
170.0116715698
 20
157.3994177856
 10
169.5831026001
 20
156.7565643311
  0
LWPOLYLINE
  5
459
100
AcDbEntity
  8
0
100
AcDbPolyline
 62
7
  6
CONTINUOUS
 90
7
 70
0
 43
0.3500000006
 10
168.7259465332
 20
154.3994168701
 10
167.2259551392
 20
154.3994168701
 10
168.7259465332
 20
156.5422798462
 10
168.7259465332
 20
156.9708488159
 10
168.2973775635
 20
157.3994177856
 10
167.6545241089
 20
157.3994177856
 10
167.2259551392
 20
156.7565643311
  0
LINE
  5
45A
100
AcDbEntity
  8
SMUSSO
100
AcDbLine
 62
7
  6
CONTINUOUS
 10
228.4972214301
 20
57.2726790792
 11
228.4972214301
 21
144.0261538996
  0
LINE
  5
45B
100
AcDbEntity
  8
ASSI
100
AcDbLine
 62
7
  6
CONTINUOUS
 10
228.4972214301
 20
57.2726790792
 11
228.4972214301
 21
144.0261538996
  0
LINE
  5
45C
100
AcDbEntity
  8
SMUSSO
100
AcDbLine
 62
7
  6
CONTINUOUS
 10
229.5321209268
 20
56.843856835
 11
229.5321209268
 21
144.4549761439
  0
LINE
  5
45D
100
AcDbEntity
  8
ASSI
100
AcDbLine
 62
7
  6
CONTINUOUS
 10
229.5321209268
 20
56.843856835
 11
229.5321209268
 21
144.4549761439
  0
LINE
  5
45E
100
AcDbEntity
  8
SMUSSO
100
AcDbLine
 62
7
  6
CONTINUOUS
 10
229.7259524703
 20
56.6500252916
 11
229.7259524703
 21
144.6488076873
  0
LINE
  5
45F
100
AcDbEntity
  8
ASSI
100
AcDbLine
 62
7
  6
CONTINUOUS
 10
229.7259524703
 20
56.6500252916
 11
229.7259524703
 21
144.6488076873
  0
LINE
  5
460
100
AcDbEntity
  8
SMUSSO
100
AcDbLine
 62
7
  6
CONTINUOUS
 10
228.5459379402
 20
55.8587171671
 11
228.5315121247
 21
55.8432480329
  0
LINE
  5
461
100
AcDbEntity
  8
ASSI
100
AcDbLine
 62
7
  6
CONTINUOUS
 10
228.5459379402
 20
55.8587171671
 11
228.5315121247
 21
55.8432480329
  0
LINE
  5
462
100
AcDbEntity
  8
SMUSSO
100
AcDbLine
 62
7
  6
CONTINUOUS
 10
228.1026898805
 20
56.8781475296
 11
228.4972214301
 21
57.2726790792
  0
LINE
  5
463
100
AcDbEntity
  8
ASSI
100
AcDbLine
 62
7
  6
CONTINUOUS
 10
228.1026898805
 20
56.8781475296
 11
228.4972214301
 21
57.2726790792
  0
LINE
  5
464
100
AcDbEntity
  8
SMUSSO
100
AcDbLine
 62
7
  6
CONTINUOUS
 10
228.5459379402
 20
55.8587171671
 11
229.5166517926
 21
56.8294310195
  0
LINE
  5
465
100
AcDbEntity
  8
ASSI
100
AcDbLine
 62
7
  6
CONTINUOUS
 10
228.5459379402
 20
55.8587171671
 11
229.5166517926
 21
56.8294310195
  0
LINE
  5
466
100
AcDbEntity
  8
SMUSSO
100
AcDbLine
 62
7
  6
CONTINUOUS
 10
229.7259524703
 20
56.6500252916
 11
228.7253436682
 21
55.6494164894
  0
LINE
  5
467
100
AcDbEntity
  8
ASSI
100
AcDbLine
 62
7
  6
CONTINUOUS
 10
229.7259524703
 20
56.6500252916
 11
228.7253436682
 21
55.6494164894
  0
LINE
  5
468
100
AcDbEntity
  8
SMUSSO
100
AcDbLine
 62
7
  6
CONTINUOUS
 10
229.5321209268
 20
56.843856835
 11
229.5166517926
 21
56.8294310195
  0
LINE
  5
469
100
AcDbEntity
  8
ASSI
100
AcDbLine
 62
7
  6
CONTINUOUS
 10
229.5321209268
 20
56.843856835
 11
229.5166517926
 21
56.8294310195
  0
LINE
  5
46A
100
AcDbEntity
  8
SMUSSO
100
AcDbLine
 62
7
  6
CONTINUOUS
 10
229.5166517926
 20
144.4694019594
 11
229.5321209268
 21
144.4549761439
  0
LINE
  5
46B
100
AcDbEntity
  8
ASSI
100
AcDbLine
 62
7
  6
CONTINUOUS
 10
229.5166517926
 20
144.4694019594
 11
229.5321209268
 21
144.4549761439
  0
LINE
  5
46C
100
AcDbEntity
  8
SMUSSO
100
AcDbLine
 62
7
  6
CONTINUOUS
 10
228.4972214301
 20
144.0261538996
 11
228.1026898805
 21
144.4206854493
  0
LINE
  5
46D
100
AcDbEntity
  8
ASSI
100
AcDbLine
 62
7
  6
CONTINUOUS
 10
228.4972214301
 20
144.0261538996
 11
228.1026898805
 21
144.4206854493
  0
LINE
  5
46E
100
AcDbEntity
  8
SMUSSO
100
AcDbLine
 62
7
  6
CONTINUOUS
 10
229.5166517926
 20
144.4694019594
 11
228.5459379402
 21
145.4401158118
  0
LINE
  5
46F
100
AcDbEntity
  8
ASSI
100
AcDbLine
 62
7
  6
CONTINUOUS
 10
229.5166517926
 20
144.4694019594
 11
228.5459379402
 21
145.4401158118
  0
LINE
  5
470
100
AcDbEntity
  8
SMUSSO
100
AcDbLine
 62
7
  6
CONTINUOUS
 10
228.7253436682
 20
145.6494164894
 11
229.7259524703
 21
144.6488076873
  0
LINE
  5
471
100
AcDbEntity
  8
ASSI
100
AcDbLine
 62
7
  6
CONTINUOUS
 10
228.7253436682
 20
145.6494164894
 11
229.7259524703
 21
144.6488076873
  0
LINE
  5
472
100
AcDbEntity
  8
SMUSSO
100
AcDbLine
 62
7
  6
CONTINUOUS
 10
228.5315121247
 20
145.455584946
 11
228.5459379402
 21
145.4401158118
  0
LINE
  5
473
100
AcDbEntity
  8
ASSI
100
AcDbLine
 62
7
  6
CONTINUOUS
 10
228.5315121247
 20
145.455584946
 11
228.5459379402
 21
145.4401158118
  0
LINE
  5
474
100
AcDbEntity
  8
SMUSSO
100
AcDbLine
 62
7
  6
CONTINUOUS
 10
73.7675237997
 20
55.8432480329
 11
79.3181329727
 21
55.6494164894
  0
LINE
  5
475
100
AcDbEntity
  8
ASSI
100
AcDbLine
 62
7
  6
CONTINUOUS
 10
73.7675237997
 20
55.8432480329
 11
79.3181329727
 21
55.6494164894
  0
LWPOLYLINE
  5
476
100
AcDbEntity
  8
0
100
AcDbPolyline
 62
7
  6
CONTINUOUS
 90
3
 70
0
 43
0.3500000006
 10
84.1681667175
 20
166.5422647705
 10
85.025304657
 20
167.3994208374
 10
85.025304657
 20
164.3994199219
  0
LINE
  5
477
100
AcDbEntity
  8
SMUSSO
100
AcDbLine
 62
7
  6
CONTINUOUS
 10
73.7675237997
 20
56.843856835
 11
79.3181329727
 21
56.6500252916
  0
LINE
  5
478
100
AcDbEntity
  8
ASSI
100
AcDbLine
 62
7
  6
CONTINUOUS
 10
73.7675237997
 20
56.843856835
 11
79.3181329727
 21
56.6500252916
  0
LINE
  5
479
100
AcDbEntity
  8
0
100
AcDbLine
 62
7
  6
CONTINUOUS
 10
79.3181329727
 20
57.8913725766
 11
79.9181329727
 21
57.8494164894
  0
LINE
  5
47A
100
AcDbEntity
  8
SMUSSO
100
AcDbLine
 62
7
  6
CONTINUOUS
 10
72.7681329727
 20
144.0261538996
 11
73.7525854305
 21
144.4694019594
  0
LINE
  5
47B
100
AcDbEntity
  8
ASSI
100
AcDbLine
 62
7
  6
CONTINUOUS
 10
72.7681329727
 20
144.0261538996
 11
73.7525854305
 21
144.4694019594
  0
LINE
  5
47C
100
AcDbEntity
  8
0
100
AcDbLine
 62
250
  6
CONTINUOUS
 10
79.3181329727
 20
59.487475057
 11
79.9181329727
 21
59.4455189699
  0
LINE
  5
47D
100
AcDbEntity
  8
SMUSSO
100
AcDbLine
 62
7
  6
CONTINUOUS
 10
72.7681329727
 20
57.2726790792
 11
73.7525854305
 21
56.8294310195
  0
LINE
  5
47E
100
AcDbEntity
  8
ASSI
100
AcDbLine
 62
7
  6
CONTINUOUS
 10
72.7681329727
 20
57.2726790792
 11
73.7525854305
 21
56.8294310195
  0
LWPOLYLINE
  5
47F
100
AcDbEntity
  8
0
100
AcDbPolyline
 62
7
  6
CONTINUOUS
 90
3
 70
0
 43
0.3500000006
 10
89.953875
 20
166.5422647705
 10
90.8110220032
 20
167.3994208374
 10
90.8110220032
 20
164.3994199219
  0
LINE
  5
480
100
AcDbEntity
  8
SMUSSO
100
AcDbLine
 62
7
  6
CONTINUOUS
 10
72.7681329727
 20
144.4206854493
 11
73.7675237997
 21
145.455584946
  0
LINE
  5
481
100
AcDbEntity
  8
ASSI
100
AcDbLine
 62
7
  6
CONTINUOUS
 10
72.7681329727
 20
144.4206854493
 11
73.7675237997
 21
145.455584946
  0
LINE
  5
482
100
AcDbEntity
  8
SMUSSO
100
AcDbLine
 62
7
  6
CONTINUOUS
 10
72.7681329727
 20
56.8781475296
 11
73.7675237997
 21
55.8432480329
  0
LINE
  5
483
100
AcDbEntity
  8
ASSI
100
AcDbLine
 62
7
  6
CONTINUOUS
 10
72.7681329727
 20
56.8781475296
 11
73.7675237997
 21
55.8432480329
  0
LWPOLYLINE
  5
484
100
AcDbEntity
  8
0
100
AcDbPolyline
 62
7
  6
CONTINUOUS
 90
3
 70
0
 43
0.3500000006
 10
87.9449738159
 20
156.5422798462
 10
88.8021208191
 20
157.3994177856
 10
88.8021208191
 20
154.3994168701
  0
LINE
  5
485
100
AcDbEntity
  8
0
100
AcDbLine
 62
7
  6
CONTINUOUS
 10
80.9181329727
 20
73.4994164894
 11
79.9181329727
 21
73.4976711584
  0
LINE
  5
486
100
AcDbEntity
  8
0
100
AcDbLine
 62
250
  6
CONTINUOUS
 10
80.8439055565
 20
73.7217372455
 11
79.9181329727
 21
73.721319051
  0
LINE
  5
487
100
AcDbEntity
  8
0
100
AcDbLine
 62
7
  6
CONTINUOUS
 10
82.3681822049
 20
74.3078526291
 11
79.9181329727
 21
74.2935986596
  0
LINE
  5
488
100
AcDbEntity
  8
0
100
AcDbLine
 62
250
  6
CONTINUOUS
 10
82.3681822049
 20
74.3957191077
 11
79.9181329727
 21
74.3814651383
  0
LINE
  5
489
100
AcDbEntity
  8
0
100
AcDbLine
 62
7
  6
CONTINUOUS
 10
82.9181329727
 20
74.4970552827
 11
82.7975702057
 21
74.4970552827
  0
LINE
  5
48A
100
AcDbEntity
  8
0
100
AcDbLine
 62
7
  6
CONTINUOUS
 10
80.8682573516
 20
75.4494164894
 11
79.9181329727
 21
75.4494164894
  0
LINE
  5
48B
100
AcDbEntity
  8
0
100
AcDbLine
 62
7
  6
CONTINUOUS
 10
79.9181329727
 20
75.5994164894
 11
80.0681329727
 21
75.5994164894
  0
LINE
  5
48C
100
AcDbEntity
  8
0
100
AcDbLine
 62
7
  6
CONTINUOUS
 10
80.3681329727
 20
75.5994164894
 11
80.5681329727
 21
75.5994164894
  0
LINE
  5
48D
100
AcDbEntity
  8
0
100
AcDbLine
 62
7
  6
CONTINUOUS
 10
82.3961963184
 20
75.3016101549
 11
82.9181329727
 21
75.2970552827
  0
LINE
  5
48E
100
AcDbEntity
  8
0
100
AcDbLine
 62
7
  6
CONTINUOUS
 10
79.9181329727
 20
74.8935966149
 11
82.728600164
 21
74.7694298218
  0
LINE
  5
48F
100
AcDbEntity
  8
0
100
AcDbLine
 62
7
  6
CONTINUOUS
 10
80.9677610706
 20
75.4444536796
 11
82.9181329727
 21
75.2494164894
  0
LWPOLYLINE
  5
490
100
AcDbEntity
  8
0
100
AcDbPolyline
 62
250
  6
CONTINUOUS
 90
4
 70
0
 10
82.4079431384
 20
126.9354388218
 10
82.3948452136
 20
126.9259700573
 10
82.3815671116
 20
126.9151771777
 10
82.3681822049
 20
126.9031138711
  0
LWPOLYLINE
  5
491
100
AcDbEntity
  8
0
100
AcDbPolyline
 62
250
  6
CONTINUOUS
 90
4
 70
0
 10
82.4078130598
 20
74.363482288
 10
82.3947347194
 20
74.3729478346
 10
82.3815000149
 20
74.3837133281
 10
82.3681822049
 20
74.3957191077
  0
LINE
  5
492
100
AcDbEntity
  8
0
100
AcDbLine
 62
7
  6
CONTINUOUS
 10
80.0681329727
 20
125.6994164894
 11
80.2181329727
 21
125.8494164894
  0
LINE
  5
493
100
AcDbEntity
  8
0
100
AcDbLine
 62
7
  6
CONTINUOUS
 10
80.5681329727
 20
125.6994164894
 11
80.7181329727
 21
125.8494164894
  0
LINE
  5
494
100
AcDbEntity
  8
0
100
AcDbLine
 62
7
  6
CONTINUOUS
 10
80.0681329727
 20
75.5994164894
 11
80.2181329727
 21
75.4494164894
  0
LINE
  5
495
100
AcDbEntity
  8
0
100
AcDbLine
 62
7
  6
CONTINUOUS
 10
80.5681329727
 20
75.5994164894
 11
80.7181329727
 21
75.4494164894
  0
LWPOLYLINE
  5
496
100
AcDbEntity
  8
0
100
AcDbPolyline
 62
250
  6
CONTINUOUS
 90
9
 70
0
 10
80.9378555229
 20
73.5750897381
 10
80.9451865105
 20
73.5657935572
 10
80.9523008515
 20
73.557304646
 10
80.9591216971
 20
73.5497895882
 10
80.9655085535
 20
73.5434833155
 10
80.9713052814
 20
73.5386162416
 10
80.9763927879
 20
73.5353702155
 10
80.9806747034
 20
73.5339087562
 10
80.9840392064
 20
73.5344006934
  0
LWPOLYLINE
  5
497
100
AcDbEntity
  8
0
100
AcDbPolyline
 62
7
  6
CONTINUOUS
 90
3
 70
0
 43
0.3500000006
 10
88.9538746948
 20
164.6851265259
 10
88.8824525757
 20
164.470842041
 10
88.73959021
 20
164.185135437
  0
LWPOLYLINE
  5
498
100
AcDbEntity
  8
0
100
AcDbPolyline
 62
250
  6
CONTINUOUS
 90
19
 70
0
 10
80.8439055565
 20
127.5770957333
 10
80.8523955505
 20
127.5918306246
 10
80.8609721017
 20
127.6064628119
 10
80.8696028537
 20
127.6209249762
 10
80.878197063
 20
127.6350604542
 10
80.8867751862
 20
127.6488880536
 10
80.8954597176
 20
127.6625686007
 10
80.9042013967
 20
127.6759881521
 10
80.9129354167
 20
127.6890188834
 10
80.9217282527
 20
127.7017149699
 10
80.9305252704
 20
127.7139352074
 10
80.939178011
 20
127.7254050989
 10
80.9475778246
 20
127.7359079182
 10
80.9556455169
 20
127.7452506912
 10
80.9631731354
 20
127.7530945848
 10
80.9698882409
 20
127.7590854261
 10
80.9756508005
 20
127.7630481914
 10
80.9804013946
 20
127.7648751842
 10
80.9840392064
 20
127.7644322855
  0
LWPOLYLINE
  5
499
100
AcDbEntity
  8
0
100
AcDbPolyline
 62
7
  6
CONTINUOUS
 90
7
 70
0
 10
82.8902740577
 20
74.672854772
 10
82.8985453464
 20
74.6588006371
 10
82.9054569339
 20
74.6457178178
 10
82.9109324726
 20
74.6336063141
 10
82.9149054879
 20
74.6224661259
 10
82.9173203144
 20
74.6122972533
 10
82.9181329727
 20
74.6030996962
  0
LWPOLYLINE
  5
49A
100
AcDbEntity
  8
0
100
AcDbPolyline
 62
250
  6
CONTINUOUS
 90
14
 70
0
 10
80.8439055565
 20
73.7217372455
 10
80.8505647683
 20
73.710141536
 10
80.8573513304
 20
73.698482892
 10
80.8642487196
 20
73.686800805
 10
80.8712038957
 20
73.6751925053
 10
80.8782316723
 20
73.6636462438
 10
80.8854109949
 20
73.6520565547
 10
80.8927258332
 20
73.6404737059
 10
80.9001289538
 20
73.6289927832
 10
80.9076393578
 20
73.6176109224
 10
80.9152127229
 20
73.6064268233
 10
80.9227930292
 20
73.5955568665
 10
80.9303639635
 20
73.5850635554
 10
80.9378555229
 20
73.5750897381
  0
LWPOLYLINE
  5
49B
100
AcDbEntity
  8
0
100
AcDbPolyline
 62
7
  6
CONTINUOUS
 90
3
 70
0
 43
0.3500000006
 10
86.9449735107
 20
154.6851234741
 10
86.8735423279
 20
154.4708389893
 10
86.7306890259
 20
154.1851323853
  0
LINE
  5
49C
100
AcDbEntity
  8
SMUSSO
100
AcDbLine
 62
7
  6
CONTINUOUS
 10
72.7681329727
 20
56.8781475296
 11
72.7681329727
 21
144.4206854493
  0
LINE
  5
49D
100
AcDbEntity
  8
ASSI
100
AcDbLine
 62
7
  6
CONTINUOUS
 10
72.7681329727
 20
56.8781475296
 11
72.7681329727
 21
144.4206854493
  0
LINE
  5
49E
100
AcDbEntity
  8
SMUSSO
100
AcDbLine
 62
7
  6
CONTINUOUS
 10
73.7525854305
 20
55.8587171671
 11
73.7525854305
 21
56.8294310195
  0
LINE
  5
49F
100
AcDbEntity
  8
ASSI
100
AcDbLine
 62
7
  6
CONTINUOUS
 10
73.7525854305
 20
55.8587171671
 11
73.7525854305
 21
56.8294310195
  0
LINE
  5
4A0
100
AcDbEntity
  8
SMUSSO
100
AcDbLine
 62
7
  6
CONTINUOUS
 10
73.7525854305
 20
144.4694019594
 11
73.7525854305
 21
145.4401158118
  0
LINE
  5
4A1
100
AcDbEntity
  8
ASSI
100
AcDbLine
 62
7
  6
CONTINUOUS
 10
73.7525854305
 20
144.4694019594
 11
73.7525854305
 21
145.4401158118
  0
LINE
  5
4A2
100
AcDbEntity
  8
SMUSSO
100
AcDbLine
 62
7
  6
CONTINUOUS
 10
73.7675237997
 20
56.843856835
 11
73.7675237997
 21
144.4549761439
  0
LINE
  5
4A3
100
AcDbEntity
  8
ASSI
100
AcDbLine
 62
7
  6
CONTINUOUS
 10
73.7675237997
 20
56.843856835
 11
73.7675237997
 21
144.4549761439
  0
LINE
  5
4A4
100
AcDbEntity
  8
0
100
AcDbLine
 62
250
  6
CONTINUOUS
 10
80.1681329727
 20
98.02800998
 11
79.9181329727
 21
98.02800998
  0
LINE
  5
4A5
100
AcDbEntity
  8
SMUSSO
100
AcDbLine
 62
7
  6
CONTINUOUS
 10
79.3181329727
 20
55.6494164894
 11
79.3181329727
 21
145.6494164894
  0
LINE
  5
4A6
100
AcDbEntity
  8
ASSI
100
AcDbLine
 62
7
  6
CONTINUOUS
 10
79.3181329727
 20
55.6494164894
 11
79.3181329727
 21
145.6494164894
  0
LINE
  5
4A7
100
AcDbEntity
  8
0
100
AcDbLine
 62
7
  6
CONTINUOUS
 10
79.9181329727
 20
57.8494164894
 11
79.9181329727
 21
143.4494164894
  0
LINE
  5
4A8
100
AcDbEntity
  8
0
100
AcDbLine
 62
7
  6
CONTINUOUS
 10
80.1681329727
 20
103.2708229988
 11
80.1681329727
 21
98.02800998
  0
LINE
  5
4A9
100
AcDbEntity
  8
0
100
AcDbLine
 62
250
  6
CONTINUOUS
 10
80.8439703034
 20
73.4996387846
 11
80.8439055565
 21
73.7217372455
  0
LINE
  5
4AA
100
AcDbEntity
  8
0
100
AcDbLine
 62
250
  6
CONTINUOUS
 10
80.8439055565
 20
127.5770957333
 11
80.8439701715
 21
127.7991923368
  0
LWPOLYLINE
  5
4AB
100
AcDbEntity
  8
0
100
AcDbPolyline
 62
7
  6
CONTINUOUS
 90
7
 70
0
 10
82.9181329727
 20
126.6957332827
 10
82.9173204556
 20
126.6865367306
 10
82.9149059367
 20
126.6763684611
 10
82.9109332229
 20
126.6652284739
 10
82.9054578127
 20
126.6531167691
 10
82.898546023
 20
126.6400333468
 10
82.8902740577
 20
126.6259782069
  0
LINE
  5
4AC
100
AcDbEntity
  8
0
100
AcDbLine
 62
250
  6
CONTINUOUS
 10
80.1681329727
 20
103.2708229988
 11
79.9181329727
 21
103.2708229988
  0
LWPOLYLINE
  5
4AD
100
AcDbEntity
  8
0
100
AcDbPolyline
 62
250
  6
CONTINUOUS
 90
3
 70
0
 10
82.3682812254
 20
126.9864217753
 10
82.3682385713
 20
126.9898383588
 10
82.3681822049
 20
126.9909803498
  0
LINE
  5
4AE
100
AcDbEntity
  8
0
100
AcDbLine
 62
250
  6
CONTINUOUS
 10
82.3683242039
 20
126.9728855365
 11
82.3682812254
 21
126.9864217753
  0
LINE
  5
4AF
100
AcDbEntity
  8
0
100
AcDbLine
 62
250
  6
CONTINUOUS
 10
82.3683242039
 20
74.3259474423
 11
82.3681822049
 21
74.3957191077
  0
LINE
  5
4B0
100
AcDbEntity
  8
0
100
AcDbLine
 62
250
  6
CONTINUOUS
 10
82.6338337596
 20
126.0209865681
 11
82.6338337596
 21
125.9992966545
  0
LINE
  5
4B1
100
AcDbEntity
  8
0
100
AcDbLine
 62
250
  6
CONTINUOUS
 10
82.6338337596
 20
75.2995363243
 11
82.6338337596
 21
75.2778464107
  0
LINE
  5
4B2
100
AcDbEntity
  8
0
100
AcDbLine
 62
250
  6
CONTINUOUS
 10
82.728600164
 20
126.5294031571
 11
82.728600164
 21
126.0304632086
  0
LINE
  5
4B3
100
AcDbEntity
  8
0
100
AcDbLine
 62
250
  6
CONTINUOUS
 10
82.728600164
 20
75.2683697703
 11
82.728600164
 21
74.7694298218
  0
LINE
  5
4B4
100
AcDbEntity
  8
0
100
AcDbLine
 62
7
  6
CONTINUOUS
 10
82.9181329727
 20
126.8017776962
 11
82.9181329727
 21
126.0017776962
  0
LINE
  5
4B5
100
AcDbEntity
  8
0
100
AcDbLine
 62
7
  6
CONTINUOUS
 10
82.9181329727
 20
75.2970552827
 11
82.9181329727
 21
74.4970552827
  0
LWPOLYLINE
  5
4B6
100
AcDbEntity
  8
0
100
AcDbPolyline
 62
7
  6
CONTINUOUS
 90
4
 70
0
 43
0.3500000006
 10
83.8735504761
 20
156.7565643311
 10
83.8735504761
 20
157.3994177856
 10
85.3735418701
 20
157.3994177856
 10
84.5164039307
 20
154.3994168701
  0
LINE
  5
4B7
100
AcDbEntity
  8
0
100
AcDbLine
 62
250
  6
CONTINUOUS
 10
82.3681822049
 20
126.9031138711
 11
82.3683242039
 21
126.9728855365
  0
LWPOLYLINE
  5
4B8
100
AcDbEntity
  8
0
100
AcDbPolyline
 62
250
  6
CONTINUOUS
 90
4
 70
0
 10
82.3681822049
 20
74.3078526291
 10
82.3682385713
 20
74.3089946201
 10
82.3682812254
 20
74.3124112036
 10
82.3683242039
 20
74.3259474423
  0
LWPOLYLINE
  5
4B9
100
AcDbEntity
  8
0
100
AcDbPolyline
 62
7
  6
CONTINUOUS
 90
13
 70
0
 43
0.3500000006
 10
85.8824516602
 20
165.2565578613
 10
85.8824516602
 20
166.5422647705
 10
86.096736145
 20
166.9708518677
 10
86.5253051147
 20
167.3994208374
 10
86.7395895996
 20
167.3994208374
 10
87.1681585693
 20
166.9708518677
 10
87.3824521179
 20
166.5422647705
 10
87.3824521179
 20
165.2565578613
 10
87.1681585693
 20
164.8279888916
 10
86.7395895996
 20
164.3994199219
 10
86.5253051147
 20
164.3994199219
 10
86.096736145
 20
164.8279888916
 10
85.8824516602
 20
165.2565578613
  0
LINE
  5
4BA
100
AcDbEntity
  8
0
100
AcDbLine
 62
7
  6
CONTINUOUS
 10
80.2181329727
 20
75.4494164894
 11
80.3681329727
 21
75.5994164894
  0
LINE
  5
4BB
100
AcDbEntity
  8
0
100
AcDbLine
 62
7
  6
CONTINUOUS
 10
80.2181329727
 20
125.8494164894
 11
80.3681329727
 21
125.6994164894
  0
LINE
  5
4BC
100
AcDbEntity
  8
0
100
AcDbLine
 62
250
  6
CONTINUOUS
 10
80.8439055565
 20
73.7217372455
 11
81.9434244163
 21
74.3053814606
  0
LINE
  5
4BD
100
AcDbEntity
  8
0
100
AcDbLine
 62
250
  6
CONTINUOUS
 10
82.3681822049
 20
74.3957191077
 11
82.8902740577
 21
74.672854772
  0
LINE
  5
4BE
100
AcDbEntity
  8
0
100
AcDbLine
 62
7
  6
CONTINUOUS
 10
80.9181329682
 20
73.499416487
 11
82.9181329727
 21
74.5610521491
  0
LWPOLYLINE
  5
4BF
100
AcDbEntity
  8
0
100
AcDbPolyline
 62
250
  6
CONTINUOUS
 90
10
 70
0
 10
82.507094134
 20
74.3428654047
 10
82.4984438303
 20
74.3392146101
 10
82.489066296
 20
74.3370528439
 10
82.4790143531
 20
74.3363901487
 10
82.4683475304
 20
74.3372278087
 10
82.457122769
 20
74.339558867
 10
82.4453925823
 20
74.3433723868
 10
82.4332158943
 20
74.3486516987
 10
82.4206644785
 20
74.3553680836
 10
82.4078130598
 20
74.363482288
  0
LINE
  5
4C0
100
AcDbEntity
  8
0
100
AcDbLine
 62
7
  6
CONTINUOUS
 10
80.9677610706
 20
125.8543792992
 11
82.9181329727
 21
126.0494164894
  0
LINE
  5
4C1
100
AcDbEntity
  8
0
100
AcDbLine
 62
7
  6
CONTINUOUS
 10
79.9181329727
 20
126.405236364
 11
82.728600164
 21
126.5294031571
  0
LINE
  5
4C2
100
AcDbEntity
  8
0
100
AcDbLine
 62
7
  6
CONTINUOUS
 10
82.3961963184
 20
125.997222824
 11
82.9181329727
 21
126.0017776962
  0
LINE
  5
4C3
100
AcDbEntity
  8
0
100
AcDbLine
 62
7
  6
CONTINUOUS
 10
79.9181329727
 20
125.6994164894
 11
80.0681329727
 21
125.6994164894
  0
LINE
  5
4C4
100
AcDbEntity
  8
0
100
AcDbLine
 62
7
  6
CONTINUOUS
 10
80.3681329727
 20
125.6994164894
 11
80.5681329727
 21
125.6994164894
  0
LINE
  5
4C5
100
AcDbEntity
  8
0
100
AcDbLine
 62
7
  6
CONTINUOUS
 10
79.9181329727
 20
125.8494164894
 11
80.8682573516
 21
125.8494164894
  0
LINE
  5
4C6
100
AcDbEntity
  8
0
100
AcDbLine
 62
7
  6
CONTINUOUS
 10
82.9181329727
 20
126.8017776962
 11
82.7975702057
 21
126.8017776962
  0
LINE
  5
4C7
100
AcDbEntity
  8
0
100
AcDbLine
 62
250
  6
CONTINUOUS
 10
80.8439055565
 20
127.5770957333
 11
79.9181329727
 21
127.5775139279
  0
LINE
  5
4C8
100
AcDbEntity
  8
0
100
AcDbLine
 62
7
  6
CONTINUOUS
 10
80.9181329727
 20
127.7994164894
 11
79.9181329727
 21
127.8011618205
  0
LINE
  5
4C9
100
AcDbEntity
  8
0
100
AcDbLine
 62
250
  6
CONTINUOUS
 10
82.3681822049
 20
126.9031138711
 11
79.9181329727
 21
126.9173678406
  0
LINE
  5
4CA
100
AcDbEntity
  8
0
100
AcDbLine
 62
7
  6
CONTINUOUS
 10
82.3681822049
 20
126.9909803498
 11
79.9181329727
 21
127.0052343192
  0
LWPOLYLINE
  5
4CB
100
AcDbEntity
  8
0
100
AcDbPolyline
 62
250
  6
CONTINUOUS
 90
10
 70
0
 10
82.507094134
 20
126.9559675742
 10
82.498414531
 20
126.9596278052
 10
82.489018787
 20
126.9617870206
 10
82.4789634057
 20
126.9624423792
 10
82.4683187025
 20
126.9616009917
 10
82.4571373229
 20
126.9592780062
 10
82.4454486735
 20
126.9554819092
 10
82.4333068435
 20
126.9502253642
 10
82.4207857444
 20
126.9435356367
 10
82.4079431384
 20
126.9354388218
  0
LINE
  5
4CC
100
AcDbEntity
  8
0
100
AcDbLine
 62
250
  6
CONTINUOUS
 10
81.9434244163
 20
126.9934515183
 11
80.8439055565
 21
127.5770957333
  0
LINE
  5
4CD
100
AcDbEntity
  8
0
100
AcDbLine
 62
250
  6
CONTINUOUS
 10
82.8902740577
 20
126.6259782069
 11
82.3681822049
 21
126.9031138711
  0
LINE
  5
4CE
100
AcDbEntity
  8
0
100
AcDbLine
 62
7
  6
CONTINUOUS
 10
80.9181329691
 20
127.7994164914
 11
82.9181329727
 21
126.7377808298
  0
LINE
  5
4CF
100
AcDbEntity
  8
SMUSSO
100
AcDbLine
 62
7
  6
CONTINUOUS
 10
73.7675237997
 20
56.843856835
 11
73.7525854305
 21
56.8294310195
  0
LINE
  5
4D0
100
AcDbEntity
  8
ASSI
100
AcDbLine
 62
7
  6
CONTINUOUS
 10
73.7675237997
 20
56.843856835
 11
73.7525854305
 21
56.8294310195
  0
LINE
  5
4D1
100
AcDbEntity
  8
SMUSSO
100
AcDbLine
 62
7
  6
CONTINUOUS
 10
73.7525854305
 20
144.4694019594
 11
73.7675237997
 21
144.4549761439
  0
LINE
  5
4D2
100
AcDbEntity
  8
ASSI
100
AcDbLine
 62
7
  6
CONTINUOUS
 10
73.7525854305
 20
144.4694019594
 11
73.7675237997
 21
144.4549761439
  0
LWPOLYLINE
  5
4D3
100
AcDbEntity
  8
0
100
AcDbPolyline
 62
7
  6
CONTINUOUS
 90
10
 70
0
 43
0.3500000006
 10
86.8735423279
 20
154.899407959
 10
86.9449735107
 20
154.7565637207
 10
86.9449735107
 20
154.6851234741
 10
86.8021202087
 20
154.5422792358
 10
86.7306890259
 20
154.5422792358
 10
86.659257843
 20
154.613701355
 10
86.659257843
 20
154.6851234741
 10
86.7306890259
 20
154.8279858398
 10
86.8021202087
 20
154.899407959
 10
86.8735423279
 20
154.899407959
  0
LWPOLYLINE
  5
4D4
100
AcDbEntity
  8
0
100
AcDbPolyline
 62
7
  6
CONTINUOUS
 90
10
 70
0
 43
0.3500000006
 10
88.8824525757
 20
164.8994110107
 10
88.9538746948
 20
164.7565667725
 10
88.9538746948
 20
164.6851265259
 10
88.8110213928
 20
164.5422822876
 10
88.73959021
 20
164.5422822876
 10
88.6681590271
 20
164.6137044067
 10
88.6681590271
 20
164.6851265259
 10
88.73959021
 20
164.8279888916
 10
88.8110213928
 20
164.8994110107
 10
88.8824525757
 20
164.8994110107
  0
LINE
  5
4D5
100
AcDbEntity
  8
0
100
AcDbLine
 62
250
  6
CONTINUOUS
 10
79.3181329727
 20
141.8113579219
 11
79.9181329727
 21
141.853314009
  0
LINE
  5
4D6
100
AcDbEntity
  8
0
100
AcDbLine
 62
7
  6
CONTINUOUS
 10
79.3181329727
 20
143.4074604023
 11
79.9181329727
 21
143.4494164894
  0
LINE
  5
4D7
100
AcDbEntity
  8
SMUSSO
100
AcDbLine
 62
7
  6
CONTINUOUS
 10
73.7675237997
 20
144.4549761439
 11
79.3181329727
 21
144.6488076873
  0
LINE
  5
4D8
100
AcDbEntity
  8
ASSI
100
AcDbLine
 62
7
  6
CONTINUOUS
 10
73.7675237997
 20
144.4549761439
 11
79.3181329727
 21
144.6488076873
  0
LINE
  5
4D9
100
AcDbEntity
  8
SMUSSO
100
AcDbLine
 62
7
  6
CONTINUOUS
 10
73.7675237997
 20
145.455584946
 11
79.3181329727
 21
145.6494164894
  0
LINE
  5
4DA
100
AcDbEntity
  8
ASSI
100
AcDbLine
 62
7
  6
CONTINUOUS
 10
73.7675237997
 20
145.455584946
 11
79.3181329727
 21
145.6494164894
  0
LWPOLYLINE
  5
4DB
100
AcDbEntity
  8
0
100
AcDbPolyline
 62
7
  6
CONTINUOUS
 90
8
 70
0
 43
0.3500000006
 10
89.6592587585
 20
154.3994168701
 10
90.5164057617
 20
154.3994168701
 10
90.9449747314
 20
154.8279858398
 10
90.9449747314
 20
155.6851237793
 10
90.5164057617
 20
156.1137108765
 10
89.6592587585
 20
156.1137108765
 10
89.6592587585
 20
157.3994177856
 10
90.9449747314
 20
157.3994177856
  0
LWPOLYLINE
  5
4DC
100
AcDbEntity
  8
0
100
AcDbPolyline
 62
7
  6
CONTINUOUS
 90
8
 70
0
 43
0.3500000006
 10
91.6681599426
 20
164.3994199219
 10
92.5253069458
 20
164.3994199219
 10
92.9538759155
 20
164.8279888916
 10
92.9538759155
 20
165.6851268311
 10
92.5253069458
 20
166.1136958008
 10
91.6681599426
 20
166.1136958008
 10
91.6681599426
 20
167.3994208374
 10
92.9538759155
 20
167.3994208374
  0
ARC
  5
4DD
100
AcDbEntity
  8
0
100
AcDbCircle
 62
7
  6
CONTINUOUS
 10
80.8682573516
 20
74.4494164894
 40
1.0
100
AcDbArc
 50
84.2894068625
 51
90.0
  0
ARC
  5
4DE
100
AcDbEntity
  8
0
100
AcDbCircle
 62
7
  6
CONTINUOUS
 10
80.8682573516
 20
126.8494164894
 40
1.0
100
AcDbArc
 50
270.0
 51
275.7105931375
  0
ARC
  5
4DF
100
AcDbEntity
  8
0
100
AcDbCircle
 62
7
  6
CONTINUOUS
 10
80.8434462976
 20
127.4994159854
 40
0.3
100
AcDbArc
 50
62.0510313858
 51
89.8999998573
  0
ARC
  5
4E0
100
AcDbEntity
  8
0
100
AcDbCircle
 62
7
  6
CONTINUOUS
 10
80.8434462976
 20
73.7994169934
 40
0.3
100
AcDbArc
 50
270.1000001427
 51
297.9489686142
  0
ARC
  5
4E1
100
AcDbEntity
  8
0
100
AcDbCircle
 62
7
  6
CONTINUOUS
 10
79.8681329727
 20
103.2708229988
 40
0.3
100
AcDbArc
 50
0.0
 51
80.4016345772
  0
ARC
  5
4E2
100
AcDbEntity
  8
0
100
AcDbCircle
 62
7
  6
CONTINUOUS
 10
79.8681329727
 20
98.02800998
 40
0.3
100
AcDbArc
 50
279.5989113413
 51
360.0
  0
ARC
  5
4E3
100
AcDbEntity
  8
0
100
AcDbCircle
 62
7
  6
CONTINUOUS
 10
82.3664368855
 20
74.6078475521
 40
0.3
100
AcDbArc
 50
270.3333333333
 51
297.9601595787
  0
ARC
  5
4E4
100
AcDbEntity
  8
0
100
AcDbCircle
 62
7
  6
CONTINUOUS
 10
82.3664368855
 20
126.6909854267
 40
0.3
100
AcDbArc
 50
62.0398404207
 51
89.6666666667
  0
ELLIPSE
  5
4E5
100
AcDbEntity
  8
RACCORDO
100
AcDbEllipse
 62
7
  6
CONTINUOUS
 10
135.3771734193
 20
78.5506374385
 30
0.0
 11
-0.3552779753
 21
-0.3552779753
 31
0.0
 40
0.9951458158
 41
-0.782965171
 42
0.782965171
  0
ELLIPSE
  5
4E6
100
AcDbEntity
  8
RACCORDO
100
AcDbEllipse
 62
7
  6
CONTINUOUS
 10
202.0747315213
 20
78.5506374385
 30
0.0
 11
0.3552779753
 21
-0.3552779753
 31
0.0
 40
0.9951458158
 41
-0.782965171
 42
0.782965171
  0
ELLIPSE
  5
4E7
100
AcDbEntity
  8
RACCORDO
100
AcDbEllipse
 62
7
  6
CONTINUOUS
 10
202.0747315213
 20
122.7481955404
 30
0.0
 11
0.3552779753
 21
0.3552779753
 31
0.0
 40
0.9951458158
 41
-0.782965171
 42
0.782965171
  0
ELLIPSE
  5
4E8
100
AcDbEntity
  8
RACCORDO
100
AcDbEllipse
 62
7
  6
CONTINUOUS
 10
135.3771734193
 20
122.7481955404
 30
0.0
 11
-0.3552779753
 21
0.3552779753
 31
0.0
 40
0.9951458158
 41
-0.782965171
 42
0.782965171
  0
ELLIPSE
  5
4E9
100
AcDbEntity
  8
ASSI
100
AcDbEllipse
 62
7
  6
CONTINUOUS
 10
135.3771734193
 20
78.5506374385
 30
0.0
 11
-0.3552779753
 21
-0.3552779753
 31
0.0
 40
0.9951458158
 41
-0.782965171
 42
0.782965171
  0
ELLIPSE
  5
4EA
100
AcDbEntity
  8
ASSI
100
AcDbEllipse
 62
7
  6
CONTINUOUS
 10
202.0747315213
 20
78.5506374385
 30
0.0
 11
0.3552779753
 21
-0.3552779753
 31
0.0
 40
0.9951458158
 41
-0.782965171
 42
0.782965171
  0
ELLIPSE
  5
4EB
100
AcDbEntity
  8
ASSI
100
AcDbEllipse
 62
7
  6
CONTINUOUS
 10
202.0747315213
 20
122.7481955404
 30
0.0
 11
0.3552779753
 21
0.3552779753
 31
0.0
 40
0.9951458158
 41
-0.782965171
 42
0.782965171
  0
ELLIPSE
  5
4EC
100
AcDbEntity
  8
ASSI
100
AcDbEllipse
 62
7
  6
CONTINUOUS
 10
135.3771734193
 20
122.7481955404
 30
0.0
 11
-0.3552779753
 21
0.3552779753
 31
0.0
 40
0.9951458158
 41
-0.782965171
 42
0.782965171
  0
ELLIPSE
  5
4ED
100
AcDbEntity
  8
0
100
AcDbEllipse
 62
7
  6
CONTINUOUS
 10
82.7181329727
 20
126.7292151845
 30
0.0
 11
-0.1417119467
 21
0.1422961243
 31
0.0
 40
0.9918061237
 41
-3.8766878413
 42
-2.8923940429
  0
ELLIPSE
  5
4EE
100
AcDbEntity
  8
0
100
AcDbEllipse
 62
7
  6
CONTINUOUS
 10
82.7181329727
 20
74.5696177944
 30
0.0
 11
0.1417119467
 21
0.1422961243
 31
0.0
 40
0.9918061237
 41
-0.2491986107
 42
0.7350951877
  0
ENDSEC
  0
SECTION
  2
OBJECTS
  0
DICTIONARY
  5
C
100
AcDbDictionary
280
0
281
1
  3
ACAD_GROUP
350
D
  3
ACAD_MLINESTYLE
350
17
  3
ACAD_LAYOUT
350
1A
  3
ACAD_PLOTSETTINGS
350
19
  3
ACAD_PLOTSTYLENAME
350
E
  0
DICTIONARY
  5
D
102
{ACAD_REACTORS
330
C
102
}
100
AcDbDictionary
280
0
281
1
  0
ACDBDICTIONARYWDFLT
  5
E
102
{ACAD_REACTORS
330
C
102
}
100
AcDbDictionary
281
1
  3
Normal
350
F
100
AcDbDictionaryWithDefault
340
F
  0
DICTIONARY
  5
17
102
{ACAD_REACTORS
330
C
102
}
100
AcDbDictionary
280
0
281
1
  3
Standard
350
18
  0
DICTIONARY
  5
19
102
{ACAD_REACTORS
330
C
102
}
100
AcDbDictionary
281
1
  0
DICTIONARY
  5
1A
102
{ACAD_REACTORS
330
C
102
}
100
AcDbDictionary
281
1
  3
Model
350
4EF
  3
Layout1
350
4F0
  0
ACDBPLACEHOLDER
  5
F
102
{ACAD_REACTORS
330
E
102
}
  0
MLINESTYLE
  5
18
102
{ACAD_REACTORS
330
17
102
}
100
AcDbMlineStyle
  2
STANDARD
 70
0
  3

 62
256
 51
90.0
 52
90.0
 71
2
 49
0.5
 62
256
  6
BYLAYER
 49
-0.5
 62
256
  6
BYLAYER
  0
LAYOUT
  5
4EF
102
{ACAD_REACTORS
330
1A
102
}
100
AcDbPlotSettings
  1

  2
none_device
  4
ISO_A4_(297.00_x_210.00_MM)
  6

 40
0.0
 41
0.0
 42
0.0
 43
0.0
 44
297.0
 45
210.0
 46
0.0
 47
0.0
 48
0.0
 49
0.0
140
0.0
141
0.0
142
1.0
143
1.0
 70
1024
 72
1
 73
0
 74
0
  7

 75
0
147
1.0
148
0.0
149
0.0
100
AcDbLayout
  1
Model
 70
0
 71
0
 10
0.0
 20
0.0
 11
297.0
 21
210.0
 12
0.0
 22
0.0
 32
0.0
 14
0.0
 24
0.0
 34
0.0
 15
0.0
 25
0.0
 35
0.0
146
0.0
 13
0.0
 23
0.0
 33
0.0
 16
1.0
 26
0.0
 36
0.0
 17
0.0
 27
1.0
 37
0.0
 76
0
330
21C
345
0
346
0
  0
LAYOUT
  5
4F0
102
{ACAD_REACTORS
330
1A
102
}
100
AcDbPlotSettings
  1

  2
none_device
  4
ISO_A4_(297.00_x_210.00_MM)
  6

 40
0.0
 41
0.0
 42
0.0
 43
0.0
 44
297.0
 45
210.0
 46
0.0
 47
0.0
 48
0.0
 49
0.0
140
0.0
141
0.0
142
1.0
143
1.0
 70
0
 72
1
 73
0
 74
0
  7

 75
0
147
1.0
148
0.0
149
0.0
100
AcDbLayout
  1
Layout1
 70
0
 71
1
 10
0.0
 20
0.0
 11
297.0
 21
210.0
 12
0.0
 22
0.0
 32
0.0
 14
0.0
 24
0.0
 34
0.0
 15
0.0
 25
0.0
 35
0.0
146
0.0
 13
0.0
 23
0.0
 33
0.0
 16
1.0
 26
0.0
 36
0.0
 17
0.0
 27
1.0
 37
0.0
 76
0
330
21D
345
0
346
0
  0
ENDSEC
  0
EOF
