  0
SECTION
  2
HEADER
  9
$ACADVER
  1
AC1021
  9
$DWGCODEPAGE
  3
ANSI_1252
  9
$EXTMAX
 10
297.0
 20
210.0
 30
0.0
  9
$EXTMIN
 10
0.0
 20
0.0
 30
0.0
  9
$LIMMIN
 10
0.0
 20
0.0
  9
$LIMMAX
 10
297.0
 20
210.0
  9
$VIEWCTR
 10
148.5
 20
105.0
  9
$VIEWSIZE
 40
210.0
  9
$CLAYER
  8
0
  9
$LTSCALE
 40
16.335
  9
$CELTYPE
  6
BYLAYER
  9
$DIMSCALE
 40
1.0
  9
$DIMASZ
 40
3.0
  9
$DIMEXO
 40
0.5
  9
$DIMDLI
 40
11.286
  9
$DIMEXE
 40
1.5
  9
$DIMCEN
 40
2.673
  9
$DIMLFAC
 40
1.0
  9
$DIMBLK
  1
_FILLED
  9
$DIMALT
 70
0
  9
$DIMALTF
 40
25.4
  9
$DIMTXT
 40
3.0
  9
$DIMTOL
 70
1
  9
$DIMLIM
 70
0
  9
$DIMTFAC
 40
1.0
  9
$DIMTP
 40
0.01
  9
$DIMTM
 40
0.01
  9
$DIMGAP
 40
0.625
  9
$DIMDSEP
 70
44
  9
$AUNITS
 70
0
  9
$PDMODE
 70
3
  9
$PDSIZE
 40
3.0
  9
$HANDSEED
  5
37D
  9
$TILEMODE
 70
1
  9
$MEASUREMENT
 70
1
  9
$INSUNITS
 70
4
  0
ENDSEC
  0
SECTION
  2
CLASSES
  0
CLASS
  1
ACDBDICTIONARYWDFLT
  2
AcDbDictionaryWithDefault
  3
AutoCAD 2000
 90
0
 91
1
280
0
281
0
  0
CLASS
  1
ACDBPLACEHOLDER
  2
AcDbPlaceHolder
  3
AutoCAD 2000
 90
0
 91
1
280
0
281
0
  0
CLASS
  1
LAYOUT
  2
AcDbLayout
  3
AutoCAD 2000
 90
0
 91
0
280
0
281
0
  0
ENDSEC
  0
SECTION
  2
TABLES
  0
TABLE
  2
VPORT
  5
8
100
AcDbSymbolTable
 70
2
  0
VPORT
  5
1F4
100
AcDbSymbolTableRecord
100
AcDbViewportTableRecord
  2
*ACTIVE
 70
0
 10
0.0
 20
0.0
 11
1.0
 21
1.0
 12
148.5
 22
105.0
 13
0.0
 23
0.0
 14
1.0
 24
1.0
 15
0.0
 25
0.0
 16
0.0
 26
0.0
 36
1.0
 17
0.0
 27
0.0
 37
0.0
 40
210.0
 41
1.4142857143
 42
50.0
 43
0.0
 44
0.0
 50
0.0
 51
0.0
 71
0
 72
100
 73
1
 74
1
 75
0
 76
0
 77
0
 78
0
  0
ENDTAB
  0
TABLE
  2
LTYPE
  5
5
100
AcDbSymbolTable
 70
6
  0
LTYPE
  5
14
100
AcDbSymbolTableRecord
100
AcDbLinetypeTableRecord
  2
BYBLOCK
 70
0
  3

 72
65
 73
0
 40
0.0
  0
LTYPE
  5
15
100
AcDbSymbolTableRecord
100
AcDbLinetypeTableRecord
  2
BYLAYER
 70
0
  3

 72
65
 73
0
 40
0.0
  0
LTYPE
  5
16
100
AcDbSymbolTableRecord
100
AcDbLinetypeTableRecord
  2
CONTINUOUS
 70
64
  3
Solid line
 72
65
 73
0
 40
0.0
  0
LTYPE
  5
1F5
100
AcDbSymbolTableRecord
100
AcDbLinetypeTableRecord
  2
CENTER
 70
64
  3
____ _ ____ _ ____ _ ____ _ ____ _ ____ _ ____
 72
65
 73
4
 40
0.6
 49
0.375
 74
0
 49
-0.075
 74
0
 49
0.075
 74
0
 49
-0.075
 74
0
  0
LTYPE
  5
1F6
100
AcDbSymbolTableRecord
100
AcDbLinetypeTableRecord
  2
HIDDEN
 70
64
  3
- - - - - - - - - - - - - - - - - - - -
 72
65
 73
2
 40
0.2
 49
0.1
 74
0
 49
-0.1
 74
0
  0
LTYPE
  5
1F7
100
AcDbSymbolTableRecord
100
AcDbLinetypeTableRecord
  2
PHANTOM
 70
64
  3
_____ _ _ _____ _ _ _____ _ _ _____
 72
65
 73
6
 40
0.8
 49
0.45
 74
0
 49
-0.05
 74
0
 49
0.1
 74
0
 49
-0.05
 74
0
 49
0.1
 74
0
 49
-0.05
 74
0
  0
LTYPE
  5
1F8
100
AcDbSymbolTableRecord
100
AcDbLinetypeTableRecord
  2
DOT
 70
64
  3
. . . . . . . . . . . . . . . . . . . .
 72
65
 73
2
 40
0.2
 49
0.1
 74
0
 49
-0.1
 74
0
  0
LTYPE
  5
1F9
100
AcDbSymbolTableRecord
100
AcDbLinetypeTableRecord
  2
DASHED
 70
64
  3
- - - - - - - - - - - - - - - - - - - -
 72
65
 73
2
 40
0.2
 49
0.1
 74
0
 49
-0.1
 74
0
  0
ENDTAB
  0
TABLE
  2
LAYER
  5
2
100
AcDbSymbolTable
 70
36
  0
LAYER
  5
10
100
AcDbSymbolTableRecord
100
AcDbLayerTableRecord
  2
0
 70
0
 62
7
  6
CONTINUOUS
370
-3
390
F
  0
LAYER
  5
1FA
100
AcDbSymbolTableRecord
100
AcDbLayerTableRecord
  2
DEFAULT_1
 70
0
 62
7
  6
CENTER
370
-3
390
F
  0
LAYER
  5
1FB
100
AcDbSymbolTableRecord
100
AcDbLayerTableRecord
  2
DEFAULT_2
 70
0
 62
7
  6
HIDDEN
370
-3
390
F
  0
LAYER
  5
1FC
100
AcDbSymbolTableRecord
100
AcDbLayerTableRecord
  2
DEFAULT_3
 70
0
 62
7
  6
PHANTOM
370
-3
390
F
  0
LAYER
  5
1FD
100
AcDbSymbolTableRecord
100
AcDbLayerTableRecord
  2
ASSI
 70
0
 62
7
  6
CONTINUOUS
370
-3
390
F
  0
LAYER
  5
1FE
100
AcDbSymbolTableRecord
100
AcDbLayerTableRecord
  2
COORDINATE
 70
0
 62
7
  6
CONTINUOUS
370
-3
390
F
  0
LAYER
  5
1FF
100
AcDbSymbolTableRecord
100
AcDbLayerTableRecord
  2
COORD_ORIGINE
 70
0
 62
7
  6
CONTINUOUS
370
-3
390
F
  0
LAYER
  5
200
100
AcDbSymbolTableRecord
100
AcDbLayerTableRecord
  2
COPY_PUBLISH
 70
0
 62
7
  6
CONTINUOUS
370
-3
390
F
  0
LAYER
  5
201
100
AcDbSymbolTableRecord
100
AcDbLayerTableRecord
  2
COSMETIC
 70
0
 62
7
  6
CONTINUOUS
370
-3
390
F
  0
LAYER
  5
202
100
AcDbSymbolTableRecord
100
AcDbLayerTableRecord
  2
COSMETICI
 70
0
 62
7
  6
CONTINUOUS
370
-3
390
F
  0
LAYER
  5
203
100
AcDbSymbolTableRecord
100
AcDbLayerTableRecord
  2
CURVA_TASSELLO
 70
0
 62
7
  6
CONTINUOUS
370
-3
390
F
  0
LAYER
  5
204
100
AcDbSymbolTableRecord
100
AcDbLayerTableRecord
  2
CURVE
 70
0
 62
7
  6
CONTINUOUS
370
-3
390
F
  0
LAYER
  5
205
100
AcDbSymbolTableRecord
100
AcDbLayerTableRecord
  2
DRAFT
 70
0
 62
7
  6
CONTINUOUS
370
-3
390
F
  0
LAYER
  5
206
100
AcDbSymbolTableRecord
100
AcDbLayerTableRecord
  2
IMPORT_IGES
 70
0
 62
7
  6
CONTINUOUS
370
-3
390
F
  0
LAYER
  5
207
100
AcDbSymbolTableRecord
100
AcDbLayerTableRecord
  2
INTFCLR_2
 70
0
 62
7
  6
CONTINUOUS
370
-3
390
F
  0
LAYER
  5
208
100
AcDbSymbolTableRecord
100
AcDbLayerTableRecord
  2
INTF_1
 70
0
 62
7
  6
CONTINUOUS
370
-3
390
F
  0
LAYER
  5
209
100
AcDbSymbolTableRecord
100
AcDbLayerTableRecord
  2
INTF_21
 70
0
 62
7
  6
CONTINUOUS
370
-3
390
F
  0
LAYER
  5
20A
100
AcDbSymbolTableRecord
100
AcDbLayerTableRecord
  2
INTF_7
 70
0
 62
7
  6
CONTINUOUS
370
-3
390
F
  0
LAYER
  5
20B
100
AcDbSymbolTableRecord
100
AcDbLayerTableRecord
  2
NOTE
 70
0
 62
7
  6
CONTINUOUS
370
-3
390
F
  0
LAYER
  5
20C
100
AcDbSymbolTableRecord
100
AcDbLayerTableRecord
  2
PIANI
 70
0
 62
7
  6
CONTINUOUS
370
-3
390
F
  0
LAYER
  5
20D
100
AcDbSymbolTableRecord
100
AcDbLayerTableRecord
  2
PIANI_ORIGINE
 70
0
 62
7
  6
CONTINUOUS
370
-3
390
F
  0
LAYER
  5
20E
100
AcDbSymbolTableRecord
100
AcDbLayerTableRecord
  2
PIANI_RIFERIMENTO
 70
0
 62
7
  6
CONTINUOUS
370
-3
390
F
  0
LAYER
  5
20F
100
AcDbSymbolTableRecord
100
AcDbLayerTableRecord
  2
PUNTI
 70
0
 62
7
  6
CONTINUOUS
370
-3
390
F
  0
LAYER
  5
210
100
AcDbSymbolTableRecord
100
AcDbLayerTableRecord
  2
RACCORDO
 70
0
 62
7
  6
CONTINUOUS
370
-3
390
F
  0
LAYER
  5
211
100
AcDbSymbolTableRecord
100
AcDbLayerTableRecord
  2
RGB__255__255__255__
 70
0
 62
7
  6
CONTINUOUS
370
-3
390
F
  0
LAYER
  5
212
100
AcDbSymbolTableRecord
100
AcDbLayerTableRecord
  2
RGB____0____0____0__
 70
0
 62
7
  6
CONTINUOUS
370
-3
390
F
  0
LAYER
  5
213
100
AcDbSymbolTableRecord
100
AcDbLayerTableRecord
  2
SIMBOLI
 70
0
 62
7
  6
CONTINUOUS
370
-3
390
F
  0
LAYER
  5
214
100
AcDbSymbolTableRecord
100
AcDbLayerTableRecord
  2
SMUSSO
 70
0
 62
7
  6
CONTINUOUS
370
-3
390
F
  0
LAYER
  5
215
100
AcDbSymbolTableRecord
100
AcDbLayerTableRecord
  2
SNAPLINE
 70
0
 62
7
  6
CONTINUOUS
370
-3
390
F
  0
LAYER
  5
216
100
AcDbSymbolTableRecord
100
AcDbLayerTableRecord
  2
SUPERFICI
 70
0
 62
7
  6
CONTINUOUS
370
-3
390
F
  0
LAYER
  5
217
100
AcDbSymbolTableRecord
100
AcDbLayerTableRecord
  2
TRASH
 70
0
 62
7
  6
CONTINUOUS
370
-3
390
F
  0
LAYER
  5
218
100
AcDbSymbolTableRecord
100
AcDbLayerTableRecord
  2
WHITE
 70
0
 62
7
  6
CONTINUOUS
370
-3
390
F
  0
LAYER
  5
219
100
AcDbSymbolTableRecord
100
AcDbLayerTableRecord
  2
XSEC_DATUMS
 70
0
 62
7
  6
CONTINUOUS
370
-3
390
F
  0
ENDTAB
  0
TABLE
  2
STYLE
  5
3
100
AcDbSymbolTable
 70
1
  0
STYLE
  5
11
100
AcDbSymbolTableRecord
100
AcDbTextStyleTableRecord
  2
STANDARD
 70
0
 40
0.0
 41
0.8
 50
0.0
 71
0
 42
0.2
  3
txt
  4

  0
STYLE
  5
21A
100
AcDbSymbolTableRecord
100
AcDbTextStyleTableRecord
  2
TEXTSTYLE_1
 70
0
 40
0.0
 41
0.8
 50
0.0
 71
0
 42
0.2
  3
gdt
  4

  0
ENDTAB
  0
TABLE
  2
VIEW
  5
6
100
AcDbSymbolTable
 70
0
  0
ENDTAB
  0
TABLE
  2
UCS
  5
7
100
AcDbSymbolTable
 70
0
  0
ENDTAB
  0
TABLE
  2
APPID
  5
9
100
AcDbSymbolTable
 70
1
  0
APPID
  5
21B
100
AcDbSymbolTableRecord
100
AcDbRegAppTableRecord
  2
ACAD
 70
0
  0
ENDTAB
  0
TABLE
  2
BLOCK_RECORD
  5
1
100
AcDbSymbolTable
 70
0
  0
BLOCK_RECORD
  5
21C
100
AcDbSymbolTableRecord
100
AcDbBlockTableRecord
  2
*Model_Space
  0
BLOCK_RECORD
  5
21D
100
AcDbSymbolTableRecord
100
AcDbBlockTableRecord
  2
*Paper_Space
  0
BLOCK_RECORD
  5
21E
100
AcDbSymbolTableRecord
100
AcDbBlockTableRecord
  2
_FILLED
  0
BLOCK_RECORD
  5
21F
100
AcDbSymbolTableRecord
100
AcDbBlockTableRecord
  2
*D0
  0
BLOCK_RECORD
  5
220
100
AcDbSymbolTableRecord
100
AcDbBlockTableRecord
  2
*D1
  0
BLOCK_RECORD
  5
221
100
AcDbSymbolTableRecord
100
AcDbBlockTableRecord
  2
*D2
  0
BLOCK_RECORD
  5
222
100
AcDbSymbolTableRecord
100
AcDbBlockTableRecord
  2
*D3
  0
ENDTAB
  0
TABLE
  2
DIMSTYLE
  5
A
100
AcDbSymbolTable
 70
1
100
AcDbDimStyleTable
 71
0
  0
DIMSTYLE
105
223
100
AcDbSymbolTableRecord
100
AcDbDimStyleTableRecord
  2
STANDARD
 70
0
  3

  4

 40
1.0
 41
3.0
 42
0.5
 43
0.38
 44
1.5
 45
0.0
 46
0.0
 47
0.01
 48
0.01
140
3.0
141
0.09
142
0.0
143
25.4
144
1.0
145
0.0
146
1.0
147
0.625
 71
1.0
 72
0.0
 73
0
 74
0
 75
0
 76
0
 77
1
 78
8
 79
2
170
0
171
1
172
0
173
0
174
0
175
0
176
0
177
0
178
0
270
2
179
2
271
2
272
2
273
2
274
2
275
0
280
0
281
0
282
0
283
1
284
8
285
0
286
0
287
3
288
0
340
11
278
44
341
21E
342
21E
343
21E
344
21E
  0
DIMSTYLE
105
224
100
AcDbSymbolTableRecord
100
AcDbDimStyleTableRecord
  2
DIMSTYLE_1
 70
0
  3

  4

 40
1.0
 41
3.0
 42
0.5
 43
0.38
 44
1.5
 45
0.0
 46
0.0
 47
0.0
 48
0.0
140
3.0
141
0.09
142
0.0
143
25.4
144
1.0
145
0.0
146
1.0
147
0.75
 71
0.0
 72
0.0
 73
0
 74
0
 75
0
 76
0
 77
1
 78
8
 79
2
170
0
171
1
172
0
173
0
174
0
175
0
176
0
177
0
178
0
270
2
179
2
271
2
272
2
273
2
274
2
275
0
280
0
281
0
282
0
283
1
284
8
285
0
286
0
287
3
288
0
340
11
278
44
341
21E
342
21E
343
21E
344
21E
  0
ENDTAB
  0
ENDSEC
  0
SECTION
  2
BLOCKS
  0
BLOCK
  5
20
100
AcDbEntity
  8
0
100
AcDbBlockBegin
  2
*Model_Space
 70
0
 10
0.0
 20
0.0
 30
0.0
  3
*Model_Space
  1

  0
ENDBLK
  5
21
100
AcDbEntity
  8
0
100
AcDbBlockEnd
  0
BLOCK
  5
1C
100
AcDbEntity
  8
0
100
AcDbBlockBegin
  2
*Paper_Space
 70
0
 10
0.0
 20
0.0
 30
0.0
  3
*Paper_Space
  1

  0
ENDBLK
  5
1D
100
AcDbEntity
  8
0
100
AcDbBlockEnd
  0
BLOCK
  5
225
100
AcDbEntity
  8
0
100
AcDbBlockBegin
  2
_FILLED
 70
64
 10
0.0
 20
0.0
  3
_FILLED
  1

  0
SOLID
  5
226
100
AcDbEntity
  8
0
  6
BYBLOCK
 62
0
100
AcDbTrace
 10
0.0
 20
0.0
 11
-1.0
 21
0.3166666667
 12
-1.0
 22
-0.3166666667
 13
-1.0
 23
-0.3166666667
  0
ENDBLK
  5
227
100
AcDbEntity
  8
0
  6
BYBLOCK
 62
0
100
AcDbBlockEnd
  0
BLOCK
  5
228
100
AcDbEntity
  8
0
100
AcDbBlockBegin
 62
7
  6
CONTINUOUS
  2
*D0
 70
65
 10
0.0
 20
0.0
  3
*D0
  1

  0
LINE
  5
229
100
AcDbEntity
  8
0
100
AcDbLine
 62
7
  6
CONTINUOUS
 10
111.2687781249
 20
152.38117
 11
111.2687781249
 21
162.3811699997
  0
LINE
  5
22A
100
AcDbEntity
  8
0
100
AcDbLine
 62
7
  6
CONTINUOUS
 10
233.2687781249
 20
152.38117
 11
233.2687781249
 21
162.3811699997
  0
LINE
  5
22B
100
AcDbEntity
  8
0
100
AcDbLine
 62
7
  6
CONTINUOUS
 10
111.2687781249
 20
160.8811699997
 11
172.2687781249
 21
160.8811699997
  0
LINE
  5
22C
100
AcDbEntity
  8
0
100
AcDbLine
 62
7
  6
CONTINUOUS
 10
233.2687781249
 20
160.8811699997
 11
172.2687781249
 21
160.8811699997
  0
INSERT
  5
22D
100
AcDbEntity
  8
0
100
AcDbBlockReference
 62
7
  6
CONTINUOUS
  2
_FILLED
 10
111.2687781249
 20
160.8811699997
 41
3.0
 42
3.0
 43
3.0
 50
180.0
  0
INSERT
  5
22E
100
AcDbEntity
  8
0
100
AcDbBlockReference
 62
7
  6
CONTINUOUS
  2
_FILLED
 10
233.2687781249
 20
160.8811699997
 41
3.0
 42
3.0
 43
3.0
  0
ENDBLK
  5
22F
100
AcDbEntity
  8
0
  6
BYBLOCK
 62
0
100
AcDbBlockEnd
  0
BLOCK
  5
230
100
AcDbEntity
  8
0
100
AcDbBlockBegin
 62
7
  6
CONTINUOUS
  2
*D1
 70
65
 10
0.0
 20
0.0
  3
*D1
  1

  0
LINE
  5
231
100
AcDbEntity
  8
0
100
AcDbLine
 62
7
  6
CONTINUOUS
 10
232.7687781249
 20
152.88117
 11
243.2687781249
 21
152.88117
  0
LINE
  5
232
100
AcDbEntity
  8
0
100
AcDbLine
 62
7
  6
CONTINUOUS
 10
232.7687781249
 20
62.88117
 11
243.2687781249
 21
62.88117
  0
LINE
  5
233
100
AcDbEntity
  8
0
100
AcDbLine
 62
7
  6
CONTINUOUS
 10
241.7687781249
 20
152.88117
 11
241.7687781249
 21
107.88117
  0
LINE
  5
234
100
AcDbEntity
  8
0
100
AcDbLine
 62
7
  6
CONTINUOUS
 10
241.7687781249
 20
62.88117
 11
241.7687781249
 21
107.88117
  0
INSERT
  5
235
100
AcDbEntity
  8
0
100
AcDbBlockReference
 62
7
  6
CONTINUOUS
  2
_FILLED
 10
241.7687781249
 20
152.88117
 41
3.0
 42
3.0
 43
3.0
 50
90.0
  0
INSERT
  5
236
100
AcDbEntity
  8
0
100
AcDbBlockReference
 62
7
  6
CONTINUOUS
  2
_FILLED
 10
241.7687781249
 20
62.88117
 41
3.0
 42
3.0
 43
3.0
 50
270.0
  0
ENDBLK
  5
237
100
AcDbEntity
  8
0
  6
BYBLOCK
 62
0
100
AcDbBlockEnd
  0
BLOCK
  5
238
100
AcDbEntity
  8
0
100
AcDbBlockBegin
 62
7
  6
CONTINUOUS
  2
*D2
 70
65
 10
0.0
 20
0.0
  3
*D2
  1

  0
LINE
  5
239
100
AcDbEntity
  8
0
100
AcDbLine
 62
7
  6
CONTINUOUS
 10
72.537768125
 20
152.38117
 11
72.537768125
 21
162.3811699997
  0
LINE
  5
23A
100
AcDbEntity
  8
0
100
AcDbLine
 62
7
  6
CONTINUOUS
 10
80.087768125
 20
151.4195732275
 11
80.087768125
 21
162.3811699997
  0
LINE
  5
23B
100
AcDbEntity
  8
0
100
AcDbLine
 62
7
  6
CONTINUOUS
 10
72.537768125
 20
160.8811699997
 11
76.312768125
 21
160.8811699997
  0
LINE
  5
23C
100
AcDbEntity
  8
0
100
AcDbLine
 62
7
  6
CONTINUOUS
 10
80.087768125
 20
160.8811699997
 11
76.312768125
 21
160.8811699997
  0
LINE
  5
23D
100
AcDbEntity
  8
0
100
AcDbLine
 62
7
  6
CONTINUOUS
 10
76.312768125
 20
160.8811699997
 11
93.5223883929
 21
160.8811699997
  0
INSERT
  5
23E
100
AcDbEntity
  8
0
100
AcDbBlockReference
 62
7
  6
CONTINUOUS
  2
_FILLED
 10
72.537768125
 20
160.8811699997
 41
3.0
 42
3.0
 43
3.0
 50
180.0
  0
INSERT
  5
23F
100
AcDbEntity
  8
0
100
AcDbBlockReference
 62
7
  6
CONTINUOUS
  2
_FILLED
 10
80.087768125
 20
160.8811699997
 41
3.0
 42
3.0
 43
3.0
  0
ENDBLK
  5
240
100
AcDbEntity
  8
0
  6
BYBLOCK
 62
0
100
AcDbBlockEnd
  0
BLOCK
  5
241
100
AcDbEntity
  8
0
100
AcDbBlockBegin
 62
7
  6
CONTINUOUS
  2
*D3
 70
65
 10
0.0
 20
0.0
  3
*D3
  1

  0
LINE
  5
242
100
AcDbEntity
  8
0
100
AcDbLine
 62
7
  6
CONTINUOUS
 10
83.087768125
 20
134.4274867932
 11
83.087768125
 21
172.3811699997
  0
LINE
  5
243
100
AcDbEntity
  8
0
100
AcDbLine
 62
7
  6
CONTINUOUS
 10
72.537768125
 20
152.38117
 11
72.537768125
 21
172.3811699997
  0
LINE
  5
244
100
AcDbEntity
  8
0
100
AcDbLine
 62
7
  6
CONTINUOUS
 10
83.087768125
 20
170.8811699997
 11
77.812768125
 21
170.8811699997
  0
LINE
  5
245
100
AcDbEntity
  8
0
100
AcDbLine
 62
7
  6
CONTINUOUS
 10
77.812768125
 20
170.8811699997
 11
94.6237419196
 21
170.8811699997
  0
LINE
  5
246
100
AcDbEntity
  8
0
100
AcDbLine
 62
7
  6
CONTINUOUS
 10
72.537768125
 20
170.8811699997
 11
77.812768125
 21
170.8811699997
  0
INSERT
  5
247
100
AcDbEntity
  8
0
100
AcDbBlockReference
 62
7
  6
CONTINUOUS
  2
_FILLED
 10
83.087768125
 20
170.8811699997
 41
3.0
 42
3.0
 43
3.0
  0
INSERT
  5
248
100
AcDbEntity
  8
0
100
AcDbBlockReference
 62
7
  6
CONTINUOUS
  2
_FILLED
 10
72.537768125
 20
170.8811699997
 41
3.0
 42
3.0
 43
3.0
 50
180.0
  0
ENDBLK
  5
249
100
AcDbEntity
  8
0
  6
BYBLOCK
 62
0
100
AcDbBlockEnd
  0
ENDSEC
  0
SECTION
  2
ENTITIES
  0
DIMENSION
  5
24A
100
AcDbEntity
  8
0
100
AcDbDimension
 62
7
  6
CONTINUOUS
  2
*D0
 10
233.2687781249
 20
160.8811699997
 11
169.0544924106
 21
160.8811699997
 70
160
 71
2
 72
2
 41
0.9
 42
122.0
  3
DIMSTYLE_1
100
AcDbAlignedDimension
 13
111.2687781249
 23
151.88117
 14
233.2687781249
 24
151.88117
100
AcDbRotatedDimension
  0
DIMENSION
  5
24B
100
AcDbEntity
  8
0
100
AcDbDimension
 62
7
  6
CONTINUOUS
  2
*D1
 10
241.7687781249
 20
62.88117
 11
241.7687781249
 21
105.5240271429
 70
160
 71
2
 72
2
 41
0.9
 42
90.0
  3
DIMSTYLE_1
100
AcDbAlignedDimension
 13
232.2687781249
 23
152.88117
 14
232.2687781249
 24
62.88117
 50
270.0
100
AcDbRotatedDimension
  0
DIMENSION
  5
24C
100
AcDbEntity
  8
0
100
AcDbDimension
 62
7
  6
CONTINUOUS
  2
*D2
 10
80.087768125
 20
160.8811699997
 11
85.1652455357
 21
160.8811699997
 70
160
 71
1
 72
2
 41
0.9
 42
7.55
  3
DIMSTYLE_1
100
AcDbAlignedDimension
 13
72.537768125
 23
151.88117
 14
80.087768125
 24
150.9195732275
100
AcDbRotatedDimension
  0
DIMENSION
  5
24D
100
AcDbEntity
  8
0
100
AcDbDimension
 62
7
  6
CONTINUOUS
  2
*D3
 10
72.537768125
 20
170.8811699997
 11
84.5523133482
 21
170.8811699997
 70
160
 71
1
 72
2
 41
0.9
 42
10.55
  3
DIMSTYLE_1
100
AcDbAlignedDimension
 13
83.087768125
 23
133.9274867932
 14
72.537768125
 24
151.88117
 50
180.0
100
AcDbRotatedDimension
  0
LINE
  5
24E
100
AcDbEntity
  8
SMUSSO
100
AcDbLine
 62
7
  6
CONTINUOUS
 10
111.2687781249
 20
151.88117
 11
111.2687781249
 21
63.88117
  0
LINE
  5
24F
100
AcDbEntity
  8
SMUSSO
100
AcDbLine
 62
7
  6
CONTINUOUS
 10
112.2687781249
 20
151.88117
 11
112.2687781249
 21
63.88117
  0
LINE
  5
250
100
AcDbEntity
  8
SMUSSO
100
AcDbLine
 62
250
  6
CONTINUOUS
 10
112.2687781249
 20
63.88117
 11
112.2687781249
 21
62.88117
  0
LINE
  5
251
100
AcDbEntity
  8
SMUSSO
100
AcDbLine
 62
250
  6
CONTINUOUS
 10
112.2687781249
 20
151.88117
 11
112.2687781249
 21
152.88117
  0
LINE
  5
252
100
AcDbEntity
  8
SMUSSO
100
AcDbLine
 62
7
  6
CONTINUOUS
 10
112.2687781249
 20
62.88117
 11
232.2687781249
 21
62.88117
  0
LWPOLYLINE
  5
253
100
AcDbEntity
  8
0
100
AcDbPolyline
 62
7
  6
CONTINUOUS
 90
3
 70
0
 43
0.3500000006
 10
169.0544882813
 20
163.7740231934
 10
169.9116262207
 20
164.6311611328
 10
169.9116262207
 20
161.6311783447
  0
LINE
  5
254
100
AcDbEntity
  8
SMUSSO
100
AcDbLine
 62
250
  6
CONTINUOUS
 10
112.2687781249
 20
63.88117
 11
111.2687781249
 21
63.88117
  0
LINE
  5
255
100
AcDbEntity
  8
SMUSSO
100
AcDbLine
 62
7
  6
CONTINUOUS
 10
112.2687781249
 20
63.88117
 11
232.2687781249
 21
63.88117
  0
LINE
  5
256
100
AcDbEntity
  8
SMUSSO
100
AcDbLine
 62
250
  6
CONTINUOUS
 10
232.2687781249
 20
63.88117
 11
233.2687781249
 21
63.88117
  0
LINE
  5
257
100
AcDbEntity
  8
RACCORDO
100
AcDbLine
 62
7
  6
CONTINUOUS
 10
138.4187781249
 20
129.28117
 11
138.4187781249
 21
86.48117
  0
LINE
  5
258
100
AcDbEntity
  8
RACCORDO
100
AcDbLine
 62
7
  6
CONTINUOUS
 10
139.6187781249
 20
85.28117
 11
204.9187781249
 21
85.28117
  0
LWPOLYLINE
  5
259
100
AcDbEntity
  8
0
100
AcDbPolyline
 62
7
  6
CONTINUOUS
 90
13
 70
0
 43
0.3500000006
 10
240.1616431274
 20
107.8811664734
 10
238.8759180908
 20
107.8811664734
 10
238.4473491211
 20
108.095460022
 10
238.0187801514
 20
108.5240289917
 10
238.0187801514
 20
108.7383134766
 10
238.4473491211
 20
109.1668824463
 10
238.8759180908
 20
109.3811669312
 10
240.1616431274
 20
109.3811669312
 10
240.5902120972
 20
109.1668824463
 10
241.0187810669
 20
108.7383134766
 10
241.0187810669
 20
108.5240289917
 10
240.5902120972
 20
108.095460022
 10
240.1616431274
 20
107.8811664734
  0
LINE
  5
25A
100
AcDbEntity
  8
RACCORDO
100
AcDbLine
 62
7
  6
CONTINUOUS
 10
204.9187781249
 20
130.48117
 11
139.6187781249
 21
130.48117
  0
LINE
  5
25B
100
AcDbEntity
  8
RACCORDO
100
AcDbLine
 62
7
  6
CONTINUOUS
 10
206.1187781249
 20
86.48117
 11
206.1187781249
 21
129.28117
  0
LINE
  5
25C
100
AcDbEntity
  8
SMUSSO
100
AcDbLine
 62
7
  6
CONTINUOUS
 10
232.2687781249
 20
151.88117
 11
112.2687781249
 21
151.88117
  0
LINE
  5
25D
100
AcDbEntity
  8
SMUSSO
100
AcDbLine
 62
250
  6
CONTINUOUS
 10
112.2687781249
 20
151.88117
 11
111.2687781249
 21
151.88117
  0
LINE
  5
25E
100
AcDbEntity
  8
SMUSSO
100
AcDbLine
 62
250
  6
CONTINUOUS
 10
232.2687781249
 20
151.88117
 11
233.2687781249
 21
151.88117
  0
LINE
  5
25F
100
AcDbEntity
  8
SMUSSO
100
AcDbLine
 62
7
  6
CONTINUOUS
 10
232.2687781249
 20
152.88117
 11
112.2687781249
 21
152.88117
  0
LWPOLYLINE
  5
260
100
AcDbEntity
  8
0
100
AcDbPolyline
 62
7
  6
CONTINUOUS
 90
10
 70
0
 43
0.3500000006
 10
241.0187810669
 20
105.9525970459
 10
240.1616431274
 20
106.8097440491
 10
239.3044870605
 20
107.0240285339
 10
238.4473491211
 20
107.0240285339
 10
238.0187801514
 20
106.5954595642
 10
238.0187801514
 20
105.9525970459
 10
238.4473491211
 20
105.5240280762
 10
239.3044870605
 20
105.5240280762
 10
239.7330560303
 20
105.9525970459
 10
239.7330560303
 20
106.8811661682
  0
LWPOLYLINE
  5
261
100
AcDbEntity
  8
0
100
AcDbPolyline
 62
7
  6
CONTINUOUS
 90
7
 70
0
 43
0.3500000006
 10
174.6259211426
 20
161.6311783447
 10
173.1259297485
 20
161.6311783447
 10
174.6259211426
 20
163.7740231934
 10
174.6259211426
 20
164.2025921631
 10
174.1973521729
 20
164.6311611328
 10
173.5544987183
 20
164.6311611328
 10
173.1259297485
 20
163.9883076782
  0
LWPOLYLINE
  5
262
100
AcDbEntity
  8
0
100
AcDbPolyline
 62
7
  6
CONTINUOUS
 90
7
 70
0
 43
0.3500000006
 10
172.2687736816
 20
161.6311783447
 10
170.7687822876
 20
161.6311783447
 10
172.2687736816
 20
163.7740231934
 10
172.2687736816
 20
164.2025921631
 10
171.8402047119
 20
164.6311611328
 10
171.1973512573
 20
164.6311611328
 10
170.7687822876
 20
163.9883076782
  0
LINE
  5
263
100
AcDbEntity
  8
SMUSSO
100
AcDbLine
 62
250
  6
CONTINUOUS
 10
232.2687781249
 20
63.88117
 11
232.2687781249
 21
62.88117
  0
LINE
  5
264
100
AcDbEntity
  8
SMUSSO
100
AcDbLine
 62
7
  6
CONTINUOUS
 10
232.2687781249
 20
63.88117
 11
232.2687781249
 21
151.88117
  0
LINE
  5
265
100
AcDbEntity
  8
SMUSSO
100
AcDbLine
 62
250
  6
CONTINUOUS
 10
232.2687781249
 20
151.88117
 11
232.2687781249
 21
152.88117
  0
LINE
  5
266
100
AcDbEntity
  8
SMUSSO
100
AcDbLine
 62
7
  6
CONTINUOUS
 10
233.2687781249
 20
63.88117
 11
233.2687781249
 21
151.88117
  0
LINE
  5
267
100
AcDbEntity
  8
SMUSSO
100
AcDbLine
 62
7
  6
CONTINUOUS
 10
73.537768125
 20
62.88117
 11
75.037768125
 21
62.88117
  0
LINE
  5
268
100
AcDbEntity
  8
0
100
AcDbLine
 62
250
  6
CONTINUOUS
 10
78.5885656839
 20
64.5457040302
 11
80.087768125
 21
64.8427667725
  0
LINE
  5
269
100
AcDbEntity
  8
ASSI
100
AcDbLine
 62
250
  6
CONTINUOUS
 10
78.5885656839
 20
64.5457040302
 11
80.087768125
 21
64.8427667725
  0
LINE
  5
26A
100
AcDbEntity
  8
0
100
AcDbLine
 62
7
  6
CONTINUOUS
 10
75.687768125
 20
63.5305503117
 11
78.587768125
 21
63.58117
  0
LINE
  5
26B
100
AcDbEntity
  8
ASSI
100
AcDbLine
 62
7
  6
CONTINUOUS
 10
75.687768125
 20
63.5305503117
 11
78.587768125
 21
63.58117
  0
LINE
  5
26C
100
AcDbEntity
  8
0
100
AcDbLine
 62
250
  6
CONTINUOUS
 10
75.687768125
 20
64.5303980069
 11
78.587768125
 21
64.5810176952
  0
LINE
  5
26D
100
AcDbEntity
  8
ASSI
100
AcDbLine
 62
250
  6
CONTINUOUS
 10
75.687768125
 20
64.5303980069
 11
78.587768125
 21
64.5810176952
  0
LINE
  5
26E
100
AcDbEntity
  8
SMUSSO
100
AcDbLine
 62
250
  6
CONTINUOUS
 10
72.537768125
 20
63.88117
 11
75.537768125
 21
63.88117
  0
LWPOLYLINE
  5
26F
100
AcDbEntity
  8
0
100
AcDbPolyline
 62
7
  6
CONTINUOUS
 90
3
 70
0
 43
0.3500000006
 10
84.5523143921
 20
173.7740262451
 10
85.4094523315
 20
174.6311641846
 10
85.4094523315
 20
171.631163269
  0
LINE
  5
270
100
AcDbEntity
  8
RACCORDO
100
AcDbLine
 62
7
  6
CONTINUOUS
 10
75.537768125
 20
67.88117
 11
75.687768125
 21
67.88117
  0
LINE
  5
271
100
AcDbEntity
  8
RACCORDO
100
AcDbLine
 62
250
  6
CONTINUOUS
 10
75.537768125
 20
69.88117
 11
75.687768125
 21
69.88117
  0
LINE
  5
272
100
AcDbEntity
  8
0
100
AcDbLine
 62
250
  6
CONTINUOUS
 10
78.106262125
 20
71.720029
 11
76.206302125
 21
71.720029
  0
LINE
  5
273
100
AcDbEntity
  8
SMUSSO
100
AcDbLine
 62
7
  6
CONTINUOUS
 10
72.537768125
 20
151.88117
 11
73.537768125
 21
152.88117
  0
LINE
  5
274
100
AcDbEntity
  8
0
100
AcDbLine
 62
250
  6
CONTINUOUS
 10
77.514139125
 20
70.803351
 11
76.206416125
 21
70.441206
  0
LINE
  5
275
100
AcDbEntity
  8
0
100
AcDbLine
 62
250
  6
CONTINUOUS
 10
78.106262125
 20
74.256861
 11
76.206416125
 21
74.079204
  0
LINE
  5
276
100
AcDbEntity
  8
0
100
AcDbLine
 62
250
  6
CONTINUOUS
 10
76.870870125
 20
73.787431
 11
78.106262125
 21
73.868908
  0
LINE
  5
277
100
AcDbEntity
  8
0
100
AcDbLine
 62
250
  6
CONTINUOUS
 10
76.206302125
 20
72.116601
 11
78.106262125
 21
72.116601
  0
LINE
  5
278
100
AcDbEntity
  8
0
100
AcDbLine
 62
250
  6
CONTINUOUS
 10
78.106262125
 20
72.709479
 11
76.865698125
 21
72.79506
  0
LINE
  5
279
100
AcDbEntity
  8
0
100
AcDbLine
 62
250
  6
CONTINUOUS
 10
76.206416125
 20
72.501634
 11
78.106262125
 21
72.330089
  0
LINE
  5
27A
100
AcDbEntity
  8
0
100
AcDbLine
 62
250
  6
CONTINUOUS
 10
76.206416125
 20
71.176559
 11
77.514139125
 21
70.803351
  0
LINE
  5
27B
100
AcDbEntity
  8
0
100
AcDbLine
 62
250
  6
CONTINUOUS
 10
78.106262125
 20
70.962174
 11
76.206416125
 21
71.57286
  0
LINE
  5
27C
100
AcDbEntity
  8
SMUSSO
100
AcDbLine
 62
7
  6
CONTINUOUS
 10
72.537768125
 20
63.88117
 11
73.537768125
 21
62.88117
  0
LINE
  5
27D
100
AcDbEntity
  8
0
100
AcDbLine
 62
250
  6
CONTINUOUS
 10
77.726985125
 20
75.360898
 11
78.106262125
 21
75.463631
  0
LINE
  5
27E
100
AcDbEntity
  8
0
100
AcDbLine
 62
250
  6
CONTINUOUS
 10
76.728445125
 20
75.099413
 11
77.433502125
 21
75.281643
  0
LWPOLYLINE
  5
27F
100
AcDbEntity
  8
0
100
AcDbPolyline
 62
250
  6
CONTINUOUS
 90
53
 70
0
 10
76.7564874784
 20
76.9145775394
 10
76.7496358037
 20
76.9143717719
 10
76.7428534273
 20
76.9139656831
 10
76.7361240466
 20
76.9133623611
 10
76.7294313588
 20
76.9125648946
 10
76.7227590613
 20
76.9115763717
 10
76.7160948318
 20
76.9103995002
 10
76.7094422694
 20
76.9090354652
 10
76.7028089534
 20
76.9074850711
 10
76.6962024634
 20
76.9057491224
 10
76.6896303788
 20
76.9038284235
 10
76.6841845455
 20
76.9020870169
 10
76.6787671771
 20
76.9002166811
 10
76.6733775827
 20
76.8982162266
 10
76.6680167184
 20
76.8960851571
 10
76.6626921295
 20
76.8938257463
 10
76.6574130084
 20
76.8914409607
 10
76.6511483995
 20
76.888416325
 10
76.6449626412
 20
76.8852110961
 10
76.6388558733
 20
76.8818209487
 10
76.6328282356
 20
76.8782415577
 10
76.6268798677
 20
76.8744685977
 10
76.6210133179
 20
76.8704987828
 10
76.6152407677
 20
76.8663329839
 10
76.6095768068
 20
76.8619731115
 10
76.6040360253
 20
76.8574210759
 10
76.5986330131
 20
76.8526787873
 10
76.593380747
 20
76.8477495052
 10
76.5882857522
 20
76.8426418849
 10
76.5833529409
 20
76.8373659307
 10
76.5785872254
 20
76.831931647
 10
76.5739935178
 20
76.8263490381
 10
76.5695754185
 20
76.8206265661
 10
76.5653312807
 20
76.8147665245
 10
76.5612581456
 20
76.8087696642
 10
76.5573530546
 20
76.8026367364
 10
76.5536130489
 20
76.7963684922
 10
76.5506213865
 20
76.7910436146
 10
76.5477468198
 20
76.785634628
 10
76.5449938567
 20
76.7801508713
 10
76.542366063
 20
76.7745999294
 10
76.539863237
 20
76.7689823699
 10
76.5374842348
 20
76.763297006
 10
76.5347919849
 20
76.7563851508
 10
76.5322787113
 20
76.7493824226
 10
76.5299467313
 20
76.7422972956
 10
76.5277983619
 20
76.7351382438
 10
76.5258359202
 20
76.7279137413
 10
76.5240616843
 20
76.7206278147
 10
76.5224777758
 20
76.7132667
 10
76.5210862774
 20
76.7058121854
 10
76.5198892717
 20
76.6982460594
 10
76.5188888413
 20
76.6905501104
  0
LINE
  5
280
100
AcDbEntity
  8
0
100
AcDbLine
 62
250
  6
CONTINUOUS
 10
78.106261871
 20
75.9980546027
 11
76.2286126663
 21
75.9980546027
  0
LINE
  5
281
100
AcDbEntity
  8
0
100
AcDbLine
 62
250
  6
CONTINUOUS
 10
76.5300737018
 20
76.3798815031
 11
77.0516183892
 21
76.3798815031
  0
LINE
  5
282
100
AcDbEntity
  8
0
100
AcDbLine
 62
250
  6
CONTINUOUS
 10
77.3627672085
 20
76.3930312449
 11
78.106261871
 21
76.3930312449
  0
LINE
  5
283
100
AcDbEntity
  8
0
100
AcDbLine
 62
250
  6
CONTINUOUS
 10
77.2082043175
 20
77.0176226086
 11
77.2194307492
 21
77.0176226086
  0
LINE
  5
284
100
AcDbEntity
  8
0
100
AcDbLine
 62
250
  6
CONTINUOUS
 10
77.433502125
 20
74.901953
 11
76.728445125
 21
75.099413
  0
LINE
  5
285
100
AcDbEntity
  8
0
100
AcDbLine
 62
250
  6
CONTINUOUS
 10
78.106262125
 20
74.711403
 11
77.726985125
 21
74.820832
  0
LINE
  5
286
100
AcDbEntity
  8
0
100
AcDbLine
 62
250
  6
CONTINUOUS
 10
76.206416125
 20
74.915046
 11
78.106262125
 21
74.319133
  0
LINE
  5
287
100
AcDbEntity
  8
0
100
AcDbLine
 62
250
  6
CONTINUOUS
 10
76.206416125
 20
73.686834
 11
77.261216125
 21
73.290262
  0
LINE
  5
288
100
AcDbEntity
  8
0
100
AcDbLine
 62
250
  6
CONTINUOUS
 10
78.106262125
 20
73.315906
 11
76.870870125
 21
73.787431
  0
LWPOLYLINE
  5
289
100
AcDbEntity
  8
0
100
AcDbPolyline
 62
250
  6
CONTINUOUS
 90
3
 70
0
 10
77.8373493367
 20
76.9221035061
 10
77.7730050468
 20
76.9038392267
 10
77.7099298446
 20
76.8857064654
  0
LINE
  5
28A
100
AcDbEntity
  8
0
100
AcDbLine
 62
250
  6
CONTINUOUS
 10
77.5458621823
 20
77.2336762899
 11
77.6362579518
 21
77.2581793531
  0
LINE
  5
28B
100
AcDbEntity
  8
0
100
AcDbLine
 62
250
  6
CONTINUOUS
 10
78.0231109072
 20
77.3596296836
 11
78.106261871
 21
77.3817835504
  0
LINE
  5
28C
100
AcDbEntity
  8
0
100
AcDbLine
 62
250
  6
CONTINUOUS
 10
77.6362579518
 20
77.2581793531
 11
77.7673876294
 21
77.2929853022
  0
LINE
  5
28D
100
AcDbEntity
  8
0
100
AcDbLine
 62
250
  6
CONTINUOUS
 10
77.7673876294
 20
77.2929853022
 11
78.0231109072
 21
77.3596296836
  0
LINE
  5
28E
100
AcDbEntity
  8
0
100
AcDbLine
 62
7
  6
CONTINUOUS
 10
81.087768125
 20
80.73117
 11
80.087768125
 21
80.729424669
  0
LINE
  5
28F
100
AcDbEntity
  8
ASSI
100
AcDbLine
 62
7
  6
CONTINUOUS
 10
81.087768125
 20
80.73117
 11
80.087768125
 21
80.729424669
  0
LINE
  5
290
100
AcDbEntity
  8
0
100
AcDbLine
 62
250
  6
CONTINUOUS
 10
81.0135407087
 20
80.9534907561
 11
80.087768125
 21
80.9530725616
  0
LINE
  5
291
100
AcDbEntity
  8
ASSI
100
AcDbLine
 62
250
  6
CONTINUOUS
 10
81.0135407087
 20
80.9534907561
 11
80.087768125
 21
80.9530725616
  0
LINE
  5
292
100
AcDbEntity
  8
RACCORDO
100
AcDbLine
 62
250
  6
CONTINUOUS
 10
75.537768125
 20
78.38117
 11
75.687768125
 21
78.38117
  0
LINE
  5
293
100
AcDbEntity
  8
RACCORDO
100
AcDbLine
 62
7
  6
CONTINUOUS
 10
75.537768125
 20
80.38117
 11
75.687768125
 21
80.38117
  0
LINE
  5
294
100
AcDbEntity
  8
0
100
AcDbLine
 62
7
  6
CONTINUOUS
 10
82.5378173572
 20
81.5396061397
 11
80.087768125
 21
81.5253521702
  0
LINE
  5
295
100
AcDbEntity
  8
ASSI
100
AcDbLine
 62
7
  6
CONTINUOUS
 10
82.5378173572
 20
81.5396061397
 11
80.087768125
 21
81.5253521702
  0
LINE
  5
296
100
AcDbEntity
  8
0
100
AcDbLine
 62
250
  6
CONTINUOUS
 10
82.5378173572
 20
81.6274726183
 11
80.087768125
 21
81.6132186488
  0
LINE
  5
297
100
AcDbEntity
  8
ASSI
100
AcDbLine
 62
250
  6
CONTINUOUS
 10
82.5378173572
 20
81.6274726183
 11
80.087768125
 21
81.6132186488
  0
LINE
  5
298
100
AcDbEntity
  8
RACCORDO
100
AcDbLine
 62
250
  6
CONTINUOUS
 10
75.687768125
 20
81.38117
 11
75.537768125
 21
81.38117
  0
LINE
  5
299
100
AcDbEntity
  8
0
100
AcDbLine
 62
7
  6
CONTINUOUS
 10
83.087768125
 20
81.7288087933
 11
82.9672053579
 21
81.7288087933
  0
LINE
  5
29A
100
AcDbEntity
  8
ASSI
100
AcDbLine
 62
7
  6
CONTINUOUS
 10
83.087768125
 20
81.7288087933
 11
82.9672053579
 21
81.7288087933
  0
LINE
  5
29B
100
AcDbEntity
  8
0
100
AcDbLine
 62
7
  6
CONTINUOUS
 10
81.0378925039
 20
82.68117
 11
80.087768125
 21
82.68117
  0
LINE
  5
29C
100
AcDbEntity
  8
ASSI
100
AcDbLine
 62
7
  6
CONTINUOUS
 10
81.0378925039
 20
82.68117
 11
80.087768125
 21
82.68117
  0
LINE
  5
29D
100
AcDbEntity
  8
0
100
AcDbLine
 62
7
  6
CONTINUOUS
 10
80.087768125
 20
82.83117
 11
80.237768125
 21
82.83117
  0
LINE
  5
29E
100
AcDbEntity
  8
ASSI
100
AcDbLine
 62
7
  6
CONTINUOUS
 10
80.087768125
 20
82.83117
 11
80.237768125
 21
82.83117
  0
LINE
  5
29F
100
AcDbEntity
  8
0
100
AcDbLine
 62
7
  6
CONTINUOUS
 10
80.537768125
 20
82.83117
 11
80.737768125
 21
82.83117
  0
LINE
  5
2A0
100
AcDbEntity
  8
ASSI
100
AcDbLine
 62
7
  6
CONTINUOUS
 10
80.537768125
 20
82.83117
 11
80.737768125
 21
82.83117
  0
LINE
  5
2A1
100
AcDbEntity
  8
0
100
AcDbLine
 62
7
  6
CONTINUOUS
 10
82.5658314707
 20
82.5333636654
 11
83.087768125
 21
82.5288087933
  0
LINE
  5
2A2
100
AcDbEntity
  8
ASSI
100
AcDbLine
 62
7
  6
CONTINUOUS
 10
82.5658314707
 20
82.5333636654
 11
83.087768125
 21
82.5288087933
  0
LINE
  5
2A3
100
AcDbEntity
  8
0
100
AcDbLine
 62
7
  6
CONTINUOUS
 10
80.087768125
 20
82.1253501255
 11
82.8982353162
 21
82.0011833323
  0
LINE
  5
2A4
100
AcDbEntity
  8
ASSI
100
AcDbLine
 62
7
  6
CONTINUOUS
 10
80.087768125
 20
82.1253501255
 11
82.8982353162
 21
82.0011833323
  0
LINE
  5
2A5
100
AcDbEntity
  8
0
100
AcDbLine
 62
7
  6
CONTINUOUS
 10
81.1373962229
 20
82.6762071902
 11
83.087768125
 21
82.48117
  0
LINE
  5
2A6
100
AcDbEntity
  8
ASSI
100
AcDbLine
 62
7
  6
CONTINUOUS
 10
81.1373962229
 20
82.6762071902
 11
83.087768125
 21
82.48117
  0
LWPOLYLINE
  5
2A7
100
AcDbEntity
  8
0
100
AcDbPolyline
 62
250
  6
CONTINUOUS
 90
5
 70
0
 10
82.6267842237
 20
134.1910346589
 10
82.615095923
 20
134.1872400135
 10
82.6029508648
 20
134.18198317
 10
82.5904243229
 20
134.1752911443
 10
82.5775775975
 20
134.167191863
  0
LWPOLYLINE
  5
2A8
100
AcDbEntity
  8
ASSI
100
AcDbPolyline
 62
250
  6
CONTINUOUS
 90
5
 70
0
 10
82.6267842237
 20
134.1910346589
 10
82.615095923
 20
134.1872400135
 10
82.6029508648
 20
134.18198317
 10
82.5904243229
 20
134.1752911443
 10
82.5775775975
 20
134.167191863
  0
LINE
  5
2A9
100
AcDbEntity
  8
RACCORDO
100
AcDbLine
 62
7
  6
CONTINUOUS
 10
75.537768125
 20
85.88117
 11
75.687768125
 21
85.88117
  0
LWPOLYLINE
  5
2AA
100
AcDbEntity
  8
0
100
AcDbPolyline
 62
250
  6
CONTINUOUS
 90
5
 70
0
 10
82.626758869
 20
81.5713121239
 10
82.6150286178
 20
81.5751255615
 10
82.6028516836
 20
81.5804049002
 10
82.5902998975
 20
81.5871214385
 10
82.5774481981
 20
81.595235808
  0
LWPOLYLINE
  5
2AB
100
AcDbEntity
  8
ASSI
100
AcDbPolyline
 62
250
  6
CONTINUOUS
 90
5
 70
0
 10
82.626758869
 20
81.5713121239
 10
82.6150286178
 20
81.5751255615
 10
82.6028516836
 20
81.5804049002
 10
82.5902998975
 20
81.5871214385
 10
82.5774481981
 20
81.595235808
  0
LWPOLYLINE
  5
2AC
100
AcDbEntity
  8
0
100
AcDbPolyline
 62
250
  6
CONTINUOUS
 90
4
 70
0
 10
82.5775775975
 20
134.167191863
 10
82.5644782618
 20
134.1577219518
 10
82.5512003772
 20
134.1469290711
 10
82.5378173572
 20
134.1348673817
  0
LWPOLYLINE
  5
2AD
100
AcDbEntity
  8
ASSI
100
AcDbPolyline
 62
250
  6
CONTINUOUS
 90
4
 70
0
 10
82.5775775975
 20
134.167191863
 10
82.5644782618
 20
134.1577219518
 10
82.5512003772
 20
134.1469290711
 10
82.5378173572
 20
134.1348673817
  0
LINE
  5
2AE
100
AcDbEntity
  8
RACCORDO
100
AcDbLine
 62
250
  6
CONTINUOUS
 10
75.537768125
 20
87.88117
 11
75.687768125
 21
87.88117
  0
LWPOLYLINE
  5
2AF
100
AcDbEntity
  8
0
100
AcDbPolyline
 62
250
  6
CONTINUOUS
 90
4
 70
0
 10
82.5774481981
 20
81.595235808
 10
82.5643697511
 20
81.6047014379
 10
82.5511350503
 20
81.6154669389
 10
82.5378173572
 20
81.6274726183
  0
LWPOLYLINE
  5
2B0
100
AcDbEntity
  8
ASSI
100
AcDbPolyline
 62
250
  6
CONTINUOUS
 90
4
 70
0
 10
82.5774481981
 20
81.595235808
 10
82.5643697511
 20
81.6047014379
 10
82.5511350503
 20
81.6154669389
 10
82.5378173572
 20
81.6274726183
  0
LINE
  5
2B1
100
AcDbEntity
  8
0
100
AcDbLine
 62
7
  6
CONTINUOUS
 10
80.237768125
 20
132.93117
 11
80.387768125
 21
133.08117
  0
LINE
  5
2B2
100
AcDbEntity
  8
ASSI
100
AcDbLine
 62
7
  6
CONTINUOUS
 10
80.237768125
 20
132.93117
 11
80.387768125
 21
133.08117
  0
LINE
  5
2B3
100
AcDbEntity
  8
0
100
AcDbLine
 62
7
  6
CONTINUOUS
 10
80.737768125
 20
132.93117
 11
80.887768125
 21
133.08117
  0
LINE
  5
2B4
100
AcDbEntity
  8
ASSI
100
AcDbLine
 62
7
  6
CONTINUOUS
 10
80.737768125
 20
132.93117
 11
80.887768125
 21
133.08117
  0
LINE
  5
2B5
100
AcDbEntity
  8
0
100
AcDbLine
 62
7
  6
CONTINUOUS
 10
80.237768125
 20
82.83117
 11
80.387768125
 21
82.68117
  0
LINE
  5
2B6
100
AcDbEntity
  8
ASSI
100
AcDbLine
 62
7
  6
CONTINUOUS
 10
80.237768125
 20
82.83117
 11
80.387768125
 21
82.68117
  0
LINE
  5
2B7
100
AcDbEntity
  8
0
100
AcDbLine
 62
7
  6
CONTINUOUS
 10
80.737768125
 20
82.83117
 11
80.887768125
 21
82.68117
  0
LINE
  5
2B8
100
AcDbEntity
  8
ASSI
100
AcDbLine
 62
7
  6
CONTINUOUS
 10
80.737768125
 20
82.83117
 11
80.887768125
 21
82.68117
  0
LWPOLYLINE
  5
2B9
100
AcDbEntity
  8
0
100
AcDbPolyline
 62
250
  6
CONTINUOUS
 90
8
 70
0
 10
81.1088078801
 20
134.95715171
 10
81.117214982
 20
134.9676637698
 10
81.1252878339
 20
134.9770120381
 10
81.1328187296
 20
134.9848581746
 10
81.1395337853
 20
134.9908471559
 10
81.1452935158
 20
134.9948058195
 10
81.1500402298
 20
134.9966292883
 10
81.1536743587
 20
134.9961857961
  0
LWPOLYLINE
  5
2BA
100
AcDbEntity
  8
ASSI
100
AcDbPolyline
 62
250
  6
CONTINUOUS
 90
8
 70
0
 10
81.1088078801
 20
134.95715171
 10
81.117214982
 20
134.9676637698
 10
81.1252878339
 20
134.9770120381
 10
81.1328187296
 20
134.9848581746
 10
81.1395337853
 20
134.9908471559
 10
81.1452935158
 20
134.9948058195
 10
81.1500402298
 20
134.9966292883
 10
81.1536743587
 20
134.9961857961
  0
LWPOLYLINE
  5
2BB
100
AcDbEntity
  8
0
100
AcDbPolyline
 62
250
  6
CONTINUOUS
 90
9
 70
0
 10
81.1074345659
 20
80.8069163593
 10
81.1147739573
 20
80.7976059692
 10
81.1218981929
 20
80.7891017471
 10
81.1287311511
 20
80.7815701344
 10
81.1351300434
 20
80.775249456
 10
81.1409348834
 20
80.7703739551
 10
81.1460262961
 20
80.7671245912
 10
81.1503097849
 20
80.765662289
 10
81.1536743587
 20
80.7661542039
  0
LWPOLYLINE
  5
2BC
100
AcDbEntity
  8
ASSI
100
AcDbPolyline
 62
250
  6
CONTINUOUS
 90
9
 70
0
 10
81.1074345659
 20
80.8069163593
 10
81.1147739573
 20
80.7976059692
 10
81.1218981929
 20
80.7891017471
 10
81.1287311511
 20
80.7815701344
 10
81.1351300434
 20
80.775249456
 10
81.1409348834
 20
80.7703739551
 10
81.1460262961
 20
80.7671245912
 10
81.1503097849
 20
80.765662289
 10
81.1536743587
 20
80.7661542039
  0
LWPOLYLINE
  5
2BD
100
AcDbEntity
  8
0
100
AcDbPolyline
 62
7
  6
CONTINUOUS
 90
3
 70
0
 43
0.3500000006
 10
89.3380314331
 20
171.9168880005
 10
89.2666002502
 20
171.7026035156
 10
89.1237378845
 20
171.4168787842
  0
LWPOLYLINE
  5
2BE
100
AcDbEntity
  8
0
100
AcDbPolyline
 62
250
  6
CONTINUOUS
 90
12
 70
0
 10
81.0135407087
 20
134.8088492439
 10
81.0220266392
 20
134.8235770692
 10
81.0305988095
 20
134.8382019239
 10
81.0392249179
 20
134.8526566229
 10
81.0478134467
 20
134.8667832845
 10
81.0563857937
 20
134.8806023488
 10
81.0650669778
 20
134.8942786279
 10
81.0738082466
 20
134.9076987108
 10
81.0825440324
 20
134.9207333195
 10
81.0913411659
 20
134.9334368582
 10
81.1001459031
 20
134.9456688993
 10
81.1088078801
 20
134.95715171
  0
LWPOLYLINE
  5
2BF
100
AcDbEntity
  8
ASSI
100
AcDbPolyline
 62
250
  6
CONTINUOUS
 90
12
 70
0
 10
81.0135407087
 20
134.8088492439
 10
81.0220266392
 20
134.8235770692
 10
81.0305988095
 20
134.8382019239
 10
81.0392249179
 20
134.8526566229
 10
81.0478134467
 20
134.8667832845
 10
81.0563857937
 20
134.8806023488
 10
81.0650669778
 20
134.8942786279
 10
81.0738082466
 20
134.9076987108
 10
81.0825440324
 20
134.9207333195
 10
81.0913411659
 20
134.9334368582
 10
81.1001459031
 20
134.9456688993
 10
81.1088078801
 20
134.95715171
  0
LWPOLYLINE
  5
2C0
100
AcDbEntity
  8
0
100
AcDbPolyline
 62
250
  6
CONTINUOUS
 90
14
 70
0
 10
81.0135407087
 20
80.9534907561
 10
81.0201902623
 20
80.941911847
 10
81.0269673062
 20
80.930269265
 10
81.033855384
 20
80.9186023778
 10
81.0408011856
 20
80.9070088528
 10
81.0478199453
 20
80.8954762191
 10
81.0549916922
 20
80.8838972568
 10
81.0623006
 20
80.8723219864
 10
81.0696992989
 20
80.8608457992
 10
81.0772072912
 20
80.8494651532
 10
81.0847800607
 20
80.8382791884
 10
81.0923616631
 20
80.827404339
 10
81.0999365152
 20
80.8169022992
 10
81.1074345659
 20
80.8069163593
  0
LWPOLYLINE
  5
2C1
100
AcDbEntity
  8
ASSI
100
AcDbPolyline
 62
250
  6
CONTINUOUS
 90
14
 70
0
 10
81.0135407087
 20
80.9534907561
 10
81.0201902623
 20
80.941911847
 10
81.0269673062
 20
80.930269265
 10
81.033855384
 20
80.9186023778
 10
81.0408011856
 20
80.9070088528
 10
81.0478199453
 20
80.8954762191
 10
81.0549916922
 20
80.8838972568
 10
81.0623006
 20
80.8723219864
 10
81.0696992989
 20
80.8608457992
 10
81.0772072912
 20
80.8494651532
 10
81.0847800607
 20
80.8382791884
 10
81.0923616631
 20
80.827404339
 10
81.0999365152
 20
80.8169022992
 10
81.1074345659
 20
80.8069163593
  0
LWPOLYLINE
  5
2C2
100
AcDbEntity
  8
0
100
AcDbPolyline
 62
7
  6
CONTINUOUS
 90
3
 70
0
 43
0.3500000006
 10
88.2366715393
 20
161.9168849487
 10
88.1652494202
 20
161.7026004639
 10
88.0223870544
 20
161.4168757324
  0
LWPOLYLINE
  5
2C3
100
AcDbEntity
  8
0
100
AcDbPolyline
 62
7
  6
CONTINUOUS
 90
3
 70
0
 10
83.075093182
 20
133.8848706768
 10
83.0681813423
 20
133.8717871056
 10
83.05990921
 20
133.8577317175
  0
LWPOLYLINE
  5
2C4
100
AcDbEntity
  8
ASSI
100
AcDbPolyline
 62
7
  6
CONTINUOUS
 90
3
 70
0
 10
83.075093182
 20
133.8848706768
 10
83.0681813423
 20
133.8717871056
 10
83.05990921
 20
133.8577317175
  0
LWPOLYLINE
  5
2C5
100
AcDbEntity
  8
0
100
AcDbPolyline
 62
7
  6
CONTINUOUS
 90
7
 70
0
 10
83.05990921
 20
81.9046082825
 10
83.068180675
 20
81.8905538857
 10
83.0750923153
 20
81.8774709091
 10
83.0805678205
 20
81.865359353
 10
83.0845407572
 20
81.8542192172
 10
83.0869555035
 20
81.8440505018
 10
83.087768125
 20
81.8348532068
  0
LWPOLYLINE
  5
2C6
100
AcDbEntity
  8
ASSI
100
AcDbPolyline
 62
7
  6
CONTINUOUS
 90
7
 70
0
 10
83.05990921
 20
81.9046082825
 10
83.068180675
 20
81.8905538857
 10
83.0750923153
 20
81.8774709091
 10
83.0805678205
 20
81.865359353
 10
83.0845407572
 20
81.8542192172
 10
83.0869555035
 20
81.8440505018
 10
83.087768125
 20
81.8348532068
  0
LINE
  5
2C7
100
AcDbEntity
  8
0
100
AcDbLine
 62
250
  6
CONTINUOUS
 10
76.2286126663
 20
75.9980546027
 11
76.2202070661
 21
76.056245883
  0
LWPOLYLINE
  5
2C8
100
AcDbEntity
  8
0
100
AcDbPolyline
 62
250
  6
CONTINUOUS
 90
33
 70
0
 10
76.2202070661
 20
76.056245883
 10
76.2124349801
 20
76.112700914
 10
76.2088216278
 20
76.1402534319
 10
76.2054069165
 20
76.1673506899
 10
76.2021954699
 20
76.1940205638
 10
76.1991900268
 20
76.2202984168
 10
76.196393326
 20
76.2462196122
 10
76.1938081062
 20
76.271819513
 10
76.1908787506
 20
76.3034160925
 10
76.1882930726
 20
76.3346028742
 10
76.1860600311
 20
76.3654168281
 10
76.1841885853
 20
76.3958949243
 10
76.182688451
 20
76.426076324
 10
76.1815723711
 20
76.4560089551
 10
76.1808538452
 20
76.4857429366
 10
76.180546373
 20
76.5153283878
 10
76.1806646616
 20
76.5448087174
 10
76.1812282475
 20
76.5742004923
 10
76.182257875
 20
76.603513569
 10
76.1837742881
 20
76.6327578039
 10
76.1857986929
 20
76.6619403963
 10
76.1883541427
 20
76.6910579176
 10
76.1914641531
 20
76.7201042818
 10
76.1951522392
 20
76.7490734031
 10
76.1994407204
 20
76.7779585983
 10
76.204347131
 20
76.806750795
 10
76.2098878092
 20
76.8354403232
 10
76.2160790934
 20
76.8640175132
 10
76.2215190405
 20
76.8867896833
 10
76.2274392228
 20
76.9094656158
 10
76.2338930312
 20
76.9320271582
 10
76.2409338568
 20
76.9544561579
 10
76.2486150904
 20
76.9767344625
  0
LINE
  5
2C9
100
AcDbEntity
  8
SMUSSO
100
AcDbLine
 62
7
  6
CONTINUOUS
 10
72.537768125
 20
63.88117
 11
72.537768125
 21
151.88117
  0
LINE
  5
2CA
100
AcDbEntity
  8
SMUSSO
100
AcDbLine
 62
7
  6
CONTINUOUS
 10
73.537768125
 20
62.88117
 11
73.537768125
 21
152.88117
  0
LINE
  5
2CB
100
AcDbEntity
  8
SMUSSO
100
AcDbLine
 62
7
  6
CONTINUOUS
 10
75.037768125
 20
152.88117
 11
75.037768125
 21
62.88117
  0
LINE
  5
2CC
100
AcDbEntity
  8
0
100
AcDbLine
 62
7
  6
CONTINUOUS
 10
78.5946254338
 20
64.4036964996
 11
78.5885656839
 21
64.5457040302
  0
LINE
  5
2CD
100
AcDbEntity
  8
ASSI
100
AcDbLine
 62
7
  6
CONTINUOUS
 10
78.5946254338
 20
64.4036964996
 11
78.5885656839
 21
64.5457040302
  0
LINE
  5
2CE
100
AcDbEntity
  8
0
100
AcDbLine
 62
7
  6
CONTINUOUS
 10
78.5996208458
 20
64.2654958603
 11
78.5946254338
 21
64.4036964996
  0
LINE
  5
2CF
100
AcDbEntity
  8
ASSI
100
AcDbLine
 62
7
  6
CONTINUOUS
 10
78.5996208458
 20
64.2654958603
 11
78.5946254338
 21
64.4036964996
  0
LWPOLYLINE
  5
2D0
100
AcDbEntity
  8
0
100
AcDbPolyline
 62
250
  6
CONTINUOUS
 90
56
 70
0
 10
77.0516183892
 20
76.6065186559
 10
77.0512477995
 20
76.6181937491
 10
77.0506643108
 20
76.6296487791
 10
77.0498707353
 20
76.6408802062
 10
77.0488698848
 20
76.6518844908
 10
77.0476645713
 20
76.6626580933
 10
77.0462576069
 20
76.673197474
 10
77.0446518034
 20
76.6834990933
 10
77.042849973
 20
76.6935594115
 10
77.0408533122
 20
76.7033772548
 10
77.0386565567
 20
76.7129609116
 10
77.0362528271
 20
76.7223210362
 10
77.0336352436
 20
76.7314682828
 10
77.0307969267
 20
76.7404133055
 10
77.0277309969
 20
76.7491667587
 10
77.0244305746
 20
76.7577392965
 10
77.0208887801
 20
76.7661415732
 10
77.0175314198
 20
76.7734737792
 10
77.0139676563
 20
76.7806743863
 10
77.0101872361
 20
76.787737905
 10
77.0061799054
 20
76.7946588455
 10
77.0019354108
 20
76.8014317181
 10
76.9974434984
 20
76.8080510333
 10
76.9926939147
 20
76.8145113013
 10
76.9876764061
 20
76.8208070325
 10
76.9823807188
 20
76.8269327373
 10
76.9773706996
 20
76.8322960656
 10
76.9721340748
 20
76.8375138471
 10
76.9666778693
 20
76.8425827028
 10
76.9610091077
 20
76.8474992542
 10
76.9551348145
 20
76.8522601222
 10
76.9490629119
 20
76.8568619077
 10
76.9428049117
 20
76.8613011293
 10
76.9363732229
 20
76.8655742853
 10
76.9297802549
 20
76.8696778739
 10
76.9230384167
 20
76.8736083935
 10
76.9161570911
 20
76.8773634777
 10
76.9091335556
 20
76.8809453032
 10
76.9019620612
 20
76.8843571818
 10
76.8946368588
 20
76.8876024256
 10
76.8871521994
 20
76.8906843467
 10
76.8795039271
 20
76.8936051525
 10
76.8716942581
 20
76.8963626324
 10
76.8637270017
 20
76.8989534712
 10
76.8556059672
 20
76.9013743538
 10
76.8473349637
 20
76.9036219648
 10
76.8389170213
 20
76.9056917271
 10
76.8303520525
 20
76.9075740151
 10
76.8216391904
 20
76.9092579413
 10
76.8127775681
 20
76.9107326179
 10
76.8037663189
 20
76.9119871575
 10
76.794604576
 20
76.9130106723
 10
76.7852914724
 20
76.9137922749
 10
76.7758261413
 20
76.9143210776
 10
76.766207716
 20
76.9145861928
 10
76.7564353296
 20
76.9145767328
  0
LINE
  5
2D1
100
AcDbEntity
  8
SMUSSO
100
AcDbLine
 62
7
  6
CONTINUOUS
 10
75.537768125
 20
152.38117
 11
75.537768125
 21
63.38117
  0
LINE
  5
2D2
100
AcDbEntity
  8
0
100
AcDbLine
 62
7
  6
CONTINUOUS
 10
75.687768125
 20
63.5305503117
 11
75.687768125
 21
152.2317896883
  0
LINE
  5
2D3
100
AcDbEntity
  8
ASSI
100
AcDbLine
 62
7
  6
CONTINUOUS
 10
75.687768125
 20
63.5305503117
 11
75.687768125
 21
152.2317896883
  0
LINE
  5
2D4
100
AcDbEntity
  8
0
100
AcDbLine
 62
250
  6
CONTINUOUS
 10
76.206302125
 20
71.720029
 11
76.206302125
 21
72.116601
  0
LINE
  5
2D5
100
AcDbEntity
  8
0
100
AcDbLine
 62
250
  6
CONTINUOUS
 10
76.206416125
 20
75.298682
 11
76.206416125
 21
74.915046
  0
LINE
  5
2D6
100
AcDbEntity
  8
0
100
AcDbLine
 62
250
  6
CONTINUOUS
 10
76.206416125
 20
74.079204
 11
76.206416125
 21
73.686834
  0
LINE
  5
2D7
100
AcDbEntity
  8
0
100
AcDbLine
 62
250
  6
CONTINUOUS
 10
76.206416125
 20
72.897878
 11
76.206416125
 21
72.501634
  0
LINE
  5
2D8
100
AcDbEntity
  8
0
100
AcDbLine
 62
250
  6
CONTINUOUS
 10
76.206416125
 20
71.57286
 11
76.206416125
 21
71.176559
  0
LINE
  5
2D9
100
AcDbEntity
  8
0
100
AcDbLine
 62
250
  6
CONTINUOUS
 10
76.206416125
 20
70.441206
 11
76.206416125
 21
70.010406
  0
LINE
  5
2DA
100
AcDbEntity
  8
0
100
AcDbLine
 62
250
  6
CONTINUOUS
 10
77.0516183892
 20
76.3798815031
 11
77.0516183892
 21
76.6065186559
  0
LINE
  5
2DB
100
AcDbEntity
  8
0
100
AcDbLine
 62
250
  6
CONTINUOUS
 10
77.3627672085
 20
76.6056638515
 11
77.3627672085
 21
76.3930312449
  0
LINE
  5
2DC
100
AcDbEntity
  8
0
100
AcDbLine
 62
250
  6
CONTINUOUS
 10
77.433502125
 20
75.281643
 11
77.433502125
 21
74.901953
  0
LINE
  5
2DD
100
AcDbEntity
  8
0
100
AcDbLine
 62
250
  6
CONTINUOUS
 10
77.726985125
 20
74.820832
 11
77.726985125
 21
75.360898
  0
LINE
  5
2DE
100
AcDbEntity
  8
0
100
AcDbLine
 62
250
  6
CONTINUOUS
 10
78.106261871
 20
77.3817835504
 11
78.106261871
 21
77.0003270653
  0
LINE
  5
2DF
100
AcDbEntity
  8
0
100
AcDbLine
 62
250
  6
CONTINUOUS
 10
78.106261871
 20
76.3930312449
 11
78.106261871
 21
75.9980546027
  0
LINE
  5
2E0
100
AcDbEntity
  8
0
100
AcDbLine
 62
250
  6
CONTINUOUS
 10
78.106262125
 20
72.116601
 11
78.106262125
 21
71.720029
  0
LINE
  5
2E1
100
AcDbEntity
  8
0
100
AcDbLine
 62
250
  6
CONTINUOUS
 10
78.106262125
 20
70.612694
 11
78.106262125
 21
70.962174
  0
LINE
  5
2E2
100
AcDbEntity
  8
0
100
AcDbLine
 62
250
  6
CONTINUOUS
 10
78.106262125
 20
72.330089
 11
78.106262125
 21
72.709479
  0
LINE
  5
2E3
100
AcDbEntity
  8
0
100
AcDbLine
 62
250
  6
CONTINUOUS
 10
78.106262125
 20
73.260287
 11
78.106262125
 21
73.315906
  0
LINE
  5
2E4
100
AcDbEntity
  8
0
100
AcDbLine
 62
250
  6
CONTINUOUS
 10
78.106262125
 20
73.868908
 11
78.106262125
 21
74.256861
  0
LINE
  5
2E5
100
AcDbEntity
  8
0
100
AcDbLine
 62
250
  6
CONTINUOUS
 10
78.106262125
 20
74.319133
 11
78.106262125
 21
74.711403
  0
LINE
  5
2E6
100
AcDbEntity
  8
0
100
AcDbLine
 62
250
  6
CONTINUOUS
 10
78.106262125
 20
75.463631
 11
78.106262125
 21
75.881602
  0
LWPOLYLINE
  5
2E7
100
AcDbEntity
  8
0
100
AcDbPolyline
 62
7
  6
CONTINUOUS
 90
16
 70
0
 10
78.6034703401
 20
151.6284353624
 10
78.6048955421
 20
151.6910871818
 10
78.6059875762
 20
151.7511655332
 10
78.6067194105
 20
151.8083378102
 10
78.6070814669
 20
151.8623043288
 10
78.6070814657
 20
151.9127994441
 10
78.6067194071
 20
151.9595688506
 10
78.6059875704
 20
152.0023803816
 10
78.604895534
 20
152.0410073038
 10
78.6034703315
 20
152.0752383709
 10
78.6017079873
 20
152.1048919776
 10
78.5996185268
 20
152.1298391932
 10
78.5972507127
 20
152.1499748089
 10
78.5946235921
 20
152.1651919392
 10
78.5917268404
 20
152.1753978144
 10
78.5885656839
 20
152.1805319529
  0
LWPOLYLINE
  5
2E8
100
AcDbEntity
  8
ASSI
100
AcDbPolyline
 62
7
  6
CONTINUOUS
 90
16
 70
0
 10
78.6034703401
 20
151.6284353624
 10
78.6048955421
 20
151.6910871818
 10
78.6059875762
 20
151.7511655332
 10
78.6067194105
 20
151.8083378102
 10
78.6070814669
 20
151.8623043288
 10
78.6070814657
 20
151.9127994441
 10
78.6067194071
 20
151.9595688506
 10
78.6059875704
 20
152.0023803816
 10
78.604895534
 20
152.0410073038
 10
78.6034703315
 20
152.0752383709
 10
78.6017079873
 20
152.1048919776
 10
78.5996185268
 20
152.1298391932
 10
78.5972507127
 20
152.1499748089
 10
78.5946235921
 20
152.1651919392
 10
78.5917268404
 20
152.1753978144
 10
78.5885656839
 20
152.1805319529
  0
LINE
  5
2E9
100
AcDbEntity
  8
0
100
AcDbLine
 62
7
  6
CONTINUOUS
 10
78.5996185263
 20
151.4967734899
 11
78.6034703401
 21
151.6284353624
  0
LINE
  5
2EA
100
AcDbEntity
  8
ASSI
100
AcDbLine
 62
7
  6
CONTINUOUS
 10
78.5996185263
 20
151.4967734899
 11
78.6034703401
 21
151.6284353624
  0
LINE
  5
2EB
100
AcDbEntity
  8
0
100
AcDbLine
 62
7
  6
CONTINUOUS
 10
78.5946235865
 20
151.3585958956
 11
78.5996185263
 21
151.4967734899
  0
LINE
  5
2EC
100
AcDbEntity
  8
ASSI
100
AcDbLine
 62
7
  6
CONTINUOUS
 10
78.5946235865
 20
151.3585958956
 11
78.5996185263
 21
151.4967734899
  0
LINE
  5
2ED
100
AcDbEntity
  8
0
100
AcDbLine
 62
7
  6
CONTINUOUS
 10
78.5885656839
 20
151.2166359698
 11
78.5946235865
 21
151.3585958956
  0
LINE
  5
2EE
100
AcDbEntity
  8
ASSI
100
AcDbLine
 62
7
  6
CONTINUOUS
 10
78.5885656839
 20
151.2166359698
 11
78.5946235865
 21
151.3585958956
  0
LINE
  5
2EF
100
AcDbEntity
  8
0
100
AcDbLine
 62
7
  6
CONTINUOUS
 10
78.587768125
 20
151.1813223048
 11
78.587768125
 21
64.5810176952
  0
LINE
  5
2F0
100
AcDbEntity
  8
ASSI
100
AcDbLine
 62
7
  6
CONTINUOUS
 10
78.587768125
 20
151.1813223048
 11
78.587768125
 21
64.5810176952
  0
LINE
  5
2F1
100
AcDbEntity
  8
0
100
AcDbLine
 62
7
  6
CONTINUOUS
 10
80.087768125
 20
150.98117
 11
80.087768125
 21
64.78117
  0
LINE
  5
2F2
100
AcDbEntity
  8
ASSI
100
AcDbLine
 62
7
  6
CONTINUOUS
 10
80.087768125
 20
150.98117
 11
80.087768125
 21
64.78117
  0
LINE
  5
2F3
100
AcDbEntity
  8
0
100
AcDbLine
 62
250
  6
CONTINUOUS
 10
81.0136053283
 20
80.7310405614
 11
81.0135407087
 21
80.9534907561
  0
LINE
  5
2F4
100
AcDbEntity
  8
ASSI
100
AcDbLine
 62
250
  6
CONTINUOUS
 10
81.0136053283
 20
80.7310405614
 11
81.0135407087
 21
80.9534907561
  0
LINE
  5
2F5
100
AcDbEntity
  8
0
100
AcDbLine
 62
250
  6
CONTINUOUS
 10
81.0135407087
 20
134.8088492439
 11
81.0136053232
 21
135.0301557411
  0
LINE
  5
2F6
100
AcDbEntity
  8
ASSI
100
AcDbLine
 62
250
  6
CONTINUOUS
 10
81.0135407087
 20
134.8088492439
 11
81.0136053232
 21
135.0301557411
  0
LWPOLYLINE
  5
2F7
100
AcDbEntity
  8
0
100
AcDbPolyline
 62
7
  6
CONTINUOUS
 90
5
 70
0
 10
83.087768125
 20
133.9274867932
 10
83.0869556427
 20
133.9182904894
 10
83.0845411998
 20
133.9081223687
 10
83.0805685605
 20
133.8969824312
 10
83.075093182
 20
133.8848706768
  0
LWPOLYLINE
  5
2F8
100
AcDbEntity
  8
ASSI
100
AcDbPolyline
 62
7
  6
CONTINUOUS
 90
5
 70
0
 10
83.087768125
 20
133.9274867932
 10
83.0869556427
 20
133.9182904894
 10
83.0845411998
 20
133.9081223687
 10
83.0805685605
 20
133.8969824312
 10
83.075093182
 20
133.8848706768
  0
LWPOLYLINE
  5
2F9
100
AcDbEntity
  8
0
100
AcDbPolyline
 62
250
  6
CONTINUOUS
 90
24
 70
0
 10
76.5188888415
 20
76.6905501103
 10
76.5173011998
 20
76.6759405143
 10
76.515927241
 20
76.6613151516
 10
76.5147664759
 20
76.6466756611
 10
76.5138184154
 20
76.6320236814
 10
76.5130825705
 20
76.6173608516
 10
76.512558452
 20
76.6026888105
 10
76.5122455709
 20
76.5880091969
 10
76.5121447547
 20
76.575158953
 10
76.5122053172
 20
76.5623013136
 10
76.5124272827
 20
76.5494334258
 10
76.5128106758
 20
76.5365524371
 10
76.5133561543
 20
76.5236549815
 10
76.5140669107
 20
76.51073564
 10
76.5149467708
 20
76.4977884801
 10
76.5159995603
 20
76.4848075696
 10
76.5172272392
 20
76.4717889441
 10
76.5186243036
 20
76.4587365118
 10
76.5201833836
 20
76.4456561489
 10
76.5218971092
 20
76.4325537316
 10
76.5237569018
 20
76.4194326432
 10
76.525749347
 20
76.406286296
 10
76.5278598214
 20
76.3931056095
 10
76.5300737018
 20
76.3798815031
  0
LWPOLYLINE
  5
2FA
100
AcDbEntity
  8
0
100
AcDbPolyline
 62
250
  6
CONTINUOUS
 90
3
 70
0
 10
82.5379163777
 20
134.2181752859
 10
82.5378737236
 20
134.2215918694
 10
82.5378173572
 20
134.2227338603
  0
LWPOLYLINE
  5
2FB
100
AcDbEntity
  8
ASSI
100
AcDbPolyline
 62
250
  6
CONTINUOUS
 90
3
 70
0
 10
82.5379163777
 20
134.2181752859
 10
82.5378737236
 20
134.2215918694
 10
82.5378173572
 20
134.2227338603
  0
LINE
  5
2FC
100
AcDbEntity
  8
0
100
AcDbLine
 62
250
  6
CONTINUOUS
 10
82.5379593562
 20
134.2046390471
 11
82.5379163777
 21
134.2181752859
  0
LINE
  5
2FD
100
AcDbEntity
  8
ASSI
100
AcDbLine
 62
250
  6
CONTINUOUS
 10
82.5379593562
 20
134.2046390471
 11
82.5379163777
 21
134.2181752859
  0
LINE
  5
2FE
100
AcDbEntity
  8
0
100
AcDbLine
 62
250
  6
CONTINUOUS
 10
82.5379593562
 20
81.5577009529
 11
82.5378173572
 21
81.6274726183
  0
LINE
  5
2FF
100
AcDbEntity
  8
ASSI
100
AcDbLine
 62
250
  6
CONTINUOUS
 10
82.5379593562
 20
81.5577009529
 11
82.5378173572
 21
81.6274726183
  0
LINE
  5
300
100
AcDbEntity
  8
0
100
AcDbLine
 62
250
  6
CONTINUOUS
 10
82.8034689119
 20
133.2527400787
 11
82.8034689119
 21
133.2310501651
  0
LINE
  5
301
100
AcDbEntity
  8
ASSI
100
AcDbLine
 62
250
  6
CONTINUOUS
 10
82.8034689119
 20
133.2527400787
 11
82.8034689119
 21
133.2310501651
  0
LINE
  5
302
100
AcDbEntity
  8
0
100
AcDbLine
 62
250
  6
CONTINUOUS
 10
82.8034689119
 20
82.5312898349
 11
82.8034689119
 21
82.5095999213
  0
LINE
  5
303
100
AcDbEntity
  8
ASSI
100
AcDbLine
 62
250
  6
CONTINUOUS
 10
82.8034689119
 20
82.5312898349
 11
82.8034689119
 21
82.5095999213
  0
LINE
  5
304
100
AcDbEntity
  8
0
100
AcDbLine
 62
250
  6
CONTINUOUS
 10
82.8982353162
 20
133.7611566677
 11
82.8982353162
 21
133.2622167191
  0
LINE
  5
305
100
AcDbEntity
  8
ASSI
100
AcDbLine
 62
250
  6
CONTINUOUS
 10
82.8982353162
 20
133.7611566677
 11
82.8982353162
 21
133.2622167191
  0
LINE
  5
306
100
AcDbEntity
  8
0
100
AcDbLine
 62
250
  6
CONTINUOUS
 10
82.8982353162
 20
82.5001232809
 11
82.8982353162
 21
82.0011833323
  0
LINE
  5
307
100
AcDbEntity
  8
ASSI
100
AcDbLine
 62
250
  6
CONTINUOUS
 10
82.8982353162
 20
82.5001232809
 11
82.8982353162
 21
82.0011833323
  0
LINE
  5
308
100
AcDbEntity
  8
0
100
AcDbLine
 62
7
  6
CONTINUOUS
 10
83.087768125
 20
134.0335312067
 11
83.087768125
 21
133.2335312067
  0
LINE
  5
309
100
AcDbEntity
  8
ASSI
100
AcDbLine
 62
7
  6
CONTINUOUS
 10
83.087768125
 20
134.0335312067
 11
83.087768125
 21
133.2335312067
  0
LINE
  5
30A
100
AcDbEntity
  8
0
100
AcDbLine
 62
7
  6
CONTINUOUS
 10
83.087768125
 20
82.5288087933
 11
83.087768125
 21
81.7288087933
  0
LINE
  5
30B
100
AcDbEntity
  8
ASSI
100
AcDbLine
 62
7
  6
CONTINUOUS
 10
83.087768125
 20
82.5288087933
 11
83.087768125
 21
81.7288087933
  0
LINE
  5
30C
100
AcDbEntity
  8
0
100
AcDbLine
 62
250
  6
CONTINUOUS
 10
82.5378173572
 20
134.1348673817
 11
82.5379593562
 21
134.2046390471
  0
LINE
  5
30D
100
AcDbEntity
  8
ASSI
100
AcDbLine
 62
250
  6
CONTINUOUS
 10
82.5378173572
 20
134.1348673817
 11
82.5379593562
 21
134.2046390471
  0
LWPOLYLINE
  5
30E
100
AcDbEntity
  8
0
100
AcDbPolyline
 62
250
  6
CONTINUOUS
 90
4
 70
0
 10
82.5378173572
 20
81.5396061397
 10
82.5378737236
 20
81.5407481306
 10
82.5379163777
 20
81.5441647141
 10
82.5379593562
 20
81.5577009529
  0
LWPOLYLINE
  5
30F
100
AcDbEntity
  8
ASSI
100
AcDbPolyline
 62
250
  6
CONTINUOUS
 90
4
 70
0
 10
82.5378173572
 20
81.5396061397
 10
82.5378737236
 20
81.5407481306
 10
82.5379163777
 20
81.5441647141
 10
82.5379593562
 20
81.5577009529
  0
LWPOLYLINE
  5
310
100
AcDbEntity
  8
0
100
AcDbPolyline
 62
7
  6
CONTINUOUS
 90
4
 70
0
 43
0.3500000006
 10
85.1652485046
 20
163.9883076782
 10
85.1652485046
 20
164.6311611328
 10
86.6652489624
 20
164.6311611328
 10
85.8081019592
 20
161.6311783447
  0
LWPOLYLINE
  5
311
100
AcDbEntity
  8
0
100
AcDbPolyline
 62
7
  6
CONTINUOUS
 90
13
 70
0
 43
0.3500000006
 10
86.2665993347
 20
172.4883193359
 10
86.2665993347
 20
173.7740262451
 10
86.4808838196
 20
174.2025952148
 10
86.9094527893
 20
174.6311641846
 10
87.1237463379
 20
174.6311641846
 10
87.5523153076
 20
174.2025952148
 10
87.7665997925
 20
173.7740262451
 10
87.7665997925
 20
172.4883193359
 10
87.5523153076
 20
172.0597503662
 10
87.1237463379
 20
171.631163269
 10
86.9094527893
 20
171.631163269
 10
86.4808838196
 20
172.0597503662
 10
86.2665993347
 20
172.4883193359
  0
LWPOLYLINE
  5
312
100
AcDbEntity
  8
0
100
AcDbPolyline
 62
250
  6
CONTINUOUS
 90
81
 70
0
 10
76.2486150904
 20
76.9767344625
 10
76.2538527312
 20
76.9902557645
 10
76.2597888527
 20
77.0037300151
 10
76.2664287459
 20
77.0171889802
 10
76.273777702
 20
77.0306644261
 10
76.2818410123
 20
77.0441881186
 10
76.290623968
 20
77.0577918238
 10
76.3001257053
 20
77.0714870838
 10
76.3103207409
 20
77.0852045445
 10
76.3211774367
 20
77.0988546277
 10
76.3326641544
 20
77.1123477553
 10
76.3447492557
 20
77.1255943491
 10
76.3574011026
 20
77.1385048312
 10
76.3705898322
 20
77.1510015501
 10
76.3842926843
 20
77.1630545624
 10
76.3984886739
 20
77.1746458512
 10
76.4131543896
 20
77.1857556984
 10
76.4282567138
 20
77.1963575794
 10
76.4437601023
 20
77.2064232683
 10
76.4596253138
 20
77.2159239779
 10
76.4757983182
 20
77.224828676
 10
76.4922213885
 20
77.2331057696
 10
76.5088268673
 20
77.2407269735
 10
76.5255073762
 20
77.247677236
 10
76.5421456067
 20
77.2539448135
 10
76.5586474417
 20
77.2595277445
 10
76.5750115294
 20
77.2644631966
 10
76.5912597093
 20
77.2687981195
 10
76.6074006699
 20
77.2725766828
 10
76.6233904959
 20
77.2758319362
 10
76.6391721207
 20
77.278594149
 10
76.6577711187
 20
77.2812997549
 10
76.6759868617
 20
77.2833861426
 10
76.6938180801
 20
77.2849004843
 10
76.7112635043
 20
77.2858899523
 10
76.728321865
 20
77.2864017185
 10
76.7449931614
 20
77.2864778408
 10
76.7612824685
 20
77.2861399188
 10
76.7771961302
 20
77.2854044375
 10
76.7927404904
 20
77.2842878822
 10
76.8079218929
 20
77.2828067379
 10
76.8263952101
 20
77.2804686659
 10
76.8443075609
 20
77.2776245635
 10
76.861655188
 20
77.2743123126
 10
76.8784343341
 20
77.2705697949
 10
76.8946444347
 20
77.2664337713
 10
76.9102976964
 20
77.2619365188
 10
76.9254095187
 20
77.2571091935
 10
76.9399953008
 20
77.2519829514
 10
76.954069471
 20
77.2465878597
 10
76.967642572
 20
77.2409496293
 10
76.9807241755
 20
77.2350928821
 10
76.9933238529
 20
77.2290422402
 10
77.0054509869
 20
77.2228212223
 10
77.0171142041
 20
77.2164489351
 10
77.028321942
 20
77.2099433821
 10
77.0390826385
 20
77.203322567
 10
77.0527504189
 20
77.1943433535
 10
77.0656644554
 20
77.1852142275
 10
77.0778507446
 20
77.1759581808
 10
77.0893382376
 20
77.1666031181
 10
77.1001677056
 20
77.157196596
 10
77.1103828746
 20
77.147791084
 10
77.1200286918
 20
77.1384351643
 10
77.1291549887
 20
77.129161869
 10
77.1378128181
 20
77.1200003431
 10
77.1440291181
 20
77.1132184929
 10
77.15003005
 20
77.1065186814
 10
77.1558318008
 20
77.099906143
 10
77.1614375942
 20
77.0933959526
 10
77.1668532946
 20
77.0870015608
 10
77.1721082921
 20
77.0807200807
 10
77.1822244528
 20
77.0683647194
 10
77.1870609061
 20
77.0621526203
 10
77.1916230938
 20
77.0558994057
 10
77.1957826299
 20
77.0496228168
 10
77.1994582265
 20
77.0433245053
 10
77.2025846483
 20
77.0369970839
 10
77.2051137741
 20
77.0306130967
 10
77.2070017051
 20
77.0241497054
 10
77.2082043175
 20
77.0176226086
  0
LWPOLYLINE
  5
313
100
AcDbEntity
  8
0
100
AcDbPolyline
 62
250
  6
CONTINUOUS
 90
41
 70
0
 10
77.2194307492
 20
77.0176226086
 10
77.2225622715
 20
77.0250668487
 10
77.2259545779
 20
77.0323556467
 10
77.2296048793
 20
77.0394951617
 10
77.2335103868
 20
77.0464915525
 10
77.2376683113
 20
77.053350978
 10
77.2420758639
 20
77.060079597
 10
77.2467278337
 20
77.0666811957
 10
77.2516093223
 20
77.0731500693
 10
77.2567030094
 20
77.0794781402
 10
77.2619915747
 20
77.0856573308
 10
77.2674576981
 20
77.0916795637
 10
77.2730840592
 20
77.0975367611
 10
77.2800257429
 20
77.1043403312
 10
77.287160839
 20
77.110905579
 10
77.2944769585
 20
77.117243465
 10
77.3019617125
 20
77.1233649493
 10
77.3096027124
 20
77.1292809925
 10
77.3173866419
 20
77.1350011351
 10
77.325296477
 20
77.1405292386
 10
77.3333142662
 20
77.1458677449
 10
77.3414220582
 20
77.1510190959
 10
77.3496019017
 20
77.1559857332
 10
77.3599090732
 20
77.161941604
 10
77.3703160711
 20
77.1676390899
 10
77.3808381904
 20
77.1731046057
 10
77.3914907261
 20
77.1783645661
 10
77.4022884837
 20
77.183442971
 10
77.4132443101
 20
77.188354161
 10
77.4243705628
 20
77.1931100618
 10
77.4356795991
 20
77.1977225993
 10
77.447184882
 20
77.2022028191
 10
77.4589042962
 20
77.2065582476
 10
77.4708568318
 20
77.2107955311
 10
77.4830614788
 20
77.214921316
 10
77.4930200045
 20
77.2181474845
 10
77.5031649168
 20
77.2213180698
 10
77.5135090972
 20
77.2244445941
 10
77.5240654273
 20
77.2275385798
 10
77.5348467885
 20
77.2306115491
 10
77.5458621823
 20
77.2336762899
  0
LINE
  5
314
100
AcDbEntity
  8
0
100
AcDbLine
 62
7
  6
CONTINUOUS
 10
80.387768125
 20
82.68117
 11
80.537768125
 21
82.83117
  0
LINE
  5
315
100
AcDbEntity
  8
ASSI
100
AcDbLine
 62
7
  6
CONTINUOUS
 10
80.387768125
 20
82.68117
 11
80.537768125
 21
82.83117
  0
LINE
  5
316
100
AcDbEntity
  8
0
100
AcDbLine
 62
7
  6
CONTINUOUS
 10
80.387768125
 20
133.08117
 11
80.537768125
 21
132.93117
  0
LINE
  5
317
100
AcDbEntity
  8
ASSI
100
AcDbLine
 62
7
  6
CONTINUOUS
 10
80.387768125
 20
133.08117
 11
80.537768125
 21
132.93117
  0
LWPOLYLINE
  5
318
100
AcDbEntity
  8
0
100
AcDbPolyline
 62
7
  6
CONTINUOUS
 90
17
 70
0
 10
78.5885656839
 20
63.5818080471
 10
78.5917279284
 20
63.5869450494
 10
78.5946254223
 20
63.5971565887
 10
78.5972529579
 20
63.6123809657
 10
78.5996208542
 20
63.632524477
 10
78.6017101121
 20
63.6574788891
 10
78.6034720852
 20
63.6871366562
 10
78.6048967332
 20
63.7213650128
 10
78.6059881456
 20
63.759982598
 10
78.6067195583
 20
63.8027834924
 10
78.6070814516
 20
63.8495450595
 10
78.607081446
 20
63.9000327183
 10
78.6067195423
 20
63.9539888435
 10
78.6059881193
 20
64.0111434245
 10
78.6048966978
 20
64.0712004398
 10
78.6034720472
 20
64.133836577
 10
78.5996208458
 20
64.2654958603
  0
LWPOLYLINE
  5
319
100
AcDbEntity
  8
ASSI
100
AcDbPolyline
 62
7
  6
CONTINUOUS
 90
17
 70
0
 10
78.5885656839
 20
63.5818080471
 10
78.5917279284
 20
63.5869450494
 10
78.5946254223
 20
63.5971565887
 10
78.5972529579
 20
63.6123809657
 10
78.5996208542
 20
63.632524477
 10
78.6017101121
 20
63.6574788891
 10
78.6034720852
 20
63.6871366562
 10
78.6048967332
 20
63.7213650128
 10
78.6059881456
 20
63.759982598
 10
78.6067195583
 20
63.8027834924
 10
78.6070814516
 20
63.8495450595
 10
78.607081446
 20
63.9000327183
 10
78.6067195423
 20
63.9539888435
 10
78.6059881193
 20
64.0111434245
 10
78.6048966978
 20
64.0712004398
 10
78.6034720472
 20
64.133836577
 10
78.5996208458
 20
64.2654958603
  0
LINE
  5
31A
100
AcDbEntity
  8
0
100
AcDbLine
 62
250
  6
CONTINUOUS
 10
81.0135407087
 20
80.9534907561
 11
82.1130595686
 21
81.5371349711
  0
LINE
  5
31B
100
AcDbEntity
  8
ASSI
100
AcDbLine
 62
250
  6
CONTINUOUS
 10
81.0135407087
 20
80.9534907561
 11
82.1130595686
 21
81.5371349711
  0
LINE
  5
31C
100
AcDbEntity
  8
0
100
AcDbLine
 62
250
  6
CONTINUOUS
 10
82.5378173572
 20
81.6274726183
 11
83.05990921
 21
81.9046082825
  0
LINE
  5
31D
100
AcDbEntity
  8
ASSI
100
AcDbLine
 62
250
  6
CONTINUOUS
 10
82.5378173572
 20
81.6274726183
 11
83.05990921
 21
81.9046082825
  0
LINE
  5
31E
100
AcDbEntity
  8
0
100
AcDbLine
 62
7
  6
CONTINUOUS
 10
81.0877681205
 20
80.7311699976
 11
83.087768125
 21
81.7928056596
  0
LINE
  5
31F
100
AcDbEntity
  8
ASSI
100
AcDbLine
 62
7
  6
CONTINUOUS
 10
81.0877681205
 20
80.7311699976
 11
83.087768125
 21
81.7928056596
  0
LWPOLYLINE
  5
320
100
AcDbEntity
  8
0
100
AcDbPolyline
 62
250
  6
CONTINUOUS
 90
6
 70
0
 10
82.6767292863
 20
81.5746189153
 10
82.6680792835
 20
81.5709682177
 10
82.6587020152
 20
81.5688064368
 10
82.6486502816
 20
81.5681436527
 10
82.6379835911
 20
81.5689811878
 10
82.626758869
 20
81.5713121239
  0
LWPOLYLINE
  5
321
100
AcDbEntity
  8
ASSI
100
AcDbPolyline
 62
250
  6
CONTINUOUS
 90
6
 70
0
 10
82.6767292863
 20
81.5746189153
 10
82.6680792835
 20
81.5709682177
 10
82.6587020152
 20
81.5688064368
 10
82.6486502816
 20
81.5681436527
 10
82.6379835911
 20
81.5689811878
 10
82.626758869
 20
81.5713121239
  0
LINE
  5
322
100
AcDbEntity
  8
0
100
AcDbLine
 62
7
  6
CONTINUOUS
 10
81.1373962229
 20
133.0861328098
 11
83.087768125
 21
133.28117
  0
LINE
  5
323
100
AcDbEntity
  8
ASSI
100
AcDbLine
 62
7
  6
CONTINUOUS
 10
81.1373962229
 20
133.0861328098
 11
83.087768125
 21
133.28117
  0
LINE
  5
324
100
AcDbEntity
  8
0
100
AcDbLine
 62
7
  6
CONTINUOUS
 10
80.087768125
 20
133.6369898745
 11
82.8982353162
 21
133.7611566677
  0
LINE
  5
325
100
AcDbEntity
  8
ASSI
100
AcDbLine
 62
7
  6
CONTINUOUS
 10
80.087768125
 20
133.6369898745
 11
82.8982353162
 21
133.7611566677
  0
LINE
  5
326
100
AcDbEntity
  8
0
100
AcDbLine
 62
7
  6
CONTINUOUS
 10
82.5658314707
 20
133.2289763346
 11
83.087768125
 21
133.2335312067
  0
LINE
  5
327
100
AcDbEntity
  8
ASSI
100
AcDbLine
 62
7
  6
CONTINUOUS
 10
82.5658314707
 20
133.2289763346
 11
83.087768125
 21
133.2335312067
  0
LINE
  5
328
100
AcDbEntity
  8
0
100
AcDbLine
 62
7
  6
CONTINUOUS
 10
80.087768125
 20
132.93117
 11
80.237768125
 21
132.93117
  0
LINE
  5
329
100
AcDbEntity
  8
ASSI
100
AcDbLine
 62
7
  6
CONTINUOUS
 10
80.087768125
 20
132.93117
 11
80.237768125
 21
132.93117
  0
LINE
  5
32A
100
AcDbEntity
  8
0
100
AcDbLine
 62
7
  6
CONTINUOUS
 10
80.537768125
 20
132.93117
 11
80.737768125
 21
132.93117
  0
LINE
  5
32B
100
AcDbEntity
  8
ASSI
100
AcDbLine
 62
7
  6
CONTINUOUS
 10
80.537768125
 20
132.93117
 11
80.737768125
 21
132.93117
  0
LINE
  5
32C
100
AcDbEntity
  8
0
100
AcDbLine
 62
7
  6
CONTINUOUS
 10
80.087768125
 20
133.08117
 11
81.0378925039
 21
133.08117
  0
LINE
  5
32D
100
AcDbEntity
  8
ASSI
100
AcDbLine
 62
7
  6
CONTINUOUS
 10
80.087768125
 20
133.08117
 11
81.0378925039
 21
133.08117
  0
LINE
  5
32E
100
AcDbEntity
  8
0
100
AcDbLine
 62
7
  6
CONTINUOUS
 10
83.087768125
 20
134.0335312067
 11
82.9672053579
 21
134.0335312067
  0
LINE
  5
32F
100
AcDbEntity
  8
ASSI
100
AcDbLine
 62
7
  6
CONTINUOUS
 10
83.087768125
 20
134.0335312067
 11
82.9672053579
 21
134.0335312067
  0
LINE
  5
330
100
AcDbEntity
  8
0
100
AcDbLine
 62
250
  6
CONTINUOUS
 10
81.0135407087
 20
134.8088492439
 11
80.087768125
 21
134.8092674384
  0
LINE
  5
331
100
AcDbEntity
  8
ASSI
100
AcDbLine
 62
250
  6
CONTINUOUS
 10
81.0135407087
 20
134.8088492439
 11
80.087768125
 21
134.8092674384
  0
LINE
  5
332
100
AcDbEntity
  8
0
100
AcDbLine
 62
7
  6
CONTINUOUS
 10
81.087768125
 20
135.03117
 11
80.087768125
 21
135.032915331
  0
LINE
  5
333
100
AcDbEntity
  8
ASSI
100
AcDbLine
 62
7
  6
CONTINUOUS
 10
81.087768125
 20
135.03117
 11
80.087768125
 21
135.032915331
  0
LINE
  5
334
100
AcDbEntity
  8
0
100
AcDbLine
 62
250
  6
CONTINUOUS
 10
82.5378173572
 20
134.1348673817
 11
80.087768125
 21
134.1491213512
  0
LINE
  5
335
100
AcDbEntity
  8
ASSI
100
AcDbLine
 62
250
  6
CONTINUOUS
 10
82.5378173572
 20
134.1348673817
 11
80.087768125
 21
134.1491213512
  0
LINE
  5
336
100
AcDbEntity
  8
0
100
AcDbLine
 62
7
  6
CONTINUOUS
 10
82.5378173572
 20
134.2227338603
 11
80.087768125
 21
134.2369878298
  0
LINE
  5
337
100
AcDbEntity
  8
ASSI
100
AcDbLine
 62
7
  6
CONTINUOUS
 10
82.5378173572
 20
134.2227338603
 11
80.087768125
 21
134.2369878298
  0
LWPOLYLINE
  5
338
100
AcDbEntity
  8
0
100
AcDbPolyline
 62
250
  6
CONTINUOUS
 90
6
 70
0
 10
82.6767292863
 20
134.1877210847
 10
82.6680521502
 20
134.191380522
 10
82.6586588508
 20
134.1935398211
 10
82.6486057645
 20
134.1941959558
 10
82.6379634971
 20
134.193355901
 10
82.6267842237
 20
134.1910346589
  0
LWPOLYLINE
  5
339
100
AcDbEntity
  8
ASSI
100
AcDbPolyline
 62
250
  6
CONTINUOUS
 90
6
 70
0
 10
82.6767292863
 20
134.1877210847
 10
82.6680521502
 20
134.191380522
 10
82.6586588508
 20
134.1935398211
 10
82.6486057645
 20
134.1941959558
 10
82.6379634971
 20
134.193355901
 10
82.6267842237
 20
134.1910346589
  0
LINE
  5
33A
100
AcDbEntity
  8
0
100
AcDbLine
 62
250
  6
CONTINUOUS
 10
82.1130595686
 20
134.2252050289
 11
81.0135407087
 21
134.8088492439
  0
LINE
  5
33B
100
AcDbEntity
  8
ASSI
100
AcDbLine
 62
250
  6
CONTINUOUS
 10
82.1130595686
 20
134.2252050289
 11
81.0135407087
 21
134.8088492439
  0
LINE
  5
33C
100
AcDbEntity
  8
0
100
AcDbLine
 62
250
  6
CONTINUOUS
 10
83.05990921
 20
133.8577317175
 11
82.5378173572
 21
134.1348673817
  0
LINE
  5
33D
100
AcDbEntity
  8
ASSI
100
AcDbLine
 62
250
  6
CONTINUOUS
 10
83.05990921
 20
133.8577317175
 11
82.5378173572
 21
134.1348673817
  0
LINE
  5
33E
100
AcDbEntity
  8
0
100
AcDbLine
 62
7
  6
CONTINUOUS
 10
81.0877681214
 20
135.0311700019
 11
83.087768125
 21
133.9695343404
  0
LINE
  5
33F
100
AcDbEntity
  8
ASSI
100
AcDbLine
 62
7
  6
CONTINUOUS
 10
81.0877681214
 20
135.0311700019
 11
83.087768125
 21
133.9695343404
  0
LINE
  5
340
100
AcDbEntity
  8
SMUSSO
100
AcDbLine
 62
7
  6
CONTINUOUS
 10
75.537768125
 20
63.38117
 11
75.037768125
 21
62.88117
  0
LWPOLYLINE
  5
341
100
AcDbEntity
  8
0
100
AcDbPolyline
 62
250
  6
CONTINUOUS
 90
48
 70
0
 10
77.5299671381
 20
76.8268408704
 10
77.523668056
 20
76.8243937984
 10
77.5175031084
 20
76.8218427435
 10
77.5114589409
 20
76.8191851056
 10
77.5055221992
 20
76.816418284
 10
77.499679529
 20
76.8135396785
 10
77.4939175759
 20
76.8105466887
 10
77.4870965832
 20
76.8068019909
 10
77.4803831603
 20
76.8028935741
 10
77.4737878745
 20
76.7988261774
 10
77.4673212934
 20
76.7946045398
 10
77.4609939843
 20
76.7902334003
 10
77.4558340931
 20
76.7864792436
 10
77.4507774979
 20
76.7826227597
 10
77.4458234396
 20
76.7786621513
 10
77.4409728285
 20
76.774597029
 10
77.4362332519
 20
76.7704326371
 10
77.4316139664
 20
76.7661756276
 10
77.4271228903
 20
76.7618311917
 10
77.4227625876
 20
76.7573986753
 10
77.4185342842
 20
76.7528759631
 10
77.4144392055
 20
76.7482609398
 10
77.4104785774
 20
76.7435514901
 10
77.4066536256
 20
76.7387454987
 10
77.4029665223
 20
76.7338418259
 10
77.3994232264
 20
76.728843234
 10
77.3960306437
 20
76.7237534607
 10
77.3927956795
 20
76.7185762441
 10
77.3897252396
 20
76.7133153219
 10
77.3868262294
 20
76.7079744319
 10
77.3841040904
 20
76.7025582735
 10
77.3815584067
 20
76.697075392
 10
77.3791872985
 20
76.6915352939
 10
77.3769888857
 20
76.685947486
 10
77.3749612883
 20
76.6803214751
 10
77.3731026265
 20
76.6746667677
 10
77.3714106322
 20
76.668991853
 10
77.369881486
 20
76.6633011498
 10
77.3685109804
 20
76.6575980594
 10
77.3672949079
 20
76.6518859831
 10
77.3662290611
 20
76.646168322
 10
77.3653092324
 20
76.6404484775
 10
77.3645318913
 20
76.6347270259
 10
77.363896214
 20
76.628993244
 10
77.3634020539
 20
76.6232335838
 10
77.3630492641
 20
76.617434497
 10
77.3628376979
 20
76.6115824356
 10
77.3627672085
 20
76.6056638515
  0
LWPOLYLINE
  5
342
100
AcDbEntity
  8
0
100
AcDbPolyline
 62
250
  6
CONTINUOUS
 90
8
 70
0
 10
77.7099298446
 20
76.8857064654
 10
77.683329876
 20
76.8778224564
 10
77.6570081613
 20
76.8698154442
 10
77.6309770893
 20
76.861654586
 10
77.6052490485
 20
76.8533090389
 10
77.5798364274
 20
76.8447479603
 10
77.5547516147
 20
76.8359405074
 10
77.5300069989
 20
76.8268558374
  0
LINE
  5
343
100
AcDbEntity
  8
0
100
AcDbLine
 62
250
  6
CONTINUOUS
 10
78.0715773265
 20
76.9903002168
 11
77.9028390403
 21
76.9409131499
  0
LINE
  5
344
100
AcDbEntity
  8
0
100
AcDbLine
 62
250
  6
CONTINUOUS
 10
78.106261871
 20
77.0003270653
 11
78.0715773265
 21
76.9903002168
  0
LINE
  5
345
100
AcDbEntity
  8
0
100
AcDbLine
 62
250
  6
CONTINUOUS
 10
77.9028390403
 20
76.9409131499
 11
77.8373493367
 21
76.9221035061
  0
LINE
  5
346
100
AcDbEntity
  8
SMUSSO
100
AcDbLine
 62
7
  6
CONTINUOUS
 10
75.537768125
 20
152.38117
 11
75.037768125
 21
152.88117
  0
LINE
  5
347
100
AcDbEntity
  8
0
100
AcDbLine
 62
250
  6
CONTINUOUS
 10
76.865698125
 20
72.79506
 11
78.106262125
 21
73.260287
  0
LINE
  5
348
100
AcDbEntity
  8
0
100
AcDbLine
 62
250
  6
CONTINUOUS
 10
77.261216125
 20
73.290262
 11
76.206416125
 21
72.897878
  0
LINE
  5
349
100
AcDbEntity
  8
0
100
AcDbLine
 62
250
  6
CONTINUOUS
 10
78.106262125
 20
75.881602
 11
76.206416125
 21
75.298682
  0
LWPOLYLINE
  5
34A
100
AcDbEntity
  8
0
100
AcDbPolyline
 62
7
  6
CONTINUOUS
 90
10
 70
0
 43
0.3500000006
 10
88.1652494202
 20
162.1311694336
 10
88.2366715393
 20
161.9883070679
 10
88.2366715393
 20
161.9168849487
 10
88.0938182373
 20
161.774022583
 10
88.0223870544
 20
161.774022583
 10
87.9509558716
 20
161.8454628296
 10
87.9509558716
 20
161.9168849487
 10
88.0223870544
 20
162.0597473145
 10
88.0938182373
 20
162.1311694336
 10
88.1652494202
 20
162.1311694336
  0
LINE
  5
34B
100
AcDbEntity
  8
0
100
AcDbLine
 62
7
  6
CONTINUOUS
 10
78.5883217599
 20
63.5816129079
 11
80.087768125
 21
64.78117
  0
LINE
  5
34C
100
AcDbEntity
  8
ASSI
100
AcDbLine
 62
7
  6
CONTINUOUS
 10
78.5883217599
 20
63.5816129079
 11
80.087768125
 21
64.78117
  0
LINE
  5
34D
100
AcDbEntity
  8
0
100
AcDbLine
 62
250
  6
CONTINUOUS
 10
76.206416125
 20
70.010406
 11
78.106262125
 21
70.612694
  0
LINE
  5
34E
100
AcDbEntity
  8
0
100
AcDbLine
 62
7
  6
CONTINUOUS
 10
78.587768125
 20
152.18117
 11
80.087768125
 21
150.98117
  0
LINE
  5
34F
100
AcDbEntity
  8
ASSI
100
AcDbLine
 62
7
  6
CONTINUOUS
 10
78.587768125
 20
152.18117
 11
80.087768125
 21
150.98117
  0
LINE
  5
350
100
AcDbEntity
  8
RACCORDO
100
AcDbLine
 62
250
  6
CONTINUOUS
 10
75.537768125
 20
145.88117
 11
75.687768125
 21
145.88117
  0
LWPOLYLINE
  5
351
100
AcDbEntity
  8
0
100
AcDbPolyline
 62
7
  6
CONTINUOUS
 90
10
 70
0
 43
0.3500000006
 10
89.2666002502
 20
172.1311724854
 10
89.3380314331
 20
171.9883101196
 10
89.3380314331
 20
171.9168880005
 10
89.1951690674
 20
171.7740256348
 10
89.1237378845
 20
171.7740256348
 10
89.0523157654
 20
171.8454477539
 10
89.0523157654
 20
171.9168880005
 10
89.1237378845
 20
172.0597503662
 10
89.1951690674
 20
172.1311724854
 10
89.2666002502
 20
172.1311724854
  0
LINE
  5
352
100
AcDbEntity
  8
RACCORDO
100
AcDbLine
 62
7
  6
CONTINUOUS
 10
75.537768125
 20
147.88117
 11
75.687768125
 21
147.88117
  0
LINE
  5
353
100
AcDbEntity
  8
SMUSSO
100
AcDbLine
 62
250
  6
CONTINUOUS
 10
72.537768125
 20
151.88117
 11
75.537768125
 21
151.88117
  0
LINE
  5
354
100
AcDbEntity
  8
SMUSSO
100
AcDbLine
 62
7
  6
CONTINUOUS
 10
73.537768125
 20
152.88117
 11
75.037768125
 21
152.88117
  0
LWPOLYLINE
  5
355
100
AcDbEntity
  8
0
100
AcDbPolyline
 62
7
  6
CONTINUOUS
 90
8
 70
0
 43
0.3500000006
 10
89.2366718445
 20
161.6311783447
 10
90.0938188477
 20
161.6311783447
 10
90.5223878174
 20
162.0597473145
 10
90.5223878174
 20
162.9168852539
 10
90.0938188477
 20
163.3454542236
 10
89.2366718445
 20
163.3454542236
 10
89.2366718445
 20
164.6311611328
 10
90.5223878174
 20
164.6311611328
  0
LWPOLYLINE
  5
356
100
AcDbEntity
  8
0
100
AcDbPolyline
 62
7
  6
CONTINUOUS
 90
8
 70
0
 43
0.3500000006
 10
91.3795348206
 20
161.6311783447
 10
92.23667276
 20
161.6311783447
 10
92.6652417297
 20
162.0597473145
 10
92.6652417297
 20
162.9168852539
 10
92.23667276
 20
163.3454542236
 10
91.3795348206
 20
163.3454542236
 10
91.3795348206
 20
164.6311611328
 10
92.6652417297
 20
164.6311611328
  0
LWPOLYLINE
  5
357
100
AcDbEntity
  8
0
100
AcDbPolyline
 62
7
  6
CONTINUOUS
 90
8
 70
0
 43
0.3500000006
 10
90.3380317383
 20
171.631163269
 10
91.1951696777
 20
171.631163269
 10
91.6237386475
 20
172.0597503662
 10
91.6237386475
 20
172.9168883057
 10
91.1951696777
 20
173.3454572754
 10
90.3380317383
 20
173.3454572754
 10
90.3380317383
 20
174.6311641846
 10
91.6237386475
 20
174.6311641846
  0
LWPOLYLINE
  5
358
100
AcDbEntity
  8
0
100
AcDbPolyline
 62
7
  6
CONTINUOUS
 90
8
 70
0
 43
0.3500000006
 10
92.4808856506
 20
171.631163269
 10
93.3380235901
 20
171.631163269
 10
93.7666016235
 20
172.0597503662
 10
93.7666016235
 20
172.9168883057
 10
93.3380235901
 20
173.3454572754
 10
92.4808856506
 20
173.3454572754
 10
92.4808856506
 20
174.6311641846
 10
93.7666016235
 20
174.6311641846
  0
LINE
  5
359
100
AcDbEntity
  8
0
100
AcDbLine
 62
250
  6
CONTINUOUS
 10
75.687768125
 20
151.2319419931
 11
78.587768125
 21
151.1813223048
  0
LINE
  5
35A
100
AcDbEntity
  8
ASSI
100
AcDbLine
 62
250
  6
CONTINUOUS
 10
75.687768125
 20
151.2319419931
 11
78.587768125
 21
151.1813223048
  0
LINE
  5
35B
100
AcDbEntity
  8
0
100
AcDbLine
 62
7
  6
CONTINUOUS
 10
75.687768125
 20
152.2317896883
 11
78.587768125
 21
152.18117
  0
LINE
  5
35C
100
AcDbEntity
  8
ASSI
100
AcDbLine
 62
7
  6
CONTINUOUS
 10
75.687768125
 20
152.2317896883
 11
78.587768125
 21
152.18117
  0
LINE
  5
35D
100
AcDbEntity
  8
0
100
AcDbLine
 62
250
  6
CONTINUOUS
 10
78.5885656839
 20
151.2166359698
 11
80.087768125
 21
150.9195732275
  0
LINE
  5
35E
100
AcDbEntity
  8
ASSI
100
AcDbLine
 62
250
  6
CONTINUOUS
 10
78.5885656839
 20
151.2166359698
 11
80.087768125
 21
150.9195732275
  0
ARC
  5
35F
100
AcDbEntity
  8
RACCORDO
100
AcDbCircle
 62
7
  6
CONTINUOUS
 10
204.9187781249
 20
129.28117
 40
1.2
100
AcDbArc
 50
0.0
 51
90.0
  0
ARC
  5
360
100
AcDbEntity
  8
RACCORDO
100
AcDbCircle
 62
7
  6
CONTINUOUS
 10
139.6187781249
 20
129.28117
 40
1.2
100
AcDbArc
 50
90.0
 51
180.0
  0
ARC
  5
361
100
AcDbEntity
  8
RACCORDO
100
AcDbCircle
 62
7
  6
CONTINUOUS
 10
139.6187781249
 20
86.48117
 40
1.2
100
AcDbArc
 50
180.0
 51
270.0
  0
ARC
  5
362
100
AcDbEntity
  8
RACCORDO
100
AcDbCircle
 62
7
  6
CONTINUOUS
 10
204.9187781249
 20
86.48117
 40
1.2
100
AcDbArc
 50
270.0
 51
360.0
  0
ARC
  5
363
100
AcDbEntity
  8
SMUSSO
100
AcDbCircle
 62
7
  6
CONTINUOUS
 10
232.2687781249
 20
63.88117
 40
1.0
100
AcDbArc
 50
270.0
 51
360.0
  0
ARC
  5
364
100
AcDbEntity
  8
SMUSSO
100
AcDbCircle
 62
7
  6
CONTINUOUS
 10
232.2687781249
 20
151.88117
 40
1.0
100
AcDbArc
 50
0.0
 51
90.0
  0
ARC
  5
365
100
AcDbEntity
  8
SMUSSO
100
AcDbCircle
 62
7
  6
CONTINUOUS
 10
112.2687781249
 20
151.88117
 40
1.0
100
AcDbArc
 50
90.0
 51
180.0
  0
ARC
  5
366
100
AcDbEntity
  8
SMUSSO
100
AcDbCircle
 62
7
  6
CONTINUOUS
 10
112.2687781249
 20
63.88117
 40
1.0
100
AcDbArc
 50
180.0
 51
270.0
  0
ARC
  5
367
100
AcDbEntity
  8
0
100
AcDbCircle
 62
7
  6
CONTINUOUS
 10
81.0378925039
 20
134.08117
 40
1.0
100
AcDbArc
 50
270.0
 51
275.7105931375
  0
ARC
  5
368
100
AcDbEntity
  8
0
100
AcDbCircle
 62
7
  6
CONTINUOUS
 10
81.0378925039
 20
81.68117
 40
1.0
100
AcDbArc
 50
84.2894068625
 51
90.0
  0
ARC
  5
369
100
AcDbEntity
  8
ASSI
100
AcDbCircle
 62
7
  6
CONTINUOUS
 10
81.0378925039
 20
134.08117
 40
1.0
100
AcDbArc
 50
270.0
 51
275.7105931375
  0
ARC
  5
36A
100
AcDbEntity
  8
ASSI
100
AcDbCircle
 62
7
  6
CONTINUOUS
 10
81.0378925039
 20
81.68117
 40
1.0
100
AcDbArc
 50
84.2894068625
 51
90.0
  0
ARC
  5
36B
100
AcDbEntity
  8
0
100
AcDbCircle
 62
7
  6
CONTINUOUS
 10
81.0130814967
 20
134.7311694712
 40
0.3
100
AcDbArc
 50
62.0510415412
 51
89.8999988061
  0
ARC
  5
36C
100
AcDbEntity
  8
0
100
AcDbCircle
 62
7
  6
CONTINUOUS
 10
81.0130814967
 20
81.0311705288
 40
0.3
100
AcDbArc
 50
270.1000011939
 51
297.9489584588
  0
ARC
  5
36D
100
AcDbEntity
  8
0
100
AcDbCircle
 62
7
  6
CONTINUOUS
 10
82.5360720378
 20
81.8396010627
 40
0.3
100
AcDbArc
 50
270.3333333333
 51
297.9601595788
  0
ARC
  5
36E
100
AcDbEntity
  8
0
100
AcDbCircle
 62
7
  6
CONTINUOUS
 10
82.5360720378
 20
133.9227389373
 40
0.3
100
AcDbArc
 50
62.0398404207
 51
89.6666666667
  0
ARC
  5
36F
100
AcDbEntity
  8
ASSI
100
AcDbCircle
 62
7
  6
CONTINUOUS
 10
81.0130814967
 20
134.7311694712
 40
0.3
100
AcDbArc
 50
62.0510415412
 51
89.8999988061
  0
ARC
  5
370
100
AcDbEntity
  8
ASSI
100
AcDbCircle
 62
7
  6
CONTINUOUS
 10
81.0130814967
 20
81.0311705288
 40
0.3
100
AcDbArc
 50
270.1000011939
 51
297.9489584588
  0
ARC
  5
371
100
AcDbEntity
  8
ASSI
100
AcDbCircle
 62
7
  6
CONTINUOUS
 10
82.5360720378
 20
81.8396010627
 40
0.3
100
AcDbArc
 50
270.3333333333
 51
297.9601595788
  0
ARC
  5
372
100
AcDbEntity
  8
ASSI
100
AcDbCircle
 62
7
  6
CONTINUOUS
 10
82.5360720378
 20
133.9227389373
 40
0.3
100
AcDbArc
 50
62.0398404207
 51
89.6666666667
  0
ELLIPSE
  5
373
100
AcDbEntity
  8
0
100
AcDbEllipse
 62
7
  6
CONTINUOUS
 10
82.887768125
 20
81.801371305
 30
0.0
 11
0.1417119467
 21
0.1422961243
 31
0.0
 40
0.9918061237
 41
-0.2491986107
 42
0.7350951877
  0
ELLIPSE
  5
374
100
AcDbEntity
  8
0
100
AcDbEllipse
 62
7
  6
CONTINUOUS
 10
82.887768125
 20
133.960968695
 30
0.0
 11
-0.1417119467
 21
0.1422961243
 31
0.0
 40
0.9918061237
 41
-3.8766878413
 42
-2.8923940429
  0
ELLIPSE
  5
375
100
AcDbEntity
  8
0
100
AcDbEllipse
 62
7
  6
CONTINUOUS
 10
79.8658446714
 20
151.1587087629
 30
0.0
 11
1.2772653435
 21
-0.0582277698
 31
0.0
 40
0.7819142031
 41
-3.1412917057
 42
-3.1059619589
  0
ELLIPSE
  5
376
100
AcDbEntity
  8
0
100
AcDbEllipse
 62
7
  6
CONTINUOUS
 10
79.8658446714
 20
64.6036312371
 30
0.0
 11
1.2772653435
 21
0.0582277698
 31
0.0
 40
0.7819142031
 41
3.1059619589
 42
3.1412917057
  0
ELLIPSE
  5
377
100
AcDbEntity
  8
ASSI
100
AcDbEllipse
 62
7
  6
CONTINUOUS
 10
82.887768125
 20
81.801371305
 30
0.0
 11
0.1417119467
 21
0.1422961243
 31
0.0
 40
0.9918061237
 41
-0.2491986107
 42
0.7350951877
  0
ELLIPSE
  5
378
100
AcDbEntity
  8
ASSI
100
AcDbEllipse
 62
7
  6
CONTINUOUS
 10
82.887768125
 20
133.960968695
 30
0.0
 11
-0.1417119467
 21
0.1422961243
 31
0.0
 40
0.9918061237
 41
-3.8766878413
 42
-2.8923940429
  0
ELLIPSE
  5
379
100
AcDbEntity
  8
ASSI
100
AcDbEllipse
 62
7
  6
CONTINUOUS
 10
79.8658446714
 20
151.1587087629
 30
0.0
 11
1.2772653435
 21
-0.0582277698
 31
0.0
 40
0.7819142031
 41
-3.1412917057
 42
-3.1059619589
  0
ELLIPSE
  5
37A
100
AcDbEntity
  8
ASSI
100
AcDbEllipse
 62
7
  6
CONTINUOUS
 10
79.8658446714
 20
64.6036312371
 30
0.0
 11
1.2772653435
 21
0.0582277698
 31
0.0
 40
0.7819142031
 41
3.1059619589
 42
3.1412917057
  0
ENDSEC
  0
SECTION
  2
OBJECTS
  0
DICTIONARY
  5
C
100
AcDbDictionary
280
0
281
1
  3
ACAD_GROUP
350
D
  3
ACAD_MLINESTYLE
350
17
  3
ACAD_LAYOUT
350
1A
  3
ACAD_PLOTSETTINGS
350
19
  3
ACAD_PLOTSTYLENAME
350
E
  0
DICTIONARY
  5
D
102
{ACAD_REACTORS
330
C
102
}
100
AcDbDictionary
280
0
281
1
  0
ACDBDICTIONARYWDFLT
  5
E
102
{ACAD_REACTORS
330
C
102
}
100
AcDbDictionary
281
1
  3
Normal
350
F
100
AcDbDictionaryWithDefault
340
F
  0
DICTIONARY
  5
17
102
{ACAD_REACTORS
330
C
102
}
100
AcDbDictionary
280
0
281
1
  3
Standard
350
18
  0
DICTIONARY
  5
19
102
{ACAD_REACTORS
330
C
102
}
100
AcDbDictionary
281
1
  0
DICTIONARY
  5
1A
102
{ACAD_REACTORS
330
C
102
}
100
AcDbDictionary
281
1
  3
Model
350
37B
  3
Layout1
350
37C
  0
ACDBPLACEHOLDER
  5
F
102
{ACAD_REACTORS
330
E
102
}
  0
MLINESTYLE
  5
18
102
{ACAD_REACTORS
330
17
102
}
100
AcDbMlineStyle
  2
STANDARD
 70
0
  3

 62
256
 51
90.0
 52
90.0
 71
2
 49
0.5
 62
256
  6
BYLAYER
 49
-0.5
 62
256
  6
BYLAYER
  0
LAYOUT
  5
37B
102
{ACAD_REACTORS
330
1A
102
}
100
AcDbPlotSettings
  1

  2
none_device
  4
ISO_A4_(297.00_x_210.00_MM)
  6

 40
0.0
 41
0.0
 42
0.0
 43
0.0
 44
297.0
 45
210.0
 46
0.0
 47
0.0
 48
0.0
 49
0.0
140
0.0
141
0.0
142
1.0
143
1.0
 70
1024
 72
1
 73
0
 74
0
  7

 75
0
147
1.0
148
0.0
149
0.0
100
AcDbLayout
  1
Model
 70
0
 71
0
 10
0.0
 20
0.0
 11
297.0
 21
210.0
 12
0.0
 22
0.0
 32
0.0
 14
0.0
 24
0.0
 34
0.0
 15
0.0
 25
0.0
 35
0.0
146
0.0
 13
0.0
 23
0.0
 33
0.0
 16
1.0
 26
0.0
 36
0.0
 17
0.0
 27
1.0
 37
0.0
 76
0
330
21C
345
0
346
0
  0
LAYOUT
  5
37C
102
{ACAD_REACTORS
330
1A
102
}
100
AcDbPlotSettings
  1

  2
none_device
  4
ISO_A4_(297.00_x_210.00_MM)
  6

 40
0.0
 41
0.0
 42
0.0
 43
0.0
 44
297.0
 45
210.0
 46
0.0
 47
0.0
 48
0.0
 49
0.0
140
0.0
141
0.0
142
1.0
143
1.0
 70
0
 72
1
 73
0
 74
0
  7

 75
0
147
1.0
148
0.0
149
0.0
100
AcDbLayout
  1
Layout1
 70
0
 71
1
 10
0.0
 20
0.0
 11
297.0
 21
210.0
 12
0.0
 22
0.0
 32
0.0
 14
0.0
 24
0.0
 34
0.0
 15
0.0
 25
0.0
 35
0.0
146
0.0
 13
0.0
 23
0.0
 33
0.0
 16
1.0
 26
0.0
 36
0.0
 17
0.0
 27
1.0
 37
0.0
 76
0
330
21D
345
0
346
0
  0
ENDSEC
  0
EOF
