  0
SECTION
  2
HEADER
  9
$ACADVER
  1
AC1021
  9
$DWGCODEPAGE
  3
ANSI_1252
  9
$EXTMAX
 10
297.0
 20
210.0
 30
0.0
  9
$EXTMIN
 10
0.0
 20
0.0
 30
0.0
  9
$LIMMIN
 10
0.0
 20
0.0
  9
$LIMMAX
 10
297.0
 20
210.0
  9
$VIEWCTR
 10
148.5
 20
105.0
  9
$VIEWSIZE
 40
210.0
  9
$CLAYER
  8
0
  9
$LTSCALE
 40
16.335
  9
$CELTYPE
  6
BYLAYER
  9
$DIMSCALE
 40
1.0
  9
$DIMASZ
 40
3.0
  9
$DIMEXO
 40
0.5
  9
$DIMDLI
 40
11.286
  9
$DIMEXE
 40
1.5
  9
$DIMCEN
 40
2.673
  9
$DIMLFAC
 40
1.0
  9
$DIMBLK
  1
_FILLED
  9
$DIMALT
 70
0
  9
$DIMALTF
 40
25.4
  9
$DIMTXT
 40
3.0
  9
$DIMTOL
 70
1
  9
$DIMLIM
 70
0
  9
$DIMTFAC
 40
1.0
  9
$DIMTP
 40
0.01
  9
$DIMTM
 40
0.01
  9
$DIMGAP
 40
0.625
  9
$DIMDSEP
 70
44
  9
$AUNITS
 70
0
  9
$PDMODE
 70
3
  9
$PDSIZE
 40
3.0
  9
$HANDSEED
  5
325
  9
$TILEMODE
 70
1
  9
$MEASUREMENT
 70
1
  9
$INSUNITS
 70
4
  0
ENDSEC
  0
SECTION
  2
CLASSES
  0
CLASS
  1
ACDBDICTIONARYWDFLT
  2
AcDbDictionaryWithDefault
  3
AutoCAD 2000
 90
0
 91
1
280
0
281
0
  0
CLASS
  1
ACDBPLACEHOLDER
  2
AcDbPlaceHolder
  3
AutoCAD 2000
 90
0
 91
1
280
0
281
0
  0
CLASS
  1
LAYOUT
  2
AcDbLayout
  3
AutoCAD 2000
 90
0
 91
0
280
0
281
0
  0
ENDSEC
  0
SECTION
  2
TABLES
  0
TABLE
  2
VPORT
  5
8
100
AcDbSymbolTable
 70
2
  0
VPORT
  5
1F4
100
AcDbSymbolTableRecord
100
AcDbViewportTableRecord
  2
*ACTIVE
 70
0
 10
0.0
 20
0.0
 11
1.0
 21
1.0
 12
148.5
 22
105.0
 13
0.0
 23
0.0
 14
1.0
 24
1.0
 15
0.0
 25
0.0
 16
0.0
 26
0.0
 36
1.0
 17
0.0
 27
0.0
 37
0.0
 40
210.0
 41
1.4142857143
 42
50.0
 43
0.0
 44
0.0
 50
0.0
 51
0.0
 71
0
 72
100
 73
1
 74
1
 75
0
 76
0
 77
0
 78
0
  0
ENDTAB
  0
TABLE
  2
LTYPE
  5
5
100
AcDbSymbolTable
 70
6
  0
LTYPE
  5
14
100
AcDbSymbolTableRecord
100
AcDbLinetypeTableRecord
  2
BYBLOCK
 70
0
  3

 72
65
 73
0
 40
0.0
  0
LTYPE
  5
15
100
AcDbSymbolTableRecord
100
AcDbLinetypeTableRecord
  2
BYLAYER
 70
0
  3

 72
65
 73
0
 40
0.0
  0
LTYPE
  5
16
100
AcDbSymbolTableRecord
100
AcDbLinetypeTableRecord
  2
CONTINUOUS
 70
64
  3
Solid line
 72
65
 73
0
 40
0.0
  0
LTYPE
  5
1F5
100
AcDbSymbolTableRecord
100
AcDbLinetypeTableRecord
  2
CENTER
 70
64
  3
____ _ ____ _ ____ _ ____ _ ____ _ ____ _ ____
 72
65
 73
4
 40
0.6
 49
0.375
 74
0
 49
-0.075
 74
0
 49
0.075
 74
0
 49
-0.075
 74
0
  0
LTYPE
  5
1F6
100
AcDbSymbolTableRecord
100
AcDbLinetypeTableRecord
  2
HIDDEN
 70
64
  3
- - - - - - - - - - - - - - - - - - - -
 72
65
 73
2
 40
0.2
 49
0.1
 74
0
 49
-0.1
 74
0
  0
LTYPE
  5
1F7
100
AcDbSymbolTableRecord
100
AcDbLinetypeTableRecord
  2
PHANTOM
 70
64
  3
_____ _ _ _____ _ _ _____ _ _ _____
 72
65
 73
6
 40
0.8
 49
0.45
 74
0
 49
-0.05
 74
0
 49
0.1
 74
0
 49
-0.05
 74
0
 49
0.1
 74
0
 49
-0.05
 74
0
  0
LTYPE
  5
1F8
100
AcDbSymbolTableRecord
100
AcDbLinetypeTableRecord
  2
DOT
 70
64
  3
. . . . . . . . . . . . . . . . . . . .
 72
65
 73
2
 40
0.2
 49
0.1
 74
0
 49
-0.1
 74
0
  0
LTYPE
  5
1F9
100
AcDbSymbolTableRecord
100
AcDbLinetypeTableRecord
  2
DASHED
 70
64
  3
- - - - - - - - - - - - - - - - - - - -
 72
65
 73
2
 40
0.2
 49
0.1
 74
0
 49
-0.1
 74
0
  0
ENDTAB
  0
TABLE
  2
LAYER
  5
2
100
AcDbSymbolTable
 70
36
  0
LAYER
  5
10
100
AcDbSymbolTableRecord
100
AcDbLayerTableRecord
  2
0
 70
0
 62
7
  6
CONTINUOUS
370
-3
390
F
  0
LAYER
  5
1FA
100
AcDbSymbolTableRecord
100
AcDbLayerTableRecord
  2
DEFAULT_1
 70
0
 62
7
  6
CENTER
370
-3
390
F
  0
LAYER
  5
1FB
100
AcDbSymbolTableRecord
100
AcDbLayerTableRecord
  2
DEFAULT_2
 70
0
 62
7
  6
HIDDEN
370
-3
390
F
  0
LAYER
  5
1FC
100
AcDbSymbolTableRecord
100
AcDbLayerTableRecord
  2
DEFAULT_3
 70
0
 62
7
  6
PHANTOM
370
-3
390
F
  0
LAYER
  5
1FD
100
AcDbSymbolTableRecord
100
AcDbLayerTableRecord
  2
ASSI
 70
0
 62
7
  6
CONTINUOUS
370
-3
390
F
  0
LAYER
  5
1FE
100
AcDbSymbolTableRecord
100
AcDbLayerTableRecord
  2
COORDINATE
 70
0
 62
7
  6
CONTINUOUS
370
-3
390
F
  0
LAYER
  5
1FF
100
AcDbSymbolTableRecord
100
AcDbLayerTableRecord
  2
COORD_ORIGINE
 70
0
 62
7
  6
CONTINUOUS
370
-3
390
F
  0
LAYER
  5
200
100
AcDbSymbolTableRecord
100
AcDbLayerTableRecord
  2
COPY_PUBLISH
 70
0
 62
7
  6
CONTINUOUS
370
-3
390
F
  0
LAYER
  5
201
100
AcDbSymbolTableRecord
100
AcDbLayerTableRecord
  2
COSMETIC
 70
0
 62
7
  6
CONTINUOUS
370
-3
390
F
  0
LAYER
  5
202
100
AcDbSymbolTableRecord
100
AcDbLayerTableRecord
  2
COSMETICI
 70
0
 62
7
  6
CONTINUOUS
370
-3
390
F
  0
LAYER
  5
203
100
AcDbSymbolTableRecord
100
AcDbLayerTableRecord
  2
CURVA_TASSELLO
 70
0
 62
7
  6
CONTINUOUS
370
-3
390
F
  0
LAYER
  5
204
100
AcDbSymbolTableRecord
100
AcDbLayerTableRecord
  2
CURVE
 70
0
 62
7
  6
CONTINUOUS
370
-3
390
F
  0
LAYER
  5
205
100
AcDbSymbolTableRecord
100
AcDbLayerTableRecord
  2
DRAFT
 70
0
 62
7
  6
CONTINUOUS
370
-3
390
F
  0
LAYER
  5
206
100
AcDbSymbolTableRecord
100
AcDbLayerTableRecord
  2
IMPORT_IGES
 70
0
 62
7
  6
CONTINUOUS
370
-3
390
F
  0
LAYER
  5
207
100
AcDbSymbolTableRecord
100
AcDbLayerTableRecord
  2
INTFCLR_2
 70
0
 62
7
  6
CONTINUOUS
370
-3
390
F
  0
LAYER
  5
208
100
AcDbSymbolTableRecord
100
AcDbLayerTableRecord
  2
INTF_1
 70
0
 62
7
  6
CONTINUOUS
370
-3
390
F
  0
LAYER
  5
209
100
AcDbSymbolTableRecord
100
AcDbLayerTableRecord
  2
INTF_21
 70
0
 62
7
  6
CONTINUOUS
370
-3
390
F
  0
LAYER
  5
20A
100
AcDbSymbolTableRecord
100
AcDbLayerTableRecord
  2
INTF_7
 70
0
 62
7
  6
CONTINUOUS
370
-3
390
F
  0
LAYER
  5
20B
100
AcDbSymbolTableRecord
100
AcDbLayerTableRecord
  2
NOTE
 70
0
 62
7
  6
CONTINUOUS
370
-3
390
F
  0
LAYER
  5
20C
100
AcDbSymbolTableRecord
100
AcDbLayerTableRecord
  2
PIANI
 70
0
 62
7
  6
CONTINUOUS
370
-3
390
F
  0
LAYER
  5
20D
100
AcDbSymbolTableRecord
100
AcDbLayerTableRecord
  2
PIANI_ORIGINE
 70
0
 62
7
  6
CONTINUOUS
370
-3
390
F
  0
LAYER
  5
20E
100
AcDbSymbolTableRecord
100
AcDbLayerTableRecord
  2
PIANI_RIFERIMENTO
 70
0
 62
7
  6
CONTINUOUS
370
-3
390
F
  0
LAYER
  5
20F
100
AcDbSymbolTableRecord
100
AcDbLayerTableRecord
  2
PUNTI
 70
0
 62
7
  6
CONTINUOUS
370
-3
390
F
  0
LAYER
  5
210
100
AcDbSymbolTableRecord
100
AcDbLayerTableRecord
  2
RACCORDO
 70
0
 62
7
  6
CONTINUOUS
370
-3
390
F
  0
LAYER
  5
211
100
AcDbSymbolTableRecord
100
AcDbLayerTableRecord
  2
RGB__255__255__255__
 70
0
 62
7
  6
CONTINUOUS
370
-3
390
F
  0
LAYER
  5
212
100
AcDbSymbolTableRecord
100
AcDbLayerTableRecord
  2
RGB____0____0____0__
 70
0
 62
7
  6
CONTINUOUS
370
-3
390
F
  0
LAYER
  5
213
100
AcDbSymbolTableRecord
100
AcDbLayerTableRecord
  2
SIMBOLI
 70
0
 62
7
  6
CONTINUOUS
370
-3
390
F
  0
LAYER
  5
214
100
AcDbSymbolTableRecord
100
AcDbLayerTableRecord
  2
SMUSSO
 70
0
 62
7
  6
CONTINUOUS
370
-3
390
F
  0
LAYER
  5
215
100
AcDbSymbolTableRecord
100
AcDbLayerTableRecord
  2
SNAPLINE
 70
0
 62
7
  6
CONTINUOUS
370
-3
390
F
  0
LAYER
  5
216
100
AcDbSymbolTableRecord
100
AcDbLayerTableRecord
  2
SUPERFICI
 70
0
 62
7
  6
CONTINUOUS
370
-3
390
F
  0
LAYER
  5
217
100
AcDbSymbolTableRecord
100
AcDbLayerTableRecord
  2
TRASH
 70
0
 62
7
  6
CONTINUOUS
370
-3
390
F
  0
LAYER
  5
218
100
AcDbSymbolTableRecord
100
AcDbLayerTableRecord
  2
WHITE
 70
0
 62
7
  6
CONTINUOUS
370
-3
390
F
  0
LAYER
  5
219
100
AcDbSymbolTableRecord
100
AcDbLayerTableRecord
  2
XSEC_DATUMS
 70
0
 62
7
  6
CONTINUOUS
370
-3
390
F
  0
ENDTAB
  0
TABLE
  2
STYLE
  5
3
100
AcDbSymbolTable
 70
1
  0
STYLE
  5
11
100
AcDbSymbolTableRecord
100
AcDbTextStyleTableRecord
  2
STANDARD
 70
0
 40
0.0
 41
0.8
 50
0.0
 71
0
 42
0.2
  3
txt
  4

  0
STYLE
  5
21A
100
AcDbSymbolTableRecord
100
AcDbTextStyleTableRecord
  2
TEXTSTYLE_1
 70
0
 40
0.0
 41
0.8
 50
0.0
 71
0
 42
0.2
  3
gdt
  4

  0
ENDTAB
  0
TABLE
  2
VIEW
  5
6
100
AcDbSymbolTable
 70
0
  0
ENDTAB
  0
TABLE
  2
UCS
  5
7
100
AcDbSymbolTable
 70
0
  0
ENDTAB
  0
TABLE
  2
APPID
  5
9
100
AcDbSymbolTable
 70
1
  0
APPID
  5
21B
100
AcDbSymbolTableRecord
100
AcDbRegAppTableRecord
  2
ACAD
 70
0
  0
ENDTAB
  0
TABLE
  2
BLOCK_RECORD
  5
1
100
AcDbSymbolTable
 70
0
  0
BLOCK_RECORD
  5
21C
100
AcDbSymbolTableRecord
100
AcDbBlockTableRecord
  2
*Model_Space
  0
BLOCK_RECORD
  5
21D
100
AcDbSymbolTableRecord
100
AcDbBlockTableRecord
  2
*Paper_Space
  0
BLOCK_RECORD
  5
21E
100
AcDbSymbolTableRecord
100
AcDbBlockTableRecord
  2
_FILLED
  0
BLOCK_RECORD
  5
21F
100
AcDbSymbolTableRecord
100
AcDbBlockTableRecord
  2
*D0
  0
BLOCK_RECORD
  5
220
100
AcDbSymbolTableRecord
100
AcDbBlockTableRecord
  2
*D1
  0
BLOCK_RECORD
  5
221
100
AcDbSymbolTableRecord
100
AcDbBlockTableRecord
  2
*D2
  0
BLOCK_RECORD
  5
222
100
AcDbSymbolTableRecord
100
AcDbBlockTableRecord
  2
*D3
  0
ENDTAB
  0
TABLE
  2
DIMSTYLE
  5
A
100
AcDbSymbolTable
 70
1
100
AcDbDimStyleTable
 71
0
  0
DIMSTYLE
105
223
100
AcDbSymbolTableRecord
100
AcDbDimStyleTableRecord
  2
STANDARD
 70
0
  3

  4

 40
1.0
 41
3.0
 42
0.5
 43
0.38
 44
1.5
 45
0.0
 46
0.0
 47
0.01
 48
0.01
140
3.0
141
0.09
142
0.0
143
25.4
144
1.0
145
0.0
146
1.0
147
0.625
 71
1.0
 72
0.0
 73
0
 74
0
 75
0
 76
0
 77
1
 78
8
 79
2
170
0
171
1
172
0
173
0
174
0
175
0
176
0
177
0
178
0
270
2
179
2
271
2
272
2
273
2
274
2
275
0
280
0
281
0
282
0
283
1
284
8
285
0
286
0
287
3
288
0
340
11
278
44
341
21E
342
21E
343
21E
344
21E
  0
DIMSTYLE
105
224
100
AcDbSymbolTableRecord
100
AcDbDimStyleTableRecord
  2
DIMSTYLE_1
 70
0
  3

  4

 40
1.0
 41
3.0
 42
0.5
 43
0.38
 44
1.5
 45
0.0
 46
0.0
 47
0.0
 48
0.0
140
3.0
141
0.09
142
0.0
143
25.4
144
1.0
145
0.0
146
1.0
147
0.75
 71
0.0
 72
0.0
 73
0
 74
0
 75
0
 76
0
 77
1
 78
8
 79
2
170
0
171
1
172
0
173
0
174
0
175
0
176
0
177
0
178
0
270
2
179
2
271
2
272
2
273
2
274
2
275
0
280
0
281
0
282
0
283
1
284
8
285
0
286
0
287
3
288
0
340
11
278
44
341
21E
342
21E
343
21E
344
21E
  0
ENDTAB
  0
ENDSEC
  0
SECTION
  2
BLOCKS
  0
BLOCK
  5
20
100
AcDbEntity
  8
0
100
AcDbBlockBegin
  2
*Model_Space
 70
0
 10
0.0
 20
0.0
 30
0.0
  3
*Model_Space
  1

  0
ENDBLK
  5
21
100
AcDbEntity
  8
0
100
AcDbBlockEnd
  0
BLOCK
  5
1C
100
AcDbEntity
  8
0
100
AcDbBlockBegin
  2
*Paper_Space
 70
0
 10
0.0
 20
0.0
 30
0.0
  3
*Paper_Space
  1

  0
ENDBLK
  5
1D
100
AcDbEntity
  8
0
100
AcDbBlockEnd
  0
BLOCK
  5
225
100
AcDbEntity
  8
0
100
AcDbBlockBegin
  2
_FILLED
 70
64
 10
0.0
 20
0.0
  3
_FILLED
  1

  0
SOLID
  5
226
100
AcDbEntity
  8
0
  6
BYBLOCK
 62
0
100
AcDbTrace
 10
0.0
 20
0.0
 11
-1.0
 21
0.3166666667
 12
-1.0
 22
-0.3166666667
 13
-1.0
 23
-0.3166666667
  0
ENDBLK
  5
227
100
AcDbEntity
  8
0
  6
BYBLOCK
 62
0
100
AcDbBlockEnd
  0
BLOCK
  5
228
100
AcDbEntity
  8
0
100
AcDbBlockBegin
 62
7
  6
CONTINUOUS
  2
*D0
 70
65
 10
0.0
 20
0.0
  3
*D0
  1

  0
LINE
  5
229
100
AcDbEntity
  8
0
100
AcDbLine
 62
7
  6
CONTINUOUS
 10
237.3381347656
 20
148.8134765625
 11
247.3381347656
 21
148.8134765625
  0
LINE
  5
22A
100
AcDbEntity
  8
0
100
AcDbLine
 62
7
  6
CONTINUOUS
 10
237.3381347656
 20
58.8134765625
 11
247.3381347656
 21
58.8134765625
  0
LINE
  5
22B
100
AcDbEntity
  8
0
100
AcDbLine
 62
7
  6
CONTINUOUS
 10
245.8381347656
 20
148.8134765625
 11
245.8381347656
 21
103.8134765625
  0
LINE
  5
22C
100
AcDbEntity
  8
0
100
AcDbLine
 62
7
  6
CONTINUOUS
 10
245.8381347656
 20
58.8134765625
 11
245.8381347656
 21
103.8134765625
  0
INSERT
  5
22D
100
AcDbEntity
  8
0
100
AcDbBlockReference
 62
7
  6
CONTINUOUS
  2
_FILLED
 10
245.8381347656
 20
148.8134765625
 41
3.0
 42
3.0
 43
3.0
 50
90.0
  0
INSERT
  5
22E
100
AcDbEntity
  8
0
100
AcDbBlockReference
 62
7
  6
CONTINUOUS
  2
_FILLED
 10
245.8381347656
 20
58.8134765625
 41
3.0
 42
3.0
 43
3.0
 50
270.0
  0
ENDBLK
  5
22F
100
AcDbEntity
  8
0
  6
BYBLOCK
 62
0
100
AcDbBlockEnd
  0
BLOCK
  5
230
100
AcDbEntity
  8
0
100
AcDbBlockBegin
 62
7
  6
CONTINUOUS
  2
*D1
 70
65
 10
0.0
 20
0.0
  3
*D1
  1

  0
LINE
  5
231
100
AcDbEntity
  8
0
100
AcDbLine
 62
7
  6
CONTINUOUS
 10
237.8381347656
 20
148.3134765625
 11
237.8381347656
 21
158.3134765625
  0
LINE
  5
232
100
AcDbEntity
  8
0
100
AcDbLine
 62
7
  6
CONTINUOUS
 10
115.8381347656
 20
148.3134765625
 11
115.8381347656
 21
158.3134765625
  0
LINE
  5
233
100
AcDbEntity
  8
0
100
AcDbLine
 62
7
  6
CONTINUOUS
 10
237.8381347656
 20
156.8134765625
 11
176.8381347656
 21
156.8134765625
  0
LINE
  5
234
100
AcDbEntity
  8
0
100
AcDbLine
 62
7
  6
CONTINUOUS
 10
115.8381347656
 20
156.8134765625
 11
176.8381347656
 21
156.8134765625
  0
INSERT
  5
235
100
AcDbEntity
  8
0
100
AcDbBlockReference
 62
7
  6
CONTINUOUS
  2
_FILLED
 10
237.8381347656
 20
156.8134765625
 41
3.0
 42
3.0
 43
3.0
  0
INSERT
  5
236
100
AcDbEntity
  8
0
100
AcDbBlockReference
 62
7
  6
CONTINUOUS
  2
_FILLED
 10
115.8381347656
 20
156.8134765625
 41
3.0
 42
3.0
 43
3.0
 50
180.0
  0
ENDBLK
  5
237
100
AcDbEntity
  8
0
  6
BYBLOCK
 62
0
100
AcDbBlockEnd
  0
BLOCK
  5
238
100
AcDbEntity
  8
0
100
AcDbBlockBegin
 62
7
  6
CONTINUOUS
  2
*D2
 70
65
 10
0.0
 20
0.0
  3
*D2
  1

  0
LINE
  5
239
100
AcDbEntity
  8
0
100
AcDbLine
 62
7
  6
CONTINUOUS
 10
81.9535625
 20
148.3134765625
 11
81.9535625
 21
158.3134765625
  0
LINE
  5
23A
100
AcDbEntity
  8
0
100
AcDbLine
 62
7
  6
CONTINUOUS
 10
89.5035625
 20
147.35187979
 11
89.5035625
 21
158.3134765625
  0
LINE
  5
23B
100
AcDbEntity
  8
0
100
AcDbLine
 62
7
  6
CONTINUOUS
 10
81.9535625
 20
156.8134765625
 11
85.7285625
 21
156.8134765625
  0
LINE
  5
23C
100
AcDbEntity
  8
0
100
AcDbLine
 62
7
  6
CONTINUOUS
 10
89.5035625
 20
156.8134765625
 11
85.7285625
 21
156.8134765625
  0
LINE
  5
23D
100
AcDbEntity
  8
0
100
AcDbLine
 62
7
  6
CONTINUOUS
 10
85.7285625
 20
156.8134765625
 11
102.0149430571
 21
156.8134765625
  0
INSERT
  5
23E
100
AcDbEntity
  8
0
100
AcDbBlockReference
 62
7
  6
CONTINUOUS
  2
_FILLED
 10
81.9535625
 20
156.8134765625
 41
3.0
 42
3.0
 43
3.0
 50
180.0
  0
INSERT
  5
23F
100
AcDbEntity
  8
0
100
AcDbBlockReference
 62
7
  6
CONTINUOUS
  2
_FILLED
 10
89.5035625
 20
156.8134765625
 41
3.0
 42
3.0
 43
3.0
  0
ENDBLK
  5
240
100
AcDbEntity
  8
0
  6
BYBLOCK
 62
0
100
AcDbBlockEnd
  0
BLOCK
  5
241
100
AcDbEntity
  8
0
100
AcDbBlockBegin
 62
7
  6
CONTINUOUS
  2
*D3
 70
65
 10
0.0
 20
0.0
  3
*D3
  1

  0
LINE
  5
242
100
AcDbEntity
  8
0
100
AcDbLine
 62
7
  6
CONTINUOUS
 10
92.5035625
 20
130.3597933557
 11
92.5035625
 21
168.3134765625
  0
LINE
  5
243
100
AcDbEntity
  8
0
100
AcDbLine
 62
7
  6
CONTINUOUS
 10
81.9535625
 20
148.3134765625
 11
81.9535625
 21
168.3134765625
  0
LINE
  5
244
100
AcDbEntity
  8
0
100
AcDbLine
 62
7
  6
CONTINUOUS
 10
92.5035625
 20
166.8134765625
 11
87.2285625
 21
166.8134765625
  0
LINE
  5
245
100
AcDbEntity
  8
0
100
AcDbLine
 62
7
  6
CONTINUOUS
 10
87.2285625
 20
166.8134765625
 11
103.8261887714
 21
166.8134765625
  0
LINE
  5
246
100
AcDbEntity
  8
0
100
AcDbLine
 62
7
  6
CONTINUOUS
 10
81.9535625
 20
166.8134765625
 11
87.2285625
 21
166.8134765625
  0
INSERT
  5
247
100
AcDbEntity
  8
0
100
AcDbBlockReference
 62
7
  6
CONTINUOUS
  2
_FILLED
 10
92.5035625
 20
166.8134765625
 41
3.0
 42
3.0
 43
3.0
  0
INSERT
  5
248
100
AcDbEntity
  8
0
100
AcDbBlockReference
 62
7
  6
CONTINUOUS
  2
_FILLED
 10
81.9535625
 20
166.8134765625
 41
3.0
 42
3.0
 43
3.0
 50
180.0
  0
ENDBLK
  5
249
100
AcDbEntity
  8
0
  6
BYBLOCK
 62
0
100
AcDbBlockEnd
  0
ENDSEC
  0
SECTION
  2
ENTITIES
  0
DIMENSION
  5
24A
100
AcDbEntity
  8
0
100
AcDbDimension
 62
7
  6
CONTINUOUS
  2
*D0
 10
245.8381347656
 20
58.8134765625
 11
245.8381347656
 21
101.4563337054
 70
160
 71
2
 72
2
 41
0.9
 42
90.0
  3
DIMSTYLE_1
100
AcDbAlignedDimension
 13
236.8381347656
 23
148.8134765625
 14
236.8381347656
 24
58.8134765625
 50
270.0
100
AcDbRotatedDimension
  0
DIMENSION
  5
24B
100
AcDbEntity
  8
0
100
AcDbDimension
 62
7
  6
CONTINUOUS
  2
*D1
 10
115.8381347656
 20
156.8134765625
 11
173.6238490513
 21
156.8134765625
 70
160
 71
2
 72
2
 41
0.9
 42
122.0
  3
DIMSTYLE_1
100
AcDbAlignedDimension
 13
237.8381347656
 23
147.8134765625
 14
115.8381347656
 24
147.8134765625
 50
180.0
100
AcDbRotatedDimension
  0
DIMENSION
  5
24C
100
AcDbEntity
  8
0
100
AcDbDimension
 62
7
  6
CONTINUOUS
  2
*D2
 10
89.5035625
 20
156.8134765625
 11
93.6578002
 21
156.8134765625
 70
160
 71
1
 72
2
 41
0.9
 42
7.55
  3
DIMSTYLE_1
100
AcDbAlignedDimension
 13
81.9535625
 23
147.8134765625
 14
89.5035625
 24
146.85187979
100
AcDbRotatedDimension
  0
DIMENSION
  5
24D
100
AcDbEntity
  8
0
100
AcDbDimension
 62
7
  6
CONTINUOUS
  2
*D3
 10
81.9535625
 20
166.8134765625
 11
93.7547602
 21
166.8134765625
 70
160
 71
1
 72
2
 41
0.9
 42
10.55
  3
DIMSTYLE_1
100
AcDbAlignedDimension
 13
92.5035625
 23
129.8597933557
 14
81.9535625
 24
147.8134765625
 50
180.0
100
AcDbRotatedDimension
  0
LINE
  5
24E
100
AcDbEntity
  8
SMUSSO
100
AcDbLine
 62
7
  6
CONTINUOUS
 10
115.8381347656
 20
147.8134765625
 11
116.8381347656
 21
148.8134765625
  0
LINE
  5
24F
100
AcDbEntity
  8
SMUSSO
100
AcDbLine
 62
7
  6
CONTINUOUS
 10
116.8381347656
 20
58.8134765625
 11
115.8381347656
 21
59.8134765625
  0
LINE
  5
250
100
AcDbEntity
  8
SMUSSO
100
AcDbLine
 62
7
  6
CONTINUOUS
 10
115.8381347656
 20
147.8134765625
 11
115.8381347656
 21
59.8134765625
  0
LINE
  5
251
100
AcDbEntity
  8
SMUSSO
100
AcDbLine
 62
7
  6
CONTINUOUS
 10
116.8381347656
 20
147.8134765625
 11
116.8381347656
 21
59.8134765625
  0
LINE
  5
252
100
AcDbEntity
  8
SMUSSO
100
AcDbLine
 62
7
  6
CONTINUOUS
 10
116.8381347656
 20
58.8134765625
 11
236.8381347656
 21
58.8134765625
  0
LWPOLYLINE
  5
253
100
AcDbEntity
  8
0
100
AcDbPolyline
 62
7
  6
CONTINUOUS
 90
3
 70
0
 43
0.3500000006
 10
173.6238543091
 20
159.7063341064
 10
174.4809922485
 20
160.5634720459
 10
174.4809922485
 20
157.5634711304
  0
LINE
  5
254
100
AcDbEntity
  8
SMUSSO
100
AcDbLine
 62
7
  6
CONTINUOUS
 10
116.8381347656
 20
59.8134765625
 11
236.8381347656
 21
59.8134765625
  0
LINE
  5
255
100
AcDbEntity
  8
RACCORDO
100
AcDbLine
 62
7
  6
CONTINUOUS
 10
142.9881347656
 20
125.2134765625
 11
142.9881347656
 21
82.4134765625
  0
LWPOLYLINE
  5
256
100
AcDbEntity
  8
0
100
AcDbPolyline
 62
7
  6
CONTINUOUS
 90
6
 70
0
 10
180.6434898986
 20
77.7898136715
 10
180.648828665
 20
77.7911644815
 10
180.6542270277
 20
77.7929610506
 10
180.6596849867
 20
77.795203379
 10
180.6651860025
 20
77.7979833866
 10
180.6707466146
 20
77.8012091534
  0
LWPOLYLINE
  5
257
100
AcDbEntity
  8
0
100
AcDbPolyline
 62
7
  6
CONTINUOUS
 90
10
 70
0
 10
179.9050549725
 20
78.5750152632
 10
179.9470078067
 20
78.5819006399
 10
179.9881967444
 20
78.587435094
 10
180.0286217856
 20
78.5916186253
 10
180.0679256777
 20
78.5944654705
 10
180.1064656734
 20
78.595961393
 10
180.1453135302
 20
78.5960636834
 10
180.1848265007
 20
78.5947581052
 10
180.2246473324
 20
78.5920588949
 10
180.2647760253
 20
78.5879660524
  0
LINE
  5
258
100
AcDbEntity
  8
0
100
AcDbLine
 62
7
  6
CONTINUOUS
 10
173.2272780726
 20
76.7499609918
 11
173.6319376733
 21
76.7499609918
  0
LINE
  5
259
100
AcDbEntity
  8
0
100
AcDbLine
 62
7
  6
CONTINUOUS
 10
174.5094516334
 20
76.7499609918
 11
174.968639803
 21
76.7499609918
  0
LINE
  5
25A
100
AcDbEntity
  8
0
100
AcDbLine
 62
7
  6
CONTINUOUS
 10
175.2158349346
 20
76.7499609918
 11
175.6551277718
 21
76.7499609918
  0
LINE
  5
25B
100
AcDbEntity
  8
0
100
AcDbLine
 62
7
  6
CONTINUOUS
 10
176.2929035523
 20
76.7499609918
 11
176.3573038351
 21
76.7499609918
  0
LINE
  5
25C
100
AcDbEntity
  8
0
100
AcDbLine
 62
7
  6
CONTINUOUS
 10
176.9976200917
 20
76.7499609918
 11
177.4468275951
 21
76.7499609918
  0
LINE
  5
25D
100
AcDbEntity
  8
0
100
AcDbLine
 62
7
  6
CONTINUOUS
 10
177.518932068
 20
76.7499609918
 11
177.9731377617
 21
76.7499609918
  0
LINE
  5
25E
100
AcDbEntity
  8
0
100
AcDbLine
 62
7
  6
CONTINUOUS
 10
178.8441365792
 20
76.7499609918
 11
179.3281009382
 21
76.7499609918
  0
LINE
  5
25F
100
AcDbEntity
  8
0
100
AcDbLine
 62
7
  6
CONTINUOUS
 10
179.4629408974
 20
76.7499605751
 11
179.920280945
 21
76.7499605751
  0
LINE
  5
260
100
AcDbEntity
  8
0
100
AcDbLine
 62
7
  6
CONTINUOUS
 10
180.6234635381
 20
76.7499605751
 11
181.0651487126
 21
76.7499605751
  0
LINE
  5
261
100
AcDbEntity
  8
0
100
AcDbLine
 62
7
  6
CONTINUOUS
 10
178.0998451845
 20
77.189121829
 11
178.7251825846
 21
77.189121829
  0
LINE
  5
262
100
AcDbEntity
  8
0
100
AcDbLine
 62
7
  6
CONTINUOUS
 10
178.6334143031
 20
77.5289432421
 11
178.193774704
 21
77.5289432421
  0
LINE
  5
263
100
AcDbEntity
  8
0
100
AcDbLine
 62
7
  6
CONTINUOUS
 10
179.920280945
 20
77.6108466329
 11
180.1664864064
 21
77.6108466329
  0
LINE
  5
264
100
AcDbEntity
  8
0
100
AcDbLine
 62
7
  6
CONTINUOUS
 10
180.1674761771
 20
77.9711231674
 11
179.9050549725
 21
77.9711231674
  0
LINE
  5
265
100
AcDbEntity
  8
0
100
AcDbLine
 62
7
  6
CONTINUOUS
 10
179.9050549725
 20
78.5248214906
 11
179.4629408974
 21
78.5248214906
  0
LINE
  5
266
100
AcDbEntity
  8
0
100
AcDbLine
 62
7
  6
CONTINUOUS
 10
178.7835295279
 20
78.5248214906
 11
178.0756420117
 21
78.5248214906
  0
LINE
  5
267
100
AcDbEntity
  8
0
100
AcDbLine
 62
7
  6
CONTINUOUS
 10
177.2808582334
 20
78.5248214906
 11
176.627029523
 21
78.5248214906
  0
LINE
  5
268
100
AcDbEntity
  8
0
100
AcDbLine
 62
7
  6
CONTINUOUS
 10
176.0313556191
 20
78.5248214906
 11
175.3760946804
 21
78.5248214906
  0
LINE
  5
269
100
AcDbEntity
  8
0
100
AcDbLine
 62
7
  6
CONTINUOUS
 10
174.968639803
 20
78.5248214906
 11
174.5094516334
 21
78.5248214906
  0
LINE
  5
26A
100
AcDbEntity
  8
0
100
AcDbLine
 62
7
  6
CONTINUOUS
 10
174.2024495884
 20
78.5248214906
 11
173.7588956049
 21
78.5248214906
  0
LINE
  5
26B
100
AcDbEntity
  8
0
100
AcDbLine
 62
7
  6
CONTINUOUS
 10
178.6531430641
 20
78.9497754632
 11
178.2089347986
 21
78.9497754632
  0
LINE
  5
26C
100
AcDbEntity
  8
0
100
AcDbLine
 62
7
  6
CONTINUOUS
 10
177.2411202711
 20
78.9497754632
 11
176.7867993394
 21
78.9497754632
  0
LINE
  5
26D
100
AcDbEntity
  8
0
100
AcDbLine
 62
7
  6
CONTINUOUS
 10
175.8732734761
 20
78.9497754632
 11
175.4144655922
 21
78.9497754632
  0
LINE
  5
26E
100
AcDbEntity
  8
0
100
AcDbLine
 62
7
  6
CONTINUOUS
 10
174.3390469745
 20
78.9497754632
 11
173.8801720429
 21
78.9497754632
  0
LINE
  5
26F
100
AcDbEntity
  8
0
100
AcDbLine
 62
7
  6
CONTINUOUS
 10
173.028713415
 20
78.9497754632
 11
172.5298938186
 21
78.9497754632
  0
LINE
  5
270
100
AcDbEntity
  8
0
100
AcDbLine
 62
7
  6
CONTINUOUS
 10
174.968639803
 20
78.9499074632
 11
174.5094516334
 21
78.9499074632
  0
LWPOLYLINE
  5
271
100
AcDbEntity
  8
0
100
AcDbPolyline
 62
7
  6
CONTINUOUS
 90
16
 70
0
 10
180.1664864064
 20
77.6108466329
 10
180.1891660273
 20
77.6098093787
 10
180.2111697851
 20
77.607066173
 10
180.23249768
 20
77.6026170159
 10
180.2532254985
 20
77.5964334348
 10
180.273277454
 20
77.5885439023
 10
180.2924261864
 20
77.5790338361
 10
180.3105861675
 20
77.5679716195
 10
180.3278429255
 20
77.5552888691
 10
180.3442256848
 20
77.5408658532
 10
180.3598050786
 20
77.5246733367
 10
180.3745104738
 20
77.5067405546
 10
180.3881591962
 20
77.4870354797
 10
180.4006903543
 20
77.4655474363
 10
180.4121648395
 20
77.4422871
 10
180.4225826519
 20
77.4172544709
  0
LINE
  5
272
100
AcDbEntity
  8
RACCORDO
100
AcDbLine
 62
7
  6
CONTINUOUS
 10
144.1881347656
 20
81.2134765625
 11
209.4881347656
 21
81.2134765625
  0
LWPOLYLINE
  5
273
100
AcDbEntity
  8
0
100
AcDbPolyline
 62
7
  6
CONTINUOUS
 90
16
 70
0
 10
180.2647760253
 20
78.5879660524
 10
180.2951271963
 20
78.5827102176
 10
180.3238772254
 20
78.5752577346
 10
180.3510261124
 20
78.5656086035
 10
180.3767238395
 20
78.553629974
 10
180.4008204245
 20
78.5394546964
 10
180.4228659218
 20
78.5234813211
 10
180.4427109644
 20
78.5057890245
 10
180.4605049193
 20
78.4862986302
 10
180.4762459416
 20
78.46517116
 10
180.4900594271
 20
78.442144438
 10
180.5018199801
 20
78.4174806401
 10
180.5111495684
 20
78.392127315
 10
180.5179221816
 20
78.3664003122
 10
180.5222638303
 20
78.3399837822
 10
180.5241745143
 20
78.312877725
  0
LWPOLYLINE
  5
274
100
AcDbEntity
  8
0
100
AcDbPolyline
 62
7
  6
CONTINUOUS
 90
16
 70
0
 10
180.5961458668
 20
78.900913762
 10
180.5394893278
 20
78.9192082831
 10
180.4799110782
 20
78.9348475861
 10
180.417411118
 20
78.947831671
 10
180.3518513672
 20
78.958041145
 10
180.2833699057
 20
78.965595401
 10
180.2123809737
 20
78.9708526166
 10
180.1390073805
 20
78.9738429814
 10
180.0631263169
 20
78.9745363059
 10
179.9847835945
 20
78.9732001999
 10
179.9040012676
 20
78.9698878051
 10
179.8207572821
 20
78.9645459797
 10
179.7350312873
 20
78.9572829078
 10
179.6468164999
 20
78.9481346506
 10
179.5561197032
 20
78.9370651468
 10
179.4629408974
 20
78.9240743964
  0
LINE
  5
275
100
AcDbEntity
  8
SMUSSO
100
AcDbLine
 62
7
  6
CONTINUOUS
 10
116.8381347656
 20
59.8134765625
 11
116.3381347656
 21
59.3134765625
  0
LINE
  5
276
100
AcDbEntity
  8
SMUSSO
100
AcDbLine
 62
7
  6
CONTINUOUS
 10
116.3381347656
 20
148.3134765625
 11
116.8381347656
 21
147.8134765625
  0
LINE
  5
277
100
AcDbEntity
  8
0
100
AcDbLine
 62
7
  6
CONTINUOUS
 10
175.7542210054
 20
78.1863985455
 11
176.2929035523
 21
76.7499609918
  0
LINE
  5
278
100
AcDbEntity
  8
0
100
AcDbLine
 62
7
  6
CONTINUOUS
 10
176.3276111698
 20
77.7284318997
 11
175.8732734761
 21
78.9497754632
  0
LINE
  5
279
100
AcDbEntity
  8
0
100
AcDbLine
 62
7
  6
CONTINUOUS
 10
172.5298938186
 20
78.9497754632
 11
173.2272780726
 21
76.7499609918
  0
LINE
  5
27A
100
AcDbEntity
  8
0
100
AcDbLine
 62
7
  6
CONTINUOUS
 10
173.448038634
 20
77.4355752463
 11
173.028713415
 21
78.9497754632
  0
LWPOLYLINE
  5
27B
100
AcDbEntity
  8
0
100
AcDbPolyline
 62
7
  6
CONTINUOUS
 90
5
 70
0
 10
180.4225826519
 20
77.4172544709
 10
180.4441043037
 20
77.3506314723
 10
180.4657662601
 20
77.2821563138
 10
180.487568521
 20
77.2118289953
 10
180.5094320104
 20
77.1396868929
  0
LINE
  5
27C
100
AcDbEntity
  8
0
100
AcDbLine
 62
7
  6
CONTINUOUS
 10
179.3281009382
 20
76.7499609918
 11
178.6531430641
 21
78.9497754632
  0
LINE
  5
27D
100
AcDbEntity
  8
0
100
AcDbLine
 62
7
  6
CONTINUOUS
 10
178.7251825846
 20
77.189121829
 11
178.8441365792
 21
76.7499609918
  0
LINE
  5
27E
100
AcDbEntity
  8
0
100
AcDbLine
 62
7
  6
CONTINUOUS
 10
178.422411265
 20
78.3453223478
 11
178.6334143031
 21
77.5289432421
  0
LINE
  5
27F
100
AcDbEntity
  8
0
100
AcDbLine
 62
7
  6
CONTINUOUS
 10
177.4468275951
 20
76.7499609918
 11
177.2411202711
 21
78.9497754632
  0
LINE
  5
280
100
AcDbEntity
  8
0
100
AcDbLine
 62
7
  6
CONTINUOUS
 10
176.9032788579
 20
78.1804103553
 11
176.9976200917
 21
76.7499609918
  0
LINE
  5
281
100
AcDbEntity
  8
0
100
AcDbLine
 62
7
  6
CONTINUOUS
 10
174.5094516334
 20
78.9499074632
 11
174.5094516334
 21
76.7499609918
  0
LINE
  5
282
100
AcDbEntity
  8
0
100
AcDbLine
 62
7
  6
CONTINUOUS
 10
174.968639803
 20
76.7499609918
 11
174.968639803
 21
78.9499074632
  0
LWPOLYLINE
  5
283
100
AcDbEntity
  8
0
100
AcDbPolyline
 62
7
  6
CONTINUOUS
 90
13
 70
0
 43
0.3500000006
 10
244.230999939
 20
103.8134773865
 10
242.9452749023
 20
103.8134773865
 10
242.5167059326
 20
104.0277618713
 10
242.0881369629
 20
104.4563308411
 10
242.0881369629
 20
104.6706153259
 10
242.5167059326
 20
105.0991933594
 10
242.9452749023
 20
105.3134778442
 10
244.230999939
 20
105.3134778442
 10
244.6595689087
 20
105.0991933594
 10
245.0881378784
 20
104.6706153259
 10
245.0881378784
 20
104.4563308411
 10
244.6595689087
 20
104.0277618713
 10
244.230999939
 20
103.8134773865
  0
LINE
  5
284
100
AcDbEntity
  8
0
100
AcDbLine
 62
7
  6
CONTINUOUS
 10
180.5094320104
 20
77.1396868929
 11
180.5766550671
 21
76.9117738664
  0
LINE
  5
285
100
AcDbEntity
  8
0
100
AcDbLine
 62
7
  6
CONTINUOUS
 10
180.5766550671
 20
76.9117738664
 11
180.6234635381
 21
76.7499605751
  0
LINE
  5
286
100
AcDbEntity
  8
0
100
AcDbLine
 62
7
  6
CONTINUOUS
 10
180.9621874723
 20
77.1428832043
 11
180.9082037078
 21
77.3452373758
  0
LWPOLYLINE
  5
287
100
AcDbEntity
  8
0
100
AcDbPolyline
 62
7
  6
CONTINUOUS
 90
16
 70
0
 10
180.9082037078
 20
77.3452373758
 10
180.8970307581
 20
77.3882551421
 10
180.8851520416
 20
77.4296545053
 10
180.8725675585
 20
77.4694354655
 10
180.8594421038
 20
77.5077650144
 10
180.8456108824
 20
77.5444761602
 10
180.8305795086
 20
77.5790679277
 10
180.8142139287
 20
77.6115546353
 10
180.7966481965
 20
77.6419219646
 10
180.7777900878
 20
77.6696259846
 10
180.7573802381
 20
77.6945601283
 10
180.735678012
 20
77.7168309628
 10
180.713369278
 20
77.7362142585
 10
180.6906826593
 20
77.7526352721
 10
180.6673895328
 20
77.766168747
 10
180.6434898986
 20
77.776814683
  0
LINE
  5
288
100
AcDbEntity
  8
0
100
AcDbLine
 62
7
  6
CONTINUOUS
 10
181.0651487126
 20
76.7499605751
 11
180.9621874723
 21
77.1428832043
  0
LINE
  5
289
100
AcDbEntity
  8
0
100
AcDbLine
 62
7
  6
CONTINUOUS
 10
179.4629408974
 20
78.9240743964
 11
179.4629408974
 21
76.7499605751
  0
LINE
  5
28A
100
AcDbEntity
  8
0
100
AcDbLine
 62
7
  6
CONTINUOUS
 10
179.9050549725
 20
77.9711231674
 11
179.9050549725
 21
78.5750152632
  0
LINE
  5
28B
100
AcDbEntity
  8
0
100
AcDbLine
 62
7
  6
CONTINUOUS
 10
179.920280945
 20
76.7499605751
 11
179.920280945
 21
77.6108466329
  0
LINE
  5
28C
100
AcDbEntity
  8
0
100
AcDbLine
 62
7
  6
CONTINUOUS
 10
180.0881347656
 20
78.8634308641
 11
180.0881347656
 21
78.5952498823
  0
LINE
  5
28D
100
AcDbEntity
  8
0
100
AcDbLine
 62
7
  6
CONTINUOUS
 10
180.6434898986
 20
77.776814683
 11
180.6434898986
 21
77.7898136715
  0
LWPOLYLINE
  5
28E
100
AcDbEntity
  8
0
100
AcDbPolyline
 62
7
  6
CONTINUOUS
 90
22
 70
0
 10
180.5241745143
 20
78.312877725
 10
180.5238455681
 20
78.2816431451
 10
180.5216844134
 20
78.2518720663
 10
180.5176910502
 20
78.2235644887
 10
180.5118408404
 20
78.1967003318
 10
180.5041584221
 20
78.1712996761
 10
180.4947177096
 20
78.1474227624
 10
180.4834524966
 20
78.1250831873
 10
180.4704289893
 20
78.1042673542
 10
180.4559197206
 20
78.0849947144
 10
180.4400195028
 20
78.0672722267
 10
180.4226335234
 20
78.0510929322
 10
180.4037498783
 20
78.0364554056
 10
180.3833798634
 20
78.0233999692
 10
180.3615121827
 20
78.0118863007
 10
180.3381010443
 20
78.0017920076
 10
180.3130442893
 20
77.9930638919
 10
180.2864440765
 20
77.9857551516
 10
180.2585610905
 20
77.9799029888
 10
180.229482226
 20
77.9755198042
 10
180.1991205882
 20
77.972593197
 10
180.1674761771
 20
77.9711231674
  0
LINE
  5
28F
100
AcDbEntity
  8
0
100
AcDbLine
 62
7
  6
CONTINUOUS
 10
175.6551277718
 20
76.7499609918
 11
175.7542210054
 21
78.1863985455
  0
LINE
  5
290
100
AcDbEntity
  8
0
100
AcDbLine
 62
7
  6
CONTINUOUS
 10
175.4144655922
 20
78.9497754632
 11
175.2158349346
 21
76.7499609918
  0
LINE
  5
291
100
AcDbEntity
  8
0
100
AcDbLine
 62
7
  6
CONTINUOUS
 10
173.8801720429
 20
78.9497754632
 11
173.448038634
 21
77.4355752463
  0
LINE
  5
292
100
AcDbEntity
  8
0
100
AcDbLine
 62
7
  6
CONTINUOUS
 10
173.6319376733
 20
76.7499609918
 11
174.3390469745
 21
78.9497754632
  0
LINE
  5
293
100
AcDbEntity
  8
0
100
AcDbLine
 62
7
  6
CONTINUOUS
 10
178.193774704
 20
77.5289432421
 11
178.422411265
 21
78.3453223478
  0
LINE
  5
294
100
AcDbEntity
  8
0
100
AcDbLine
 62
7
  6
CONTINUOUS
 10
177.9731377617
 20
76.7499609918
 11
178.0998451845
 21
77.189121829
  0
LINE
  5
295
100
AcDbEntity
  8
0
100
AcDbLine
 62
7
  6
CONTINUOUS
 10
178.2089347986
 20
78.9497754632
 11
177.518932068
 21
76.7499609918
  0
LINE
  5
296
100
AcDbEntity
  8
0
100
AcDbLine
 62
7
  6
CONTINUOUS
 10
176.7867993394
 20
78.9497754632
 11
176.3276111698
 21
77.7284318997
  0
LINE
  5
297
100
AcDbEntity
  8
0
100
AcDbLine
 62
7
  6
CONTINUOUS
 10
176.3573038351
 20
76.7499609918
 11
176.9032788579
 21
78.1804103553
  0
LINE
  5
298
100
AcDbEntity
  8
SMUSSO
100
AcDbLine
 62
7
  6
CONTINUOUS
 10
237.3381347656
 20
148.3134765625
 11
236.8381347656
 21
147.8134765625
  0
LINE
  5
299
100
AcDbEntity
  8
SMUSSO
100
AcDbLine
 62
7
  6
CONTINUOUS
 10
237.3381347656
 20
59.3134765625
 11
236.8381347656
 21
59.8134765625
  0
LWPOLYLINE
  5
29A
100
AcDbEntity
  8
0
100
AcDbPolyline
 62
7
  6
CONTINUOUS
 90
67
 70
0
 10
180.6707466146
 20
77.8012091534
 10
180.6822113869
 20
77.8080670412
 10
180.6881155471
 20
77.8116991622
 10
180.6941308236
 20
77.8155364499
 10
180.7002594405
 20
77.8195726911
 10
180.7064991736
 20
77.8238140989
 10
180.7128452524
 20
77.8283144803
 10
180.7193015066
 20
77.8330865302
 10
180.7258641065
 20
77.8381175537
 10
180.7325167918
 20
77.8434232726
 10
180.73925562
 20
77.8490042397
 10
180.7460845337
 20
77.8548599021
 10
180.7529991004
 20
77.8610043233
 10
180.760004503
 20
77.8674371291
 10
180.7670955587
 20
77.8741586936
 10
180.7742522863
 20
77.8811842032
 10
180.7814735848
 20
77.8885027029
 10
180.7887605552
 20
77.8961251477
 10
180.7960965192
 20
77.9040995883
 10
180.8034842466
 20
77.9124230047
 10
180.8109209676
 20
77.9210984169
 10
180.8183816938
 20
77.9301829355
 10
180.8258680437
 20
77.9396718661
 10
180.8333783987
 20
77.9495699031
 10
180.8408829151
 20
77.9599482401
 10
180.8483889143
 20
77.9708061848
 10
180.8558890748
 20
77.9821444295
 10
180.8633315882
 20
77.9940362451
 10
180.8707248011
 20
78.0064816121
 10
180.8780603669
 20
78.01948055
 10
180.885261437
 20
78.0331063877
 10
180.8923372766
 20
78.0473605425
 10
180.8992786204
 20
78.0622415971
 10
180.9059808236
 20
78.0778186284
 10
180.9124520736
 20
78.0940909433
 10
180.918684183
 20
78.1110592349
 10
180.9245479458
 20
78.1287946592
 10
180.9300508414
 20
78.1473069219
 10
180.9351853904
 20
78.1665863173
 10
180.9397999483
 20
78.1866748838
 10
180.9439002293
 20
78.2075762489
 10
180.9474805192
 20
78.229286785
 10
180.950372032
 20
78.2518376481
 10
180.9525812463
 20
78.2752059404
 10
180.9541016834
 20
78.2994145596
 10
180.9547451213
 20
78.3245633542
 10
180.9545778894
 20
78.35066521
 10
180.9535336583
 20
78.3777072412
 10
180.9512252178
 20
78.4057506391
 10
180.9477303918
 20
78.4348772989
 10
180.9429713564
 20
78.4650053254
 10
180.9363274296
 20
78.4959502238
 10
180.9277866299
 20
78.5278454748
 10
180.9173609388
 20
78.5605575976
 10
180.9044656187
 20
78.5935016554
 10
180.8889052386
 20
78.6268756845
 10
180.8708752294
 20
78.6604816485
 10
180.8503771466
 20
78.6931405014
 10
180.8270732415
 20
78.7248692109
 10
180.8013012628
 20
78.7556508092
 10
180.7740760123
 20
78.7842553471
 10
180.7452205548
 20
78.8105243468
 10
180.7149118255
 20
78.8346162861
 10
180.6846954314
 20
78.8557766489
 10
180.6550865747
 20
78.8737539298
 10
180.6255700532
 20
78.8887996341
 10
180.5961458668
 20
78.900913762
  0
LINE
  5
29B
100
AcDbEntity
  8
RACCORDO
100
AcDbLine
 62
7
  6
CONTINUOUS
 10
209.4881347656
 20
126.4134765625
 11
144.1881347656
 21
126.4134765625
  0
LINE
  5
29C
100
AcDbEntity
  8
RACCORDO
100
AcDbLine
 62
7
  6
CONTINUOUS
 10
210.6881347656
 20
82.4134765625
 11
210.6881347656
 21
125.2134765625
  0
LINE
  5
29D
100
AcDbEntity
  8
SMUSSO
100
AcDbLine
 62
7
  6
CONTINUOUS
 10
236.8381347656
 20
147.8134765625
 11
116.8381347656
 21
147.8134765625
  0
LINE
  5
29E
100
AcDbEntity
  8
SMUSSO
100
AcDbLine
 62
7
  6
CONTINUOUS
 10
236.8381347656
 20
148.8134765625
 11
116.8381347656
 21
148.8134765625
  0
LWPOLYLINE
  5
29F
100
AcDbEntity
  8
0
100
AcDbPolyline
 62
7
  6
CONTINUOUS
 90
10
 70
0
 43
0.3500000006
 10
245.0881378784
 20
101.884907959
 10
244.230999939
 20
102.7420458984
 10
243.3738438721
 20
102.9563303833
 10
242.5167059326
 20
102.9563303833
 10
242.0881369629
 20
102.5277614136
 10
242.0881369629
 20
101.884907959
 10
242.5167059326
 20
101.4563299255
 10
243.3738438721
 20
101.4563299255
 10
243.8024128418
 20
101.884907959
 10
243.8024128418
 20
102.8134770813
  0
LWPOLYLINE
  5
2A0
100
AcDbEntity
  8
0
100
AcDbPolyline
 62
7
  6
CONTINUOUS
 90
7
 70
0
 43
0.3500000006
 10
179.195269043
 20
157.5634711304
 10
177.6952776489
 20
157.5634711304
 10
179.195269043
 20
159.7063341064
 10
179.195269043
 20
160.1349030762
 10
178.7667000732
 20
160.5634720459
 10
178.1238466187
 20
160.5634720459
 10
177.6952776489
 20
159.9206185913
  0
LWPOLYLINE
  5
2A1
100
AcDbEntity
  8
0
100
AcDbPolyline
 62
7
  6
CONTINUOUS
 90
7
 70
0
 43
0.3500000006
 10
176.8381397095
 20
157.5634711304
 10
175.338130188
 20
157.5634711304
 10
176.8381397095
 20
159.7063341064
 10
176.8381397095
 20
160.1349030762
 10
176.4095707397
 20
160.5634720459
 10
175.7666991577
 20
160.5634720459
 10
175.338130188
 20
159.9206185913
  0
LINE
  5
2A2
100
AcDbEntity
  8
SMUSSO
100
AcDbLine
 62
7
  6
CONTINUOUS
 10
236.8381347656
 20
59.8134765625
 11
236.8381347656
 21
147.8134765625
  0
LINE
  5
2A3
100
AcDbEntity
  8
SMUSSO
100
AcDbLine
 62
7
  6
CONTINUOUS
 10
237.8381347656
 20
59.8134765625
 11
237.8381347656
 21
147.8134765625
  0
LINE
  5
2A4
100
AcDbEntity
  8
SMUSSO
100
AcDbLine
 62
7
  6
CONTINUOUS
 10
237.8381347656
 20
59.8134765625
 11
236.8381347656
 21
58.8134765625
  0
LINE
  5
2A5
100
AcDbEntity
  8
SMUSSO
100
AcDbLine
 62
7
  6
CONTINUOUS
 10
236.8381347656
 20
148.8134765625
 11
237.8381347656
 21
147.8134765625
  0
LINE
  5
2A6
100
AcDbEntity
  8
SMUSSO
100
AcDbLine
 62
7
  6
CONTINUOUS
 10
82.9535625
 20
58.8134765625
 11
84.4535625
 21
58.8134765625
  0
LWPOLYLINE
  5
2A7
100
AcDbEntity
  8
0
100
AcDbPolyline
 62
7
  6
CONTINUOUS
 90
3
 70
0
 43
0.3500000006
 10
93.7547644043
 20
169.7063371582
 10
94.6119023438
 20
170.5634750977
 10
94.6119023438
 20
167.5634741821
  0
LINE
  5
2A8
100
AcDbEntity
  8
0
100
AcDbLine
 62
250
  6
CONTINUOUS
 10
88.0043600589
 20
60.4780105927
 11
89.5035625
 21
60.775073335
  0
LINE
  5
2A9
100
AcDbEntity
  8
0
100
AcDbLine
 62
7
  6
CONTINUOUS
 10
85.1035625
 20
59.4628568742
 11
88.0035625
 21
59.5134765625
  0
LINE
  5
2AA
100
AcDbEntity
  8
0
100
AcDbLine
 62
250
  6
CONTINUOUS
 10
85.1035625
 20
60.4627045694
 11
88.0035625
 21
60.5133242577
  0
LINE
  5
2AB
100
AcDbEntity
  8
SMUSSO
100
AcDbLine
 62
7
  6
CONTINUOUS
 10
82.9535625
 20
59.8134765625
 11
84.4535625
 21
59.8134765625
  0
LINE
  5
2AC
100
AcDbEntity
  8
RACCORDO
100
AcDbLine
 62
7
  6
CONTINUOUS
 10
84.9535625
 20
63.8134765625
 11
85.1035625
 21
63.8134765625
  0
LINE
  5
2AD
100
AcDbEntity
  8
RACCORDO
100
AcDbLine
 62
250
  6
CONTINUOUS
 10
84.9535625
 20
65.8134765625
 11
85.1035625
 21
65.8134765625
  0
LINE
  5
2AE
100
AcDbEntity
  8
SMUSSO
100
AcDbLine
 62
7
  6
CONTINUOUS
 10
82.9535625
 20
148.8134765625
 11
81.9535625
 21
147.8134765625
  0
LINE
  5
2AF
100
AcDbEntity
  8
SMUSSO
100
AcDbLine
 62
7
  6
CONTINUOUS
 10
84.4535625
 20
147.8134765625
 11
84.9535625
 21
148.3134765625
  0
LINE
  5
2B0
100
AcDbEntity
  8
SMUSSO
100
AcDbLine
 62
7
  6
CONTINUOUS
 10
81.9535625
 20
59.8134765625
 11
82.9535625
 21
58.8134765625
  0
LINE
  5
2B1
100
AcDbEntity
  8
SMUSSO
100
AcDbLine
 62
7
  6
CONTINUOUS
 10
84.9535625
 20
59.3134765625
 11
84.4535625
 21
59.8134765625
  0
LINE
  5
2B2
100
AcDbEntity
  8
0
100
AcDbLine
 62
7
  6
CONTINUOUS
 10
90.5035625
 20
76.6634765625
 11
89.5035625
 21
76.6617312315
  0
LINE
  5
2B3
100
AcDbEntity
  8
0
100
AcDbLine
 62
250
  6
CONTINUOUS
 10
90.4293350837
 20
76.8857973186
 11
89.5035625
 21
76.8853791241
  0
LINE
  5
2B4
100
AcDbEntity
  8
RACCORDO
100
AcDbLine
 62
250
  6
CONTINUOUS
 10
84.9535625
 20
74.3134765625
 11
85.1035625
 21
74.3134765625
  0
LINE
  5
2B5
100
AcDbEntity
  8
RACCORDO
100
AcDbLine
 62
7
  6
CONTINUOUS
 10
84.9535625
 20
76.3134765625
 11
85.1035625
 21
76.3134765625
  0
LINE
  5
2B6
100
AcDbEntity
  8
0
100
AcDbLine
 62
7
  6
CONTINUOUS
 10
91.9536117322
 20
77.4719127022
 11
89.5035625
 21
77.4576587327
  0
LINE
  5
2B7
100
AcDbEntity
  8
0
100
AcDbLine
 62
250
  6
CONTINUOUS
 10
91.9536117322
 20
77.5597791808
 11
89.5035625
 21
77.5455252113
  0
LINE
  5
2B8
100
AcDbEntity
  8
RACCORDO
100
AcDbLine
 62
250
  6
CONTINUOUS
 10
85.1035625
 20
77.3134765625
 11
84.9535625
 21
77.3134765625
  0
LINE
  5
2B9
100
AcDbEntity
  8
0
100
AcDbLine
 62
7
  6
CONTINUOUS
 10
92.5035625
 20
77.6611153558
 11
92.3829997329
 21
77.6611153558
  0
LINE
  5
2BA
100
AcDbEntity
  8
0
100
AcDbLine
 62
7
  6
CONTINUOUS
 10
90.4536868789
 20
78.6134765625
 11
89.5035625
 21
78.6134765625
  0
LINE
  5
2BB
100
AcDbEntity
  8
0
100
AcDbLine
 62
7
  6
CONTINUOUS
 10
89.5035625
 20
78.7634765625
 11
89.6535625
 21
78.7634765625
  0
LINE
  5
2BC
100
AcDbEntity
  8
0
100
AcDbLine
 62
7
  6
CONTINUOUS
 10
89.9535625
 20
78.7634765625
 11
90.1535625
 21
78.7634765625
  0
LINE
  5
2BD
100
AcDbEntity
  8
0
100
AcDbLine
 62
7
  6
CONTINUOUS
 10
91.9816258457
 20
78.4656702279
 11
92.5035625
 21
78.4611153558
  0
LINE
  5
2BE
100
AcDbEntity
  8
0
100
AcDbLine
 62
7
  6
CONTINUOUS
 10
89.5035625
 20
78.057656688
 11
92.3140296912
 21
77.9334898948
  0
LINE
  5
2BF
100
AcDbEntity
  8
0
100
AcDbLine
 62
7
  6
CONTINUOUS
 10
90.5531905979
 20
78.6085137527
 11
92.5035625
 21
78.4134765625
  0
LINE
  5
2C0
100
AcDbEntity
  8
RACCORDO
100
AcDbLine
 62
7
  6
CONTINUOUS
 10
84.9535625
 20
81.8134765625
 11
85.1035625
 21
81.8134765625
  0
LWPOLYLINE
  5
2C1
100
AcDbEntity
  8
0
100
AcDbPolyline
 62
250
  6
CONTINUOUS
 90
4
 70
0
 10
91.9933719725
 20
130.0994984255
 10
91.9802726368
 20
130.0900285143
 10
91.9669947522
 20
130.0792356336
 10
91.9536117322
 20
130.0671739442
  0
LINE
  5
2C2
100
AcDbEntity
  8
RACCORDO
100
AcDbLine
 62
250
  6
CONTINUOUS
 10
84.9535625
 20
83.8134765625
 11
85.1035625
 21
83.8134765625
  0
LWPOLYLINE
  5
2C3
100
AcDbEntity
  8
0
100
AcDbPolyline
 62
250
  6
CONTINUOUS
 90
4
 70
0
 10
91.9932425731
 20
77.5275423705
 10
91.9801641261
 20
77.5370080004
 10
91.9669294253
 20
77.5477735014
 10
91.9536117322
 20
77.5597791808
  0
LINE
  5
2C4
100
AcDbEntity
  8
0
100
AcDbLine
 62
7
  6
CONTINUOUS
 10
89.6535625
 20
128.8634765625
 11
89.8035625
 21
129.0134765625
  0
LINE
  5
2C5
100
AcDbEntity
  8
0
100
AcDbLine
 62
7
  6
CONTINUOUS
 10
90.1535625
 20
128.8634765625
 11
90.3035625
 21
129.0134765625
  0
LINE
  5
2C6
100
AcDbEntity
  8
0
100
AcDbLine
 62
7
  6
CONTINUOUS
 10
89.6535625
 20
78.7634765625
 11
89.8035625
 21
78.6134765625
  0
LINE
  5
2C7
100
AcDbEntity
  8
0
100
AcDbLine
 62
7
  6
CONTINUOUS
 10
90.1535625
 20
78.7634765625
 11
90.3035625
 21
78.6134765625
  0
LWPOLYLINE
  5
2C8
100
AcDbEntity
  8
0
100
AcDbPolyline
 62
250
  6
CONTINUOUS
 90
9
 70
0
 10
90.5232289409
 20
76.7392229218
 10
90.5305683323
 20
76.7299125317
 10
90.5376925679
 20
76.7214083096
 10
90.5445255261
 20
76.7138766969
 10
90.5509244184
 20
76.7075560185
 10
90.5567292584
 20
76.7026805176
 10
90.5618206711
 20
76.6994311537
 10
90.5661041599
 20
76.6979688515
 10
90.5694687337
 20
76.6984607664
  0
LWPOLYLINE
  5
2C9
100
AcDbEntity
  8
0
100
AcDbPolyline
 62
7
  6
CONTINUOUS
 90
3
 70
0
 43
0.3500000006
 10
98.5404723816
 20
167.8491989136
 10
98.4690502625
 20
167.6348963013
 10
98.3261878967
 20
167.3491896973
  0
LWPOLYLINE
  5
2CA
100
AcDbEntity
  8
0
100
AcDbPolyline
 62
250
  6
CONTINUOUS
 90
19
 70
0
 10
90.4293350837
 20
130.7411558064
 10
90.4378210142
 20
130.7558836317
 10
90.4463931845
 20
130.7705084864
 10
90.4550192929
 20
130.7849631854
 10
90.4636078217
 20
130.799089847
 10
90.4721801687
 20
130.8129089113
 10
90.4808613528
 20
130.8265851904
 10
90.4896026216
 20
130.8400052733
 10
90.4983384074
 20
130.853039882
 10
90.5071355409
 20
130.8657434207
 10
90.5159402781
 20
130.8779754618
 10
90.5246022551
 20
130.8894582725
 10
90.533009357
 20
130.8999703323
 10
90.5410822089
 20
130.9093186006
 10
90.5486131046
 20
130.9171647371
 10
90.5553281603
 20
130.9231537184
 10
90.5610878908
 20
130.927112382
 10
90.5658346048
 20
130.9289358508
 10
90.5694687337
 20
130.9284923586
  0
LWPOLYLINE
  5
2CB
100
AcDbEntity
  8
0
100
AcDbPolyline
 62
250
  6
CONTINUOUS
 90
14
 70
0
 10
90.4293350837
 20
76.8857973186
 10
90.4359846373
 20
76.8742184095
 10
90.4427616812
 20
76.8625758275
 10
90.449649759
 20
76.8509089403
 10
90.4565955606
 20
76.8393154153
 10
90.4636143203
 20
76.8277827816
 10
90.4707860672
 20
76.8162038193
 10
90.478094975
 20
76.8046285489
 10
90.4854936739
 20
76.7931523617
 10
90.4930016662
 20
76.7817717157
 10
90.5005744357
 20
76.7705857509
 10
90.5081560381
 20
76.7597109015
 10
90.5157308902
 20
76.7492088617
 10
90.5232289409
 20
76.7392229218
  0
LWPOLYLINE
  5
2CC
100
AcDbEntity
  8
0
100
AcDbPolyline
 62
7
  6
CONTINUOUS
 90
3
 70
0
 43
0.3500000006
 10
96.7292328186
 20
157.8491958618
 10
96.6578016357
 20
157.634911377
 10
96.51493927
 20
157.3491866455
  0
LWPOLYLINE
  5
2CD
100
AcDbEntity
  8
0
100
AcDbPolyline
 62
7
  6
CONTINUOUS
 90
7
 70
0
 10
92.475703585
 20
77.836914845
 10
92.48397505
 20
77.8228604482
 10
92.4908866903
 20
77.8097774716
 10
92.4963621955
 20
77.7976659155
 10
92.5003351322
 20
77.7865257797
 10
92.5027498785
 20
77.7763570643
 10
92.5035625
 20
77.7671597693
  0
LINE
  5
2CE
100
AcDbEntity
  8
SMUSSO
100
AcDbLine
 62
7
  6
CONTINUOUS
 10
81.9535625
 20
59.8134765625
 11
81.9535625
 21
147.8134765625
  0
LINE
  5
2CF
100
AcDbEntity
  8
SMUSSO
100
AcDbLine
 62
7
  6
CONTINUOUS
 10
82.9535625
 20
59.8134765625
 11
82.9535625
 21
147.8134765625
  0
LINE
  5
2D0
100
AcDbEntity
  8
SMUSSO
100
AcDbLine
 62
7
  6
CONTINUOUS
 10
84.4535625
 20
147.8134765625
 11
84.4535625
 21
59.8134765625
  0
LINE
  5
2D1
100
AcDbEntity
  8
0
100
AcDbLine
 62
7
  6
CONTINUOUS
 10
88.0104198088
 20
60.3360030621
 11
88.0043600589
 21
60.4780105927
  0
LINE
  5
2D2
100
AcDbEntity
  8
0
100
AcDbLine
 62
7
  6
CONTINUOUS
 10
88.0154152208
 20
60.1978024228
 11
88.0104198088
 21
60.3360030621
  0
LINE
  5
2D3
100
AcDbEntity
  8
SMUSSO
100
AcDbLine
 62
7
  6
CONTINUOUS
 10
84.9535625
 20
148.3134765625
 11
84.9535625
 21
59.3134765625
  0
LINE
  5
2D4
100
AcDbEntity
  8
0
100
AcDbLine
 62
7
  6
CONTINUOUS
 10
85.1035625
 20
59.4628568742
 11
85.1035625
 21
148.1640962508
  0
LWPOLYLINE
  5
2D5
100
AcDbEntity
  8
0
100
AcDbPolyline
 62
7
  6
CONTINUOUS
 90
16
 70
0
 10
88.0192647151
 20
147.5607419249
 10
88.0206899171
 20
147.6233937443
 10
88.0217819512
 20
147.6834720957
 10
88.0225137855
 20
147.7406443727
 10
88.0228758419
 20
147.7946108913
 10
88.0228758407
 20
147.8451060066
 10
88.0225137821
 20
147.8918754131
 10
88.0217819454
 20
147.9346869441
 10
88.020689909
 20
147.9733138663
 10
88.0192647065
 20
148.0075449334
 10
88.0175023623
 20
148.0371985401
 10
88.0154129018
 20
148.0621457557
 10
88.0130450877
 20
148.0822813714
 10
88.0104179671
 20
148.0974985017
 10
88.0075212154
 20
148.1077043769
 10
88.0043600589
 20
148.1128385154
  0
LINE
  5
2D6
100
AcDbEntity
  8
0
100
AcDbLine
 62
7
  6
CONTINUOUS
 10
88.0154129013
 20
147.4290800524
 11
88.0192647151
 21
147.5607419249
  0
LINE
  5
2D7
100
AcDbEntity
  8
0
100
AcDbLine
 62
7
  6
CONTINUOUS
 10
88.0104179615
 20
147.2909024581
 11
88.0154129013
 21
147.4290800524
  0
LINE
  5
2D8
100
AcDbEntity
  8
0
100
AcDbLine
 62
7
  6
CONTINUOUS
 10
88.0043600589
 20
147.1489425323
 11
88.0104179615
 21
147.2909024581
  0
LINE
  5
2D9
100
AcDbEntity
  8
0
100
AcDbLine
 62
7
  6
CONTINUOUS
 10
88.0035625
 20
147.1136288673
 11
88.0035625
 21
60.5133242577
  0
LINE
  5
2DA
100
AcDbEntity
  8
0
100
AcDbLine
 62
7
  6
CONTINUOUS
 10
89.5035625
 20
146.9134765625
 11
89.5035625
 21
60.7134765625
  0
LINE
  5
2DB
100
AcDbEntity
  8
0
100
AcDbLine
 62
250
  6
CONTINUOUS
 10
90.4293997033
 20
76.6633471239
 11
90.4293350837
 21
76.8857973186
  0
LINE
  5
2DC
100
AcDbEntity
  8
0
100
AcDbLine
 62
250
  6
CONTINUOUS
 10
90.4293350837
 20
130.7411558064
 11
90.4293996982
 21
130.9624623036
  0
LWPOLYLINE
  5
2DD
100
AcDbEntity
  8
0
100
AcDbPolyline
 62
7
  6
CONTINUOUS
 90
7
 70
0
 10
92.5035625
 20
129.8597933557
 10
92.5027500177
 20
129.8505970519
 10
92.5003355748
 20
129.8404289312
 10
92.4963629355
 20
129.8292889937
 10
92.490887557
 20
129.8171772393
 10
92.4839757173
 20
129.8040936681
 10
92.475703585
 20
129.79003828
  0
LWPOLYLINE
  5
2DE
100
AcDbEntity
  8
0
100
AcDbPolyline
 62
250
  6
CONTINUOUS
 90
3
 70
0
 10
91.9537107527
 20
130.1504818484
 10
91.9536680986
 20
130.1538984319
 10
91.9536117322
 20
130.1550404228
  0
LINE
  5
2DF
100
AcDbEntity
  8
0
100
AcDbLine
 62
250
  6
CONTINUOUS
 10
91.9537537312
 20
130.1369456096
 11
91.9537107527
 21
130.1504818484
  0
LINE
  5
2E0
100
AcDbEntity
  8
0
100
AcDbLine
 62
250
  6
CONTINUOUS
 10
91.9537537312
 20
77.4900075154
 11
91.9536117322
 21
77.5597791808
  0
LINE
  5
2E1
100
AcDbEntity
  8
0
100
AcDbLine
 62
250
  6
CONTINUOUS
 10
92.2192632869
 20
129.1850466412
 11
92.2192632869
 21
129.1633567276
  0
LINE
  5
2E2
100
AcDbEntity
  8
0
100
AcDbLine
 62
250
  6
CONTINUOUS
 10
92.2192632869
 20
78.4635963974
 11
92.2192632869
 21
78.4419064838
  0
LINE
  5
2E3
100
AcDbEntity
  8
0
100
AcDbLine
 62
250
  6
CONTINUOUS
 10
92.3140296912
 20
129.6934632302
 11
92.3140296912
 21
129.1945232816
  0
LINE
  5
2E4
100
AcDbEntity
  8
0
100
AcDbLine
 62
250
  6
CONTINUOUS
 10
92.3140296912
 20
78.4324298434
 11
92.3140296912
 21
77.9334898948
  0
LINE
  5
2E5
100
AcDbEntity
  8
0
100
AcDbLine
 62
7
  6
CONTINUOUS
 10
92.5035625
 20
129.9658377692
 11
92.5035625
 21
129.1658377692
  0
LINE
  5
2E6
100
AcDbEntity
  8
0
100
AcDbLine
 62
7
  6
CONTINUOUS
 10
92.5035625
 20
78.4611153558
 11
92.5035625
 21
77.6611153558
  0
LWPOLYLINE
  5
2E7
100
AcDbEntity
  8
0
100
AcDbPolyline
 62
7
  6
CONTINUOUS
 90
4
 70
0
 43
0.3500000006
 10
93.6578007202
 20
159.9206185913
 10
93.6578007202
 20
160.5634720459
 10
95.157801178
 20
160.5634720459
 10
94.3006541748
 20
157.5634711304
  0
LINE
  5
2E8
100
AcDbEntity
  8
0
100
AcDbLine
 62
250
  6
CONTINUOUS
 10
91.9536117322
 20
130.0671739442
 11
91.9537537312
 21
130.1369456096
  0
LWPOLYLINE
  5
2E9
100
AcDbEntity
  8
0
100
AcDbPolyline
 62
250
  6
CONTINUOUS
 90
4
 70
0
 10
91.9536117322
 20
77.4719127022
 10
91.9536680986
 20
77.4730546931
 10
91.9537107527
 20
77.4764712766
 10
91.9537537312
 20
77.4900075154
  0
LWPOLYLINE
  5
2EA
100
AcDbEntity
  8
0
100
AcDbPolyline
 62
7
  6
CONTINUOUS
 90
13
 70
0
 43
0.3500000006
 10
95.4690493469
 20
168.4206121216
 10
95.4690493469
 20
169.7063371582
 10
95.6833338318
 20
170.1349061279
 10
96.1119028015
 20
170.5634750977
 10
96.3261872864
 20
170.5634750977
 10
96.7547562561
 20
170.1349061279
 10
96.9690498047
 20
169.7063371582
 10
96.9690498047
 20
168.4206121216
 10
96.7547562561
 20
167.9920431519
 10
96.3261872864
 20
167.5634741821
 10
96.1119028015
 20
167.5634741821
 10
95.6833338318
 20
167.9920431519
 10
95.4690493469
 20
168.4206121216
  0
LINE
  5
2EB
100
AcDbEntity
  8
0
100
AcDbLine
 62
7
  6
CONTINUOUS
 10
89.8035625
 20
78.6134765625
 11
89.9535625
 21
78.7634765625
  0
LINE
  5
2EC
100
AcDbEntity
  8
0
100
AcDbLine
 62
7
  6
CONTINUOUS
 10
89.8035625
 20
129.0134765625
 11
89.9535625
 21
128.8634765625
  0
LWPOLYLINE
  5
2ED
100
AcDbEntity
  8
0
100
AcDbPolyline
 62
7
  6
CONTINUOUS
 90
17
 70
0
 10
88.0043600589
 20
59.5141146096
 10
88.0075223034
 20
59.5192516119
 10
88.0104197973
 20
59.5294631512
 10
88.0130473329
 20
59.5446875282
 10
88.0154152292
 20
59.5648310395
 10
88.0175044871
 20
59.5897854516
 10
88.0192664602
 20
59.6194432187
 10
88.0206911082
 20
59.6536715753
 10
88.0217825206
 20
59.6922891605
 10
88.0225139333
 20
59.7350900549
 10
88.0228758266
 20
59.781851622
 10
88.022875821
 20
59.8323392808
 10
88.0225139173
 20
59.886295406
 10
88.0217824943
 20
59.943449987
 10
88.0206910728
 20
60.0035070023
 10
88.0192664222
 20
60.0661431395
 10
88.0154152208
 20
60.1978024228
  0
LINE
  5
2EE
100
AcDbEntity
  8
0
100
AcDbLine
 62
250
  6
CONTINUOUS
 10
90.4293350837
 20
76.8857973186
 11
91.5288539436
 21
77.4694415336
  0
LINE
  5
2EF
100
AcDbEntity
  8
0
100
AcDbLine
 62
250
  6
CONTINUOUS
 10
91.9536117322
 20
77.5597791808
 11
92.475703585
 21
77.836914845
  0
LINE
  5
2F0
100
AcDbEntity
  8
0
100
AcDbLine
 62
7
  6
CONTINUOUS
 10
90.5035624955
 20
76.6634765601
 11
92.5035625
 21
77.7251122221
  0
LWPOLYLINE
  5
2F1
100
AcDbEntity
  8
0
100
AcDbPolyline
 62
250
  6
CONTINUOUS
 90
10
 70
0
 10
92.0925236613
 20
77.5069254778
 10
92.0838736585
 20
77.5032747802
 10
92.0744963902
 20
77.5011129993
 10
92.0644446566
 20
77.5004502152
 10
92.0537779661
 20
77.5012877503
 10
92.042553244
 20
77.5036186864
 10
92.0308229928
 20
77.507432124
 10
92.0186460586
 20
77.5127114627
 10
92.0060942725
 20
77.519428001
 10
91.9932425731
 20
77.5275423705
  0
LINE
  5
2F2
100
AcDbEntity
  8
0
100
AcDbLine
 62
7
  6
CONTINUOUS
 10
90.5531905979
 20
129.0184393723
 11
92.5035625
 21
129.2134765625
  0
LINE
  5
2F3
100
AcDbEntity
  8
0
100
AcDbLine
 62
7
  6
CONTINUOUS
 10
89.5035625
 20
129.569296437
 11
92.3140296912
 21
129.6934632302
  0
LINE
  5
2F4
100
AcDbEntity
  8
0
100
AcDbLine
 62
7
  6
CONTINUOUS
 10
91.9816258457
 20
129.1612828971
 11
92.5035625
 21
129.1658377692
  0
LINE
  5
2F5
100
AcDbEntity
  8
0
100
AcDbLine
 62
7
  6
CONTINUOUS
 10
89.5035625
 20
128.8634765625
 11
89.6535625
 21
128.8634765625
  0
LINE
  5
2F6
100
AcDbEntity
  8
0
100
AcDbLine
 62
7
  6
CONTINUOUS
 10
89.9535625
 20
128.8634765625
 11
90.1535625
 21
128.8634765625
  0
LINE
  5
2F7
100
AcDbEntity
  8
0
100
AcDbLine
 62
7
  6
CONTINUOUS
 10
89.5035625
 20
129.0134765625
 11
90.4536868789
 21
129.0134765625
  0
LINE
  5
2F8
100
AcDbEntity
  8
0
100
AcDbLine
 62
7
  6
CONTINUOUS
 10
92.5035625
 20
129.9658377692
 11
92.3829997329
 21
129.9658377692
  0
LINE
  5
2F9
100
AcDbEntity
  8
0
100
AcDbLine
 62
250
  6
CONTINUOUS
 10
90.4293350837
 20
130.7411558064
 11
89.5035625
 21
130.7415740009
  0
LINE
  5
2FA
100
AcDbEntity
  8
0
100
AcDbLine
 62
7
  6
CONTINUOUS
 10
90.5035625
 20
130.9634765625
 11
89.5035625
 21
130.9652218935
  0
LINE
  5
2FB
100
AcDbEntity
  8
0
100
AcDbLine
 62
250
  6
CONTINUOUS
 10
91.9536117322
 20
130.0671739442
 11
89.5035625
 21
130.0814279137
  0
LINE
  5
2FC
100
AcDbEntity
  8
0
100
AcDbLine
 62
7
  6
CONTINUOUS
 10
91.9536117322
 20
130.1550404228
 11
89.5035625
 21
130.1692943923
  0
LWPOLYLINE
  5
2FD
100
AcDbEntity
  8
0
100
AcDbPolyline
 62
250
  6
CONTINUOUS
 90
10
 70
0
 10
92.0925236613
 20
130.1200276472
 10
92.0838465252
 20
130.1236870845
 10
92.0744532258
 20
130.1258463836
 10
92.0644001395
 20
130.1265025183
 10
92.0537578721
 20
130.1256624635
 10
92.0425785987
 20
130.1233412214
 10
92.030890298
 20
130.119546576
 10
92.0187452398
 20
130.1142897325
 10
92.0062186979
 20
130.1075977068
 10
91.9933719725
 20
130.0994984255
  0
LINE
  5
2FE
100
AcDbEntity
  8
0
100
AcDbLine
 62
250
  6
CONTINUOUS
 10
91.5288539436
 20
130.1575115914
 11
90.4293350837
 21
130.7411558064
  0
LINE
  5
2FF
100
AcDbEntity
  8
0
100
AcDbLine
 62
250
  6
CONTINUOUS
 10
92.475703585
 20
129.79003828
 11
91.9536117322
 21
130.0671739442
  0
LINE
  5
300
100
AcDbEntity
  8
0
100
AcDbLine
 62
7
  6
CONTINUOUS
 10
90.5035624964
 20
130.9634765644
 11
92.5035625
 21
129.9018409029
  0
LINE
  5
301
100
AcDbEntity
  8
SMUSSO
100
AcDbLine
 62
7
  6
CONTINUOUS
 10
82.9535625
 20
59.8134765625
 11
82.4535625
 21
59.3134765625
  0
LINE
  5
302
100
AcDbEntity
  8
SMUSSO
100
AcDbLine
 62
7
  6
CONTINUOUS
 10
84.4535625
 20
58.8134765625
 11
84.9535625
 21
59.3134765625
  0
LINE
  5
303
100
AcDbEntity
  8
SMUSSO
100
AcDbLine
 62
7
  6
CONTINUOUS
 10
82.4535625
 20
148.3134765625
 11
82.9535625
 21
147.8134765625
  0
LINE
  5
304
100
AcDbEntity
  8
SMUSSO
100
AcDbLine
 62
7
  6
CONTINUOUS
 10
84.9535625
 20
148.3134765625
 11
84.4535625
 21
148.8134765625
  0
LWPOLYLINE
  5
305
100
AcDbEntity
  8
0
100
AcDbPolyline
 62
7
  6
CONTINUOUS
 90
10
 70
0
 43
0.3500000006
 10
96.6578016357
 20
158.0634803467
 10
96.7292328186
 20
157.920617981
 10
96.7292328186
 20
157.8491958618
 10
96.5863704529
 20
157.7063334961
 10
96.51493927
 20
157.7063334961
 10
96.4435171509
 20
157.7777556152
 10
96.4435171509
 20
157.8491958618
 10
96.51493927
 20
157.9920401001
 10
96.5863704529
 20
158.0634803467
 10
96.6578016357
 20
158.0634803467
  0
LINE
  5
306
100
AcDbEntity
  8
0
100
AcDbLine
 62
7
  6
CONTINUOUS
 10
88.0035625
 20
59.5134765625
 11
89.5035625
 21
60.7134765625
  0
LINE
  5
307
100
AcDbEntity
  8
0
100
AcDbLine
 62
7
  6
CONTINUOUS
 10
88.0035625
 20
148.1134765625
 11
89.5035625
 21
146.9134765625
  0
LINE
  5
308
100
AcDbEntity
  8
RACCORDO
100
AcDbLine
 62
250
  6
CONTINUOUS
 10
84.9535625
 20
141.8134765625
 11
85.1035625
 21
141.8134765625
  0
LWPOLYLINE
  5
309
100
AcDbEntity
  8
0
100
AcDbPolyline
 62
7
  6
CONTINUOUS
 90
10
 70
0
 43
0.3500000006
 10
98.4690502625
 20
168.0634833984
 10
98.5404723816
 20
167.9206210327
 10
98.5404723816
 20
167.8491989136
 10
98.3976190796
 20
167.7063365479
 10
98.3261878967
 20
167.7063365479
 10
98.2547567139
 20
167.777758667
 10
98.2547567139
 20
167.8491989136
 10
98.3261878967
 20
167.9920431519
 10
98.3976190796
 20
168.0634833984
 10
98.4690502625
 20
168.0634833984
  0
LINE
  5
30A
100
AcDbEntity
  8
RACCORDO
100
AcDbLine
 62
7
  6
CONTINUOUS
 10
84.9535625
 20
143.8134765625
 11
85.1035625
 21
143.8134765625
  0
LINE
  5
30B
100
AcDbEntity
  8
SMUSSO
100
AcDbLine
 62
7
  6
CONTINUOUS
 10
82.9535625
 20
147.8134765625
 11
84.4535625
 21
147.8134765625
  0
LINE
  5
30C
100
AcDbEntity
  8
SMUSSO
100
AcDbLine
 62
7
  6
CONTINUOUS
 10
82.9535625
 20
148.8134765625
 11
84.4535625
 21
148.8134765625
  0
LWPOLYLINE
  5
30D
100
AcDbEntity
  8
0
100
AcDbPolyline
 62
7
  6
CONTINUOUS
 90
8
 70
0
 43
0.3500000006
 10
97.7292331238
 20
157.5634711304
 10
98.5863710632
 20
157.5634711304
 10
99.014940033
 20
157.9920401001
 10
99.014940033
 20
158.849196167
 10
98.5863710632
 20
159.2777651367
 10
97.7292331238
 20
159.2777651367
 10
97.7292331238
 20
160.5634720459
 10
99.014940033
 20
160.5634720459
  0
LWPOLYLINE
  5
30E
100
AcDbEntity
  8
0
100
AcDbPolyline
 62
7
  6
CONTINUOUS
 90
8
 70
0
 43
0.3500000006
 10
99.8720870361
 20
157.5634711304
 10
100.7292249756
 20
157.5634711304
 10
101.157803009
 20
157.9920401001
 10
101.157803009
 20
158.849196167
 10
100.7292249756
 20
159.2777651367
 10
99.8720870361
 20
159.2777651367
 10
99.8720870361
 20
160.5634720459
 10
101.157803009
 20
160.5634720459
  0
LWPOLYLINE
  5
30F
100
AcDbEntity
  8
0
100
AcDbPolyline
 62
7
  6
CONTINUOUS
 90
8
 70
0
 43
0.3500000006
 10
99.5404726868
 20
167.5634741821
 10
100.3976196899
 20
167.5634741821
 10
100.8261886597
 20
167.9920431519
 10
100.8261886597
 20
168.8491992188
 10
100.3976196899
 20
169.2777681885
 10
99.5404726868
 20
169.2777681885
 10
99.5404726868
 20
170.5634750977
 10
100.8261886597
 20
170.5634750977
  0
LWPOLYLINE
  5
310
100
AcDbEntity
  8
0
100
AcDbPolyline
 62
7
  6
CONTINUOUS
 90
8
 70
0
 43
0.3500000006
 10
101.6833356628
 20
167.5634741821
 10
102.5404736023
 20
167.5634741821
 10
102.969042572
 20
167.9920431519
 10
102.969042572
 20
168.8491992188
 10
102.5404736023
 20
169.2777681885
 10
101.6833356628
 20
169.2777681885
 10
101.6833356628
 20
170.5634750977
 10
102.969042572
 20
170.5634750977
  0
LINE
  5
311
100
AcDbEntity
  8
0
100
AcDbLine
 62
250
  6
CONTINUOUS
 10
85.1035625
 20
147.1642485556
 11
88.0035625
 21
147.1136288673
  0
LINE
  5
312
100
AcDbEntity
  8
0
100
AcDbLine
 62
7
  6
CONTINUOUS
 10
85.1035625
 20
148.1640962508
 11
88.0035625
 21
148.1134765625
  0
LINE
  5
313
100
AcDbEntity
  8
0
100
AcDbLine
 62
250
  6
CONTINUOUS
 10
88.0043600589
 20
147.1489425323
 11
89.5035625
 21
146.85187979
  0
ARC
  5
314
100
AcDbEntity
  8
RACCORDO
100
AcDbCircle
 62
7
  6
CONTINUOUS
 10
144.1881347656
 20
82.4134765625
 40
1.2
100
AcDbArc
 50
180.0
 51
270.0
  0
ARC
  5
315
100
AcDbEntity
  8
RACCORDO
100
AcDbCircle
 62
7
  6
CONTINUOUS
 10
209.4881347656
 20
82.4134765625
 40
1.2
100
AcDbArc
 50
270.0
 51
360.0
  0
ARC
  5
316
100
AcDbEntity
  8
RACCORDO
100
AcDbCircle
 62
7
  6
CONTINUOUS
 10
209.4881347656
 20
125.2134765625
 40
1.2
100
AcDbArc
 50
0.0
 51
90.0
  0
ARC
  5
317
100
AcDbEntity
  8
RACCORDO
100
AcDbCircle
 62
7
  6
CONTINUOUS
 10
144.1881347656
 20
125.2134765625
 40
1.2
100
AcDbArc
 50
90.0
 51
180.0
  0
ARC
  5
318
100
AcDbEntity
  8
0
100
AcDbCircle
 62
7
  6
CONTINUOUS
 10
90.4536868789
 20
130.0134765625
 40
1.0
100
AcDbArc
 50
270.0
 51
275.7105931375
  0
ARC
  5
319
100
AcDbEntity
  8
0
100
AcDbCircle
 62
7
  6
CONTINUOUS
 10
90.4536868789
 20
77.6134765625
 40
1.0
100
AcDbArc
 50
84.2894068625
 51
90.0
  0
ARC
  5
31A
100
AcDbEntity
  8
0
100
AcDbCircle
 62
7
  6
CONTINUOUS
 10
90.4288758717
 20
130.6634760337
 40
0.3
100
AcDbArc
 50
62.0510415412
 51
89.8999988061
  0
ARC
  5
31B
100
AcDbEntity
  8
0
100
AcDbCircle
 62
7
  6
CONTINUOUS
 10
90.4288758717
 20
76.9634770913
 40
0.3
100
AcDbArc
 50
270.1000011939
 51
297.9489584588
  0
ARC
  5
31C
100
AcDbEntity
  8
0
100
AcDbCircle
 62
7
  6
CONTINUOUS
 10
91.9518664128
 20
77.7719076252
 40
0.3
100
AcDbArc
 50
270.3333333333
 51
297.9601595788
  0
ARC
  5
31D
100
AcDbEntity
  8
0
100
AcDbCircle
 62
7
  6
CONTINUOUS
 10
91.9518664128
 20
129.8550454998
 40
0.3
100
AcDbArc
 50
62.0398404207
 51
89.6666666667
  0
ELLIPSE
  5
31E
100
AcDbEntity
  8
0
100
AcDbEllipse
 62
7
  6
CONTINUOUS
 10
180.3881347656
 20
78.8634308641
 30
0.0
 11
0.0
 21
0.3000456984
 31
0.0
 40
0.9998476952
 41
1.1926183462
 42
1.5707963268
  0
ELLIPSE
  5
31F
100
AcDbEntity
  8
0
100
AcDbEllipse
 62
7
  6
CONTINUOUS
 10
92.3035625
 20
77.7336778675
 30
0.0
 11
0.1417119467
 21
0.1422961243
 31
0.0
 40
0.9918061237
 41
-0.2491986107
 42
0.7350951877
  0
ELLIPSE
  5
320
100
AcDbEntity
  8
0
100
AcDbEllipse
 62
7
  6
CONTINUOUS
 10
92.3035625
 20
129.8932752575
 30
0.0
 11
-0.1417119467
 21
0.1422961243
 31
0.0
 40
0.9918061237
 41
-3.8766878413
 42
-2.8923940429
  0
ELLIPSE
  5
321
100
AcDbEntity
  8
0
100
AcDbEllipse
 62
7
  6
CONTINUOUS
 10
89.2816390464
 20
147.0910153254
 30
0.0
 11
1.2772653435
 21
-0.0582277698
 31
0.0
 40
0.7819142031
 41
-3.1412917057
 42
-3.1059619589
  0
ELLIPSE
  5
322
100
AcDbEntity
  8
0
100
AcDbEllipse
 62
7
  6
CONTINUOUS
 10
89.2816390464
 20
60.5359377996
 30
0.0
 11
1.2772653435
 21
0.0582277698
 31
0.0
 40
0.7819142031
 41
3.1059619589
 42
3.1412917057
  0
ENDSEC
  0
SECTION
  2
OBJECTS
  0
DICTIONARY
  5
C
100
AcDbDictionary
280
0
281
1
  3
ACAD_GROUP
350
D
  3
ACAD_MLINESTYLE
350
17
  3
ACAD_LAYOUT
350
1A
  3
ACAD_PLOTSETTINGS
350
19
  3
ACAD_PLOTSTYLENAME
350
E
  0
DICTIONARY
  5
D
102
{ACAD_REACTORS
330
C
102
}
100
AcDbDictionary
280
0
281
1
  0
ACDBDICTIONARYWDFLT
  5
E
102
{ACAD_REACTORS
330
C
102
}
100
AcDbDictionary
281
1
  3
Normal
350
F
100
AcDbDictionaryWithDefault
340
F
  0
DICTIONARY
  5
17
102
{ACAD_REACTORS
330
C
102
}
100
AcDbDictionary
280
0
281
1
  3
Standard
350
18
  0
DICTIONARY
  5
19
102
{ACAD_REACTORS
330
C
102
}
100
AcDbDictionary
281
1
  0
DICTIONARY
  5
1A
102
{ACAD_REACTORS
330
C
102
}
100
AcDbDictionary
281
1
  3
Model
350
323
  3
Layout1
350
324
  0
ACDBPLACEHOLDER
  5
F
102
{ACAD_REACTORS
330
E
102
}
  0
MLINESTYLE
  5
18
102
{ACAD_REACTORS
330
17
102
}
100
AcDbMlineStyle
  2
STANDARD
 70
0
  3

 62
256
 51
90.0
 52
90.0
 71
2
 49
0.5
 62
256
  6
BYLAYER
 49
-0.5
 62
256
  6
BYLAYER
  0
LAYOUT
  5
323
102
{ACAD_REACTORS
330
1A
102
}
100
AcDbPlotSettings
  1

  2
none_device
  4
ISO_A4_(297.00_x_210.00_MM)
  6

 40
0.0
 41
0.0
 42
0.0
 43
0.0
 44
297.0
 45
210.0
 46
0.0
 47
0.0
 48
0.0
 49
0.0
140
0.0
141
0.0
142
1.0
143
1.0
 70
1024
 72
1
 73
0
 74
0
  7

 75
0
147
1.0
148
0.0
149
0.0
100
AcDbLayout
  1
Model
 70
0
 71
0
 10
0.0
 20
0.0
 11
297.0
 21
210.0
 12
0.0
 22
0.0
 32
0.0
 14
0.0
 24
0.0
 34
0.0
 15
0.0
 25
0.0
 35
0.0
146
0.0
 13
0.0
 23
0.0
 33
0.0
 16
1.0
 26
0.0
 36
0.0
 17
0.0
 27
1.0
 37
0.0
 76
0
330
21C
345
0
346
0
  0
LAYOUT
  5
324
102
{ACAD_REACTORS
330
1A
102
}
100
AcDbPlotSettings
  1

  2
none_device
  4
ISO_A4_(297.00_x_210.00_MM)
  6

 40
0.0
 41
0.0
 42
0.0
 43
0.0
 44
297.0
 45
210.0
 46
0.0
 47
0.0
 48
0.0
 49
0.0
140
0.0
141
0.0
142
1.0
143
1.0
 70
0
 72
1
 73
0
 74
0
  7

 75
0
147
1.0
148
0.0
149
0.0
100
AcDbLayout
  1
Layout1
 70
0
 71
1
 10
0.0
 20
0.0
 11
297.0
 21
210.0
 12
0.0
 22
0.0
 32
0.0
 14
0.0
 24
0.0
 34
0.0
 15
0.0
 25
0.0
 35
0.0
146
0.0
 13
0.0
 23
0.0
 33
0.0
 16
1.0
 26
0.0
 36
0.0
 17
0.0
 27
1.0
 37
0.0
 76
0
330
21D
345
0
346
0
  0
ENDSEC
  0
EOF
