  0
SECTION
  2
HEADER
  9
$ACADVER
  1
AC1024
  9
$DWGCODEPAGE
  3
ANSI_1252
  9
$EXTMAX
 10
297.0
 20
210.0
 30
0.0
  9
$EXTMIN
 10
0.0
 20
0.0
 30
0.0
  9
$LIMMIN
 10
0.0
 20
0.0
  9
$LIMMAX
 10
297.0
 20
210.0
  9
$VIEWCTR
 10
148.5
 20
105.0
  9
$VIEWSIZE
 40
210.0
  9
$CLAYER
  8
0
  9
$LTSCALE
 40
16.335
  9
$CELTYPE
  6
BYLAYER
  9
$DIMSCALE
 40
1.0
  9
$DIMASZ
 40
3.0
  9
$DIMEXO
 40
0.5
  9
$DIMDLI
 40
11.286
  9
$DIMEXE
 40
1.5
  9
$DIMCEN
 40
2.673
  9
$DIMLFAC
 40
1.0
  9
$DIMBLK
  1
_FILLED
  9
$DIMALT
 70
0
  9
$DIMALTF
 40
0.0393700787
  9
$DIMTXT
 40
3.0
  9
$DIMTOL
 70
1
  9
$DIMLIM
 70
0
  9
$DIMTFAC
 40
1.0
  9
$DIMTP
 40
0.01
  9
$DIMTM
 40
0.01
  9
$DIMGAP
 40
0.625
  9
$DIMDSEP
 70
44
  9
$AUNITS
 70
0
  9
$PDMODE
 70
3
  9
$PDSIZE
 40
3.0
  9
$HANDSEED
  5
49B
  9
$TILEMODE
 70
1
  9
$MEASUREMENT
 70
1
  9
$INSUNITS
 70
4
  0
ENDSEC
  0
SECTION
  2
CLASSES
  0
CLASS
  1
ACDBDICTIONARYWDFLT
  2
AcDbDictionaryWithDefault
  3
AutoCAD 2000
 90
0
 91
1
280
0
281
0
  0
CLASS
  1
ACDBPLACEHOLDER
  2
AcDbPlaceHolder
  3
AutoCAD 2000
 90
0
 91
1
280
0
281
0
  0
CLASS
  1
LAYOUT
  2
AcDbLayout
  3
AutoCAD 2000
 90
0
 91
0
280
0
281
0
  0
ENDSEC
  0
SECTION
  2
TABLES
  0
TABLE
  2
VPORT
  5
8
100
AcDbSymbolTable
 70
2
  0
VPORT
  5
1F4
100
AcDbSymbolTableRecord
100
AcDbViewportTableRecord
  2
*ACTIVE
 70
0
 10
0.0
 20
0.0
 11
1.0
 21
1.0
 12
148.5
 22
105.0
 13
0.0
 23
0.0
 14
1.0
 24
1.0
 15
0.0
 25
0.0
 16
0.0
 26
0.0
 36
1.0
 17
0.0
 27
0.0
 37
0.0
 40
210.0
 41
1.4142857143
 42
50.0
 43
0.0
 44
0.0
 50
0.0
 51
0.0
 71
0
 72
100
 73
1
 74
1
 75
0
 76
0
 77
0
 78
0
  0
ENDTAB
  0
TABLE
  2
LTYPE
  5
5
100
AcDbSymbolTable
 70
6
  0
LTYPE
  5
14
100
AcDbSymbolTableRecord
100
AcDbLinetypeTableRecord
  2
BYBLOCK
 70
0
  3

 72
65
 73
0
 40
0.0
  0
LTYPE
  5
15
100
AcDbSymbolTableRecord
100
AcDbLinetypeTableRecord
  2
BYLAYER
 70
0
  3

 72
65
 73
0
 40
0.0
  0
LTYPE
  5
16
100
AcDbSymbolTableRecord
100
AcDbLinetypeTableRecord
  2
CONTINUOUS
 70
64
  3
Solid line
 72
65
 73
0
 40
0.0
  0
LTYPE
  5
1F5
100
AcDbSymbolTableRecord
100
AcDbLinetypeTableRecord
  2
CENTER
 70
64
  3
____ _ ____ _ ____ _ ____ _ ____ _ ____ _ ____
 72
65
 73
4
 40
0.6
 49
0.375
 74
0
 49
-0.075
 74
0
 49
0.075
 74
0
 49
-0.075
 74
0
  0
LTYPE
  5
1F6
100
AcDbSymbolTableRecord
100
AcDbLinetypeTableRecord
  2
HIDDEN
 70
64
  3
- - - - - - - - - - - - - - - - - - - -
 72
65
 73
2
 40
0.2
 49
0.1
 74
0
 49
-0.1
 74
0
  0
LTYPE
  5
1F7
100
AcDbSymbolTableRecord
100
AcDbLinetypeTableRecord
  2
PHANTOM
 70
64
  3
_____ _ _ _____ _ _ _____ _ _ _____
 72
65
 73
6
 40
0.8
 49
0.45
 74
0
 49
-0.05
 74
0
 49
0.1
 74
0
 49
-0.05
 74
0
 49
0.1
 74
0
 49
-0.05
 74
0
  0
LTYPE
  5
1F8
100
AcDbSymbolTableRecord
100
AcDbLinetypeTableRecord
  2
DOT
 70
64
  3
. . . . . . . . . . . . . . . . . . . .
 72
65
 73
2
 40
0.2
 49
0.1
 74
0
 49
-0.1
 74
0
  0
LTYPE
  5
1F9
100
AcDbSymbolTableRecord
100
AcDbLinetypeTableRecord
  2
DASHED
 70
64
  3
- - - - - - - - - - - - - - - - - - - -
 72
65
 73
2
 40
0.2
 49
0.1
 74
0
 49
-0.1
 74
0
  0
ENDTAB
  0
TABLE
  2
LAYER
  5
2
100
AcDbSymbolTable
 70
36
  0
LAYER
  5
10
100
AcDbSymbolTableRecord
100
AcDbLayerTableRecord
  2
0
 70
0
 62
7
  6
CONTINUOUS
370
-3
390
F
  0
LAYER
  5
1FA
100
AcDbSymbolTableRecord
100
AcDbLayerTableRecord
  2
DEFAULT_1
 70
0
 62
7
  6
CENTER
370
-3
390
F
  0
LAYER
  5
1FB
100
AcDbSymbolTableRecord
100
AcDbLayerTableRecord
  2
DEFAULT_2
 70
0
 62
7
  6
HIDDEN
370
-3
390
F
  0
LAYER
  5
1FC
100
AcDbSymbolTableRecord
100
AcDbLayerTableRecord
  2
DEFAULT_3
 70
0
 62
7
  6
PHANTOM
370
-3
390
F
  0
LAYER
  5
1FD
100
AcDbSymbolTableRecord
100
AcDbLayerTableRecord
  2
ASSI
 70
0
 62
7
  6
CONTINUOUS
370
-3
390
F
  0
LAYER
  5
1FE
100
AcDbSymbolTableRecord
100
AcDbLayerTableRecord
  2
COORDINATE
 70
0
 62
7
  6
CONTINUOUS
370
-3
390
F
  0
LAYER
  5
1FF
100
AcDbSymbolTableRecord
100
AcDbLayerTableRecord
  2
COORD_ORIGINE
 70
0
 62
7
  6
CONTINUOUS
370
-3
390
F
  0
LAYER
  5
200
100
AcDbSymbolTableRecord
100
AcDbLayerTableRecord
  2
COPY_PUBLISH
 70
0
 62
7
  6
CONTINUOUS
370
-3
390
F
  0
LAYER
  5
201
100
AcDbSymbolTableRecord
100
AcDbLayerTableRecord
  2
COSMETIC
 70
0
 62
7
  6
CONTINUOUS
370
-3
390
F
  0
LAYER
  5
202
100
AcDbSymbolTableRecord
100
AcDbLayerTableRecord
  2
COSMETICI
 70
0
 62
7
  6
CONTINUOUS
370
-3
390
F
  0
LAYER
  5
203
100
AcDbSymbolTableRecord
100
AcDbLayerTableRecord
  2
CURVA_TASSELLO
 70
0
 62
7
  6
CONTINUOUS
370
-3
390
F
  0
LAYER
  5
204
100
AcDbSymbolTableRecord
100
AcDbLayerTableRecord
  2
CURVE
 70
0
 62
7
  6
CONTINUOUS
370
-3
390
F
  0
LAYER
  5
205
100
AcDbSymbolTableRecord
100
AcDbLayerTableRecord
  2
DRAFT
 70
0
 62
7
  6
CONTINUOUS
370
-3
390
F
  0
LAYER
  5
206
100
AcDbSymbolTableRecord
100
AcDbLayerTableRecord
  2
IMPORT_IGES
 70
0
 62
7
  6
CONTINUOUS
370
-3
390
F
  0
LAYER
  5
207
100
AcDbSymbolTableRecord
100
AcDbLayerTableRecord
  2
INTFCLR_2
 70
0
 62
7
  6
CONTINUOUS
370
-3
390
F
  0
LAYER
  5
208
100
AcDbSymbolTableRecord
100
AcDbLayerTableRecord
  2
INTF_1
 70
0
 62
7
  6
CONTINUOUS
370
-3
390
F
  0
LAYER
  5
209
100
AcDbSymbolTableRecord
100
AcDbLayerTableRecord
  2
INTF_7
 70
0
 62
7
  6
CONTINUOUS
370
-3
390
F
  0
LAYER
  5
20A
100
AcDbSymbolTableRecord
100
AcDbLayerTableRecord
  2
LINEA_CHIUSURA
 70
0
 62
7
  6
CONTINUOUS
370
-3
390
F
  0
LAYER
  5
20B
100
AcDbSymbolTableRecord
100
AcDbLayerTableRecord
  2
NOTE
 70
0
 62
7
  6
CONTINUOUS
370
-3
390
F
  0
LAYER
  5
20C
100
AcDbSymbolTableRecord
100
AcDbLayerTableRecord
  2
PIANI
 70
0
 62
7
  6
CONTINUOUS
370
-3
390
F
  0
LAYER
  5
20D
100
AcDbSymbolTableRecord
100
AcDbLayerTableRecord
  2
PIANI_ORIGINE
 70
0
 62
7
  6
CONTINUOUS
370
-3
390
F
  0
LAYER
  5
20E
100
AcDbSymbolTableRecord
100
AcDbLayerTableRecord
  2
PIANI_RIFERIMENTO
 70
0
 62
7
  6
CONTINUOUS
370
-3
390
F
  0
LAYER
  5
20F
100
AcDbSymbolTableRecord
100
AcDbLayerTableRecord
  2
PUNTI
 70
0
 62
7
  6
CONTINUOUS
370
-3
390
F
  0
LAYER
  5
210
100
AcDbSymbolTableRecord
100
AcDbLayerTableRecord
  2
RACCORDO
 70
0
 62
7
  6
CONTINUOUS
370
-3
390
F
  0
LAYER
  5
211
100
AcDbSymbolTableRecord
100
AcDbLayerTableRecord
  2
RGB__255__255__255__
 70
0
 62
7
  6
CONTINUOUS
370
-3
390
F
  0
LAYER
  5
212
100
AcDbSymbolTableRecord
100
AcDbLayerTableRecord
  2
RGB____0____0____0__
 70
0
 62
7
  6
CONTINUOUS
370
-3
390
F
  0
LAYER
  5
213
100
AcDbSymbolTableRecord
100
AcDbLayerTableRecord
  2
SIMBOLI
 70
0
 62
7
  6
CONTINUOUS
370
-3
390
F
  0
LAYER
  5
214
100
AcDbSymbolTableRecord
100
AcDbLayerTableRecord
  2
SMUSSO
 70
0
 62
7
  6
CONTINUOUS
370
-3
390
F
  0
LAYER
  5
215
100
AcDbSymbolTableRecord
100
AcDbLayerTableRecord
  2
SNAPLINE
 70
0
 62
7
  6
CONTINUOUS
370
-3
390
F
  0
LAYER
  5
216
100
AcDbSymbolTableRecord
100
AcDbLayerTableRecord
  2
SUPERFICI
 70
0
 62
7
  6
CONTINUOUS
370
-3
390
F
  0
LAYER
  5
217
100
AcDbSymbolTableRecord
100
AcDbLayerTableRecord
  2
TRASH
 70
0
 62
7
  6
CONTINUOUS
370
-3
390
F
  0
LAYER
  5
218
100
AcDbSymbolTableRecord
100
AcDbLayerTableRecord
  2
XSEC_DATUMS
 70
0
 62
7
  6
CONTINUOUS
370
-3
390
F
  0
ENDTAB
  0
TABLE
  2
STYLE
  5
3
100
AcDbSymbolTable
 70
1
  0
STYLE
  5
11
100
AcDbSymbolTableRecord
100
AcDbTextStyleTableRecord
  2
STANDARD
 70
0
 40
0.0
 41
0.8
 50
0.0
 71
0
 42
0.2
  3
txt
  4

  0
STYLE
  5
219
100
AcDbSymbolTableRecord
100
AcDbTextStyleTableRecord
  2
TEXTSTYLE_1
 70
0
 40
0.0
 41
0.8
 50
0.0
 71
0
 42
0.2
  3
gdt
  4

  0
ENDTAB
  0
TABLE
  2
VIEW
  5
6
100
AcDbSymbolTable
 70
0
  0
ENDTAB
  0
TABLE
  2
UCS
  5
7
100
AcDbSymbolTable
 70
0
  0
ENDTAB
  0
TABLE
  2
APPID
  5
9
100
AcDbSymbolTable
 70
1
  0
APPID
  5
21A
100
AcDbSymbolTableRecord
100
AcDbRegAppTableRecord
  2
ACAD
 70
0
  0
ENDTAB
  0
TABLE
  2
BLOCK_RECORD
  5
1
100
AcDbSymbolTable
 70
0
  0
BLOCK_RECORD
  5
21B
100
AcDbSymbolTableRecord
100
AcDbBlockTableRecord
  2
*Model_Space
  0
BLOCK_RECORD
  5
21C
100
AcDbSymbolTableRecord
100
AcDbBlockTableRecord
  2
*Paper_Space
  0
BLOCK_RECORD
  5
21D
100
AcDbSymbolTableRecord
100
AcDbBlockTableRecord
  2
_FILLED
  0
BLOCK_RECORD
  5
21E
100
AcDbSymbolTableRecord
100
AcDbBlockTableRecord
  2
*D0
  0
BLOCK_RECORD
  5
21F
100
AcDbSymbolTableRecord
100
AcDbBlockTableRecord
  2
*D1
  0
BLOCK_RECORD
  5
220
100
AcDbSymbolTableRecord
100
AcDbBlockTableRecord
  2
*D2
  0
BLOCK_RECORD
  5
221
100
AcDbSymbolTableRecord
100
AcDbBlockTableRecord
  2
*D3
  0
ENDTAB
  0
TABLE
  2
DIMSTYLE
  5
A
100
AcDbSymbolTable
 70
1
100
AcDbDimStyleTable
 71
0
  0
DIMSTYLE
105
222
100
AcDbSymbolTableRecord
100
AcDbDimStyleTableRecord
  2
STANDARD
 70
0
  3

  4

 40
1.0
 41
3.0
 42
0.5
 43
0.38
 44
1.5
 45
0.0
 46
0.0
 47
0.01
 48
0.01
140
3.0
141
0.09
142
0.0
143
25.4
144
1.0
145
0.0
146
1.0
147
0.625
 71
1
 72
0
 73
0
 74
0
 75
0
 76
0
 77
1
 78
8
 79
2
170
0
171
1
172
0
173
0
174
0
175
0
176
0
177
0
178
0
270
2
179
2
271
2
272
2
273
2
274
2
275
0
280
0
281
0
282
0
283
1
284
8
285
0
286
0
287
3
288
0
340
11
278
44
341
21D
342
21D
343
21D
344
21D
  0
DIMSTYLE
105
223
100
AcDbSymbolTableRecord
100
AcDbDimStyleTableRecord
  2
DIMSTYLE_1
 70
0
  3

  4

 40
1.0
 41
3.0
 42
0.5
 43
0.38
 44
1.5
 45
0.0
 46
0.0
 47
0.0
 48
0.0
140
3.0
141
0.09
142
0.0
143
25.4
144
1.0
145
0.0
146
1.0
147
0.75
 71
0
 72
0
 73
0
 74
0
 75
0
 76
0
 77
1
 78
8
 79
2
170
0
171
1
172
0
173
0
174
0
175
0
176
0
177
0
178
0
270
2
179
2
271
2
272
2
273
2
274
2
275
0
280
0
281
0
282
0
283
1
284
8
285
0
286
0
287
3
288
0
340
11
278
44
341
21D
342
21D
343
21D
344
21D
  0
ENDTAB
  0
ENDSEC
  0
SECTION
  2
BLOCKS
  0
BLOCK
  5
20
100
AcDbEntity
  8
0
100
AcDbBlockBegin
  2
*Model_Space
 70
0
 10
0.0
 20
0.0
 30
0.0
  3
*Model_Space
  1

  0
ENDBLK
  5
21
100
AcDbEntity
  8
0
100
AcDbBlockEnd
  0
BLOCK
  5
1C
100
AcDbEntity
  8
0
100
AcDbBlockBegin
  2
*Paper_Space
 70
0
 10
0.0
 20
0.0
 30
0.0
  3
*Paper_Space
  1

  0
ENDBLK
  5
1D
100
AcDbEntity
  8
0
100
AcDbBlockEnd
  0
BLOCK
  5
224
100
AcDbEntity
  8
0
100
AcDbBlockBegin
  2
_FILLED
 70
64
 10
0.0
 20
0.0
  3
_FILLED
  1

  0
SOLID
  5
225
100
AcDbEntity
  8
0
  6
BYBLOCK
 62
0
100
AcDbTrace
 10
0.0
 20
0.0
 11
-1.0
 21
0.3166666667
 12
-1.0
 22
-0.3166666667
 13
-1.0
 23
-0.3166666667
  0
ENDBLK
  5
226
100
AcDbEntity
  8
0
  6
BYBLOCK
 62
0
100
AcDbBlockEnd
  0
BLOCK
  5
227
100
AcDbEntity
  8
0
100
AcDbBlockBegin
 62
7
  6
CONTINUOUS
  2
*D0
 70
65
 10
0.0
 20
0.0
  3
*D0
  1

  0
MTEXT
  5
228
100
AcDbEntity
  8
0
100
AcDbMText
 62
7
  6
CONTINUOUS
  7
STANDARD
 71
2
 72
1
 10
76.5
 20
0.0
 30
0.0
 11
0.0
 21
1.0
 31
0.0
 73
2
 44
0.9
  1
{\ftxt;\W0.0001;\H0.0001;\~}{\ftxt;\W1.5714285714;\H3.0; }{\ftxt;\W0.0001;\H0.0001;\~}
 40
3.0
 41
7.0714285714
  0
LINE
  5
229
100
AcDbEntity
  8
0
100
AcDbLine
 62
7
  6
CONTINUOUS
 10
71.7493911979
 20
-45.0
 11
81.75
 21
-45.0
  0
LINE
  5
22A
100
AcDbEntity
  8
0
100
AcDbLine
 62
7
  6
CONTINUOUS
 10
71.7493911979
 20
45.0
 11
81.75
 21
45.0
  0
LINE
  5
22B
100
AcDbEntity
  8
0
100
AcDbLine
 62
7
  6
CONTINUOUS
 10
80.25
 20
-45.0
 11
80.25
 21
0.0
  0
LINE
  5
22C
100
AcDbEntity
  8
0
100
AcDbLine
 62
7
  6
CONTINUOUS
 10
80.25
 20
45.0
 11
80.25
 21
0.0
  0
INSERT
  5
22D
100
AcDbEntity
  8
0
100
AcDbBlockReference
 62
7
  6
CONTINUOUS
  2
_FILLED
 10
80.25
 20
-45.0
 41
3.0
 42
3.0
 43
3.0
 50
270.0
  0
INSERT
  5
22E
100
AcDbEntity
  8
0
100
AcDbBlockReference
 62
7
  6
CONTINUOUS
  2
_FILLED
 10
80.25
 20
45.0
 41
3.0
 42
3.0
 43
3.0
 50
90.0
  0
ENDBLK
  5
22F
100
AcDbEntity
  8
0
  6
BYBLOCK
 62
0
100
AcDbBlockEnd
  0
BLOCK
  5
230
100
AcDbEntity
  8
0
100
AcDbBlockBegin
 62
7
  6
CONTINUOUS
  2
*D1
 70
65
 10
0.0
 20
0.0
  3
*D1
  1

  0
MTEXT
  5
231
100
AcDbEntity
  8
0
100
AcDbMText
 62
7
  6
CONTINUOUS
  7
STANDARD
 71
2
 72
1
 10
0.0
 20
56.75
 30
0.0
 11
1.0
 21
0.0
 31
0.0
 73
2
 44
0.9
  1
{\ftxt;\W0.0001;\H0.0001;\~}{\ftxt;\W3.4285714286;\H3.0; }{\ftxt;\W0.0001;\H0.0001;\~}
 40
3.0
 41
15.4285714286
  0
LINE
  5
232
100
AcDbEntity
  8
0
100
AcDbLine
 62
7
  6
CONTINUOUS
 10
72.25
 20
44.4993911979
 11
72.25
 21
54.5
  0
LINE
  5
233
100
AcDbEntity
  8
0
100
AcDbLine
 62
7
  6
CONTINUOUS
 10
-72.25
 20
44.4993911979
 11
-72.25
 21
54.5
  0
LINE
  5
234
100
AcDbEntity
  8
0
100
AcDbLine
 62
7
  6
CONTINUOUS
 10
72.25
 20
53.0
 11
0.0
 21
53.0
  0
LINE
  5
235
100
AcDbEntity
  8
0
100
AcDbLine
 62
7
  6
CONTINUOUS
 10
-72.25
 20
53.0
 11
0.0
 21
53.0
  0
INSERT
  5
236
100
AcDbEntity
  8
0
100
AcDbBlockReference
 62
7
  6
CONTINUOUS
  2
_FILLED
 10
72.25
 20
53.0
 41
3.0
 42
3.0
 43
3.0
  0
INSERT
  5
237
100
AcDbEntity
  8
0
100
AcDbBlockReference
 62
7
  6
CONTINUOUS
  2
_FILLED
 10
-72.25
 20
53.0
 41
3.0
 42
3.0
 43
3.0
 50
180.0
  0
ENDBLK
  5
238
100
AcDbEntity
  8
0
  6
BYBLOCK
 62
0
100
AcDbBlockEnd
  0
BLOCK
  5
239
100
AcDbEntity
  8
0
100
AcDbBlockBegin
 62
7
  6
CONTINUOUS
  2
*D2
 70
65
 10
0.0
 20
0.0
  3
*D2
  1

  0
MTEXT
  5
23A
100
AcDbEntity
  8
0
100
AcDbMText
 62
7
  6
CONTINUOUS
  7
STANDARD
 71
1
 72
1
 10
-95.6138902518
 20
56.75
 30
0.0
 11
1.0
 21
0.0
 31
0.0
 73
2
 44
0.9
  1
{\ftxt;\W0.0001;\H0.0001;\~}{\ftxt;\W2.6428571429;\H3.0; }{\ftxt;\W0.0001;\H0.0001;\~}
 40
3.0
 41
11.8928571429
  0
LINE
  5
23B
100
AcDbEntity
  8
0
100
AcDbLine
 62
7
  6
CONTINUOUS
 10
-100.4442189548
 20
41.7038975196
 11
-100.4442189548
 21
54.5
  0
LINE
  5
23C
100
AcDbEntity
  8
0
100
AcDbLine
 62
7
  6
CONTINUOUS
 10
-107.5942189548
 20
43.8767374102
 11
-107.5942189548
 21
54.5
  0
LINE
  5
23D
100
AcDbEntity
  8
0
100
AcDbLine
 62
7
  6
CONTINUOUS
 10
-100.4442189548
 20
53.0
 11
-104.0192189548
 21
53.0
  0
LINE
  5
23E
100
AcDbEntity
  8
0
100
AcDbLine
 62
7
  6
CONTINUOUS
 10
-104.0192189548
 20
53.0
 11
-87.6853188233
 21
53.0
  0
LINE
  5
23F
100
AcDbEntity
  8
0
100
AcDbLine
 62
7
  6
CONTINUOUS
 10
-107.5942189548
 20
53.0
 11
-104.0192189548
 21
53.0
  0
INSERT
  5
240
100
AcDbEntity
  8
0
100
AcDbBlockReference
 62
7
  6
CONTINUOUS
  2
_FILLED
 10
-100.4442189548
 20
53.0
 41
3.0
 42
3.0
 43
3.0
  0
INSERT
  5
241
100
AcDbEntity
  8
0
100
AcDbBlockReference
 62
7
  6
CONTINUOUS
  2
_FILLED
 10
-107.5942189548
 20
53.0
 41
3.0
 42
3.0
 43
3.0
 50
180.0
  0
ENDBLK
  5
242
100
AcDbEntity
  8
0
  6
BYBLOCK
 62
0
100
AcDbBlockEnd
  0
BLOCK
  5
243
100
AcDbEntity
  8
0
100
AcDbBlockBegin
 62
7
  6
CONTINUOUS
  2
*D3
 70
65
 10
0.0
 20
0.0
  3
*D3
  1

  0
MTEXT
  5
244
100
AcDbEntity
  8
0
100
AcDbMText
 62
7
  6
CONTINUOUS
  7
STANDARD
 71
1
 72
1
 10
-96.0456346643
 20
66.75
 30
0.0
 11
1.0
 21
0.0
 31
0.0
 73
2
 44
0.9
  1
{\ftxt;\W0.0001;\H0.0001;\~}{\ftxt;\W3.2142857143;\H3.0; }{\ftxt;\W0.0001;\H0.0001;\~}
 40
3.0
 41
14.4642857143
  0
LINE
  5
245
100
AcDbEntity
  8
0
100
AcDbLine
 62
7
  6
CONTINUOUS
 10
-97.4442189548
 20
26.5463167932
 11
-97.4442189548
 21
64.5
  0
LINE
  5
246
100
AcDbEntity
  8
0
100
AcDbLine
 62
7
  6
CONTINUOUS
 10
-107.5942189548
 20
43.8767374102
 11
-107.5942189548
 21
64.5
  0
LINE
  5
247
100
AcDbEntity
  8
0
100
AcDbLine
 62
7
  6
CONTINUOUS
 10
-97.4442189548
 20
63.0
 11
-102.5192189548
 21
63.0
  0
LINE
  5
248
100
AcDbEntity
  8
0
100
AcDbLine
 62
7
  6
CONTINUOUS
 10
-102.5192189548
 20
63.0
 11
-86.4027775215
 21
63.0
  0
LINE
  5
249
100
AcDbEntity
  8
0
100
AcDbLine
 62
7
  6
CONTINUOUS
 10
-107.5942189548
 20
63.0
 11
-102.5192189548
 21
63.0
  0
INSERT
  5
24A
100
AcDbEntity
  8
0
100
AcDbBlockReference
 62
7
  6
CONTINUOUS
  2
_FILLED
 10
-97.4442189548
 20
63.0
 41
3.0
 42
3.0
 43
3.0
  0
INSERT
  5
24B
100
AcDbEntity
  8
0
100
AcDbBlockReference
 62
7
  6
CONTINUOUS
  2
_FILLED
 10
-107.5942189548
 20
63.0
 41
3.0
 42
3.0
 43
3.0
 50
180.0
  0
ENDBLK
  5
24C
100
AcDbEntity
  8
0
  6
BYBLOCK
 62
0
100
AcDbBlockEnd
  0
ENDSEC
  0
SECTION
  2
ENTITIES
  0
DIMENSION
  5
24D
100
AcDbEntity
  8
0
100
AcDbDimension
 62
7
  6
CONTINUOUS
  2
*D0
 10
80.25
 20
45.0
 11
80.25
 21
-0.4285718275
 70
160
 71
2
 72
2
 41
0.9
 42
90.0
  1
{\ftxt;\W0.0001;\H0.0001;\~}{\ftxt;\W1.5714285714;\H3.0; }{\ftxt;\W0.0001;\H0.0001;\~}
  3
DIMSTYLE_1
100
AcDbAlignedDimension
 13
71.2493911979
 23
-45.0
 14
71.2493911979
 24
45.0
 50
90.0
100
AcDbRotatedDimension
  0
DIMENSION
  5
24E
100
AcDbEntity
  8
0
100
AcDbDimension
 62
7
  6
CONTINUOUS
  2
*D1
 10
-72.25
 20
53.0
 11
-0.4285713773
 21
53.0
 70
160
 71
2
 72
2
 41
0.9
 42
144.5
  1
{\ftxt;\W0.0001;\H0.0001;\~}{\ftxt;\W3.4285714286;\H3.0; }{\ftxt;\W0.0001;\H0.0001;\~}
  3
DIMSTYLE_1
100
AcDbAlignedDimension
 13
72.25
 23
43.9993911979
 14
-72.25
 24
43.9993911979
 50
180.0
100
AcDbRotatedDimension
  0
DIMENSION
  5
24F
100
AcDbEntity
  8
0
100
AcDbDimension
 62
7
  6
CONTINUOUS
  2
*D2
 10
-107.5942189548
 20
53.0
 11
-92.0781754761
 21
53.0
 70
160
 71
1
 72
2
 41
0.9
 42
7.15
  1
{\ftxt;\W0.0001;\H0.0001;\~}{\ftxt;\W2.6428571429;\H3.0; }{\ftxt;\W0.0001;\H0.0001;\~}
  3
DIMSTYLE_1
100
AcDbAlignedDimension
 13
-100.4442189548
 23
41.2038975196
 14
-107.5942189548
 24
43.3767374102
 50
180.0
100
AcDbRotatedDimension
  0
DIMENSION
  5
250
100
AcDbEntity
  8
0
100
AcDbDimension
 62
7
  6
CONTINUOUS
  2
*D3
 10
-107.5942189548
 20
63.0
 11
-91.6527788086
 21
63.0
 70
160
 71
1
 72
2
 41
0.9
 42
10.15
  1
{\ftxt;\W0.0001;\H0.0001;\~}{\ftxt;\W3.2142857143;\H3.0; }{\ftxt;\W0.0001;\H0.0001;\~}
  3
DIMSTYLE_1
100
AcDbAlignedDimension
 13
-97.4442189548
 23
26.0463167932
 14
-107.5942189548
 24
43.3767374102
 50
180.0
100
AcDbRotatedDimension
  0
LINE
  5
251
100
AcDbEntity
  8
0
100
AcDbLine
 62
7
  6
CONTINUOUS
 10
-71.0699854699
 20
44.7906993223
 11
-71.0555596544
 21
44.8061684565
  0
LINE
  5
252
100
AcDbEntity
  8
ASSI
100
AcDbLine
 62
7
  6
CONTINUOUS
 10
-71.0699854699
 20
44.7906993223
 11
-71.0555596544
 21
44.8061684565
  0
LINE
  5
253
100
AcDbEntity
  8
0
100
AcDbLine
 62
7
  6
CONTINUOUS
 10
-72.25
 20
43.9993911979
 11
-71.2493911979
 21
45.0
  0
LINE
  5
254
100
AcDbEntity
  8
ASSI
100
AcDbLine
 62
7
  6
CONTINUOUS
 10
-72.25
 20
43.9993911979
 11
-71.2493911979
 21
45.0
  0
LINE
  5
255
100
AcDbEntity
  8
0
100
AcDbLine
 62
7
  6
CONTINUOUS
 10
-71.0699854699
 20
44.7906993223
 11
-72.0406993223
 21
43.8199854699
  0
LINE
  5
256
100
AcDbEntity
  8
ASSI
100
AcDbLine
 62
7
  6
CONTINUOUS
 10
-71.0699854699
 20
44.7906993223
 11
-72.0406993223
 21
43.8199854699
  0
LINE
  5
257
100
AcDbEntity
  8
0
100
AcDbLine
 62
7
  6
CONTINUOUS
 10
-70.6267374102
 20
43.7712689598
 11
-71.0212689598
 21
43.3767374102
  0
LINE
  5
258
100
AcDbEntity
  8
ASSI
100
AcDbLine
 62
7
  6
CONTINUOUS
 10
-70.6267374102
 20
43.7712689598
 11
-71.0212689598
 21
43.3767374102
  0
LINE
  5
259
100
AcDbEntity
  8
0
100
AcDbLine
 62
7
  6
CONTINUOUS
 10
-72.0561684565
 20
43.8055596544
 11
-72.0406993223
 21
43.8199854699
  0
LINE
  5
25A
100
AcDbEntity
  8
ASSI
100
AcDbLine
 62
7
  6
CONTINUOUS
 10
-72.0561684565
 20
43.8055596544
 11
-72.0406993223
 21
43.8199854699
  0
LINE
  5
25B
100
AcDbEntity
  8
0
100
AcDbLine
 62
7
  6
CONTINUOUS
 10
-72.0406993223
 20
-43.8199854699
 11
-72.0561684565
 21
-43.8055596544
  0
LINE
  5
25C
100
AcDbEntity
  8
ASSI
100
AcDbLine
 62
7
  6
CONTINUOUS
 10
-72.0406993223
 20
-43.8199854699
 11
-72.0561684565
 21
-43.8055596544
  0
LINE
  5
25D
100
AcDbEntity
  8
0
100
AcDbLine
 62
7
  6
CONTINUOUS
 10
-71.2493911979
 20
-45.0
 11
-72.25
 21
-43.9993911979
  0
LINE
  5
25E
100
AcDbEntity
  8
ASSI
100
AcDbLine
 62
7
  6
CONTINUOUS
 10
-71.2493911979
 20
-45.0
 11
-72.25
 21
-43.9993911979
  0
LINE
  5
25F
100
AcDbEntity
  8
0
100
AcDbLine
 62
7
  6
CONTINUOUS
 10
-72.0406993223
 20
-43.8199854699
 11
-71.0699854699
 21
-44.7906993223
  0
LINE
  5
260
100
AcDbEntity
  8
ASSI
100
AcDbLine
 62
7
  6
CONTINUOUS
 10
-72.0406993223
 20
-43.8199854699
 11
-71.0699854699
 21
-44.7906993223
  0
LINE
  5
261
100
AcDbEntity
  8
0
100
AcDbLine
 62
7
  6
CONTINUOUS
 10
-71.0212689598
 20
-43.3767374102
 11
-70.6267374102
 21
-43.7712689598
  0
LINE
  5
262
100
AcDbEntity
  8
ASSI
100
AcDbLine
 62
7
  6
CONTINUOUS
 10
-71.0212689598
 20
-43.3767374102
 11
-70.6267374102
 21
-43.7712689598
  0
LINE
  5
263
100
AcDbEntity
  8
0
100
AcDbLine
 62
7
  6
CONTINUOUS
 10
-71.0555596544
 20
-44.8061684565
 11
-71.0699854699
 21
-44.7906993223
  0
LINE
  5
264
100
AcDbEntity
  8
ASSI
100
AcDbLine
 62
7
  6
CONTINUOUS
 10
-71.0555596544
 20
-44.8061684565
 11
-71.0699854699
 21
-44.7906993223
  0
LINE
  5
265
100
AcDbEntity
  8
0
100
AcDbLine
 62
7
  6
CONTINUOUS
 10
-72.25
 20
43.9993911979
 11
-72.25
 21
-43.9993911979
  0
LINE
  5
266
100
AcDbEntity
  8
ASSI
100
AcDbLine
 62
7
  6
CONTINUOUS
 10
-72.25
 20
43.9993911979
 11
-72.25
 21
-43.9993911979
  0
LINE
  5
267
100
AcDbEntity
  8
0
100
AcDbLine
 62
7
  6
CONTINUOUS
 10
-72.0561684565
 20
43.8055596544
 11
-72.0561684565
 21
-43.8055596544
  0
LINE
  5
268
100
AcDbEntity
  8
ASSI
100
AcDbLine
 62
7
  6
CONTINUOUS
 10
-72.0561684565
 20
43.8055596544
 11
-72.0561684565
 21
-43.8055596544
  0
LINE
  5
269
100
AcDbEntity
  8
0
100
AcDbLine
 62
7
  6
CONTINUOUS
 10
-71.0212689598
 20
43.3767374102
 11
-71.0212689598
 21
-43.3767374102
  0
LINE
  5
26A
100
AcDbEntity
  8
ASSI
100
AcDbLine
 62
7
  6
CONTINUOUS
 10
-71.0212689598
 20
43.3767374102
 11
-71.0212689598
 21
-43.3767374102
  0
LINE
  5
26B
100
AcDbEntity
  8
0
100
AcDbLine
 62
250
  6
CONTINUOUS
 10
-45.3983859163
 20
-22.2000910812
 11
-45.3983859163
 21
22.2000910812
  0
LINE
  5
26C
100
AcDbEntity
  8
ASSI
100
AcDbLine
 62
250
  6
CONTINUOUS
 10
-45.3983859163
 20
-22.2000910812
 11
-45.3983859163
 21
22.2000910812
  0
LINE
  5
26D
100
AcDbEntity
  8
0
100
AcDbLine
 62
250
  6
CONTINUOUS
 10
-45.1988731063
 20
-22.2000910812
 11
-45.1988731063
 21
22.2000910812
  0
LINE
  5
26E
100
AcDbEntity
  8
ASSI
100
AcDbLine
 62
250
  6
CONTINUOUS
 10
-45.1988731063
 20
-22.2000910812
 11
-45.1988731063
 21
22.2000910812
  0
LINE
  5
26F
100
AcDbEntity
  8
0
100
AcDbLine
 62
7
  6
CONTINUOUS
 10
-45.1
 20
22.1012179749
 11
-45.1
 21
-22.1012179749
  0
LINE
  5
270
100
AcDbEntity
  8
ASSI
100
AcDbLine
 62
7
  6
CONTINUOUS
 10
-45.1
 20
22.1012179749
 11
-45.1
 21
-22.1012179749
  0
LINE
  5
271
100
AcDbEntity
  8
0
100
AcDbLine
 62
250
  6
CONTINUOUS
 10
-44.7000910812
 20
22.8983859163
 11
-44.7000910812
 21
22.6988731063
  0
LINE
  5
272
100
AcDbEntity
  8
ASSI
100
AcDbLine
 62
250
  6
CONTINUOUS
 10
-44.7000910812
 20
22.8983859163
 11
-44.7000910812
 21
22.6988731063
  0
LINE
  5
273
100
AcDbEntity
  8
0
100
AcDbLine
 62
250
  6
CONTINUOUS
 10
-44.7000910812
 20
-22.8983859163
 11
-44.7000910812
 21
-22.6988731063
  0
LINE
  5
274
100
AcDbEntity
  8
ASSI
100
AcDbLine
 62
250
  6
CONTINUOUS
 10
-44.7000910812
 20
-22.8983859163
 11
-44.7000910812
 21
-22.6988731063
  0
LINE
  5
275
100
AcDbEntity
  8
0
100
AcDbLine
 62
7
  6
CONTINUOUS
 10
-70.6267374102
 20
-43.7712689598
 11
-71.0699854699
 21
-44.7906993223
  0
LINE
  5
276
100
AcDbEntity
  8
ASSI
100
AcDbLine
 62
7
  6
CONTINUOUS
 10
-70.6267374102
 20
-43.7712689598
 11
-71.0699854699
 21
-44.7906993223
  0
LINE
  5
277
100
AcDbEntity
  8
0
100
AcDbLine
 62
7
  6
CONTINUOUS
 10
-71.2493911979
 20
-45.0
 11
71.2493911979
 21
-45.0
  0
LINE
  5
278
100
AcDbEntity
  8
ASSI
100
AcDbLine
 62
7
  6
CONTINUOUS
 10
-71.2493911979
 20
-45.0
 11
71.2493911979
 21
-45.0
  0
LINE
  5
279
100
AcDbEntity
  8
0
100
AcDbLine
 62
7
  6
CONTINUOUS
 10
-71.0555596544
 20
-44.8061684565
 11
71.0555596544
 21
-44.8061684565
  0
LINE
  5
27A
100
AcDbEntity
  8
ASSI
100
AcDbLine
 62
7
  6
CONTINUOUS
 10
-71.0555596544
 20
-44.8061684565
 11
71.0555596544
 21
-44.8061684565
  0
LINE
  5
27B
100
AcDbEntity
  8
0
100
AcDbLine
 62
7
  6
CONTINUOUS
 10
-70.6267374102
 20
43.7712689598
 11
-71.0699854699
 21
44.7906993223
  0
LINE
  5
27C
100
AcDbEntity
  8
ASSI
100
AcDbLine
 62
7
  6
CONTINUOUS
 10
-70.6267374102
 20
43.7712689598
 11
-71.0699854699
 21
44.7906993223
  0
LWPOLYLINE
  5
27D
100
AcDbEntity
  8
0
100
AcDbPolyline
 62
7
  6
CONTINUOUS
 90
3
 70
0
 43
0.3500000006
 10
-5.1428570938
 20
55.8928609314
 10
-4.2857143393
 20
56.7499988708
 10
-4.2857143393
 20
53.7499979553
  0
LINE
  5
27E
100
AcDbEntity
  8
0
100
AcDbLine
 62
7
  6
CONTINUOUS
 10
-70.6267374102
 20
-43.7712689598
 11
70.6267374102
 21
-43.7712689598
  0
LINE
  5
27F
100
AcDbEntity
  8
ASSI
100
AcDbLine
 62
7
  6
CONTINUOUS
 10
-70.6267374102
 20
-43.7712689598
 11
70.6267374102
 21
-43.7712689598
  0
LINE
  5
280
100
AcDbEntity
  8
CURVE
100
AcDbLine
 62
250
  6
CONTINUOUS
 10
72.110131217
 20
-36.257398
 11
72.1973759453
 21
-36.257398
  0
LINE
  5
281
100
AcDbEntity
  8
CURVE
100
AcDbLine
 62
250
  6
CONTINUOUS
 10
72.1973759453
 20
-35.735605
 11
72.110131217
 21
-35.735605
  0
LINE
  5
282
100
AcDbEntity
  8
CURVE
100
AcDbLine
 62
250
  6
CONTINUOUS
 10
72.1111556794
 20
-30.6285551388
 11
72.1973759458
 21
-30.6285551388
  0
LINE
  5
283
100
AcDbEntity
  8
CURVE
100
AcDbLine
 62
250
  6
CONTINUOUS
 10
72.1489474951
 20
-30.126163664
 11
72.1249985478
 21
-30.126163664
  0
LINE
  5
284
100
AcDbEntity
  8
CURVE
100
AcDbLine
 62
250
  6
CONTINUOUS
 10
72.1973759458
 20
-30.1088617972
 11
72.1632352194
 21
-30.1088617972
  0
LINE
  5
285
100
AcDbEntity
  8
CURVE
100
AcDbLine
 62
250
  6
CONTINUOUS
 10
72.1566533149
 20
-29.2870512436
 11
72.1561378054
 21
-29.2870512436
  0
LINE
  5
286
100
AcDbEntity
  8
0
100
AcDbLine
 62
250
  6
CONTINUOUS
 10
44.7000910812
 20
-22.8983859163
 11
-44.7000910812
 21
-22.8983859163
  0
LINE
  5
287
100
AcDbEntity
  8
ASSI
100
AcDbLine
 62
250
  6
CONTINUOUS
 10
44.7000910812
 20
-22.8983859163
 11
-44.7000910812
 21
-22.8983859163
  0
LINE
  5
288
100
AcDbEntity
  8
0
100
AcDbLine
 62
250
  6
CONTINUOUS
 10
44.7000910812
 20
-22.6988731063
 11
-44.7000910812
 21
-22.6988731063
  0
LINE
  5
289
100
AcDbEntity
  8
ASSI
100
AcDbLine
 62
250
  6
CONTINUOUS
 10
44.7000910812
 20
-22.6988731063
 11
-44.7000910812
 21
-22.6988731063
  0
LINE
  5
28A
100
AcDbEntity
  8
0
100
AcDbLine
 62
7
  6
CONTINUOUS
 10
-44.6012179749
 20
-22.6
 11
44.6012179749
 21
-22.6
  0
LINE
  5
28B
100
AcDbEntity
  8
ASSI
100
AcDbLine
 62
7
  6
CONTINUOUS
 10
-44.6012179749
 20
-22.6
 11
44.6012179749
 21
-22.6
  0
LINE
  5
28C
100
AcDbEntity
  8
0
100
AcDbLine
 62
250
  6
CONTINUOUS
 10
45.3983859163
 20
-22.2000910812
 11
45.1988731063
 21
-22.2000910812
  0
LINE
  5
28D
100
AcDbEntity
  8
0
100
AcDbLine
 62
250
  6
CONTINUOUS
 10
-45.3983859163
 20
-22.2000910812
 11
-45.1988731063
 21
-22.2000910812
  0
LINE
  5
28E
100
AcDbEntity
  8
ASSI
100
AcDbLine
 62
250
  6
CONTINUOUS
 10
-45.3983859163
 20
-22.2000910812
 11
-45.1988731063
 21
-22.2000910812
  0
LINE
  5
28F
100
AcDbEntity
  8
ASSI
100
AcDbLine
 62
250
  6
CONTINUOUS
 10
45.3983859163
 20
-22.2000910812
 11
45.1988731063
 21
-22.2000910812
  0
LINE
  5
290
100
AcDbEntity
  8
0
100
AcDbLine
 62
7
  6
CONTINUOUS
 10
-72.0561684565
 20
-43.8055596544
 11
-72.25
 21
-43.9993911979
  0
LINE
  5
291
100
AcDbEntity
  8
ASSI
100
AcDbLine
 62
7
  6
CONTINUOUS
 10
-72.0561684565
 20
-43.8055596544
 11
-72.25
 21
-43.9993911979
  0
LINE
  5
292
100
AcDbEntity
  8
0
100
AcDbLine
 62
7
  6
CONTINUOUS
 10
-71.0555596544
 20
-44.8061684565
 11
-71.2493911979
 21
-45.0
  0
LINE
  5
293
100
AcDbEntity
  8
ASSI
100
AcDbLine
 62
7
  6
CONTINUOUS
 10
-71.0555596544
 20
-44.8061684565
 11
-71.2493911979
 21
-45.0
  0
LINE
  5
294
100
AcDbEntity
  8
0
100
AcDbLine
 62
250
  6
CONTINUOUS
 10
-45.1988731063
 20
-22.2000910812
 11
-45.1
 21
-22.1012179749
  0
LINE
  5
295
100
AcDbEntity
  8
ASSI
100
AcDbLine
 62
250
  6
CONTINUOUS
 10
-45.1988731063
 20
-22.2000910812
 11
-45.1
 21
-22.1012179749
  0
LINE
  5
296
100
AcDbEntity
  8
0
100
AcDbLine
 62
7
  6
CONTINUOUS
 10
-72.0561684565
 20
43.8055596544
 11
-72.25
 21
43.9993911979
  0
LINE
  5
297
100
AcDbEntity
  8
ASSI
100
AcDbLine
 62
7
  6
CONTINUOUS
 10
-72.0561684565
 20
43.8055596544
 11
-72.25
 21
43.9993911979
  0
LINE
  5
298
100
AcDbEntity
  8
0
100
AcDbLine
 62
7
  6
CONTINUOUS
 10
-71.0555596544
 20
44.8061684565
 11
-71.2493911979
 21
45.0
  0
LINE
  5
299
100
AcDbEntity
  8
ASSI
100
AcDbLine
 62
7
  6
CONTINUOUS
 10
-71.0555596544
 20
44.8061684565
 11
-71.2493911979
 21
45.0
  0
LINE
  5
29A
100
AcDbEntity
  8
0
100
AcDbLine
 62
250
  6
CONTINUOUS
 10
-45.1988731063
 20
22.2000910812
 11
-45.1
 21
22.1012179749
  0
LINE
  5
29B
100
AcDbEntity
  8
ASSI
100
AcDbLine
 62
250
  6
CONTINUOUS
 10
-45.1988731063
 20
22.2000910812
 11
-45.1
 21
22.1012179749
  0
LWPOLYLINE
  5
29C
100
AcDbEntity
  8
0
100
AcDbPolyline
 62
7
  6
CONTINUOUS
 90
3
 70
0
 43
0.3500000006
 10
2.0000000439
 20
54.035713623
 10
1.9285714102
 20
53.8214291382
 10
1.7857142844
 20
53.5357134705
  0
LINE
  5
29D
100
AcDbEntity
  8
0
100
AcDbLine
 62
250
  6
CONTINUOUS
 10
-44.7000910812
 20
-22.6988731063
 11
-44.6012179749
 21
-22.6
  0
LINE
  5
29E
100
AcDbEntity
  8
ASSI
100
AcDbLine
 62
250
  6
CONTINUOUS
 10
-44.7000910812
 20
-22.6988731063
 11
-44.6012179749
 21
-22.6
  0
LINE
  5
29F
100
AcDbEntity
  8
0
100
AcDbLine
 62
7
  6
CONTINUOUS
 10
71.0212689598
 20
43.3767374102
 11
72.0406993223
 21
43.8199854699
  0
LINE
  5
2A0
100
AcDbEntity
  8
ASSI
100
AcDbLine
 62
7
  6
CONTINUOUS
 10
71.0212689598
 20
43.3767374102
 11
72.0406993223
 21
43.8199854699
  0
LINE
  5
2A1
100
AcDbEntity
  8
0
100
AcDbLine
 62
7
  6
CONTINUOUS
 10
71.0212689598
 20
-43.3767374102
 11
72.0406993223
 21
-43.8199854699
  0
LINE
  5
2A2
100
AcDbEntity
  8
ASSI
100
AcDbLine
 62
7
  6
CONTINUOUS
 10
71.0212689598
 20
-43.3767374102
 11
72.0406993223
 21
-43.8199854699
  0
LINE
  5
2A3
100
AcDbEntity
  8
0
100
AcDbLine
 62
250
  6
CONTINUOUS
 10
-44.7000910812
 20
22.6988731063
 11
-44.6012179749
 21
22.6
  0
LINE
  5
2A4
100
AcDbEntity
  8
ASSI
100
AcDbLine
 62
250
  6
CONTINUOUS
 10
-44.7000910812
 20
22.6988731063
 11
-44.6012179749
 21
22.6
  0
LWPOLYLINE
  5
2A5
100
AcDbEntity
  8
0
100
AcDbPolyline
 62
7
  6
CONTINUOUS
 90
2
 70
0
 43
0.3500000006
 10
-2.4285715628
 20
53.7499979553
 10
-2.4285715628
 20
55.2499984131
  0
LWPOLYLINE
  5
2A6
100
AcDbEntity
  8
0
100
AcDbPolyline
 62
7
  6
CONTINUOUS
 90
2
 70
0
 43
0.3500000006
 10
-0.0714285717
 20
53.7499979553
 10
-0.0714285717
 20
55.2499984131
  0
LWPOLYLINE
  5
2A7
100
AcDbEntity
  8
0
100
AcDbPolyline
 62
7
  6
CONTINUOUS
 90
13
 70
0
 43
0.3500000006
 10
78.6428591309
 20
-0.0000003204
 10
77.357143158
 20
-0.0000003204
 10
76.9285741882
 20
0.2142864304
 10
76.4999961548
 20
0.642857666
 10
76.4999961548
 20
0.8571421509
 10
76.9285741882
 20
1.2857133865
 10
77.357143158
 20
1.5000001373
 10
78.6428591309
 20
1.5000001373
 10
79.0714281006
 20
1.2857133865
 10
79.4999970703
 20
0.8571421509
 10
79.4999970703
 20
0.642857666
 10
79.0714281006
 20
0.2142864304
 10
78.6428591309
 20
-0.0000003204
  0
LINE
  5
2A8
100
AcDbEntity
  8
0
100
AcDbLine
 62
7
  6
CONTINUOUS
 10
-71.0212689598
 20
-43.3767374102
 11
-72.0406993223
 21
-43.8199854699
  0
LINE
  5
2A9
100
AcDbEntity
  8
ASSI
100
AcDbLine
 62
7
  6
CONTINUOUS
 10
-71.0212689598
 20
-43.3767374102
 11
-72.0406993223
 21
-43.8199854699
  0
LINE
  5
2AA
100
AcDbEntity
  8
0
100
AcDbLine
 62
7
  6
CONTINUOUS
 10
-71.0212689598
 20
43.3767374102
 11
-72.0406993223
 21
43.8199854699
  0
LINE
  5
2AB
100
AcDbEntity
  8
ASSI
100
AcDbLine
 62
7
  6
CONTINUOUS
 10
-71.0212689598
 20
43.3767374102
 11
-72.0406993223
 21
43.8199854699
  0
LINE
  5
2AC
100
AcDbEntity
  8
0
100
AcDbLine
 62
250
  6
CONTINUOUS
 10
44.7000910812
 20
22.6988731063
 11
44.6012179749
 21
22.6
  0
LINE
  5
2AD
100
AcDbEntity
  8
ASSI
100
AcDbLine
 62
250
  6
CONTINUOUS
 10
44.7000910812
 20
22.6988731063
 11
44.6012179749
 21
22.6
  0
LINE
  5
2AE
100
AcDbEntity
  8
0
100
AcDbLine
 62
250
  6
CONTINUOUS
 10
45.1988731063
 20
22.2000910812
 11
45.1
 21
22.1012179749
  0
LINE
  5
2AF
100
AcDbEntity
  8
ASSI
100
AcDbLine
 62
250
  6
CONTINUOUS
 10
45.1988731063
 20
22.2000910812
 11
45.1
 21
22.1012179749
  0
LINE
  5
2B0
100
AcDbEntity
  8
0
100
AcDbLine
 62
250
  6
CONTINUOUS
 10
44.7000910812
 20
-22.6988731063
 11
44.6012179749
 21
-22.6
  0
LINE
  5
2B1
100
AcDbEntity
  8
ASSI
100
AcDbLine
 62
250
  6
CONTINUOUS
 10
44.7000910812
 20
-22.6988731063
 11
44.6012179749
 21
-22.6
  0
LINE
  5
2B2
100
AcDbEntity
  8
0
100
AcDbLine
 62
250
  6
CONTINUOUS
 10
45.1988731063
 20
-22.2000910812
 11
45.1
 21
-22.1012179749
  0
LINE
  5
2B3
100
AcDbEntity
  8
ASSI
100
AcDbLine
 62
250
  6
CONTINUOUS
 10
45.1988731063
 20
-22.2000910812
 11
45.1
 21
-22.1012179749
  0
LINE
  5
2B4
100
AcDbEntity
  8
0
100
AcDbLine
 62
7
  6
CONTINUOUS
 10
71.0555596544
 20
44.8061684565
 11
71.2493911979
 21
45.0
  0
LINE
  5
2B5
100
AcDbEntity
  8
ASSI
100
AcDbLine
 62
7
  6
CONTINUOUS
 10
71.0555596544
 20
44.8061684565
 11
71.2493911979
 21
45.0
  0
LINE
  5
2B6
100
AcDbEntity
  8
0
100
AcDbLine
 62
7
  6
CONTINUOUS
 10
72.0561684565
 20
43.8055596544
 11
72.25
 21
43.9993911979
  0
LINE
  5
2B7
100
AcDbEntity
  8
ASSI
100
AcDbLine
 62
7
  6
CONTINUOUS
 10
72.0561684565
 20
43.8055596544
 11
72.25
 21
43.9993911979
  0
LINE
  5
2B8
100
AcDbEntity
  8
0
100
AcDbLine
 62
250
  6
CONTINUOUS
 10
45.3983859163
 20
22.2000910812
 11
45.1988731063
 21
22.2000910812
  0
LINE
  5
2B9
100
AcDbEntity
  8
0
100
AcDbLine
 62
250
  6
CONTINUOUS
 10
-45.3983859163
 20
22.2000910812
 11
-45.1988731063
 21
22.2000910812
  0
LINE
  5
2BA
100
AcDbEntity
  8
ASSI
100
AcDbLine
 62
250
  6
CONTINUOUS
 10
-45.3983859163
 20
22.2000910812
 11
-45.1988731063
 21
22.2000910812
  0
LINE
  5
2BB
100
AcDbEntity
  8
ASSI
100
AcDbLine
 62
250
  6
CONTINUOUS
 10
45.3983859163
 20
22.2000910812
 11
45.1988731063
 21
22.2000910812
  0
LINE
  5
2BC
100
AcDbEntity
  8
0
100
AcDbLine
 62
7
  6
CONTINUOUS
 10
44.6012179749
 20
22.6
 11
-44.6012179749
 21
22.6
  0
LINE
  5
2BD
100
AcDbEntity
  8
ASSI
100
AcDbLine
 62
7
  6
CONTINUOUS
 10
44.6012179749
 20
22.6
 11
-44.6012179749
 21
22.6
  0
LINE
  5
2BE
100
AcDbEntity
  8
0
100
AcDbLine
 62
250
  6
CONTINUOUS
 10
-44.7000910812
 20
22.6988731063
 11
44.7000910812
 21
22.6988731063
  0
LINE
  5
2BF
100
AcDbEntity
  8
ASSI
100
AcDbLine
 62
250
  6
CONTINUOUS
 10
-44.7000910812
 20
22.6988731063
 11
44.7000910812
 21
22.6988731063
  0
LINE
  5
2C0
100
AcDbEntity
  8
0
100
AcDbLine
 62
250
  6
CONTINUOUS
 10
-44.7000910812
 20
22.8983859163
 11
44.7000910812
 21
22.8983859163
  0
LINE
  5
2C1
100
AcDbEntity
  8
ASSI
100
AcDbLine
 62
250
  6
CONTINUOUS
 10
-44.7000910812
 20
22.8983859163
 11
44.7000910812
 21
22.8983859163
  0
LINE
  5
2C2
100
AcDbEntity
  8
0
100
AcDbLine
 62
7
  6
CONTINUOUS
 10
71.0555596544
 20
-44.8061684565
 11
71.2493911979
 21
-45.0
  0
LINE
  5
2C3
100
AcDbEntity
  8
ASSI
100
AcDbLine
 62
7
  6
CONTINUOUS
 10
71.0555596544
 20
-44.8061684565
 11
71.2493911979
 21
-45.0
  0
LINE
  5
2C4
100
AcDbEntity
  8
0
100
AcDbLine
 62
7
  6
CONTINUOUS
 10
72.0561684565
 20
-43.8055596544
 11
72.25
 21
-43.9993911979
  0
LINE
  5
2C5
100
AcDbEntity
  8
ASSI
100
AcDbLine
 62
7
  6
CONTINUOUS
 10
72.0561684565
 20
-43.8055596544
 11
72.25
 21
-43.9993911979
  0
LWPOLYLINE
  5
2C6
100
AcDbEntity
  8
0
100
AcDbPolyline
 62
7
  6
CONTINUOUS
 90
10
 70
0
 43
0.3500000006
 10
1.9285714102
 20
54.2499981079
 10
2.0000000439
 20
54.1071448059
 10
2.0000000439
 20
54.035713623
 10
1.8571429181
 20
53.8928557892
 10
1.7857142844
 20
53.8928557892
 10
1.7142856507
 20
53.964286972
 10
1.7142856507
 20
54.035713623
 10
1.7857142844
 20
54.1785714569
 10
1.8571429181
 20
54.2499981079
 10
1.9285714102
 20
54.2499981079
  0
LINE
  5
2C7
100
AcDbEntity
  8
0
100
AcDbLine
 62
250
  6
CONTINUOUS
 10
44.7000910812
 20
22.8983859163
 11
44.7000910812
 21
22.6988731063
  0
LINE
  5
2C8
100
AcDbEntity
  8
ASSI
100
AcDbLine
 62
250
  6
CONTINUOUS
 10
44.7000910812
 20
22.8983859163
 11
44.7000910812
 21
22.6988731063
  0
LINE
  5
2C9
100
AcDbEntity
  8
0
100
AcDbLine
 62
250
  6
CONTINUOUS
 10
44.7000910812
 20
-22.8983859163
 11
44.7000910812
 21
-22.6988731063
  0
LINE
  5
2CA
100
AcDbEntity
  8
ASSI
100
AcDbLine
 62
250
  6
CONTINUOUS
 10
44.7000910812
 20
-22.8983859163
 11
44.7000910812
 21
-22.6988731063
  0
LINE
  5
2CB
100
AcDbEntity
  8
0
100
AcDbLine
 62
7
  6
CONTINUOUS
 10
45.1
 20
-22.1012179749
 11
45.1
 21
22.1012179749
  0
LINE
  5
2CC
100
AcDbEntity
  8
ASSI
100
AcDbLine
 62
7
  6
CONTINUOUS
 10
45.1
 20
-22.1012179749
 11
45.1
 21
22.1012179749
  0
LINE
  5
2CD
100
AcDbEntity
  8
0
100
AcDbLine
 62
250
  6
CONTINUOUS
 10
45.1988731063
 20
22.2000910812
 11
45.1988731063
 21
-22.2000910812
  0
LINE
  5
2CE
100
AcDbEntity
  8
ASSI
100
AcDbLine
 62
250
  6
CONTINUOUS
 10
45.1988731063
 20
22.2000910812
 11
45.1988731063
 21
-22.2000910812
  0
LINE
  5
2CF
100
AcDbEntity
  8
0
100
AcDbLine
 62
250
  6
CONTINUOUS
 10
45.3983859163
 20
22.2000910812
 11
45.3983859163
 21
-22.2000910812
  0
LINE
  5
2D0
100
AcDbEntity
  8
ASSI
100
AcDbLine
 62
250
  6
CONTINUOUS
 10
45.3983859163
 20
22.2000910812
 11
45.3983859163
 21
-22.2000910812
  0
LINE
  5
2D1
100
AcDbEntity
  8
0
100
AcDbLine
 62
7
  6
CONTINUOUS
 10
70.6267374102
 20
43.7712689598
 11
-70.6267374102
 21
43.7712689598
  0
LINE
  5
2D2
100
AcDbEntity
  8
ASSI
100
AcDbLine
 62
7
  6
CONTINUOUS
 10
70.6267374102
 20
43.7712689598
 11
-70.6267374102
 21
43.7712689598
  0
LINE
  5
2D3
100
AcDbEntity
  8
0
100
AcDbLine
 62
7
  6
CONTINUOUS
 10
71.0555596544
 20
44.8061684565
 11
-71.0555596544
 21
44.8061684565
  0
LINE
  5
2D4
100
AcDbEntity
  8
ASSI
100
AcDbLine
 62
7
  6
CONTINUOUS
 10
71.0555596544
 20
44.8061684565
 11
-71.0555596544
 21
44.8061684565
  0
LINE
  5
2D5
100
AcDbEntity
  8
0
100
AcDbLine
 62
7
  6
CONTINUOUS
 10
71.2493911979
 20
45.0
 11
-71.2493911979
 21
45.0
  0
LINE
  5
2D6
100
AcDbEntity
  8
ASSI
100
AcDbLine
 62
7
  6
CONTINUOUS
 10
71.2493911979
 20
45.0
 11
-71.2493911979
 21
45.0
  0
LINE
  5
2D7
100
AcDbEntity
  8
0
100
AcDbLine
 62
7
  6
CONTINUOUS
 10
70.6267374102
 20
43.7712689598
 11
71.0699854699
 21
44.7906993223
  0
LINE
  5
2D8
100
AcDbEntity
  8
ASSI
100
AcDbLine
 62
7
  6
CONTINUOUS
 10
70.6267374102
 20
43.7712689598
 11
71.0699854699
 21
44.7906993223
  0
LINE
  5
2D9
100
AcDbEntity
  8
CURVE
100
AcDbLine
 62
250
  6
CONTINUOUS
 10
72.1404101948
 20
-34.842919
 11
72.1973759453
 21
-34.955522
  0
LINE
  5
2DA
100
AcDbEntity
  8
0
100
AcDbLine
 62
7
  6
CONTINUOUS
 10
70.6267374102
 20
-43.7712689598
 11
71.0699854699
 21
-44.7906993223
  0
LINE
  5
2DB
100
AcDbEntity
  8
ASSI
100
AcDbLine
 62
7
  6
CONTINUOUS
 10
70.6267374102
 20
-43.7712689598
 11
71.0699854699
 21
-44.7906993223
  0
LWPOLYLINE
  5
2DC
100
AcDbEntity
  8
0
100
AcDbPolyline
 62
7
  6
CONTINUOUS
 90
8
 70
0
 43
0.3500000006
 10
3.0000000658
 20
53.7499979553
 10
3.8571428204
 20
53.7499979553
 10
4.2857143393
 20
54.1785714569
 10
4.2857143393
 20
55.0357139282
 10
3.8571428204
 20
55.4642874298
 10
3.0000000658
 20
55.4642874298
 10
3.0000000658
 20
56.7499988708
 10
4.2857143393
 20
56.7499988708
  0
LWPOLYLINE
  5
2DD
100
AcDbEntity
  8
0
100
AcDbPolyline
 62
7
  6
CONTINUOUS
 90
3
 70
0
 43
0.3500000006
 10
0.4285714127
 20
54.3928559418
 10
-1.0714285848
 20
54.3928559418
 10
-0.4285714127
 20
56.7499988708
  0
LWPOLYLINE
  5
2DE
100
AcDbEntity
  8
0
100
AcDbPolyline
 62
7
  6
CONTINUOUS
 90
3
 70
0
 43
0.3500000006
 10
-1.9285714102
 20
54.3928559418
 10
-3.4285713015
 20
54.3928559418
 10
-2.7857141647
 20
56.7499988708
  0
LWPOLYLINE
  5
2DF
100
AcDbEntity
  8
0
100
AcDbPolyline
 62
7
  6
CONTINUOUS
 90
10
 70
0
 43
0.3500000006
 10
79.4999970703
 20
-1.9285708809
 10
78.6428591309
 20
-1.0714295425
 10
77.7857121277
 20
-0.8571427917
 10
76.9285741882
 20
-0.8571427917
 10
76.4999961548
 20
-1.2857140274
 10
76.4999961548
 20
-1.9285708809
 10
76.9285741882
 20
-2.3571432495
 10
77.7857121277
 20
-2.3571432495
 10
78.2142901611
 20
-1.9285708809
 10
78.2142901611
 20
-1.0000006256
  0
LINE
  5
2E0
100
AcDbEntity
  8
CURVE
100
AcDbLine
 62
250
  6
CONTINUOUS
 10
72.1973759453
 20
-35.454708
 11
72.110136417
 21
-35.228996
  0
LINE
  5
2E1
100
AcDbEntity
  8
CURVE
100
AcDbLine
 62
250
  6
CONTINUOUS
 10
72.110136417
 20
-36.451037
 11
72.1973759453
 21
-37.254552
  0
LINE
  5
2E2
100
AcDbEntity
  8
CURVE
100
AcDbLine
 62
250
  6
CONTINUOUS
 10
72.1585720674
 20
-34.191353
 11
72.110136417
 21
-33.66956
  0
LINE
  5
2E3
100
AcDbEntity
  8
CURVE
100
AcDbLine
 62
250
  6
CONTINUOUS
 10
72.140647651
 20
-33.5372
 11
72.1973759453
 21
-34.157611
  0
LINE
  5
2E4
100
AcDbEntity
  8
CURVE
100
AcDbLine
 62
250
  6
CONTINUOUS
 10
72.1341076249
 20
-31.81095
 11
72.1664833296
 21
-32.070759
  0
LINE
  5
2E5
100
AcDbEntity
  8
CURVE
100
AcDbLine
 62
250
  6
CONTINUOUS
 10
72.1701860964
 20
-37.463524
 11
72.110136417
 21
-36.972473
  0
LINE
  5
2E6
100
AcDbEntity
  8
CURVE
100
AcDbLine
 62
250
  6
CONTINUOUS
 10
72.17995984
 20
-32.177494
 11
72.1973759453
 21
-32.321477
  0
LINE
  5
2E7
100
AcDbEntity
  8
CURVE
100
AcDbLine
 62
250
  6
CONTINUOUS
 10
72.1973759453
 20
-32.837608
 11
72.110136417
 21
-32.053532
  0
LINE
  5
2E8
100
AcDbEntity
  8
0
100
AcDbLine
 62
7
  6
CONTINUOUS
 10
71.0212689598
 20
-43.3767374102
 11
71.0212689598
 21
43.3767374102
  0
LINE
  5
2E9
100
AcDbEntity
  8
ASSI
100
AcDbLine
 62
7
  6
CONTINUOUS
 10
71.0212689598
 20
-43.3767374102
 11
71.0212689598
 21
43.3767374102
  0
LINE
  5
2EA
100
AcDbEntity
  8
0
100
AcDbLine
 62
7
  6
CONTINUOUS
 10
72.0561684565
 20
-43.8055596544
 11
72.0561684565
 21
43.8055596544
  0
LINE
  5
2EB
100
AcDbEntity
  8
ASSI
100
AcDbLine
 62
7
  6
CONTINUOUS
 10
72.0561684565
 20
-43.8055596544
 11
72.0561684565
 21
43.8055596544
  0
LINE
  5
2EC
100
AcDbEntity
  8
CURVE
100
AcDbLine
 62
250
  6
CONTINUOUS
 10
72.110131217
 20
-35.735605
 11
72.110131217
 21
-36.257398
  0
LINE
  5
2ED
100
AcDbEntity
  8
CURVE
100
AcDbLine
 62
250
  6
CONTINUOUS
 10
72.110136417
 20
-38.506847
 11
72.110136417
 21
-37.940019
  0
LINE
  5
2EE
100
AcDbEntity
  8
CURVE
100
AcDbLine
 62
250
  6
CONTINUOUS
 10
72.110136417
 20
-36.972473
 11
72.110136417
 21
-36.451037
  0
LINE
  5
2EF
100
AcDbEntity
  8
CURVE
100
AcDbLine
 62
250
  6
CONTINUOUS
 10
72.110136417
 20
-35.228996
 11
72.110136417
 21
-34.707635
  0
LINE
  5
2F0
100
AcDbEntity
  8
CURVE
100
AcDbLine
 62
250
  6
CONTINUOUS
 10
72.110136417
 20
-33.66956
 11
72.110136417
 21
-33.153297
  0
LINE
  5
2F1
100
AcDbEntity
  8
CURVE
100
AcDbLine
 62
250
  6
CONTINUOUS
 10
72.110136417
 20
-32.053532
 11
72.110136417
 21
-31.54876
  0
LINE
  5
2F2
100
AcDbEntity
  8
CURVE
100
AcDbLine
 62
250
  6
CONTINUOUS
 10
72.1489474951
 20
-29.8279642095
 11
72.1489474951
 21
-30.126163664
  0
LINE
  5
2F3
100
AcDbEntity
  8
CURVE
100
AcDbLine
 62
250
  6
CONTINUOUS
 10
72.1632352194
 20
-30.1088617972
 11
72.1632352194
 21
-29.8290889245
  0
LINE
  5
2F4
100
AcDbEntity
  8
CURVE
100
AcDbLine
 62
250
  6
CONTINUOUS
 10
72.1664833296
 20
-32.070759
 11
72.1664833296
 21
-31.571179
  0
LINE
  5
2F5
100
AcDbEntity
  8
CURVE
100
AcDbLine
 62
250
  6
CONTINUOUS
 10
72.17995984
 20
-31.466899
 11
72.17995984
 21
-32.177494
  0
LINE
  5
2F6
100
AcDbEntity
  8
CURVE
100
AcDbLine
 62
250
  6
CONTINUOUS
 10
72.1973759453
 20
-36.257398
 11
72.1973759453
 21
-35.735605
  0
LINE
  5
2F7
100
AcDbEntity
  8
CURVE
100
AcDbLine
 62
250
  6
CONTINUOUS
 10
72.1973759458
 20
-30.6285551388
 11
72.1973759458
 21
-30.1088617972
  0
LINE
  5
2F8
100
AcDbEntity
  8
CURVE
100
AcDbLine
 62
250
  6
CONTINUOUS
 10
72.1973759458
 20
-29.3098079785
 11
72.1973759458
 21
-28.8079038802
  0
LINE
  5
2F9
100
AcDbEntity
  8
CURVE
100
AcDbLine
 62
250
  6
CONTINUOUS
 10
72.1973759453
 20
-30.781779
 11
72.1973759453
 21
-31.331727
  0
LINE
  5
2FA
100
AcDbEntity
  8
CURVE
100
AcDbLine
 62
250
  6
CONTINUOUS
 10
72.1973759453
 20
-32.321477
 11
72.1973759453
 21
-32.837608
  0
LINE
  5
2FB
100
AcDbEntity
  8
CURVE
100
AcDbLine
 62
250
  6
CONTINUOUS
 10
72.1973759453
 20
-32.919544
 11
72.1973759453
 21
-33.429996
  0
LINE
  5
2FC
100
AcDbEntity
  8
CURVE
100
AcDbLine
 62
250
  6
CONTINUOUS
 10
72.1973759453
 20
-34.157611
 11
72.1973759453
 21
-34.230793
  0
LINE
  5
2FD
100
AcDbEntity
  8
CURVE
100
AcDbLine
 62
250
  6
CONTINUOUS
 10
72.1973759453
 20
-34.955522
 11
72.1973759453
 21
-35.454708
  0
LINE
  5
2FE
100
AcDbEntity
  8
CURVE
100
AcDbLine
 62
250
  6
CONTINUOUS
 10
72.1973759453
 20
-37.254552
 11
72.1973759453
 21
-37.714382
  0
LINE
  5
2FF
100
AcDbEntity
  8
0
100
AcDbLine
 62
7
  6
CONTINUOUS
 10
72.25
 20
-43.9993911979
 11
72.25
 21
43.9993911979
  0
LINE
  5
300
100
AcDbEntity
  8
ASSI
100
AcDbLine
 62
7
  6
CONTINUOUS
 10
72.25
 20
-43.9993911979
 11
72.25
 21
43.9993911979
  0
LINE
  5
301
100
AcDbEntity
  8
CURVE
100
AcDbLine
 62
7
  6
CONTINUOUS
 10
72.1824975919
 20
-28.9197046926
 11
72.1973759458
 21
-28.9048263387
  0
LINE
  5
302
100
AcDbEntity
  8
CURVE
100
AcDbLine
 62
7
  6
CONTINUOUS
 10
72.1255531683
 20
-28.9766491162
 11
72.1417284604
 21
-28.9604738241
  0
LINE
  5
303
100
AcDbEntity
  8
CURVE
100
AcDbLine
 62
7
  6
CONTINUOUS
 10
72.1602747191
 20
-29.1519382794
 11
72.1973759458
 21
-29.1148370527
  0
LINE
  5
304
100
AcDbEntity
  8
CURVE
100
AcDbLine
 62
7
  6
CONTINUOUS
 10
72.1149492422
 20
-29.1972637563
 11
72.153111229
 21
-29.1591017695
  0
LINE
  5
305
100
AcDbEntity
  8
CURVE
100
AcDbLine
 62
7
  6
CONTINUOUS
 10
72.1113109348
 20
-29.4109127777
 11
72.1953325953
 21
-29.3268911172
  0
LINE
  5
306
100
AcDbEntity
  8
CURVE
100
AcDbLine
 62
7
  6
CONTINUOUS
 10
72.1469435501
 20
-29.5852908764
 11
72.1690347261
 21
-29.5631997005
  0
LINE
  5
307
100
AcDbEntity
  8
CURVE
100
AcDbLine
 62
7
  6
CONTINUOUS
 10
72.1097994348
 20
-29.6224349918
 11
72.1255681946
 21
-29.606666232
  0
LINE
  5
308
100
AcDbEntity
  8
CURVE
100
AcDbLine
 62
7
  6
CONTINUOUS
 10
72.1488937906
 20
-29.79335135
 11
72.1633811384
 21
-29.7788640022
  0
LINE
  5
309
100
AcDbEntity
  8
CURVE
100
AcDbLine
 62
7
  6
CONTINUOUS
 10
72.1092207145
 20
-29.833024426
 11
72.1242222539
 21
-29.8180228866
  0
LINE
  5
30A
100
AcDbEntity
  8
CURVE
100
AcDbLine
 62
7
  6
CONTINUOUS
 10
72.1489474951
 20
-30.0033083595
 11
72.1632352194
 21
-29.9890206352
  0
LINE
  5
30B
100
AcDbEntity
  8
CURVE
100
AcDbLine
 62
7
  6
CONTINUOUS
 10
72.1091757532
 20
-30.0430801013
 11
72.1244997271
 21
-30.0277561275
  0
LINE
  5
30C
100
AcDbEntity
  8
CURVE
100
AcDbLine
 62
7
  6
CONTINUOUS
 10
72.1096096984
 20
-30.2526568702
 11
72.1973759458
 21
-30.1648906227
  0
LINE
  5
30D
100
AcDbEntity
  8
CURVE
100
AcDbLine
 62
7
  6
CONTINUOUS
 10
72.1103663752
 20
-30.4619109074
 11
72.1973759458
 21
-30.3749013368
  0
LINE
  5
30E
100
AcDbEntity
  8
CURVE
100
AcDbLine
 62
7
  6
CONTINUOUS
 10
72.1537328578
 20
-30.6285551388
 11
72.1973759458
 21
-30.5849120508
  0
LINE
  5
30F
100
AcDbEntity
  8
CURVE
100
AcDbLine
 62
7
  6
CONTINUOUS
 10
72.1956890453
 20
-30.7966096654
 11
72.1973759453
 21
-30.7949227654
  0
LINE
  5
310
100
AcDbEntity
  8
CURVE
100
AcDbLine
 62
7
  6
CONTINUOUS
 10
72.1687358044
 20
-31.0335736202
 11
72.1973759453
 21
-31.0049334794
  0
LINE
  5
311
100
AcDbEntity
  8
CURVE
100
AcDbLine
 62
7
  6
CONTINUOUS
 10
72.1417825635
 20
-31.2705375751
 11
72.1973759453
 21
-31.2149441934
  0
LINE
  5
312
100
AcDbEntity
  8
CURVE
100
AcDbLine
 62
7
  6
CONTINUOUS
 10
72.1148293226
 20
-31.50750153
 11
72.1835875311
 21
-31.4387433215
  0
LINE
  5
313
100
AcDbEntity
  8
CURVE
100
AcDbLine
 62
7
  6
CONTINUOUS
 10
72.1664833296
 20
-31.6658582371
 11
72.17995984
 21
-31.6523817266
  0
LINE
  5
314
100
AcDbEntity
  8
CURVE
100
AcDbLine
 62
7
  6
CONTINUOUS
 10
72.110136417
 20
-31.7222051497
 11
72.1517033076
 21
-31.6806382591
  0
LINE
  5
315
100
AcDbEntity
  8
CURVE
100
AcDbLine
 62
7
  6
CONTINUOUS
 10
72.1664833296
 20
-31.8758689511
 11
72.17995984
 21
-31.8623924406
  0
LINE
  5
316
100
AcDbEntity
  8
CURVE
100
AcDbLine
 62
7
  6
CONTINUOUS
 10
72.110136417
 20
-31.9322158637
 11
72.1448884187
 21
-31.897463862
  0
LINE
  5
317
100
AcDbEntity
  8
CURVE
100
AcDbLine
 62
7
  6
CONTINUOUS
 10
72.119016866
 20
-32.1333461287
 11
72.17995984
 21
-32.0724031547
  0
LINE
  5
318
100
AcDbEntity
  8
CURVE
100
AcDbLine
 62
7
  6
CONTINUOUS
 10
72.1400439624
 20
-32.3223297463
 11
72.1912814361
 21
-32.2710922726
  0
LINE
  5
319
100
AcDbEntity
  8
CURVE
100
AcDbLine
 62
7
  6
CONTINUOUS
 10
72.1610710588
 20
-32.5113133639
 11
72.1973759453
 21
-32.4750084775
  0
LINE
  5
31A
100
AcDbEntity
  8
CURVE
100
AcDbLine
 62
7
  6
CONTINUOUS
 10
72.1820981552
 20
-32.7002969815
 11
72.1973759453
 21
-32.6850191915
  0
LINE
  5
31B
100
AcDbEntity
  8
CURVE
100
AcDbLine
 62
7
  6
CONTINUOUS
 10
72.110136417
 20
-33.1922801478
 11
72.1973759453
 21
-33.1050406195
  0
LINE
  5
31C
100
AcDbEntity
  8
CURVE
100
AcDbLine
 62
250
  6
CONTINUOUS
 10
72.1973759453
 20
-34.230793
 11
72.1404101948
 21
-34.842919
  0
LINE
  5
31D
100
AcDbEntity
  8
CURVE
100
AcDbLine
 62
250
  6
CONTINUOUS
 10
72.110136417
 20
-34.707635
 11
72.1585720674
 21
-34.191353
  0
LINE
  5
31E
100
AcDbEntity
  8
CURVE
100
AcDbLine
 62
250
  6
CONTINUOUS
 10
72.1973759453
 20
-37.714382
 11
72.110136417
 21
-38.506847
  0
LINE
  5
31F
100
AcDbEntity
  8
CURVE
100
AcDbLine
 62
250
  6
CONTINUOUS
 10
72.110136417
 20
-31.54876
 11
72.1973759453
 21
-30.781779
  0
LINE
  5
320
100
AcDbEntity
  8
CURVE
100
AcDbLine
 62
250
  6
CONTINUOUS
 10
72.110136417
 20
-37.940019
 11
72.1701860964
 21
-37.463524
  0
LINE
  5
321
100
AcDbEntity
  8
CURVE
100
AcDbLine
 62
250
  6
CONTINUOUS
 10
72.1973759453
 20
-31.331727
 11
72.17995984
 21
-31.466899
  0
LINE
  5
322
100
AcDbEntity
  8
CURVE
100
AcDbLine
 62
250
  6
CONTINUOUS
 10
72.1664833296
 20
-31.571179
 11
72.1341076249
 21
-31.81095
  0
LINE
  5
323
100
AcDbEntity
  8
CURVE
100
AcDbLine
 62
250
  6
CONTINUOUS
 10
72.110136417
 20
-33.153297
 11
72.1973759453
 21
-32.919544
  0
LINE
  5
324
100
AcDbEntity
  8
CURVE
100
AcDbLine
 62
250
  6
CONTINUOUS
 10
72.1973759453
 20
-33.429996
 11
72.140647651
 21
-33.5372
  0
LINE
  5
325
100
AcDbEntity
  8
0
100
AcDbLine
 62
7
  6
CONTINUOUS
 10
71.0699854699
 20
-44.7906993223
 11
71.0555596544
 21
-44.8061684565
  0
LINE
  5
326
100
AcDbEntity
  8
ASSI
100
AcDbLine
 62
7
  6
CONTINUOUS
 10
71.0699854699
 20
-44.7906993223
 11
71.0555596544
 21
-44.8061684565
  0
LINE
  5
327
100
AcDbEntity
  8
CURVE
100
AcDbLine
 62
7
  6
CONTINUOUS
 10
72.110136417
 20
-33.4022908618
 11
72.1973759453
 21
-33.3150513335
  0
LINE
  5
328
100
AcDbEntity
  8
CURVE
100
AcDbLine
 62
7
  6
CONTINUOUS
 10
72.110136417
 20
-33.6123015758
 11
72.1443832694
 21
-33.5780547234
  0
LINE
  5
329
100
AcDbEntity
  8
CURVE
100
AcDbLine
 62
7
  6
CONTINUOUS
 10
72.1231113113
 20
-33.8093373954
 11
72.1619772116
 21
-33.7704714952
  0
LINE
  5
32A
100
AcDbEntity
  8
CURVE
100
AcDbLine
 62
7
  6
CONTINUOUS
 10
72.1409497793
 20
-34.0015096415
 11
72.1795711538
 21
-33.962888267
  0
LINE
  5
32B
100
AcDbEntity
  8
CURVE
100
AcDbLine
 62
7
  6
CONTINUOUS
 10
72.1583085792
 20
-34.1941615557
 11
72.1971650959
 21
-34.1553050389
  0
LINE
  5
32C
100
AcDbEntity
  8
CURVE
100
AcDbLine
 62
7
  6
CONTINUOUS
 10
72.1365663864
 20
-34.4259144624
 11
72.1835940176
 21
-34.3788868312
  0
LINE
  5
32D
100
AcDbEntity
  8
CURVE
100
AcDbLine
 62
7
  6
CONTINUOUS
 10
72.1148241936
 20
-34.6576673692
 11
72.1620445318
 21
-34.610447031
  0
LINE
  5
32E
100
AcDbEntity
  8
CURVE
100
AcDbLine
 62
7
  6
CONTINUOUS
 10
72.110136417
 20
-34.8723658599
 11
72.140495046
 21
-34.8420072309
  0
LINE
  5
32F
100
AcDbEntity
  8
CURVE
100
AcDbLine
 62
7
  6
CONTINUOUS
 10
72.110136417
 20
-35.0823765739
 11
72.1973759453
 21
-34.9951370456
  0
LINE
  5
330
100
AcDbEntity
  8
CURVE
100
AcDbLine
 62
7
  6
CONTINUOUS
 10
72.1278076074
 20
-35.2747160975
 11
72.1973759453
 21
-35.2051477596
  0
LINE
  5
331
100
AcDbEntity
  8
CURVE
100
AcDbLine
 62
7
  6
CONTINUOUS
 10
72.1863509727
 20
-35.4261834462
 11
72.1973759453
 21
-35.4151584736
  0
LINE
  5
332
100
AcDbEntity
  8
CURVE
100
AcDbLine
 62
7
  6
CONTINUOUS
 10
72.110131217
 20
-35.92242463
 11
72.1973759453
 21
-35.8351799016
  0
LINE
  5
333
100
AcDbEntity
  8
CURVE
100
AcDbLine
 62
7
  6
CONTINUOUS
 10
72.110131217
 20
-36.132435344
 11
72.1973759453
 21
-36.0451906157
  0
LINE
  5
334
100
AcDbEntity
  8
CURVE
100
AcDbLine
 62
7
  6
CONTINUOUS
 10
72.1951792749
 20
-36.257398
 11
72.1973759453
 21
-36.2552013297
  0
LINE
  5
335
100
AcDbEntity
  8
CURVE
100
AcDbLine
 62
7
  6
CONTINUOUS
 10
72.110136417
 20
-36.552451572
 11
72.1200688497
 21
-36.5425191393
  0
LINE
  5
336
100
AcDbEntity
  8
CURVE
100
AcDbLine
 62
7
  6
CONTINUOUS
 10
72.110136417
 20
-36.762462286
 11
72.1406370703
 21
-36.7319616327
  0
LINE
  5
337
100
AcDbEntity
  8
CURVE
100
AcDbLine
 62
7
  6
CONTINUOUS
 10
72.110136417
 20
-36.972473
 11
72.1612052909
 21
-36.9214041261
  0
LINE
  5
338
100
AcDbEntity
  8
CURVE
100
AcDbLine
 62
7
  6
CONTINUOUS
 10
72.133019851
 20
-37.15960028
 11
72.1817735115
 21
-37.1108466195
  0
LINE
  5
339
100
AcDbEntity
  8
CURVE
100
AcDbLine
 62
7
  6
CONTINUOUS
 10
72.1559032851
 20
-37.3467275599
 11
72.1973759453
 21
-37.3052548997
  0
LINE
  5
33A
100
AcDbEntity
  8
CURVE
100
AcDbLine
 62
7
  6
CONTINUOUS
 10
72.1588045085
 20
-37.5538370505
 11
72.1973759453
 21
-37.5152656137
  0
LINE
  5
33B
100
AcDbEntity
  8
CURVE
100
AcDbLine
 62
7
  6
CONTINUOUS
 10
72.1285218389
 20
-37.7941304342
 11
72.1960282685
 21
-37.7266240046
  0
LINE
  5
33C
100
AcDbEntity
  8
CURVE
100
AcDbLine
 62
7
  6
CONTINUOUS
 10
72.110136417
 20
-38.0225265701
 11
72.1700490088
 21
-37.9626139782
  0
LINE
  5
33D
100
AcDbEntity
  8
CURVE
100
AcDbLine
 62
7
  6
CONTINUOUS
 10
72.110136417
 20
-38.2325372841
 11
72.1440697492
 21
-38.1986039519
  0
LINE
  5
33E
100
AcDbEntity
  8
CURVE
100
AcDbLine
 62
7
  6
CONTINUOUS
 10
72.110136417
 20
-38.4425479981
 11
72.1180904896
 21
-38.4345939255
  0
LINE
  5
33F
100
AcDbEntity
  8
0
100
AcDbLine
 62
7
  6
CONTINUOUS
 10
70.6267374102
 20
-43.7712689598
 11
71.0212689598
 21
-43.3767374102
  0
LINE
  5
340
100
AcDbEntity
  8
ASSI
100
AcDbLine
 62
7
  6
CONTINUOUS
 10
70.6267374102
 20
-43.7712689598
 11
71.0212689598
 21
-43.3767374102
  0
LINE
  5
341
100
AcDbEntity
  8
0
100
AcDbLine
 62
7
  6
CONTINUOUS
 10
71.0699854699
 20
-44.7906993223
 11
72.0406993223
 21
-43.8199854699
  0
LINE
  5
342
100
AcDbEntity
  8
ASSI
100
AcDbLine
 62
7
  6
CONTINUOUS
 10
71.0699854699
 20
-44.7906993223
 11
72.0406993223
 21
-43.8199854699
  0
LINE
  5
343
100
AcDbEntity
  8
0
100
AcDbLine
 62
7
  6
CONTINUOUS
 10
72.25
 20
-43.9993911979
 11
71.2493911979
 21
-45.0
  0
LINE
  5
344
100
AcDbEntity
  8
ASSI
100
AcDbLine
 62
7
  6
CONTINUOUS
 10
72.25
 20
-43.9993911979
 11
71.2493911979
 21
-45.0
  0
LINE
  5
345
100
AcDbEntity
  8
0
100
AcDbLine
 62
7
  6
CONTINUOUS
 10
72.0561684565
 20
-43.8055596544
 11
72.0406993223
 21
-43.8199854699
  0
LINE
  5
346
100
AcDbEntity
  8
ASSI
100
AcDbLine
 62
7
  6
CONTINUOUS
 10
72.0561684565
 20
-43.8055596544
 11
72.0406993223
 21
-43.8199854699
  0
LINE
  5
347
100
AcDbEntity
  8
0
100
AcDbLine
 62
7
  6
CONTINUOUS
 10
72.0406993223
 20
43.8199854699
 11
72.0561684565
 21
43.8055596544
  0
LINE
  5
348
100
AcDbEntity
  8
ASSI
100
AcDbLine
 62
7
  6
CONTINUOUS
 10
72.0406993223
 20
43.8199854699
 11
72.0561684565
 21
43.8055596544
  0
LINE
  5
349
100
AcDbEntity
  8
0
100
AcDbLine
 62
7
  6
CONTINUOUS
 10
71.0212689598
 20
43.3767374102
 11
70.6267374102
 21
43.7712689598
  0
LINE
  5
34A
100
AcDbEntity
  8
ASSI
100
AcDbLine
 62
7
  6
CONTINUOUS
 10
71.0212689598
 20
43.3767374102
 11
70.6267374102
 21
43.7712689598
  0
LINE
  5
34B
100
AcDbEntity
  8
0
100
AcDbLine
 62
7
  6
CONTINUOUS
 10
72.0406993223
 20
43.8199854699
 11
71.0699854699
 21
44.7906993223
  0
LINE
  5
34C
100
AcDbEntity
  8
ASSI
100
AcDbLine
 62
7
  6
CONTINUOUS
 10
72.0406993223
 20
43.8199854699
 11
71.0699854699
 21
44.7906993223
  0
LINE
  5
34D
100
AcDbEntity
  8
0
100
AcDbLine
 62
7
  6
CONTINUOUS
 10
71.2493911979
 20
45.0
 11
72.25
 21
43.9993911979
  0
LINE
  5
34E
100
AcDbEntity
  8
ASSI
100
AcDbLine
 62
7
  6
CONTINUOUS
 10
71.2493911979
 20
45.0
 11
72.25
 21
43.9993911979
  0
LINE
  5
34F
100
AcDbEntity
  8
0
100
AcDbLine
 62
7
  6
CONTINUOUS
 10
71.0555596544
 20
44.8061684565
 11
71.0699854699
 21
44.7906993223
  0
LINE
  5
350
100
AcDbEntity
  8
ASSI
100
AcDbLine
 62
7
  6
CONTINUOUS
 10
71.0555596544
 20
44.8061684565
 11
71.0699854699
 21
44.7906993223
  0
LINE
  5
351
100
AcDbEntity
  8
0
100
AcDbLine
 62
7
  6
CONTINUOUS
 10
-106.5948281278
 20
-44.8061684565
 11
-101.0442189548
 21
-45.0
  0
LINE
  5
352
100
AcDbEntity
  8
ASSI
100
AcDbLine
 62
7
  6
CONTINUOUS
 10
-106.5948281278
 20
-44.8061684565
 11
-101.0442189548
 21
-45.0
  0
LWPOLYLINE
  5
353
100
AcDbEntity
  8
0
100
AcDbPolyline
 62
7
  6
CONTINUOUS
 90
3
 70
0
 43
0.3500000006
 10
-96.0456379395
 20
65.8928549194
 10
-95.1884909363
 20
66.7500019226
 10
-95.1884909363
 20
63.7500010071
  0
LINE
  5
354
100
AcDbEntity
  8
0
100
AcDbLine
 62
7
  6
CONTINUOUS
 10
-106.5948281278
 20
-43.8055596544
 11
-101.0442189548
 21
-43.9993911979
  0
LINE
  5
355
100
AcDbEntity
  8
ASSI
100
AcDbLine
 62
7
  6
CONTINUOUS
 10
-106.5948281278
 20
-43.8055596544
 11
-101.0442189548
 21
-43.9993911979
  0
LINE
  5
356
100
AcDbEntity
  8
0
100
AcDbLine
 62
7
  6
CONTINUOUS
 10
-101.0442189548
 20
-42.7580439128
 11
-100.4442189548
 21
-42.8
  0
LINE
  5
357
100
AcDbEntity
  8
0
100
AcDbLine
 62
7
  6
CONTINUOUS
 10
-107.5942189548
 20
43.3767374102
 11
-106.609766497
 21
43.8199854699
  0
LINE
  5
358
100
AcDbEntity
  8
ASSI
100
AcDbLine
 62
7
  6
CONTINUOUS
 10
-107.5942189548
 20
43.3767374102
 11
-106.609766497
 21
43.8199854699
  0
LINE
  5
359
100
AcDbEntity
  8
0
100
AcDbLine
 62
250
  6
CONTINUOUS
 10
-101.0442189548
 20
-41.1619414324
 11
-100.4442189548
 21
-41.2038975196
  0
LINE
  5
35A
100
AcDbEntity
  8
0
100
AcDbLine
 62
7
  6
CONTINUOUS
 10
-107.5942189548
 20
-43.3767374102
 11
-106.609766497
 21
-43.8199854699
  0
LINE
  5
35B
100
AcDbEntity
  8
ASSI
100
AcDbLine
 62
7
  6
CONTINUOUS
 10
-107.5942189548
 20
-43.3767374102
 11
-106.609766497
 21
-43.8199854699
  0
LWPOLYLINE
  5
35C
100
AcDbEntity
  8
0
100
AcDbPolyline
 62
7
  6
CONTINUOUS
 90
3
 70
0
 43
0.3500000006
 10
-90.2599205933
 20
65.8928549194
 10
-89.4027735901
 20
66.7500019226
 10
-89.4027735901
 20
63.7500010071
  0
LINE
  5
35D
100
AcDbEntity
  8
CURVE
100
AcDbLine
 62
250
  6
CONTINUOUS
 10
-105.0493879433
 20
-37.940019
 11
-103.3297901144
 21
-37.463524
  0
LINE
  5
35E
100
AcDbEntity
  8
CURVE
100
AcDbLine
 62
250
  6
CONTINUOUS
 10
-105.0495368525
 20
-36.257398
 11
-102.5511747149
 21
-36.257398
  0
LINE
  5
35F
100
AcDbEntity
  8
CURVE
100
AcDbLine
 62
250
  6
CONTINUOUS
 10
-103.3297901144
 20
-37.463524
 11
-105.0493879433
 21
-36.972473
  0
LINE
  5
360
100
AcDbEntity
  8
0
100
AcDbLine
 62
7
  6
CONTINUOUS
 10
-106.5948281278
 20
44.8061684565
 11
-107.5942189548
 21
43.7712689598
  0
LINE
  5
361
100
AcDbEntity
  8
ASSI
100
AcDbLine
 62
7
  6
CONTINUOUS
 10
-106.5948281278
 20
44.8061684565
 11
-107.5942189548
 21
43.7712689598
  0
LINE
  5
362
100
AcDbEntity
  8
CURVE
100
AcDbLine
 62
250
  6
CONTINUOUS
 10
-102.5511747149
 20
-33.429996
 11
-104.1756605189
 21
-33.5372
  0
LINE
  5
363
100
AcDbEntity
  8
CURVE
100
AcDbLine
 62
250
  6
CONTINUOUS
 10
-102.5511747149
 20
-35.735605
 11
-105.0495368525
 21
-35.735605
  0
LINE
  5
364
100
AcDbEntity
  8
CURVE
100
AcDbLine
 62
250
  6
CONTINUOUS
 10
-104.1824603741
 20
-34.842919
 11
-102.5511747149
 21
-34.955522
  0
LINE
  5
365
100
AcDbEntity
  8
CURVE
100
AcDbLine
 62
250
  6
CONTINUOUS
 10
-102.5511747149
 20
-35.454708
 11
-105.0493879433
 21
-35.228996
  0
LINE
  5
366
100
AcDbEntity
  8
CURVE
100
AcDbLine
 62
250
  6
CONTINUOUS
 10
-105.0493879433
 20
-36.451037
 11
-102.5511747149
 21
-37.254552
  0
LINE
  5
367
100
AcDbEntity
  8
0
100
AcDbLine
 62
7
  6
CONTINUOUS
 10
-107.5942189548
 20
-43.7712689598
 11
-106.5948281278
 21
-44.8061684565
  0
LINE
  5
368
100
AcDbEntity
  8
ASSI
100
AcDbLine
 62
7
  6
CONTINUOUS
 10
-107.5942189548
 20
-43.7712689598
 11
-106.5948281278
 21
-44.8061684565
  0
LWPOLYLINE
  5
369
100
AcDbEntity
  8
0
100
AcDbPolyline
 62
7
  6
CONTINUOUS
 90
3
 70
0
 43
0.3500000006
 10
-91.5424642639
 20
55.8928609314
 10
-90.6853172607
 20
56.7499988708
 10
-90.6853172607
 20
53.7499979553
  0
LINE
  5
36A
100
AcDbEntity
  8
CURVE
100
AcDbLine
 62
250
  6
CONTINUOUS
 10
-102.5511747149
 20
-31.331727
 11
-103.0499067157
 21
-31.466899
  0
LINE
  5
36B
100
AcDbEntity
  8
CURVE
100
AcDbLine
 62
250
  6
CONTINUOUS
 10
-103.4358234823
 20
-31.571179
 11
-104.3629423623
 21
-31.81095
  0
LINE
  5
36C
100
AcDbEntity
  8
CURVE
100
AcDbLine
 62
250
  6
CONTINUOUS
 10
-105.0493879433
 20
-33.153297
 11
-102.5511747149
 21
-32.919544
  0
LINE
  5
36D
100
AcDbEntity
  8
CURVE
100
AcDbLine
 62
250
  6
CONTINUOUS
 10
-105.0202000872
 20
-30.6285551388
 11
-102.5511746985
 21
-30.6285551388
  0
LINE
  5
36E
100
AcDbEntity
  8
CURVE
100
AcDbLine
 62
250
  6
CONTINUOUS
 10
-103.9379840801
 20
-30.126163664
 11
-104.623792202
 21
-30.126163664
  0
LINE
  5
36F
100
AcDbEntity
  8
CURVE
100
AcDbLine
 62
250
  6
CONTINUOUS
 10
-102.5511746985
 20
-30.1088617972
 11
-103.5288371892
 21
-30.1088617972
  0
LINE
  5
370
100
AcDbEntity
  8
CURVE
100
AcDbLine
 62
250
  6
CONTINUOUS
 10
-104.3629423623
 20
-31.81095
 11
-103.4358234823
 21
-32.070759
  0
LINE
  5
371
100
AcDbEntity
  8
CURVE
100
AcDbLine
 62
250
  6
CONTINUOUS
 10
-103.0499067157
 20
-32.177494
 11
-102.5511747149
 21
-32.321477
  0
LINE
  5
372
100
AcDbEntity
  8
CURVE
100
AcDbLine
 62
250
  6
CONTINUOUS
 10
-102.5511747149
 20
-32.837608
 11
-105.0493879433
 21
-32.053532
  0
LINE
  5
373
100
AcDbEntity
  8
CURVE
100
AcDbLine
 62
250
  6
CONTINUOUS
 10
-103.6623723907
 20
-34.191353
 11
-105.0493879433
 21
-33.66956
  0
LINE
  5
374
100
AcDbEntity
  8
CURVE
100
AcDbLine
 62
250
  6
CONTINUOUS
 10
-104.1756605189
 20
-33.5372
 11
-102.5511747149
 21
-34.157611
  0
LINE
  5
375
100
AcDbEntity
  8
0
100
AcDbLine
 62
7
  6
CONTINUOUS
 10
-99.4442189548
 20
-27.15
 11
-100.4442189548
 21
-27.151745331
  0
LINE
  5
376
100
AcDbEntity
  8
0
100
AcDbLine
 62
250
  6
CONTINUOUS
 10
-99.518446371
 20
-26.9276792439
 11
-100.4442189548
 21
-26.9280974384
  0
LINE
  5
377
100
AcDbEntity
  8
CURVE
100
AcDbLine
 62
250
  6
CONTINUOUS
 10
-103.7173182729
 20
-29.2870512436
 11
-103.7320805325
 21
-29.2870512436
  0
LINE
  5
378
100
AcDbEntity
  8
0
100
AcDbLine
 62
7
  6
CONTINUOUS
 10
-97.9941697226
 20
-26.3415638603
 11
-100.4442189548
 21
-26.3558178298
  0
LINE
  5
379
100
AcDbEntity
  8
0
100
AcDbLine
 62
250
  6
CONTINUOUS
 10
-97.9941697226
 20
-26.2536973817
 11
-100.4442189548
 21
-26.2679513512
  0
LINE
  5
37A
100
AcDbEntity
  8
0
100
AcDbLine
 62
7
  6
CONTINUOUS
 10
-97.4442189548
 20
-26.1523612067
 11
-97.5647817218
 21
-26.1523612067
  0
LINE
  5
37B
100
AcDbEntity
  8
0
100
AcDbLine
 62
7
  6
CONTINUOUS
 10
-99.4940945759
 20
-25.2
 11
-100.4442189548
 21
-25.2
  0
LINE
  5
37C
100
AcDbEntity
  8
0
100
AcDbLine
 62
7
  6
CONTINUOUS
 10
-100.4442189548
 20
-25.05
 11
-100.2942189548
 21
-25.05
  0
LINE
  5
37D
100
AcDbEntity
  8
0
100
AcDbLine
 62
7
  6
CONTINUOUS
 10
-99.9942189548
 20
-25.05
 11
-99.7942189548
 21
-25.05
  0
LINE
  5
37E
100
AcDbEntity
  8
0
100
AcDbLine
 62
7
  6
CONTINUOUS
 10
-97.4442379929
 20
-25.3545427575
 11
-97.9422524418
 21
-25.3501966513
  0
LINE
  5
37F
100
AcDbEntity
  8
0
100
AcDbLine
 62
7
  6
CONTINUOUS
 10
-100.4442189548
 20
-25.7558198745
 11
-97.6337517635
 21
-25.8799866677
  0
LINE
  5
380
100
AcDbEntity
  8
0
100
AcDbLine
 62
7
  6
CONTINUOUS
 10
-97.4442189548
 20
-25.4
 11
-99.3945908569
 21
-25.2049628098
  0
LINE
  5
381
100
AcDbEntity
  8
0
100
AcDbLine
 62
7
  6
CONTINUOUS
 10
-100.2942189548
 20
25.05
 11
-100.1442189548
 21
25.2
  0
LINE
  5
382
100
AcDbEntity
  8
0
100
AcDbLine
 62
7
  6
CONTINUOUS
 10
-99.7942189548
 20
25.05
 11
-99.6442189548
 21
25.2
  0
LINE
  5
383
100
AcDbEntity
  8
0
100
AcDbLine
 62
7
  6
CONTINUOUS
 10
-100.2942189548
 20
-25.05
 11
-100.1442189548
 21
-25.2
  0
LINE
  5
384
100
AcDbEntity
  8
0
100
AcDbLine
 62
7
  6
CONTINUOUS
 10
-99.7942189548
 20
-25.05
 11
-99.6442189548
 21
-25.2
  0
LWPOLYLINE
  5
385
100
AcDbEntity
  8
0
100
AcDbPolyline
 62
7
  6
CONTINUOUS
 90
3
 70
0
 43
0.3500000006
 10
-91.2599208984
 20
64.0357166748
 10
-91.3313520813
 20
63.8214321899
 10
-91.4742053833
 20
63.5357165222
  0
LWPOLYLINE
  5
386
100
AcDbEntity
  8
0
100
AcDbPolyline
 62
7
  6
CONTINUOUS
 90
3
 70
0
 43
0.3500000006
 10
-92.5424645691
 20
54.035713623
 10
-92.6138866882
 20
53.8214291382
 10
-92.756749054
 20
53.5357134705
  0
LINE
  5
387
100
AcDbEntity
  8
0
100
AcDbLine
 62
7
  6
CONTINUOUS
 10
-107.5942189548
 20
-43.7712689598
 11
-107.5942189548
 21
43.7712689598
  0
LINE
  5
388
100
AcDbEntity
  8
ASSI
100
AcDbLine
 62
7
  6
CONTINUOUS
 10
-107.5942189548
 20
-43.7712689598
 11
-107.5942189548
 21
43.7712689598
  0
LINE
  5
389
100
AcDbEntity
  8
0
100
AcDbLine
 62
7
  6
CONTINUOUS
 10
-106.609766497
 20
-44.7906993223
 11
-106.609766497
 21
-43.8199854699
  0
LINE
  5
38A
100
AcDbEntity
  8
ASSI
100
AcDbLine
 62
7
  6
CONTINUOUS
 10
-106.609766497
 20
-44.7906993223
 11
-106.609766497
 21
-43.8199854699
  0
LINE
  5
38B
100
AcDbEntity
  8
0
100
AcDbLine
 62
7
  6
CONTINUOUS
 10
-106.609766497
 20
43.8199854699
 11
-106.609766497
 21
44.7906993223
  0
LINE
  5
38C
100
AcDbEntity
  8
ASSI
100
AcDbLine
 62
7
  6
CONTINUOUS
 10
-106.609766497
 20
43.8199854699
 11
-106.609766497
 21
44.7906993223
  0
LINE
  5
38D
100
AcDbEntity
  8
0
100
AcDbLine
 62
7
  6
CONTINUOUS
 10
-106.5948281278
 20
-43.8055596544
 11
-106.5948281278
 21
43.8055596544
  0
LINE
  5
38E
100
AcDbEntity
  8
ASSI
100
AcDbLine
 62
7
  6
CONTINUOUS
 10
-106.5948281278
 20
-43.8055596544
 11
-106.5948281278
 21
43.8055596544
  0
LINE
  5
38F
100
AcDbEntity
  8
0
100
AcDbLine
 62
250
  6
CONTINUOUS
 10
-100.1942189548
 20
-2.6214065094
 11
-100.4442189548
 21
-2.6214065094
  0
LINE
  5
390
100
AcDbEntity
  8
CURVE
100
AcDbLine
 62
250
  6
CONTINUOUS
 10
-105.0495368525
 20
-35.735605
 11
-105.0495368525
 21
-36.257398
  0
LINE
  5
391
100
AcDbEntity
  8
CURVE
100
AcDbLine
 62
250
  6
CONTINUOUS
 10
-105.0493879433
 20
-38.506847
 11
-105.0493879433
 21
-37.940019
  0
LINE
  5
392
100
AcDbEntity
  8
CURVE
100
AcDbLine
 62
250
  6
CONTINUOUS
 10
-105.0493879433
 20
-36.972473
 11
-105.0493879433
 21
-36.451037
  0
LINE
  5
393
100
AcDbEntity
  8
CURVE
100
AcDbLine
 62
250
  6
CONTINUOUS
 10
-105.0493879433
 20
-35.228996
 11
-105.0493879433
 21
-34.707635
  0
LINE
  5
394
100
AcDbEntity
  8
CURVE
100
AcDbLine
 62
250
  6
CONTINUOUS
 10
-105.0493879433
 20
-33.66956
 11
-105.0493879433
 21
-33.153297
  0
LINE
  5
395
100
AcDbEntity
  8
CURVE
100
AcDbLine
 62
250
  6
CONTINUOUS
 10
-105.0493879433
 20
-32.053532
 11
-105.0493879433
 21
-31.54876
  0
LINE
  5
396
100
AcDbEntity
  8
CURVE
100
AcDbLine
 62
250
  6
CONTINUOUS
 10
-103.9379840801
 20
-29.8279642095
 11
-103.9379840801
 21
-30.126163664
  0
LINE
  5
397
100
AcDbEntity
  8
CURVE
100
AcDbLine
 62
250
  6
CONTINUOUS
 10
-103.5288371892
 20
-30.1088617972
 11
-103.5288371892
 21
-29.8290889245
  0
LINE
  5
398
100
AcDbEntity
  8
CURVE
100
AcDbLine
 62
250
  6
CONTINUOUS
 10
-103.4358234823
 20
-32.070759
 11
-103.4358234823
 21
-31.571179
  0
LINE
  5
399
100
AcDbEntity
  8
CURVE
100
AcDbLine
 62
250
  6
CONTINUOUS
 10
-103.0499067157
 20
-31.466899
 11
-103.0499067157
 21
-32.177494
  0
LINE
  5
39A
100
AcDbEntity
  8
CURVE
100
AcDbLine
 62
250
  6
CONTINUOUS
 10
-102.5511747149
 20
-36.257398
 11
-102.5511747149
 21
-35.735605
  0
LINE
  5
39B
100
AcDbEntity
  8
CURVE
100
AcDbLine
 62
250
  6
CONTINUOUS
 10
-102.5511747149
 20
-30.781779
 11
-102.5511747149
 21
-31.331727
  0
LINE
  5
39C
100
AcDbEntity
  8
CURVE
100
AcDbLine
 62
250
  6
CONTINUOUS
 10
-102.5511747149
 20
-32.321477
 11
-102.5511747149
 21
-32.837608
  0
LINE
  5
39D
100
AcDbEntity
  8
CURVE
100
AcDbLine
 62
250
  6
CONTINUOUS
 10
-102.5511747149
 20
-32.919544
 11
-102.5511747149
 21
-33.429996
  0
LINE
  5
39E
100
AcDbEntity
  8
CURVE
100
AcDbLine
 62
250
  6
CONTINUOUS
 10
-102.5511747149
 20
-34.157611
 11
-102.5511747149
 21
-34.230793
  0
LINE
  5
39F
100
AcDbEntity
  8
CURVE
100
AcDbLine
 62
250
  6
CONTINUOUS
 10
-102.5511747149
 20
-34.955522
 11
-102.5511747149
 21
-35.454708
  0
LINE
  5
3A0
100
AcDbEntity
  8
CURVE
100
AcDbLine
 62
250
  6
CONTINUOUS
 10
-102.5511747149
 20
-37.254552
 11
-102.5511747149
 21
-37.714382
  0
LINE
  5
3A1
100
AcDbEntity
  8
CURVE
100
AcDbLine
 62
250
  6
CONTINUOUS
 10
-102.5511746985
 20
-30.6285551388
 11
-102.5511746985
 21
-30.1088617972
  0
LINE
  5
3A2
100
AcDbEntity
  8
CURVE
100
AcDbLine
 62
250
  6
CONTINUOUS
 10
-102.5511746985
 20
-29.3098079785
 11
-102.5511746985
 21
-28.8079038802
  0
LINE
  5
3A3
100
AcDbEntity
  8
0
100
AcDbLine
 62
250
  6
CONTINUOUS
 10
-99.5183818124
 20
-27.1501294387
 11
-99.518446371
 21
-26.9276792439
  0
LINE
  5
3A4
100
AcDbEntity
  8
0
100
AcDbLine
 62
7
  6
CONTINUOUS
 10
-101.0442189548
 20
-45.0
 11
-101.0442189548
 21
45.0
  0
LINE
  5
3A5
100
AcDbEntity
  8
ASSI
100
AcDbLine
 62
7
  6
CONTINUOUS
 10
-101.0442189548
 20
-45.0
 11
-101.0442189548
 21
45.0
  0
LINE
  5
3A6
100
AcDbEntity
  8
0
100
AcDbLine
 62
7
  6
CONTINUOUS
 10
-100.4442189548
 20
-42.8
 11
-100.4442189548
 21
42.8
  0
LINE
  5
3A7
100
AcDbEntity
  8
0
100
AcDbLine
 62
7
  6
CONTINUOUS
 10
-100.1942189548
 20
2.6214065094
 11
-100.1942189548
 21
-2.6214065094
  0
LINE
  5
3A8
100
AcDbEntity
  8
0
100
AcDbLine
 62
250
  6
CONTINUOUS
 10
-99.518446371
 20
26.9276792439
 11
-99.5183818124
 21
27.1501294387
  0
LINE
  5
3A9
100
AcDbEntity
  8
0
100
AcDbLine
 62
250
  6
CONTINUOUS
 10
-100.1942189548
 20
2.6214065094
 11
-100.4442189548
 21
2.6214065094
  0
LINE
  5
3AA
100
AcDbEntity
  8
0
100
AcDbLine
 62
250
  6
CONTINUOUS
 10
-97.7285181679
 20
25.3715700787
 11
-97.7285181679
 21
25.3498801651
  0
LINE
  5
3AB
100
AcDbEntity
  8
0
100
AcDbLine
 62
250
  6
CONTINUOUS
 10
-97.7285181679
 20
-25.3498801651
 11
-97.7285181679
 21
-25.3715700787
  0
LINE
  5
3AC
100
AcDbEntity
  8
0
100
AcDbLine
 62
250
  6
CONTINUOUS
 10
-97.6337517635
 20
25.8799866677
 11
-97.6337517635
 21
25.3810467191
  0
LINE
  5
3AD
100
AcDbEntity
  8
0
100
AcDbLine
 62
250
  6
CONTINUOUS
 10
-97.6337517635
 20
-25.3810467191
 11
-97.6337517635
 21
-25.8799866677
  0
LINE
  5
3AE
100
AcDbEntity
  8
0
100
AcDbLine
 62
7
  6
CONTINUOUS
 10
-97.4442189548
 20
26.1523612067
 11
-97.4442189548
 21
25.3523612067
  0
LINE
  5
3AF
100
AcDbEntity
  8
0
100
AcDbLine
 62
7
  6
CONTINUOUS
 10
-97.4442189548
 20
-25.3523612067
 11
-97.4442189548
 21
-26.1523612067
  0
LWPOLYLINE
  5
3B0
100
AcDbEntity
  8
0
100
AcDbPolyline
 62
7
  6
CONTINUOUS
 90
4
 70
0
 43
0.3500000006
 10
-95.6138876038
 20
56.1071454163
 10
-95.6138876038
 20
56.7499988708
 10
-94.113887146
 20
56.7499988708
 10
-94.9710341492
 20
53.7499979553
  0
LWPOLYLINE
  5
3B1
100
AcDbEntity
  8
0
100
AcDbPolyline
 62
7
  6
CONTINUOUS
 90
13
 70
0
 43
0.3500000006
 10
-94.3313529968
 20
64.6071389465
 10
-94.3313529968
 20
65.8928549194
 10
-94.1170594482
 20
66.3214329529
 10
-93.6884904785
 20
66.7500019226
 10
-93.4742059937
 20
66.7500019226
 10
-93.0456370239
 20
66.3214329529
 10
-92.8313525391
 20
65.8928549194
 10
-92.8313525391
 20
64.6071389465
 10
-93.0456370239
 20
64.1785699768
 10
-93.4742059937
 20
63.7500010071
 10
-93.6884904785
 20
63.7500010071
 10
-94.1170594482
 20
64.1785699768
 10
-94.3313529968
 20
64.6071389465
  0
LINE
  5
3B2
100
AcDbEntity
  8
CURVE
100
AcDbLine
 62
7
  6
CONTINUOUS
 10
-105.0010373674
 20
-29.3637367197
 11
-104.6176548079
 21
-28.9803541601
  0
LINE
  5
3B3
100
AcDbEntity
  8
CURVE
100
AcDbLine
 62
7
  6
CONTINUOUS
 10
-105.0601548026
 20
-29.6328648689
 11
-104.3616369281
 21
-28.9343469943
  0
LINE
  5
3B4
100
AcDbEntity
  8
CURVE
100
AcDbLine
 62
7
  6
CONTINUOUS
 10
-105.0771011203
 20
-29.8598219006
 11
-104.1705163069
 21
-28.9532370872
  0
LINE
  5
3B5
100
AcDbEntity
  8
CURVE
100
AcDbLine
 62
7
  6
CONTINUOUS
 10
-105.0757591305
 20
-30.0684906248
 11
-104.600887796
 21
-29.5936192903
  0
LINE
  5
3B6
100
AcDbEntity
  8
CURVE
100
AcDbLine
 62
7
  6
CONTINUOUS
 10
-104.464329382
 20
-29.4570608763
 11
-104.0161061021
 21
-29.0088375964
  0
LINE
  5
3B7
100
AcDbEntity
  8
0
100
AcDbLine
 62
7
  6
CONTINUOUS
 10
-100.1442189548
 20
-25.2
 11
-99.9942189548
 21
-25.05
  0
LINE
  5
3B8
100
AcDbEntity
  8
CURVE
100
AcDbLine
 62
7
  6
CONTINUOUS
 10
-105.0633503078
 20
-30.2660925161
 11
-104.6469709924
 21
-29.8497132007
  0
LINE
  5
3B9
100
AcDbEntity
  8
CURVE
100
AcDbLine
 62
7
  6
CONTINUOUS
 10
-104.229183721
 20
-29.4319259293
 11
-103.8886035927
 21
-29.091345801
  0
LINE
  5
3BA
100
AcDbEntity
  8
CURVE
100
AcDbLine
 62
7
  6
CONTINUOUS
 10
-105.0434553386
 20
-30.4562082609
 11
-104.6354591482
 21
-30.0482120705
  0
LINE
  5
3BB
100
AcDbEntity
  8
CURVE
100
AcDbLine
 62
7
  6
CONTINUOUS
 10
-104.0806557271
 20
-29.4934086494
 11
-103.7850538827
 21
-29.197806805
  0
LINE
  5
3BC
100
AcDbEntity
  8
CURVE
100
AcDbLine
 62
7
  6
CONTINUOUS
 10
-105.0057915025
 20
-30.6285551388
 11
-104.5034000277
 21
-30.126163664
  0
LINE
  5
3BD
100
AcDbEntity
  8
CURVE
100
AcDbLine
 62
7
  6
CONTINUOUS
 10
-103.98394256
 20
-29.6067061963
 11
-103.4238220126
 21
-29.0465856489
  0
LINE
  5
3BE
100
AcDbEntity
  8
CURVE
100
AcDbLine
 62
7
  6
CONTINUOUS
 10
-104.7957807885
 20
-30.6285551388
 11
-104.2933893137
 21
-30.126163664
  0
LINE
  5
3BF
100
AcDbEntity
  8
CURVE
100
AcDbLine
 62
7
  6
CONTINUOUS
 10
-103.9412253052
 20
-29.7739996556
 11
-103.1267263851
 21
-28.9595007355
  0
LINE
  5
3C0
100
AcDbEntity
  8
CURVE
100
AcDbLine
 62
7
  6
CONTINUOUS
 10
-104.5857700745
 20
-30.6285551388
 11
-104.0833785997
 21
-30.126163664
  0
LINE
  5
3C1
100
AcDbEntity
  8
CURVE
100
AcDbLine
 62
7
  6
CONTINUOUS
 10
-103.9379840801
 20
-29.9807691444
 11
-102.8413955908
 21
-28.8841806552
  0
LINE
  5
3C2
100
AcDbEntity
  8
CURVE
100
AcDbLine
 62
7
  6
CONTINUOUS
 10
-104.3757593604
 20
-30.6285551388
 11
-103.5243366355
 21
-29.7771324139
  0
LINE
  5
3C3
100
AcDbEntity
  8
CURVE
100
AcDbLine
 62
7
  6
CONTINUOUS
 10
-103.2724672077
 20
-29.525262986
 11
-102.5565288002
 21
-28.8093245785
  0
LINE
  5
3C4
100
AcDbEntity
  8
CURVE
100
AcDbLine
 62
7
  6
CONTINUOUS
 10
-104.1657486464
 20
-30.6285551388
 11
-103.5288371892
 21
-29.9916436815
  0
LINE
  5
3C5
100
AcDbEntity
  8
CURVE
100
AcDbLine
 62
7
  6
CONTINUOUS
 10
-102.9678210604
 20
-29.4306275527
 11
-102.5511746985
 21
-29.0139811908
  0
LINE
  5
3C6
100
AcDbEntity
  8
CURVE
100
AcDbLine
 62
7
  6
CONTINUOUS
 10
-105.0493879433
 20
-31.7222051497
 11
-104.7991020716
 21
-31.471919278
  0
LINE
  5
3C7
100
AcDbEntity
  8
CURVE
100
AcDbLine
 62
7
  6
CONTINUOUS
 10
-103.9557379324
 20
-30.6285551388
 11
-103.4360445909
 21
-30.1088617972
  0
LINE
  5
3C8
100
AcDbEntity
  8
CURVE
100
AcDbLine
 62
7
  6
CONTINUOUS
 10
-102.6723752965
 20
-29.3451925029
 11
-102.5511746985
 21
-29.2239919048
  0
LINE
  5
3C9
100
AcDbEntity
  8
CURVE
100
AcDbLine
 62
7
  6
CONTINUOUS
 10
-105.0493879433
 20
-31.9322158637
 11
-104.4960511376
 21
-31.378879058
  0
LINE
  5
3CA
100
AcDbEntity
  8
CURVE
100
AcDbLine
 62
7
  6
CONTINUOUS
 10
-103.7457272184
 20
-30.6285551388
 11
-103.2260338768
 21
-30.1088617972
  0
LINE
  5
3CB
100
AcDbEntity
  8
CURVE
100
AcDbLine
 62
7
  6
CONTINUOUS
 10
-104.9818808006
 20
-32.074719435
 11
-104.1930002036
 21
-31.285838838
  0
LINE
  5
3CC
100
AcDbEntity
  8
CURVE
100
AcDbLine
 62
7
  6
CONTINUOUS
 10
-103.5357165044
 20
-30.6285551388
 11
-103.0160231628
 21
-30.1088617972
  0
LINE
  5
3CD
100
AcDbEntity
  8
CURVE
100
AcDbLine
 62
7
  6
CONTINUOUS
 10
-104.8220376219
 20
-32.1248869703
 11
-103.8899492695
 21
-31.1927986179
  0
LINE
  5
3CE
100
AcDbEntity
  8
CURVE
100
AcDbLine
 62
7
  6
CONTINUOUS
 10
-103.3257057904
 20
-30.6285551388
 11
-102.8060124488
 21
-30.1088617972
  0
LINE
  5
3CF
100
AcDbEntity
  8
CURVE
100
AcDbLine
 62
7
  6
CONTINUOUS
 10
-104.6621944431
 20
-32.1750545055
 11
-104.3122856136
 21
-31.825145676
  0
LINE
  5
3D0
100
AcDbEntity
  8
CURVE
100
AcDbLine
 62
7
  6
CONTINUOUS
 10
-104.2754671418
 20
-31.7883272042
 11
-103.5868983355
 21
-31.0997583979
  0
LINE
  5
3D1
100
AcDbEntity
  8
CURVE
100
AcDbLine
 62
7
  6
CONTINUOUS
 10
-103.1156950764
 20
-30.6285551388
 11
-102.5960017348
 21
-30.1088617972
  0
LINE
  5
3D2
100
AcDbEntity
  8
CURVE
100
AcDbLine
 62
7
  6
CONTINUOUS
 10
-104.5023512644
 20
-32.2252220408
 11
-104.1482445617
 21
-31.8711153381
  0
LINE
  5
3D3
100
AcDbEntity
  8
CURVE
100
AcDbLine
 62
7
  6
CONTINUOUS
 10
-103.9921973396
 20
-31.7150681161
 11
-103.2838474014
 21
-31.0067181779
  0
LINE
  5
3D4
100
AcDbEntity
  8
CURVE
100
AcDbLine
 62
7
  6
CONTINUOUS
 10
-102.9056843624
 20
-30.6285551388
 11
-102.5511746985
 21
-30.2740454749
  0
LINE
  5
3D5
100
AcDbEntity
  8
CURVE
100
AcDbLine
 62
7
  6
CONTINUOUS
 10
-104.3425080856
 20
-32.2753895761
 11
-103.9842035098
 21
-31.9170850002
  0
LINE
  5
3D6
100
AcDbEntity
  8
CURVE
100
AcDbLine
 62
7
  6
CONTINUOUS
 10
-103.7089275375
 20
-31.641809028
 11
-102.9807964674
 21
-30.9136779579
  0
LINE
  5
3D7
100
AcDbEntity
  8
CURVE
100
AcDbLine
 62
7
  6
CONTINUOUS
 10
-102.6956736484
 20
-30.6285551388
 11
-102.5511746985
 21
-30.4840561889
  0
LINE
  5
3D8
100
AcDbEntity
  8
0
100
AcDbLine
 62
7
  6
CONTINUOUS
 10
-100.1442189548
 20
25.2
 11
-99.9942189548
 21
25.05
  0
LINE
  5
3D9
100
AcDbEntity
  8
CURVE
100
AcDbLine
 62
7
  6
CONTINUOUS
 10
-105.0493879433
 20
-33.1922801478
 11
-105.0063806896
 21
-33.1492728941
  0
LINE
  5
3DA
100
AcDbEntity
  8
CURVE
100
AcDbLine
 62
7
  6
CONTINUOUS
 10
-104.1826649068
 20
-32.3255571113
 11
-103.8201624579
 21
-31.9630546623
  0
LINE
  5
3DB
100
AcDbEntity
  8
CURVE
100
AcDbLine
 62
7
  6
CONTINUOUS
 10
-103.4358234823
 20
-31.5787156868
 11
-102.6777455334
 21
-30.8206377378
  0
LINE
  5
3DC
100
AcDbEntity
  8
CURVE
100
AcDbLine
 62
7
  6
CONTINUOUS
 10
-105.0493879433
 20
-33.4022908618
 11
-104.7746912401
 21
-33.1275941586
  0
LINE
  5
3DD
100
AcDbEntity
  8
CURVE
100
AcDbLine
 62
7
  6
CONTINUOUS
 10
-104.0228217281
 20
-32.3757246466
 11
-103.656121406
 21
-32.0090243245
  0
LINE
  5
3DE
100
AcDbEntity
  8
CURVE
100
AcDbLine
 62
7
  6
CONTINUOUS
 10
-103.4358234823
 20
-31.7887264008
 11
-102.5511747149
 21
-30.9040776334
  0
LINE
  5
3DF
100
AcDbEntity
  8
CURVE
100
AcDbLine
 62
7
  6
CONTINUOUS
 10
-105.0493879433
 20
-33.6123015758
 11
-104.5430017905
 21
-33.105915423
  0
LINE
  5
3E0
100
AcDbEntity
  8
CURVE
100
AcDbLine
 62
7
  6
CONTINUOUS
 10
-103.8629785493
 20
-32.4258921818
 11
-103.4920803541
 21
-32.0549939866
  0
LINE
  5
3E1
100
AcDbEntity
  8
CURVE
100
AcDbLine
 62
7
  6
CONTINUOUS
 10
-103.4358234823
 20
-31.9987371148
 11
-103.0499067157
 21
-31.6128203482
  0
LINE
  5
3E2
100
AcDbEntity
  8
CURVE
100
AcDbLine
 62
7
  6
CONTINUOUS
 10
-102.849731653
 20
-31.4126452855
 11
-102.5511747149
 21
-31.1140883474
  0
LINE
  5
3E3
100
AcDbEntity
  8
CURVE
100
AcDbLine
 62
7
  6
CONTINUOUS
 10
-104.938392107
 20
-33.7113164535
 11
-104.311312341
 21
-33.0842366875
  0
LINE
  5
3E4
100
AcDbEntity
  8
CURVE
100
AcDbLine
 62
7
  6
CONTINUOUS
 10
-103.7031353706
 20
-32.4760597171
 11
-103.0499067157
 21
-31.8228310622
  0
LINE
  5
3E5
100
AcDbEntity
  8
CURVE
100
AcDbLine
 62
7
  6
CONTINUOUS
 10
-102.5616387293
 20
-31.3345630758
 11
-102.5511747149
 21
-31.3240990614
  0
LINE
  5
3E6
100
AcDbEntity
  8
CURVE
100
AcDbLine
 62
7
  6
CONTINUOUS
 10
-104.7857900421
 20
-33.7687251026
 11
-104.0796228914
 21
-33.0625579519
  0
LINE
  5
3E7
100
AcDbEntity
  8
CURVE
100
AcDbLine
 62
7
  6
CONTINUOUS
 10
-103.5432921918
 20
-32.5262272524
 11
-103.0499067157
 21
-32.0328417762
  0
LINE
  5
3E8
100
AcDbEntity
  8
CURVE
100
AcDbLine
 62
7
  6
CONTINUOUS
 10
-104.6331879773
 20
-33.8261337518
 11
-103.8479334419
 21
-33.0408792164
  0
LINE
  5
3E9
100
AcDbEntity
  8
CURVE
100
AcDbLine
 62
7
  6
CONTINUOUS
 10
-103.3834490131
 20
-32.5763947876
 11
-102.9991900364
 21
-32.1921358109
  0
LINE
  5
3EA
100
AcDbEntity
  8
CURVE
100
AcDbLine
 62
7
  6
CONTINUOUS
 10
-104.4805859124
 20
-33.883542401
 11
-104.1456897245
 21
-33.548646213
  0
LINE
  5
3EB
100
AcDbEntity
  8
CURVE
100
AcDbLine
 62
7
  6
CONTINUOUS
 10
-104.1313171804
 20
-33.5342736689
 11
-103.6162439923
 21
-33.0192004809
  0
LINE
  5
3EC
100
AcDbEntity
  8
CURVE
100
AcDbLine
 62
7
  6
CONTINUOUS
 10
-103.2236058343
 20
-32.6265623229
 11
-102.8362265713
 21
-32.2391830598
  0
LINE
  5
3ED
100
AcDbEntity
  8
CURVE
100
AcDbLine
 62
7
  6
CONTINUOUS
 10
-104.3279838476
 20
-33.9409510501
 11
-103.9937186303
 21
-33.6066858328
  0
LINE
  5
3EE
100
AcDbEntity
  8
CURVE
100
AcDbLine
 62
7
  6
CONTINUOUS
 10
-103.9064680965
 20
-33.5194352991
 11
-103.3845545428
 21
-32.9975217453
  0
LINE
  5
3EF
100
AcDbEntity
  8
CURVE
100
AcDbLine
 62
7
  6
CONTINUOUS
 10
-103.0637626556
 20
-32.6767298581
 11
-102.6732631062
 21
-32.2862303088
  0
LINE
  5
3F0
100
AcDbEntity
  8
CURVE
100
AcDbLine
 62
7
  6
CONTINUOUS
 10
-105.0493879433
 20
-34.8723658599
 11
-104.7869836016
 21
-34.6099615182
  0
LINE
  5
3F1
100
AcDbEntity
  8
CURVE
100
AcDbLine
 62
7
  6
CONTINUOUS
 10
-104.1753817827
 20
-33.9983596993
 11
-103.8417475361
 21
-33.6647254527
  0
LINE
  5
3F2
100
AcDbEntity
  8
CURVE
100
AcDbLine
 62
7
  6
CONTINUOUS
 10
-103.6816190127
 20
-33.5045969292
 11
-103.1528650932
 21
-32.9758430098
  0
LINE
  5
3F3
100
AcDbEntity
  8
CURVE
100
AcDbLine
 62
7
  6
CONTINUOUS
 10
-102.9039194768
 20
-32.7268973934
 11
-102.5511747149
 21
-32.3741526315
  0
LINE
  5
3F4
100
AcDbEntity
  8
CURVE
100
AcDbLine
 62
7
  6
CONTINUOUS
 10
-105.0493879433
 20
-35.0823765739
 11
-104.4524517283
 21
-34.4854403589
  0
LINE
  5
3F5
100
AcDbEntity
  8
CURVE
100
AcDbLine
 62
7
  6
CONTINUOUS
 10
-104.0227797178
 20
-34.0557683484
 11
-103.689776442
 21
-33.7227650725
  0
LINE
  5
3F6
100
AcDbEntity
  8
CURVE
100
AcDbLine
 62
7
  6
CONTINUOUS
 10
-103.4567699288
 20
-33.4897585594
 11
-102.9211756437
 21
-32.9541642742
  0
LINE
  5
3F7
100
AcDbEntity
  8
CURVE
100
AcDbLine
 62
7
  6
CONTINUOUS
 10
-102.7440762981
 20
-32.7770649287
 11
-102.5511747149
 21
-32.5841633455
  0
LINE
  5
3F8
100
AcDbEntity
  8
CURVE
100
AcDbLine
 62
7
  6
CONTINUOUS
 10
-104.9912494334
 20
-35.2342487779
 11
-104.1179198549
 21
-34.3609191995
  0
LINE
  5
3F9
100
AcDbEntity
  8
CURVE
100
AcDbLine
 62
7
  6
CONTINUOUS
 10
-103.870177653
 20
-34.1131769976
 11
-103.5378053478
 21
-33.7808046924
  0
LINE
  5
3FA
100
AcDbEntity
  8
CURVE
100
AcDbLine
 62
7
  6
CONTINUOUS
 10
-103.2319208449
 20
-33.4749201895
 11
-102.6894861941
 21
-32.9324855387
  0
LINE
  5
3FB
100
AcDbEntity
  8
CURVE
100
AcDbLine
 62
7
  6
CONTINUOUS
 10
-102.5842331193
 20
-32.8272324639
 11
-102.5511747149
 21
-32.7941740595
  0
LINE
  5
3FC
100
AcDbEntity
  8
CURVE
100
AcDbLine
 62
7
  6
CONTINUOUS
 10
-104.7986407896
 20
-35.2516508482
 11
-103.7833879815
 21
-34.2363980402
  0
LINE
  5
3FD
100
AcDbEntity
  8
CURVE
100
AcDbLine
 62
7
  6
CONTINUOUS
 10
-103.7175755881
 20
-34.1705856467
 11
-103.3858342536
 21
-33.8388443122
  0
LINE
  5
3FE
100
AcDbEntity
  8
CURVE
100
AcDbLine
 62
7
  6
CONTINUOUS
 10
-103.0070717611
 20
-33.4600818197
 11
-102.5511747149
 21
-33.0041847735
  0
LINE
  5
3FF
100
AcDbEntity
  8
CURVE
100
AcDbLine
 62
7
  6
CONTINUOUS
 10
-104.6060321459
 20
-35.2690529185
 11
-104.1800636654
 21
-34.843084438
  0
LINE
  5
400
100
AcDbEntity
  8
CURVE
100
AcDbLine
 62
7
  6
CONTINUOUS
 10
-104.1783593551
 20
-34.8413801277
 11
-103.2338631595
 21
-33.8968839321
  0
LINE
  5
401
100
AcDbEntity
  8
CURVE
100
AcDbLine
 62
7
  6
CONTINUOUS
 10
-102.7822226772
 20
-33.4452434498
 11
-102.5511747149
 21
-33.2141954876
  0
LINE
  5
402
100
AcDbEntity
  8
CURVE
100
AcDbLine
 62
7
  6
CONTINUOUS
 10
-105.0495368525
 20
-35.9225683392
 11
-104.8625735134
 21
-35.735605
  0
LINE
  5
403
100
AcDbEntity
  8
CURVE
100
AcDbLine
 62
7
  6
CONTINUOUS
 10
-104.4134235022
 20
-35.2864549888
 11
-103.9836133563
 21
-34.8566448429
  0
LINE
  5
404
100
AcDbEntity
  8
CURVE
100
AcDbLine
 62
7
  6
CONTINUOUS
 10
-103.842212351
 20
-34.7152438377
 11
-103.0818920653
 21
-33.9549235519
  0
LINE
  5
405
100
AcDbEntity
  8
CURVE
100
AcDbLine
 62
7
  6
CONTINUOUS
 10
-102.5573735933
 20
-33.4304050799
 11
-102.5511747149
 21
-33.4242062016
  0
LINE
  5
406
100
AcDbEntity
  8
CURVE
100
AcDbLine
 62
7
  6
CONTINUOUS
 10
-105.0495368525
 20
-36.1325790532
 11
-104.6525627994
 21
-35.735605
  0
LINE
  5
407
100
AcDbEntity
  8
CURVE
100
AcDbLine
 62
7
  6
CONTINUOUS
 10
-104.2208148585
 20
-35.3038570591
 11
-103.7871630473
 21
-34.8702052479
  0
LINE
  5
408
100
AcDbEntity
  8
CURVE
100
AcDbLine
 62
7
  6
CONTINUOUS
 10
-103.506065347
 20
-34.5891075477
 11
-102.9299209711
 21
-34.0129631718
  0
LINE
  5
409
100
AcDbEntity
  8
CURVE
100
AcDbLine
 62
7
  6
CONTINUOUS
 10
-104.9643450853
 20
-36.257398
 11
-104.4425520853
 21
-35.735605
  0
LINE
  5
40A
100
AcDbEntity
  8
CURVE
100
AcDbLine
 62
7
  6
CONTINUOUS
 10
-104.0282062147
 20
-35.3212591294
 11
-103.5907127382
 21
-34.8837656529
  0
LINE
  5
40B
100
AcDbEntity
  8
CURVE
100
AcDbLine
 62
7
  6
CONTINUOUS
 10
-103.169918343
 20
-34.4629712577
 11
-102.777949877
 21
-34.0710027916
  0
LINE
  5
40C
100
AcDbEntity
  8
CURVE
100
AcDbLine
 62
7
  6
CONTINUOUS
 10
-105.0493879433
 20
-36.552451572
 11
-104.9726538187
 21
-36.4757174474
  0
LINE
  5
40D
100
AcDbEntity
  8
CURVE
100
AcDbLine
 62
7
  6
CONTINUOUS
 10
-104.7543343713
 20
-36.257398
 11
-104.2325413713
 21
-35.735605
  0
LINE
  5
40E
100
AcDbEntity
  8
CURVE
100
AcDbLine
 62
7
  6
CONTINUOUS
 10
-103.835597571
 20
-35.3386611997
 11
-103.3942624292
 21
-34.8973260578
  0
LINE
  5
40F
100
AcDbEntity
  8
CURVE
100
AcDbLine
 62
7
  6
CONTINUOUS
 10
-102.833771339
 20
-34.3368349676
 11
-102.6259787828
 21
-34.1290424115
  0
LINE
  5
410
100
AcDbEntity
  8
CURVE
100
AcDbLine
 62
7
  6
CONTINUOUS
 10
-105.0493879433
 20
-36.762462286
 11
-104.8137517203
 21
-36.526826063
  0
LINE
  5
411
100
AcDbEntity
  8
CURVE
100
AcDbLine
 62
7
  6
CONTINUOUS
 10
-104.5443236573
 20
-36.257398
 11
-104.0225306573
 21
-35.735605
  0
LINE
  5
412
100
AcDbEntity
  8
CURVE
100
AcDbLine
 62
7
  6
CONTINUOUS
 10
-103.6429889273
 20
-35.35606327
 11
-103.1978121201
 21
-34.9108864628
  0
LINE
  5
413
100
AcDbEntity
  8
CURVE
100
AcDbLine
 62
7
  6
CONTINUOUS
 10
-105.0493879433
 20
-36.972473
 11
-104.6548496219
 21
-36.5779346786
  0
LINE
  5
414
100
AcDbEntity
  8
CURVE
100
AcDbLine
 62
7
  6
CONTINUOUS
 10
-104.3343129433
 20
-36.257398
 11
-103.8125199433
 21
-35.735605
  0
LINE
  5
415
100
AcDbEntity
  8
CURVE
100
AcDbLine
 62
7
  6
CONTINUOUS
 10
-103.4503802836
 20
-35.3734653402
 11
-103.0013618111
 21
-34.9244468678
  0
LINE
  5
416
100
AcDbEntity
  8
CURVE
100
AcDbLine
 62
7
  6
CONTINUOUS
 10
-104.8860268689
 20
-37.0191226396
 11
-104.4959475235
 21
-36.6290432942
  0
LINE
  5
417
100
AcDbEntity
  8
CURVE
100
AcDbLine
 62
7
  6
CONTINUOUS
 10
-104.1243022293
 20
-36.257398
 11
-103.6025092293
 21
-35.735605
  0
LINE
  5
418
100
AcDbEntity
  8
CURVE
100
AcDbLine
 62
7
  6
CONTINUOUS
 10
-103.2577716398
 20
-35.3908674105
 11
-102.804911502
 21
-34.9380072727
  0
LINE
  5
419
100
AcDbEntity
  8
CURVE
100
AcDbLine
 62
7
  6
CONTINUOUS
 10
-104.7226657945
 20
-37.0657722792
 11
-104.3370454251
 21
-36.6801519098
  0
LINE
  5
41A
100
AcDbEntity
  8
CURVE
100
AcDbLine
 62
7
  6
CONTINUOUS
 10
-103.9142915153
 20
-36.257398
 11
-103.3924985153
 21
-35.735605
  0
LINE
  5
41B
100
AcDbEntity
  8
CURVE
100
AcDbLine
 62
7
  6
CONTINUOUS
 10
-103.0651629961
 20
-35.4082694808
 11
-102.608461193
 21
-34.9515676777
  0
LINE
  5
41C
100
AcDbEntity
  8
CURVE
100
AcDbLine
 62
7
  6
CONTINUOUS
 10
-104.55930472
 20
-37.1124219188
 11
-104.1781433267
 21
-36.7312605254
  0
LINE
  5
41D
100
AcDbEntity
  8
CURVE
100
AcDbLine
 62
7
  6
CONTINUOUS
 10
-103.7042808013
 20
-36.257398
 11
-103.1824878013
 21
-35.735605
  0
LINE
  5
41E
100
AcDbEntity
  8
CURVE
100
AcDbLine
 62
7
  6
CONTINUOUS
 10
-102.8725543524
 20
-35.4256715511
 11
-102.5511747149
 21
-35.1042919137
  0
LINE
  5
41F
100
AcDbEntity
  8
CURVE
100
AcDbLine
 62
7
  6
CONTINUOUS
 10
-104.3959436456
 20
-37.1590715584
 11
-104.0192412283
 21
-36.782369141
  0
LINE
  5
420
100
AcDbEntity
  8
CURVE
100
AcDbLine
 62
7
  6
CONTINUOUS
 10
-103.4942700873
 20
-36.257398
 11
-102.9724770873
 21
-35.735605
  0
LINE
  5
421
100
AcDbEntity
  8
CURVE
100
AcDbLine
 62
7
  6
CONTINUOUS
 10
-102.6799457087
 20
-35.4430736214
 11
-102.5511747149
 21
-35.3143026277
  0
LINE
  5
422
100
AcDbEntity
  8
CURVE
100
AcDbLine
 62
7
  6
CONTINUOUS
 10
-105.0493879433
 20
-38.0225265701
 11
-104.9352543133
 21
-37.90839294
  0
LINE
  5
423
100
AcDbEntity
  8
CURVE
100
AcDbLine
 62
7
  6
CONTINUOUS
 10
-104.2325825712
 20
-37.2057211979
 11
-103.8603391299
 21
-36.8334777566
  0
LINE
  5
424
100
AcDbEntity
  8
CURVE
100
AcDbLine
 62
7
  6
CONTINUOUS
 10
-103.2842593732
 20
-36.257398
 11
-102.7624663732
 21
-35.735605
  0
LINE
  5
425
100
AcDbEntity
  8
CURVE
100
AcDbLine
 62
7
  6
CONTINUOUS
 10
-105.0493879433
 20
-38.2325372841
 11
-104.6447441805
 21
-37.8278935213
  0
LINE
  5
426
100
AcDbEntity
  8
CURVE
100
AcDbLine
 62
7
  6
CONTINUOUS
 10
-104.0692214968
 20
-37.2523708375
 11
-103.7014370315
 21
-36.8845863723
  0
LINE
  5
427
100
AcDbEntity
  8
CURVE
100
AcDbLine
 62
7
  6
CONTINUOUS
 10
-103.0742486592
 20
-36.257398
 11
-102.5524556592
 21
-35.735605
  0
LINE
  5
428
100
AcDbEntity
  8
CURVE
100
AcDbLine
 62
7
  6
CONTINUOUS
 10
-105.0493879433
 20
-38.4425479981
 11
-104.3542340478
 21
-37.7473941026
  0
LINE
  5
429
100
AcDbEntity
  8
CURVE
100
AcDbLine
 62
7
  6
CONTINUOUS
 10
-103.9058604223
 20
-37.2990204771
 11
-103.5425349331
 21
-36.9356949879
  0
LINE
  5
42A
100
AcDbEntity
  8
CURVE
100
AcDbLine
 62
7
  6
CONTINUOUS
 10
-102.8642379452
 20
-36.257398
 11
-102.5511747149
 21
-35.9443347697
  0
LINE
  5
42B
100
AcDbEntity
  8
CURVE
100
AcDbLine
 62
7
  6
CONTINUOUS
 10
-104.8359807589
 20
-38.4391515277
 11
-104.063723915
 21
-37.6668946838
  0
LINE
  5
42C
100
AcDbEntity
  8
CURVE
100
AcDbLine
 62
7
  6
CONTINUOUS
 10
-103.7424993479
 20
-37.3456701167
 11
-103.3836328347
 21
-36.9868036035
  0
LINE
  5
42D
100
AcDbEntity
  8
CURVE
100
AcDbLine
 62
7
  6
CONTINUOUS
 10
-102.6542272312
 20
-36.257398
 11
-102.5511747149
 21
-36.1543454837
  0
LINE
  5
42E
100
AcDbEntity
  8
CURVE
100
AcDbLine
 62
7
  6
CONTINUOUS
 10
-104.5284022223
 20
-38.3415837051
 11
-103.7732137823
 21
-37.5863952651
  0
LINE
  5
42F
100
AcDbEntity
  8
CURVE
100
AcDbLine
 62
7
  6
CONTINUOUS
 10
-103.5791382735
 20
-37.3923197563
 11
-103.2247307363
 21
-37.0379122191
  0
LINE
  5
430
100
AcDbEntity
  8
CURVE
100
AcDbLine
 62
7
  6
CONTINUOUS
 10
-104.2208236858
 20
-38.2440158826
 11
-103.4827036495
 21
-37.5058958463
  0
LINE
  5
431
100
AcDbEntity
  8
CURVE
100
AcDbLine
 62
7
  6
CONTINUOUS
 10
-103.4157771991
 20
-37.4389693959
 11
-103.0658286379
 21
-37.0890208347
  0
LINE
  5
432
100
AcDbEntity
  8
CURVE
100
AcDbLine
 62
7
  6
CONTINUOUS
 10
-103.9132451492
 20
-38.14644806
 11
-102.9069265395
 21
-37.1401294503
  0
LINE
  5
433
100
AcDbEntity
  8
CURVE
100
AcDbLine
 62
7
  6
CONTINUOUS
 10
-103.6056666126
 20
-38.0488802375
 11
-102.7480244411
 21
-37.1912380659
  0
LINE
  5
434
100
AcDbEntity
  8
CURVE
100
AcDbLine
 62
7
  6
CONTINUOUS
 10
-103.2980880761
 20
-37.9513124149
 11
-102.5891223427
 21
-37.2423466815
  0
LINE
  5
435
100
AcDbEntity
  8
CURVE
100
AcDbLine
 62
7
  6
CONTINUOUS
 10
-102.9905095395
 20
-37.8537445923
 11
-102.5511747149
 21
-37.4144097678
  0
LINE
  5
436
100
AcDbEntity
  8
CURVE
100
AcDbLine
 62
7
  6
CONTINUOUS
 10
-102.6829310029
 20
-37.7561767698
 11
-102.5511747149
 21
-37.6244204818
  0
LINE
  5
437
100
AcDbEntity
  8
0
100
AcDbLine
 62
250
  6
CONTINUOUS
 10
-99.518446371
 20
-26.9276792439
 11
-98.4189275112
 21
-26.3440350289
  0
LINE
  5
438
100
AcDbEntity
  8
0
100
AcDbLine
 62
250
  6
CONTINUOUS
 10
-97.9941697226
 20
-26.2536973817
 11
-97.4720778698
 21
-25.9765617175
  0
LINE
  5
439
100
AcDbEntity
  8
0
100
AcDbLine
 62
7
  6
CONTINUOUS
 10
-97.4442189548
 20
-26.0883643404
 11
-99.4442189593
 21
-27.1500000024
  0
LINE
  5
43A
100
AcDbEntity
  8
0
100
AcDbLine
 62
7
  6
CONTINUOUS
 10
-97.4442189548
 20
25.4
 11
-99.3945908569
 21
25.2049628098
  0
LINE
  5
43B
100
AcDbEntity
  8
0
100
AcDbLine
 62
7
  6
CONTINUOUS
 10
-100.4442189548
 20
25.7558198745
 11
-97.6337517635
 21
25.8799866677
  0
LINE
  5
43C
100
AcDbEntity
  8
0
100
AcDbLine
 62
7
  6
CONTINUOUS
 10
-97.4442189548
 20
25.3523612067
 11
-97.9661556091
 21
25.3478063346
  0
LINE
  5
43D
100
AcDbEntity
  8
0
100
AcDbLine
 62
7
  6
CONTINUOUS
 10
-100.4442189548
 20
25.05
 11
-100.2942189548
 21
25.05
  0
LINE
  5
43E
100
AcDbEntity
  8
0
100
AcDbLine
 62
7
  6
CONTINUOUS
 10
-99.9942189548
 20
25.05
 11
-99.7942189548
 21
25.05
  0
LINE
  5
43F
100
AcDbEntity
  8
0
100
AcDbLine
 62
7
  6
CONTINUOUS
 10
-100.4442189548
 20
25.2
 11
-99.4940945759
 21
25.2
  0
LINE
  5
440
100
AcDbEntity
  8
0
100
AcDbLine
 62
7
  6
CONTINUOUS
 10
-97.4442189548
 20
26.1523612067
 11
-97.5647817218
 21
26.1523612067
  0
LINE
  5
441
100
AcDbEntity
  8
0
100
AcDbLine
 62
250
  6
CONTINUOUS
 10
-99.518446371
 20
26.9276792439
 11
-100.4442189548
 21
26.9280974384
  0
LINE
  5
442
100
AcDbEntity
  8
0
100
AcDbLine
 62
7
  6
CONTINUOUS
 10
-99.4442189548
 20
27.15
 11
-100.4442189548
 21
27.151745331
  0
LINE
  5
443
100
AcDbEntity
  8
0
100
AcDbLine
 62
250
  6
CONTINUOUS
 10
-97.9941697226
 20
26.2536973817
 11
-100.4442189548
 21
26.2679513512
  0
LINE
  5
444
100
AcDbEntity
  8
0
100
AcDbLine
 62
7
  6
CONTINUOUS
 10
-97.9941697226
 20
26.3415638603
 11
-100.4442189548
 21
26.3558178298
  0
LINE
  5
445
100
AcDbEntity
  8
0
100
AcDbLine
 62
250
  6
CONTINUOUS
 10
-98.4189275112
 20
26.3440350289
 11
-99.518446371
 21
26.9276792439
  0
LINE
  5
446
100
AcDbEntity
  8
0
100
AcDbLine
 62
250
  6
CONTINUOUS
 10
-97.4720778698
 20
25.9765617175
 11
-97.9941697226
 21
26.2536973817
  0
LINE
  5
447
100
AcDbEntity
  8
0
100
AcDbLine
 62
7
  6
CONTINUOUS
 10
-97.4442189548
 20
26.0883643404
 11
-99.4442189584
 21
27.1500000019
  0
LINE
  5
448
100
AcDbEntity
  8
0
100
AcDbLine
 62
7
  6
CONTINUOUS
 10
-106.5948281278
 20
-43.8055596544
 11
-106.609766497
 21
-43.8199854699
  0
LINE
  5
449
100
AcDbEntity
  8
ASSI
100
AcDbLine
 62
7
  6
CONTINUOUS
 10
-106.5948281278
 20
-43.8055596544
 11
-106.609766497
 21
-43.8199854699
  0
LINE
  5
44A
100
AcDbEntity
  8
CURVE
100
AcDbLine
 62
250
  6
CONTINUOUS
 10
-105.0493879433
 20
-31.54876
 11
-102.5511747149
 21
-30.781779
  0
LINE
  5
44B
100
AcDbEntity
  8
0
100
AcDbLine
 62
7
  6
CONTINUOUS
 10
-106.609766497
 20
43.8199854699
 11
-106.5948281278
 21
43.8055596544
  0
LINE
  5
44C
100
AcDbEntity
  8
ASSI
100
AcDbLine
 62
7
  6
CONTINUOUS
 10
-106.609766497
 20
43.8199854699
 11
-106.5948281278
 21
43.8055596544
  0
LINE
  5
44D
100
AcDbEntity
  8
CURVE
100
AcDbLine
 62
250
  6
CONTINUOUS
 10
-102.5511747149
 20
-34.230793
 11
-104.1824603741
 21
-34.842919
  0
LINE
  5
44E
100
AcDbEntity
  8
CURVE
100
AcDbLine
 62
250
  6
CONTINUOUS
 10
-105.0493879433
 20
-34.707635
 11
-103.6623723907
 21
-34.191353
  0
LWPOLYLINE
  5
44F
100
AcDbEntity
  8
0
100
AcDbPolyline
 62
7
  6
CONTINUOUS
 90
10
 70
0
 43
0.3500000006
 10
-92.6138866882
 20
54.2499981079
 10
-92.5424645691
 20
54.1071448059
 10
-92.5424645691
 20
54.035713623
 10
-92.6853178711
 20
53.8928557892
 10
-92.756749054
 20
53.8928557892
 10
-92.8281802368
 20
53.964286972
 10
-92.8281802368
 20
54.035713623
 10
-92.756749054
 20
54.1785714569
 10
-92.6853178711
 20
54.2499981079
 10
-92.6138866882
 20
54.2499981079
  0
LINE
  5
450
100
AcDbEntity
  8
CURVE
100
AcDbLine
 62
250
  6
CONTINUOUS
 10
-102.5511747149
 20
-37.714382
 11
-105.0493879433
 21
-38.506847
  0
LWPOLYLINE
  5
451
100
AcDbEntity
  8
0
100
AcDbPolyline
 62
7
  6
CONTINUOUS
 90
10
 70
0
 43
0.3500000006
 10
-91.3313520813
 20
64.2500011597
 10
-91.2599208984
 20
64.1071387939
 10
-91.2599208984
 20
64.0357166748
 10
-91.4027742004
 20
63.8928543091
 10
-91.4742053833
 20
63.8928543091
 10
-91.5456365662
 20
63.9642854919
 10
-91.5456365662
 20
64.0357166748
 10
-91.4742053833
 20
64.1785699768
 10
-91.4027742004
 20
64.2500011597
 10
-91.3313520813
 20
64.2500011597
  0
LINE
  5
452
100
AcDbEntity
  8
0
100
AcDbLine
 62
250
  6
CONTINUOUS
 10
-101.0442189548
 20
41.1619414324
 11
-100.4442189548
 21
41.2038975196
  0
LINE
  5
453
100
AcDbEntity
  8
0
100
AcDbLine
 62
7
  6
CONTINUOUS
 10
-101.0442189548
 20
42.7580439128
 11
-100.4442189548
 21
42.8
  0
LINE
  5
454
100
AcDbEntity
  8
0
100
AcDbLine
 62
7
  6
CONTINUOUS
 10
-106.5948281278
 20
43.8055596544
 11
-101.0442189548
 21
43.9993911979
  0
LINE
  5
455
100
AcDbEntity
  8
ASSI
100
AcDbLine
 62
7
  6
CONTINUOUS
 10
-106.5948281278
 20
43.8055596544
 11
-101.0442189548
 21
43.9993911979
  0
LINE
  5
456
100
AcDbEntity
  8
0
100
AcDbLine
 62
7
  6
CONTINUOUS
 10
-106.5948281278
 20
44.8061684565
 11
-101.0442189548
 21
45.0
  0
LINE
  5
457
100
AcDbEntity
  8
ASSI
100
AcDbLine
 62
7
  6
CONTINUOUS
 10
-106.5948281278
 20
44.8061684565
 11
-101.0442189548
 21
45.0
  0
LWPOLYLINE
  5
458
100
AcDbEntity
  8
0
100
AcDbPolyline
 62
7
  6
CONTINUOUS
 90
8
 70
0
 43
0.3500000006
 10
-89.8281793213
 20
53.7499979553
 10
-88.9710323181
 20
53.7499979553
 10
-88.5424633484
 20
54.1785714569
 10
-88.5424633484
 20
55.0357139282
 10
-88.9710323181
 20
55.4642874298
 10
-89.8281793213
 20
55.4642874298
 10
-89.8281793213
 20
56.7499988708
 10
-88.5424633484
 20
56.7499988708
  0
LWPOLYLINE
  5
459
100
AcDbEntity
  8
0
100
AcDbPolyline
 62
7
  6
CONTINUOUS
 90
8
 70
0
 43
0.3500000006
 10
-88.5456356506
 20
63.7500010071
 10
-87.6884886475
 20
63.7500010071
 10
-87.2599196777
 20
64.1785699768
 10
-87.2599196777
 20
65.03571698
 10
-87.6884886475
 20
65.4642859497
 10
-88.5456356506
 20
65.4642859497
 10
-88.5456356506
 20
66.7500019226
 10
-87.2599196777
 20
66.7500019226
  0
ARC
  5
45A
100
AcDbEntity
  8
CURVE
100
AcDbCircle
 62
250
  6
CONTINUOUS
 10
111.9922937963
 20
-29.8716892664
 40
39.8681074
100
AcDbArc
 50
179.7782450657
 51
180.3657160807
  0
ARC
  5
45B
100
AcDbEntity
  8
0
100
AcDbCircle
 62
250
  6
CONTINUOUS
 10
44.7007163545
 20
22.2007163543
 40
0.6976631113
100
AcDbArc
 50
359.9486497522
 51
90.0513502583
  0
ARC
  5
45C
100
AcDbEntity
  8
0
100
AcDbCircle
 62
250
  6
CONTINUOUS
 10
-44.7007163546
 20
22.2007163547
 40
0.697663111
100
AcDbArc
 50
89.9486497348
 51
180.0513502756
  0
ARC
  5
45D
100
AcDbEntity
  8
0
100
AcDbCircle
 62
250
  6
CONTINUOUS
 10
-44.7007163546
 20
-22.2007163544
 40
0.6976631111
100
AcDbArc
 50
179.9486497452
 51
270.0513502653
  0
ARC
  5
45E
100
AcDbEntity
  8
0
100
AcDbCircle
 62
250
  6
CONTINUOUS
 10
44.7007163544
 20
-22.2007163545
 40
0.6976631113
100
AcDbArc
 50
269.9486497506
 51
0.0513502599
  0
ARC
  5
45F
100
AcDbEntity
  8
ASSI
100
AcDbCircle
 62
250
  6
CONTINUOUS
 10
-44.7007163546
 20
-22.2007163544
 40
0.6976631111
100
AcDbArc
 50
179.9486497452
 51
270.0513502653
  0
ARC
  5
460
100
AcDbEntity
  8
ASSI
100
AcDbCircle
 62
250
  6
CONTINUOUS
 10
44.7007163544
 20
-22.2007163545
 40
0.6976631113
100
AcDbArc
 50
269.9486497506
 51
0.0513502599
  0
ARC
  5
461
100
AcDbEntity
  8
ASSI
100
AcDbCircle
 62
250
  6
CONTINUOUS
 10
44.7007163545
 20
22.2007163543
 40
0.6976631113
100
AcDbArc
 50
359.9486497522
 51
90.0513502583
  0
ARC
  5
462
100
AcDbEntity
  8
ASSI
100
AcDbCircle
 62
250
  6
CONTINUOUS
 10
-44.7007163546
 20
22.2007163547
 40
0.697663111
100
AcDbArc
 50
89.9486497348
 51
180.0513502756
  0
ARC
  5
463
100
AcDbEntity
  8
0
100
AcDbCircle
 62
7
  6
CONTINUOUS
 10
-99.4940945759
 20
-26.2
 40
1.0
100
AcDbArc
 50
84.2894068625
 51
90.0
  0
ARC
  5
464
100
AcDbEntity
  8
0
100
AcDbCircle
 62
7
  6
CONTINUOUS
 10
-99.4940945759
 20
26.2
 40
1.0
100
AcDbArc
 50
270.0
 51
275.7105931375
  0
ARC
  5
465
100
AcDbEntity
  8
0
100
AcDbCircle
 62
7
  6
CONTINUOUS
 10
-99.5189056299
 20
-26.849999496
 40
0.3
100
AcDbArc
 50
270.0999999936
 51
297.9489685197
  0
ARC
  5
466
100
AcDbEntity
  8
0
100
AcDbCircle
 62
7
  6
CONTINUOUS
 10
-99.5189056299
 20
26.849999496
 40
0.3
100
AcDbArc
 50
62.0510314803
 51
89.9000000064
  0
ARC
  5
467
100
AcDbEntity
  8
0
100
AcDbCircle
 62
7
  6
CONTINUOUS
 10
-100.4942189548
 20
2.6214065094
 40
0.3
100
AcDbArc
 50
0.0
 51
80.4016345752
  0
ARC
  5
468
100
AcDbEntity
  8
0
100
AcDbCircle
 62
7
  6
CONTINUOUS
 10
-100.4942189548
 20
-2.6214065094
 40
0.3
100
AcDbArc
 50
279.5983654248
 51
360.0
  0
ARC
  5
469
100
AcDbEntity
  8
0
100
AcDbCircle
 62
7
  6
CONTINUOUS
 10
-97.995915042
 20
-26.0415689373
 40
0.3
100
AcDbArc
 50
270.3333333333
 51
297.9601595792
  0
ARC
  5
46A
100
AcDbEntity
  8
0
100
AcDbCircle
 62
7
  6
CONTINUOUS
 10
-97.995915042
 20
26.0415689373
 40
0.3
100
AcDbArc
 50
62.0398404207
 51
89.6666666667
  0
SPLINE
  5
46B
100
AcDbEntity
  8
0
100
AcDbSpline
 62
250
  6
CONTINUOUS
 70
0
 71
3
 72
11
 73
7
 74
0
 42
0.0000001
 43
0.0000001
 44
0.0000000001
 40
0.0
 40
0.0
 40
0.0
 40
0.0
 40
0.2499810524
 40
0.4999925788
 40
0.7499983789
 40
1.0
 40
1.0
 40
1.0
 40
1.0
 10
-44.7000910812
 20
-22.6988731063
 30
0.0
 10
-44.7650156206
 20
-22.6989968151
 30
0.0
 10
-44.8963637386
 20
-22.6734285374
 30
0.0
 10
-45.0625423822
 20
-22.5625530138
 30
0.0
 10
-45.1734258364
 20
-22.3963733501
 30
0.0
 10
-45.1989966273
 20
-22.265020963
 30
0.0
 10
-45.1988731063
 20
-22.2000910812
 30
0.0
  0
SPLINE
  5
46C
100
AcDbEntity
  8
0
100
AcDbSpline
 62
250
  6
CONTINUOUS
 70
0
 71
3
 72
11
 73
7
 74
0
 42
0.0000001
 43
0.0000001
 44
0.0000000001
 40
0.0
 40
0.0
 40
0.0
 40
0.0
 40
0.2499810524
 40
0.4999925788
 40
0.7499983789
 40
1.0
 40
1.0
 40
1.0
 40
1.0
 10
45.1988731063
 20
-22.2000910812
 30
0.0
 10
45.1989968151
 20
-22.2650156206
 30
0.0
 10
45.1734285374
 20
-22.3963637386
 30
0.0
 10
45.0625530138
 20
-22.5625423822
 30
0.0
 10
44.8963733501
 20
-22.6734258364
 30
0.0
 10
44.765020963
 20
-22.6989966273
 30
0.0
 10
44.7000910812
 20
-22.6988731063
 30
0.0
  0
SPLINE
  5
46D
100
AcDbEntity
  8
0
100
AcDbSpline
 62
250
  6
CONTINUOUS
 70
0
 71
3
 72
11
 73
7
 74
0
 42
0.0000001
 43
0.0000001
 44
0.0000000001
 40
0.0
 40
0.0
 40
0.0
 40
0.0
 40
0.2499810524
 40
0.4999925788
 40
0.7499983789
 40
1.0
 40
1.0
 40
1.0
 40
1.0
 10
44.7000910812
 20
22.6988731063
 30
0.0
 10
44.7650156206
 20
22.6989968151
 30
0.0
 10
44.8963637386
 20
22.6734285374
 30
0.0
 10
45.0625423822
 20
22.5625530138
 30
0.0
 10
45.1734258364
 20
22.3963733501
 30
0.0
 10
45.1989966273
 20
22.265020963
 30
0.0
 10
45.1988731063
 20
22.2000910812
 30
0.0
  0
SPLINE
  5
46E
100
AcDbEntity
  8
0
100
AcDbSpline
 62
250
  6
CONTINUOUS
 70
0
 71
3
 72
11
 73
7
 74
0
 42
0.0000001
 43
0.0000001
 44
0.0000000001
 40
0.0
 40
0.0
 40
0.0
 40
0.0
 40
0.2499810524
 40
0.4999925788
 40
0.7499983789
 40
1.0
 40
1.0
 40
1.0
 40
1.0
 10
-45.1988731063
 20
22.2000910812
 30
0.0
 10
-45.1989968151
 20
22.2650156206
 30
0.0
 10
-45.1734285374
 20
22.3963637386
 30
0.0
 10
-45.0625530138
 20
22.5625423822
 30
0.0
 10
-44.8963733501
 20
22.6734258364
 30
0.0
 10
-44.765020963
 20
22.6989966273
 30
0.0
 10
-44.7000910812
 20
22.6988731063
 30
0.0
  0
SPLINE
  5
46F
100
AcDbEntity
  8
ASSI
100
AcDbSpline
 62
250
  6
CONTINUOUS
 70
0
 71
3
 72
11
 73
7
 74
0
 42
0.0000001
 43
0.0000001
 44
0.0000000001
 40
0.0
 40
0.0
 40
0.0
 40
0.0
 40
0.2499810524
 40
0.4999925788
 40
0.7499983789
 40
1.0
 40
1.0
 40
1.0
 40
1.0
 10
-44.7000910812
 20
-22.6988731063
 30
0.0
 10
-44.7650156206
 20
-22.6989968151
 30
0.0
 10
-44.8963637386
 20
-22.6734285374
 30
0.0
 10
-45.0625423822
 20
-22.5625530138
 30
0.0
 10
-45.1734258364
 20
-22.3963733501
 30
0.0
 10
-45.1989966273
 20
-22.265020963
 30
0.0
 10
-45.1988731063
 20
-22.2000910812
 30
0.0
  0
SPLINE
  5
470
100
AcDbEntity
  8
ASSI
100
AcDbSpline
 62
250
  6
CONTINUOUS
 70
0
 71
3
 72
11
 73
7
 74
0
 42
0.0000001
 43
0.0000001
 44
0.0000000001
 40
0.0
 40
0.0
 40
0.0
 40
0.0
 40
0.2499810524
 40
0.4999925788
 40
0.7499983789
 40
1.0
 40
1.0
 40
1.0
 40
1.0
 10
45.1988731063
 20
-22.2000910812
 30
0.0
 10
45.1989968151
 20
-22.2650156206
 30
0.0
 10
45.1734285374
 20
-22.3963637386
 30
0.0
 10
45.0625530138
 20
-22.5625423822
 30
0.0
 10
44.8963733501
 20
-22.6734258364
 30
0.0
 10
44.765020963
 20
-22.6989966273
 30
0.0
 10
44.7000910812
 20
-22.6988731063
 30
0.0
  0
SPLINE
  5
471
100
AcDbEntity
  8
ASSI
100
AcDbSpline
 62
250
  6
CONTINUOUS
 70
0
 71
3
 72
11
 73
7
 74
0
 42
0.0000001
 43
0.0000001
 44
0.0000000001
 40
0.0
 40
0.0
 40
0.0
 40
0.0
 40
0.2499810524
 40
0.4999925788
 40
0.7499983789
 40
1.0
 40
1.0
 40
1.0
 40
1.0
 10
44.7000910812
 20
22.6988731063
 30
0.0
 10
44.7650156206
 20
22.6989968151
 30
0.0
 10
44.8963637386
 20
22.6734285374
 30
0.0
 10
45.0625423822
 20
22.5625530138
 30
0.0
 10
45.1734258364
 20
22.3963733501
 30
0.0
 10
45.1989966273
 20
22.265020963
 30
0.0
 10
45.1988731063
 20
22.2000910812
 30
0.0
  0
SPLINE
  5
472
100
AcDbEntity
  8
ASSI
100
AcDbSpline
 62
250
  6
CONTINUOUS
 70
0
 71
3
 72
11
 73
7
 74
0
 42
0.0000001
 43
0.0000001
 44
0.0000000001
 40
0.0
 40
0.0
 40
0.0
 40
0.0
 40
0.2499810524
 40
0.4999925788
 40
0.7499983789
 40
1.0
 40
1.0
 40
1.0
 40
1.0
 10
-45.1988731063
 20
22.2000910812
 30
0.0
 10
-45.1989968151
 20
22.2650156206
 30
0.0
 10
-45.1734285374
 20
22.3963637386
 30
0.0
 10
-45.0625530138
 20
22.5625423822
 30
0.0
 10
-44.8963733501
 20
22.6734258364
 30
0.0
 10
-44.765020963
 20
22.6989966273
 30
0.0
 10
-44.7000910812
 20
22.6988731063
 30
0.0
  0
SPLINE
  5
473
100
AcDbEntity
  8
CURVE
100
AcDbSpline
 62
250
  6
CONTINUOUS
 70
0
 71
3
 72
9
 73
5
 74
0
 42
0.0000001
 43
0.0000001
 44
0.0000000001
 40
0.0
 40
0.0
 40
0.0
 40
0.0
 40
0.5206208722
 40
1.0
 40
1.0
 40
1.0
 40
1.0
 10
72.135390512
 20
-29.4226356449
 30
0.0
 10
72.1391619261
 20
-29.4209681689
 30
0.0
 10
72.1474005432
 20
-29.4973108459
 30
0.0
 10
72.1488699409
 20
-29.728472706
 30
0.0
 10
72.1489474951
 20
-29.8279642095
 30
0.0
  0
SPLINE
  5
474
100
AcDbEntity
  8
CURVE
100
AcDbSpline
 62
250
  6
CONTINUOUS
 70
0
 71
3
 72
9
 73
5
 74
0
 42
0.0000001
 43
0.0000001
 44
0.0000000001
 40
0.0
 40
0.0
 40
0.0
 40
0.0
 40
0.5013510385
 40
1.0
 40
1.0
 40
1.0
 40
1.0
 10
72.1244850009
 20
-29.7173859732
 30
0.0
 10
72.124794863
 20
-29.6409112471
 30
0.0
 10
72.1271452432
 20
-29.4862321801
 30
0.0
 10
72.1327184632
 20
-29.423833145
 30
0.0
 10
72.135390512
 20
-29.4226356449
 30
0.0
  0
SPLINE
  5
475
100
AcDbEntity
  8
CURVE
100
AcDbSpline
 62
250
  6
CONTINUOUS
 70
0
 71
3
 72
9
 73
5
 74
0
 42
0.0000001
 43
0.0000001
 44
0.0000000001
 40
0.0
 40
0.0
 40
0.0
 40
0.0
 40
0.2957417834
 40
1.0
 40
1.0
 40
1.0
 40
1.0
 10
72.1120741759
 20
-29.3408501143
 30
0.0
 10
72.1105585951
 20
-29.4610542637
 30
0.0
 10
72.1080881081
 20
-29.8931154132
 30
0.0
 10
72.1096096759
 20
-30.3274429247
 30
0.0
 10
72.1111556794
 20
-30.6285551388
 30
0.0
  0
SPLINE
  5
476
100
AcDbEntity
  8
CURVE
100
AcDbSpline
 62
250
  6
CONTINUOUS
 70
0
 71
3
 72
17
 73
13
 74
0
 42
0.0000001
 43
0.0000001
 44
0.0000000001
 40
0.0
 40
0.0
 40
0.0
 40
0.0
 40
0.0559780952
 40
0.1687540387
 40
0.321006234
 40
0.4122750837
 40
0.516613223
 40
0.6013931059
 40
0.6776022439
 40
0.8103422694
 40
0.9200404832
 40
1.0
 40
1.0
 40
1.0
 40
1.0
 10
72.1561378054
 20
-29.2870512436
 30
0.0
 10
72.1560080221
 20
-29.2582307418
 30
0.0
 10
72.1539944413
 20
-29.184972753
 30
0.0
 10
72.1501559947
 20
-29.0634829078
 30
0.0
 10
72.144247302
 20
-28.9740276278
 30
0.0
 10
72.1380831982
 20
-28.9341773505
 30
0.0
 10
72.1329671207
 20
-28.9304334968
 30
0.0
 10
72.1281887457
 20
-28.9501640226
 30
0.0
 10
72.1231113496
 20
-28.9979840427
 30
0.0
 10
72.1181353908
 20
-29.0877998266
 30
0.0
 10
72.1142440602
 20
-29.2146127248
 30
0.0
 10
72.112565765
 20
-29.301804483
 30
0.0
 10
72.1120741759
 20
-29.3408501143
 30
0.0
  0
SPLINE
  5
477
100
AcDbEntity
  8
CURVE
100
AcDbSpline
 62
250
  6
CONTINUOUS
 70
0
 71
3
 72
9
 73
5
 74
0
 42
0.0000001
 43
0.0000001
 44
0.0000000001
 40
0.0
 40
0.0
 40
0.0
 40
0.0
 40
0.2426586216
 40
1.0
 40
1.0
 40
1.0
 40
1.0
 10
72.1737639114
 20
-28.9862836897
 30
0.0
 10
72.1721786227
 20
-28.9986586641
 30
0.0
 10
72.1657768408
 20
-29.0459291565
 30
0.0
 10
72.1585526835
 20
-29.1505648409
 30
0.0
 10
72.1566533149
 20
-29.2870512436
 30
0.0
  0
LINE
  5
478
100
AcDbEntity
  8
CURVE
100
AcDbLine
 62
250
  6
CONTINUOUS
 10
72.1973759458
 20
-28.8079038802
 11
72.1737639114
 21
-28.9862836897
  0
SPLINE
  5
479
100
AcDbEntity
  8
CURVE
100
AcDbSpline
 62
250
  6
CONTINUOUS
 70
0
 71
3
 72
9
 73
5
 74
0
 42
0.0000001
 43
0.0000001
 44
0.0000000001
 40
0.0
 40
0.0
 40
0.0
 40
0.0
 40
0.5586214172
 40
1.0
 40
1.0
 40
1.0
 40
1.0
 10
72.1709220674
 20
-29.5379751749
 30
0.0
 10
72.1757378197
 20
-29.486134558
 30
0.0
 10
72.1846552336
 20
-29.4179595379
 30
0.0
 10
72.1934695024
 20
-29.3419894791
 30
0.0
 10
72.1973759458
 20
-29.3098079785
 30
0.0
  0
SPLINE
  5
47A
100
AcDbEntity
  8
CURVE
100
AcDbSpline
 62
250
  6
CONTINUOUS
 70
0
 71
3
 72
9
 73
5
 74
0
 42
0.0000001
 43
0.0000001
 44
0.0000000001
 40
0.0
 40
0.0
 40
0.0
 40
0.0
 40
0.3559141631
 40
1.0
 40
1.0
 40
1.0
 40
1.0
 10
72.1632352194
 20
-29.8290889245
 30
0.0
 10
72.1632352194
 20
-29.7836184402
 30
0.0
 10
72.1641961358
 20
-29.6528120506
 30
0.0
 10
72.1682334149
 20
-29.5668873007
 30
0.0
 10
72.1709220674
 20
-29.5379751749
 30
0.0
  0
SPLINE
  5
47B
100
AcDbEntity
  8
CURVE
100
AcDbSpline
 62
250
  6
CONTINUOUS
 70
0
 71
3
 72
9
 73
5
 74
0
 42
0.0000001
 43
0.0000001
 44
0.0000000001
 40
0.0
 40
0.0
 40
0.0
 40
0.0
 40
0.5206208722
 40
1.0
 40
1.0
 40
1.0
 40
1.0
 10
-104.3262052807
 20
-29.4226356449
 30
0.0
 10
-104.218206111
 20
-29.4209681689
 30
0.0
 10
-103.9822829875
 20
-29.4973108459
 30
0.0
 10
-103.9402049416
 20
-29.728472706
 30
0.0
 10
-103.9379840801
 20
-29.8279642095
 30
0.0
  0
SPLINE
  5
47C
100
AcDbEntity
  8
CURVE
100
AcDbSpline
 62
250
  6
CONTINUOUS
 70
0
 71
3
 72
9
 73
5
 74
0
 42
0.0000001
 43
0.0000001
 44
0.0000000001
 40
0.0
 40
0.0
 40
0.0
 40
0.0
 40
0.5013510385
 40
1.0
 40
1.0
 40
1.0
 40
1.0
 10
-104.6384982601
 20
-29.7173859732
 30
0.0
 10
-104.6296249704
 20
-29.6409112471
 30
0.0
 10
-104.5623188883
 20
-29.4862321801
 30
0.0
 10
-104.402722748
 20
-29.423833145
 30
0.0
 10
-104.3262052807
 20
-29.4226356449
 30
0.0
  0
SPLINE
  5
47D
100
AcDbEntity
  8
CURVE
100
AcDbSpline
 62
250
  6
CONTINUOUS
 70
0
 71
3
 72
9
 73
5
 74
0
 42
0.0000001
 43
0.0000001
 44
0.0000000001
 40
0.0
 40
0.0
 40
0.0
 40
0.0
 40
0.2703953699
 40
1.0
 40
1.0
 40
1.0
 40
1.0
 10
-104.623792202
 20
-30.126163664
 30
0.0
 10
-104.6300027338
 20
-30.0897447717
 30
0.0
 10
-104.6504286777
 20
-29.9546358143
 30
0.0
 10
-104.6499852536
 20
-29.8164101388
 30
0.0
 10
-104.6384982601
 20
-29.7173859732
 30
0.0
  0
SPLINE
  5
47E
100
AcDbEntity
  8
CURVE
100
AcDbSpline
 62
250
  6
CONTINUOUS
 70
0
 71
3
 72
9
 73
5
 74
0
 42
0.0000001
 43
0.0000001
 44
0.0000000001
 40
0.0
 40
0.0
 40
0.0
 40
0.0
 40
0.2957417834
 40
1.0
 40
1.0
 40
1.0
 40
1.0
 10
-104.993897787
 20
-29.3408501143
 30
0.0
 10
-105.0372983427
 20
-29.4610542637
 30
0.0
 10
-105.1080438352
 20
-29.8931154132
 30
0.0
 10
-105.0644718356
 20
-30.3274429247
 30
0.0
 10
-105.0202000872
 20
-30.6285551388
 30
0.0
  0
SPLINE
  5
47F
100
AcDbEntity
  8
CURVE
100
AcDbSpline
 62
250
  6
CONTINUOUS
 70
0
 71
3
 72
17
 73
13
 74
0
 42
0.0000001
 43
0.0000001
 44
0.0000000001
 40
0.0
 40
0.0
 40
0.0
 40
0.0
 40
0.0559780952
 40
0.1687540387
 40
0.321006234
 40
0.4122750837
 40
0.516613223
 40
0.6013931059
 40
0.6776022439
 40
0.8103422694
 40
0.9200404832
 40
1.0
 40
1.0
 40
1.0
 40
1.0
 10
-103.7320805325
 20
-29.2870512436
 30
0.0
 10
-103.7357970416
 20
-29.2582307418
 30
0.0
 10
-103.7934584498
 20
-29.184972753
 30
0.0
 10
-103.9033771798
 20
-29.0634829078
 30
0.0
 10
-104.072579999
 20
-28.9740276278
 30
0.0
 10
-104.2490968383
 20
-28.9341773505
 30
0.0
 10
-104.3956021303
 20
-28.9304334968
 30
0.0
 10
-104.5324368845
 20
-28.9501640226
 30
0.0
 10
-104.6778344853
 20
-28.9979840427
 30
0.0
 10
-104.8203273039
 20
-29.0877998266
 30
0.0
 10
-104.9317604312
 20
-29.2146127248
 30
0.0
 10
-104.9798205183
 20
-29.301804483
 30
0.0
 10
-104.993897787
 20
-29.3408501143
 30
0.0
  0
SPLINE
  5
480
100
AcDbEntity
  8
CURVE
100
AcDbSpline
 62
250
  6
CONTINUOUS
 70
0
 71
3
 72
9
 73
5
 74
0
 42
0.0000001
 43
0.0000001
 44
0.0000000001
 40
0.0
 40
0.0
 40
0.0
 40
0.0
 40
0.2426586216
 40
1.0
 40
1.0
 40
1.0
 40
1.0
 10
-103.2273348969
 20
-28.9862836897
 30
0.0
 10
-103.2727316248
 20
-28.9986586641
 30
0.0
 10
-103.4560546752
 20
-29.0459291565
 30
0.0
 10
-103.6629274734
 20
-29.1505648409
 30
0.0
 10
-103.7173182729
 20
-29.2870512436
 30
0.0
  0
SPLINE
  5
481
100
AcDbEntity
  8
CURVE
100
AcDbSpline
 62
250
  6
CONTINUOUS
 70
0
 71
3
 72
9
 73
5
 74
0
 42
0.0000001
 43
0.0000001
 44
0.0000000001
 40
0.0
 40
0.0
 40
0.0
 40
0.0
 40
0.1980141723
 40
1.0
 40
1.0
 40
1.0
 40
1.0
 10
-102.5511746985
 20
-28.8079038802
 30
0.0
 10
-102.5957160139
 20
-28.8200085492
 30
0.0
 10
-102.8211616579
 20
-28.8792554798
 30
0.0
 10
-103.0469748954
 20
-28.9371156095
 30
0.0
 10
-103.2273348969
 20
-28.9862836897
 30
0.0
  0
SPLINE
  5
482
100
AcDbEntity
  8
CURVE
100
AcDbSpline
 62
250
  6
CONTINUOUS
 70
0
 71
3
 72
9
 73
5
 74
0
 42
0.0000001
 43
0.0000001
 44
0.0000000001
 40
0.0
 40
0.0
 40
0.0
 40
0.0
 40
0.5586214172
 40
1.0
 40
1.0
 40
1.0
 40
1.0
 10
-103.3087146631
 20
-29.5379751749
 30
0.0
 10
-103.1708095598
 20
-29.486134558
 30
0.0
 10
-102.9154482354
 20
-29.4179595379
 30
0.0
 10
-102.663040602
 20
-29.3419894791
 30
0.0
 10
-102.5511746985
 20
-29.3098079785
 30
0.0
  0
SPLINE
  5
483
100
AcDbEntity
  8
CURVE
100
AcDbSpline
 62
250
  6
CONTINUOUS
 70
0
 71
3
 72
9
 73
5
 74
0
 42
0.0000001
 43
0.0000001
 44
0.0000000001
 40
0.0
 40
0.0
 40
0.0
 40
0.0
 40
0.3559141631
 40
1.0
 40
1.0
 40
1.0
 40
1.0
 10
-103.5288371892
 20
-29.8290889245
 30
0.0
 10
-103.5288371892
 20
-29.7836184402
 30
0.0
 10
-103.5013201412
 20
-29.6528120506
 30
0.0
 10
-103.3857075956
 20
-29.5668873007
 30
0.0
 10
-103.3087146631
 20
-29.5379751749
 30
0.0
  0
SPLINE
  5
484
100
AcDbEntity
  8
0
100
AcDbSpline
 62
250
  6
CONTINUOUS
 70
0
 71
3
 72
17
 73
13
 74
0
 42
0.0000001
 43
0.0000001
 44
0.0000000001
 40
0.0
 40
0.0
 40
0.0
 40
0.0
 40
0.0041509426
 40
0.0165131528
 40
0.0370394731
 40
0.0656738303
 40
0.147033967
 40
0.259883893
 40
0.4031301725
 40
0.5755840393
 40
0.7753335906
 40
1.0
 40
1.0
 40
1.0
 40
1.0
 10
-97.9941697226
 20
-26.3415638603
 30
0.0
 10
-97.9940481451
 20
-26.341563153
 30
0.0
 10
-97.9942652655
 20
-26.3407901078
 30
0.0
 10
-97.994011523
 20
-26.3399838662
 30
0.0
 10
-97.9941187454
 20
-26.3380251079
 30
0.0
 10
-97.9940116224
 20
-26.3342971317
 30
0.0
 10
-97.9940496884
 20
-26.3277000543
 30
0.0
 10
-97.9940152493
 20
-26.3178494928
 30
0.0
 10
-97.9940366212
 20
-26.3052846155
 30
0.0
 10
-97.994061091
 20
-26.2901918491
 30
0.0
 10
-97.9941080439
 20
-26.2727082659
 30
0.0
 10
-97.9941472971
 20
-26.2602777389
 30
0.0
 10
-97.9941697226
 20
-26.2536973817
 30
0.0
  0
SPLINE
  5
485
100
AcDbEntity
  8
0
100
AcDbSpline
 62
250
  6
CONTINUOUS
 70
0
 71
3
 72
17
 73
13
 74
0
 42
0.0000001
 43
0.0000001
 44
0.0000000001
 40
0.0
 40
0.0
 40
0.0
 40
0.0
 40
0.2246664094
 40
0.4244159606
 40
0.5968698275
 40
0.740116107
 40
0.852966033
 40
0.9343261697
 40
0.9629605269
 40
0.9834868471
 40
0.9958490574
 40
1.0
 40
1.0
 40
1.0
 40
1.0
 10
-97.9941697226
 20
26.2536973817
 30
0.0
 10
-97.9941472971
 20
26.2602777389
 30
0.0
 10
-97.9941080439
 20
26.2727082659
 30
0.0
 10
-97.994061091
 20
26.2901918491
 30
0.0
 10
-97.9940366212
 20
26.3052846155
 30
0.0
 10
-97.9940152493
 20
26.3178494928
 30
0.0
 10
-97.9940496884
 20
26.3277000543
 30
0.0
 10
-97.9940116224
 20
26.3342971317
 30
0.0
 10
-97.9941187454
 20
26.3380251079
 30
0.0
 10
-97.994011523
 20
26.3399838662
 30
0.0
 10
-97.9942652655
 20
26.3407901078
 30
0.0
 10
-97.9940481451
 20
26.341563153
 30
0.0
 10
-97.9941697226
 20
26.3415638603
 30
0.0
  0
SPLINE
  5
486
100
AcDbEntity
  8
0
100
AcDbSpline
 62
250
  6
CONTINUOUS
 70
0
 71
3
 72
11
 73
7
 74
0
 42
0.0000001
 43
0.0000001
 44
0.0000000001
 40
0.0
 40
0.0
 40
0.0
 40
0.0
 40
0.2014202255
 40
0.426619486
 40
0.6906633363
 40
1.0
 40
1.0
 40
1.0
 40
1.0
 10
-97.8552577935
 20
-26.3065510847
 30
0.0
 10
-97.8615454651
 20
-26.3098886929
 30
0.0
 10
-97.8764818613
 20
-26.3141435322
 30
0.0
 10
-97.9011727611
 20
-26.3120196133
 30
0.0
 10
-97.9279339588
 20
-26.3023922165
 30
0.0
 10
-97.945487742
 20
-26.2920716595
 30
0.0
 10
-97.9545362226
 20
-26.2859359948
 30
0.0
  0
SPLINE
  5
487
100
AcDbEntity
  8
0
100
AcDbSpline
 62
250
  6
CONTINUOUS
 70
0
 71
3
 72
9
 73
5
 74
0
 42
0.0000001
 43
0.0000001
 44
0.0000000001
 40
0.0
 40
0.0
 40
0.0
 40
0.0
 40
0.2353640437
 40
1.0
 40
1.0
 40
1.0
 40
1.0
 10
-97.9545362226
 20
-26.2859359948
 30
0.0
 10
-97.9578557428
 20
-26.2836850685
 30
0.0
 10
-97.971725391
 20
-26.2737769942
 30
0.0
 10
-97.9847005593
 20
-26.2626478062
 30
0.0
 10
-97.9941697226
 20
-26.2536973817
 30
0.0
  0
SPLINE
  5
488
100
AcDbEntity
  8
0
100
AcDbSpline
 62
250
  6
CONTINUOUS
 70
0
 71
3
 72
11
 73
7
 74
0
 42
0.0000001
 43
0.0000001
 44
0.0000000001
 40
0.0
 40
0.0
 40
0.0
 40
0.0
 40
0.2014183949
 40
0.4266166996
 40
0.6906612792
 40
1.0
 40
1.0
 40
1.0
 40
1.0
 10
-97.8552577935
 20
26.3065510847
 30
0.0
 10
-97.8615456444
 20
26.3098887881
 30
0.0
 10
-97.8764825522
 20
26.3141436768
 30
0.0
 10
-97.9011742883
 20
26.3120193272
 30
0.0
 10
-97.9279363953
 20
26.3023911058
 30
0.0
 10
-97.9454907561
 20
26.2920698265
 30
0.0
 10
-97.9545395394
 20
26.2859337461
 30
0.0
  0
SPLINE
  5
489
100
AcDbEntity
  8
0
100
AcDbSpline
 62
250
  6
CONTINUOUS
 70
0
 71
3
 72
9
 73
5
 74
0
 42
0.0000001
 43
0.0000001
 44
0.0000000001
 40
0.0
 40
0.0
 40
0.0
 40
0.0
 40
0.2353655658
 40
1.0
 40
1.0
 40
1.0
 40
1.0
 10
-97.9545395394
 20
26.2859337461
 30
0.0
 10
-97.9578587855
 20
26.2836829285
 30
0.0
 10
-97.9717272176
 20
26.2737754487
 30
0.0
 10
-97.9847013192
 20
26.2626470879
 30
0.0
 10
-97.9941697226
 20
26.2536973817
 30
0.0
  0
SPLINE
  5
48A
100
AcDbEntity
  8
0
100
AcDbSpline
 62
250
  6
CONTINUOUS
 70
0
 71
3
 72
9
 73
5
 74
0
 42
0.0000001
 43
0.0000001
 44
0.0000000001
 40
0.0
 40
0.0
 40
0.0
 40
0.0
 40
0.559214469
 40
1.0
 40
1.0
 40
1.0
 40
1.0
 10
-99.518446371
 20
-26.9276792439
 30
0.0
 10
-99.502255043
 20
-26.9561475291
 30
0.0
 10
-99.4721699669
 20
-27.0064029427
 30
0.0
 10
-99.4393994918
 20
-27.0550509448
 30
0.0
 10
-99.423611812
 20
-27.0754752358
 30
0.0
  0
SPLINE
  5
48B
100
AcDbEntity
  8
0
100
AcDbSpline
 62
250
  6
CONTINUOUS
 70
0
 71
3
 72
10
 73
6
 74
0
 42
0.0000001
 43
0.0000001
 44
0.0000000001
 40
0.0
 40
0.0
 40
0.0
 40
0.0
 40
0.6950016215
 40
0.8908811261
 40
1.0
 40
1.0
 40
1.0
 40
1.0
 10
-99.423611812
 20
-27.0754752358
 30
0.0
 10
-99.4148457263
 20
-27.086815793
 30
0.0
 10
-99.4028071693
 20
-27.1012198685
 30
0.0
 10
-99.3873432439
 20
-27.1142344305
 30
0.0
 10
-99.3803026073
 20
-27.1160669323
 30
0.0
 10
-99.3783127211
 20
-27.1150157961
 30
0.0
  0
SPLINE
  5
48C
100
AcDbEntity
  8
0
100
AcDbSpline
 62
250
  6
CONTINUOUS
 70
0
 71
3
 72
13
 73
9
 74
0
 42
0.0000001
 43
0.0000001
 44
0.0000000001
 40
0.0
 40
0.0
 40
0.0
 40
0.0
 40
0.3880505431
 40
0.7024996488
 40
0.8213626305
 40
0.9105313907
 40
0.9687616583
 40
1.0
 40
1.0
 40
1.0
 40
1.0
 10
-99.518446371
 20
26.9276792439
 30
0.0
 10
-99.5032498542
 20
26.9543865333
 30
0.0
 10
-99.4747396203
 20
27.0021431798
 30
0.0
 10
-99.4385280117
 20
27.0563326343
 30
0.0
 10
-99.4132403317
 20
27.0889705477
 30
0.0
 10
-99.3986090112
 20
27.1045077282
 30
0.0
 10
-99.3884198432
 20
27.1136621549
 30
0.0
 10
-99.3804955012
 20
27.1161795474
 30
0.0
 10
-99.3783127211
 20
27.1150157961
 30
0.0
  0
SPLINE
  5
48D
100
AcDbEntity
  8
0
100
AcDbSpline
 62
7
  6
CONTINUOUS
 70
0
 71
3
 72
9
 73
5
 74
0
 42
0.0000001
 43
0.0000001
 44
0.0000000001
 40
0.0
 40
0.0
 40
0.0
 40
0.0
 40
0.4298638959
 40
1.0
 40
1.0
 40
1.0
 40
1.0
 10
-97.4442189548
 20
26.0463167932
 30
0.0
 10
-97.4442189548
 20
26.0354717441
 30
0.0
 10
-97.4521283744
 20
26.0106368792
 30
0.0
 10
-97.4647284579
 20
25.9889263869
 30
0.0
 10
-97.4720778698
 20
25.9765617175
 30
0.0
  0
SPLINE
  5
48E
100
AcDbEntity
  8
0
100
AcDbSpline
 62
7
  6
CONTINUOUS
 70
0
 71
3
 72
9
 73
5
 74
0
 42
0.0000001
 43
0.0000001
 44
0.0000000001
 40
0.0
 40
0.0
 40
0.0
 40
0.0
 40
0.5701360159
 40
1.0
 40
1.0
 40
1.0
 40
1.0
 10
-97.4720778698
 20
-25.9765617175
 30
0.0
 10
-97.4647284591
 20
-25.988926385
 30
0.0
 10
-97.4521283761
 20
-26.0106368773
 30
0.0
 10
-97.4442189548
 20
-26.0354717419
 30
0.0
 10
-97.4442189548
 20
-26.0463167932
 30
0.0
  0
ELLIPSE
  5
48F
100
AcDbEntity
  8
0
100
AcDbEllipse
 62
7
  6
CONTINUOUS
 10
-44.598779051
 20
-22.098779051
 30
0.0
 11
-0.3552779753
 21
-0.3552779753
 31
0.0
 40
0.9951458158
 41
-0.782965171
 42
0.782965171
  0
ELLIPSE
  5
490
100
AcDbEntity
  8
0
100
AcDbEllipse
 62
7
  6
CONTINUOUS
 10
44.598779051
 20
-22.098779051
 30
0.0
 11
0.3552779753
 21
-0.3552779753
 31
0.0
 40
0.9951458158
 41
-0.782965171
 42
0.782965171
  0
ELLIPSE
  5
491
100
AcDbEntity
  8
0
100
AcDbEllipse
 62
7
  6
CONTINUOUS
 10
44.598779051
 20
22.098779051
 30
0.0
 11
0.3552779753
 21
0.3552779753
 31
0.0
 40
0.9951458158
 41
-0.782965171
 42
0.782965171
  0
ELLIPSE
  5
492
100
AcDbEntity
  8
0
100
AcDbEllipse
 62
7
  6
CONTINUOUS
 10
-44.598779051
 20
22.098779051
 30
0.0
 11
-0.3552779753
 21
0.3552779753
 31
0.0
 40
0.9951458158
 41
-0.782965171
 42
0.782965171
  0
ELLIPSE
  5
493
100
AcDbEntity
  8
ASSI
100
AcDbEllipse
 62
7
  6
CONTINUOUS
 10
-44.598779051
 20
-22.098779051
 30
0.0
 11
-0.3552779753
 21
-0.3552779753
 31
0.0
 40
0.9951458158
 41
-0.782965171
 42
0.782965171
  0
ELLIPSE
  5
494
100
AcDbEntity
  8
ASSI
100
AcDbEllipse
 62
7
  6
CONTINUOUS
 10
44.598779051
 20
-22.098779051
 30
0.0
 11
0.3552779753
 21
-0.3552779753
 31
0.0
 40
0.9951458158
 41
-0.782965171
 42
0.782965171
  0
ELLIPSE
  5
495
100
AcDbEntity
  8
ASSI
100
AcDbEllipse
 62
7
  6
CONTINUOUS
 10
44.598779051
 20
22.098779051
 30
0.0
 11
0.3552779753
 21
0.3552779753
 31
0.0
 40
0.9951458158
 41
-0.782965171
 42
0.782965171
  0
ELLIPSE
  5
496
100
AcDbEntity
  8
ASSI
100
AcDbEllipse
 62
7
  6
CONTINUOUS
 10
-44.598779051
 20
22.098779051
 30
0.0
 11
-0.3552779753
 21
0.3552779753
 31
0.0
 40
0.9951458158
 41
-0.782965171
 42
0.782965171
  0
ELLIPSE
  5
497
100
AcDbEntity
  8
0
100
AcDbEllipse
 62
7
  6
CONTINUOUS
 10
-97.6442189548
 20
-26.079798695
 30
0.0
 11
0.1417119467
 21
0.1422961243
 31
0.0
 40
0.9918061237
 41
-0.2491986107
 42
0.7350951877
  0
ELLIPSE
  5
498
100
AcDbEntity
  8
0
100
AcDbEllipse
 62
7
  6
CONTINUOUS
 10
-97.6442189548
 20
26.079798695
 30
0.0
 11
-0.1417119467
 21
0.1422961243
 31
0.0
 40
0.9918061237
 41
-3.8766878413
 42
-2.8923940429
  0
ENDSEC
  0
SECTION
  2
OBJECTS
  0
DICTIONARY
  5
C
100
AcDbDictionary
280
0
281
1
  3
ACAD_GROUP
350
D
  3
ACAD_MLINESTYLE
350
17
  3
ACAD_LAYOUT
350
1A
  3
ACAD_PLOTSETTINGS
350
19
  3
ACAD_PLOTSTYLENAME
350
E
  0
DICTIONARY
  5
D
102
{ACAD_REACTORS
330
C
102
}
100
AcDbDictionary
280
0
281
1
  0
ACDBDICTIONARYWDFLT
  5
E
102
{ACAD_REACTORS
330
C
102
}
100
AcDbDictionary
281
1
  3
Normal
350
F
100
AcDbDictionaryWithDefault
340
F
  0
DICTIONARY
  5
17
102
{ACAD_REACTORS
330
C
102
}
100
AcDbDictionary
280
0
281
1
  3
Standard
350
18
  0
DICTIONARY
  5
19
102
{ACAD_REACTORS
330
C
102
}
100
AcDbDictionary
281
1
  0
DICTIONARY
  5
1A
102
{ACAD_REACTORS
330
C
102
}
100
AcDbDictionary
281
1
  3
Model
350
499
  3
Layout1
350
49A
  0
ACDBPLACEHOLDER
  5
F
102
{ACAD_REACTORS
330
E
102
}
  0
MLINESTYLE
  5
18
102
{ACAD_REACTORS
330
17
102
}
100
AcDbMlineStyle
  2
STANDARD
 70
0
  3

 62
256
 51
90.0
 52
90.0
 71
2
 49
0.5
 62
256
  6
BYLAYER
 49
-0.5
 62
256
  6
BYLAYER
  0
LAYOUT
  5
499
102
{ACAD_REACTORS
330
1A
102
}
100
AcDbPlotSettings
  1

  2
none_device
  4
ISO_A4_(297.00_x_210.00_MM)
  6

 40
0.0
 41
0.0
 42
0.0
 43
0.0
 44
297.0
 45
210.0
 46
0.0
 47
0.0
 48
0.0
 49
0.0
140
0.0
141
0.0
142
1.0
143
1.0
 70
1024
 72
1
 73
0
 74
0
  7

 75
0
147
1.0
148
0.0
149
0.0
100
AcDbLayout
  1
Model
 70
0
 71
0
 10
0.0
 20
0.0
 11
297.0
 21
210.0
 12
0.0
 22
0.0
 32
0.0
 14
0.0
 24
0.0
 34
0.0
 15
0.0
 25
0.0
 35
0.0
146
0.0
 13
0.0
 23
0.0
 33
0.0
 16
1.0
 26
0.0
 36
0.0
 17
0.0
 27
1.0
 37
0.0
 76
0
330
21B
345
0
346
0
  0
LAYOUT
  5
49A
102
{ACAD_REACTORS
330
1A
102
}
100
AcDbPlotSettings
  1

  2
none_device
  4
ISO_A4_(297.00_x_210.00_MM)
  6

 40
0.0
 41
0.0
 42
0.0
 43
0.0
 44
297.0
 45
210.0
 46
0.0
 47
0.0
 48
0.0
 49
0.0
140
0.0
141
0.0
142
1.0
143
1.0
 70
0
 72
1
 73
0
 74
0
  7

 75
0
147
1.0
148
0.0
149
0.0
100
AcDbLayout
  1
Layout1
 70
0
 71
1
 10
0.0
 20
0.0
 11
297.0
 21
210.0
 12
0.0
 22
0.0
 32
0.0
 14
0.0
 24
0.0
 34
0.0
 15
0.0
 25
0.0
 35
0.0
146
0.0
 13
0.0
 23
0.0
 33
0.0
 16
1.0
 26
0.0
 36
0.0
 17
0.0
 27
1.0
 37
0.0
 76
0
330
21C
345
0
346
0
  0
ENDSEC
  0
EOF
