  0
SECTION
  2
HEADER
  9
$ACADVER
  1
AC1024
  9
$DWGCODEPAGE
  3
ANSI_1252
  9
$EXTMAX
 10
297.0
 20
210.0
 30
0.0
  9
$EXTMIN
 10
0.0
 20
0.0
 30
0.0
  9
$LIMMIN
 10
0.0
 20
0.0
  9
$LIMMAX
 10
297.0
 20
210.0
  9
$VIEWCTR
 10
148.5
 20
105.0
  9
$VIEWSIZE
 40
210.0
  9
$CLAYER
  8
0
  9
$LTSCALE
 40
16.335
  9
$CELTYPE
  6
BYLAYER
  9
$DIMSCALE
 40
1.0
  9
$DIMASZ
 40
3.0
  9
$DIMEXO
 40
0.5
  9
$DIMDLI
 40
11.286
  9
$DIMEXE
 40
1.5
  9
$DIMCEN
 40
2.673
  9
$DIMLFAC
 40
1.0
  9
$DIMBLK
  1
_FILLED
  9
$DIMALT
 70
0
  9
$DIMALTF
 40
0.0393700787
  9
$DIMTXT
 40
3.0
  9
$DIMTOL
 70
1
  9
$DIMLIM
 70
0
  9
$DIMTFAC
 40
1.0
  9
$DIMTP
 40
0.01
  9
$DIMTM
 40
0.01
  9
$DIMGAP
 40
0.625
  9
$DIMDSEP
 70
44
  9
$AUNITS
 70
0
  9
$PDMODE
 70
3
  9
$PDSIZE
 40
3.0
  9
$HANDSEED
  5
37A
  9
$TILEMODE
 70
1
  9
$MEASUREMENT
 70
1
  9
$INSUNITS
 70
4
  0
ENDSEC
  0
SECTION
  2
CLASSES
  0
CLASS
  1
ACDBDICTIONARYWDFLT
  2
AcDbDictionaryWithDefault
  3
AutoCAD 2000
 90
0
 91
1
280
0
281
0
  0
CLASS
  1
ACDBPLACEHOLDER
  2
AcDbPlaceHolder
  3
AutoCAD 2000
 90
0
 91
1
280
0
281
0
  0
CLASS
  1
LAYOUT
  2
AcDbLayout
  3
AutoCAD 2000
 90
0
 91
0
280
0
281
0
  0
ENDSEC
  0
SECTION
  2
TABLES
  0
TABLE
  2
VPORT
  5
8
100
AcDbSymbolTable
 70
2
  0
VPORT
  5
1F4
100
AcDbSymbolTableRecord
100
AcDbViewportTableRecord
  2
*ACTIVE
 70
0
 10
0.0
 20
0.0
 11
1.0
 21
1.0
 12
148.5
 22
105.0
 13
0.0
 23
0.0
 14
1.0
 24
1.0
 15
0.0
 25
0.0
 16
0.0
 26
0.0
 36
1.0
 17
0.0
 27
0.0
 37
0.0
 40
210.0
 41
1.4142857143
 42
50.0
 43
0.0
 44
0.0
 50
0.0
 51
0.0
 71
0
 72
100
 73
1
 74
1
 75
0
 76
0
 77
0
 78
0
  0
ENDTAB
  0
TABLE
  2
LTYPE
  5
5
100
AcDbSymbolTable
 70
6
  0
LTYPE
  5
14
100
AcDbSymbolTableRecord
100
AcDbLinetypeTableRecord
  2
BYBLOCK
 70
0
  3

 72
65
 73
0
 40
0.0
  0
LTYPE
  5
15
100
AcDbSymbolTableRecord
100
AcDbLinetypeTableRecord
  2
BYLAYER
 70
0
  3

 72
65
 73
0
 40
0.0
  0
LTYPE
  5
16
100
AcDbSymbolTableRecord
100
AcDbLinetypeTableRecord
  2
CONTINUOUS
 70
64
  3
Solid line
 72
65
 73
0
 40
0.0
  0
LTYPE
  5
1F5
100
AcDbSymbolTableRecord
100
AcDbLinetypeTableRecord
  2
CENTER
 70
64
  3
____ _ ____ _ ____ _ ____ _ ____ _ ____ _ ____
 72
65
 73
4
 40
0.6
 49
0.375
 74
0
 49
-0.075
 74
0
 49
0.075
 74
0
 49
-0.075
 74
0
  0
LTYPE
  5
1F6
100
AcDbSymbolTableRecord
100
AcDbLinetypeTableRecord
  2
HIDDEN
 70
64
  3
- - - - - - - - - - - - - - - - - - - -
 72
65
 73
2
 40
0.2
 49
0.1
 74
0
 49
-0.1
 74
0
  0
LTYPE
  5
1F7
100
AcDbSymbolTableRecord
100
AcDbLinetypeTableRecord
  2
PHANTOM
 70
64
  3
_____ _ _ _____ _ _ _____ _ _ _____
 72
65
 73
6
 40
0.8
 49
0.45
 74
0
 49
-0.05
 74
0
 49
0.1
 74
0
 49
-0.05
 74
0
 49
0.1
 74
0
 49
-0.05
 74
0
  0
LTYPE
  5
1F8
100
AcDbSymbolTableRecord
100
AcDbLinetypeTableRecord
  2
DOT
 70
64
  3
. . . . . . . . . . . . . . . . . . . .
 72
65
 73
2
 40
0.2
 49
0.1
 74
0
 49
-0.1
 74
0
  0
LTYPE
  5
1F9
100
AcDbSymbolTableRecord
100
AcDbLinetypeTableRecord
  2
DASHED
 70
64
  3
- - - - - - - - - - - - - - - - - - - -
 72
65
 73
2
 40
0.2
 49
0.1
 74
0
 49
-0.1
 74
0
  0
ENDTAB
  0
TABLE
  2
LAYER
  5
2
100
AcDbSymbolTable
 70
36
  0
LAYER
  5
10
100
AcDbSymbolTableRecord
100
AcDbLayerTableRecord
  2
0
 70
0
 62
7
  6
CONTINUOUS
370
-3
390
F
  0
LAYER
  5
1FA
100
AcDbSymbolTableRecord
100
AcDbLayerTableRecord
  2
DEFAULT_1
 70
0
 62
7
  6
CENTER
370
-3
390
F
  0
LAYER
  5
1FB
100
AcDbSymbolTableRecord
100
AcDbLayerTableRecord
  2
DEFAULT_2
 70
0
 62
7
  6
HIDDEN
370
-3
390
F
  0
LAYER
  5
1FC
100
AcDbSymbolTableRecord
100
AcDbLayerTableRecord
  2
DEFAULT_3
 70
0
 62
7
  6
PHANTOM
370
-3
390
F
  0
LAYER
  5
1FD
100
AcDbSymbolTableRecord
100
AcDbLayerTableRecord
  2
ASSI
 70
0
 62
7
  6
CONTINUOUS
370
-3
390
F
  0
LAYER
  5
1FE
100
AcDbSymbolTableRecord
100
AcDbLayerTableRecord
  2
COORDINATE
 70
0
 62
7
  6
CONTINUOUS
370
-3
390
F
  0
LAYER
  5
1FF
100
AcDbSymbolTableRecord
100
AcDbLayerTableRecord
  2
COORD_ORIGINE
 70
0
 62
7
  6
CONTINUOUS
370
-3
390
F
  0
LAYER
  5
200
100
AcDbSymbolTableRecord
100
AcDbLayerTableRecord
  2
COPY_PUBLISH
 70
0
 62
7
  6
CONTINUOUS
370
-3
390
F
  0
LAYER
  5
201
100
AcDbSymbolTableRecord
100
AcDbLayerTableRecord
  2
COSMETIC
 70
0
 62
7
  6
CONTINUOUS
370
-3
390
F
  0
LAYER
  5
202
100
AcDbSymbolTableRecord
100
AcDbLayerTableRecord
  2
COSMETICI
 70
0
 62
7
  6
CONTINUOUS
370
-3
390
F
  0
LAYER
  5
203
100
AcDbSymbolTableRecord
100
AcDbLayerTableRecord
  2
CURVA_TASSELLO
 70
0
 62
7
  6
CONTINUOUS
370
-3
390
F
  0
LAYER
  5
204
100
AcDbSymbolTableRecord
100
AcDbLayerTableRecord
  2
CURVE
 70
0
 62
7
  6
CONTINUOUS
370
-3
390
F
  0
LAYER
  5
205
100
AcDbSymbolTableRecord
100
AcDbLayerTableRecord
  2
DRAFT
 70
0
 62
7
  6
CONTINUOUS
370
-3
390
F
  0
LAYER
  5
206
100
AcDbSymbolTableRecord
100
AcDbLayerTableRecord
  2
IMPORT_IGES
 70
0
 62
7
  6
CONTINUOUS
370
-3
390
F
  0
LAYER
  5
207
100
AcDbSymbolTableRecord
100
AcDbLayerTableRecord
  2
INTFCLR_2
 70
0
 62
7
  6
CONTINUOUS
370
-3
390
F
  0
LAYER
  5
208
100
AcDbSymbolTableRecord
100
AcDbLayerTableRecord
  2
INTF_1
 70
0
 62
7
  6
CONTINUOUS
370
-3
390
F
  0
LAYER
  5
209
100
AcDbSymbolTableRecord
100
AcDbLayerTableRecord
  2
INTF_7
 70
0
 62
7
  6
CONTINUOUS
370
-3
390
F
  0
LAYER
  5
20A
100
AcDbSymbolTableRecord
100
AcDbLayerTableRecord
  2
LINEA_CHIUSURA
 70
0
 62
7
  6
CONTINUOUS
370
-3
390
F
  0
LAYER
  5
20B
100
AcDbSymbolTableRecord
100
AcDbLayerTableRecord
  2
NOTE
 70
0
 62
7
  6
CONTINUOUS
370
-3
390
F
  0
LAYER
  5
20C
100
AcDbSymbolTableRecord
100
AcDbLayerTableRecord
  2
PIANI
 70
0
 62
7
  6
CONTINUOUS
370
-3
390
F
  0
LAYER
  5
20D
100
AcDbSymbolTableRecord
100
AcDbLayerTableRecord
  2
PIANI_ORIGINE
 70
0
 62
7
  6
CONTINUOUS
370
-3
390
F
  0
LAYER
  5
20E
100
AcDbSymbolTableRecord
100
AcDbLayerTableRecord
  2
PIANI_RIFERIMENTO
 70
0
 62
7
  6
CONTINUOUS
370
-3
390
F
  0
LAYER
  5
20F
100
AcDbSymbolTableRecord
100
AcDbLayerTableRecord
  2
PUNTI
 70
0
 62
7
  6
CONTINUOUS
370
-3
390
F
  0
LAYER
  5
210
100
AcDbSymbolTableRecord
100
AcDbLayerTableRecord
  2
RACCORDO
 70
0
 62
7
  6
CONTINUOUS
370
-3
390
F
  0
LAYER
  5
211
100
AcDbSymbolTableRecord
100
AcDbLayerTableRecord
  2
RGB__255__255__255__
 70
0
 62
7
  6
CONTINUOUS
370
-3
390
F
  0
LAYER
  5
212
100
AcDbSymbolTableRecord
100
AcDbLayerTableRecord
  2
RGB____0____0____0__
 70
0
 62
7
  6
CONTINUOUS
370
-3
390
F
  0
LAYER
  5
213
100
AcDbSymbolTableRecord
100
AcDbLayerTableRecord
  2
SIMBOLI
 70
0
 62
7
  6
CONTINUOUS
370
-3
390
F
  0
LAYER
  5
214
100
AcDbSymbolTableRecord
100
AcDbLayerTableRecord
  2
SMUSSO
 70
0
 62
7
  6
CONTINUOUS
370
-3
390
F
  0
LAYER
  5
215
100
AcDbSymbolTableRecord
100
AcDbLayerTableRecord
  2
SNAPLINE
 70
0
 62
7
  6
CONTINUOUS
370
-3
390
F
  0
LAYER
  5
216
100
AcDbSymbolTableRecord
100
AcDbLayerTableRecord
  2
SUPERFICI
 70
0
 62
7
  6
CONTINUOUS
370
-3
390
F
  0
LAYER
  5
217
100
AcDbSymbolTableRecord
100
AcDbLayerTableRecord
  2
TRASH
 70
0
 62
7
  6
CONTINUOUS
370
-3
390
F
  0
LAYER
  5
218
100
AcDbSymbolTableRecord
100
AcDbLayerTableRecord
  2
WHITE
 70
0
 62
7
  6
CONTINUOUS
370
-3
390
F
  0
LAYER
  5
219
100
AcDbSymbolTableRecord
100
AcDbLayerTableRecord
  2
XSEC_DATUMS
 70
0
 62
7
  6
CONTINUOUS
370
-3
390
F
  0
ENDTAB
  0
TABLE
  2
STYLE
  5
3
100
AcDbSymbolTable
 70
1
  0
STYLE
  5
11
100
AcDbSymbolTableRecord
100
AcDbTextStyleTableRecord
  2
STANDARD
 70
0
 40
0.0
 41
0.8
 50
0.0
 71
0
 42
0.2
  3
txt
  4

  0
STYLE
  5
21A
100
AcDbSymbolTableRecord
100
AcDbTextStyleTableRecord
  2
TEXTSTYLE_1
 70
0
 40
0.0
 41
0.8
 50
0.0
 71
0
 42
0.2
  3
gdt
  4

  0
ENDTAB
  0
TABLE
  2
VIEW
  5
6
100
AcDbSymbolTable
 70
0
  0
ENDTAB
  0
TABLE
  2
UCS
  5
7
100
AcDbSymbolTable
 70
0
  0
ENDTAB
  0
TABLE
  2
APPID
  5
9
100
AcDbSymbolTable
 70
1
  0
APPID
  5
21B
100
AcDbSymbolTableRecord
100
AcDbRegAppTableRecord
  2
ACAD
 70
0
  0
ENDTAB
  0
TABLE
  2
BLOCK_RECORD
  5
1
100
AcDbSymbolTable
 70
0
  0
BLOCK_RECORD
  5
21C
100
AcDbSymbolTableRecord
100
AcDbBlockTableRecord
  2
*Model_Space
  0
BLOCK_RECORD
  5
21D
100
AcDbSymbolTableRecord
100
AcDbBlockTableRecord
  2
*Paper_Space
  0
BLOCK_RECORD
  5
21E
100
AcDbSymbolTableRecord
100
AcDbBlockTableRecord
  2
_FILLED
  0
BLOCK_RECORD
  5
21F
100
AcDbSymbolTableRecord
100
AcDbBlockTableRecord
  2
*D0
  0
BLOCK_RECORD
  5
220
100
AcDbSymbolTableRecord
100
AcDbBlockTableRecord
  2
*D1
  0
BLOCK_RECORD
  5
221
100
AcDbSymbolTableRecord
100
AcDbBlockTableRecord
  2
*D2
  0
BLOCK_RECORD
  5
222
100
AcDbSymbolTableRecord
100
AcDbBlockTableRecord
  2
*D3
  0
ENDTAB
  0
TABLE
  2
DIMSTYLE
  5
A
100
AcDbSymbolTable
 70
1
100
AcDbDimStyleTable
 71
0
  0
DIMSTYLE
105
223
100
AcDbSymbolTableRecord
100
AcDbDimStyleTableRecord
  2
STANDARD
 70
0
  3

  4

 40
1.0
 41
3.0
 42
0.5
 43
0.38
 44
1.5
 45
0.0
 46
0.0
 47
0.01
 48
0.01
140
3.0
141
0.09
142
0.0
143
25.4
144
1.0
145
0.0
146
1.0
147
0.625
 71
1
 72
0
 73
0
 74
0
 75
0
 76
0
 77
1
 78
8
 79
2
170
0
171
1
172
0
173
0
174
0
175
0
176
0
177
0
178
0
270
2
179
2
271
2
272
2
273
2
274
2
275
0
280
0
281
0
282
0
283
1
284
8
285
0
286
0
287
3
288
0
340
11
278
44
341
21E
342
21E
343
21E
344
21E
  0
DIMSTYLE
105
224
100
AcDbSymbolTableRecord
100
AcDbDimStyleTableRecord
  2
DIMSTYLE_1
 70
0
  3

  4

 40
1.0
 41
3.0
 42
0.5
 43
0.38
 44
1.5
 45
0.0
 46
0.0
 47
0.0
 48
0.0
140
3.0
141
0.09
142
0.0
143
25.4
144
1.0
145
0.0
146
1.0
147
0.75
 71
0
 72
0
 73
0
 74
0
 75
0
 76
0
 77
1
 78
8
 79
2
170
0
171
1
172
0
173
0
174
0
175
0
176
0
177
0
178
0
270
2
179
2
271
2
272
2
273
2
274
2
275
0
280
0
281
0
282
0
283
1
284
8
285
0
286
0
287
3
288
0
340
11
278
44
341
21E
342
21E
343
21E
344
21E
  0
ENDTAB
  0
ENDSEC
  0
SECTION
  2
BLOCKS
  0
BLOCK
  5
20
100
AcDbEntity
  8
0
100
AcDbBlockBegin
  2
*Model_Space
 70
0
 10
0.0
 20
0.0
 30
0.0
  3
*Model_Space
  1

  0
ENDBLK
  5
21
100
AcDbEntity
  8
0
100
AcDbBlockEnd
  0
BLOCK
  5
1C
100
AcDbEntity
  8
0
100
AcDbBlockBegin
  2
*Paper_Space
 70
0
 10
0.0
 20
0.0
 30
0.0
  3
*Paper_Space
  1

  0
ENDBLK
  5
1D
100
AcDbEntity
  8
0
100
AcDbBlockEnd
  0
BLOCK
  5
225
100
AcDbEntity
  8
0
100
AcDbBlockBegin
  2
_FILLED
 70
64
 10
0.0
 20
0.0
  3
_FILLED
  1

  0
SOLID
  5
226
100
AcDbEntity
  8
0
  6
BYBLOCK
 62
0
100
AcDbTrace
 10
0.0
 20
0.0
 11
-1.0
 21
0.3166666667
 12
-1.0
 22
-0.3166666667
 13
-1.0
 23
-0.3166666667
  0
ENDBLK
  5
227
100
AcDbEntity
  8
0
  6
BYBLOCK
 62
0
100
AcDbBlockEnd
  0
BLOCK
  5
228
100
AcDbEntity
  8
0
100
AcDbBlockBegin
 62
7
  6
CONTINUOUS
  2
*D0
 70
65
 10
0.0
 20
0.0
  3
*D0
  1

  0
MTEXT
  5
229
100
AcDbEntity
  8
0
100
AcDbMText
 62
7
  6
CONTINUOUS
  7
STANDARD
 71
2
 72
1
 10
76.525
 20
0.0
 30
0.0
 11
0.0
 21
1.0
 31
0.0
 73
2
 44
0.9
  1
{\ftxt;\W0.0001;\H0.0001;\~}{\ftxt;\W1.5714285714;\H3.0; }{\ftxt;\W0.0001;\H0.0001;\~}
 40
3.0
 41
7.0714285714
  0
LINE
  5
22A
100
AcDbEntity
  8
0
100
AcDbLine
 62
7
  6
CONTINUOUS
 10
71.725
 20
45.0
 11
81.775
 21
45.0
  0
LINE
  5
22B
100
AcDbEntity
  8
0
100
AcDbLine
 62
7
  6
CONTINUOUS
 10
71.725
 20
-45.0
 11
81.775
 21
-45.0
  0
LINE
  5
22C
100
AcDbEntity
  8
0
100
AcDbLine
 62
7
  6
CONTINUOUS
 10
80.275
 20
45.0
 11
80.275
 21
0.0
  0
LINE
  5
22D
100
AcDbEntity
  8
0
100
AcDbLine
 62
7
  6
CONTINUOUS
 10
80.275
 20
-45.0
 11
80.275
 21
0.0
  0
INSERT
  5
22E
100
AcDbEntity
  8
0
100
AcDbBlockReference
 62
7
  6
CONTINUOUS
  2
_FILLED
 10
80.275
 20
45.0
 41
3.0
 42
3.0
 43
3.0
 50
90.0
  0
INSERT
  5
22F
100
AcDbEntity
  8
0
100
AcDbBlockReference
 62
7
  6
CONTINUOUS
  2
_FILLED
 10
80.275
 20
-45.0
 41
3.0
 42
3.0
 43
3.0
 50
270.0
  0
ENDBLK
  5
230
100
AcDbEntity
  8
0
  6
BYBLOCK
 62
0
100
AcDbBlockEnd
  0
BLOCK
  5
231
100
AcDbEntity
  8
0
100
AcDbBlockBegin
 62
7
  6
CONTINUOUS
  2
*D1
 70
65
 10
0.0
 20
0.0
  3
*D1
  1

  0
MTEXT
  5
232
100
AcDbEntity
  8
0
100
AcDbMText
 62
7
  6
CONTINUOUS
  7
STANDARD
 71
2
 72
1
 10
-0.025
 20
56.75
 30
0.0
 11
1.0
 21
0.0
 31
0.0
 73
2
 44
0.9
  1
{\ftxt;\W0.0001;\H0.0001;\~}{\ftxt;\W3.4285714286;\H3.0; }{\ftxt;\W0.0001;\H0.0001;\~}
 40
3.0
 41
15.4285714286
  0
LINE
  5
233
100
AcDbEntity
  8
0
100
AcDbLine
 62
7
  6
CONTINUOUS
 10
72.225
 20
44.5
 11
72.225
 21
54.5
  0
LINE
  5
234
100
AcDbEntity
  8
0
100
AcDbLine
 62
7
  6
CONTINUOUS
 10
-72.275
 20
44.5
 11
-72.275
 21
54.5
  0
LINE
  5
235
100
AcDbEntity
  8
0
100
AcDbLine
 62
7
  6
CONTINUOUS
 10
72.225
 20
53.0
 11
-0.025
 21
53.0
  0
LINE
  5
236
100
AcDbEntity
  8
0
100
AcDbLine
 62
7
  6
CONTINUOUS
 10
-72.275
 20
53.0
 11
-0.025
 21
53.0
  0
INSERT
  5
237
100
AcDbEntity
  8
0
100
AcDbBlockReference
 62
7
  6
CONTINUOUS
  2
_FILLED
 10
72.225
 20
53.0
 41
3.0
 42
3.0
 43
3.0
  0
INSERT
  5
238
100
AcDbEntity
  8
0
100
AcDbBlockReference
 62
7
  6
CONTINUOUS
  2
_FILLED
 10
-72.275
 20
53.0
 41
3.0
 42
3.0
 43
3.0
 50
180.0
  0
ENDBLK
  5
239
100
AcDbEntity
  8
0
  6
BYBLOCK
 62
0
100
AcDbBlockEnd
  0
BLOCK
  5
23A
100
AcDbEntity
  8
0
100
AcDbBlockBegin
 62
7
  6
CONTINUOUS
  2
*D2
 70
65
 10
0.0
 20
0.0
  3
*D2
  1

  0
MTEXT
  5
23B
100
AcDbEntity
  8
0
100
AcDbMText
 62
7
  6
CONTINUOUS
  7
STANDARD
 71
3
 72
1
 10
-104.7943145045
 20
56.75
 30
0.0
 11
1.0
 21
0.0
 31
0.0
 73
2
 44
0.9
  1
{\ftxt;\W0.0001;\H0.0001;\~}{\ftxt;\W2.7857142857;\H3.0; }{\ftxt;\W0.0001;\H0.0001;\~}
 40
3.0
 41
12.5357142857
  0
LINE
  5
23C
100
AcDbEntity
  8
0
100
AcDbLine
 62
7
  6
CONTINUOUS
 10
-95.4193114597
 20
43.5384032275
 11
-95.4193114597
 21
54.5
  0
LINE
  5
23D
100
AcDbEntity
  8
0
100
AcDbLine
 62
7
  6
CONTINUOUS
 10
-103.9693114597
 20
44.5
 11
-103.9693114597
 21
54.5
  0
LINE
  5
23E
100
AcDbEntity
  8
0
100
AcDbLine
 62
7
  6
CONTINUOUS
 10
-95.4193114597
 20
53.0
 11
-99.6943114597
 21
53.0
  0
LINE
  5
23F
100
AcDbEntity
  8
0
100
AcDbLine
 62
7
  6
CONTINUOUS
 10
-103.9693114597
 20
53.0
 11
-99.6943114597
 21
53.0
  0
LINE
  5
240
100
AcDbEntity
  8
0
100
AcDbLine
 62
7
  6
CONTINUOUS
 10
-99.6943114597
 20
53.0
 11
-113.1514573617
 21
53.0
  0
INSERT
  5
241
100
AcDbEntity
  8
0
100
AcDbBlockReference
 62
7
  6
CONTINUOUS
  2
_FILLED
 10
-95.4193114597
 20
53.0
 41
3.0
 42
3.0
 43
3.0
  0
INSERT
  5
242
100
AcDbEntity
  8
0
100
AcDbBlockReference
 62
7
  6
CONTINUOUS
  2
_FILLED
 10
-103.9693114597
 20
53.0
 41
3.0
 42
3.0
 43
3.0
 50
180.0
  0
ENDBLK
  5
243
100
AcDbEntity
  8
0
  6
BYBLOCK
 62
0
100
AcDbBlockEnd
  0
BLOCK
  5
244
100
AcDbEntity
  8
0
100
AcDbBlockBegin
 62
7
  6
CONTINUOUS
  2
*D3
 70
65
 10
0.0
 20
0.0
  3
*D3
  1

  0
MTEXT
  5
245
100
AcDbEntity
  8
0
100
AcDbMText
 62
7
  6
CONTINUOUS
  7
STANDARD
 71
3
 72
1
 10
-104.9903395597
 20
66.75
 30
0.0
 11
1.0
 21
0.0
 31
0.0
 73
2
 44
0.9
  1
{\ftxt;\W0.0001;\H0.0001;\~}{\ftxt;\W3.1428571429;\H3.0; }{\ftxt;\W0.0001;\H0.0001;\~}
 40
3.0
 41
14.1428571429
  0
LINE
  5
246
100
AcDbEntity
  8
0
100
AcDbLine
 62
7
  6
CONTINUOUS
 10
-103.9693114597
 20
44.5
 11
-103.9693114597
 21
64.5
  0
LINE
  5
247
100
AcDbEntity
  8
0
100
AcDbLine
 62
7
  6
CONTINUOUS
 10
-92.4193114597
 20
26.5463167932
 11
-92.4193114597
 21
64.5
  0
LINE
  5
248
100
AcDbEntity
  8
0
100
AcDbLine
 62
7
  6
CONTINUOUS
 10
-103.9693114597
 20
63.0
 11
-98.1943114597
 21
63.0
  0
LINE
  5
249
100
AcDbEntity
  8
0
100
AcDbLine
 62
7
  6
CONTINUOUS
 10
-98.1943114597
 20
63.0
 11
-114.4189109883
 21
63.0
  0
LINE
  5
24A
100
AcDbEntity
  8
0
100
AcDbLine
 62
7
  6
CONTINUOUS
 10
-92.4193114597
 20
63.0
 11
-98.1943114597
 21
63.0
  0
INSERT
  5
24B
100
AcDbEntity
  8
0
100
AcDbBlockReference
 62
7
  6
CONTINUOUS
  2
_FILLED
 10
-103.9693114597
 20
63.0
 41
3.0
 42
3.0
 43
3.0
 50
180.0
  0
INSERT
  5
24C
100
AcDbEntity
  8
0
100
AcDbBlockReference
 62
7
  6
CONTINUOUS
  2
_FILLED
 10
-92.4193114597
 20
63.0
 41
3.0
 42
3.0
 43
3.0
  0
ENDBLK
  5
24D
100
AcDbEntity
  8
0
  6
BYBLOCK
 62
0
100
AcDbBlockEnd
  0
ENDSEC
  0
SECTION
  2
ENTITIES
  0
DIMENSION
  5
24E
100
AcDbEntity
  8
0
100
AcDbDimension
 62
7
  6
CONTINUOUS
  2
*D0
 10
80.275
 20
-45.0
 11
80.275
 21
-0.4285695539
 70
160
 71
2
 72
2
 41
0.9
 42
90.0
  1
{\ftxt;\W0.0001;\H0.0001;\~}{\ftxt;\W1.5714285714;\H3.0; }{\ftxt;\W0.0001;\H0.0001;\~}
  3
DIMSTYLE_1
100
AcDbAlignedDimension
 13
71.225
 23
45.0
 14
71.225
 24
-45.0
 50
270.0
100
AcDbRotatedDimension
  0
DIMENSION
  5
24F
100
AcDbEntity
  8
0
100
AcDbDimension
 62
7
  6
CONTINUOUS
  2
*D1
 10
-72.275
 20
53.0
 11
-0.4535713849
 21
53.0
 70
160
 71
2
 72
2
 41
0.9
 42
144.5
  1
{\ftxt;\W0.0001;\H0.0001;\~}{\ftxt;\W3.4285714286;\H3.0; }{\ftxt;\W0.0001;\H0.0001;\~}
  3
DIMSTYLE_1
100
AcDbAlignedDimension
 13
72.225
 23
44.0
 14
-72.275
 24
44.0
 50
180.0
100
AcDbRotatedDimension
  0
DIMENSION
  5
250
100
AcDbEntity
  8
0
100
AcDbDimension
 62
7
  6
CONTINUOUS
  2
*D2
 10
-103.9693114597
 20
53.0
 11
-109.4014563904
 21
53.0
 70
160
 71
3
 72
2
 41
0.9
 42
8.55
  1
{\ftxt;\W0.0001;\H0.0001;\~}{\ftxt;\W2.7857142857;\H3.0; }{\ftxt;\W0.0001;\H0.0001;\~}
  3
DIMSTYLE_1
100
AcDbAlignedDimension
 13
-95.4193114597
 23
43.0384032275
 14
-103.9693114597
 24
44.0
 50
180.0
100
AcDbRotatedDimension
  0
DIMENSION
  5
251
100
AcDbEntity
  8
0
100
AcDbDimension
 62
7
  6
CONTINUOUS
  2
*D3
 10
-92.4193114597
 20
63.0
 11
-110.1331977539
 21
63.0
 70
160
 71
3
 72
2
 41
0.9
 42
11.55
  1
{\ftxt;\W0.0001;\H0.0001;\~}{\ftxt;\W3.1428571429;\H3.0; }{\ftxt;\W0.0001;\H0.0001;\~}
  3
DIMSTYLE_1
100
AcDbAlignedDimension
 13
-103.9693114597
 23
44.0
 14
-92.4193114597
 24
26.0463167932
100
AcDbRotatedDimension
  0
LINE
  5
252
100
AcDbEntity
  8
SMUSSO
100
AcDbLine
 62
7
  6
CONTINUOUS
 10
-72.275
 20
44.0
 11
-71.275
 21
45.0
  0
LINE
  5
253
100
AcDbEntity
  8
SMUSSO
100
AcDbLine
 62
7
  6
CONTINUOUS
 10
-71.275
 20
-45.0
 11
-72.275
 21
-44.0
  0
LINE
  5
254
100
AcDbEntity
  8
SMUSSO
100
AcDbLine
 62
7
  6
CONTINUOUS
 10
-72.275
 20
44.0
 11
-72.275
 21
-44.0
  0
LINE
  5
255
100
AcDbEntity
  8
SMUSSO
100
AcDbLine
 62
7
  6
CONTINUOUS
 10
-71.275
 20
44.0
 11
-71.275
 21
-44.0
  0
LINE
  5
256
100
AcDbEntity
  8
0
100
AcDbLine
 62
7
  6
CONTINUOUS
 10
-45.625
 20
-21.4
 11
-45.625
 21
21.4
  0
LINE
  5
257
100
AcDbEntity
  8
0
100
AcDbLine
 62
7
  6
CONTINUOUS
 10
-45.125
 20
-21.4
 11
-45.125
 21
21.4
  0
LINE
  5
258
100
AcDbEntity
  8
SMUSSO
100
AcDbLine
 62
7
  6
CONTINUOUS
 10
-71.275
 20
-45.0
 11
71.225
 21
-45.0
  0
LINE
  5
259
100
AcDbEntity
  8
0
100
AcDbLine
 62
250
  6
CONTINUOUS
 10
-43.925
 20
23.1
 11
-43.925
 21
22.6
  0
LINE
  5
25A
100
AcDbEntity
  8
0
100
AcDbLine
 62
250
  6
CONTINUOUS
 10
-43.925
 20
-23.1
 11
-43.925
 21
-22.6
  0
LWPOLYLINE
  5
25B
100
AcDbEntity
  8
0
100
AcDbPolyline
 62
7
  6
CONTINUOUS
 90
3
 70
0
 43
0.3500000006
 10
-5.1678571014
 20
55.8928609314
 10
-4.3107143469
 20
56.7499988708
 10
-4.3107143469
 20
53.7499979553
  0
LINE
  5
25C
100
AcDbEntity
  8
SMUSSO
100
AcDbLine
 62
7
  6
CONTINUOUS
 10
-71.275
 20
-44.0
 11
71.225
 21
-44.0
  0
LINE
  5
25D
100
AcDbEntity
  8
0
100
AcDbLine
 62
7
  6
CONTINUOUS
 10
43.875
 20
-23.1
 11
-43.925
 21
-23.1
  0
LINE
  5
25E
100
AcDbEntity
  8
0
100
AcDbLine
 62
7
  6
CONTINUOUS
 10
43.875
 20
-22.6
 11
-43.925
 21
-22.6
  0
LINE
  5
25F
100
AcDbEntity
  8
SMUSSO
100
AcDbLine
 62
7
  6
CONTINUOUS
 10
-71.275
 20
-44.0
 11
-71.775
 21
-44.5
  0
LINE
  5
260
100
AcDbEntity
  8
0
100
AcDbLine
 62
250
  6
CONTINUOUS
 10
-45.625
 20
-21.4
 11
-45.125
 21
-21.4
  0
LINE
  5
261
100
AcDbEntity
  8
0
100
AcDbLine
 62
250
  6
CONTINUOUS
 10
45.575
 20
-21.4
 11
45.075
 21
-21.4
  0
LINE
  5
262
100
AcDbEntity
  8
SMUSSO
100
AcDbLine
 62
7
  6
CONTINUOUS
 10
-71.775
 20
44.5
 11
-71.275
 21
44.0
  0
LWPOLYLINE
  5
263
100
AcDbEntity
  8
0
100
AcDbPolyline
 62
7
  6
CONTINUOUS
 90
3
 70
0
 43
0.3500000006
 10
1.9750000362
 20
54.035713623
 10
1.9035714025
 20
53.8214291382
 10
1.7607142768
 20
53.5357134705
  0
LWPOLYLINE
  5
264
100
AcDbEntity
  8
0
100
AcDbPolyline
 62
7
  6
CONTINUOUS
 90
2
 70
0
 43
0.3500000006
 10
-2.4535712872
 20
53.7499979553
 10
-2.4535712872
 20
55.2499984131
  0
LWPOLYLINE
  5
265
100
AcDbEntity
  8
0
100
AcDbPolyline
 62
7
  6
CONTINUOUS
 90
2
 70
0
 43
0.3500000006
 10
-0.0964285705
 20
53.7499979553
 10
-0.0964285705
 20
55.2499984131
  0
LWPOLYLINE
  5
266
100
AcDbEntity
  8
0
100
AcDbPolyline
 62
7
  6
CONTINUOUS
 90
13
 70
0
 43
0.3500000006
 10
78.6678568726
 20
-0.0000003204
 10
77.3821408997
 20
-0.0000003204
 10
76.9535719299
 20
0.2142864304
 10
76.5250029602
 20
0.642857666
 10
76.5250029602
 20
0.8571421509
 10
76.9535719299
 20
1.2857133865
 10
77.3821408997
 20
1.5000001373
 10
78.6678568726
 20
1.5000001373
 10
79.0964258423
 20
1.2857133865
 10
79.5250038757
 20
0.8571421509
 10
79.5250038757
 20
0.642857666
 10
79.0964258423
 20
0.2142864304
 10
78.6678568726
 20
-0.0000003204
  0
LINE
  5
267
100
AcDbEntity
  8
SMUSSO
100
AcDbLine
 62
7
  6
CONTINUOUS
 10
71.725
 20
44.5
 11
71.225
 21
44.0
  0
LINE
  5
268
100
AcDbEntity
  8
0
100
AcDbLine
 62
250
  6
CONTINUOUS
 10
-45.625
 20
21.4
 11
-45.125
 21
21.4
  0
LINE
  5
269
100
AcDbEntity
  8
0
100
AcDbLine
 62
250
  6
CONTINUOUS
 10
45.575
 20
21.4
 11
45.075
 21
21.4
  0
LINE
  5
26A
100
AcDbEntity
  8
0
100
AcDbLine
 62
7
  6
CONTINUOUS
 10
-43.925
 20
22.6
 11
43.875
 21
22.6
  0
LINE
  5
26B
100
AcDbEntity
  8
0
100
AcDbLine
 62
7
  6
CONTINUOUS
 10
-43.925
 20
23.1
 11
43.875
 21
23.1
  0
LINE
  5
26C
100
AcDbEntity
  8
SMUSSO
100
AcDbLine
 62
7
  6
CONTINUOUS
 10
71.725
 20
-44.5
 11
71.225
 21
-44.0
  0
LWPOLYLINE
  5
26D
100
AcDbEntity
  8
0
100
AcDbPolyline
 62
7
  6
CONTINUOUS
 90
10
 70
0
 43
0.3500000006
 10
1.9035714025
 20
54.2499981079
 10
1.9750000362
 20
54.1071448059
 10
1.9750000362
 20
54.035713623
 10
1.8321429105
 20
53.8928557892
 10
1.7607142768
 20
53.8928557892
 10
1.6892857847
 20
53.964286972
 10
1.6892857847
 20
54.035713623
 10
1.7607142768
 20
54.1785714569
 10
1.8321429105
 20
54.2499981079
 10
1.9035714025
 20
54.2499981079
  0
LINE
  5
26E
100
AcDbEntity
  8
0
100
AcDbLine
 62
250
  6
CONTINUOUS
 10
43.875
 20
23.1
 11
43.875
 21
22.6
  0
LINE
  5
26F
100
AcDbEntity
  8
0
100
AcDbLine
 62
250
  6
CONTINUOUS
 10
43.875
 20
-23.1
 11
43.875
 21
-22.6
  0
LINE
  5
270
100
AcDbEntity
  8
0
100
AcDbLine
 62
7
  6
CONTINUOUS
 10
45.075
 20
21.4
 11
45.075
 21
-21.4
  0
LINE
  5
271
100
AcDbEntity
  8
0
100
AcDbLine
 62
7
  6
CONTINUOUS
 10
45.575
 20
21.4
 11
45.575
 21
-21.4
  0
LINE
  5
272
100
AcDbEntity
  8
SMUSSO
100
AcDbLine
 62
7
  6
CONTINUOUS
 10
71.225
 20
44.0
 11
-71.275
 21
44.0
  0
LINE
  5
273
100
AcDbEntity
  8
SMUSSO
100
AcDbLine
 62
7
  6
CONTINUOUS
 10
71.225
 20
45.0
 11
-71.275
 21
45.0
  0
LWPOLYLINE
  5
274
100
AcDbEntity
  8
0
100
AcDbPolyline
 62
7
  6
CONTINUOUS
 90
8
 70
0
 43
0.3500000006
 10
2.9750000582
 20
53.7499979553
 10
3.8321428127
 20
53.7499979553
 10
4.2607143316
 20
54.1785714569
 10
4.2607143316
 20
55.0357139282
 10
3.8321428127
 20
55.4642874298
 10
2.9750000582
 20
55.4642874298
 10
2.9750000582
 20
56.7499988708
 10
4.2607143316
 20
56.7499988708
  0
LWPOLYLINE
  5
275
100
AcDbEntity
  8
0
100
AcDbPolyline
 62
7
  6
CONTINUOUS
 90
3
 70
0
 43
0.3500000006
 10
0.4035714405
 20
54.3928559418
 10
-1.0964285924
 20
54.3928559418
 10
-0.4535714203
 20
56.7499988708
  0
LWPOLYLINE
  5
276
100
AcDbEntity
  8
0
100
AcDbPolyline
 62
7
  6
CONTINUOUS
 90
3
 70
0
 43
0.3500000006
 10
-1.9535714178
 20
54.3928559418
 10
-3.4535713091
 20
54.3928559418
 10
-2.8107141724
 20
56.7499988708
  0
LWPOLYLINE
  5
277
100
AcDbEntity
  8
0
100
AcDbPolyline
 62
7
  6
CONTINUOUS
 90
10
 70
0
 43
0.3500000006
 10
79.5250038757
 20
-1.9285708809
 10
78.6678568726
 20
-1.0714295425
 10
77.8107098694
 20
-0.8571427917
 10
76.9535719299
 20
-0.8571427917
 10
76.5250029602
 20
-1.2857140274
 10
76.5250029602
 20
-1.9285708809
 10
76.9535719299
 20
-2.3571432495
 10
77.8107098694
 20
-2.3571432495
 10
78.2392879028
 20
-1.9285708809
 10
78.2392879028
 20
-1.0000006256
  0
LINE
  5
278
100
AcDbEntity
  8
SMUSSO
100
AcDbLine
 62
7
  6
CONTINUOUS
 10
71.225
 20
-44.0
 11
71.225
 21
44.0
  0
LINE
  5
279
100
AcDbEntity
  8
SMUSSO
100
AcDbLine
 62
7
  6
CONTINUOUS
 10
72.225
 20
-44.0
 11
72.225
 21
44.0
  0
LINE
  5
27A
100
AcDbEntity
  8
SMUSSO
100
AcDbLine
 62
7
  6
CONTINUOUS
 10
72.225
 20
-44.0
 11
71.225
 21
-45.0
  0
LINE
  5
27B
100
AcDbEntity
  8
SMUSSO
100
AcDbLine
 62
7
  6
CONTINUOUS
 10
71.225
 20
45.0
 11
72.225
 21
44.0
  0
LWPOLYLINE
  5
27C
100
AcDbEntity
  8
0
100
AcDbPolyline
 62
7
  6
CONTINUOUS
 90
3
 70
0
 43
0.3500000006
 10
-114.4189146423
 20
65.8928549194
 10
-113.5617676392
 20
66.7500019226
 10
-113.5617676392
 20
63.7500010071
  0
LWPOLYLINE
  5
27D
100
AcDbEntity
  8
0
100
AcDbPolyline
 62
7
  6
CONTINUOUS
 90
3
 70
0
 43
0.3500000006
 10
-112.7046296997
 20
65.8928549194
 10
-111.8474826965
 20
66.7500019226
 10
-111.8474826965
 20
63.7500010071
  0
LINE
  5
27E
100
AcDbEntity
  8
SMUSSO
100
AcDbLine
 62
7
  6
CONTINUOUS
 10
-102.9693114597
 20
-45.0
 11
-100.4693114597
 21
-45.0
  0
LINE
  5
27F
100
AcDbEntity
  8
0
100
AcDbLine
 62
250
  6
CONTINUOUS
 10
-96.9185139008
 20
-43.3354659698
 11
-95.4193114597
 21
-43.0384032275
  0
LINE
  5
280
100
AcDbEntity
  8
ASSI
100
AcDbLine
 62
250
  6
CONTINUOUS
 10
-96.9185139008
 20
-43.3354659698
 11
-95.4193114597
 21
-43.0384032275
  0
LINE
  5
281
100
AcDbEntity
  8
0
100
AcDbLine
 62
7
  6
CONTINUOUS
 10
-99.8193114597
 20
-44.3506196883
 11
-96.9193114597
 21
-44.3
  0
LINE
  5
282
100
AcDbEntity
  8
ASSI
100
AcDbLine
 62
7
  6
CONTINUOUS
 10
-99.8193114597
 20
-44.3506196883
 11
-96.9193114597
 21
-44.3
  0
LINE
  5
283
100
AcDbEntity
  8
0
100
AcDbLine
 62
250
  6
CONTINUOUS
 10
-99.8193114597
 20
-43.3507719931
 11
-96.9193114597
 21
-43.3001523048
  0
LINE
  5
284
100
AcDbEntity
  8
ASSI
100
AcDbLine
 62
250
  6
CONTINUOUS
 10
-99.8193114597
 20
-43.3507719931
 11
-96.9193114597
 21
-43.3001523048
  0
LINE
  5
285
100
AcDbEntity
  8
SMUSSO
100
AcDbLine
 62
7
  6
CONTINUOUS
 10
-102.9693114597
 20
-44.0
 11
-100.4693114597
 21
-44.0
  0
LINE
  5
286
100
AcDbEntity
  8
RACCORDO
100
AcDbLine
 62
7
  6
CONTINUOUS
 10
-99.9693114597
 20
-39.0
 11
-99.8193114597
 21
-39.0
  0
LINE
  5
287
100
AcDbEntity
  8
RACCORDO
100
AcDbLine
 62
250
  6
CONTINUOUS
 10
-99.9693114597
 20
-37.0
 11
-99.8193114597
 21
-37.0
  0
LINE
  5
288
100
AcDbEntity
  8
0
100
AcDbLine
 62
250
  6
CONTINUOUS
 10
-97.4008174597
 20
-36.161141
 11
-99.3007774597
 21
-36.161141
  0
LINE
  5
289
100
AcDbEntity
  8
SMUSSO
100
AcDbLine
 62
7
  6
CONTINUOUS
 10
-102.9693114597
 20
45.0
 11
-103.9693114597
 21
44.0
  0
LINE
  5
28A
100
AcDbEntity
  8
0
100
AcDbLine
 62
250
  6
CONTINUOUS
 10
-97.9929404597
 20
-37.077819
 11
-99.3006634597
 21
-37.439964
  0
LINE
  5
28B
100
AcDbEntity
  8
0
100
AcDbLine
 62
250
  6
CONTINUOUS
 10
-97.4008174597
 20
-33.624309
 11
-99.3006634597
 21
-33.801966
  0
LINE
  5
28C
100
AcDbEntity
  8
0
100
AcDbLine
 62
250
  6
CONTINUOUS
 10
-98.6362094597
 20
-34.093739
 11
-97.4008174597
 21
-34.012262
  0
LINE
  5
28D
100
AcDbEntity
  8
0
100
AcDbLine
 62
250
  6
CONTINUOUS
 10
-99.3007774597
 20
-35.764569
 11
-97.4008174597
 21
-35.764569
  0
LINE
  5
28E
100
AcDbEntity
  8
0
100
AcDbLine
 62
250
  6
CONTINUOUS
 10
-97.4008174597
 20
-35.171691
 11
-98.6413814597
 21
-35.08611
  0
LINE
  5
28F
100
AcDbEntity
  8
0
100
AcDbLine
 62
250
  6
CONTINUOUS
 10
-99.3006634597
 20
-35.379536
 11
-97.4008174597
 21
-35.551081
  0
LINE
  5
290
100
AcDbEntity
  8
0
100
AcDbLine
 62
250
  6
CONTINUOUS
 10
-99.3006634597
 20
-36.704611
 11
-97.9929404597
 21
-37.077819
  0
LINE
  5
291
100
AcDbEntity
  8
0
100
AcDbLine
 62
250
  6
CONTINUOUS
 10
-97.4008174597
 20
-36.918996
 11
-99.3006634597
 21
-36.30831
  0
LINE
  5
292
100
AcDbEntity
  8
SMUSSO
100
AcDbLine
 62
7
  6
CONTINUOUS
 10
-102.9693114597
 20
-45.0
 11
-103.9693114597
 21
-44.0
  0
LWPOLYLINE
  5
293
100
AcDbEntity
  8
0
100
AcDbPolyline
 62
7
  6
CONTINUOUS
 90
3
 70
0
 43
0.3500000006
 10
-110.2760510559
 20
64.0357166748
 10
-110.3474822388
 20
63.8214321899
 10
-110.4903355408
 20
63.5357165222
  0
LINE
  5
294
100
AcDbEntity
  8
SMUSSO
100
AcDbLine
 62
7
  6
CONTINUOUS
 10
-100.4693114597
 20
44.0
 11
-99.9693114597
 21
44.5
  0
LINE
  5
295
100
AcDbEntity
  8
0
100
AcDbLine
 62
250
  6
CONTINUOUS
 10
-97.7800944597
 20
-32.520272
 11
-97.4008174597
 21
-32.417539
  0
LINE
  5
296
100
AcDbEntity
  8
0
100
AcDbLine
 62
250
  6
CONTINUOUS
 10
-98.7786344597
 20
-32.781757
 11
-98.0735774597
 21
-32.599527
  0
LINE
  5
297
100
AcDbEntity
  8
0
100
AcDbLine
 62
250
  6
CONTINUOUS
 10
-97.4008177137
 20
-31.8831153973
 11
-99.2784669184
 21
-31.8831153973
  0
LINE
  5
298
100
AcDbEntity
  8
0
100
AcDbLine
 62
250
  6
CONTINUOUS
 10
-98.9770058829
 20
-31.5012884969
 11
-98.4554611954
 21
-31.5012884969
  0
LINE
  5
299
100
AcDbEntity
  8
0
100
AcDbLine
 62
250
  6
CONTINUOUS
 10
-98.1443123762
 20
-31.4881387551
 11
-97.4008177137
 21
-31.4881387551
  0
LINE
  5
29A
100
AcDbEntity
  8
0
100
AcDbLine
 62
250
  6
CONTINUOUS
 10
-98.2988752672
 20
-30.8635473914
 11
-98.2876488355
 21
-30.8635473914
  0
LINE
  5
29B
100
AcDbEntity
  8
0
100
AcDbLine
 62
250
  6
CONTINUOUS
 10
-98.0735774597
 20
-32.979217
 11
-98.7786344597
 21
-32.781757
  0
LINE
  5
29C
100
AcDbEntity
  8
0
100
AcDbLine
 62
250
  6
CONTINUOUS
 10
-97.4008174597
 20
-33.169767
 11
-97.7800944597
 21
-33.060338
  0
LINE
  5
29D
100
AcDbEntity
  8
0
100
AcDbLine
 62
250
  6
CONTINUOUS
 10
-99.3006634597
 20
-32.966124
 11
-97.4008174597
 21
-33.562037
  0
LINE
  5
29E
100
AcDbEntity
  8
0
100
AcDbLine
 62
250
  6
CONTINUOUS
 10
-99.3006634597
 20
-34.194336
 11
-98.2458634597
 21
-34.590908
  0
LINE
  5
29F
100
AcDbEntity
  8
0
100
AcDbLine
 62
250
  6
CONTINUOUS
 10
-97.4008174597
 20
-34.565264
 11
-98.6362094597
 21
-34.093739
  0
LINE
  5
2A0
100
AcDbEntity
  8
SMUSSO
100
AcDbLine
 62
7
  6
CONTINUOUS
 10
-99.9693114597
 20
-44.5
 11
-100.4693114597
 21
-44.0
  0
LWPOLYLINE
  5
2A1
100
AcDbEntity
  8
0
100
AcDbPolyline
 62
7
  6
CONTINUOUS
 90
3
 70
0
 43
0.3500000006
 10
-110.0800299683
 20
54.035713623
 10
-110.1514611511
 20
53.8214291382
 10
-110.2943144531
 20
53.5357134705
  0
LINE
  5
2A2
100
AcDbEntity
  8
0
100
AcDbLine
 62
7
  6
CONTINUOUS
 10
-94.4934742619
 20
-27.1501294386
 11
-95.4193114597
 21
-27.151745331
  0
LINE
  5
2A3
100
AcDbEntity
  8
ASSI
100
AcDbLine
 62
7
  6
CONTINUOUS
 10
-94.4934742619
 20
-27.1501294386
 11
-95.4193114597
 21
-27.151745331
  0
LINE
  5
2A4
100
AcDbEntity
  8
0
100
AcDbLine
 62
250
  6
CONTINUOUS
 10
-94.493538876
 20
-26.9276792439
 11
-95.4193114597
 21
-26.9280974384
  0
LINE
  5
2A5
100
AcDbEntity
  8
ASSI
100
AcDbLine
 62
250
  6
CONTINUOUS
 10
-94.493538876
 20
-26.9276792439
 11
-95.4193114597
 21
-26.9280974384
  0
LINE
  5
2A6
100
AcDbEntity
  8
0
100
AcDbLine
 62
7
  6
CONTINUOUS
 10
-92.9692622275
 20
-26.3415638603
 11
-95.4193114597
 21
-26.3558178298
  0
LINE
  5
2A7
100
AcDbEntity
  8
ASSI
100
AcDbLine
 62
7
  6
CONTINUOUS
 10
-92.9692622275
 20
-26.3415638603
 11
-95.4193114597
 21
-26.3558178298
  0
LINE
  5
2A8
100
AcDbEntity
  8
0
100
AcDbLine
 62
250
  6
CONTINUOUS
 10
-92.9692622275
 20
-26.2536973817
 11
-95.4193114597
 21
-26.2679513512
  0
LINE
  5
2A9
100
AcDbEntity
  8
ASSI
100
AcDbLine
 62
250
  6
CONTINUOUS
 10
-92.9692622275
 20
-26.2536973817
 11
-95.4193114597
 21
-26.2679513512
  0
LINE
  5
2AA
100
AcDbEntity
  8
0
100
AcDbLine
 62
7
  6
CONTINUOUS
 10
-92.4193114597
 20
-26.1523612067
 11
-92.5398742268
 21
-26.1523612067
  0
LINE
  5
2AB
100
AcDbEntity
  8
ASSI
100
AcDbLine
 62
7
  6
CONTINUOUS
 10
-92.4193114597
 20
-26.1523612067
 11
-92.5398742268
 21
-26.1523612067
  0
LINE
  5
2AC
100
AcDbEntity
  8
0
100
AcDbLine
 62
7
  6
CONTINUOUS
 10
-94.4691870808
 20
-25.2
 11
-95.4193114597
 21
-25.2
  0
LINE
  5
2AD
100
AcDbEntity
  8
ASSI
100
AcDbLine
 62
7
  6
CONTINUOUS
 10
-94.4691870808
 20
-25.2
 11
-95.4193114597
 21
-25.2
  0
LINE
  5
2AE
100
AcDbEntity
  8
0
100
AcDbLine
 62
7
  6
CONTINUOUS
 10
-95.4193114597
 20
-25.05
 11
-95.2693114597
 21
-25.05
  0
LINE
  5
2AF
100
AcDbEntity
  8
ASSI
100
AcDbLine
 62
7
  6
CONTINUOUS
 10
-95.4193114597
 20
-25.05
 11
-95.2693114597
 21
-25.05
  0
LINE
  5
2B0
100
AcDbEntity
  8
0
100
AcDbLine
 62
7
  6
CONTINUOUS
 10
-94.9693114597
 20
-25.05
 11
-94.7693114597
 21
-25.05
  0
LINE
  5
2B1
100
AcDbEntity
  8
ASSI
100
AcDbLine
 62
7
  6
CONTINUOUS
 10
-94.9693114597
 20
-25.05
 11
-94.7693114597
 21
-25.05
  0
LINE
  5
2B2
100
AcDbEntity
  8
0
100
AcDbLine
 62
7
  6
CONTINUOUS
 10
-92.4193114597
 20
-25.3523612067
 11
-92.941248114
 21
-25.3478063346
  0
LINE
  5
2B3
100
AcDbEntity
  8
ASSI
100
AcDbLine
 62
7
  6
CONTINUOUS
 10
-92.4193114597
 20
-25.3523612067
 11
-92.941248114
 21
-25.3478063346
  0
LINE
  5
2B4
100
AcDbEntity
  8
0
100
AcDbLine
 62
7
  6
CONTINUOUS
 10
-95.4193114597
 20
-25.7558198745
 11
-92.6088442684
 21
-25.8799866677
  0
LINE
  5
2B5
100
AcDbEntity
  8
ASSI
100
AcDbLine
 62
7
  6
CONTINUOUS
 10
-95.4193114597
 20
-25.7558198745
 11
-92.6088442684
 21
-25.8799866677
  0
LINE
  5
2B6
100
AcDbEntity
  8
0
100
AcDbLine
 62
7
  6
CONTINUOUS
 10
-92.4193114597
 20
-25.4
 11
-94.3696833618
 21
-25.2049628098
  0
LINE
  5
2B7
100
AcDbEntity
  8
ASSI
100
AcDbLine
 62
7
  6
CONTINUOUS
 10
-92.4193114597
 20
-25.4
 11
-94.3696833618
 21
-25.2049628098
  0
LWPOLYLINE
  5
2B8
100
AcDbEntity
  8
0
100
AcDbPolyline
 62
7
  6
CONTINUOUS
 90
4
 70
0
 43
0.3500000006
 10
-113.1514530029
 20
54.1785714569
 10
-113.1514530029
 20
55.0357139282
 10
-112.7228840332
 20
55.4642874298
 10
-112.0800305786
 20
55.4642874298
  0
LINE
  5
2B9
100
AcDbEntity
  8
0
100
AcDbLine
 62
7
  6
CONTINUOUS
 10
-95.2693114597
 20
25.05
 11
-95.1193114597
 21
25.2
  0
LINE
  5
2BA
100
AcDbEntity
  8
ASSI
100
AcDbLine
 62
7
  6
CONTINUOUS
 10
-95.2693114597
 20
25.05
 11
-95.1193114597
 21
25.2
  0
LINE
  5
2BB
100
AcDbEntity
  8
0
100
AcDbLine
 62
7
  6
CONTINUOUS
 10
-94.7693114597
 20
25.05
 11
-94.6193114597
 21
25.2
  0
LINE
  5
2BC
100
AcDbEntity
  8
ASSI
100
AcDbLine
 62
7
  6
CONTINUOUS
 10
-94.7693114597
 20
25.05
 11
-94.6193114597
 21
25.2
  0
LINE
  5
2BD
100
AcDbEntity
  8
0
100
AcDbLine
 62
7
  6
CONTINUOUS
 10
-95.2693114597
 20
-25.05
 11
-95.1193114597
 21
-25.2
  0
LINE
  5
2BE
100
AcDbEntity
  8
ASSI
100
AcDbLine
 62
7
  6
CONTINUOUS
 10
-95.2693114597
 20
-25.05
 11
-95.1193114597
 21
-25.2
  0
LINE
  5
2BF
100
AcDbEntity
  8
0
100
AcDbLine
 62
7
  6
CONTINUOUS
 10
-94.7693114597
 20
-25.05
 11
-94.6193114597
 21
-25.2
  0
LINE
  5
2C0
100
AcDbEntity
  8
ASSI
100
AcDbLine
 62
7
  6
CONTINUOUS
 10
-94.7693114597
 20
-25.05
 11
-94.6193114597
 21
-25.2
  0
LINE
  5
2C1
100
AcDbEntity
  8
SMUSSO
100
AcDbLine
 62
7
  6
CONTINUOUS
 10
-103.9693114597
 20
-44.0
 11
-103.9693114597
 21
44.0
  0
LINE
  5
2C2
100
AcDbEntity
  8
SMUSSO
100
AcDbLine
 62
7
  6
CONTINUOUS
 10
-102.9693114597
 20
-44.0
 11
-102.9693114597
 21
44.0
  0
LINE
  5
2C3
100
AcDbEntity
  8
SMUSSO
100
AcDbLine
 62
7
  6
CONTINUOUS
 10
-100.4693114597
 20
44.0
 11
-100.4693114597
 21
-44.0
  0
LINE
  5
2C4
100
AcDbEntity
  8
SMUSSO
100
AcDbLine
 62
7
  6
CONTINUOUS
 10
-99.9693114597
 20
44.5
 11
-99.9693114597
 21
-44.5
  0
LINE
  5
2C5
100
AcDbEntity
  8
0
100
AcDbLine
 62
7
  6
CONTINUOUS
 10
-99.8193114597
 20
-44.3506196883
 11
-99.8193114597
 21
44.3506196883
  0
LINE
  5
2C6
100
AcDbEntity
  8
ASSI
100
AcDbLine
 62
7
  6
CONTINUOUS
 10
-99.8193114597
 20
-44.3506196883
 11
-99.8193114597
 21
44.3506196883
  0
LINE
  5
2C7
100
AcDbEntity
  8
0
100
AcDbLine
 62
250
  6
CONTINUOUS
 10
-99.3007774597
 20
-36.161141
 11
-99.3007774597
 21
-35.764569
  0
LINE
  5
2C8
100
AcDbEntity
  8
0
100
AcDbLine
 62
250
  6
CONTINUOUS
 10
-99.3006634597
 20
-32.582488
 11
-99.3006634597
 21
-32.966124
  0
LINE
  5
2C9
100
AcDbEntity
  8
0
100
AcDbLine
 62
250
  6
CONTINUOUS
 10
-99.3006634597
 20
-33.801966
 11
-99.3006634597
 21
-34.194336
  0
LINE
  5
2CA
100
AcDbEntity
  8
0
100
AcDbLine
 62
250
  6
CONTINUOUS
 10
-99.3006634597
 20
-34.983292
 11
-99.3006634597
 21
-35.379536
  0
LINE
  5
2CB
100
AcDbEntity
  8
0
100
AcDbLine
 62
250
  6
CONTINUOUS
 10
-99.3006634597
 20
-36.30831
 11
-99.3006634597
 21
-36.704611
  0
LINE
  5
2CC
100
AcDbEntity
  8
0
100
AcDbLine
 62
250
  6
CONTINUOUS
 10
-99.3006634597
 20
-37.439964
 11
-99.3006634597
 21
-37.870764
  0
LINE
  5
2CD
100
AcDbEntity
  8
0
100
AcDbLine
 62
250
  6
CONTINUOUS
 10
-98.4554611954
 20
-31.5012884969
 11
-98.4554611954
 21
-31.2746513441
  0
LINE
  5
2CE
100
AcDbEntity
  8
0
100
AcDbLine
 62
250
  6
CONTINUOUS
 10
-98.1443123762
 20
-31.2755061485
 11
-98.1443123762
 21
-31.4881387551
  0
LINE
  5
2CF
100
AcDbEntity
  8
0
100
AcDbLine
 62
250
  6
CONTINUOUS
 10
-98.0735774597
 20
-32.599527
 11
-98.0735774597
 21
-32.979217
  0
LINE
  5
2D0
100
AcDbEntity
  8
0
100
AcDbLine
 62
250
  6
CONTINUOUS
 10
-97.7800944597
 20
-33.060338
 11
-97.7800944597
 21
-32.520272
  0
LINE
  5
2D1
100
AcDbEntity
  8
0
100
AcDbLine
 62
250
  6
CONTINUOUS
 10
-97.4008177137
 20
-30.4993864496
 11
-97.4008177137
 21
-30.8808429347
  0
LINE
  5
2D2
100
AcDbEntity
  8
0
100
AcDbLine
 62
250
  6
CONTINUOUS
 10
-97.4008177137
 20
-31.4881387551
 11
-97.4008177137
 21
-31.8831153973
  0
LINE
  5
2D3
100
AcDbEntity
  8
0
100
AcDbLine
 62
250
  6
CONTINUOUS
 10
-97.4008174597
 20
-37.268476
 11
-97.4008174597
 21
-36.918996
  0
LINE
  5
2D4
100
AcDbEntity
  8
0
100
AcDbLine
 62
250
  6
CONTINUOUS
 10
-97.4008174597
 20
-35.551081
 11
-97.4008174597
 21
-35.171691
  0
LINE
  5
2D5
100
AcDbEntity
  8
0
100
AcDbLine
 62
250
  6
CONTINUOUS
 10
-97.4008174597
 20
-34.620883
 11
-97.4008174597
 21
-34.565264
  0
LINE
  5
2D6
100
AcDbEntity
  8
0
100
AcDbLine
 62
250
  6
CONTINUOUS
 10
-97.4008174597
 20
-34.012262
 11
-97.4008174597
 21
-33.624309
  0
LINE
  5
2D7
100
AcDbEntity
  8
0
100
AcDbLine
 62
250
  6
CONTINUOUS
 10
-97.4008174597
 20
-33.562037
 11
-97.4008174597
 21
-33.169767
  0
LINE
  5
2D8
100
AcDbEntity
  8
0
100
AcDbLine
 62
250
  6
CONTINUOUS
 10
-97.4008174597
 20
-32.417539
 11
-97.4008174597
 21
-31.999568
  0
LINE
  5
2D9
100
AcDbEntity
  8
0
100
AcDbLine
 62
250
  6
CONTINUOUS
 10
-97.4008174597
 20
-35.764569
 11
-97.4008174597
 21
-36.161141
  0
LINE
  5
2DA
100
AcDbEntity
  8
0
100
AcDbLine
 62
7
  6
CONTINUOUS
 10
-96.9193114597
 20
43.3001523048
 11
-96.9193114597
 21
-43.3001523048
  0
LINE
  5
2DB
100
AcDbEntity
  8
ASSI
100
AcDbLine
 62
7
  6
CONTINUOUS
 10
-96.9193114597
 20
43.3001523048
 11
-96.9193114597
 21
-43.3001523048
  0
LINE
  5
2DC
100
AcDbEntity
  8
0
100
AcDbLine
 62
7
  6
CONTINUOUS
 10
-95.4193114597
 20
43.1
 11
-95.4193114597
 21
-43.1
  0
LINE
  5
2DD
100
AcDbEntity
  8
ASSI
100
AcDbLine
 62
7
  6
CONTINUOUS
 10
-95.4193114597
 20
43.1
 11
-95.4193114597
 21
-43.1
  0
LINE
  5
2DE
100
AcDbEntity
  8
0
100
AcDbLine
 62
250
  6
CONTINUOUS
 10
-94.493474274
 20
-27.1501294387
 11
-94.493538876
 21
-26.9276792439
  0
LINE
  5
2DF
100
AcDbEntity
  8
ASSI
100
AcDbLine
 62
250
  6
CONTINUOUS
 10
-94.493474274
 20
-27.1501294387
 11
-94.493538876
 21
-26.9276792439
  0
LINE
  5
2E0
100
AcDbEntity
  8
0
100
AcDbLine
 62
250
  6
CONTINUOUS
 10
-92.7036106728
 20
25.3715700787
 11
-92.7036106728
 21
25.3498801651
  0
LINE
  5
2E1
100
AcDbEntity
  8
ASSI
100
AcDbLine
 62
250
  6
CONTINUOUS
 10
-92.7036106728
 20
25.3715700787
 11
-92.7036106728
 21
25.3498801651
  0
LINE
  5
2E2
100
AcDbEntity
  8
0
100
AcDbLine
 62
250
  6
CONTINUOUS
 10
-92.7036106728
 20
-25.3498801651
 11
-92.7036106728
 21
-25.3715700787
  0
LINE
  5
2E3
100
AcDbEntity
  8
ASSI
100
AcDbLine
 62
250
  6
CONTINUOUS
 10
-92.7036106728
 20
-25.3498801651
 11
-92.7036106728
 21
-25.3715700787
  0
LINE
  5
2E4
100
AcDbEntity
  8
0
100
AcDbLine
 62
250
  6
CONTINUOUS
 10
-92.6088442684
 20
25.8799866677
 11
-92.6088442684
 21
25.3810467191
  0
LINE
  5
2E5
100
AcDbEntity
  8
ASSI
100
AcDbLine
 62
250
  6
CONTINUOUS
 10
-92.6088442684
 20
25.8799866677
 11
-92.6088442684
 21
25.3810467191
  0
LINE
  5
2E6
100
AcDbEntity
  8
0
100
AcDbLine
 62
250
  6
CONTINUOUS
 10
-92.6088442684
 20
-25.3810467191
 11
-92.6088442684
 21
-25.8799866677
  0
LINE
  5
2E7
100
AcDbEntity
  8
ASSI
100
AcDbLine
 62
250
  6
CONTINUOUS
 10
-92.6088442684
 20
-25.3810467191
 11
-92.6088442684
 21
-25.8799866677
  0
LINE
  5
2E8
100
AcDbEntity
  8
0
100
AcDbLine
 62
7
  6
CONTINUOUS
 10
-92.4193114597
 20
26.1523612067
 11
-92.4193114597
 21
25.3523612067
  0
LINE
  5
2E9
100
AcDbEntity
  8
ASSI
100
AcDbLine
 62
7
  6
CONTINUOUS
 10
-92.4193114597
 20
26.1523612067
 11
-92.4193114597
 21
25.3523612067
  0
LINE
  5
2EA
100
AcDbEntity
  8
0
100
AcDbLine
 62
7
  6
CONTINUOUS
 10
-92.4193114597
 20
-25.3523612067
 11
-92.4193114597
 21
-26.1523612067
  0
LINE
  5
2EB
100
AcDbEntity
  8
ASSI
100
AcDbLine
 62
7
  6
CONTINUOUS
 10
-92.4193114597
 20
-25.3523612067
 11
-92.4193114597
 21
-26.1523612067
  0
LINE
  5
2EC
100
AcDbEntity
  8
0
100
AcDbLine
 62
250
  6
CONTINUOUS
 10
-94.493538876
 20
26.9276792439
 11
-94.493474274
 21
27.1501294387
  0
LINE
  5
2ED
100
AcDbEntity
  8
ASSI
100
AcDbLine
 62
250
  6
CONTINUOUS
 10
-94.493538876
 20
26.9276792439
 11
-94.493474274
 21
27.1501294387
  0
LWPOLYLINE
  5
2EE
100
AcDbEntity
  8
0
100
AcDbPolyline
 62
7
  6
CONTINUOUS
 90
10
 70
0
 43
0.3500000006
 10
-110.1514611511
 20
54.2499981079
 10
-110.0800299683
 20
54.1071448059
 10
-110.0800299683
 20
54.035713623
 10
-110.2228832703
 20
53.8928557892
 10
-110.2943144531
 20
53.8928557892
 10
-110.365745636
 20
53.964286972
 10
-110.365745636
 20
54.035713623
 10
-110.2943144531
 20
54.1785714569
 10
-110.2228832703
 20
54.2499981079
 10
-110.1514611511
 20
54.2499981079
  0
LWPOLYLINE
  5
2EF
100
AcDbEntity
  8
0
100
AcDbPolyline
 62
7
  6
CONTINUOUS
 90
10
 70
0
 43
0.3500000006
 10
-110.3474822388
 20
64.2500011597
 10
-110.2760510559
 20
64.1071387939
 10
-110.2760510559
 20
64.0357166748
 10
-110.4189134216
 20
63.8928543091
 10
-110.4903355408
 20
63.8928543091
 10
-110.5617667236
 20
63.9642854919
 10
-110.5617667236
 20
64.0357166748
 10
-110.4903355408
 20
64.1785699768
 10
-110.4189134216
 20
64.2500011597
 10
-110.3474822388
 20
64.2500011597
  0
LINE
  5
2F0
100
AcDbEntity
  8
0
100
AcDbLine
 62
7
  6
CONTINUOUS
 10
-95.1193114597
 20
-25.2
 11
-94.9693114597
 21
-25.05
  0
LINE
  5
2F1
100
AcDbEntity
  8
ASSI
100
AcDbLine
 62
7
  6
CONTINUOUS
 10
-95.1193114597
 20
-25.2
 11
-94.9693114597
 21
-25.05
  0
LINE
  5
2F2
100
AcDbEntity
  8
0
100
AcDbLine
 62
7
  6
CONTINUOUS
 10
-95.1193114597
 20
25.2
 11
-94.9693114597
 21
25.05
  0
LINE
  5
2F3
100
AcDbEntity
  8
ASSI
100
AcDbLine
 62
7
  6
CONTINUOUS
 10
-95.1193114597
 20
25.2
 11
-94.9693114597
 21
25.05
  0
LINE
  5
2F4
100
AcDbEntity
  8
0
100
AcDbLine
 62
250
  6
CONTINUOUS
 10
-94.493538876
 20
-26.9276792439
 11
-93.3940200161
 21
-26.3440350289
  0
LINE
  5
2F5
100
AcDbEntity
  8
ASSI
100
AcDbLine
 62
250
  6
CONTINUOUS
 10
-94.493538876
 20
-26.9276792439
 11
-93.3940200161
 21
-26.3440350289
  0
LINE
  5
2F6
100
AcDbEntity
  8
0
100
AcDbLine
 62
250
  6
CONTINUOUS
 10
-92.9692622275
 20
-26.2536973817
 11
-92.4471703747
 21
-25.9765617175
  0
LINE
  5
2F7
100
AcDbEntity
  8
ASSI
100
AcDbLine
 62
250
  6
CONTINUOUS
 10
-92.9692622275
 20
-26.2536973817
 11
-92.4471703747
 21
-25.9765617175
  0
LINE
  5
2F8
100
AcDbEntity
  8
0
100
AcDbLine
 62
7
  6
CONTINUOUS
 10
-92.4193114597
 20
-26.0883643404
 11
-94.3542994979
 21
-27.1154904916
  0
LINE
  5
2F9
100
AcDbEntity
  8
ASSI
100
AcDbLine
 62
7
  6
CONTINUOUS
 10
-92.4193114597
 20
-26.0883643404
 11
-94.3542994979
 21
-27.1154904916
  0
LINE
  5
2FA
100
AcDbEntity
  8
0
100
AcDbLine
 62
7
  6
CONTINUOUS
 10
-92.4193114597
 20
25.4
 11
-94.3696833618
 21
25.2049628098
  0
LINE
  5
2FB
100
AcDbEntity
  8
ASSI
100
AcDbLine
 62
7
  6
CONTINUOUS
 10
-92.4193114597
 20
25.4
 11
-94.3696833618
 21
25.2049628098
  0
LINE
  5
2FC
100
AcDbEntity
  8
0
100
AcDbLine
 62
7
  6
CONTINUOUS
 10
-95.4193114597
 20
25.7558198745
 11
-92.6088442684
 21
25.8799866677
  0
LINE
  5
2FD
100
AcDbEntity
  8
ASSI
100
AcDbLine
 62
7
  6
CONTINUOUS
 10
-95.4193114597
 20
25.7558198745
 11
-92.6088442684
 21
25.8799866677
  0
LINE
  5
2FE
100
AcDbEntity
  8
0
100
AcDbLine
 62
7
  6
CONTINUOUS
 10
-92.4193114597
 20
25.3523612067
 11
-92.941248114
 21
25.3478063346
  0
LINE
  5
2FF
100
AcDbEntity
  8
ASSI
100
AcDbLine
 62
7
  6
CONTINUOUS
 10
-92.4193114597
 20
25.3523612067
 11
-92.941248114
 21
25.3478063346
  0
LINE
  5
300
100
AcDbEntity
  8
0
100
AcDbLine
 62
7
  6
CONTINUOUS
 10
-95.4193114597
 20
25.05
 11
-95.2693114597
 21
25.05
  0
LINE
  5
301
100
AcDbEntity
  8
ASSI
100
AcDbLine
 62
7
  6
CONTINUOUS
 10
-95.4193114597
 20
25.05
 11
-95.2693114597
 21
25.05
  0
LINE
  5
302
100
AcDbEntity
  8
0
100
AcDbLine
 62
7
  6
CONTINUOUS
 10
-94.9693114597
 20
25.05
 11
-94.7693114597
 21
25.05
  0
LINE
  5
303
100
AcDbEntity
  8
ASSI
100
AcDbLine
 62
7
  6
CONTINUOUS
 10
-94.9693114597
 20
25.05
 11
-94.7693114597
 21
25.05
  0
LINE
  5
304
100
AcDbEntity
  8
0
100
AcDbLine
 62
7
  6
CONTINUOUS
 10
-95.4193114597
 20
25.2
 11
-94.4691870808
 21
25.2
  0
LINE
  5
305
100
AcDbEntity
  8
ASSI
100
AcDbLine
 62
7
  6
CONTINUOUS
 10
-95.4193114597
 20
25.2
 11
-94.4691870808
 21
25.2
  0
LINE
  5
306
100
AcDbEntity
  8
0
100
AcDbLine
 62
7
  6
CONTINUOUS
 10
-92.4193114597
 20
26.1523612067
 11
-92.5398742268
 21
26.1523612067
  0
LINE
  5
307
100
AcDbEntity
  8
ASSI
100
AcDbLine
 62
7
  6
CONTINUOUS
 10
-92.4193114597
 20
26.1523612067
 11
-92.5398742268
 21
26.1523612067
  0
LINE
  5
308
100
AcDbEntity
  8
0
100
AcDbLine
 62
250
  6
CONTINUOUS
 10
-94.493538876
 20
26.9276792439
 11
-95.4193114597
 21
26.9280974384
  0
LINE
  5
309
100
AcDbEntity
  8
ASSI
100
AcDbLine
 62
250
  6
CONTINUOUS
 10
-94.493538876
 20
26.9276792439
 11
-95.4193114597
 21
26.9280974384
  0
LINE
  5
30A
100
AcDbEntity
  8
0
100
AcDbLine
 62
7
  6
CONTINUOUS
 10
-94.4934742619
 20
27.1501294386
 11
-95.4193114597
 21
27.151745331
  0
LINE
  5
30B
100
AcDbEntity
  8
ASSI
100
AcDbLine
 62
7
  6
CONTINUOUS
 10
-94.4934742619
 20
27.1501294386
 11
-95.4193114597
 21
27.151745331
  0
LINE
  5
30C
100
AcDbEntity
  8
0
100
AcDbLine
 62
250
  6
CONTINUOUS
 10
-92.9692622275
 20
26.2536973817
 11
-95.4193114597
 21
26.2679513512
  0
LINE
  5
30D
100
AcDbEntity
  8
ASSI
100
AcDbLine
 62
250
  6
CONTINUOUS
 10
-92.9692622275
 20
26.2536973817
 11
-95.4193114597
 21
26.2679513512
  0
LINE
  5
30E
100
AcDbEntity
  8
0
100
AcDbLine
 62
7
  6
CONTINUOUS
 10
-92.9692622275
 20
26.3415638603
 11
-95.4193114597
 21
26.3558178298
  0
LINE
  5
30F
100
AcDbEntity
  8
ASSI
100
AcDbLine
 62
7
  6
CONTINUOUS
 10
-92.9692622275
 20
26.3415638603
 11
-95.4193114597
 21
26.3558178298
  0
LINE
  5
310
100
AcDbEntity
  8
0
100
AcDbLine
 62
250
  6
CONTINUOUS
 10
-93.3940200161
 20
26.3440350289
 11
-94.493538876
 21
26.9276792439
  0
LINE
  5
311
100
AcDbEntity
  8
ASSI
100
AcDbLine
 62
250
  6
CONTINUOUS
 10
-93.3940200161
 20
26.3440350289
 11
-94.493538876
 21
26.9276792439
  0
LINE
  5
312
100
AcDbEntity
  8
0
100
AcDbLine
 62
250
  6
CONTINUOUS
 10
-92.4471703747
 20
25.9765617175
 11
-92.9692622275
 21
26.2536973817
  0
LINE
  5
313
100
AcDbEntity
  8
ASSI
100
AcDbLine
 62
250
  6
CONTINUOUS
 10
-92.4471703747
 20
25.9765617175
 11
-92.9692622275
 21
26.2536973817
  0
LINE
  5
314
100
AcDbEntity
  8
0
100
AcDbLine
 62
7
  6
CONTINUOUS
 10
-92.4193114597
 20
26.0883643404
 11
-94.3542994979
 21
27.1154904916
  0
LINE
  5
315
100
AcDbEntity
  8
ASSI
100
AcDbLine
 62
7
  6
CONTINUOUS
 10
-92.4193114597
 20
26.0883643404
 11
-94.3542994979
 21
27.1154904916
  0
LINE
  5
316
100
AcDbEntity
  8
SMUSSO
100
AcDbLine
 62
7
  6
CONTINUOUS
 10
-102.9693114597
 20
-44.0
 11
-103.4693114597
 21
-44.5
  0
LINE
  5
317
100
AcDbEntity
  8
SMUSSO
100
AcDbLine
 62
7
  6
CONTINUOUS
 10
-100.4693114597
 20
-45.0
 11
-99.9693114597
 21
-44.5
  0
LINE
  5
318
100
AcDbEntity
  8
SMUSSO
100
AcDbLine
 62
7
  6
CONTINUOUS
 10
-103.4693114597
 20
44.5
 11
-102.9693114597
 21
44.0
  0
LINE
  5
319
100
AcDbEntity
  8
SMUSSO
100
AcDbLine
 62
7
  6
CONTINUOUS
 10
-99.9693114597
 20
44.5
 11
-100.4693114597
 21
45.0
  0
LINE
  5
31A
100
AcDbEntity
  8
0
100
AcDbLine
 62
250
  6
CONTINUOUS
 10
-98.6413814597
 20
-35.08611
 11
-97.4008174597
 21
-34.620883
  0
LINE
  5
31B
100
AcDbEntity
  8
0
100
AcDbLine
 62
250
  6
CONTINUOUS
 10
-98.2458634597
 20
-34.590908
 11
-99.3006634597
 21
-34.983292
  0
LINE
  5
31C
100
AcDbEntity
  8
0
100
AcDbLine
 62
250
  6
CONTINUOUS
 10
-97.4008174597
 20
-31.999568
 11
-99.3006634597
 21
-32.582488
  0
LINE
  5
31D
100
AcDbEntity
  8
0
100
AcDbLine
 62
7
  6
CONTINUOUS
 10
-96.9185139008
 20
-44.2993619529
 11
-95.4193114597
 21
-43.1
  0
LINE
  5
31E
100
AcDbEntity
  8
ASSI
100
AcDbLine
 62
7
  6
CONTINUOUS
 10
-96.9185139008
 20
-44.2993619529
 11
-95.4193114597
 21
-43.1
  0
LINE
  5
31F
100
AcDbEntity
  8
0
100
AcDbLine
 62
250
  6
CONTINUOUS
 10
-99.3006634597
 20
-37.870764
 11
-97.4008174597
 21
-37.268476
  0
LWPOLYLINE
  5
320
100
AcDbEntity
  8
0
100
AcDbPolyline
 62
7
  6
CONTINUOUS
 90
13
 70
0
 43
0.3500000006
 10
-112.7228840332
 20
55.4642874298
 10
-113.0085997009
 20
55.6785719147
 10
-113.0085997009
 20
56.3214299011
 10
-112.7228840332
 20
56.7499988708
 10
-112.0800305786
 20
56.7499988708
 10
-111.7943149109
 20
56.3214299011
 10
-111.7943149109
 20
55.6785719147
 10
-112.0800305786
 20
55.4642874298
 10
-111.6514616089
 20
55.0357139282
 10
-111.6514616089
 20
54.1785714569
 10
-112.0800305786
 20
53.7499979553
 10
-112.7228840332
 20
53.7499979553
 10
-113.1514530029
 20
54.1785714569
  0
LINE
  5
321
100
AcDbEntity
  8
0
100
AcDbLine
 62
7
  6
CONTINUOUS
 10
-96.9193114597
 20
44.3
 11
-95.4193114597
 21
43.1
  0
LINE
  5
322
100
AcDbEntity
  8
ASSI
100
AcDbLine
 62
7
  6
CONTINUOUS
 10
-96.9193114597
 20
44.3
 11
-95.4193114597
 21
43.1
  0
LINE
  5
323
100
AcDbEntity
  8
RACCORDO
100
AcDbLine
 62
250
  6
CONTINUOUS
 10
-99.9693114597
 20
37.0
 11
-99.8193114597
 21
37.0
  0
LINE
  5
324
100
AcDbEntity
  8
RACCORDO
100
AcDbLine
 62
7
  6
CONTINUOUS
 10
-99.9693114597
 20
39.0
 11
-99.8193114597
 21
39.0
  0
LINE
  5
325
100
AcDbEntity
  8
SMUSSO
100
AcDbLine
 62
7
  6
CONTINUOUS
 10
-102.9693114597
 20
44.0
 11
-100.4693114597
 21
44.0
  0
LINE
  5
326
100
AcDbEntity
  8
SMUSSO
100
AcDbLine
 62
7
  6
CONTINUOUS
 10
-102.9693114597
 20
45.0
 11
-100.4693114597
 21
45.0
  0
LWPOLYLINE
  5
327
100
AcDbEntity
  8
0
100
AcDbPolyline
 62
7
  6
CONTINUOUS
 90
8
 70
0
 43
0.3500000006
 10
-109.0800296631
 20
53.7499979553
 10
-108.2228826599
 20
53.7499979553
 10
-107.7943136902
 20
54.1785714569
 10
-107.7943136902
 20
55.0357139282
 10
-108.2228826599
 20
55.4642874298
 10
-109.0800296631
 20
55.4642874298
 10
-109.0800296631
 20
56.7499988708
 10
-107.7943136902
 20
56.7499988708
  0
LWPOLYLINE
  5
328
100
AcDbEntity
  8
0
100
AcDbPolyline
 62
7
  6
CONTINUOUS
 90
8
 70
0
 43
0.3500000006
 10
-106.9371757507
 20
53.7499979553
 10
-106.0800287476
 20
53.7499979553
 10
-105.6514597778
 20
54.1785714569
 10
-105.6514597778
 20
55.0357139282
 10
-106.0800287476
 20
55.4642874298
 10
-106.9371757507
 20
55.4642874298
 10
-106.9371757507
 20
56.7499988708
 10
-105.6514597778
 20
56.7499988708
  0
LWPOLYLINE
  5
329
100
AcDbEntity
  8
0
100
AcDbPolyline
 62
7
  6
CONTINUOUS
 90
8
 70
0
 43
0.3500000006
 10
-109.2760507507
 20
63.7500010071
 10
-108.4189128113
 20
63.7500010071
 10
-107.9903438416
 20
64.1785699768
 10
-107.9903438416
 20
65.03571698
 10
-108.4189128113
 20
65.4642859497
 10
-109.2760507507
 20
65.4642859497
 10
-109.2760507507
 20
66.7500019226
 10
-107.9903438416
 20
66.7500019226
  0
LWPOLYLINE
  5
32A
100
AcDbEntity
  8
0
100
AcDbPolyline
 62
7
  6
CONTINUOUS
 90
8
 70
0
 43
0.3500000006
 10
-107.1331968384
 20
63.7500010071
 10
-106.2760498352
 20
63.7500010071
 10
-105.8474808655
 20
64.1785699768
 10
-105.8474808655
 20
65.03571698
 10
-106.2760498352
 20
65.4642859497
 10
-107.1331968384
 20
65.4642859497
 10
-107.1331968384
 20
66.7500019226
 10
-105.8474808655
 20
66.7500019226
  0
LINE
  5
32B
100
AcDbEntity
  8
0
100
AcDbLine
 62
250
  6
CONTINUOUS
 10
-99.8193114597
 20
43.3507719931
 11
-96.9193114597
 21
43.3001523048
  0
LINE
  5
32C
100
AcDbEntity
  8
ASSI
100
AcDbLine
 62
250
  6
CONTINUOUS
 10
-99.8193114597
 20
43.3507719931
 11
-96.9193114597
 21
43.3001523048
  0
LINE
  5
32D
100
AcDbEntity
  8
0
100
AcDbLine
 62
7
  6
CONTINUOUS
 10
-99.8193114597
 20
44.3506196883
 11
-96.9193114597
 21
44.3
  0
LINE
  5
32E
100
AcDbEntity
  8
ASSI
100
AcDbLine
 62
7
  6
CONTINUOUS
 10
-99.8193114597
 20
44.3506196883
 11
-96.9193114597
 21
44.3
  0
LINE
  5
32F
100
AcDbEntity
  8
0
100
AcDbLine
 62
250
  6
CONTINUOUS
 10
-96.9185139008
 20
43.3354659698
 11
-95.4193114597
 21
43.0384032275
  0
LINE
  5
330
100
AcDbEntity
  8
ASSI
100
AcDbLine
 62
250
  6
CONTINUOUS
 10
-96.9185139008
 20
43.3354659698
 11
-95.4193114597
 21
43.0384032275
  0
ARC
  5
331
100
AcDbEntity
  8
0
100
AcDbCircle
 62
7
  6
CONTINUOUS
 10
43.875
 20
21.4
 40
1.7
100
AcDbArc
 50
0.0
 51
90.0
  0
ARC
  5
332
100
AcDbEntity
  8
0
100
AcDbCircle
 62
7
  6
CONTINUOUS
 10
-43.925
 20
21.4
 40
1.7
100
AcDbArc
 50
90.0
 51
180.0
  0
ARC
  5
333
100
AcDbEntity
  8
0
100
AcDbCircle
 62
7
  6
CONTINUOUS
 10
-43.925
 20
-21.4
 40
1.7
100
AcDbArc
 50
180.0
 51
270.0
  0
ARC
  5
334
100
AcDbEntity
  8
0
100
AcDbCircle
 62
7
  6
CONTINUOUS
 10
43.875
 20
-21.4
 40
1.7
100
AcDbArc
 50
270.0
 51
360.0
  0
ARC
  5
335
100
AcDbEntity
  8
0
100
AcDbCircle
 62
7
  6
CONTINUOUS
 10
-43.925
 20
-21.4
 40
1.2
100
AcDbArc
 50
180.0
 51
270.0
  0
ARC
  5
336
100
AcDbEntity
  8
0
100
AcDbCircle
 62
7
  6
CONTINUOUS
 10
43.875
 20
-21.4
 40
1.2
100
AcDbArc
 50
270.0
 51
360.0
  0
ARC
  5
337
100
AcDbEntity
  8
0
100
AcDbCircle
 62
7
  6
CONTINUOUS
 10
43.875
 20
21.4
 40
1.2
100
AcDbArc
 50
0.0
 51
90.0
  0
ARC
  5
338
100
AcDbEntity
  8
0
100
AcDbCircle
 62
7
  6
CONTINUOUS
 10
-43.925
 20
21.4
 40
1.2
100
AcDbArc
 50
90.0
 51
180.0
  0
ARC
  5
339
100
AcDbEntity
  8
0
100
AcDbCircle
 62
7
  6
CONTINUOUS
 10
-94.4691870808
 20
-26.2
 40
1.0
100
AcDbArc
 50
84.2894068625
 51
90.0
  0
ARC
  5
33A
100
AcDbEntity
  8
ASSI
100
AcDbCircle
 62
7
  6
CONTINUOUS
 10
-94.4691870808
 20
-26.2
 40
1.0
100
AcDbArc
 50
84.2894068625
 51
90.0
  0
ARC
  5
33B
100
AcDbEntity
  8
0
100
AcDbCircle
 62
7
  6
CONTINUOUS
 10
-94.4939982748
 20
-26.8499995703
 40
0.3
100
AcDbArc
 50
270.0999999936
 51
297.9490718565
  0
ARC
  5
33C
100
AcDbEntity
  8
ASSI
100
AcDbCircle
 62
7
  6
CONTINUOUS
 10
-94.4939982748
 20
-26.8499995703
 40
0.3
100
AcDbArc
 50
270.0999999936
 51
297.9490718565
  0
ARC
  5
33D
100
AcDbEntity
  8
0
100
AcDbCircle
 62
7
  6
CONTINUOUS
 10
-94.4691870808
 20
26.2
 40
1.0
100
AcDbArc
 50
270.0
 51
275.7105931375
  0
ARC
  5
33E
100
AcDbEntity
  8
ASSI
100
AcDbCircle
 62
7
  6
CONTINUOUS
 10
-94.4691870808
 20
26.2
 40
1.0
100
AcDbArc
 50
270.0
 51
275.7105931375
  0
ARC
  5
33F
100
AcDbEntity
  8
0
100
AcDbCircle
 62
7
  6
CONTINUOUS
 10
-94.4939982748
 20
26.8499995703
 40
0.3
100
AcDbArc
 50
62.0509281435
 51
89.9000000064
  0
ARC
  5
340
100
AcDbEntity
  8
ASSI
100
AcDbCircle
 62
7
  6
CONTINUOUS
 10
-94.4939982748
 20
26.8499995703
 40
0.3
100
AcDbArc
 50
62.0509281435
 51
89.9000000064
  0
ARC
  5
341
100
AcDbEntity
  8
0
100
AcDbCircle
 62
7
  6
CONTINUOUS
 10
-92.9710075469
 20
-26.0415689373
 40
0.3
100
AcDbArc
 50
270.3333333333
 51
297.9601595792
  0
ARC
  5
342
100
AcDbEntity
  8
ASSI
100
AcDbCircle
 62
7
  6
CONTINUOUS
 10
-92.9710075469
 20
-26.0415689373
 40
0.3
100
AcDbArc
 50
270.3333333333
 51
297.9601595792
  0
ARC
  5
343
100
AcDbEntity
  8
0
100
AcDbCircle
 62
7
  6
CONTINUOUS
 10
-92.9710075469
 20
26.0415689373
 40
0.3
100
AcDbArc
 50
62.0398404207
 51
89.6666666667
  0
ARC
  5
344
100
AcDbEntity
  8
ASSI
100
AcDbCircle
 62
7
  6
CONTINUOUS
 10
-92.9710075469
 20
26.0415689373
 40
0.3
100
AcDbArc
 50
62.0398404207
 51
89.6666666667
  0
SPLINE
  5
345
100
AcDbEntity
  8
0
100
AcDbSpline
 62
250
  6
CONTINUOUS
 70
0
 71
3
 72
17
 73
13
 74
0
 42
0.0000001
 43
0.0000001
 44
0.0000000001
 40
0.0
 40
0.0
 40
0.0
 40
0.0
 40
0.2246664094
 40
0.4244159606
 40
0.5968698275
 40
0.740116107
 40
0.852966033
 40
0.9343261697
 40
0.9629605269
 40
0.9834868471
 40
0.9958490574
 40
1.0
 40
1.0
 40
1.0
 40
1.0
 10
-92.9692622275
 20
26.2536973817
 30
0.0
 10
-92.969239802
 20
26.2602777389
 30
0.0
 10
-92.9692005488
 20
26.2727082659
 30
0.0
 10
-92.9691535959
 20
26.2901918491
 30
0.0
 10
-92.9691291261
 20
26.3052846155
 30
0.0
 10
-92.9691077542
 20
26.3178494928
 30
0.0
 10
-92.9691421933
 20
26.3277000543
 30
0.0
 10
-92.9691041273
 20
26.3342971317
 30
0.0
 10
-92.9692112503
 20
26.3380251079
 30
0.0
 10
-92.9691040279
 20
26.3399838662
 30
0.0
 10
-92.9693577704
 20
26.3407901078
 30
0.0
 10
-92.96914065
 20
26.341563153
 30
0.0
 10
-92.9692622275
 20
26.3415638603
 30
0.0
  0
SPLINE
  5
346
100
AcDbEntity
  8
0
100
AcDbSpline
 62
250
  6
CONTINUOUS
 70
0
 71
3
 72
9
 73
5
 74
0
 42
0.0000001
 43
0.0000001
 44
0.0000000001
 40
0.0
 40
0.0
 40
0.0
 40
0.0
 40
0.4668693085
 40
1.0
 40
1.0
 40
1.0
 40
1.0
 10
-92.8303502984
 20
-26.3065510847
 30
0.0
 10
-92.8373616326
 20
-26.3102728259
 30
0.0
 10
-92.8544131641
 20
-26.3146669903
 30
0.0
 10
-92.8715760703
 20
-26.3121983173
 30
0.0
 10
-92.8803322037
 20
-26.3098541296
 30
0.0
  0
SPLINE
  5
347
100
AcDbEntity
  8
0
100
AcDbSpline
 62
250
  6
CONTINUOUS
 70
0
 71
3
 72
9
 73
5
 74
0
 42
0.0000001
 43
0.0000001
 44
0.0000000001
 40
0.0
 40
0.0
 40
0.0
 40
0.0
 40
0.2245927226
 40
1.0
 40
1.0
 40
1.0
 40
1.0
 10
-92.8803322037
 20
-26.3098541296
 30
0.0
 10
-92.8843054922
 20
-26.3087904027
 30
0.0
 10
-92.9017278313
 20
-26.3030445891
 30
0.0
 10
-92.9178752341
 20
-26.2939058981
 30
0.0
 10
-92.9296287666
 20
-26.2859359683
 30
0.0
  0
SPLINE
  5
348
100
AcDbEntity
  8
0
100
AcDbSpline
 62
250
  6
CONTINUOUS
 70
0
 71
3
 72
9
 73
5
 74
0
 42
0.0000001
 43
0.0000001
 44
0.0000000001
 40
0.0
 40
0.0
 40
0.0
 40
0.0
 40
0.2353640718
 40
1.0
 40
1.0
 40
1.0
 40
1.0
 10
-92.9296287666
 20
-26.2859359683
 30
0.0
 10
-92.9329482838
 20
-26.2836850433
 30
0.0
 10
-92.946817918
 20
-26.2737769764
 30
0.0
 10
-92.9597930732
 20
-26.2626477976
 30
0.0
 10
-92.9692622275
 20
-26.2536973817
 30
0.0
  0
SPLINE
  5
349
100
AcDbEntity
  8
0
100
AcDbSpline
 62
7
  6
CONTINUOUS
 70
0
 71
3
 72
9
 73
5
 74
0
 42
0.0000001
 43
0.0000001
 44
0.0000000001
 40
0.0
 40
0.0
 40
0.0
 40
0.0
 40
0.217121764
 40
1.0
 40
1.0
 40
1.0
 40
1.0
 10
-92.4193114597
 20
26.0463167932
 30
0.0
 10
-92.4193114597
 20
26.0430886465
 30
0.0
 10
-92.4207907945
 20
26.0282096445
 30
0.0
 10
-92.4268232
 20
26.0142388229
 30
0.0
 10
-92.4320213262
 20
26.003824239
 30
0.0
  0
SPLINE
  5
34A
100
AcDbEntity
  8
0
100
AcDbSpline
 62
7
  6
CONTINUOUS
 70
0
 71
3
 72
9
 73
5
 74
0
 42
0.0000001
 43
0.0000001
 44
0.0000000001
 40
0.0
 40
0.0
 40
0.0
 40
0.0
 40
0.2349008651
 40
1.0
 40
1.0
 40
1.0
 40
1.0
 10
-92.4320213262
 20
26.003824239
 30
0.0
 10
-92.4331120794
 20
26.001638886
 30
0.0
 10
-92.437895447
 20
25.9924052075
 30
0.0
 10
-92.4431056569
 20
25.9834002091
 30
0.0
 10
-92.4471703747
 20
25.9765617175
 30
0.0
  0
SPLINE
  5
34B
100
AcDbEntity
  8
0
100
AcDbSpline
 62
250
  6
CONTINUOUS
 70
0
 71
3
 72
9
 73
5
 74
0
 42
0.0000001
 43
0.0000001
 44
0.0000000001
 40
0.0
 40
0.0
 40
0.0
 40
0.0
 40
0.4668781052
 40
1.0
 40
1.0
 40
1.0
 40
1.0
 10
-92.8303502984
 20
26.3065510847
 30
0.0
 10
-92.8373604151
 20
26.3102721796
 30
0.0
 10
-92.8544082926
 20
26.3146662047
 30
0.0
 10
-92.8715680718
 20
26.3121995974
 30
0.0
 10
-92.8803225903
 20
26.3098567026
 30
0.0
  0
SPLINE
  5
34C
100
AcDbEntity
  8
0
100
AcDbSpline
 62
250
  6
CONTINUOUS
 70
0
 71
3
 72
9
 73
5
 74
0
 42
0.0000001
 43
0.0000001
 44
0.0000000001
 40
0.0
 40
0.0
 40
0.0
 40
0.0
 40
0.2245859035
 40
1.0
 40
1.0
 40
1.0
 40
1.0
 10
-92.8803225903
 20
26.3098567026
 30
0.0
 10
-92.8842968288
 20
26.3087931121
 30
0.0
 10
-92.9017238546
 20
26.303047083
 30
0.0
 10
-92.9178753353
 20
26.2939060753
 30
0.0
 10
-92.9296317353
 20
26.2859339556
 30
0.0
  0
SPLINE
  5
34D
100
AcDbEntity
  8
0
100
AcDbSpline
 62
250
  6
CONTINUOUS
 70
0
 71
3
 72
9
 73
5
 74
0
 42
0.0000001
 43
0.0000001
 44
0.0000000001
 40
0.0
 40
0.0
 40
0.0
 40
0.0
 40
0.2353654325
 40
1.0
 40
1.0
 40
1.0
 40
1.0
 10
-92.9296317353
 20
26.2859339556
 30
0.0
 10
-92.9329510071
 20
26.2836831278
 30
0.0
 10
-92.9468195526
 20
26.2737755928
 30
0.0
 10
-92.9597937534
 20
26.2626471547
 30
0.0
 10
-92.9692622275
 20
26.2536973817
 30
0.0
  0
SPLINE
  5
34E
100
AcDbEntity
  8
0
100
AcDbSpline
 62
250
  6
CONTINUOUS
 70
0
 71
3
 72
9
 73
5
 74
0
 42
0.0000001
 43
0.0000001
 44
0.0000000001
 40
0.0
 40
0.0
 40
0.0
 40
0.0
 40
0.5592333706
 40
1.0
 40
1.0
 40
1.0
 40
1.0
 10
-94.493538876
 20
-26.9276792439
 30
0.0
 10
-94.4773448382
 20
-26.9561522785
 30
0.0
 10
-94.4472555075
 20
-27.0064142167
 30
0.0
 10
-94.4144800052
 20
-27.0550683402
 30
0.0
 10
-94.3986899508
 20
-27.0754937408
 30
0.0
  0
SPLINE
  5
34F
100
AcDbEntity
  8
0
100
AcDbSpline
 62
250
  6
CONTINUOUS
 70
0
 71
3
 72
10
 73
6
 74
0
 42
0.0000001
 43
0.0000001
 44
0.0000000001
 40
0.0
 40
0.0
 40
0.0
 40
0.0
 40
0.6949908743
 40
0.8908703544
 40
1.0
 40
1.0
 40
1.0
 40
1.0
 10
-94.3986899508
 20
-27.0754937408
 30
0.0
 10
-94.3899267784
 20
-27.0868294399
 30
0.0
 10
-94.3778923399
 20
-27.1012271946
 30
0.0
 10
-94.3624328129
 20
-27.114235828
 30
0.0
 10
-94.3553945585
 20
-27.1160666395
 30
0.0
 10
-94.353405226
 20
-27.1150157961
 30
0.0
  0
SPLINE
  5
350
100
AcDbEntity
  8
0
100
AcDbSpline
 62
250
  6
CONTINUOUS
 70
0
 71
3
 72
9
 73
5
 74
0
 42
0.0000001
 43
0.0000001
 44
0.0000000001
 40
0.0
 40
0.0
 40
0.0
 40
0.0
 40
0.5597330227
 40
1.0
 40
1.0
 40
1.0
 40
1.0
 10
-94.493538876
 20
26.9276792439
 30
0.0
 10
-94.4772696929
 20
26.9562716877
 30
0.0
 10
-94.4470388258
 20
27.0066805762
 30
0.0
 10
-94.4141457405
 20
27.0554981847
 30
0.0
 10
-94.3982960479
 20
27.0759515001
 30
0.0
  0
SPLINE
  5
351
100
AcDbEntity
  8
0
100
AcDbSpline
 62
250
  6
CONTINUOUS
 70
0
 71
3
 72
10
 73
6
 74
0
 42
0.0000001
 43
0.0000001
 44
0.0000000001
 40
0.0
 40
0.0
 40
0.0
 40
0.0
 40
0.69493519
 40
0.8907926405
 40
1.0
 40
1.0
 40
1.0
 40
1.0
 10
-94.3982960479
 20
27.0759515001
 30
0.0
 10
-94.3896074587
 20
27.0871637337
 30
0.0
 10
-94.3776569265
 20
27.101386897
 30
0.0
 10
-94.3623506599
 20
27.1142598408
 30
0.0
 10
-94.3553722201
 20
27.1160645007
 30
0.0
 10
-94.353405226
 20
27.1150157961
 30
0.0
  0
SPLINE
  5
352
100
AcDbEntity
  8
0
100
AcDbSpline
 62
7
  6
CONTINUOUS
 70
0
 71
3
 72
9
 73
5
 74
0
 42
0.0000001
 43
0.0000001
 44
0.0000000001
 40
0.0
 40
0.0
 40
0.0
 40
0.0
 40
0.5701360036
 40
1.0
 40
1.0
 40
1.0
 40
1.0
 10
-92.4471703747
 20
-25.9765617175
 30
0.0
 10
-92.4398209641
 20
-25.9889263847
 30
0.0
 10
-92.4272208813
 20
-26.010636877
 30
0.0
 10
-92.4193114597
 20
-26.0354717416
 30
0.0
 10
-92.4193114597
 20
-26.0463167932
 30
0.0
  0
SPLINE
  5
353
100
AcDbEntity
  8
0
100
AcDbSpline
 62
7
  6
CONTINUOUS
 70
0
 71
3
 72
19
 73
15
 74
0
 42
0.0000001
 43
0.0000001
 44
0.0000000001
 40
0.0
 40
0.0
 40
0.0
 40
0.0
 40
0.0090672278
 40
0.0265243913
 40
0.0526393369
 40
0.0872796429
 40
0.1302007197
 40
0.1810383301
 40
0.2393720001
 40
0.30468747
 40
0.4539566183
 40
0.6236409282
 40
0.8078037869
 40
1.0
 40
1.0
 40
1.0
 40
1.0
 10
-96.9185139008
 20
-44.2993619529
 30
0.0
 10
-96.9162340418
 20
-44.2975380657
 30
0.0
 10
-96.913461602
 20
-44.2887330059
 30
0.0
 10
-96.9100418494
 20
-44.2725983932
 30
0.0
 10
-96.9071461192
 20
-44.2473235247
 30
0.0
 10
-96.9045545337
 20
-44.2141365829
 30
0.0
 10
-96.9025179151
 20
-44.1728009586
 30
0.0
 10
-96.9010211062
 20
-44.123861178
 30
0.0
 10
-96.9001268599
 20
-44.0676777335
 30
0.0
 10
-96.8997340074
 20
-43.9797992927
 30
0.0
 10
-96.9009755569
 20
-43.8560639419
 30
0.0
 10
-96.9047396407
 20
-43.6941016792
 30
0.0
 10
-96.9106470712
 20
-43.5183724557
 30
0.0
 10
-96.9157193231
 20
-43.3972899535
 30
0.0
 10
-96.9185139008
 20
-43.3354659698
 30
0.0
  0
SPLINE
  5
354
100
AcDbEntity
  8
0
100
AcDbSpline
 62
7
  6
CONTINUOUS
 70
0
 71
3
 72
19
 73
15
 74
0
 42
0.0000001
 43
0.0000001
 44
0.0000000001
 40
0.0
 40
0.0
 40
0.0
 40
0.0
 40
0.1921961277
 40
0.3763590266
 40
0.5460436262
 40
0.6953125325
 40
0.7606278794
 40
0.8189615056
 40
0.8697991861
 40
0.9127203772
 40
0.947360708
 40
0.9734756303
 40
0.9909327789
 40
1.0
 40
1.0
 40
1.0
 40
1.0
 10
-96.9185139008
 20
43.3354659698
 30
0.0
 10
-96.9157193243
 20
43.397289926
 30
0.0
 10
-96.9106470726
 20
43.5183724138
 30
0.0
 10
-96.9047396395
 20
43.694101716
 30
0.0
 10
-96.9009755547
 20
43.8560640071
 30
0.0
 10
-96.8997340101
 20
43.9797993338
 30
0.0
 10
-96.9001268566
 20
44.0676776429
 30
0.0
 10
-96.9010211024
 20
44.1238610564
 30
0.0
 10
-96.9025179175
 20
44.172800882
 30
0.0
 10
-96.9045545323
 20
44.214136574
 30
0.0
 10
-96.9071461195
 20
44.2473235533
 30
0.0
 10
-96.9100418542
 20
44.2725984163
 30
0.0
 10
-96.9134616018
 20
44.2887330165
 30
0.0
 10
-96.9162340435
 20
44.297538067
 30
0.0
 10
-96.9185139008
 20
44.2993619529
 30
0.0
  0
SPLINE
  5
355
100
AcDbEntity
  8
0
100
AcDbSpline
 62
250
  6
CONTINUOUS
 70
0
 71
3
 72
17
 73
13
 74
0
 42
0.0000001
 43
0.0000001
 44
0.0000000001
 40
0.0
 40
0.0
 40
0.0
 40
0.0
 40
0.0041509426
 40
0.0165131528
 40
0.0370394731
 40
0.0656738303
 40
0.147033967
 40
0.259883893
 40
0.4031301725
 40
0.5755840393
 40
0.7753335906
 40
1.0
 40
1.0
 40
1.0
 40
1.0
 10
-92.9692622275
 20
-26.3415638603
 30
0.0
 10
-92.96914065
 20
-26.341563153
 30
0.0
 10
-92.9693577704
 20
-26.3407901078
 30
0.0
 10
-92.9691040279
 20
-26.3399838662
 30
0.0
 10
-92.9692112503
 20
-26.3380251079
 30
0.0
 10
-92.9691041273
 20
-26.3342971317
 30
0.0
 10
-92.9691421933
 20
-26.3277000543
 30
0.0
 10
-92.9691077542
 20
-26.3178494928
 30
0.0
 10
-92.9691291261
 20
-26.3052846155
 30
0.0
 10
-92.9691535959
 20
-26.2901918491
 30
0.0
 10
-92.9692005488
 20
-26.2727082659
 30
0.0
 10
-92.969239802
 20
-26.2602777389
 30
0.0
 10
-92.9692622275
 20
-26.2536973817
 30
0.0
  0
SPLINE
  5
356
100
AcDbEntity
  8
ASSI
100
AcDbSpline
 62
7
  6
CONTINUOUS
 70
0
 71
3
 72
9
 73
5
 74
0
 42
0.0000001
 43
0.0000001
 44
0.0000000001
 40
0.0
 40
0.0
 40
0.0
 40
0.0
 40
0.5701360036
 40
1.0
 40
1.0
 40
1.0
 40
1.0
 10
-92.4471703747
 20
-25.9765617175
 30
0.0
 10
-92.4398209641
 20
-25.9889263847
 30
0.0
 10
-92.4272208813
 20
-26.010636877
 30
0.0
 10
-92.4193114597
 20
-26.0354717416
 30
0.0
 10
-92.4193114597
 20
-26.0463167932
 30
0.0
  0
SPLINE
  5
357
100
AcDbEntity
  8
ASSI
100
AcDbSpline
 62
250
  6
CONTINUOUS
 70
0
 71
3
 72
9
 73
5
 74
0
 42
0.0000001
 43
0.0000001
 44
0.0000000001
 40
0.0
 40
0.0
 40
0.0
 40
0.0
 40
0.5592333807
 40
1.0
 40
1.0
 40
1.0
 40
1.0
 10
-94.493538876
 20
-26.9276792439
 30
0.0
 10
-94.4773448368
 20
-26.956152281
 30
0.0
 10
-94.4472555038
 20
-27.0064142228
 30
0.0
 10
-94.4144799988
 20
-27.0550683495
 30
0.0
 10
-94.3986899432
 20
-27.0754937506
 30
0.0
  0
SPLINE
  5
358
100
AcDbEntity
  8
ASSI
100
AcDbSpline
 62
250
  6
CONTINUOUS
 70
0
 71
3
 72
10
 73
6
 74
0
 42
0.0000001
 43
0.0000001
 44
0.0000000001
 40
0.0
 40
0.0
 40
0.0
 40
0.0
 40
0.6949908683
 40
0.8908703485
 40
1.0
 40
1.0
 40
1.0
 40
1.0
 10
-94.3986899432
 20
-27.0754937506
 30
0.0
 10
-94.3899267723
 20
-27.0868294472
 30
0.0
 10
-94.377892336
 20
-27.1012271985
 30
0.0
 10
-94.3624328114
 20
-27.1142358287
 30
0.0
 10
-94.3553945583
 20
-27.1160666393
 30
0.0
 10
-94.353405226
 20
-27.1150157961
 30
0.0
  0
SPLINE
  5
359
100
AcDbEntity
  8
ASSI
100
AcDbSpline
 62
250
  6
CONTINUOUS
 70
0
 71
3
 72
9
 73
5
 74
0
 42
0.0000001
 43
0.0000001
 44
0.0000000001
 40
0.0
 40
0.0
 40
0.0
 40
0.0
 40
0.4668781054
 40
1.0
 40
1.0
 40
1.0
 40
1.0
 10
-92.8303502984
 20
26.3065510847
 30
0.0
 10
-92.837360415
 20
26.3102721796
 30
0.0
 10
-92.8544082924
 20
26.3146662047
 30
0.0
 10
-92.8715680716
 20
26.3121995975
 30
0.0
 10
-92.88032259
 20
26.3098567027
 30
0.0
  0
SPLINE
  5
35A
100
AcDbEntity
  8
ASSI
100
AcDbSpline
 62
250
  6
CONTINUOUS
 70
0
 71
3
 72
9
 73
5
 74
0
 42
0.0000001
 43
0.0000001
 44
0.0000000001
 40
0.0
 40
0.0
 40
0.0
 40
0.0
 40
0.2245859034
 40
1.0
 40
1.0
 40
1.0
 40
1.0
 10
-92.88032259
 20
26.3098567027
 30
0.0
 10
-92.8842968285
 20
26.3087931122
 30
0.0
 10
-92.9017238544
 20
26.3030470831
 30
0.0
 10
-92.9178753351
 20
26.2939060754
 30
0.0
 10
-92.9296317351
 20
26.2859339557
 30
0.0
  0
SPLINE
  5
35B
100
AcDbEntity
  8
ASSI
100
AcDbSpline
 62
250
  6
CONTINUOUS
 70
0
 71
3
 72
9
 73
5
 74
0
 42
0.0000001
 43
0.0000001
 44
0.0000000001
 40
0.0
 40
0.0
 40
0.0
 40
0.0
 40
0.2353654324
 40
1.0
 40
1.0
 40
1.0
 40
1.0
 10
-92.9296317351
 20
26.2859339557
 30
0.0
 10
-92.9329510069
 20
26.2836831279
 30
0.0
 10
-92.9468195525
 20
26.2737755929
 30
0.0
 10
-92.9597937533
 20
26.2626471548
 30
0.0
 10
-92.9692622275
 20
26.2536973817
 30
0.0
  0
SPLINE
  5
35C
100
AcDbEntity
  8
ASSI
100
AcDbSpline
 62
7
  6
CONTINUOUS
 70
0
 71
3
 72
9
 73
5
 74
0
 42
0.0000001
 43
0.0000001
 44
0.0000000001
 40
0.0
 40
0.0
 40
0.0
 40
0.0
 40
0.217121764
 40
1.0
 40
1.0
 40
1.0
 40
1.0
 10
-92.4193114597
 20
26.0463167932
 30
0.0
 10
-92.4193114597
 20
26.0430886465
 30
0.0
 10
-92.4207907945
 20
26.0282096444
 30
0.0
 10
-92.4268232
 20
26.0142388229
 30
0.0
 10
-92.4320213262
 20
26.0038242389
 30
0.0
  0
SPLINE
  5
35D
100
AcDbEntity
  8
ASSI
100
AcDbSpline
 62
7
  6
CONTINUOUS
 70
0
 71
3
 72
9
 73
5
 74
0
 42
0.0000001
 43
0.0000001
 44
0.0000000001
 40
0.0
 40
0.0
 40
0.0
 40
0.0
 40
0.2349008651
 40
1.0
 40
1.0
 40
1.0
 40
1.0
 10
-92.4320213262
 20
26.0038242389
 30
0.0
 10
-92.4331120794
 20
26.0016388859
 30
0.0
 10
-92.437895447
 20
25.9924052075
 30
0.0
 10
-92.4431056569
 20
25.9834002091
 30
0.0
 10
-92.4471703747
 20
25.9765617175
 30
0.0
  0
SPLINE
  5
35E
100
AcDbEntity
  8
ASSI
100
AcDbSpline
 62
7
  6
CONTINUOUS
 70
0
 71
3
 72
19
 73
15
 74
0
 42
0.0000001
 43
0.0000001
 44
0.0000000001
 40
0.0
 40
0.0
 40
0.0
 40
0.0
 40
0.0090672278
 40
0.0265243913
 40
0.0526393369
 40
0.0872796429
 40
0.1302007197
 40
0.1810383301
 40
0.2393720001
 40
0.30468747
 40
0.4539566183
 40
0.6236409282
 40
0.8078037869
 40
1.0
 40
1.0
 40
1.0
 40
1.0
 10
-96.9185139008
 20
-44.2993619529
 30
0.0
 10
-96.9162340418
 20
-44.2975380657
 30
0.0
 10
-96.913461602
 20
-44.2887330059
 30
0.0
 10
-96.9100418494
 20
-44.2725983932
 30
0.0
 10
-96.9071461192
 20
-44.2473235247
 30
0.0
 10
-96.9045545337
 20
-44.2141365829
 30
0.0
 10
-96.9025179151
 20
-44.1728009586
 30
0.0
 10
-96.9010211062
 20
-44.123861178
 30
0.0
 10
-96.9001268599
 20
-44.0676777335
 30
0.0
 10
-96.8997340074
 20
-43.9797992927
 30
0.0
 10
-96.9009755569
 20
-43.8560639419
 30
0.0
 10
-96.9047396407
 20
-43.6941016792
 30
0.0
 10
-96.9106470712
 20
-43.5183724557
 30
0.0
 10
-96.9157193231
 20
-43.3972899535
 30
0.0
 10
-96.9185139008
 20
-43.3354659698
 30
0.0
  0
SPLINE
  5
35F
100
AcDbEntity
  8
ASSI
100
AcDbSpline
 62
7
  6
CONTINUOUS
 70
0
 71
3
 72
19
 73
15
 74
0
 42
0.0000001
 43
0.0000001
 44
0.0000000001
 40
0.0
 40
0.0
 40
0.0
 40
0.0
 40
0.1921961277
 40
0.3763590266
 40
0.5460436262
 40
0.6953125325
 40
0.7606278794
 40
0.8189615056
 40
0.8697991861
 40
0.9127203772
 40
0.947360708
 40
0.9734756303
 40
0.9909327789
 40
1.0
 40
1.0
 40
1.0
 40
1.0
 10
-96.9185139008
 20
43.3354659698
 30
0.0
 10
-96.9157193243
 20
43.397289926
 30
0.0
 10
-96.9106470726
 20
43.5183724138
 30
0.0
 10
-96.9047396395
 20
43.694101716
 30
0.0
 10
-96.9009755547
 20
43.8560640071
 30
0.0
 10
-96.8997340101
 20
43.9797993338
 30
0.0
 10
-96.9001268566
 20
44.0676776429
 30
0.0
 10
-96.9010211024
 20
44.1238610564
 30
0.0
 10
-96.9025179175
 20
44.172800882
 30
0.0
 10
-96.9045545323
 20
44.214136574
 30
0.0
 10
-96.9071461195
 20
44.2473235533
 30
0.0
 10
-96.9100418542
 20
44.2725984163
 30
0.0
 10
-96.9134616018
 20
44.2887330165
 30
0.0
 10
-96.9162340435
 20
44.297538067
 30
0.0
 10
-96.9185139008
 20
44.2993619529
 30
0.0
  0
SPLINE
  5
360
100
AcDbEntity
  8
ASSI
100
AcDbSpline
 62
250
  6
CONTINUOUS
 70
0
 71
3
 72
9
 73
5
 74
0
 42
0.0000001
 43
0.0000001
 44
0.0000000001
 40
0.0
 40
0.0
 40
0.0
 40
0.0
 40
0.5597330188
 40
1.0
 40
1.0
 40
1.0
 40
1.0
 10
-94.493538876
 20
26.9276792439
 30
0.0
 10
-94.4772696934
 20
26.9562716869
 30
0.0
 10
-94.4470388271
 20
27.0066805742
 30
0.0
 10
-94.4141457427
 20
27.0554981816
 30
0.0
 10
-94.3982960504
 20
27.0759514968
 30
0.0
  0
SPLINE
  5
361
100
AcDbEntity
  8
ASSI
100
AcDbSpline
 62
250
  6
CONTINUOUS
 70
0
 71
3
 72
10
 73
6
 74
0
 42
0.0000001
 43
0.0000001
 44
0.0000000001
 40
0.0
 40
0.0
 40
0.0
 40
0.0
 40
0.6949351929
 40
0.890792643
 40
1.0
 40
1.0
 40
1.0
 40
1.0
 10
-94.3982960504
 20
27.0759514968
 30
0.0
 10
-94.3896074607
 20
27.0871637313
 30
0.0
 10
-94.3776569277
 20
27.1013868957
 30
0.0
 10
-94.3623506604
 20
27.1142598405
 30
0.0
 10
-94.3553722202
 20
27.1160645008
 30
0.0
 10
-94.353405226
 20
27.1150157961
 30
0.0
  0
SPLINE
  5
362
100
AcDbEntity
  8
ASSI
100
AcDbSpline
 62
250
  6
CONTINUOUS
 70
0
 71
3
 72
17
 73
13
 74
0
 42
0.0000001
 43
0.0000001
 44
0.0000000001
 40
0.0
 40
0.0
 40
0.0
 40
0.0
 40
0.0041509426
 40
0.0165131528
 40
0.0370394731
 40
0.0656738303
 40
0.147033967
 40
0.259883893
 40
0.4031301725
 40
0.5755840393
 40
0.7753335906
 40
1.0
 40
1.0
 40
1.0
 40
1.0
 10
-92.9692622275
 20
-26.3415638603
 30
0.0
 10
-92.96914065
 20
-26.341563153
 30
0.0
 10
-92.9693577704
 20
-26.3407901078
 30
0.0
 10
-92.9691040279
 20
-26.3399838662
 30
0.0
 10
-92.9692112503
 20
-26.3380251079
 30
0.0
 10
-92.9691041273
 20
-26.3342971317
 30
0.0
 10
-92.9691421933
 20
-26.3277000543
 30
0.0
 10
-92.9691077542
 20
-26.3178494928
 30
0.0
 10
-92.9691291261
 20
-26.3052846155
 30
0.0
 10
-92.9691535959
 20
-26.2901918491
 30
0.0
 10
-92.9692005488
 20
-26.2727082659
 30
0.0
 10
-92.969239802
 20
-26.2602777389
 30
0.0
 10
-92.9692622275
 20
-26.2536973817
 30
0.0
  0
SPLINE
  5
363
100
AcDbEntity
  8
ASSI
100
AcDbSpline
 62
250
  6
CONTINUOUS
 70
0
 71
3
 72
17
 73
13
 74
0
 42
0.0000001
 43
0.0000001
 44
0.0000000001
 40
0.0
 40
0.0
 40
0.0
 40
0.0
 40
0.2246664094
 40
0.4244159606
 40
0.5968698275
 40
0.740116107
 40
0.852966033
 40
0.9343261697
 40
0.9629605269
 40
0.9834868471
 40
0.9958490574
 40
1.0
 40
1.0
 40
1.0
 40
1.0
 10
-92.9692622275
 20
26.2536973817
 30
0.0
 10
-92.969239802
 20
26.2602777389
 30
0.0
 10
-92.9692005488
 20
26.2727082659
 30
0.0
 10
-92.9691535959
 20
26.2901918491
 30
0.0
 10
-92.9691291261
 20
26.3052846155
 30
0.0
 10
-92.9691077542
 20
26.3178494928
 30
0.0
 10
-92.9691421933
 20
26.3277000543
 30
0.0
 10
-92.9691041273
 20
26.3342971317
 30
0.0
 10
-92.9692112503
 20
26.3380251079
 30
0.0
 10
-92.9691040279
 20
26.3399838662
 30
0.0
 10
-92.9693577704
 20
26.3407901078
 30
0.0
 10
-92.96914065
 20
26.341563153
 30
0.0
 10
-92.9692622275
 20
26.3415638603
 30
0.0
  0
SPLINE
  5
364
100
AcDbEntity
  8
ASSI
100
AcDbSpline
 62
250
  6
CONTINUOUS
 70
0
 71
3
 72
9
 73
5
 74
0
 42
0.0000001
 43
0.0000001
 44
0.0000000001
 40
0.0
 40
0.0
 40
0.0
 40
0.0
 40
0.4668693085
 40
1.0
 40
1.0
 40
1.0
 40
1.0
 10
-92.8303502984
 20
-26.3065510847
 30
0.0
 10
-92.8373616326
 20
-26.3102728259
 30
0.0
 10
-92.8544131641
 20
-26.3146669903
 30
0.0
 10
-92.8715760703
 20
-26.3121983173
 30
0.0
 10
-92.8803322037
 20
-26.3098541296
 30
0.0
  0
SPLINE
  5
365
100
AcDbEntity
  8
ASSI
100
AcDbSpline
 62
250
  6
CONTINUOUS
 70
0
 71
3
 72
9
 73
5
 74
0
 42
0.0000001
 43
0.0000001
 44
0.0000000001
 40
0.0
 40
0.0
 40
0.0
 40
0.0
 40
0.2245927225
 40
1.0
 40
1.0
 40
1.0
 40
1.0
 10
-92.8803322037
 20
-26.3098541296
 30
0.0
 10
-92.8843054922
 20
-26.3087904027
 30
0.0
 10
-92.9017278313
 20
-26.3030445891
 30
0.0
 10
-92.9178752341
 20
-26.2939058981
 30
0.0
 10
-92.9296287666
 20
-26.2859359683
 30
0.0
  0
SPLINE
  5
366
100
AcDbEntity
  8
ASSI
100
AcDbSpline
 62
250
  6
CONTINUOUS
 70
0
 71
3
 72
9
 73
5
 74
0
 42
0.0000001
 43
0.0000001
 44
0.0000000001
 40
0.0
 40
0.0
 40
0.0
 40
0.0
 40
0.2353640718
 40
1.0
 40
1.0
 40
1.0
 40
1.0
 10
-92.9296287666
 20
-26.2859359683
 30
0.0
 10
-92.9329482838
 20
-26.2836850433
 30
0.0
 10
-92.946817918
 20
-26.2737769764
 30
0.0
 10
-92.9597930732
 20
-26.2626477976
 30
0.0
 10
-92.9692622275
 20
-26.2536973817
 30
0.0
  0
SPLINE
  5
367
100
AcDbEntity
  8
0
100
AcDbSpline
 62
250
  6
CONTINUOUS
 70
0
 71
3
 72
10
 73
6
 74
0
 42
0.0000001
 43
0.0000001
 44
0.0000000001
 40
0.0
 40
0.0
 40
0.0
 40
0.0
 40
0.3333333333
 40
0.6666666667
 40
1.0
 40
1.0
 40
1.0
 40
1.0
 10
-97.9149846799
 20
-30.6349473604
 30
0.0
 10
-97.8558991868
 20
-30.6188500222
 30
0.0
 10
-97.7389036498
 20
-30.5878245787
 30
0.0
 10
-97.5674541914
 20
-30.5432671151
 30
0.0
 10
-97.4557959515
 20
-30.5143183833
 30
0.0
 10
-97.4008177137
 20
-30.4993864496
 30
0.0
  0
SPLINE
  5
368
100
AcDbEntity
  8
0
100
AcDbSpline
 62
250
  6
CONTINUOUS
 70
0
 71
3
 72
16
 73
12
 74
0
 42
0.0000001
 43
0.0000001
 44
0.0000000001
 40
0.0
 40
0.0
 40
0.0
 40
0.0
 40
0.1111111111
 40
0.2222222222
 40
0.3333333333
 40
0.4444444444
 40
0.5555555556
 40
0.6666666667
 40
0.7777777778
 40
0.8888888889
 40
1.0
 40
1.0
 40
1.0
 40
1.0
 10
-98.2876488355
 20
-30.8635473914
 30
0.0
 10
-98.2816561153
 20
-30.848518626
 30
0.0
 10
-98.2665148891
 20
-30.8203934484
 30
0.0
 10
-98.2349335357
 20
-30.7826785751
 30
0.0
 10
-98.1982038735
 20
-30.7511767024
 30
0.0
 10
-98.1578994322
 20
-30.7245431091
 30
0.0
 10
-98.1162498482
 20
-30.7024600154
 30
0.0
 10
-98.0722422188
 20
-30.6832250559
 30
0.0
 10
-98.0250590862
 20
-30.6660726213
 30
0.0
 10
-97.9734532213
 20
-30.6505796755
 30
0.0
 10
-97.9350023089
 20
-30.6404009928
 30
0.0
 10
-97.9149846798
 20
-30.6349473606
 30
0.0
  0
SPLINE
  5
369
100
AcDbEntity
  8
0
100
AcDbSpline
 62
250
  6
CONTINUOUS
 70
0
 71
3
 72
30
 73
26
 74
0
 42
0.0000001
 43
0.0000001
 44
0.0000000001
 40
0.0
 40
0.0
 40
0.0
 40
0.0
 40
0.0526315789
 40
0.1052631579
 40
0.1578947368
 40
0.2105263158
 40
0.2631578947
 40
0.3157894737
 40
0.3684210526
 40
0.4210526316
 40
0.4736842105
 40
0.5263157895
 40
0.5789473684
 40
0.6315789474
 40
0.6842105263
 40
0.7368421053
 40
0.7894736842
 40
0.8157894737
 40
0.8421052632
 40
0.8684210526
 40
0.8947368421
 40
0.9210526316
 40
0.9473684211
 40
0.9736842105
 40
1.0
 40
1.0
 40
1.0
 40
1.0
 10
-99.2584644943
 20
-30.9044355375
 30
0.0
 10
-99.2497324139
 20
-30.8802304233
 30
0.0
 10
-99.2251503067
 20
-30.8315481891
 30
0.0
 10
-99.164298682
 20
-30.7525144759
 30
0.0
 10
-99.0844538882
 20
-30.6840904092
 30
0.0
 10
-98.9902238382
 20
-30.6331914228
 30
0.0
 10
-98.8958564968
 20
-30.6050823899
 30
0.0
 10
-98.8061287798
 20
-30.5940370904
 30
0.0
 10
-98.726364402
 20
-30.5944380127
 30
0.0
 10
-98.6556206779
 20
-30.6034929447
 30
0.0
 10
-98.5935066898
 20
-30.6190432002
 30
0.0
 10
-98.5386313905
 20
-30.6395270972
 30
0.0
 10
-98.4913435673
 20
-30.6630032997
 30
0.0
 10
-98.4506348235
 20
-30.6884696217
 30
0.0
 10
-98.4162336404
 20
-30.71499597
 30
0.0
 10
-98.3872427971
 20
-30.7419744336
 30
0.0
 10
-98.3666122698
 20
-30.7638315978
 30
0.0
 10
-98.3517397505
 20
-30.7806276012
 30
0.0
 10
-98.3412636363
 20
-30.7928770475
 30
0.0
 10
-98.3314569393
 20
-30.8046647128
 30
0.0
 10
-98.322131316
 20
-30.8160645861
 30
0.0
 10
-98.3134837324
 20
-30.8277611775
 30
0.0
 10
-98.3063872056
 20
-30.8395386124
 30
0.0
 10
-98.3012918872
 20
-30.8513896524
 30
0.0
 10
-98.2994000513
 20
-30.8594803151
 30
0.0
 10
-98.2988752672
 20
-30.8635473914
 30
0.0
  0
SPLINE
  5
36A
100
AcDbEntity
  8
0
100
AcDbSpline
 62
250
  6
CONTINUOUS
 70
0
 71
3
 72
15
 73
11
 74
0
 42
0.0000001
 43
0.0000001
 44
0.0000000001
 40
0.0
 40
0.0
 40
0.0
 40
0.0
 40
0.125
 40
0.25
 40
0.375
 40
0.5
 40
0.625
 40
0.75
 40
0.875
 40
1.0
 40
1.0
 40
1.0
 40
1.0
 10
-99.2784669184
 20
-31.8831153973
 30
0.0
 10
-99.2857315216
 20
-31.8337356397
 30
0.0
 10
-99.2991565461
 20
-31.7385234656
 30
0.0
 10
-99.3142203215
 20
-31.6075917054
 30
0.0
 10
-99.3239055337
 20
-31.4839816252
 30
0.0
 10
-99.3276641949
 20
-31.3652378093
 30
0.0
 10
-99.324643781
 20
-31.2480323109
 30
0.0
 10
-99.3135077625
 20
-31.1317081594
 30
0.0
 10
-99.2927520579
 20
-31.0167178839
 30
0.0
 10
-99.2718158228
 20
-30.9413914567
 30
0.0
 10
-99.2584644943
 20
-30.9044355375
 30
0.0
  0
SPLINE
  5
36B
100
AcDbEntity
  8
0
100
AcDbSpline
 62
250
  6
CONTINUOUS
 70
0
 71
3
 72
17
 73
13
 74
0
 42
0.0000001
 43
0.0000001
 44
0.0000000001
 40
0.0
 40
0.0
 40
0.0
 40
0.0
 40
0.1
 40
0.2
 40
0.3
 40
0.4
 40
0.5
 40
0.6
 40
0.7
 40
0.8
 40
0.9
 40
1.0
 40
1.0
 40
1.0
 40
1.0
 10
-97.9771124466
 20
-31.0543291296
 30
0.0
 10
-97.9871782603
 20
-31.0581148261
 30
0.0
 10
-98.0063231376
 20
-31.0665102478
 30
0.0
 10
-98.0335527228
 20
-31.0818650113
 30
0.0
 10
-98.0587697435
 20
-31.0997786957
 30
0.0
 10
-98.0814225847
 20
-31.1199600551
 30
0.0
 10
-98.1010222446
 20
-31.1421589652
 30
0.0
 10
-98.1172687334
 20
-31.1662411407
 30
0.0
 10
-98.1298618549
 20
-31.1926619461
 30
0.0
 10
-98.1384372937
 20
-31.2203577383
 30
0.0
 10
-98.1432601086
 20
-31.2479560103
 30
0.0
 10
-98.1443123762
 20
-31.2661898481
 30
0.0
 10
-98.1443123762
 20
-31.2755061485
 30
0.0
  0
SPLINE
  5
36C
100
AcDbEntity
  8
0
100
AcDbSpline
 62
250
  6
CONTINUOUS
 70
0
 71
3
 72
12
 73
8
 74
0
 42
0.0000001
 43
0.0000001
 44
0.0000000001
 40
0.0
 40
0.0
 40
0.0
 40
0.0
 40
0.1666666667
 40
0.3333333333
 40
0.5
 40
0.6666666667
 40
1.0
 40
1.0
 40
1.0
 40
1.0
 10
-97.4008177137
 20
-30.8808429347
 30
0.0
 10
-97.4357400314
 20
-30.8908832413
 30
0.0
 10
-97.5045719584
 20
-30.9110370935
 30
0.0
 10
-97.6049521576
 20
-30.9406245674
 30
0.0
 10
-97.7028348338
 20
-30.9685207466
 30
0.0
 10
-97.8297152774
 20
-31.0043108366
 30
0.0
 10
-97.9198825203
 20
-31.032822118
 30
0.0
 10
-97.9770725858
 20
-31.0543141626
 30
0.0
  0
SPLINE
  5
36D
100
AcDbEntity
  8
0
100
AcDbSpline
 62
250
  6
CONTINUOUS
 70
0
 71
3
 72
12
 73
8
 74
0
 42
0.0000001
 43
0.0000001
 44
0.0000000001
 40
0.0
 40
0.0
 40
0.0
 40
0.0
 40
0.3333333333
 40
0.5
 40
0.6666666667
 40
0.8333333333
 40
1.0
 40
1.0
 40
1.0
 40
1.0
 10
-98.9881911329
 20
-31.1906232473
 30
0.0
 10
-98.9921440811
 20
-31.2246830758
 30
0.0
 10
-98.9954513374
 20
-31.2759901586
 30
0.0
 10
-98.9947007157
 20
-31.3445290963
 30
0.0
 10
-98.9915565199
 20
-31.3961981466
 30
0.0
 10
-98.9855811739
 20
-31.4485338436
 30
0.0
 10
-98.9800227959
 20
-31.483607934
 30
0.0
 10
-98.9770058829
 20
-31.5012884969
 30
0.0
  0
SPLINE
  5
36E
100
AcDbEntity
  8
0
100
AcDbSpline
 62
250
  6
CONTINUOUS
 70
0
 71
3
 72
19
 73
15
 74
0
 42
0.0000001
 43
0.0000001
 44
0.0000000001
 40
0.0
 40
0.0
 40
0.0
 40
0.0
 40
0.1
 40
0.2
 40
0.25
 40
0.3
 40
0.4
 40
0.5
 40
0.6
 40
0.7
 40
0.75
 40
0.8
 40
0.9
 40
1.0
 40
1.0
 40
1.0
 40
1.0
 10
-98.7505921063
 20
-30.9665924606
 30
0.0
 10
-98.7620777492
 20
-30.9667667467
 30
0.0
 10
-98.7843359184
 20
-30.9688102193
 30
0.0
 10
-98.8120740519
 20
-30.9752803747
 30
0.0
 10
-98.8337401416
 20
-30.9827558599
 30
0.0
 10
-98.8550814837
 20
-30.9918071127
 30
0.0
 10
-98.8805285877
 20
-31.0058755004
 30
0.0
 10
-98.909080389
 20
-31.027705447
 30
0.0
 10
-98.9338232239
 20
-31.0542444911
 30
0.0
 10
-98.9507562478
 20
-31.0792424387
 30
0.0
 10
-98.9622759455
 20
-31.1009230929
 30
0.0
 10
-98.9722821458
 20
-31.1233889436
 30
0.0
 10
-98.9820293238
 20
-31.153023637
 30
0.0
 10
-98.9866893522
 20
-31.1776810371
 30
0.0
 10
-98.9881915227
 20
-31.190626605
 30
0.0
  0
SPLINE
  5
36F
100
AcDbEntity
  8
0
100
AcDbSpline
 62
250
  6
CONTINUOUS
 70
0
 71
3
 72
17
 73
13
 74
0
 42
0.0000001
 43
0.0000001
 44
0.0000000001
 40
0.0
 40
0.0
 40
0.0
 40
0.0
 40
0.1428571429
 40
0.2857142857
 40
0.3571428571
 40
0.4285714286
 40
0.5
 40
0.5714285714
 40
0.6428571429
 40
0.7142857143
 40
0.8571428571
 40
1.0
 40
1.0
 40
1.0
 40
1.0
 10
-98.4554611954
 20
-31.2746513441
 30
0.0
 10
-98.4560689235
 20
-31.2474425565
 30
0.0
 10
-98.4607466031
 20
-31.1966571089
 30
0.0
 10
-98.4740349803
 20
-31.1437578651
 30
0.0
 10
-98.4901331813
 20
-31.1050561055
 30
0.0
 10
-98.5051673147
 20
-31.0783891201
 30
0.0
 10
-98.5241980166
 20
-31.0535461768
 30
0.0
 10
-98.5472366595
 20
-31.0317383098
 30
0.0
 10
-98.573788839
 20
-31.0128135785
 30
0.0
 10
-98.6135725317
 20
-30.9914507378
 30
0.0
 10
-98.6701091705
 20
-30.9723930975
 30
0.0
 10
-98.7225926797
 20
-30.9661649981
 30
0.0
 10
-98.7506442551
 20
-30.9665932672
 30
0.0
  0
ELLIPSE
  5
370
100
AcDbEntity
  8
0
100
AcDbEllipse
 62
7
  6
CONTINUOUS
 10
-92.6193114597
 20
-26.079798695
 30
0.0
 11
0.1417119467
 21
0.1422961243
 31
0.0
 40
0.9918061237
 41
-0.2491986107
 42
0.7350951877
  0
ELLIPSE
  5
371
100
AcDbEntity
  8
0
100
AcDbEllipse
 62
7
  6
CONTINUOUS
 10
-95.6412349133
 20
43.2775387629
 30
0.0
 11
1.2772653435
 21
-0.0582277698
 31
0.0
 40
0.7819142031
 41
-3.1412917057
 42
-3.1059619589
  0
ELLIPSE
  5
372
100
AcDbEntity
  8
0
100
AcDbEllipse
 62
7
  6
CONTINUOUS
 10
-95.6412349133
 20
-43.2775387629
 30
0.0
 11
1.2772653435
 21
0.0582277698
 31
0.0
 40
0.7819142031
 41
3.1059619589
 42
3.1412917057
  0
ELLIPSE
  5
373
100
AcDbEntity
  8
0
100
AcDbEllipse
 62
7
  6
CONTINUOUS
 10
-92.6193114597
 20
26.079798695
 30
0.0
 11
-0.1417119467
 21
0.1422961243
 31
0.0
 40
0.9918061237
 41
-3.8766878413
 42
-2.8923940429
  0
ELLIPSE
  5
374
100
AcDbEntity
  8
ASSI
100
AcDbEllipse
 62
7
  6
CONTINUOUS
 10
-92.6193114597
 20
-26.079798695
 30
0.0
 11
0.1417119467
 21
0.1422961243
 31
0.0
 40
0.9918061237
 41
-0.2491986107
 42
0.7350951877
  0
ELLIPSE
  5
375
100
AcDbEntity
  8
ASSI
100
AcDbEllipse
 62
7
  6
CONTINUOUS
 10
-92.6193114597
 20
26.079798695
 30
0.0
 11
-0.1417119467
 21
0.1422961243
 31
0.0
 40
0.9918061237
 41
-3.8766878413
 42
-2.8923940429
  0
ELLIPSE
  5
376
100
AcDbEntity
  8
ASSI
100
AcDbEllipse
 62
7
  6
CONTINUOUS
 10
-95.6412349133
 20
43.2775387629
 30
0.0
 11
1.2772653435
 21
-0.0582277698
 31
0.0
 40
0.7819142031
 41
-3.1412917057
 42
-3.1059619589
  0
ELLIPSE
  5
377
100
AcDbEntity
  8
ASSI
100
AcDbEllipse
 62
7
  6
CONTINUOUS
 10
-95.6412349133
 20
-43.2775387629
 30
0.0
 11
1.2772653435
 21
0.0582277698
 31
0.0
 40
0.7819142031
 41
3.1059619589
 42
3.1412917057
  0
ENDSEC
  0
SECTION
  2
OBJECTS
  0
DICTIONARY
  5
C
100
AcDbDictionary
280
0
281
1
  3
ACAD_GROUP
350
D
  3
ACAD_MLINESTYLE
350
17
  3
ACAD_LAYOUT
350
1A
  3
ACAD_PLOTSETTINGS
350
19
  3
ACAD_PLOTSTYLENAME
350
E
  0
DICTIONARY
  5
D
102
{ACAD_REACTORS
330
C
102
}
100
AcDbDictionary
280
0
281
1
  0
ACDBDICTIONARYWDFLT
  5
E
102
{ACAD_REACTORS
330
C
102
}
100
AcDbDictionary
281
1
  3
Normal
350
F
100
AcDbDictionaryWithDefault
340
F
  0
DICTIONARY
  5
17
102
{ACAD_REACTORS
330
C
102
}
100
AcDbDictionary
280
0
281
1
  3
Standard
350
18
  0
DICTIONARY
  5
19
102
{ACAD_REACTORS
330
C
102
}
100
AcDbDictionary
281
1
  0
DICTIONARY
  5
1A
102
{ACAD_REACTORS
330
C
102
}
100
AcDbDictionary
281
1
  3
Model
350
378
  3
Layout1
350
379
  0
ACDBPLACEHOLDER
  5
F
102
{ACAD_REACTORS
330
E
102
}
  0
MLINESTYLE
  5
18
102
{ACAD_REACTORS
330
17
102
}
100
AcDbMlineStyle
  2
STANDARD
 70
0
  3

 62
256
 51
90.0
 52
90.0
 71
2
 49
0.5
 62
256
  6
BYLAYER
 49
-0.5
 62
256
  6
BYLAYER
  0
LAYOUT
  5
378
102
{ACAD_REACTORS
330
1A
102
}
100
AcDbPlotSettings
  1

  2
none_device
  4
ISO_A4_(297.00_x_210.00_MM)
  6

 40
0.0
 41
0.0
 42
0.0
 43
0.0
 44
297.0
 45
210.0
 46
0.0
 47
0.0
 48
0.0
 49
0.0
140
0.0
141
0.0
142
1.0
143
1.0
 70
1024
 72
1
 73
0
 74
0
  7

 75
0
147
1.0
148
0.0
149
0.0
100
AcDbLayout
  1
Model
 70
0
 71
0
 10
0.0
 20
0.0
 11
297.0
 21
210.0
 12
0.0
 22
0.0
 32
0.0
 14
0.0
 24
0.0
 34
0.0
 15
0.0
 25
0.0
 35
0.0
146
0.0
 13
0.0
 23
0.0
 33
0.0
 16
1.0
 26
0.0
 36
0.0
 17
0.0
 27
1.0
 37
0.0
 76
0
330
21C
345
0
346
0
  0
LAYOUT
  5
379
102
{ACAD_REACTORS
330
1A
102
}
100
AcDbPlotSettings
  1

  2
none_device
  4
ISO_A4_(297.00_x_210.00_MM)
  6

 40
0.0
 41
0.0
 42
0.0
 43
0.0
 44
297.0
 45
210.0
 46
0.0
 47
0.0
 48
0.0
 49
0.0
140
0.0
141
0.0
142
1.0
143
1.0
 70
0
 72
1
 73
0
 74
0
  7

 75
0
147
1.0
148
0.0
149
0.0
100
AcDbLayout
  1
Layout1
 70
0
 71
1
 10
0.0
 20
0.0
 11
297.0
 21
210.0
 12
0.0
 22
0.0
 32
0.0
 14
0.0
 24
0.0
 34
0.0
 15
0.0
 25
0.0
 35
0.0
146
0.0
 13
0.0
 23
0.0
 33
0.0
 16
1.0
 26
0.0
 36
0.0
 17
0.0
 27
1.0
 37
0.0
 76
0
330
21D
345
0
346
0
  0
ENDSEC
  0
EOF
