  0
SECTION
  2
HEADER
  9
$ACADVER
  1
AC1024
  9
$DWGCODEPAGE
  3
ANSI_1252
  9
$EXTMAX
 10
297.0
 20
210.0
 30
0.0
  9
$EXTMIN
 10
0.0
 20
0.0
 30
0.0
  9
$LIMMIN
 10
0.0
 20
0.0
  9
$LIMMAX
 10
297.0
 20
210.0
  9
$VIEWCTR
 10
148.5
 20
105.0
  9
$VIEWSIZE
 40
210.0
  9
$CLAYER
  8
0
  9
$LTSCALE
 40
16.335
  9
$CELTYPE
  6
BYLAYER
  9
$DIMSCALE
 40
1.0
  9
$DIMASZ
 40
3.0
  9
$DIMEXO
 40
0.5
  9
$DIMDLI
 40
11.286
  9
$DIMEXE
 40
1.5
  9
$DIMCEN
 40
2.673
  9
$DIMLFAC
 40
1.0
  9
$DIMBLK
  1
_FILLED
  9
$DIMALT
 70
0
  9
$DIMALTF
 40
0.0393700787
  9
$DIMTXT
 40
3.0
  9
$DIMTOL
 70
1
  9
$DIMLIM
 70
0
  9
$DIMTFAC
 40
1.0
  9
$DIMTP
 40
0.01
  9
$DIMTM
 40
0.01
  9
$DIMGAP
 40
0.625
  9
$DIMDSEP
 70
44
  9
$AUNITS
 70
0
  9
$PDMODE
 70
3
  9
$PDSIZE
 40
3.0
  9
$HANDSEED
  5
369
  9
$TILEMODE
 70
1
  9
$MEASUREMENT
 70
1
  9
$INSUNITS
 70
4
  0
ENDSEC
  0
SECTION
  2
CLASSES
  0
CLASS
  1
ACDBDICTIONARYWDFLT
  2
AcDbDictionaryWithDefault
  3
AutoCAD 2000
 90
0
 91
1
280
0
281
0
  0
CLASS
  1
ACDBPLACEHOLDER
  2
AcDbPlaceHolder
  3
AutoCAD 2000
 90
0
 91
1
280
0
281
0
  0
CLASS
  1
LAYOUT
  2
AcDbLayout
  3
AutoCAD 2000
 90
0
 91
0
280
0
281
0
  0
ENDSEC
  0
SECTION
  2
TABLES
  0
TABLE
  2
VPORT
  5
8
100
AcDbSymbolTable
 70
2
  0
VPORT
  5
1F4
100
AcDbSymbolTableRecord
100
AcDbViewportTableRecord
  2
*ACTIVE
 70
0
 10
0.0
 20
0.0
 11
1.0
 21
1.0
 12
148.5
 22
105.0
 13
0.0
 23
0.0
 14
1.0
 24
1.0
 15
0.0
 25
0.0
 16
0.0
 26
0.0
 36
1.0
 17
0.0
 27
0.0
 37
0.0
 40
210.0
 41
1.4142857143
 42
50.0
 43
0.0
 44
0.0
 50
0.0
 51
0.0
 71
0
 72
100
 73
1
 74
1
 75
0
 76
0
 77
0
 78
0
  0
ENDTAB
  0
TABLE
  2
LTYPE
  5
5
100
AcDbSymbolTable
 70
6
  0
LTYPE
  5
14
100
AcDbSymbolTableRecord
100
AcDbLinetypeTableRecord
  2
BYBLOCK
 70
0
  3

 72
65
 73
0
 40
0.0
  0
LTYPE
  5
15
100
AcDbSymbolTableRecord
100
AcDbLinetypeTableRecord
  2
BYLAYER
 70
0
  3

 72
65
 73
0
 40
0.0
  0
LTYPE
  5
16
100
AcDbSymbolTableRecord
100
AcDbLinetypeTableRecord
  2
CONTINUOUS
 70
64
  3
Solid line
 72
65
 73
0
 40
0.0
  0
LTYPE
  5
1F5
100
AcDbSymbolTableRecord
100
AcDbLinetypeTableRecord
  2
CENTER
 70
64
  3
____ _ ____ _ ____ _ ____ _ ____ _ ____ _ ____
 72
65
 73
4
 40
0.6
 49
0.375
 74
0
 49
-0.075
 74
0
 49
0.075
 74
0
 49
-0.075
 74
0
  0
LTYPE
  5
1F6
100
AcDbSymbolTableRecord
100
AcDbLinetypeTableRecord
  2
HIDDEN
 70
64
  3
- - - - - - - - - - - - - - - - - - - -
 72
65
 73
2
 40
0.2
 49
0.1
 74
0
 49
-0.1
 74
0
  0
LTYPE
  5
1F7
100
AcDbSymbolTableRecord
100
AcDbLinetypeTableRecord
  2
PHANTOM
 70
64
  3
_____ _ _ _____ _ _ _____ _ _ _____
 72
65
 73
6
 40
0.8
 49
0.45
 74
0
 49
-0.05
 74
0
 49
0.1
 74
0
 49
-0.05
 74
0
 49
0.1
 74
0
 49
-0.05
 74
0
  0
LTYPE
  5
1F8
100
AcDbSymbolTableRecord
100
AcDbLinetypeTableRecord
  2
DOT
 70
64
  3
. . . . . . . . . . . . . . . . . . . .
 72
65
 73
2
 40
0.2
 49
0.1
 74
0
 49
-0.1
 74
0
  0
LTYPE
  5
1F9
100
AcDbSymbolTableRecord
100
AcDbLinetypeTableRecord
  2
DASHED
 70
64
  3
- - - - - - - - - - - - - - - - - - - -
 72
65
 73
2
 40
0.2
 49
0.1
 74
0
 49
-0.1
 74
0
  0
ENDTAB
  0
TABLE
  2
LAYER
  5
2
100
AcDbSymbolTable
 70
36
  0
LAYER
  5
10
100
AcDbSymbolTableRecord
100
AcDbLayerTableRecord
  2
0
 70
0
 62
7
  6
CONTINUOUS
370
-3
390
F
  0
LAYER
  5
1FA
100
AcDbSymbolTableRecord
100
AcDbLayerTableRecord
  2
DEFAULT_1
 70
0
 62
7
  6
CENTER
370
-3
390
F
  0
LAYER
  5
1FB
100
AcDbSymbolTableRecord
100
AcDbLayerTableRecord
  2
DEFAULT_2
 70
0
 62
7
  6
HIDDEN
370
-3
390
F
  0
LAYER
  5
1FC
100
AcDbSymbolTableRecord
100
AcDbLayerTableRecord
  2
DEFAULT_3
 70
0
 62
7
  6
PHANTOM
370
-3
390
F
  0
LAYER
  5
1FD
100
AcDbSymbolTableRecord
100
AcDbLayerTableRecord
  2
ASSI
 70
0
 62
7
  6
CONTINUOUS
370
-3
390
F
  0
LAYER
  5
1FE
100
AcDbSymbolTableRecord
100
AcDbLayerTableRecord
  2
COORDINATE
 70
0
 62
7
  6
CONTINUOUS
370
-3
390
F
  0
LAYER
  5
1FF
100
AcDbSymbolTableRecord
100
AcDbLayerTableRecord
  2
COORD_ORIGINE
 70
0
 62
7
  6
CONTINUOUS
370
-3
390
F
  0
LAYER
  5
200
100
AcDbSymbolTableRecord
100
AcDbLayerTableRecord
  2
COPY_PUBLISH
 70
0
 62
7
  6
CONTINUOUS
370
-3
390
F
  0
LAYER
  5
201
100
AcDbSymbolTableRecord
100
AcDbLayerTableRecord
  2
COSMETIC
 70
0
 62
7
  6
CONTINUOUS
370
-3
390
F
  0
LAYER
  5
202
100
AcDbSymbolTableRecord
100
AcDbLayerTableRecord
  2
COSMETICI
 70
0
 62
7
  6
CONTINUOUS
370
-3
390
F
  0
LAYER
  5
203
100
AcDbSymbolTableRecord
100
AcDbLayerTableRecord
  2
CURVA_TASSELLO
 70
0
 62
7
  6
CONTINUOUS
370
-3
390
F
  0
LAYER
  5
204
100
AcDbSymbolTableRecord
100
AcDbLayerTableRecord
  2
CURVE
 70
0
 62
7
  6
CONTINUOUS
370
-3
390
F
  0
LAYER
  5
205
100
AcDbSymbolTableRecord
100
AcDbLayerTableRecord
  2
DRAFT
 70
0
 62
7
  6
CONTINUOUS
370
-3
390
F
  0
LAYER
  5
206
100
AcDbSymbolTableRecord
100
AcDbLayerTableRecord
  2
IMPORT_IGES
 70
0
 62
7
  6
CONTINUOUS
370
-3
390
F
  0
LAYER
  5
207
100
AcDbSymbolTableRecord
100
AcDbLayerTableRecord
  2
INTFCLR_2
 70
0
 62
7
  6
CONTINUOUS
370
-3
390
F
  0
LAYER
  5
208
100
AcDbSymbolTableRecord
100
AcDbLayerTableRecord
  2
INTF_1
 70
0
 62
7
  6
CONTINUOUS
370
-3
390
F
  0
LAYER
  5
209
100
AcDbSymbolTableRecord
100
AcDbLayerTableRecord
  2
INTF_7
 70
0
 62
7
  6
CONTINUOUS
370
-3
390
F
  0
LAYER
  5
20A
100
AcDbSymbolTableRecord
100
AcDbLayerTableRecord
  2
LINEA_CHIUSURA
 70
0
 62
7
  6
CONTINUOUS
370
-3
390
F
  0
LAYER
  5
20B
100
AcDbSymbolTableRecord
100
AcDbLayerTableRecord
  2
NOTE
 70
0
 62
7
  6
CONTINUOUS
370
-3
390
F
  0
LAYER
  5
20C
100
AcDbSymbolTableRecord
100
AcDbLayerTableRecord
  2
PIANI
 70
0
 62
7
  6
CONTINUOUS
370
-3
390
F
  0
LAYER
  5
20D
100
AcDbSymbolTableRecord
100
AcDbLayerTableRecord
  2
PIANI_ORIGINE
 70
0
 62
7
  6
CONTINUOUS
370
-3
390
F
  0
LAYER
  5
20E
100
AcDbSymbolTableRecord
100
AcDbLayerTableRecord
  2
PIANI_RIFERIMENTO
 70
0
 62
7
  6
CONTINUOUS
370
-3
390
F
  0
LAYER
  5
20F
100
AcDbSymbolTableRecord
100
AcDbLayerTableRecord
  2
PUNTI
 70
0
 62
7
  6
CONTINUOUS
370
-3
390
F
  0
LAYER
  5
210
100
AcDbSymbolTableRecord
100
AcDbLayerTableRecord
  2
RACCORDO
 70
0
 62
7
  6
CONTINUOUS
370
-3
390
F
  0
LAYER
  5
211
100
AcDbSymbolTableRecord
100
AcDbLayerTableRecord
  2
RGB__255__255__255__
 70
0
 62
7
  6
CONTINUOUS
370
-3
390
F
  0
LAYER
  5
212
100
AcDbSymbolTableRecord
100
AcDbLayerTableRecord
  2
RGB____0____0____0__
 70
0
 62
7
  6
CONTINUOUS
370
-3
390
F
  0
LAYER
  5
213
100
AcDbSymbolTableRecord
100
AcDbLayerTableRecord
  2
SIMBOLI
 70
0
 62
7
  6
CONTINUOUS
370
-3
390
F
  0
LAYER
  5
214
100
AcDbSymbolTableRecord
100
AcDbLayerTableRecord
  2
SMUSSO
 70
0
 62
7
  6
CONTINUOUS
370
-3
390
F
  0
LAYER
  5
215
100
AcDbSymbolTableRecord
100
AcDbLayerTableRecord
  2
SNAPLINE
 70
0
 62
7
  6
CONTINUOUS
370
-3
390
F
  0
LAYER
  5
216
100
AcDbSymbolTableRecord
100
AcDbLayerTableRecord
  2
SUPERFICI
 70
0
 62
7
  6
CONTINUOUS
370
-3
390
F
  0
LAYER
  5
217
100
AcDbSymbolTableRecord
100
AcDbLayerTableRecord
  2
TRASH
 70
0
 62
7
  6
CONTINUOUS
370
-3
390
F
  0
LAYER
  5
218
100
AcDbSymbolTableRecord
100
AcDbLayerTableRecord
  2
WHITE
 70
0
 62
7
  6
CONTINUOUS
370
-3
390
F
  0
LAYER
  5
219
100
AcDbSymbolTableRecord
100
AcDbLayerTableRecord
  2
XSEC_DATUMS
 70
0
 62
7
  6
CONTINUOUS
370
-3
390
F
  0
ENDTAB
  0
TABLE
  2
STYLE
  5
3
100
AcDbSymbolTable
 70
1
  0
STYLE
  5
11
100
AcDbSymbolTableRecord
100
AcDbTextStyleTableRecord
  2
STANDARD
 70
0
 40
0.0
 41
0.8
 50
0.0
 71
0
 42
0.2
  3
txt
  4

  0
STYLE
  5
21A
100
AcDbSymbolTableRecord
100
AcDbTextStyleTableRecord
  2
TEXTSTYLE_1
 70
0
 40
0.0
 41
0.8
 50
0.0
 71
0
 42
0.2
  3
gdt
  4

  0
ENDTAB
  0
TABLE
  2
VIEW
  5
6
100
AcDbSymbolTable
 70
0
  0
ENDTAB
  0
TABLE
  2
UCS
  5
7
100
AcDbSymbolTable
 70
0
  0
ENDTAB
  0
TABLE
  2
APPID
  5
9
100
AcDbSymbolTable
 70
1
  0
APPID
  5
21B
100
AcDbSymbolTableRecord
100
AcDbRegAppTableRecord
  2
ACAD
 70
0
  0
ENDTAB
  0
TABLE
  2
BLOCK_RECORD
  5
1
100
AcDbSymbolTable
 70
0
  0
BLOCK_RECORD
  5
21C
100
AcDbSymbolTableRecord
100
AcDbBlockTableRecord
  2
*Model_Space
  0
BLOCK_RECORD
  5
21D
100
AcDbSymbolTableRecord
100
AcDbBlockTableRecord
  2
*Paper_Space
  0
BLOCK_RECORD
  5
21E
100
AcDbSymbolTableRecord
100
AcDbBlockTableRecord
  2
_FILLED
  0
BLOCK_RECORD
  5
21F
100
AcDbSymbolTableRecord
100
AcDbBlockTableRecord
  2
*D0
  0
BLOCK_RECORD
  5
220
100
AcDbSymbolTableRecord
100
AcDbBlockTableRecord
  2
*D1
  0
BLOCK_RECORD
  5
221
100
AcDbSymbolTableRecord
100
AcDbBlockTableRecord
  2
*D2
  0
BLOCK_RECORD
  5
222
100
AcDbSymbolTableRecord
100
AcDbBlockTableRecord
  2
*D3
  0
ENDTAB
  0
TABLE
  2
DIMSTYLE
  5
A
100
AcDbSymbolTable
 70
1
100
AcDbDimStyleTable
 71
0
  0
DIMSTYLE
105
223
100
AcDbSymbolTableRecord
100
AcDbDimStyleTableRecord
  2
STANDARD
 70
0
  3

  4

 40
1.0
 41
3.0
 42
0.5
 43
0.38
 44
1.5
 45
0.0
 46
0.0
 47
0.01
 48
0.01
140
3.0
141
0.09
142
0.0
143
25.4
144
1.0
145
0.0
146
1.0
147
0.625
 71
1
 72
0
 73
0
 74
0
 75
0
 76
0
 77
1
 78
8
 79
2
170
0
171
1
172
0
173
0
174
0
175
0
176
0
177
0
178
0
270
2
179
2
271
2
272
2
273
2
274
2
275
0
280
0
281
0
282
0
283
1
284
8
285
0
286
0
287
3
288
0
340
11
278
44
341
21E
342
21E
343
21E
344
21E
  0
DIMSTYLE
105
224
100
AcDbSymbolTableRecord
100
AcDbDimStyleTableRecord
  2
DIMSTYLE_1
 70
0
  3

  4

 40
1.0
 41
3.0
 42
0.5
 43
0.38
 44
1.5
 45
0.0
 46
0.0
 47
0.0
 48
0.0
140
3.0
141
0.09
142
0.0
143
25.4
144
1.0
145
0.0
146
1.0
147
0.75
 71
0
 72
0
 73
0
 74
0
 75
0
 76
0
 77
1
 78
8
 79
2
170
0
171
1
172
0
173
0
174
0
175
0
176
0
177
0
178
0
270
2
179
2
271
2
272
2
273
2
274
2
275
0
280
0
281
0
282
0
283
1
284
8
285
0
286
0
287
3
288
0
340
11
278
44
341
21E
342
21E
343
21E
344
21E
  0
ENDTAB
  0
ENDSEC
  0
SECTION
  2
BLOCKS
  0
BLOCK
  5
20
100
AcDbEntity
  8
0
100
AcDbBlockBegin
  2
*Model_Space
 70
0
 10
0.0
 20
0.0
 30
0.0
  3
*Model_Space
  1

  0
ENDBLK
  5
21
100
AcDbEntity
  8
0
100
AcDbBlockEnd
  0
BLOCK
  5
1C
100
AcDbEntity
  8
0
100
AcDbBlockBegin
  2
*Paper_Space
 70
0
 10
0.0
 20
0.0
 30
0.0
  3
*Paper_Space
  1

  0
ENDBLK
  5
1D
100
AcDbEntity
  8
0
100
AcDbBlockEnd
  0
BLOCK
  5
225
100
AcDbEntity
  8
0
100
AcDbBlockBegin
  2
_FILLED
 70
64
 10
0.0
 20
0.0
  3
_FILLED
  1

  0
SOLID
  5
226
100
AcDbEntity
  8
0
  6
BYBLOCK
 62
0
100
AcDbTrace
 10
0.0
 20
0.0
 11
-1.0
 21
0.3166666667
 12
-1.0
 22
-0.3166666667
 13
-1.0
 23
-0.3166666667
  0
ENDBLK
  5
227
100
AcDbEntity
  8
0
  6
BYBLOCK
 62
0
100
AcDbBlockEnd
  0
BLOCK
  5
228
100
AcDbEntity
  8
0
100
AcDbBlockBegin
 62
7
  6
CONTINUOUS
  2
*D0
 70
65
 10
0.0
 20
0.0
  3
*D0
  1

  0
MTEXT
  5
229
100
AcDbEntity
  8
0
100
AcDbMText
 62
7
  6
CONTINUOUS
  7
STANDARD
 71
2
 72
1
 10
76.5249999999
 20
0.0
 30
0.0
 11
0.0
 21
1.0
 31
0.0
 73
2
 44
0.9
  1
{\ftxt;\W0.0001;\H0.0001;\~}{\ftxt;\W1.5714285714;\H3.0; }{\ftxt;\W0.0001;\H0.0001;\~}
 40
3.0
 41
7.0714285714
  0
LINE
  5
22A
100
AcDbEntity
  8
0
100
AcDbLine
 62
7
  6
CONTINUOUS
 10
71.7249999999
 20
-45.0
 11
81.7749999999
 21
-45.0
  0
LINE
  5
22B
100
AcDbEntity
  8
0
100
AcDbLine
 62
7
  6
CONTINUOUS
 10
71.7249999999
 20
45.0
 11
81.7749999999
 21
45.0
  0
LINE
  5
22C
100
AcDbEntity
  8
0
100
AcDbLine
 62
7
  6
CONTINUOUS
 10
80.2749999999
 20
-45.0
 11
80.2749999999
 21
0.0
  0
LINE
  5
22D
100
AcDbEntity
  8
0
100
AcDbLine
 62
7
  6
CONTINUOUS
 10
80.2749999999
 20
45.0
 11
80.2749999999
 21
0.0
  0
INSERT
  5
22E
100
AcDbEntity
  8
0
100
AcDbBlockReference
 62
7
  6
CONTINUOUS
  2
_FILLED
 10
80.2749999999
 20
-45.0
 41
3.0
 42
3.0
 43
3.0
 50
270.0
  0
INSERT
  5
22F
100
AcDbEntity
  8
0
100
AcDbBlockReference
 62
7
  6
CONTINUOUS
  2
_FILLED
 10
80.2749999999
 20
45.0
 41
3.0
 42
3.0
 43
3.0
 50
90.0
  0
ENDBLK
  5
230
100
AcDbEntity
  8
0
  6
BYBLOCK
 62
0
100
AcDbBlockEnd
  0
BLOCK
  5
231
100
AcDbEntity
  8
0
100
AcDbBlockBegin
 62
7
  6
CONTINUOUS
  2
*D1
 70
65
 10
0.0
 20
0.0
  3
*D1
  1

  0
MTEXT
  5
232
100
AcDbEntity
  8
0
100
AcDbMText
 62
7
  6
CONTINUOUS
  7
STANDARD
 71
2
 72
1
 10
-0.0250000001
 20
56.7499999997
 30
0.0
 11
1.0
 21
0.0
 31
0.0
 73
2
 44
0.9
  1
{\ftxt;\W0.0001;\H0.0001;\~}{\ftxt;\W3.4285714286;\H3.0; }{\ftxt;\W0.0001;\H0.0001;\~}
 40
3.0
 41
15.4285714286
  0
LINE
  5
233
100
AcDbEntity
  8
0
100
AcDbLine
 62
7
  6
CONTINUOUS
 10
72.2249999999
 20
44.5
 11
72.2249999999
 21
54.4999999997
  0
LINE
  5
234
100
AcDbEntity
  8
0
100
AcDbLine
 62
7
  6
CONTINUOUS
 10
-72.2750000001
 20
44.5
 11
-72.2750000001
 21
54.4999999997
  0
LINE
  5
235
100
AcDbEntity
  8
0
100
AcDbLine
 62
7
  6
CONTINUOUS
 10
72.2249999999
 20
52.9999999997
 11
-0.0250000001
 21
52.9999999997
  0
LINE
  5
236
100
AcDbEntity
  8
0
100
AcDbLine
 62
7
  6
CONTINUOUS
 10
-72.2750000001
 20
52.9999999997
 11
-0.0250000001
 21
52.9999999997
  0
INSERT
  5
237
100
AcDbEntity
  8
0
100
AcDbBlockReference
 62
7
  6
CONTINUOUS
  2
_FILLED
 10
72.2249999999
 20
52.9999999997
 41
3.0
 42
3.0
 43
3.0
  0
INSERT
  5
238
100
AcDbEntity
  8
0
100
AcDbBlockReference
 62
7
  6
CONTINUOUS
  2
_FILLED
 10
-72.2750000001
 20
52.9999999997
 41
3.0
 42
3.0
 43
3.0
 50
180.0
  0
ENDBLK
  5
239
100
AcDbEntity
  8
0
  6
BYBLOCK
 62
0
100
AcDbBlockEnd
  0
BLOCK
  5
23A
100
AcDbEntity
  8
0
100
AcDbBlockBegin
 62
7
  6
CONTINUOUS
  2
*D2
 70
65
 10
0.0
 20
0.0
  3
*D2
  1

  0
MTEXT
  5
23B
100
AcDbEntity
  8
0
100
AcDbMText
 62
7
  6
CONTINUOUS
  7
STANDARD
 71
1
 72
1
 10
-95.4524017165
 20
56.7499999997
 30
0.0
 11
1.0
 21
0.0
 31
0.0
 73
2
 44
0.9
  1
{\ftxt;\W0.0001;\H0.0001;\~}{\ftxt;\W2.7857142857;\H3.0; }{\ftxt;\W0.0001;\H0.0001;\~}
 40
3.0
 41
12.5357142857
  0
LINE
  5
23C
100
AcDbEntity
  8
0
100
AcDbLine
 62
7
  6
CONTINUOUS
 10
-107.8898702676
 20
44.5
 11
-107.8898702676
 21
54.4999999997
  0
LINE
  5
23D
100
AcDbEntity
  8
0
100
AcDbLine
 62
7
  6
CONTINUOUS
 10
-100.3398702676
 20
43.5384032275
 11
-100.3398702676
 21
54.4999999997
  0
LINE
  5
23E
100
AcDbEntity
  8
0
100
AcDbLine
 62
7
  6
CONTINUOUS
 10
-107.8898702676
 20
52.9999999997
 11
-104.1148702676
 21
52.9999999997
  0
LINE
  5
23F
100
AcDbEntity
  8
0
100
AcDbLine
 62
7
  6
CONTINUOUS
 10
-100.3398702676
 20
52.9999999997
 11
-104.1148702676
 21
52.9999999997
  0
LINE
  5
240
100
AcDbEntity
  8
0
100
AcDbLine
 62
7
  6
CONTINUOUS
 10
-104.1148702676
 20
52.9999999997
 11
-87.0952588594
 21
52.9999999997
  0
INSERT
  5
241
100
AcDbEntity
  8
0
100
AcDbBlockReference
 62
7
  6
CONTINUOUS
  2
_FILLED
 10
-107.8898702676
 20
52.9999999997
 41
3.0
 42
3.0
 43
3.0
 50
180.0
  0
INSERT
  5
242
100
AcDbEntity
  8
0
100
AcDbBlockReference
 62
7
  6
CONTINUOUS
  2
_FILLED
 10
-100.3398702676
 20
52.9999999997
 41
3.0
 42
3.0
 43
3.0
  0
ENDBLK
  5
243
100
AcDbEntity
  8
0
  6
BYBLOCK
 62
0
100
AcDbBlockEnd
  0
BLOCK
  5
244
100
AcDbEntity
  8
0
100
AcDbBlockBegin
 62
7
  6
CONTINUOUS
  2
*D3
 70
65
 10
0.0
 20
0.0
  3
*D3
  1

  0
MTEXT
  5
245
100
AcDbEntity
  8
0
100
AcDbMText
 62
7
  6
CONTINUOUS
  7
STANDARD
 71
1
 72
1
 10
-96.0886725676
 20
66.7499999997
 30
0.0
 11
1.0
 21
0.0
 31
0.0
 73
2
 44
0.9
  1
{\ftxt;\W0.0001;\H0.0001;\~}{\ftxt;\W3.3571428571;\H3.0; }{\ftxt;\W0.0001;\H0.0001;\~}
 40
3.0
 41
15.1071428571
  0
LINE
  5
246
100
AcDbEntity
  8
0
100
AcDbLine
 62
7
  6
CONTINUOUS
 10
-97.3398702676
 20
26.5463167932
 11
-97.3398702676
 21
64.4999999997
  0
LINE
  5
247
100
AcDbEntity
  8
0
100
AcDbLine
 62
7
  6
CONTINUOUS
 10
-107.8898702676
 20
44.5
 11
-107.8898702676
 21
64.4999999997
  0
LINE
  5
248
100
AcDbEntity
  8
0
100
AcDbLine
 62
7
  6
CONTINUOUS
 10
-97.3398702676
 20
62.9999999997
 11
-102.6148702676
 21
62.9999999997
  0
LINE
  5
249
100
AcDbEntity
  8
0
100
AcDbLine
 62
7
  6
CONTINUOUS
 10
-102.6148702676
 20
62.9999999997
 11
-86.0172439962
 21
62.9999999997
  0
LINE
  5
24A
100
AcDbEntity
  8
0
100
AcDbLine
 62
7
  6
CONTINUOUS
 10
-107.8898702676
 20
62.9999999997
 11
-102.6148702676
 21
62.9999999997
  0
INSERT
  5
24B
100
AcDbEntity
  8
0
100
AcDbBlockReference
 62
7
  6
CONTINUOUS
  2
_FILLED
 10
-97.3398702676
 20
62.9999999997
 41
3.0
 42
3.0
 43
3.0
  0
INSERT
  5
24C
100
AcDbEntity
  8
0
100
AcDbBlockReference
 62
7
  6
CONTINUOUS
  2
_FILLED
 10
-107.8898702676
 20
62.9999999997
 41
3.0
 42
3.0
 43
3.0
 50
180.0
  0
ENDBLK
  5
24D
100
AcDbEntity
  8
0
  6
BYBLOCK
 62
0
100
AcDbBlockEnd
  0
ENDSEC
  0
SECTION
  2
ENTITIES
  0
DIMENSION
  5
24E
100
AcDbEntity
  8
0
100
AcDbDimension
 62
7
  6
CONTINUOUS
  2
*D0
 10
80.2749999999
 20
45.0
 11
80.2749999999
 21
-0.4285695538
 70
160
 71
2
 72
2
 41
0.9
 42
90.0
  1
{\ftxt;\W0.0001;\H0.0001;\~}{\ftxt;\W1.5714285714;\H3.0; }{\ftxt;\W0.0001;\H0.0001;\~}
  3
DIMSTYLE_1
100
AcDbAlignedDimension
 13
71.2249999999
 23
-45.0
 14
71.2249999999
 24
45.0
 50
90.0
100
AcDbRotatedDimension
  0
DIMENSION
  5
24F
100
AcDbEntity
  8
0
100
AcDbDimension
 62
7
  6
CONTINUOUS
  2
*D1
 10
-72.2750000001
 20
52.9999999997
 11
-0.4535713849
 21
52.9999999997
 70
160
 71
2
 72
2
 41
0.9
 42
144.5
  1
{\ftxt;\W0.0001;\H0.0001;\~}{\ftxt;\W3.4285714286;\H3.0; }{\ftxt;\W0.0001;\H0.0001;\~}
  3
DIMSTYLE_1
100
AcDbAlignedDimension
 13
72.2249999999
 23
44.0
 14
-72.2750000001
 24
44.0
 50
180.0
100
AcDbRotatedDimension
  0
DIMENSION
  5
250
100
AcDbEntity
  8
0
100
AcDbDimension
 62
7
  6
CONTINUOUS
  2
*D2
 10
-100.3398702676
 20
52.9999999997
 11
-91.7024026794
 21
52.9999999997
 70
160
 71
1
 72
2
 41
0.9
 42
7.55
  1
{\ftxt;\W0.0001;\H0.0001;\~}{\ftxt;\W2.7857142857;\H3.0; }{\ftxt;\W0.0001;\H0.0001;\~}
  3
DIMSTYLE_1
100
AcDbAlignedDimension
 13
-107.8898702676
 23
44.0
 14
-100.3398702676
 24
43.0384032275
100
AcDbRotatedDimension
  0
DIMENSION
  5
251
100
AcDbEntity
  8
0
100
AcDbDimension
 62
7
  6
CONTINUOUS
  2
*D3
 10
-107.8898702676
 20
62.9999999997
 11
-91.4815288696
 21
62.9999999997
 70
160
 71
1
 72
2
 41
0.9
 42
10.55
  1
{\ftxt;\W0.0001;\H0.0001;\~}{\ftxt;\W3.3571428571;\H3.0; }{\ftxt;\W0.0001;\H0.0001;\~}
  3
DIMSTYLE_1
100
AcDbAlignedDimension
 13
-97.3398702676
 23
26.0463167932
 14
-107.8898702676
 24
44.0
 50
180.0
100
AcDbRotatedDimension
  0
LINE
  5
252
100
AcDbEntity
  8
SMUSSO
100
AcDbLine
 62
7
  6
CONTINUOUS
 10
-72.2750000001
 20
44.0
 11
-72.2750000001
 21
-44.0
  0
LINE
  5
253
100
AcDbEntity
  8
SMUSSO
100
AcDbLine
 62
7
  6
CONTINUOUS
 10
-71.2750000001
 20
44.0
 11
-71.2750000001
 21
-44.0
  0
LINE
  5
254
100
AcDbEntity
  8
SMUSSO
100
AcDbLine
 62
250
  6
CONTINUOUS
 10
-71.2750000001
 20
-44.0
 11
-71.2750000001
 21
-45.0
  0
LINE
  5
255
100
AcDbEntity
  8
SMUSSO
100
AcDbLine
 62
250
  6
CONTINUOUS
 10
-71.2750000001
 20
44.0
 11
-71.2750000001
 21
45.0
  0
LINE
  5
256
100
AcDbEntity
  8
RACCORDO
100
AcDbLine
 62
7
  6
CONTINUOUS
 10
-45.2750000001
 20
21.55
 11
-45.2750000001
 21
-21.55
  0
LINE
  5
257
100
AcDbEntity
  8
SMUSSO
100
AcDbLine
 62
7
  6
CONTINUOUS
 10
-71.2750000001
 20
-45.0
 11
71.2249999999
 21
-45.0
  0
LWPOLYLINE
  5
258
100
AcDbEntity
  8
0
100
AcDbPolyline
 62
7
  6
CONTINUOUS
 90
3
 70
0
 43
0.3500000006
 10
-5.1678571014
 20
55.8928609314
 10
-4.3107143469
 20
56.7499988708
 10
-4.3107143469
 20
53.7499979553
  0
LINE
  5
259
100
AcDbEntity
  8
SMUSSO
100
AcDbLine
 62
7
  6
CONTINUOUS
 10
-71.2750000001
 20
-44.0
 11
71.2249999999
 21
-44.0
  0
LINE
  5
25A
100
AcDbEntity
  8
SMUSSO
100
AcDbLine
 62
250
  6
CONTINUOUS
 10
71.2249999999
 20
-44.0
 11
72.2249999999
 21
-44.0
  0
LINE
  5
25B
100
AcDbEntity
  8
SMUSSO
100
AcDbLine
 62
250
  6
CONTINUOUS
 10
-71.2750000001
 20
-44.0
 11
-72.2750000001
 21
-44.0
  0
LINE
  5
25C
100
AcDbEntity
  8
RACCORDO
100
AcDbLine
 62
7
  6
CONTINUOUS
 10
-44.0750000001
 20
-22.75
 11
44.0249999999
 21
-22.75
  0
LWPOLYLINE
  5
25D
100
AcDbEntity
  8
0
100
AcDbPolyline
 62
7
  6
CONTINUOUS
 90
3
 70
0
 43
0.3500000006
 10
1.9750000362
 20
54.035713623
 10
1.9035714025
 20
53.8214291382
 10
1.7607142768
 20
53.5357134705
  0
LWPOLYLINE
  5
25E
100
AcDbEntity
  8
0
100
AcDbPolyline
 62
7
  6
CONTINUOUS
 90
2
 70
0
 43
0.3500000006
 10
-2.4535712872
 20
53.7499979553
 10
-2.4535712872
 20
55.2499984131
  0
LWPOLYLINE
  5
25F
100
AcDbEntity
  8
0
100
AcDbPolyline
 62
7
  6
CONTINUOUS
 90
2
 70
0
 43
0.3500000006
 10
-0.0964285705
 20
53.7499979553
 10
-0.0964285705
 20
55.2499984131
  0
LWPOLYLINE
  5
260
100
AcDbEntity
  8
0
100
AcDbPolyline
 62
7
  6
CONTINUOUS
 90
13
 70
0
 43
0.3500000006
 10
78.6678568726
 20
-0.0000003204
 10
77.3821408997
 20
-0.0000003204
 10
76.9535719299
 20
0.2142864304
 10
76.5250029602
 20
0.642857666
 10
76.5250029602
 20
0.8571421509
 10
76.9535719299
 20
1.2857133865
 10
77.3821408997
 20
1.5000001373
 10
78.6678568726
 20
1.5000001373
 10
79.0964258423
 20
1.2857133865
 10
79.5250038757
 20
0.8571421509
 10
79.5250038757
 20
0.642857666
 10
79.0964258423
 20
0.2142864304
 10
78.6678568726
 20
-0.0000003204
  0
LINE
  5
261
100
AcDbEntity
  8
RACCORDO
100
AcDbLine
 62
7
  6
CONTINUOUS
 10
44.0249999999
 20
22.75
 11
-44.0750000001
 21
22.75
  0
LWPOLYLINE
  5
262
100
AcDbEntity
  8
0
100
AcDbPolyline
 62
7
  6
CONTINUOUS
 90
10
 70
0
 43
0.3500000006
 10
1.9035714025
 20
54.2499981079
 10
1.9750000362
 20
54.1071448059
 10
1.9750000362
 20
54.035713623
 10
1.8321429105
 20
53.8928557892
 10
1.7607142768
 20
53.8928557892
 10
1.6892857847
 20
53.964286972
 10
1.6892857847
 20
54.035713623
 10
1.7607142768
 20
54.1785714569
 10
1.8321429105
 20
54.2499981079
 10
1.9035714025
 20
54.2499981079
  0
LINE
  5
263
100
AcDbEntity
  8
RACCORDO
100
AcDbLine
 62
7
  6
CONTINUOUS
 10
45.2249999999
 20
-21.55
 11
45.2249999999
 21
21.55
  0
LINE
  5
264
100
AcDbEntity
  8
SMUSSO
100
AcDbLine
 62
7
  6
CONTINUOUS
 10
71.2249999999
 20
44.0
 11
-71.2750000001
 21
44.0
  0
LINE
  5
265
100
AcDbEntity
  8
SMUSSO
100
AcDbLine
 62
250
  6
CONTINUOUS
 10
71.2249999999
 20
44.0
 11
72.2249999999
 21
44.0
  0
LINE
  5
266
100
AcDbEntity
  8
SMUSSO
100
AcDbLine
 62
250
  6
CONTINUOUS
 10
-71.2750000001
 20
44.0
 11
-72.2750000001
 21
44.0
  0
LINE
  5
267
100
AcDbEntity
  8
SMUSSO
100
AcDbLine
 62
7
  6
CONTINUOUS
 10
71.2249999999
 20
45.0
 11
-71.2750000001
 21
45.0
  0
LWPOLYLINE
  5
268
100
AcDbEntity
  8
0
100
AcDbPolyline
 62
7
  6
CONTINUOUS
 90
8
 70
0
 43
0.3500000006
 10
2.9750000582
 20
53.7499979553
 10
3.8321428127
 20
53.7499979553
 10
4.2607143316
 20
54.1785714569
 10
4.2607143316
 20
55.0357139282
 10
3.8321428127
 20
55.4642874298
 10
2.9750000582
 20
55.4642874298
 10
2.9750000582
 20
56.7499988708
 10
4.2607143316
 20
56.7499988708
  0
LWPOLYLINE
  5
269
100
AcDbEntity
  8
0
100
AcDbPolyline
 62
7
  6
CONTINUOUS
 90
3
 70
0
 43
0.3500000006
 10
0.4035714405
 20
54.3928559418
 10
-1.0964285924
 20
54.3928559418
 10
-0.4535714203
 20
56.7499988708
  0
LWPOLYLINE
  5
26A
100
AcDbEntity
  8
0
100
AcDbPolyline
 62
7
  6
CONTINUOUS
 90
3
 70
0
 43
0.3500000006
 10
-1.9535714178
 20
54.3928559418
 10
-3.4535713091
 20
54.3928559418
 10
-2.8107141724
 20
56.7499988708
  0
LWPOLYLINE
  5
26B
100
AcDbEntity
  8
0
100
AcDbPolyline
 62
7
  6
CONTINUOUS
 90
10
 70
0
 43
0.3500000006
 10
79.5250038757
 20
-1.9285708809
 10
78.6678568726
 20
-1.0714295425
 10
77.8107098694
 20
-0.8571427917
 10
76.9535719299
 20
-0.8571427917
 10
76.5250029602
 20
-1.2857140274
 10
76.5250029602
 20
-1.9285708809
 10
76.9535719299
 20
-2.3571432495
 10
77.8107098694
 20
-2.3571432495
 10
78.2392879028
 20
-1.9285708809
 10
78.2392879028
 20
-1.0000006256
  0
LINE
  5
26C
100
AcDbEntity
  8
SMUSSO
100
AcDbLine
 62
250
  6
CONTINUOUS
 10
71.2249999999
 20
-44.0
 11
71.2249999999
 21
-45.0
  0
LINE
  5
26D
100
AcDbEntity
  8
SMUSSO
100
AcDbLine
 62
7
  6
CONTINUOUS
 10
71.2249999999
 20
-44.0
 11
71.2249999999
 21
44.0
  0
LINE
  5
26E
100
AcDbEntity
  8
SMUSSO
100
AcDbLine
 62
250
  6
CONTINUOUS
 10
71.2249999999
 20
44.0
 11
71.2249999999
 21
45.0
  0
LINE
  5
26F
100
AcDbEntity
  8
SMUSSO
100
AcDbLine
 62
7
  6
CONTINUOUS
 10
72.2249999999
 20
-44.0
 11
72.2249999999
 21
44.0
  0
LINE
  5
270
100
AcDbEntity
  8
SMUSSO
100
AcDbLine
 62
7
  6
CONTINUOUS
 10
-106.8898702676
 20
-45.0
 11
-105.3898702676
 21
-45.0
  0
LWPOLYLINE
  5
271
100
AcDbEntity
  8
0
100
AcDbPolyline
 62
7
  6
CONTINUOUS
 90
3
 70
0
 43
0.3500000006
 10
-96.0886724854
 20
65.8928549194
 10
-95.2315254822
 20
66.7500019226
 10
-95.2315254822
 20
63.7500010071
  0
LINE
  5
272
100
AcDbEntity
  8
0
100
AcDbLine
 62
250
  6
CONTINUOUS
 10
-101.8390727088
 20
-43.3354659698
 11
-100.3398702676
 21
-43.0384032275
  0
LINE
  5
273
100
AcDbEntity
  8
ASSI
100
AcDbLine
 62
250
  6
CONTINUOUS
 10
-101.8390727088
 20
-43.3354659698
 11
-100.3398702676
 21
-43.0384032275
  0
LINE
  5
274
100
AcDbEntity
  8
0
100
AcDbLine
 62
7
  6
CONTINUOUS
 10
-104.7398702676
 20
-44.3506196883
 11
-101.8398702676
 21
-44.3
  0
LINE
  5
275
100
AcDbEntity
  8
ASSI
100
AcDbLine
 62
7
  6
CONTINUOUS
 10
-104.7398702676
 20
-44.3506196883
 11
-101.8398702676
 21
-44.3
  0
LINE
  5
276
100
AcDbEntity
  8
0
100
AcDbLine
 62
250
  6
CONTINUOUS
 10
-104.7398702676
 20
-43.3507719931
 11
-101.8398702676
 21
-43.3001523048
  0
LINE
  5
277
100
AcDbEntity
  8
ASSI
100
AcDbLine
 62
250
  6
CONTINUOUS
 10
-104.7398702676
 20
-43.3507719931
 11
-101.8398702676
 21
-43.3001523048
  0
LINE
  5
278
100
AcDbEntity
  8
SMUSSO
100
AcDbLine
 62
250
  6
CONTINUOUS
 10
-104.8898702676
 20
-44.0
 11
-107.8898702676
 21
-44.0
  0
LINE
  5
279
100
AcDbEntity
  8
RACCORDO
100
AcDbLine
 62
7
  6
CONTINUOUS
 10
-104.8898702676
 20
-39.0
 11
-104.7398702676
 21
-39.0
  0
LINE
  5
27A
100
AcDbEntity
  8
RACCORDO
100
AcDbLine
 62
250
  6
CONTINUOUS
 10
-104.8898702676
 20
-37.0
 11
-104.7398702676
 21
-37.0
  0
LINE
  5
27B
100
AcDbEntity
  8
0
100
AcDbLine
 62
250
  6
CONTINUOUS
 10
-102.3213762676
 20
-36.161141
 11
-104.2213362676
 21
-36.161141
  0
LINE
  5
27C
100
AcDbEntity
  8
SMUSSO
100
AcDbLine
 62
7
  6
CONTINUOUS
 10
-107.8898702676
 20
44.0
 11
-106.8898702676
 21
45.0
  0
LINE
  5
27D
100
AcDbEntity
  8
0
100
AcDbLine
 62
250
  6
CONTINUOUS
 10
-102.9134992676
 20
-37.077819
 11
-104.2212222676
 21
-37.439964
  0
LINE
  5
27E
100
AcDbEntity
  8
0
100
AcDbLine
 62
250
  6
CONTINUOUS
 10
-102.3213762676
 20
-33.624309
 11
-104.2212222676
 21
-33.801966
  0
LINE
  5
27F
100
AcDbEntity
  8
0
100
AcDbLine
 62
250
  6
CONTINUOUS
 10
-103.5567682676
 20
-34.093739
 11
-102.3213762676
 21
-34.012262
  0
LINE
  5
280
100
AcDbEntity
  8
0
100
AcDbLine
 62
250
  6
CONTINUOUS
 10
-104.2213362676
 20
-35.764569
 11
-102.3213762676
 21
-35.764569
  0
LINE
  5
281
100
AcDbEntity
  8
0
100
AcDbLine
 62
250
  6
CONTINUOUS
 10
-102.3213762676
 20
-35.171691
 11
-103.5619402676
 21
-35.08611
  0
LINE
  5
282
100
AcDbEntity
  8
0
100
AcDbLine
 62
250
  6
CONTINUOUS
 10
-104.2212222676
 20
-35.379536
 11
-102.3213762676
 21
-35.551081
  0
LINE
  5
283
100
AcDbEntity
  8
0
100
AcDbLine
 62
250
  6
CONTINUOUS
 10
-104.2212222676
 20
-36.704611
 11
-102.9134992676
 21
-37.077819
  0
LINE
  5
284
100
AcDbEntity
  8
0
100
AcDbLine
 62
250
  6
CONTINUOUS
 10
-102.3213762676
 20
-36.918996
 11
-104.2212222676
 21
-36.30831
  0
LINE
  5
285
100
AcDbEntity
  8
SMUSSO
100
AcDbLine
 62
7
  6
CONTINUOUS
 10
-107.8898702676
 20
-44.0
 11
-106.8898702676
 21
-45.0
  0
LINE
  5
286
100
AcDbEntity
  8
0
100
AcDbLine
 62
250
  6
CONTINUOUS
 10
-102.7006532676
 20
-32.520272
 11
-102.3213762676
 21
-32.417539
  0
LINE
  5
287
100
AcDbEntity
  8
0
100
AcDbLine
 62
250
  6
CONTINUOUS
 10
-103.6991932676
 20
-32.781757
 11
-102.9941362676
 21
-32.599527
  0
LINE
  5
288
100
AcDbEntity
  8
0
100
AcDbLine
 62
250
  6
CONTINUOUS
 10
-102.3213765216
 20
-31.8831153973
 11
-104.1990257264
 21
-31.8831153973
  0
LINE
  5
289
100
AcDbEntity
  8
0
100
AcDbLine
 62
250
  6
CONTINUOUS
 10
-103.8975646909
 20
-31.5012884969
 11
-103.3760200034
 21
-31.5012884969
  0
LINE
  5
28A
100
AcDbEntity
  8
0
100
AcDbLine
 62
250
  6
CONTINUOUS
 10
-103.0648711841
 20
-31.4881387551
 11
-102.3213765216
 21
-31.4881387551
  0
LINE
  5
28B
100
AcDbEntity
  8
0
100
AcDbLine
 62
250
  6
CONTINUOUS
 10
-103.2194340752
 20
-30.8635473914
 11
-103.2082076434
 21
-30.8635473914
  0
LINE
  5
28C
100
AcDbEntity
  8
0
100
AcDbLine
 62
250
  6
CONTINUOUS
 10
-102.9941362676
 20
-32.979217
 11
-103.6991932676
 21
-32.781757
  0
LINE
  5
28D
100
AcDbEntity
  8
0
100
AcDbLine
 62
250
  6
CONTINUOUS
 10
-102.3213762676
 20
-33.169767
 11
-102.7006532676
 21
-33.060338
  0
LINE
  5
28E
100
AcDbEntity
  8
0
100
AcDbLine
 62
250
  6
CONTINUOUS
 10
-104.2212222676
 20
-32.966124
 11
-102.3213762676
 21
-33.562037
  0
LINE
  5
28F
100
AcDbEntity
  8
0
100
AcDbLine
 62
250
  6
CONTINUOUS
 10
-104.2212222676
 20
-34.194336
 11
-103.1664222676
 21
-34.590908
  0
LINE
  5
290
100
AcDbEntity
  8
0
100
AcDbLine
 62
250
  6
CONTINUOUS
 10
-102.3213762676
 20
-34.565264
 11
-103.5567682676
 21
-34.093739
  0
LINE
  5
291
100
AcDbEntity
  8
0
100
AcDbLine
 62
7
  6
CONTINUOUS
 10
-99.4140330698
 20
-27.1501294386
 11
-100.3398702676
 21
-27.151745331
  0
LINE
  5
292
100
AcDbEntity
  8
ASSI
100
AcDbLine
 62
7
  6
CONTINUOUS
 10
-99.4140330698
 20
-27.1501294386
 11
-100.3398702676
 21
-27.151745331
  0
LINE
  5
293
100
AcDbEntity
  8
0
100
AcDbLine
 62
250
  6
CONTINUOUS
 10
-99.4140976839
 20
-26.9276792439
 11
-100.3398702676
 21
-26.9280974384
  0
LINE
  5
294
100
AcDbEntity
  8
ASSI
100
AcDbLine
 62
250
  6
CONTINUOUS
 10
-99.4140976839
 20
-26.9276792439
 11
-100.3398702676
 21
-26.9280974384
  0
LINE
  5
295
100
AcDbEntity
  8
0
100
AcDbLine
 62
7
  6
CONTINUOUS
 10
-97.8898210354
 20
-26.3415638603
 11
-100.3398702676
 21
-26.3558178298
  0
LINE
  5
296
100
AcDbEntity
  8
ASSI
100
AcDbLine
 62
7
  6
CONTINUOUS
 10
-97.8898210354
 20
-26.3415638603
 11
-100.3398702676
 21
-26.3558178298
  0
LINE
  5
297
100
AcDbEntity
  8
0
100
AcDbLine
 62
250
  6
CONTINUOUS
 10
-97.8898210354
 20
-26.2536973817
 11
-100.3398702676
 21
-26.2679513512
  0
LINE
  5
298
100
AcDbEntity
  8
ASSI
100
AcDbLine
 62
250
  6
CONTINUOUS
 10
-97.8898210354
 20
-26.2536973817
 11
-100.3398702676
 21
-26.2679513512
  0
LINE
  5
299
100
AcDbEntity
  8
0
100
AcDbLine
 62
7
  6
CONTINUOUS
 10
-97.3398702676
 20
-26.1523612067
 11
-97.4604330347
 21
-26.1523612067
  0
LINE
  5
29A
100
AcDbEntity
  8
ASSI
100
AcDbLine
 62
7
  6
CONTINUOUS
 10
-97.3398702676
 20
-26.1523612067
 11
-97.4604330347
 21
-26.1523612067
  0
LINE
  5
29B
100
AcDbEntity
  8
0
100
AcDbLine
 62
7
  6
CONTINUOUS
 10
-99.3897458887
 20
-25.2
 11
-100.3398702676
 21
-25.2
  0
LINE
  5
29C
100
AcDbEntity
  8
ASSI
100
AcDbLine
 62
7
  6
CONTINUOUS
 10
-99.3897458887
 20
-25.2
 11
-100.3398702676
 21
-25.2
  0
LINE
  5
29D
100
AcDbEntity
  8
0
100
AcDbLine
 62
7
  6
CONTINUOUS
 10
-100.3398702676
 20
-25.05
 11
-100.1898702676
 21
-25.05
  0
LINE
  5
29E
100
AcDbEntity
  8
ASSI
100
AcDbLine
 62
7
  6
CONTINUOUS
 10
-100.3398702676
 20
-25.05
 11
-100.1898702676
 21
-25.05
  0
LINE
  5
29F
100
AcDbEntity
  8
0
100
AcDbLine
 62
7
  6
CONTINUOUS
 10
-99.8898702676
 20
-25.05
 11
-99.6898702676
 21
-25.05
  0
LINE
  5
2A0
100
AcDbEntity
  8
ASSI
100
AcDbLine
 62
7
  6
CONTINUOUS
 10
-99.8898702676
 20
-25.05
 11
-99.6898702676
 21
-25.05
  0
LINE
  5
2A1
100
AcDbEntity
  8
0
100
AcDbLine
 62
7
  6
CONTINUOUS
 10
-97.3398702676
 20
-25.3523612067
 11
-97.861806922
 21
-25.3478063346
  0
LINE
  5
2A2
100
AcDbEntity
  8
ASSI
100
AcDbLine
 62
7
  6
CONTINUOUS
 10
-97.3398702676
 20
-25.3523612067
 11
-97.861806922
 21
-25.3478063346
  0
LINE
  5
2A3
100
AcDbEntity
  8
0
100
AcDbLine
 62
7
  6
CONTINUOUS
 10
-100.3398702676
 20
-25.7558198745
 11
-97.5294030764
 21
-25.8799866677
  0
LINE
  5
2A4
100
AcDbEntity
  8
ASSI
100
AcDbLine
 62
7
  6
CONTINUOUS
 10
-100.3398702676
 20
-25.7558198745
 11
-97.5294030764
 21
-25.8799866677
  0
LINE
  5
2A5
100
AcDbEntity
  8
0
100
AcDbLine
 62
7
  6
CONTINUOUS
 10
-97.3398702676
 20
-25.4
 11
-99.2902421697
 21
-25.2049628098
  0
LINE
  5
2A6
100
AcDbEntity
  8
ASSI
100
AcDbLine
 62
7
  6
CONTINUOUS
 10
-97.3398702676
 20
-25.4
 11
-99.2902421697
 21
-25.2049628098
  0
LINE
  5
2A7
100
AcDbEntity
  8
0
100
AcDbLine
 62
7
  6
CONTINUOUS
 10
-100.1898702676
 20
25.05
 11
-100.0398702676
 21
25.2
  0
LINE
  5
2A8
100
AcDbEntity
  8
ASSI
100
AcDbLine
 62
7
  6
CONTINUOUS
 10
-100.1898702676
 20
25.05
 11
-100.0398702676
 21
25.2
  0
LINE
  5
2A9
100
AcDbEntity
  8
0
100
AcDbLine
 62
7
  6
CONTINUOUS
 10
-99.6898702676
 20
25.05
 11
-99.5398702676
 21
25.2
  0
LINE
  5
2AA
100
AcDbEntity
  8
ASSI
100
AcDbLine
 62
7
  6
CONTINUOUS
 10
-99.6898702676
 20
25.05
 11
-99.5398702676
 21
25.2
  0
LINE
  5
2AB
100
AcDbEntity
  8
0
100
AcDbLine
 62
7
  6
CONTINUOUS
 10
-100.1898702676
 20
-25.05
 11
-100.0398702676
 21
-25.2
  0
LINE
  5
2AC
100
AcDbEntity
  8
ASSI
100
AcDbLine
 62
7
  6
CONTINUOUS
 10
-100.1898702676
 20
-25.05
 11
-100.0398702676
 21
-25.2
  0
LINE
  5
2AD
100
AcDbEntity
  8
0
100
AcDbLine
 62
7
  6
CONTINUOUS
 10
-99.6898702676
 20
-25.05
 11
-99.5398702676
 21
-25.2
  0
LINE
  5
2AE
100
AcDbEntity
  8
ASSI
100
AcDbLine
 62
7
  6
CONTINUOUS
 10
-99.6898702676
 20
-25.05
 11
-99.5398702676
 21
-25.2
  0
LWPOLYLINE
  5
2AF
100
AcDbEntity
  8
0
100
AcDbPolyline
 62
7
  6
CONTINUOUS
 90
3
 70
0
 43
0.3500000006
 10
-91.3029554443
 20
64.0357166748
 10
-91.3743866272
 20
63.8214321899
 10
-91.5172399292
 20
63.5357165222
  0
LWPOLYLINE
  5
2B0
100
AcDbEntity
  8
0
100
AcDbPolyline
 62
7
  6
CONTINUOUS
 90
3
 70
0
 43
0.3500000006
 10
-92.3809762573
 20
54.035713623
 10
-92.4523983765
 20
53.8214291382
 10
-92.5952607422
 20
53.5357134705
  0
LINE
  5
2B1
100
AcDbEntity
  8
SMUSSO
100
AcDbLine
 62
7
  6
CONTINUOUS
 10
-107.8898702676
 20
-44.0
 11
-107.8898702676
 21
44.0
  0
LINE
  5
2B2
100
AcDbEntity
  8
SMUSSO
100
AcDbLine
 62
7
  6
CONTINUOUS
 10
-106.8898702676
 20
-45.0
 11
-106.8898702676
 21
45.0
  0
LINE
  5
2B3
100
AcDbEntity
  8
SMUSSO
100
AcDbLine
 62
7
  6
CONTINUOUS
 10
-105.3898702676
 20
45.0
 11
-105.3898702676
 21
-45.0
  0
LINE
  5
2B4
100
AcDbEntity
  8
SMUSSO
100
AcDbLine
 62
7
  6
CONTINUOUS
 10
-104.8898702676
 20
44.5
 11
-104.8898702676
 21
-44.5
  0
LINE
  5
2B5
100
AcDbEntity
  8
0
100
AcDbLine
 62
7
  6
CONTINUOUS
 10
-104.7398702676
 20
-44.3506196883
 11
-104.7398702676
 21
44.3506196883
  0
LINE
  5
2B6
100
AcDbEntity
  8
ASSI
100
AcDbLine
 62
7
  6
CONTINUOUS
 10
-104.7398702676
 20
-44.3506196883
 11
-104.7398702676
 21
44.3506196883
  0
LINE
  5
2B7
100
AcDbEntity
  8
0
100
AcDbLine
 62
250
  6
CONTINUOUS
 10
-104.2213362676
 20
-36.161141
 11
-104.2213362676
 21
-35.764569
  0
LINE
  5
2B8
100
AcDbEntity
  8
0
100
AcDbLine
 62
250
  6
CONTINUOUS
 10
-104.2212222676
 20
-32.582488
 11
-104.2212222676
 21
-32.966124
  0
LINE
  5
2B9
100
AcDbEntity
  8
0
100
AcDbLine
 62
250
  6
CONTINUOUS
 10
-104.2212222676
 20
-33.801966
 11
-104.2212222676
 21
-34.194336
  0
LINE
  5
2BA
100
AcDbEntity
  8
0
100
AcDbLine
 62
250
  6
CONTINUOUS
 10
-104.2212222676
 20
-34.983292
 11
-104.2212222676
 21
-35.379536
  0
LINE
  5
2BB
100
AcDbEntity
  8
0
100
AcDbLine
 62
250
  6
CONTINUOUS
 10
-104.2212222676
 20
-36.30831
 11
-104.2212222676
 21
-36.704611
  0
LINE
  5
2BC
100
AcDbEntity
  8
0
100
AcDbLine
 62
250
  6
CONTINUOUS
 10
-104.2212222676
 20
-37.439964
 11
-104.2212222676
 21
-37.870764
  0
LINE
  5
2BD
100
AcDbEntity
  8
0
100
AcDbLine
 62
250
  6
CONTINUOUS
 10
-103.3760200034
 20
-31.5012884969
 11
-103.3760200034
 21
-31.2746513441
  0
LINE
  5
2BE
100
AcDbEntity
  8
0
100
AcDbLine
 62
250
  6
CONTINUOUS
 10
-103.0648711841
 20
-31.2755061485
 11
-103.0648711841
 21
-31.4881387551
  0
LINE
  5
2BF
100
AcDbEntity
  8
0
100
AcDbLine
 62
250
  6
CONTINUOUS
 10
-102.9941362676
 20
-32.599527
 11
-102.9941362676
 21
-32.979217
  0
LINE
  5
2C0
100
AcDbEntity
  8
0
100
AcDbLine
 62
250
  6
CONTINUOUS
 10
-102.7006532676
 20
-33.060338
 11
-102.7006532676
 21
-32.520272
  0
LINE
  5
2C1
100
AcDbEntity
  8
0
100
AcDbLine
 62
250
  6
CONTINUOUS
 10
-102.3213765216
 20
-30.4993864496
 11
-102.3213765216
 21
-30.8808429347
  0
LINE
  5
2C2
100
AcDbEntity
  8
0
100
AcDbLine
 62
250
  6
CONTINUOUS
 10
-102.3213765216
 20
-31.4881387551
 11
-102.3213765216
 21
-31.8831153973
  0
LINE
  5
2C3
100
AcDbEntity
  8
0
100
AcDbLine
 62
250
  6
CONTINUOUS
 10
-102.3213762676
 20
-37.268476
 11
-102.3213762676
 21
-36.918996
  0
LINE
  5
2C4
100
AcDbEntity
  8
0
100
AcDbLine
 62
250
  6
CONTINUOUS
 10
-102.3213762676
 20
-35.551081
 11
-102.3213762676
 21
-35.171691
  0
LINE
  5
2C5
100
AcDbEntity
  8
0
100
AcDbLine
 62
250
  6
CONTINUOUS
 10
-102.3213762676
 20
-34.620883
 11
-102.3213762676
 21
-34.565264
  0
LINE
  5
2C6
100
AcDbEntity
  8
0
100
AcDbLine
 62
250
  6
CONTINUOUS
 10
-102.3213762676
 20
-34.012262
 11
-102.3213762676
 21
-33.624309
  0
LINE
  5
2C7
100
AcDbEntity
  8
0
100
AcDbLine
 62
250
  6
CONTINUOUS
 10
-102.3213762676
 20
-33.562037
 11
-102.3213762676
 21
-33.169767
  0
LINE
  5
2C8
100
AcDbEntity
  8
0
100
AcDbLine
 62
250
  6
CONTINUOUS
 10
-102.3213762676
 20
-32.417539
 11
-102.3213762676
 21
-31.999568
  0
LINE
  5
2C9
100
AcDbEntity
  8
0
100
AcDbLine
 62
250
  6
CONTINUOUS
 10
-102.3213762676
 20
-35.764569
 11
-102.3213762676
 21
-36.161141
  0
LINE
  5
2CA
100
AcDbEntity
  8
0
100
AcDbLine
 62
250
  6
CONTINUOUS
 10
-99.4140330819
 20
-27.1501294387
 11
-99.4140976839
 21
-26.9276792439
  0
LINE
  5
2CB
100
AcDbEntity
  8
ASSI
100
AcDbLine
 62
250
  6
CONTINUOUS
 10
-99.4140330819
 20
-27.1501294387
 11
-99.4140976839
 21
-26.9276792439
  0
LINE
  5
2CC
100
AcDbEntity
  8
0
100
AcDbLine
 62
7
  6
CONTINUOUS
 10
-101.8398702676
 20
43.3001523048
 11
-101.8398702676
 21
-43.3001523048
  0
LINE
  5
2CD
100
AcDbEntity
  8
ASSI
100
AcDbLine
 62
7
  6
CONTINUOUS
 10
-101.8398702676
 20
43.3001523048
 11
-101.8398702676
 21
-43.3001523048
  0
LINE
  5
2CE
100
AcDbEntity
  8
0
100
AcDbLine
 62
7
  6
CONTINUOUS
 10
-100.3398702676
 20
43.1
 11
-100.3398702676
 21
-43.1
  0
LINE
  5
2CF
100
AcDbEntity
  8
ASSI
100
AcDbLine
 62
7
  6
CONTINUOUS
 10
-100.3398702676
 20
43.1
 11
-100.3398702676
 21
-43.1
  0
LINE
  5
2D0
100
AcDbEntity
  8
0
100
AcDbLine
 62
250
  6
CONTINUOUS
 10
-99.4140976839
 20
26.9276792439
 11
-99.4140330819
 21
27.1501294387
  0
LINE
  5
2D1
100
AcDbEntity
  8
ASSI
100
AcDbLine
 62
250
  6
CONTINUOUS
 10
-99.4140976839
 20
26.9276792439
 11
-99.4140330819
 21
27.1501294387
  0
LINE
  5
2D2
100
AcDbEntity
  8
0
100
AcDbLine
 62
250
  6
CONTINUOUS
 10
-97.6241694808
 20
25.3715700787
 11
-97.6241694808
 21
25.3498801651
  0
LINE
  5
2D3
100
AcDbEntity
  8
ASSI
100
AcDbLine
 62
250
  6
CONTINUOUS
 10
-97.6241694808
 20
25.3715700787
 11
-97.6241694808
 21
25.3498801651
  0
LINE
  5
2D4
100
AcDbEntity
  8
0
100
AcDbLine
 62
250
  6
CONTINUOUS
 10
-97.6241694808
 20
-25.3498801651
 11
-97.6241694808
 21
-25.3715700787
  0
LINE
  5
2D5
100
AcDbEntity
  8
ASSI
100
AcDbLine
 62
250
  6
CONTINUOUS
 10
-97.6241694808
 20
-25.3498801651
 11
-97.6241694808
 21
-25.3715700787
  0
LINE
  5
2D6
100
AcDbEntity
  8
0
100
AcDbLine
 62
250
  6
CONTINUOUS
 10
-97.5294030764
 20
25.8799866677
 11
-97.5294030764
 21
25.3810467191
  0
LINE
  5
2D7
100
AcDbEntity
  8
ASSI
100
AcDbLine
 62
250
  6
CONTINUOUS
 10
-97.5294030764
 20
25.8799866677
 11
-97.5294030764
 21
25.3810467191
  0
LINE
  5
2D8
100
AcDbEntity
  8
0
100
AcDbLine
 62
250
  6
CONTINUOUS
 10
-97.5294030764
 20
-25.3810467191
 11
-97.5294030764
 21
-25.8799866677
  0
LINE
  5
2D9
100
AcDbEntity
  8
ASSI
100
AcDbLine
 62
250
  6
CONTINUOUS
 10
-97.5294030764
 20
-25.3810467191
 11
-97.5294030764
 21
-25.8799866677
  0
LINE
  5
2DA
100
AcDbEntity
  8
0
100
AcDbLine
 62
7
  6
CONTINUOUS
 10
-97.3398702676
 20
26.1523612067
 11
-97.3398702676
 21
25.3523612067
  0
LINE
  5
2DB
100
AcDbEntity
  8
ASSI
100
AcDbLine
 62
7
  6
CONTINUOUS
 10
-97.3398702676
 20
26.1523612067
 11
-97.3398702676
 21
25.3523612067
  0
LINE
  5
2DC
100
AcDbEntity
  8
0
100
AcDbLine
 62
7
  6
CONTINUOUS
 10
-97.3398702676
 20
-25.3523612067
 11
-97.3398702676
 21
-26.1523612067
  0
LINE
  5
2DD
100
AcDbEntity
  8
ASSI
100
AcDbLine
 62
7
  6
CONTINUOUS
 10
-97.3398702676
 20
-25.3523612067
 11
-97.3398702676
 21
-26.1523612067
  0
LWPOLYLINE
  5
2DE
100
AcDbEntity
  8
0
100
AcDbPolyline
 62
7
  6
CONTINUOUS
 90
4
 70
0
 43
0.3500000006
 10
-95.452399292
 20
56.1071454163
 10
-95.452399292
 20
56.7499988708
 10
-93.9523988342
 20
56.7499988708
 10
-94.8095458374
 20
53.7499979553
  0
LWPOLYLINE
  5
2DF
100
AcDbEntity
  8
0
100
AcDbPolyline
 62
7
  6
CONTINUOUS
 90
13
 70
0
 43
0.3500000006
 10
-94.3743875427
 20
64.6071389465
 10
-94.3743875427
 20
65.8928549194
 10
-94.1601030579
 20
66.3214329529
 10
-93.7315340881
 20
66.7500019226
 10
-93.5172405396
 20
66.7500019226
 10
-93.0886715698
 20
66.3214329529
 10
-92.874387085
 20
65.8928549194
 10
-92.874387085
 20
64.6071389465
 10
-93.0886715698
 20
64.1785699768
 10
-93.5172405396
 20
63.7500010071
 10
-93.7315340881
 20
63.7500010071
 10
-94.1601030579
 20
64.1785699768
 10
-94.3743875427
 20
64.6071389465
  0
LINE
  5
2E0
100
AcDbEntity
  8
0
100
AcDbLine
 62
7
  6
CONTINUOUS
 10
-100.0398702676
 20
-25.2
 11
-99.8898702676
 21
-25.05
  0
LINE
  5
2E1
100
AcDbEntity
  8
ASSI
100
AcDbLine
 62
7
  6
CONTINUOUS
 10
-100.0398702676
 20
-25.2
 11
-99.8898702676
 21
-25.05
  0
LINE
  5
2E2
100
AcDbEntity
  8
0
100
AcDbLine
 62
7
  6
CONTINUOUS
 10
-100.0398702676
 20
25.2
 11
-99.8898702676
 21
25.05
  0
LINE
  5
2E3
100
AcDbEntity
  8
ASSI
100
AcDbLine
 62
7
  6
CONTINUOUS
 10
-100.0398702676
 20
25.2
 11
-99.8898702676
 21
25.05
  0
LINE
  5
2E4
100
AcDbEntity
  8
0
100
AcDbLine
 62
250
  6
CONTINUOUS
 10
-99.4140976839
 20
-26.9276792439
 11
-98.314578824
 21
-26.3440350289
  0
LINE
  5
2E5
100
AcDbEntity
  8
ASSI
100
AcDbLine
 62
250
  6
CONTINUOUS
 10
-99.4140976839
 20
-26.9276792439
 11
-98.314578824
 21
-26.3440350289
  0
LINE
  5
2E6
100
AcDbEntity
  8
0
100
AcDbLine
 62
250
  6
CONTINUOUS
 10
-97.8898210354
 20
-26.2536973817
 11
-97.3677291827
 21
-25.9765617175
  0
LINE
  5
2E7
100
AcDbEntity
  8
ASSI
100
AcDbLine
 62
250
  6
CONTINUOUS
 10
-97.8898210354
 20
-26.2536973817
 11
-97.3677291827
 21
-25.9765617175
  0
LINE
  5
2E8
100
AcDbEntity
  8
0
100
AcDbLine
 62
7
  6
CONTINUOUS
 10
-97.3398702676
 20
-26.0883643404
 11
-99.2748583059
 21
-27.1154904916
  0
LINE
  5
2E9
100
AcDbEntity
  8
ASSI
100
AcDbLine
 62
7
  6
CONTINUOUS
 10
-97.3398702676
 20
-26.0883643404
 11
-99.2748583059
 21
-27.1154904916
  0
LINE
  5
2EA
100
AcDbEntity
  8
0
100
AcDbLine
 62
7
  6
CONTINUOUS
 10
-97.3398702676
 20
25.4
 11
-99.2902421697
 21
25.2049628098
  0
LINE
  5
2EB
100
AcDbEntity
  8
ASSI
100
AcDbLine
 62
7
  6
CONTINUOUS
 10
-97.3398702676
 20
25.4
 11
-99.2902421697
 21
25.2049628098
  0
LINE
  5
2EC
100
AcDbEntity
  8
0
100
AcDbLine
 62
7
  6
CONTINUOUS
 10
-100.3398702676
 20
25.7558198745
 11
-97.5294030764
 21
25.8799866677
  0
LINE
  5
2ED
100
AcDbEntity
  8
ASSI
100
AcDbLine
 62
7
  6
CONTINUOUS
 10
-100.3398702676
 20
25.7558198745
 11
-97.5294030764
 21
25.8799866677
  0
LINE
  5
2EE
100
AcDbEntity
  8
0
100
AcDbLine
 62
7
  6
CONTINUOUS
 10
-97.3398702676
 20
25.3523612067
 11
-97.861806922
 21
25.3478063346
  0
LINE
  5
2EF
100
AcDbEntity
  8
ASSI
100
AcDbLine
 62
7
  6
CONTINUOUS
 10
-97.3398702676
 20
25.3523612067
 11
-97.861806922
 21
25.3478063346
  0
LINE
  5
2F0
100
AcDbEntity
  8
0
100
AcDbLine
 62
7
  6
CONTINUOUS
 10
-100.3398702676
 20
25.05
 11
-100.1898702676
 21
25.05
  0
LINE
  5
2F1
100
AcDbEntity
  8
ASSI
100
AcDbLine
 62
7
  6
CONTINUOUS
 10
-100.3398702676
 20
25.05
 11
-100.1898702676
 21
25.05
  0
LINE
  5
2F2
100
AcDbEntity
  8
0
100
AcDbLine
 62
7
  6
CONTINUOUS
 10
-99.8898702676
 20
25.05
 11
-99.6898702676
 21
25.05
  0
LINE
  5
2F3
100
AcDbEntity
  8
ASSI
100
AcDbLine
 62
7
  6
CONTINUOUS
 10
-99.8898702676
 20
25.05
 11
-99.6898702676
 21
25.05
  0
LINE
  5
2F4
100
AcDbEntity
  8
0
100
AcDbLine
 62
7
  6
CONTINUOUS
 10
-100.3398702676
 20
25.2
 11
-99.3897458887
 21
25.2
  0
LINE
  5
2F5
100
AcDbEntity
  8
ASSI
100
AcDbLine
 62
7
  6
CONTINUOUS
 10
-100.3398702676
 20
25.2
 11
-99.3897458887
 21
25.2
  0
LINE
  5
2F6
100
AcDbEntity
  8
0
100
AcDbLine
 62
7
  6
CONTINUOUS
 10
-97.3398702676
 20
26.1523612067
 11
-97.4604330347
 21
26.1523612067
  0
LINE
  5
2F7
100
AcDbEntity
  8
ASSI
100
AcDbLine
 62
7
  6
CONTINUOUS
 10
-97.3398702676
 20
26.1523612067
 11
-97.4604330347
 21
26.1523612067
  0
LINE
  5
2F8
100
AcDbEntity
  8
0
100
AcDbLine
 62
250
  6
CONTINUOUS
 10
-99.4140976839
 20
26.9276792439
 11
-100.3398702676
 21
26.9280974384
  0
LINE
  5
2F9
100
AcDbEntity
  8
ASSI
100
AcDbLine
 62
250
  6
CONTINUOUS
 10
-99.4140976839
 20
26.9276792439
 11
-100.3398702676
 21
26.9280974384
  0
LINE
  5
2FA
100
AcDbEntity
  8
0
100
AcDbLine
 62
7
  6
CONTINUOUS
 10
-99.4140330698
 20
27.1501294386
 11
-100.3398702676
 21
27.151745331
  0
LINE
  5
2FB
100
AcDbEntity
  8
ASSI
100
AcDbLine
 62
7
  6
CONTINUOUS
 10
-99.4140330698
 20
27.1501294386
 11
-100.3398702676
 21
27.151745331
  0
LINE
  5
2FC
100
AcDbEntity
  8
0
100
AcDbLine
 62
250
  6
CONTINUOUS
 10
-97.8898210354
 20
26.2536973817
 11
-100.3398702676
 21
26.2679513512
  0
LINE
  5
2FD
100
AcDbEntity
  8
ASSI
100
AcDbLine
 62
250
  6
CONTINUOUS
 10
-97.8898210354
 20
26.2536973817
 11
-100.3398702676
 21
26.2679513512
  0
LINE
  5
2FE
100
AcDbEntity
  8
0
100
AcDbLine
 62
7
  6
CONTINUOUS
 10
-97.8898210354
 20
26.3415638603
 11
-100.3398702676
 21
26.3558178298
  0
LINE
  5
2FF
100
AcDbEntity
  8
ASSI
100
AcDbLine
 62
7
  6
CONTINUOUS
 10
-97.8898210354
 20
26.3415638603
 11
-100.3398702676
 21
26.3558178298
  0
LINE
  5
300
100
AcDbEntity
  8
0
100
AcDbLine
 62
250
  6
CONTINUOUS
 10
-98.314578824
 20
26.3440350289
 11
-99.4140976839
 21
26.9276792439
  0
LINE
  5
301
100
AcDbEntity
  8
ASSI
100
AcDbLine
 62
250
  6
CONTINUOUS
 10
-98.314578824
 20
26.3440350289
 11
-99.4140976839
 21
26.9276792439
  0
LINE
  5
302
100
AcDbEntity
  8
0
100
AcDbLine
 62
250
  6
CONTINUOUS
 10
-97.3677291827
 20
25.9765617175
 11
-97.8898210354
 21
26.2536973817
  0
LINE
  5
303
100
AcDbEntity
  8
ASSI
100
AcDbLine
 62
250
  6
CONTINUOUS
 10
-97.3677291827
 20
25.9765617175
 11
-97.8898210354
 21
26.2536973817
  0
LINE
  5
304
100
AcDbEntity
  8
0
100
AcDbLine
 62
7
  6
CONTINUOUS
 10
-97.3398702676
 20
26.0883643404
 11
-99.2748583059
 21
27.1154904916
  0
LINE
  5
305
100
AcDbEntity
  8
ASSI
100
AcDbLine
 62
7
  6
CONTINUOUS
 10
-97.3398702676
 20
26.0883643404
 11
-99.2748583059
 21
27.1154904916
  0
LINE
  5
306
100
AcDbEntity
  8
SMUSSO
100
AcDbLine
 62
7
  6
CONTINUOUS
 10
-104.8898702676
 20
-44.5
 11
-105.3898702676
 21
-45.0
  0
LINE
  5
307
100
AcDbEntity
  8
SMUSSO
100
AcDbLine
 62
7
  6
CONTINUOUS
 10
-104.8898702676
 20
44.5
 11
-105.3898702676
 21
45.0
  0
LINE
  5
308
100
AcDbEntity
  8
0
100
AcDbLine
 62
250
  6
CONTINUOUS
 10
-103.5619402676
 20
-35.08611
 11
-102.3213762676
 21
-34.620883
  0
LINE
  5
309
100
AcDbEntity
  8
0
100
AcDbLine
 62
250
  6
CONTINUOUS
 10
-103.1664222676
 20
-34.590908
 11
-104.2212222676
 21
-34.983292
  0
LINE
  5
30A
100
AcDbEntity
  8
0
100
AcDbLine
 62
250
  6
CONTINUOUS
 10
-102.3213762676
 20
-31.999568
 11
-104.2212222676
 21
-32.582488
  0
LWPOLYLINE
  5
30B
100
AcDbEntity
  8
0
100
AcDbPolyline
 62
7
  6
CONTINUOUS
 90
10
 70
0
 43
0.3500000006
 10
-92.4523983765
 20
54.2499981079
 10
-92.3809762573
 20
54.1071448059
 10
-92.3809762573
 20
54.035713623
 10
-92.5238295593
 20
53.8928557892
 10
-92.5952607422
 20
53.8928557892
 10
-92.666691925
 20
53.964286972
 10
-92.666691925
 20
54.035713623
 10
-92.5952607422
 20
54.1785714569
 10
-92.5238295593
 20
54.2499981079
 10
-92.4523983765
 20
54.2499981079
  0
LINE
  5
30C
100
AcDbEntity
  8
0
100
AcDbLine
 62
7
  6
CONTINUOUS
 10
-101.8390727088
 20
-44.2993619529
 11
-100.3398702676
 21
-43.1
  0
LINE
  5
30D
100
AcDbEntity
  8
ASSI
100
AcDbLine
 62
7
  6
CONTINUOUS
 10
-101.8390727088
 20
-44.2993619529
 11
-100.3398702676
 21
-43.1
  0
LINE
  5
30E
100
AcDbEntity
  8
0
100
AcDbLine
 62
250
  6
CONTINUOUS
 10
-104.2212222676
 20
-37.870764
 11
-102.3213762676
 21
-37.268476
  0
LINE
  5
30F
100
AcDbEntity
  8
0
100
AcDbLine
 62
7
  6
CONTINUOUS
 10
-101.8398702676
 20
44.3
 11
-100.3398702676
 21
43.1
  0
LINE
  5
310
100
AcDbEntity
  8
ASSI
100
AcDbLine
 62
7
  6
CONTINUOUS
 10
-101.8398702676
 20
44.3
 11
-100.3398702676
 21
43.1
  0
LINE
  5
311
100
AcDbEntity
  8
RACCORDO
100
AcDbLine
 62
250
  6
CONTINUOUS
 10
-104.8898702676
 20
37.0
 11
-104.7398702676
 21
37.0
  0
LINE
  5
312
100
AcDbEntity
  8
RACCORDO
100
AcDbLine
 62
7
  6
CONTINUOUS
 10
-104.8898702676
 20
39.0
 11
-104.7398702676
 21
39.0
  0
LWPOLYLINE
  5
313
100
AcDbEntity
  8
0
100
AcDbPolyline
 62
7
  6
CONTINUOUS
 90
10
 70
0
 43
0.3500000006
 10
-91.3743866272
 20
64.2500011597
 10
-91.3029554443
 20
64.1071387939
 10
-91.3029554443
 20
64.0357166748
 10
-91.4458178101
 20
63.8928543091
 10
-91.5172399292
 20
63.8928543091
 10
-91.5886711121
 20
63.9642854919
 10
-91.5886711121
 20
64.0357166748
 10
-91.5172399292
 20
64.1785699768
 10
-91.4458178101
 20
64.2500011597
 10
-91.3743866272
 20
64.2500011597
  0
LINE
  5
314
100
AcDbEntity
  8
SMUSSO
100
AcDbLine
 62
250
  6
CONTINUOUS
 10
-104.8898702676
 20
44.0
 11
-107.8898702676
 21
44.0
  0
LINE
  5
315
100
AcDbEntity
  8
SMUSSO
100
AcDbLine
 62
7
  6
CONTINUOUS
 10
-106.8898702676
 20
45.0
 11
-105.3898702676
 21
45.0
  0
LWPOLYLINE
  5
316
100
AcDbEntity
  8
0
100
AcDbPolyline
 62
7
  6
CONTINUOUS
 90
8
 70
0
 43
0.3500000006
 10
-91.3809759521
 20
53.7499979553
 10
-90.523828949
 20
53.7499979553
 10
-90.0952599792
 20
54.1785714569
 10
-90.0952599792
 20
55.0357139282
 10
-90.523828949
 20
55.4642874298
 10
-91.3809759521
 20
55.4642874298
 10
-91.3809759521
 20
56.7499988708
 10
-90.0952599792
 20
56.7499988708
  0
LWPOLYLINE
  5
317
100
AcDbEntity
  8
0
100
AcDbPolyline
 62
7
  6
CONTINUOUS
 90
8
 70
0
 43
0.3500000006
 10
-89.2381129761
 20
53.7499979553
 10
-88.3809750366
 20
53.7499979553
 10
-87.9524060669
 20
54.1785714569
 10
-87.9524060669
 20
55.0357139282
 10
-88.3809750366
 20
55.4642874298
 10
-89.2381129761
 20
55.4642874298
 10
-89.2381129761
 20
56.7499988708
 10
-87.9524060669
 20
56.7499988708
  0
LWPOLYLINE
  5
318
100
AcDbEntity
  8
0
100
AcDbPolyline
 62
7
  6
CONTINUOUS
 90
8
 70
0
 43
0.3500000006
 10
-90.3029551392
 20
63.7500010071
 10
-89.4458171997
 20
63.7500010071
 10
-89.01724823
 20
64.1785699768
 10
-89.01724823
 20
65.03571698
 10
-89.4458171997
 20
65.4642859497
 10
-90.3029551392
 20
65.4642859497
 10
-90.3029551392
 20
66.7500019226
 10
-89.01724823
 20
66.7500019226
  0
LWPOLYLINE
  5
319
100
AcDbEntity
  8
0
100
AcDbPolyline
 62
7
  6
CONTINUOUS
 90
8
 70
0
 43
0.3500000006
 10
-88.1601012268
 20
63.7500010071
 10
-87.3029542236
 20
63.7500010071
 10
-86.8743852539
 20
64.1785699768
 10
-86.8743852539
 20
65.03571698
 10
-87.3029542236
 20
65.4642859497
 10
-88.1601012268
 20
65.4642859497
 10
-88.1601012268
 20
66.7500019226
 10
-86.8743852539
 20
66.7500019226
  0
LINE
  5
31A
100
AcDbEntity
  8
0
100
AcDbLine
 62
250
  6
CONTINUOUS
 10
-104.7398702676
 20
43.3507719931
 11
-101.8398702676
 21
43.3001523048
  0
LINE
  5
31B
100
AcDbEntity
  8
ASSI
100
AcDbLine
 62
250
  6
CONTINUOUS
 10
-104.7398702676
 20
43.3507719931
 11
-101.8398702676
 21
43.3001523048
  0
LINE
  5
31C
100
AcDbEntity
  8
0
100
AcDbLine
 62
7
  6
CONTINUOUS
 10
-104.7398702676
 20
44.3506196883
 11
-101.8398702676
 21
44.3
  0
LINE
  5
31D
100
AcDbEntity
  8
ASSI
100
AcDbLine
 62
7
  6
CONTINUOUS
 10
-104.7398702676
 20
44.3506196883
 11
-101.8398702676
 21
44.3
  0
LINE
  5
31E
100
AcDbEntity
  8
0
100
AcDbLine
 62
250
  6
CONTINUOUS
 10
-101.8390727088
 20
43.3354659698
 11
-100.3398702676
 21
43.0384032275
  0
LINE
  5
31F
100
AcDbEntity
  8
ASSI
100
AcDbLine
 62
250
  6
CONTINUOUS
 10
-101.8390727088
 20
43.3354659698
 11
-100.3398702676
 21
43.0384032275
  0
ARC
  5
320
100
AcDbEntity
  8
RACCORDO
100
AcDbCircle
 62
7
  6
CONTINUOUS
 10
-44.0750000001
 20
-21.55
 40
1.2
100
AcDbArc
 50
180.0
 51
270.0
  0
ARC
  5
321
100
AcDbEntity
  8
RACCORDO
100
AcDbCircle
 62
7
  6
CONTINUOUS
 10
44.0249999999
 20
-21.55
 40
1.2
100
AcDbArc
 50
270.0
 51
360.0
  0
ARC
  5
322
100
AcDbEntity
  8
RACCORDO
100
AcDbCircle
 62
7
  6
CONTINUOUS
 10
44.0249999999
 20
21.55
 40
1.2
100
AcDbArc
 50
0.0
 51
90.0
  0
ARC
  5
323
100
AcDbEntity
  8
RACCORDO
100
AcDbCircle
 62
7
  6
CONTINUOUS
 10
-44.0750000001
 20
21.55
 40
1.2
100
AcDbArc
 50
90.0
 51
180.0
  0
ARC
  5
324
100
AcDbEntity
  8
SMUSSO
100
AcDbCircle
 62
7
  6
CONTINUOUS
 10
-71.2750000001
 20
44.0
 40
1.0
100
AcDbArc
 50
90.0
 51
180.0
  0
ARC
  5
325
100
AcDbEntity
  8
SMUSSO
100
AcDbCircle
 62
7
  6
CONTINUOUS
 10
-71.2750000001
 20
-44.0
 40
1.0
100
AcDbArc
 50
180.0
 51
270.0
  0
ARC
  5
326
100
AcDbEntity
  8
SMUSSO
100
AcDbCircle
 62
7
  6
CONTINUOUS
 10
71.2249999999
 20
-44.0
 40
1.0
100
AcDbArc
 50
270.0
 51
360.0
  0
ARC
  5
327
100
AcDbEntity
  8
SMUSSO
100
AcDbCircle
 62
7
  6
CONTINUOUS
 10
71.2249999999
 20
44.0
 40
1.0
100
AcDbArc
 50
0.0
 51
90.0
  0
ARC
  5
328
100
AcDbEntity
  8
0
100
AcDbCircle
 62
7
  6
CONTINUOUS
 10
-99.3897458887
 20
-26.2
 40
1.0
100
AcDbArc
 50
84.2894068625
 51
90.0
  0
ARC
  5
329
100
AcDbEntity
  8
ASSI
100
AcDbCircle
 62
7
  6
CONTINUOUS
 10
-99.3897458887
 20
-26.2
 40
1.0
100
AcDbArc
 50
84.2894068625
 51
90.0
  0
ARC
  5
32A
100
AcDbEntity
  8
0
100
AcDbCircle
 62
7
  6
CONTINUOUS
 10
-99.4145570827
 20
-26.8499995703
 40
0.3
100
AcDbArc
 50
270.0999999936
 51
297.9490718565
  0
ARC
  5
32B
100
AcDbEntity
  8
ASSI
100
AcDbCircle
 62
7
  6
CONTINUOUS
 10
-99.4145570827
 20
-26.8499995703
 40
0.3
100
AcDbArc
 50
270.0999999936
 51
297.9490718565
  0
ARC
  5
32C
100
AcDbEntity
  8
0
100
AcDbCircle
 62
7
  6
CONTINUOUS
 10
-99.3897458887
 20
26.2
 40
1.0
100
AcDbArc
 50
270.0
 51
275.7105931375
  0
ARC
  5
32D
100
AcDbEntity
  8
ASSI
100
AcDbCircle
 62
7
  6
CONTINUOUS
 10
-99.3897458887
 20
26.2
 40
1.0
100
AcDbArc
 50
270.0
 51
275.7105931375
  0
ARC
  5
32E
100
AcDbEntity
  8
0
100
AcDbCircle
 62
7
  6
CONTINUOUS
 10
-99.4145570827
 20
26.8499995703
 40
0.3
100
AcDbArc
 50
62.0509281435
 51
89.9000000064
  0
ARC
  5
32F
100
AcDbEntity
  8
ASSI
100
AcDbCircle
 62
7
  6
CONTINUOUS
 10
-99.4145570827
 20
26.8499995703
 40
0.3
100
AcDbArc
 50
62.0509281435
 51
89.9000000064
  0
ARC
  5
330
100
AcDbEntity
  8
0
100
AcDbCircle
 62
7
  6
CONTINUOUS
 10
-97.8915663548
 20
-26.0415689373
 40
0.3
100
AcDbArc
 50
270.3333333333
 51
297.9601595792
  0
ARC
  5
331
100
AcDbEntity
  8
ASSI
100
AcDbCircle
 62
7
  6
CONTINUOUS
 10
-97.8915663548
 20
-26.0415689373
 40
0.3
100
AcDbArc
 50
270.3333333333
 51
297.9601595792
  0
ARC
  5
332
100
AcDbEntity
  8
0
100
AcDbCircle
 62
7
  6
CONTINUOUS
 10
-97.8915663548
 20
26.0415689373
 40
0.3
100
AcDbArc
 50
62.0398404207
 51
89.6666666667
  0
ARC
  5
333
100
AcDbEntity
  8
ASSI
100
AcDbCircle
 62
7
  6
CONTINUOUS
 10
-97.8915663548
 20
26.0415689373
 40
0.3
100
AcDbArc
 50
62.0398404207
 51
89.6666666667
  0
SPLINE
  5
334
100
AcDbEntity
  8
0
100
AcDbSpline
 62
250
  6
CONTINUOUS
 70
0
 71
3
 72
17
 73
13
 74
0
 42
0.0000001
 43
0.0000001
 44
0.0000000001
 40
0.0
 40
0.0
 40
0.0
 40
0.0
 40
0.2246664094
 40
0.4244159606
 40
0.5968698275
 40
0.740116107
 40
0.852966033
 40
0.9343261697
 40
0.9629605269
 40
0.9834868471
 40
0.9958490574
 40
1.0
 40
1.0
 40
1.0
 40
1.0
 10
-97.8898210354
 20
26.2536973817
 30
0.0
 10
-97.88979861
 20
26.2602777389
 30
0.0
 10
-97.8897593568
 20
26.2727082659
 30
0.0
 10
-97.8897124039
 20
26.2901918491
 30
0.0
 10
-97.889687934
 20
26.3052846155
 30
0.0
 10
-97.8896665621
 20
26.3178494928
 30
0.0
 10
-97.8897010012
 20
26.3277000543
 30
0.0
 10
-97.8896629353
 20
26.3342971317
 30
0.0
 10
-97.8897700582
 20
26.3380251079
 30
0.0
 10
-97.8896628359
 20
26.3399838662
 30
0.0
 10
-97.8899165783
 20
26.3407901078
 30
0.0
 10
-97.8896994579
 20
26.341563153
 30
0.0
 10
-97.8898210354
 20
26.3415638603
 30
0.0
  0
SPLINE
  5
335
100
AcDbEntity
  8
0
100
AcDbSpline
 62
250
  6
CONTINUOUS
 70
0
 71
3
 72
9
 73
5
 74
0
 42
0.0000001
 43
0.0000001
 44
0.0000000001
 40
0.0
 40
0.0
 40
0.0
 40
0.0
 40
0.4668693085
 40
1.0
 40
1.0
 40
1.0
 40
1.0
 10
-97.7509091064
 20
-26.3065510847
 30
0.0
 10
-97.7579204405
 20
-26.3102728259
 30
0.0
 10
-97.774971972
 20
-26.3146669903
 30
0.0
 10
-97.7921348782
 20
-26.3121983173
 30
0.0
 10
-97.8008910116
 20
-26.3098541296
 30
0.0
  0
SPLINE
  5
336
100
AcDbEntity
  8
0
100
AcDbSpline
 62
250
  6
CONTINUOUS
 70
0
 71
3
 72
9
 73
5
 74
0
 42
0.0000001
 43
0.0000001
 44
0.0000000001
 40
0.0
 40
0.0
 40
0.0
 40
0.0
 40
0.2245927226
 40
1.0
 40
1.0
 40
1.0
 40
1.0
 10
-97.8008910116
 20
-26.3098541296
 30
0.0
 10
-97.8048643002
 20
-26.3087904027
 30
0.0
 10
-97.8222866392
 20
-26.3030445891
 30
0.0
 10
-97.8384340421
 20
-26.2939058981
 30
0.0
 10
-97.8501875745
 20
-26.2859359683
 30
0.0
  0
SPLINE
  5
337
100
AcDbEntity
  8
0
100
AcDbSpline
 62
250
  6
CONTINUOUS
 70
0
 71
3
 72
9
 73
5
 74
0
 42
0.0000001
 43
0.0000001
 44
0.0000000001
 40
0.0
 40
0.0
 40
0.0
 40
0.0
 40
0.2353640718
 40
1.0
 40
1.0
 40
1.0
 40
1.0
 10
-97.8501875745
 20
-26.2859359683
 30
0.0
 10
-97.8535070918
 20
-26.2836850433
 30
0.0
 10
-97.8673767259
 20
-26.2737769764
 30
0.0
 10
-97.8803518812
 20
-26.2626477976
 30
0.0
 10
-97.8898210354
 20
-26.2536973817
 30
0.0
  0
SPLINE
  5
338
100
AcDbEntity
  8
0
100
AcDbSpline
 62
7
  6
CONTINUOUS
 70
0
 71
3
 72
9
 73
5
 74
0
 42
0.0000001
 43
0.0000001
 44
0.0000000001
 40
0.0
 40
0.0
 40
0.0
 40
0.0
 40
0.217121764
 40
1.0
 40
1.0
 40
1.0
 40
1.0
 10
-97.3398702676
 20
26.0463167932
 30
0.0
 10
-97.3398702676
 20
26.0430886465
 30
0.0
 10
-97.3413496024
 20
26.0282096445
 30
0.0
 10
-97.3473820079
 20
26.0142388229
 30
0.0
 10
-97.3525801341
 20
26.003824239
 30
0.0
  0
SPLINE
  5
339
100
AcDbEntity
  8
0
100
AcDbSpline
 62
7
  6
CONTINUOUS
 70
0
 71
3
 72
9
 73
5
 74
0
 42
0.0000001
 43
0.0000001
 44
0.0000000001
 40
0.0
 40
0.0
 40
0.0
 40
0.0
 40
0.2349008651
 40
1.0
 40
1.0
 40
1.0
 40
1.0
 10
-97.3525801341
 20
26.003824239
 30
0.0
 10
-97.3536708873
 20
26.001638886
 30
0.0
 10
-97.3584542549
 20
25.9924052075
 30
0.0
 10
-97.3636644649
 20
25.9834002091
 30
0.0
 10
-97.3677291827
 20
25.9765617175
 30
0.0
  0
SPLINE
  5
33A
100
AcDbEntity
  8
0
100
AcDbSpline
 62
250
  6
CONTINUOUS
 70
0
 71
3
 72
9
 73
5
 74
0
 42
0.0000001
 43
0.0000001
 44
0.0000000001
 40
0.0
 40
0.0
 40
0.0
 40
0.0
 40
0.4668781052
 40
1.0
 40
1.0
 40
1.0
 40
1.0
 10
-97.7509091064
 20
26.3065510847
 30
0.0
 10
-97.757919223
 20
26.3102721796
 30
0.0
 10
-97.7749671005
 20
26.3146662047
 30
0.0
 10
-97.7921268798
 20
26.3121995974
 30
0.0
 10
-97.8008813983
 20
26.3098567026
 30
0.0
  0
SPLINE
  5
33B
100
AcDbEntity
  8
0
100
AcDbSpline
 62
250
  6
CONTINUOUS
 70
0
 71
3
 72
9
 73
5
 74
0
 42
0.0000001
 43
0.0000001
 44
0.0000000001
 40
0.0
 40
0.0
 40
0.0
 40
0.0
 40
0.2245859035
 40
1.0
 40
1.0
 40
1.0
 40
1.0
 10
-97.8008813983
 20
26.3098567026
 30
0.0
 10
-97.8048556367
 20
26.3087931121
 30
0.0
 10
-97.8222826625
 20
26.303047083
 30
0.0
 10
-97.8384341432
 20
26.2939060753
 30
0.0
 10
-97.8501905432
 20
26.2859339556
 30
0.0
  0
SPLINE
  5
33C
100
AcDbEntity
  8
0
100
AcDbSpline
 62
250
  6
CONTINUOUS
 70
0
 71
3
 72
9
 73
5
 74
0
 42
0.0000001
 43
0.0000001
 44
0.0000000001
 40
0.0
 40
0.0
 40
0.0
 40
0.0
 40
0.2353654325
 40
1.0
 40
1.0
 40
1.0
 40
1.0
 10
-97.8501905432
 20
26.2859339556
 30
0.0
 10
-97.853509815
 20
26.2836831278
 30
0.0
 10
-97.8673783605
 20
26.2737755928
 30
0.0
 10
-97.8803525613
 20
26.2626471547
 30
0.0
 10
-97.8898210354
 20
26.2536973817
 30
0.0
  0
SPLINE
  5
33D
100
AcDbEntity
  8
0
100
AcDbSpline
 62
250
  6
CONTINUOUS
 70
0
 71
3
 72
9
 73
5
 74
0
 42
0.0000001
 43
0.0000001
 44
0.0000000001
 40
0.0
 40
0.0
 40
0.0
 40
0.0
 40
0.5592333706
 40
1.0
 40
1.0
 40
1.0
 40
1.0
 10
-99.4140976839
 20
-26.9276792439
 30
0.0
 10
-99.3979036462
 20
-26.9561522785
 30
0.0
 10
-99.3678143155
 20
-27.0064142167
 30
0.0
 10
-99.3350388131
 20
-27.0550683402
 30
0.0
 10
-99.3192487587
 20
-27.0754937408
 30
0.0
  0
SPLINE
  5
33E
100
AcDbEntity
  8
0
100
AcDbSpline
 62
250
  6
CONTINUOUS
 70
0
 71
3
 72
10
 73
6
 74
0
 42
0.0000001
 43
0.0000001
 44
0.0000000001
 40
0.0
 40
0.0
 40
0.0
 40
0.0
 40
0.6949908743
 40
0.8908703544
 40
1.0
 40
1.0
 40
1.0
 40
1.0
 10
-99.3192487587
 20
-27.0754937408
 30
0.0
 10
-99.3104855863
 20
-27.0868294399
 30
0.0
 10
-99.2984511478
 20
-27.1012271946
 30
0.0
 10
-99.2829916209
 20
-27.114235828
 30
0.0
 10
-99.2759533665
 20
-27.1160666395
 30
0.0
 10
-99.273964034
 20
-27.1150157961
 30
0.0
  0
SPLINE
  5
33F
100
AcDbEntity
  8
0
100
AcDbSpline
 62
250
  6
CONTINUOUS
 70
0
 71
3
 72
9
 73
5
 74
0
 42
0.0000001
 43
0.0000001
 44
0.0000000001
 40
0.0
 40
0.0
 40
0.0
 40
0.0
 40
0.5597330227
 40
1.0
 40
1.0
 40
1.0
 40
1.0
 10
-99.4140976839
 20
26.9276792439
 30
0.0
 10
-99.3978285008
 20
26.9562716877
 30
0.0
 10
-99.3675976338
 20
27.0066805762
 30
0.0
 10
-99.3347045485
 20
27.0554981847
 30
0.0
 10
-99.3188548558
 20
27.0759515001
 30
0.0
  0
SPLINE
  5
340
100
AcDbEntity
  8
0
100
AcDbSpline
 62
250
  6
CONTINUOUS
 70
0
 71
3
 72
10
 73
6
 74
0
 42
0.0000001
 43
0.0000001
 44
0.0000000001
 40
0.0
 40
0.0
 40
0.0
 40
0.0
 40
0.69493519
 40
0.8907926405
 40
1.0
 40
1.0
 40
1.0
 40
1.0
 10
-99.3188548558
 20
27.0759515001
 30
0.0
 10
-99.3101662666
 20
27.0871637337
 30
0.0
 10
-99.2982157344
 20
27.101386897
 30
0.0
 10
-99.2829094678
 20
27.1142598408
 30
0.0
 10
-99.275931028
 20
27.1160645007
 30
0.0
 10
-99.273964034
 20
27.1150157961
 30
0.0
  0
SPLINE
  5
341
100
AcDbEntity
  8
0
100
AcDbSpline
 62
7
  6
CONTINUOUS
 70
0
 71
3
 72
9
 73
5
 74
0
 42
0.0000001
 43
0.0000001
 44
0.0000000001
 40
0.0
 40
0.0
 40
0.0
 40
0.0
 40
0.5701360036
 40
1.0
 40
1.0
 40
1.0
 40
1.0
 10
-97.3677291827
 20
-25.9765617175
 30
0.0
 10
-97.3603797721
 20
-25.9889263847
 30
0.0
 10
-97.3477796892
 20
-26.010636877
 30
0.0
 10
-97.3398702676
 20
-26.0354717416
 30
0.0
 10
-97.3398702676
 20
-26.0463167932
 30
0.0
  0
SPLINE
  5
342
100
AcDbEntity
  8
0
100
AcDbSpline
 62
7
  6
CONTINUOUS
 70
0
 71
3
 72
19
 73
15
 74
0
 42
0.0000001
 43
0.0000001
 44
0.0000000001
 40
0.0
 40
0.0
 40
0.0
 40
0.0
 40
0.0090672278
 40
0.0265243913
 40
0.0526393369
 40
0.0872796429
 40
0.1302007197
 40
0.1810383301
 40
0.2393720001
 40
0.30468747
 40
0.4539566183
 40
0.6236409282
 40
0.8078037869
 40
1.0
 40
1.0
 40
1.0
 40
1.0
 10
-101.8390727088
 20
-44.2993619529
 30
0.0
 10
-101.8367928497
 20
-44.2975380657
 30
0.0
 10
-101.83402041
 20
-44.2887330059
 30
0.0
 10
-101.8306006573
 20
-44.2725983932
 30
0.0
 10
-101.8277049272
 20
-44.2473235247
 30
0.0
 10
-101.8251133416
 20
-44.2141365829
 30
0.0
 10
-101.823076723
 20
-44.1728009586
 30
0.0
 10
-101.8215799141
 20
-44.123861178
 30
0.0
 10
-101.8206856679
 20
-44.0676777335
 30
0.0
 10
-101.8202928154
 20
-43.9797992927
 30
0.0
 10
-101.8215343648
 20
-43.8560639419
 30
0.0
 10
-101.8252984487
 20
-43.6941016792
 30
0.0
 10
-101.8312058791
 20
-43.5183724557
 30
0.0
 10
-101.836278131
 20
-43.3972899535
 30
0.0
 10
-101.8390727088
 20
-43.3354659698
 30
0.0
  0
SPLINE
  5
343
100
AcDbEntity
  8
0
100
AcDbSpline
 62
7
  6
CONTINUOUS
 70
0
 71
3
 72
19
 73
15
 74
0
 42
0.0000001
 43
0.0000001
 44
0.0000000001
 40
0.0
 40
0.0
 40
0.0
 40
0.0
 40
0.1921961277
 40
0.3763590266
 40
0.5460436262
 40
0.6953125325
 40
0.7606278794
 40
0.8189615056
 40
0.8697991861
 40
0.9127203772
 40
0.947360708
 40
0.9734756303
 40
0.9909327789
 40
1.0
 40
1.0
 40
1.0
 40
1.0
 10
-101.8390727088
 20
43.3354659698
 30
0.0
 10
-101.8362781323
 20
43.397289926
 30
0.0
 10
-101.8312058806
 20
43.5183724138
 30
0.0
 10
-101.8252984474
 20
43.694101716
 30
0.0
 10
-101.8215343627
 20
43.8560640071
 30
0.0
 10
-101.820292818
 20
43.9797993338
 30
0.0
 10
-101.8206856646
 20
44.0676776429
 30
0.0
 10
-101.8215799103
 20
44.1238610564
 30
0.0
 10
-101.8230767254
 20
44.172800882
 30
0.0
 10
-101.8251133402
 20
44.214136574
 30
0.0
 10
-101.8277049275
 20
44.2473235533
 30
0.0
 10
-101.8306006621
 20
44.2725984163
 30
0.0
 10
-101.8340204097
 20
44.2887330165
 30
0.0
 10
-101.8367928514
 20
44.297538067
 30
0.0
 10
-101.8390727088
 20
44.2993619529
 30
0.0
  0
SPLINE
  5
344
100
AcDbEntity
  8
0
100
AcDbSpline
 62
250
  6
CONTINUOUS
 70
0
 71
3
 72
17
 73
13
 74
0
 42
0.0000001
 43
0.0000001
 44
0.0000000001
 40
0.0
 40
0.0
 40
0.0
 40
0.0
 40
0.0041509426
 40
0.0165131528
 40
0.0370394731
 40
0.0656738303
 40
0.147033967
 40
0.259883893
 40
0.4031301725
 40
0.5755840393
 40
0.7753335906
 40
1.0
 40
1.0
 40
1.0
 40
1.0
 10
-97.8898210354
 20
-26.3415638603
 30
0.0
 10
-97.8896994579
 20
-26.341563153
 30
0.0
 10
-97.8899165783
 20
-26.3407901078
 30
0.0
 10
-97.8896628359
 20
-26.3399838662
 30
0.0
 10
-97.8897700582
 20
-26.3380251079
 30
0.0
 10
-97.8896629353
 20
-26.3342971317
 30
0.0
 10
-97.8897010012
 20
-26.3277000543
 30
0.0
 10
-97.8896665621
 20
-26.3178494928
 30
0.0
 10
-97.889687934
 20
-26.3052846155
 30
0.0
 10
-97.8897124039
 20
-26.2901918491
 30
0.0
 10
-97.8897593568
 20
-26.2727082659
 30
0.0
 10
-97.88979861
 20
-26.2602777389
 30
0.0
 10
-97.8898210354
 20
-26.2536973817
 30
0.0
  0
SPLINE
  5
345
100
AcDbEntity
  8
ASSI
100
AcDbSpline
 62
7
  6
CONTINUOUS
 70
0
 71
3
 72
9
 73
5
 74
0
 42
0.0000001
 43
0.0000001
 44
0.0000000001
 40
0.0
 40
0.0
 40
0.0
 40
0.0
 40
0.5701360036
 40
1.0
 40
1.0
 40
1.0
 40
1.0
 10
-97.3677291827
 20
-25.9765617175
 30
0.0
 10
-97.3603797721
 20
-25.9889263847
 30
0.0
 10
-97.3477796892
 20
-26.010636877
 30
0.0
 10
-97.3398702676
 20
-26.0354717416
 30
0.0
 10
-97.3398702676
 20
-26.0463167932
 30
0.0
  0
SPLINE
  5
346
100
AcDbEntity
  8
ASSI
100
AcDbSpline
 62
250
  6
CONTINUOUS
 70
0
 71
3
 72
9
 73
5
 74
0
 42
0.0000001
 43
0.0000001
 44
0.0000000001
 40
0.0
 40
0.0
 40
0.0
 40
0.0
 40
0.5592333807
 40
1.0
 40
1.0
 40
1.0
 40
1.0
 10
-99.4140976839
 20
-26.9276792439
 30
0.0
 10
-99.3979036447
 20
-26.956152281
 30
0.0
 10
-99.3678143118
 20
-27.0064142228
 30
0.0
 10
-99.3350388067
 20
-27.0550683495
 30
0.0
 10
-99.3192487511
 20
-27.0754937506
 30
0.0
  0
SPLINE
  5
347
100
AcDbEntity
  8
ASSI
100
AcDbSpline
 62
250
  6
CONTINUOUS
 70
0
 71
3
 72
10
 73
6
 74
0
 42
0.0000001
 43
0.0000001
 44
0.0000000001
 40
0.0
 40
0.0
 40
0.0
 40
0.0
 40
0.6949908683
 40
0.8908703485
 40
1.0
 40
1.0
 40
1.0
 40
1.0
 10
-99.3192487511
 20
-27.0754937506
 30
0.0
 10
-99.3104855803
 20
-27.0868294472
 30
0.0
 10
-99.298451144
 20
-27.1012271985
 30
0.0
 10
-99.2829916193
 20
-27.1142358287
 30
0.0
 10
-99.2759533662
 20
-27.1160666393
 30
0.0
 10
-99.273964034
 20
-27.1150157961
 30
0.0
  0
SPLINE
  5
348
100
AcDbEntity
  8
ASSI
100
AcDbSpline
 62
250
  6
CONTINUOUS
 70
0
 71
3
 72
9
 73
5
 74
0
 42
0.0000001
 43
0.0000001
 44
0.0000000001
 40
0.0
 40
0.0
 40
0.0
 40
0.0
 40
0.4668781054
 40
1.0
 40
1.0
 40
1.0
 40
1.0
 10
-97.7509091064
 20
26.3065510847
 30
0.0
 10
-97.757919223
 20
26.3102721796
 30
0.0
 10
-97.7749671003
 20
26.3146662047
 30
0.0
 10
-97.7921268795
 20
26.3121995975
 30
0.0
 10
-97.800881398
 20
26.3098567027
 30
0.0
  0
SPLINE
  5
349
100
AcDbEntity
  8
ASSI
100
AcDbSpline
 62
250
  6
CONTINUOUS
 70
0
 71
3
 72
9
 73
5
 74
0
 42
0.0000001
 43
0.0000001
 44
0.0000000001
 40
0.0
 40
0.0
 40
0.0
 40
0.0
 40
0.2245859034
 40
1.0
 40
1.0
 40
1.0
 40
1.0
 10
-97.800881398
 20
26.3098567027
 30
0.0
 10
-97.8048556364
 20
26.3087931122
 30
0.0
 10
-97.8222826623
 20
26.3030470831
 30
0.0
 10
-97.838434143
 20
26.2939060754
 30
0.0
 10
-97.8501905431
 20
26.2859339557
 30
0.0
  0
SPLINE
  5
34A
100
AcDbEntity
  8
ASSI
100
AcDbSpline
 62
250
  6
CONTINUOUS
 70
0
 71
3
 72
9
 73
5
 74
0
 42
0.0000001
 43
0.0000001
 44
0.0000000001
 40
0.0
 40
0.0
 40
0.0
 40
0.0
 40
0.2353654324
 40
1.0
 40
1.0
 40
1.0
 40
1.0
 10
-97.8501905431
 20
26.2859339557
 30
0.0
 10
-97.8535098148
 20
26.2836831279
 30
0.0
 10
-97.8673783604
 20
26.2737755929
 30
0.0
 10
-97.8803525613
 20
26.2626471548
 30
0.0
 10
-97.8898210354
 20
26.2536973817
 30
0.0
  0
SPLINE
  5
34B
100
AcDbEntity
  8
ASSI
100
AcDbSpline
 62
7
  6
CONTINUOUS
 70
0
 71
3
 72
9
 73
5
 74
0
 42
0.0000001
 43
0.0000001
 44
0.0000000001
 40
0.0
 40
0.0
 40
0.0
 40
0.0
 40
0.217121764
 40
1.0
 40
1.0
 40
1.0
 40
1.0
 10
-97.3398702676
 20
26.0463167932
 30
0.0
 10
-97.3398702676
 20
26.0430886465
 30
0.0
 10
-97.3413496024
 20
26.0282096444
 30
0.0
 10
-97.3473820079
 20
26.0142388229
 30
0.0
 10
-97.3525801341
 20
26.0038242389
 30
0.0
  0
SPLINE
  5
34C
100
AcDbEntity
  8
ASSI
100
AcDbSpline
 62
7
  6
CONTINUOUS
 70
0
 71
3
 72
9
 73
5
 74
0
 42
0.0000001
 43
0.0000001
 44
0.0000000001
 40
0.0
 40
0.0
 40
0.0
 40
0.0
 40
0.2349008651
 40
1.0
 40
1.0
 40
1.0
 40
1.0
 10
-97.3525801341
 20
26.0038242389
 30
0.0
 10
-97.3536708874
 20
26.0016388859
 30
0.0
 10
-97.358454255
 20
25.9924052075
 30
0.0
 10
-97.3636644649
 20
25.9834002091
 30
0.0
 10
-97.3677291827
 20
25.9765617175
 30
0.0
  0
SPLINE
  5
34D
100
AcDbEntity
  8
ASSI
100
AcDbSpline
 62
7
  6
CONTINUOUS
 70
0
 71
3
 72
19
 73
15
 74
0
 42
0.0000001
 43
0.0000001
 44
0.0000000001
 40
0.0
 40
0.0
 40
0.0
 40
0.0
 40
0.0090672278
 40
0.0265243913
 40
0.0526393369
 40
0.0872796429
 40
0.1302007197
 40
0.1810383301
 40
0.2393720001
 40
0.30468747
 40
0.4539566183
 40
0.6236409282
 40
0.8078037869
 40
1.0
 40
1.0
 40
1.0
 40
1.0
 10
-101.8390727088
 20
-44.2993619529
 30
0.0
 10
-101.8367928497
 20
-44.2975380657
 30
0.0
 10
-101.83402041
 20
-44.2887330059
 30
0.0
 10
-101.8306006573
 20
-44.2725983932
 30
0.0
 10
-101.8277049272
 20
-44.2473235247
 30
0.0
 10
-101.8251133416
 20
-44.2141365829
 30
0.0
 10
-101.823076723
 20
-44.1728009586
 30
0.0
 10
-101.8215799141
 20
-44.123861178
 30
0.0
 10
-101.8206856679
 20
-44.0676777335
 30
0.0
 10
-101.8202928154
 20
-43.9797992927
 30
0.0
 10
-101.8215343648
 20
-43.8560639419
 30
0.0
 10
-101.8252984487
 20
-43.6941016792
 30
0.0
 10
-101.8312058791
 20
-43.5183724557
 30
0.0
 10
-101.836278131
 20
-43.3972899535
 30
0.0
 10
-101.8390727088
 20
-43.3354659698
 30
0.0
  0
SPLINE
  5
34E
100
AcDbEntity
  8
ASSI
100
AcDbSpline
 62
7
  6
CONTINUOUS
 70
0
 71
3
 72
19
 73
15
 74
0
 42
0.0000001
 43
0.0000001
 44
0.0000000001
 40
0.0
 40
0.0
 40
0.0
 40
0.0
 40
0.1921961277
 40
0.3763590266
 40
0.5460436262
 40
0.6953125325
 40
0.7606278794
 40
0.8189615056
 40
0.8697991861
 40
0.9127203772
 40
0.947360708
 40
0.9734756303
 40
0.9909327789
 40
1.0
 40
1.0
 40
1.0
 40
1.0
 10
-101.8390727088
 20
43.3354659698
 30
0.0
 10
-101.8362781323
 20
43.397289926
 30
0.0
 10
-101.8312058806
 20
43.5183724138
 30
0.0
 10
-101.8252984474
 20
43.694101716
 30
0.0
 10
-101.8215343627
 20
43.8560640071
 30
0.0
 10
-101.820292818
 20
43.9797993338
 30
0.0
 10
-101.8206856646
 20
44.0676776429
 30
0.0
 10
-101.8215799103
 20
44.1238610564
 30
0.0
 10
-101.8230767254
 20
44.172800882
 30
0.0
 10
-101.8251133402
 20
44.214136574
 30
0.0
 10
-101.8277049275
 20
44.2473235533
 30
0.0
 10
-101.8306006621
 20
44.2725984163
 30
0.0
 10
-101.8340204097
 20
44.2887330165
 30
0.0
 10
-101.8367928514
 20
44.297538067
 30
0.0
 10
-101.8390727088
 20
44.2993619529
 30
0.0
  0
SPLINE
  5
34F
100
AcDbEntity
  8
ASSI
100
AcDbSpline
 62
250
  6
CONTINUOUS
 70
0
 71
3
 72
9
 73
5
 74
0
 42
0.0000001
 43
0.0000001
 44
0.0000000001
 40
0.0
 40
0.0
 40
0.0
 40
0.0
 40
0.5597330188
 40
1.0
 40
1.0
 40
1.0
 40
1.0
 10
-99.4140976839
 20
26.9276792439
 30
0.0
 10
-99.3978285013
 20
26.9562716869
 30
0.0
 10
-99.367597635
 20
27.0066805742
 30
0.0
 10
-99.3347045506
 20
27.0554981816
 30
0.0
 10
-99.3188548584
 20
27.0759514968
 30
0.0
  0
SPLINE
  5
350
100
AcDbEntity
  8
ASSI
100
AcDbSpline
 62
250
  6
CONTINUOUS
 70
0
 71
3
 72
10
 73
6
 74
0
 42
0.0000001
 43
0.0000001
 44
0.0000000001
 40
0.0
 40
0.0
 40
0.0
 40
0.0
 40
0.6949351929
 40
0.890792643
 40
1.0
 40
1.0
 40
1.0
 40
1.0
 10
-99.3188548584
 20
27.0759514968
 30
0.0
 10
-99.3101662686
 20
27.0871637313
 30
0.0
 10
-99.2982157357
 20
27.1013868957
 30
0.0
 10
-99.2829094683
 20
27.1142598405
 30
0.0
 10
-99.2759310281
 20
27.1160645008
 30
0.0
 10
-99.273964034
 20
27.1150157961
 30
0.0
  0
SPLINE
  5
351
100
AcDbEntity
  8
ASSI
100
AcDbSpline
 62
250
  6
CONTINUOUS
 70
0
 71
3
 72
17
 73
13
 74
0
 42
0.0000001
 43
0.0000001
 44
0.0000000001
 40
0.0
 40
0.0
 40
0.0
 40
0.0
 40
0.0041509426
 40
0.0165131528
 40
0.0370394731
 40
0.0656738303
 40
0.147033967
 40
0.259883893
 40
0.4031301725
 40
0.5755840393
 40
0.7753335906
 40
1.0
 40
1.0
 40
1.0
 40
1.0
 10
-97.8898210354
 20
-26.3415638603
 30
0.0
 10
-97.8896994579
 20
-26.341563153
 30
0.0
 10
-97.8899165783
 20
-26.3407901078
 30
0.0
 10
-97.8896628359
 20
-26.3399838662
 30
0.0
 10
-97.8897700582
 20
-26.3380251079
 30
0.0
 10
-97.8896629353
 20
-26.3342971317
 30
0.0
 10
-97.8897010012
 20
-26.3277000543
 30
0.0
 10
-97.8896665621
 20
-26.3178494928
 30
0.0
 10
-97.889687934
 20
-26.3052846155
 30
0.0
 10
-97.8897124039
 20
-26.2901918491
 30
0.0
 10
-97.8897593568
 20
-26.2727082659
 30
0.0
 10
-97.88979861
 20
-26.2602777389
 30
0.0
 10
-97.8898210354
 20
-26.2536973817
 30
0.0
  0
SPLINE
  5
352
100
AcDbEntity
  8
ASSI
100
AcDbSpline
 62
250
  6
CONTINUOUS
 70
0
 71
3
 72
17
 73
13
 74
0
 42
0.0000001
 43
0.0000001
 44
0.0000000001
 40
0.0
 40
0.0
 40
0.0
 40
0.0
 40
0.2246664094
 40
0.4244159606
 40
0.5968698275
 40
0.740116107
 40
0.852966033
 40
0.9343261697
 40
0.9629605269
 40
0.9834868471
 40
0.9958490574
 40
1.0
 40
1.0
 40
1.0
 40
1.0
 10
-97.8898210354
 20
26.2536973817
 30
0.0
 10
-97.88979861
 20
26.2602777389
 30
0.0
 10
-97.8897593568
 20
26.2727082659
 30
0.0
 10
-97.8897124039
 20
26.2901918491
 30
0.0
 10
-97.889687934
 20
26.3052846155
 30
0.0
 10
-97.8896665621
 20
26.3178494928
 30
0.0
 10
-97.8897010012
 20
26.3277000543
 30
0.0
 10
-97.8896629353
 20
26.3342971317
 30
0.0
 10
-97.8897700582
 20
26.3380251079
 30
0.0
 10
-97.8896628359
 20
26.3399838662
 30
0.0
 10
-97.8899165783
 20
26.3407901078
 30
0.0
 10
-97.8896994579
 20
26.341563153
 30
0.0
 10
-97.8898210354
 20
26.3415638603
 30
0.0
  0
SPLINE
  5
353
100
AcDbEntity
  8
ASSI
100
AcDbSpline
 62
250
  6
CONTINUOUS
 70
0
 71
3
 72
9
 73
5
 74
0
 42
0.0000001
 43
0.0000001
 44
0.0000000001
 40
0.0
 40
0.0
 40
0.0
 40
0.0
 40
0.4668693085
 40
1.0
 40
1.0
 40
1.0
 40
1.0
 10
-97.7509091064
 20
-26.3065510847
 30
0.0
 10
-97.7579204405
 20
-26.3102728259
 30
0.0
 10
-97.7749719721
 20
-26.3146669903
 30
0.0
 10
-97.7921348782
 20
-26.3121983173
 30
0.0
 10
-97.8008910116
 20
-26.3098541296
 30
0.0
  0
SPLINE
  5
354
100
AcDbEntity
  8
ASSI
100
AcDbSpline
 62
250
  6
CONTINUOUS
 70
0
 71
3
 72
9
 73
5
 74
0
 42
0.0000001
 43
0.0000001
 44
0.0000000001
 40
0.0
 40
0.0
 40
0.0
 40
0.0
 40
0.2245927225
 40
1.0
 40
1.0
 40
1.0
 40
1.0
 10
-97.8008910116
 20
-26.3098541296
 30
0.0
 10
-97.8048643002
 20
-26.3087904027
 30
0.0
 10
-97.8222866392
 20
-26.3030445891
 30
0.0
 10
-97.8384340421
 20
-26.2939058981
 30
0.0
 10
-97.8501875745
 20
-26.2859359683
 30
0.0
  0
SPLINE
  5
355
100
AcDbEntity
  8
ASSI
100
AcDbSpline
 62
250
  6
CONTINUOUS
 70
0
 71
3
 72
9
 73
5
 74
0
 42
0.0000001
 43
0.0000001
 44
0.0000000001
 40
0.0
 40
0.0
 40
0.0
 40
0.0
 40
0.2353640718
 40
1.0
 40
1.0
 40
1.0
 40
1.0
 10
-97.8501875745
 20
-26.2859359683
 30
0.0
 10
-97.8535070918
 20
-26.2836850433
 30
0.0
 10
-97.8673767259
 20
-26.2737769764
 30
0.0
 10
-97.8803518812
 20
-26.2626477976
 30
0.0
 10
-97.8898210354
 20
-26.2536973817
 30
0.0
  0
SPLINE
  5
356
100
AcDbEntity
  8
0
100
AcDbSpline
 62
250
  6
CONTINUOUS
 70
0
 71
3
 72
10
 73
6
 74
0
 42
0.0000001
 43
0.0000001
 44
0.0000000001
 40
0.0
 40
0.0
 40
0.0
 40
0.0
 40
0.3333333333
 40
0.6666666667
 40
1.0
 40
1.0
 40
1.0
 40
1.0
 10
-102.8355434878
 20
-30.6349473604
 30
0.0
 10
-102.7764579947
 20
-30.6188500222
 30
0.0
 10
-102.6594624578
 20
-30.5878245787
 30
0.0
 10
-102.4880129994
 20
-30.5432671151
 30
0.0
 10
-102.3763547595
 20
-30.5143183833
 30
0.0
 10
-102.3213765216
 20
-30.4993864496
 30
0.0
  0
SPLINE
  5
357
100
AcDbEntity
  8
0
100
AcDbSpline
 62
250
  6
CONTINUOUS
 70
0
 71
3
 72
16
 73
12
 74
0
 42
0.0000001
 43
0.0000001
 44
0.0000000001
 40
0.0
 40
0.0
 40
0.0
 40
0.0
 40
0.1111111111
 40
0.2222222222
 40
0.3333333333
 40
0.4444444444
 40
0.5555555556
 40
0.6666666667
 40
0.7777777778
 40
0.8888888889
 40
1.0
 40
1.0
 40
1.0
 40
1.0
 10
-103.2082076434
 20
-30.8635473914
 30
0.0
 10
-103.2022149232
 20
-30.848518626
 30
0.0
 10
-103.187073697
 20
-30.8203934484
 30
0.0
 10
-103.1554923436
 20
-30.7826785751
 30
0.0
 10
-103.1187626815
 20
-30.7511767024
 30
0.0
 10
-103.0784582401
 20
-30.7245431091
 30
0.0
 10
-103.0368086561
 20
-30.7024600154
 30
0.0
 10
-102.9928010267
 20
-30.6832250559
 30
0.0
 10
-102.9456178941
 20
-30.6660726213
 30
0.0
 10
-102.8940120293
 20
-30.6505796755
 30
0.0
 10
-102.8555611168
 20
-30.6404009928
 30
0.0
 10
-102.8355434878
 20
-30.6349473606
 30
0.0
  0
SPLINE
  5
358
100
AcDbEntity
  8
0
100
AcDbSpline
 62
250
  6
CONTINUOUS
 70
0
 71
3
 72
30
 73
26
 74
0
 42
0.0000001
 43
0.0000001
 44
0.0000000001
 40
0.0
 40
0.0
 40
0.0
 40
0.0
 40
0.0526315789
 40
0.1052631579
 40
0.1578947368
 40
0.2105263158
 40
0.2631578947
 40
0.3157894737
 40
0.3684210526
 40
0.4210526316
 40
0.4736842105
 40
0.5263157895
 40
0.5789473684
 40
0.6315789474
 40
0.6842105263
 40
0.7368421053
 40
0.7894736842
 40
0.8157894737
 40
0.8421052632
 40
0.8684210526
 40
0.8947368421
 40
0.9210526316
 40
0.9473684211
 40
0.9736842105
 40
1.0
 40
1.0
 40
1.0
 40
1.0
 10
-104.1790233023
 20
-30.9044355375
 30
0.0
 10
-104.1702912218
 20
-30.8802304233
 30
0.0
 10
-104.1457091147
 20
-30.8315481891
 30
0.0
 10
-104.0848574899
 20
-30.7525144759
 30
0.0
 10
-104.0050126961
 20
-30.6840904092
 30
0.0
 10
-103.9107826461
 20
-30.6331914228
 30
0.0
 10
-103.8164153048
 20
-30.6050823899
 30
0.0
 10
-103.7266875877
 20
-30.5940370904
 30
0.0
 10
-103.64692321
 20
-30.5944380127
 30
0.0
 10
-103.5761794858
 20
-30.6034929447
 30
0.0
 10
-103.5140654977
 20
-30.6190432002
 30
0.0
 10
-103.4591901984
 20
-30.6395270972
 30
0.0
 10
-103.4119023753
 20
-30.6630032997
 30
0.0
 10
-103.3711936314
 20
-30.6884696217
 30
0.0
 10
-103.3367924484
 20
-30.71499597
 30
0.0
 10
-103.307801605
 20
-30.7419744336
 30
0.0
 10
-103.2871710778
 20
-30.7638315978
 30
0.0
 10
-103.2722985584
 20
-30.7806276012
 30
0.0
 10
-103.2618224442
 20
-30.7928770475
 30
0.0
 10
-103.2520157473
 20
-30.8046647128
 30
0.0
 10
-103.2426901239
 20
-30.8160645861
 30
0.0
 10
-103.2340425404
 20
-30.8277611775
 30
0.0
 10
-103.2269460136
 20
-30.8395386124
 30
0.0
 10
-103.2218506951
 20
-30.8513896524
 30
0.0
 10
-103.2199588592
 20
-30.8594803151
 30
0.0
 10
-103.2194340752
 20
-30.8635473914
 30
0.0
  0
SPLINE
  5
359
100
AcDbEntity
  8
0
100
AcDbSpline
 62
250
  6
CONTINUOUS
 70
0
 71
3
 72
15
 73
11
 74
0
 42
0.0000001
 43
0.0000001
 44
0.0000000001
 40
0.0
 40
0.0
 40
0.0
 40
0.0
 40
0.125
 40
0.25
 40
0.375
 40
0.5
 40
0.625
 40
0.75
 40
0.875
 40
1.0
 40
1.0
 40
1.0
 40
1.0
 10
-104.1990257264
 20
-31.8831153973
 30
0.0
 10
-104.2062903295
 20
-31.8337356397
 30
0.0
 10
-104.2197153541
 20
-31.7385234656
 30
0.0
 10
-104.2347791294
 20
-31.6075917054
 30
0.0
 10
-104.2444643416
 20
-31.4839816252
 30
0.0
 10
-104.2482230028
 20
-31.3652378093
 30
0.0
 10
-104.2452025889
 20
-31.2480323109
 30
0.0
 10
-104.2340665704
 20
-31.1317081594
 30
0.0
 10
-104.2133108658
 20
-31.0167178839
 30
0.0
 10
-104.1923746307
 20
-30.9413914567
 30
0.0
 10
-104.1790233023
 20
-30.9044355375
 30
0.0
  0
SPLINE
  5
35A
100
AcDbEntity
  8
0
100
AcDbSpline
 62
250
  6
CONTINUOUS
 70
0
 71
3
 72
17
 73
13
 74
0
 42
0.0000001
 43
0.0000001
 44
0.0000000001
 40
0.0
 40
0.0
 40
0.0
 40
0.0
 40
0.1
 40
0.2
 40
0.3
 40
0.4
 40
0.5
 40
0.6
 40
0.7
 40
0.8
 40
0.9
 40
1.0
 40
1.0
 40
1.0
 40
1.0
 10
-102.8976712545
 20
-31.0543291296
 30
0.0
 10
-102.9077370683
 20
-31.0581148261
 30
0.0
 10
-102.9268819455
 20
-31.0665102478
 30
0.0
 10
-102.9541115307
 20
-31.0818650113
 30
0.0
 10
-102.9793285514
 20
-31.0997786957
 30
0.0
 10
-103.0019813927
 20
-31.1199600551
 30
0.0
 10
-103.0215810525
 20
-31.1421589652
 30
0.0
 10
-103.0378275414
 20
-31.1662411407
 30
0.0
 10
-103.0504206628
 20
-31.1926619461
 30
0.0
 10
-103.0589961016
 20
-31.2203577383
 30
0.0
 10
-103.0638189165
 20
-31.2479560103
 30
0.0
 10
-103.0648711841
 20
-31.2661898481
 30
0.0
 10
-103.0648711841
 20
-31.2755061485
 30
0.0
  0
SPLINE
  5
35B
100
AcDbEntity
  8
0
100
AcDbSpline
 62
250
  6
CONTINUOUS
 70
0
 71
3
 72
12
 73
8
 74
0
 42
0.0000001
 43
0.0000001
 44
0.0000000001
 40
0.0
 40
0.0
 40
0.0
 40
0.0
 40
0.1666666667
 40
0.3333333333
 40
0.5
 40
0.6666666667
 40
1.0
 40
1.0
 40
1.0
 40
1.0
 10
-102.3213765216
 20
-30.8808429347
 30
0.0
 10
-102.3562988394
 20
-30.8908832413
 30
0.0
 10
-102.4251307664
 20
-30.9110370935
 30
0.0
 10
-102.5255109655
 20
-30.9406245674
 30
0.0
 10
-102.6233936417
 20
-30.9685207466
 30
0.0
 10
-102.7502740853
 20
-31.0043108366
 30
0.0
 10
-102.8404413283
 20
-31.032822118
 30
0.0
 10
-102.8976313937
 20
-31.0543141626
 30
0.0
  0
SPLINE
  5
35C
100
AcDbEntity
  8
0
100
AcDbSpline
 62
250
  6
CONTINUOUS
 70
0
 71
3
 72
12
 73
8
 74
0
 42
0.0000001
 43
0.0000001
 44
0.0000000001
 40
0.0
 40
0.0
 40
0.0
 40
0.0
 40
0.3333333333
 40
0.5
 40
0.6666666667
 40
0.8333333333
 40
1.0
 40
1.0
 40
1.0
 40
1.0
 10
-103.9087499408
 20
-31.1906232473
 30
0.0
 10
-103.912702889
 20
-31.2246830758
 30
0.0
 10
-103.9160101453
 20
-31.2759901586
 30
0.0
 10
-103.9152595236
 20
-31.3445290963
 30
0.0
 10
-103.9121153278
 20
-31.3961981466
 30
0.0
 10
-103.9061399818
 20
-31.4485338436
 30
0.0
 10
-103.9005816038
 20
-31.483607934
 30
0.0
 10
-103.8975646909
 20
-31.5012884969
 30
0.0
  0
SPLINE
  5
35D
100
AcDbEntity
  8
0
100
AcDbSpline
 62
250
  6
CONTINUOUS
 70
0
 71
3
 72
19
 73
15
 74
0
 42
0.0000001
 43
0.0000001
 44
0.0000000001
 40
0.0
 40
0.0
 40
0.0
 40
0.0
 40
0.1
 40
0.2
 40
0.25
 40
0.3
 40
0.4
 40
0.5
 40
0.6
 40
0.7
 40
0.75
 40
0.8
 40
0.9
 40
1.0
 40
1.0
 40
1.0
 40
1.0
 10
-103.6711509143
 20
-30.9665924606
 30
0.0
 10
-103.6826365571
 20
-30.9667667467
 30
0.0
 10
-103.7048947263
 20
-30.9688102193
 30
0.0
 10
-103.7326328599
 20
-30.9752803747
 30
0.0
 10
-103.7542989495
 20
-30.9827558599
 30
0.0
 10
-103.7756402916
 20
-30.9918071127
 30
0.0
 10
-103.8010873956
 20
-31.0058755004
 30
0.0
 10
-103.8296391969
 20
-31.027705447
 30
0.0
 10
-103.8543820318
 20
-31.0542444911
 30
0.0
 10
-103.8713150557
 20
-31.0792424387
 30
0.0
 10
-103.8828347534
 20
-31.1009230929
 30
0.0
 10
-103.8928409537
 20
-31.1233889436
 30
0.0
 10
-103.9025881317
 20
-31.153023637
 30
0.0
 10
-103.9072481601
 20
-31.1776810371
 30
0.0
 10
-103.9087503306
 20
-31.190626605
 30
0.0
  0
SPLINE
  5
35E
100
AcDbEntity
  8
0
100
AcDbSpline
 62
250
  6
CONTINUOUS
 70
0
 71
3
 72
17
 73
13
 74
0
 42
0.0000001
 43
0.0000001
 44
0.0000000001
 40
0.0
 40
0.0
 40
0.0
 40
0.0
 40
0.1428571429
 40
0.2857142857
 40
0.3571428571
 40
0.4285714286
 40
0.5
 40
0.5714285714
 40
0.6428571429
 40
0.7142857143
 40
0.8571428571
 40
1.0
 40
1.0
 40
1.0
 40
1.0
 10
-103.3760200034
 20
-31.2746513441
 30
0.0
 10
-103.3766277315
 20
-31.2474425565
 30
0.0
 10
-103.381305411
 20
-31.1966571089
 30
0.0
 10
-103.3945937882
 20
-31.1437578651
 30
0.0
 10
-103.4106919893
 20
-31.1050561055
 30
0.0
 10
-103.4257261226
 20
-31.0783891201
 30
0.0
 10
-103.4447568246
 20
-31.0535461768
 30
0.0
 10
-103.4677954674
 20
-31.0317383098
 30
0.0
 10
-103.494347647
 20
-31.0128135785
 30
0.0
 10
-103.5341313396
 20
-30.9914507378
 30
0.0
 10
-103.5906679784
 20
-30.9723930975
 30
0.0
 10
-103.6431514876
 20
-30.9661649981
 30
0.0
 10
-103.6712030631
 20
-30.9665932672
 30
0.0
  0
ELLIPSE
  5
35F
100
AcDbEntity
  8
0
100
AcDbEllipse
 62
7
  6
CONTINUOUS
 10
-97.5398702676
 20
-26.079798695
 30
0.0
 11
0.1417119467
 21
0.1422961243
 31
0.0
 40
0.9918061237
 41
-0.2491986107
 42
0.7350951877
  0
ELLIPSE
  5
360
100
AcDbEntity
  8
0
100
AcDbEllipse
 62
7
  6
CONTINUOUS
 10
-100.5617937212
 20
43.2775387629
 30
0.0
 11
1.2772653435
 21
-0.0582277698
 31
0.0
 40
0.7819142031
 41
-3.1412917057
 42
-3.1059619589
  0
ELLIPSE
  5
361
100
AcDbEntity
  8
0
100
AcDbEllipse
 62
7
  6
CONTINUOUS
 10
-100.5617937212
 20
-43.2775387629
 30
0.0
 11
1.2772653435
 21
0.0582277698
 31
0.0
 40
0.7819142031
 41
3.1059619589
 42
3.1412917057
  0
ELLIPSE
  5
362
100
AcDbEntity
  8
0
100
AcDbEllipse
 62
7
  6
CONTINUOUS
 10
-97.5398702676
 20
26.079798695
 30
0.0
 11
-0.1417119467
 21
0.1422961243
 31
0.0
 40
0.9918061237
 41
-3.8766878413
 42
-2.8923940429
  0
ELLIPSE
  5
363
100
AcDbEntity
  8
ASSI
100
AcDbEllipse
 62
7
  6
CONTINUOUS
 10
-97.5398702676
 20
-26.079798695
 30
0.0
 11
0.1417119467
 21
0.1422961243
 31
0.0
 40
0.9918061237
 41
-0.2491986107
 42
0.7350951877
  0
ELLIPSE
  5
364
100
AcDbEntity
  8
ASSI
100
AcDbEllipse
 62
7
  6
CONTINUOUS
 10
-97.5398702676
 20
26.079798695
 30
0.0
 11
-0.1417119467
 21
0.1422961243
 31
0.0
 40
0.9918061237
 41
-3.8766878413
 42
-2.8923940429
  0
ELLIPSE
  5
365
100
AcDbEntity
  8
ASSI
100
AcDbEllipse
 62
7
  6
CONTINUOUS
 10
-100.5617937212
 20
43.2775387629
 30
0.0
 11
1.2772653435
 21
-0.0582277698
 31
0.0
 40
0.7819142031
 41
-3.1412917057
 42
-3.1059619589
  0
ELLIPSE
  5
366
100
AcDbEntity
  8
ASSI
100
AcDbEllipse
 62
7
  6
CONTINUOUS
 10
-100.5617937212
 20
-43.2775387629
 30
0.0
 11
1.2772653435
 21
0.0582277698
 31
0.0
 40
0.7819142031
 41
3.1059619589
 42
3.1412917057
  0
ENDSEC
  0
SECTION
  2
OBJECTS
  0
DICTIONARY
  5
C
100
AcDbDictionary
280
0
281
1
  3
ACAD_GROUP
350
D
  3
ACAD_MLINESTYLE
350
17
  3
ACAD_LAYOUT
350
1A
  3
ACAD_PLOTSETTINGS
350
19
  3
ACAD_PLOTSTYLENAME
350
E
  0
DICTIONARY
  5
D
102
{ACAD_REACTORS
330
C
102
}
100
AcDbDictionary
280
0
281
1
  0
ACDBDICTIONARYWDFLT
  5
E
102
{ACAD_REACTORS
330
C
102
}
100
AcDbDictionary
281
1
  3
Normal
350
F
100
AcDbDictionaryWithDefault
340
F
  0
DICTIONARY
  5
17
102
{ACAD_REACTORS
330
C
102
}
100
AcDbDictionary
280
0
281
1
  3
Standard
350
18
  0
DICTIONARY
  5
19
102
{ACAD_REACTORS
330
C
102
}
100
AcDbDictionary
281
1
  0
DICTIONARY
  5
1A
102
{ACAD_REACTORS
330
C
102
}
100
AcDbDictionary
281
1
  3
Model
350
367
  3
Layout1
350
368
  0
ACDBPLACEHOLDER
  5
F
102
{ACAD_REACTORS
330
E
102
}
  0
MLINESTYLE
  5
18
102
{ACAD_REACTORS
330
17
102
}
100
AcDbMlineStyle
  2
STANDARD
 70
0
  3

 62
256
 51
90.0
 52
90.0
 71
2
 49
0.5
 62
256
  6
BYLAYER
 49
-0.5
 62
256
  6
BYLAYER
  0
LAYOUT
  5
367
102
{ACAD_REACTORS
330
1A
102
}
100
AcDbPlotSettings
  1

  2
none_device
  4
ISO_A4_(297.00_x_210.00_MM)
  6

 40
0.0
 41
0.0
 42
0.0
 43
0.0
 44
297.0
 45
210.0
 46
0.0
 47
0.0
 48
0.0
 49
0.0
140
0.0
141
0.0
142
1.0
143
1.0
 70
1024
 72
1
 73
0
 74
0
  7

 75
0
147
1.0
148
0.0
149
0.0
100
AcDbLayout
  1
Model
 70
0
 71
0
 10
0.0
 20
0.0
 11
297.0
 21
210.0
 12
0.0
 22
0.0
 32
0.0
 14
0.0
 24
0.0
 34
0.0
 15
0.0
 25
0.0
 35
0.0
146
0.0
 13
0.0
 23
0.0
 33
0.0
 16
1.0
 26
0.0
 36
0.0
 17
0.0
 27
1.0
 37
0.0
 76
0
330
21C
345
0
346
0
  0
LAYOUT
  5
368
102
{ACAD_REACTORS
330
1A
102
}
100
AcDbPlotSettings
  1

  2
none_device
  4
ISO_A4_(297.00_x_210.00_MM)
  6

 40
0.0
 41
0.0
 42
0.0
 43
0.0
 44
297.0
 45
210.0
 46
0.0
 47
0.0
 48
0.0
 49
0.0
140
0.0
141
0.0
142
1.0
143
1.0
 70
0
 72
1
 73
0
 74
0
  7

 75
0
147
1.0
148
0.0
149
0.0
100
AcDbLayout
  1
Layout1
 70
0
 71
1
 10
0.0
 20
0.0
 11
297.0
 21
210.0
 12
0.0
 22
0.0
 32
0.0
 14
0.0
 24
0.0
 34
0.0
 15
0.0
 25
0.0
 35
0.0
146
0.0
 13
0.0
 23
0.0
 33
0.0
 16
1.0
 26
0.0
 36
0.0
 17
0.0
 27
1.0
 37
0.0
 76
0
330
21D
345
0
346
0
  0
ENDSEC
  0
EOF
