  0
SECTION
  2
HEADER
  9
$ACADVER
  1
AC1021
  9
$DWGCODEPAGE
  3
ANSI_1252
  9
$EXTMAX
 10
297.0
 20
210.0
 30
0.0
  9
$EXTMIN
 10
0.0
 20
0.0
 30
0.0
  9
$LIMMIN
 10
0.0
 20
0.0
  9
$LIMMAX
 10
297.0
 20
210.0
  9
$VIEWCTR
 10
148.5
 20
105.0
  9
$VIEWSIZE
 40
210.0
  9
$CLAYER
  8
0
  9
$LTSCALE
 40
16.335
  9
$CELTYPE
  6
BYLAYER
  9
$DIMSCALE
 40
1.0
  9
$DIMASZ
 40
3.0
  9
$DIMEXO
 40
0.5
  9
$DIMDLI
 40
11.286
  9
$DIMEXE
 40
1.5
  9
$DIMCEN
 40
2.673
  9
$DIMLFAC
 40
1.0
  9
$DIMBLK
  1
_FILLED
  9
$DIMALT
 70
0
  9
$DIMALTF
 40
25.4
  9
$DIMTXT
 40
3.0
  9
$DIMTOL
 70
1
  9
$DIMLIM
 70
0
  9
$DIMTFAC
 40
1.0
  9
$DIMTP
 40
0.01
  9
$DIMTM
 40
0.01
  9
$DIMGAP
 40
0.625
  9
$DIMDSEP
 70
44
  9
$AUNITS
 70
0
  9
$PDMODE
 70
3
  9
$PDSIZE
 40
3.0
  9
$HANDSEED
  5
3EE
  9
$TILEMODE
 70
1
  9
$MEASUREMENT
 70
1
  9
$INSUNITS
 70
4
  0
ENDSEC
  0
SECTION
  2
CLASSES
  0
CLASS
  1
ACDBDICTIONARYWDFLT
  2
AcDbDictionaryWithDefault
  3
AutoCAD 2000
 90
0
 91
1
280
0
281
0
  0
CLASS
  1
ACDBPLACEHOLDER
  2
AcDbPlaceHolder
  3
AutoCAD 2000
 90
0
 91
1
280
0
281
0
  0
CLASS
  1
LAYOUT
  2
AcDbLayout
  3
AutoCAD 2000
 90
0
 91
0
280
0
281
0
  0
ENDSEC
  0
SECTION
  2
TABLES
  0
TABLE
  2
VPORT
  5
8
100
AcDbSymbolTable
 70
2
  0
VPORT
  5
1F4
100
AcDbSymbolTableRecord
100
AcDbViewportTableRecord
  2
*ACTIVE
 70
0
 10
0.0
 20
0.0
 11
1.0
 21
1.0
 12
148.5
 22
105.0
 13
0.0
 23
0.0
 14
1.0
 24
1.0
 15
0.0
 25
0.0
 16
0.0
 26
0.0
 36
1.0
 17
0.0
 27
0.0
 37
0.0
 40
210.0
 41
1.4142857143
 42
50.0
 43
0.0
 44
0.0
 50
0.0
 51
0.0
 71
0
 72
100
 73
1
 74
1
 75
0
 76
0
 77
0
 78
0
  0
ENDTAB
  0
TABLE
  2
LTYPE
  5
5
100
AcDbSymbolTable
 70
6
  0
LTYPE
  5
14
100
AcDbSymbolTableRecord
100
AcDbLinetypeTableRecord
  2
BYBLOCK
 70
0
  3

 72
65
 73
0
 40
0.0
  0
LTYPE
  5
15
100
AcDbSymbolTableRecord
100
AcDbLinetypeTableRecord
  2
BYLAYER
 70
0
  3

 72
65
 73
0
 40
0.0
  0
LTYPE
  5
16
100
AcDbSymbolTableRecord
100
AcDbLinetypeTableRecord
  2
CONTINUOUS
 70
64
  3
Solid line
 72
65
 73
0
 40
0.0
  0
LTYPE
  5
1F5
100
AcDbSymbolTableRecord
100
AcDbLinetypeTableRecord
  2
CENTER
 70
64
  3
____ _ ____ _ ____ _ ____ _ ____ _ ____ _ ____
 72
65
 73
4
 40
0.6
 49
0.375
 74
0
 49
-0.075
 74
0
 49
0.075
 74
0
 49
-0.075
 74
0
  0
LTYPE
  5
1F6
100
AcDbSymbolTableRecord
100
AcDbLinetypeTableRecord
  2
HIDDEN
 70
64
  3
- - - - - - - - - - - - - - - - - - - -
 72
65
 73
2
 40
0.2
 49
0.1
 74
0
 49
-0.1
 74
0
  0
LTYPE
  5
1F7
100
AcDbSymbolTableRecord
100
AcDbLinetypeTableRecord
  2
PHANTOM
 70
64
  3
_____ _ _ _____ _ _ _____ _ _ _____
 72
65
 73
6
 40
0.8
 49
0.45
 74
0
 49
-0.05
 74
0
 49
0.1
 74
0
 49
-0.05
 74
0
 49
0.1
 74
0
 49
-0.05
 74
0
  0
LTYPE
  5
1F8
100
AcDbSymbolTableRecord
100
AcDbLinetypeTableRecord
  2
DOT
 70
64
  3
. . . . . . . . . . . . . . . . . . . .
 72
65
 73
2
 40
0.2
 49
0.1
 74
0
 49
-0.1
 74
0
  0
LTYPE
  5
1F9
100
AcDbSymbolTableRecord
100
AcDbLinetypeTableRecord
  2
DASHED
 70
64
  3
- - - - - - - - - - - - - - - - - - - -
 72
65
 73
2
 40
0.2
 49
0.1
 74
0
 49
-0.1
 74
0
  0
ENDTAB
  0
TABLE
  2
LAYER
  5
2
100
AcDbSymbolTable
 70
36
  0
LAYER
  5
10
100
AcDbSymbolTableRecord
100
AcDbLayerTableRecord
  2
0
 70
0
 62
7
  6
CONTINUOUS
370
-3
390
F
  0
LAYER
  5
1FA
100
AcDbSymbolTableRecord
100
AcDbLayerTableRecord
  2
DEFAULT_1
 70
0
 62
7
  6
CENTER
370
-3
390
F
  0
LAYER
  5
1FB
100
AcDbSymbolTableRecord
100
AcDbLayerTableRecord
  2
DEFAULT_2
 70
0
 62
7
  6
HIDDEN
370
-3
390
F
  0
LAYER
  5
1FC
100
AcDbSymbolTableRecord
100
AcDbLayerTableRecord
  2
DEFAULT_3
 70
0
 62
7
  6
PHANTOM
370
-3
390
F
  0
LAYER
  5
1FD
100
AcDbSymbolTableRecord
100
AcDbLayerTableRecord
  2
ASSI
 70
0
 62
7
  6
CONTINUOUS
370
-3
390
F
  0
LAYER
  5
1FE
100
AcDbSymbolTableRecord
100
AcDbLayerTableRecord
  2
COORDINATE
 70
0
 62
7
  6
CONTINUOUS
370
-3
390
F
  0
LAYER
  5
1FF
100
AcDbSymbolTableRecord
100
AcDbLayerTableRecord
  2
COORD_ORIGINE
 70
0
 62
7
  6
CONTINUOUS
370
-3
390
F
  0
LAYER
  5
200
100
AcDbSymbolTableRecord
100
AcDbLayerTableRecord
  2
COPY_PUBLISH
 70
0
 62
7
  6
CONTINUOUS
370
-3
390
F
  0
LAYER
  5
201
100
AcDbSymbolTableRecord
100
AcDbLayerTableRecord
  2
COSMETIC
 70
0
 62
7
  6
CONTINUOUS
370
-3
390
F
  0
LAYER
  5
202
100
AcDbSymbolTableRecord
100
AcDbLayerTableRecord
  2
COSMETICI
 70
0
 62
7
  6
CONTINUOUS
370
-3
390
F
  0
LAYER
  5
203
100
AcDbSymbolTableRecord
100
AcDbLayerTableRecord
  2
CURVA_TASSELLO
 70
0
 62
7
  6
CONTINUOUS
370
-3
390
F
  0
LAYER
  5
204
100
AcDbSymbolTableRecord
100
AcDbLayerTableRecord
  2
CURVE
 70
0
 62
7
  6
CONTINUOUS
370
-3
390
F
  0
LAYER
  5
205
100
AcDbSymbolTableRecord
100
AcDbLayerTableRecord
  2
DRAFT
 70
0
 62
7
  6
CONTINUOUS
370
-3
390
F
  0
LAYER
  5
206
100
AcDbSymbolTableRecord
100
AcDbLayerTableRecord
  2
IMPORT_IGES
 70
0
 62
7
  6
CONTINUOUS
370
-3
390
F
  0
LAYER
  5
207
100
AcDbSymbolTableRecord
100
AcDbLayerTableRecord
  2
INTFCLR_2
 70
0
 62
7
  6
CONTINUOUS
370
-3
390
F
  0
LAYER
  5
208
100
AcDbSymbolTableRecord
100
AcDbLayerTableRecord
  2
INTF_1
 70
0
 62
7
  6
CONTINUOUS
370
-3
390
F
  0
LAYER
  5
209
100
AcDbSymbolTableRecord
100
AcDbLayerTableRecord
  2
INTF_7
 70
0
 62
7
  6
CONTINUOUS
370
-3
390
F
  0
LAYER
  5
20A
100
AcDbSymbolTableRecord
100
AcDbLayerTableRecord
  2
LINEA_CHIUSURA
 70
0
 62
7
  6
CONTINUOUS
370
-3
390
F
  0
LAYER
  5
20B
100
AcDbSymbolTableRecord
100
AcDbLayerTableRecord
  2
NOTE
 70
0
 62
7
  6
CONTINUOUS
370
-3
390
F
  0
LAYER
  5
20C
100
AcDbSymbolTableRecord
100
AcDbLayerTableRecord
  2
PIANI
 70
0
 62
7
  6
CONTINUOUS
370
-3
390
F
  0
LAYER
  5
20D
100
AcDbSymbolTableRecord
100
AcDbLayerTableRecord
  2
PIANI_ORIGINE
 70
0
 62
7
  6
CONTINUOUS
370
-3
390
F
  0
LAYER
  5
20E
100
AcDbSymbolTableRecord
100
AcDbLayerTableRecord
  2
PIANI_RIFERIMENTO
 70
0
 62
7
  6
CONTINUOUS
370
-3
390
F
  0
LAYER
  5
20F
100
AcDbSymbolTableRecord
100
AcDbLayerTableRecord
  2
PUNTI
 70
0
 62
7
  6
CONTINUOUS
370
-3
390
F
  0
LAYER
  5
210
100
AcDbSymbolTableRecord
100
AcDbLayerTableRecord
  2
RACCORDO
 70
0
 62
7
  6
CONTINUOUS
370
-3
390
F
  0
LAYER
  5
211
100
AcDbSymbolTableRecord
100
AcDbLayerTableRecord
  2
RGB__255__255__255__
 70
0
 62
7
  6
CONTINUOUS
370
-3
390
F
  0
LAYER
  5
212
100
AcDbSymbolTableRecord
100
AcDbLayerTableRecord
  2
RGB____0____0____0__
 70
0
 62
7
  6
CONTINUOUS
370
-3
390
F
  0
LAYER
  5
213
100
AcDbSymbolTableRecord
100
AcDbLayerTableRecord
  2
SIMBOLI
 70
0
 62
7
  6
CONTINUOUS
370
-3
390
F
  0
LAYER
  5
214
100
AcDbSymbolTableRecord
100
AcDbLayerTableRecord
  2
SMUSSO
 70
0
 62
7
  6
CONTINUOUS
370
-3
390
F
  0
LAYER
  5
215
100
AcDbSymbolTableRecord
100
AcDbLayerTableRecord
  2
SNAPLINE
 70
0
 62
7
  6
CONTINUOUS
370
-3
390
F
  0
LAYER
  5
216
100
AcDbSymbolTableRecord
100
AcDbLayerTableRecord
  2
SUPERFICI
 70
0
 62
7
  6
CONTINUOUS
370
-3
390
F
  0
LAYER
  5
217
100
AcDbSymbolTableRecord
100
AcDbLayerTableRecord
  2
TRASH
 70
0
 62
7
  6
CONTINUOUS
370
-3
390
F
  0
LAYER
  5
218
100
AcDbSymbolTableRecord
100
AcDbLayerTableRecord
  2
XSEC_DATUMS
 70
0
 62
7
  6
CONTINUOUS
370
-3
390
F
  0
ENDTAB
  0
TABLE
  2
STYLE
  5
3
100
AcDbSymbolTable
 70
1
  0
STYLE
  5
11
100
AcDbSymbolTableRecord
100
AcDbTextStyleTableRecord
  2
STANDARD
 70
0
 40
0.0
 41
0.8
 50
0.0
 71
0
 42
0.2
  3
txt
  4

  0
STYLE
  5
219
100
AcDbSymbolTableRecord
100
AcDbTextStyleTableRecord
  2
TEXTSTYLE_1
 70
0
 40
0.0
 41
0.8
 50
0.0
 71
0
 42
0.2
  3
gdt
  4

  0
ENDTAB
  0
TABLE
  2
VIEW
  5
6
100
AcDbSymbolTable
 70
0
  0
ENDTAB
  0
TABLE
  2
UCS
  5
7
100
AcDbSymbolTable
 70
0
  0
ENDTAB
  0
TABLE
  2
APPID
  5
9
100
AcDbSymbolTable
 70
1
  0
APPID
  5
21A
100
AcDbSymbolTableRecord
100
AcDbRegAppTableRecord
  2
ACAD
 70
0
  0
ENDTAB
  0
TABLE
  2
BLOCK_RECORD
  5
1
100
AcDbSymbolTable
 70
0
  0
BLOCK_RECORD
  5
21B
100
AcDbSymbolTableRecord
100
AcDbBlockTableRecord
  2
*Model_Space
  0
BLOCK_RECORD
  5
21C
100
AcDbSymbolTableRecord
100
AcDbBlockTableRecord
  2
*Paper_Space
  0
BLOCK_RECORD
  5
21D
100
AcDbSymbolTableRecord
100
AcDbBlockTableRecord
  2
_FILLED
  0
BLOCK_RECORD
  5
21E
100
AcDbSymbolTableRecord
100
AcDbBlockTableRecord
  2
*D0
  0
BLOCK_RECORD
  5
21F
100
AcDbSymbolTableRecord
100
AcDbBlockTableRecord
  2
*D1
  0
BLOCK_RECORD
  5
220
100
AcDbSymbolTableRecord
100
AcDbBlockTableRecord
  2
*D2
  0
BLOCK_RECORD
  5
221
100
AcDbSymbolTableRecord
100
AcDbBlockTableRecord
  2
*D3
  0
ENDTAB
  0
TABLE
  2
DIMSTYLE
  5
A
100
AcDbSymbolTable
 70
1
100
AcDbDimStyleTable
 71
0
  0
DIMSTYLE
105
222
100
AcDbSymbolTableRecord
100
AcDbDimStyleTableRecord
  2
STANDARD
 70
0
  3

  4

 40
1.0
 41
3.0
 42
0.5
 43
0.38
 44
1.5
 45
0.0
 46
0.0
 47
0.01
 48
0.01
140
3.0
141
0.09
142
0.0
143
25.4
144
1.0
145
0.0
146
1.0
147
0.625
 71
1.0
 72
0.0
 73
0
 74
0
 75
0
 76
0
 77
1
 78
8
 79
2
170
0
171
1
172
0
173
0
174
0
175
0
176
0
177
0
178
0
270
2
179
2
271
2
272
2
273
2
274
2
275
0
280
0
281
0
282
0
283
1
284
8
285
0
286
0
287
3
288
0
340
11
278
44
341
21D
342
21D
343
21D
344
21D
  0
DIMSTYLE
105
223
100
AcDbSymbolTableRecord
100
AcDbDimStyleTableRecord
  2
DIMSTYLE_1
 70
0
  3

  4

 40
1.0
 41
3.0
 42
0.5
 43
0.38
 44
1.5
 45
0.0
 46
0.0
 47
0.0
 48
0.0
140
3.0
141
0.09
142
0.0
143
25.4
144
1.0
145
0.0
146
1.0
147
0.75
 71
0.0
 72
0.0
 73
0
 74
0
 75
0
 76
0
 77
1
 78
8
 79
2
170
0
171
1
172
0
173
0
174
0
175
0
176
0
177
0
178
0
270
2
179
2
271
2
272
2
273
2
274
2
275
0
280
0
281
0
282
0
283
1
284
8
285
0
286
0
287
3
288
0
340
11
278
44
341
21D
342
21D
343
21D
344
21D
  0
ENDTAB
  0
ENDSEC
  0
SECTION
  2
BLOCKS
  0
BLOCK
  5
20
100
AcDbEntity
  8
0
100
AcDbBlockBegin
  2
*Model_Space
 70
0
 10
0.0
 20
0.0
 30
0.0
  3
*Model_Space
  1

  0
ENDBLK
  5
21
100
AcDbEntity
  8
0
100
AcDbBlockEnd
  0
BLOCK
  5
1C
100
AcDbEntity
  8
0
100
AcDbBlockBegin
  2
*Paper_Space
 70
0
 10
0.0
 20
0.0
 30
0.0
  3
*Paper_Space
  1

  0
ENDBLK
  5
1D
100
AcDbEntity
  8
0
100
AcDbBlockEnd
  0
BLOCK
  5
224
100
AcDbEntity
  8
0
100
AcDbBlockBegin
  2
_FILLED
 70
64
 10
0.0
 20
0.0
  3
_FILLED
  1

  0
SOLID
  5
225
100
AcDbEntity
  8
0
  6
BYBLOCK
 62
0
100
AcDbTrace
 10
0.0
 20
0.0
 11
-1.0
 21
0.3166666667
 12
-1.0
 22
-0.3166666667
 13
-1.0
 23
-0.3166666667
  0
ENDBLK
  5
226
100
AcDbEntity
  8
0
  6
BYBLOCK
 62
0
100
AcDbBlockEnd
  0
BLOCK
  5
227
100
AcDbEntity
  8
0
100
AcDbBlockBegin
 62
7
  6
CONTINUOUS
  2
*D0
 70
65
 10
0.0
 20
0.0
  3
*D0
  1

  0
LINE
  5
228
100
AcDbEntity
  8
0
100
AcDbLine
 62
7
  6
CONTINUOUS
 10
246.6693130729
 20
61.58203125
 11
256.669921875
 21
61.58203125
  0
LINE
  5
229
100
AcDbEntity
  8
0
100
AcDbLine
 62
7
  6
CONTINUOUS
 10
246.6693130729
 20
151.58203125
 11
256.669921875
 21
151.58203125
  0
LINE
  5
22A
100
AcDbEntity
  8
0
100
AcDbLine
 62
7
  6
CONTINUOUS
 10
255.169921875
 20
61.58203125
 11
255.169921875
 21
106.58203125
  0
LINE
  5
22B
100
AcDbEntity
  8
0
100
AcDbLine
 62
7
  6
CONTINUOUS
 10
255.169921875
 20
151.58203125
 11
255.169921875
 21
106.58203125
  0
INSERT
  5
22C
100
AcDbEntity
  8
0
100
AcDbBlockReference
 62
7
  6
CONTINUOUS
  2
_FILLED
 10
255.169921875
 20
61.58203125
 41
3.0
 42
3.0
 43
3.0
 50
270.0
  0
INSERT
  5
22D
100
AcDbEntity
  8
0
100
AcDbBlockReference
 62
7
  6
CONTINUOUS
  2
_FILLED
 10
255.169921875
 20
151.58203125
 41
3.0
 42
3.0
 43
3.0
 50
90.0
  0
ENDBLK
  5
22E
100
AcDbEntity
  8
0
  6
BYBLOCK
 62
0
100
AcDbBlockEnd
  0
BLOCK
  5
22F
100
AcDbEntity
  8
0
100
AcDbBlockBegin
 62
7
  6
CONTINUOUS
  2
*D1
 70
65
 10
0.0
 20
0.0
  3
*D1
  1

  0
LINE
  5
230
100
AcDbEntity
  8
0
100
AcDbLine
 62
7
  6
CONTINUOUS
 10
247.169921875
 20
151.0814224479
 11
247.169921875
 21
161.08203125
  0
LINE
  5
231
100
AcDbEntity
  8
0
100
AcDbLine
 62
7
  6
CONTINUOUS
 10
102.669921875
 20
151.0814224479
 11
102.669921875
 21
161.08203125
  0
LINE
  5
232
100
AcDbEntity
  8
0
100
AcDbLine
 62
7
  6
CONTINUOUS
 10
247.169921875
 20
159.58203125
 11
174.919921875
 21
159.58203125
  0
LINE
  5
233
100
AcDbEntity
  8
0
100
AcDbLine
 62
7
  6
CONTINUOUS
 10
102.669921875
 20
159.58203125
 11
174.919921875
 21
159.58203125
  0
INSERT
  5
234
100
AcDbEntity
  8
0
100
AcDbBlockReference
 62
7
  6
CONTINUOUS
  2
_FILLED
 10
247.169921875
 20
159.58203125
 41
3.0
 42
3.0
 43
3.0
  0
INSERT
  5
235
100
AcDbEntity
  8
0
100
AcDbBlockReference
 62
7
  6
CONTINUOUS
  2
_FILLED
 10
102.669921875
 20
159.58203125
 41
3.0
 42
3.0
 43
3.0
 50
180.0
  0
ENDBLK
  5
236
100
AcDbEntity
  8
0
  6
BYBLOCK
 62
0
100
AcDbBlockEnd
  0
BLOCK
  5
237
100
AcDbEntity
  8
0
100
AcDbBlockBegin
 62
7
  6
CONTINUOUS
  2
*D2
 70
65
 10
0.0
 20
0.0
  3
*D2
  1

  0
LINE
  5
238
100
AcDbEntity
  8
0
100
AcDbLine
 62
7
  6
CONTINUOUS
 10
69.416796875
 20
148.2859287696
 11
69.416796875
 21
161.08203125
  0
LINE
  5
239
100
AcDbEntity
  8
0
100
AcDbLine
 62
7
  6
CONTINUOUS
 10
62.266796875
 20
150.4587686602
 11
62.266796875
 21
161.08203125
  0
LINE
  5
23A
100
AcDbEntity
  8
0
100
AcDbLine
 62
7
  6
CONTINUOUS
 10
69.416796875
 20
159.58203125
 11
65.841796875
 21
159.58203125
  0
LINE
  5
23B
100
AcDbEntity
  8
0
100
AcDbLine
 62
7
  6
CONTINUOUS
 10
65.841796875
 20
159.58203125
 11
82.1756970065
 21
159.58203125
  0
LINE
  5
23C
100
AcDbEntity
  8
0
100
AcDbLine
 62
7
  6
CONTINUOUS
 10
62.266796875
 20
159.58203125
 11
65.841796875
 21
159.58203125
  0
INSERT
  5
23D
100
AcDbEntity
  8
0
100
AcDbBlockReference
 62
7
  6
CONTINUOUS
  2
_FILLED
 10
69.416796875
 20
159.58203125
 41
3.0
 42
3.0
 43
3.0
  0
INSERT
  5
23E
100
AcDbEntity
  8
0
100
AcDbBlockReference
 62
7
  6
CONTINUOUS
  2
_FILLED
 10
62.266796875
 20
159.58203125
 41
3.0
 42
3.0
 43
3.0
 50
180.0
  0
ENDBLK
  5
23F
100
AcDbEntity
  8
0
  6
BYBLOCK
 62
0
100
AcDbBlockEnd
  0
BLOCK
  5
240
100
AcDbEntity
  8
0
100
AcDbBlockBegin
 62
7
  6
CONTINUOUS
  2
*D3
 70
65
 10
0.0
 20
0.0
  3
*D3
  1

  0
LINE
  5
241
100
AcDbEntity
  8
0
100
AcDbLine
 62
7
  6
CONTINUOUS
 10
72.416796875
 20
133.1283480432
 11
72.416796875
 21
171.08203125
  0
LINE
  5
242
100
AcDbEntity
  8
0
100
AcDbLine
 62
7
  6
CONTINUOUS
 10
62.266796875
 20
150.4587686602
 11
62.266796875
 21
171.08203125
  0
LINE
  5
243
100
AcDbEntity
  8
0
100
AcDbLine
 62
7
  6
CONTINUOUS
 10
72.416796875
 20
169.58203125
 11
67.341796875
 21
169.58203125
  0
LINE
  5
244
100
AcDbEntity
  8
0
100
AcDbLine
 62
7
  6
CONTINUOUS
 10
67.341796875
 20
169.58203125
 11
83.4582383083
 21
169.58203125
  0
LINE
  5
245
100
AcDbEntity
  8
0
100
AcDbLine
 62
7
  6
CONTINUOUS
 10
62.266796875
 20
169.58203125
 11
67.341796875
 21
169.58203125
  0
INSERT
  5
246
100
AcDbEntity
  8
0
100
AcDbBlockReference
 62
7
  6
CONTINUOUS
  2
_FILLED
 10
72.416796875
 20
169.58203125
 41
3.0
 42
3.0
 43
3.0
  0
INSERT
  5
247
100
AcDbEntity
  8
0
100
AcDbBlockReference
 62
7
  6
CONTINUOUS
  2
_FILLED
 10
62.266796875
 20
169.58203125
 41
3.0
 42
3.0
 43
3.0
 50
180.0
  0
ENDBLK
  5
248
100
AcDbEntity
  8
0
  6
BYBLOCK
 62
0
100
AcDbBlockEnd
  0
ENDSEC
  0
SECTION
  2
ENTITIES
  0
DIMENSION
  5
249
100
AcDbEntity
  8
0
100
AcDbDimension
 62
7
  6
CONTINUOUS
  2
*D0
 10
255.169921875
 20
151.58203125
 11
255.169921875
 21
104.2248883929
 70
160
 71
2
 72
2
 41
0.9
 42
90.0
  3
DIMSTYLE_1
100
AcDbAlignedDimension
 13
246.1693130729
 23
61.58203125
 14
246.1693130729
 24
151.58203125
 50
90.0
100
AcDbRotatedDimension
  0
DIMENSION
  5
24A
100
AcDbEntity
  8
0
100
AcDbDimension
 62
7
  6
CONTINUOUS
  2
*D1
 10
102.669921875
 20
159.58203125
 11
169.7770647321
 21
159.58203125
 70
160
 71
2
 72
2
 41
0.9
 42
144.5
  3
DIMSTYLE_1
100
AcDbAlignedDimension
 13
247.169921875
 23
150.5814224479
 14
102.669921875
 24
150.5814224479
 50
180.0
100
AcDbRotatedDimension
  0
DIMENSION
  5
24B
100
AcDbEntity
  8
0
100
AcDbDimension
 62
7
  6
CONTINUOUS
  2
*D2
 10
62.266796875
 20
159.58203125
 11
74.2471255779
 21
159.58203125
 70
160
 71
1
 72
2
 41
0.9
 42
7.15
  3
DIMSTYLE_1
100
AcDbAlignedDimension
 13
69.416796875
 23
147.7859287696
 14
62.266796875
 24
149.9587686602
 50
180.0
100
AcDbRotatedDimension
  0
DIMENSION
  5
24C
100
AcDbEntity
  8
0
100
AcDbDimension
 62
7
  6
CONTINUOUS
  2
*D3
 10
62.266796875
 20
169.58203125
 11
73.8153811655
 21
169.58203125
 70
160
 71
1
 72
2
 41
0.9
 42
10.15
  3
DIMSTYLE_1
100
AcDbAlignedDimension
 13
72.416796875
 23
132.6283480432
 14
62.266796875
 24
149.9587686602
 50
180.0
100
AcDbRotatedDimension
  0
LINE
  5
24D
100
AcDbEntity
  8
0
100
AcDbLine
 62
7
  6
CONTINUOUS
 10
103.8499364051
 20
151.3727305723
 11
103.8643622206
 21
151.3881997065
  0
LINE
  5
24E
100
AcDbEntity
  8
ASSI
100
AcDbLine
 62
7
  6
CONTINUOUS
 10
103.8499364051
 20
151.3727305723
 11
103.8643622206
 21
151.3881997065
  0
LINE
  5
24F
100
AcDbEntity
  8
0
100
AcDbLine
 62
7
  6
CONTINUOUS
 10
102.669921875
 20
150.5814224479
 11
103.6705306771
 21
151.58203125
  0
LINE
  5
250
100
AcDbEntity
  8
ASSI
100
AcDbLine
 62
7
  6
CONTINUOUS
 10
102.669921875
 20
150.5814224479
 11
103.6705306771
 21
151.58203125
  0
LINE
  5
251
100
AcDbEntity
  8
0
100
AcDbLine
 62
7
  6
CONTINUOUS
 10
103.8499364051
 20
151.3727305723
 11
102.8792225527
 21
150.4020167199
  0
LINE
  5
252
100
AcDbEntity
  8
ASSI
100
AcDbLine
 62
7
  6
CONTINUOUS
 10
103.8499364051
 20
151.3727305723
 11
102.8792225527
 21
150.4020167199
  0
LINE
  5
253
100
AcDbEntity
  8
0
100
AcDbLine
 62
7
  6
CONTINUOUS
 10
104.2931844648
 20
150.3533002098
 11
103.8986529152
 21
149.9587686602
  0
LINE
  5
254
100
AcDbEntity
  8
ASSI
100
AcDbLine
 62
7
  6
CONTINUOUS
 10
104.2931844648
 20
150.3533002098
 11
103.8986529152
 21
149.9587686602
  0
LINE
  5
255
100
AcDbEntity
  8
0
100
AcDbLine
 62
7
  6
CONTINUOUS
 10
102.8637534185
 20
150.3875909044
 11
102.8792225527
 21
150.4020167199
  0
LINE
  5
256
100
AcDbEntity
  8
ASSI
100
AcDbLine
 62
7
  6
CONTINUOUS
 10
102.8637534185
 20
150.3875909044
 11
102.8792225527
 21
150.4020167199
  0
LINE
  5
257
100
AcDbEntity
  8
0
100
AcDbLine
 62
7
  6
CONTINUOUS
 10
102.8792225527
 20
62.7620457801
 11
102.8637534185
 21
62.7764715956
  0
LINE
  5
258
100
AcDbEntity
  8
ASSI
100
AcDbLine
 62
7
  6
CONTINUOUS
 10
102.8792225527
 20
62.7620457801
 11
102.8637534185
 21
62.7764715956
  0
LINE
  5
259
100
AcDbEntity
  8
0
100
AcDbLine
 62
7
  6
CONTINUOUS
 10
103.6705306771
 20
61.58203125
 11
102.669921875
 21
62.5826400521
  0
LINE
  5
25A
100
AcDbEntity
  8
ASSI
100
AcDbLine
 62
7
  6
CONTINUOUS
 10
103.6705306771
 20
61.58203125
 11
102.669921875
 21
62.5826400521
  0
LINE
  5
25B
100
AcDbEntity
  8
0
100
AcDbLine
 62
7
  6
CONTINUOUS
 10
102.8792225527
 20
62.7620457801
 11
103.8499364051
 21
61.7913319277
  0
LINE
  5
25C
100
AcDbEntity
  8
ASSI
100
AcDbLine
 62
7
  6
CONTINUOUS
 10
102.8792225527
 20
62.7620457801
 11
103.8499364051
 21
61.7913319277
  0
LINE
  5
25D
100
AcDbEntity
  8
0
100
AcDbLine
 62
7
  6
CONTINUOUS
 10
103.8986529152
 20
63.2052938398
 11
104.2931844648
 21
62.8107622902
  0
LINE
  5
25E
100
AcDbEntity
  8
ASSI
100
AcDbLine
 62
7
  6
CONTINUOUS
 10
103.8986529152
 20
63.2052938398
 11
104.2931844648
 21
62.8107622902
  0
LINE
  5
25F
100
AcDbEntity
  8
0
100
AcDbLine
 62
7
  6
CONTINUOUS
 10
103.8643622206
 20
61.7758627935
 11
103.8499364051
 21
61.7913319277
  0
LINE
  5
260
100
AcDbEntity
  8
ASSI
100
AcDbLine
 62
7
  6
CONTINUOUS
 10
103.8643622206
 20
61.7758627935
 11
103.8499364051
 21
61.7913319277
  0
LINE
  5
261
100
AcDbEntity
  8
0
100
AcDbLine
 62
7
  6
CONTINUOUS
 10
102.669921875
 20
150.5814224479
 11
102.669921875
 21
62.5826400521
  0
LINE
  5
262
100
AcDbEntity
  8
ASSI
100
AcDbLine
 62
7
  6
CONTINUOUS
 10
102.669921875
 20
150.5814224479
 11
102.669921875
 21
62.5826400521
  0
LINE
  5
263
100
AcDbEntity
  8
0
100
AcDbLine
 62
7
  6
CONTINUOUS
 10
102.8637534185
 20
150.3875909044
 11
102.8637534185
 21
62.7764715956
  0
LINE
  5
264
100
AcDbEntity
  8
ASSI
100
AcDbLine
 62
7
  6
CONTINUOUS
 10
102.8637534185
 20
150.3875909044
 11
102.8637534185
 21
62.7764715956
  0
LINE
  5
265
100
AcDbEntity
  8
0
100
AcDbLine
 62
7
  6
CONTINUOUS
 10
103.8986529152
 20
149.9587686602
 11
103.8986529152
 21
63.2052938398
  0
LINE
  5
266
100
AcDbEntity
  8
ASSI
100
AcDbLine
 62
7
  6
CONTINUOUS
 10
103.8986529152
 20
149.9587686602
 11
103.8986529152
 21
63.2052938398
  0
LINE
  5
267
100
AcDbEntity
  8
0
100
AcDbLine
 62
250
  6
CONTINUOUS
 10
129.5215359587
 20
84.3819401688
 11
129.5215359587
 21
128.7821223312
  0
LINE
  5
268
100
AcDbEntity
  8
ASSI
100
AcDbLine
 62
250
  6
CONTINUOUS
 10
129.5215359587
 20
84.3819401688
 11
129.5215359587
 21
128.7821223312
  0
LINE
  5
269
100
AcDbEntity
  8
0
100
AcDbLine
 62
250
  6
CONTINUOUS
 10
129.7210487687
 20
84.3819401688
 11
129.7210487687
 21
128.7821223312
  0
LINE
  5
26A
100
AcDbEntity
  8
ASSI
100
AcDbLine
 62
250
  6
CONTINUOUS
 10
129.7210487687
 20
84.3819401688
 11
129.7210487687
 21
128.7821223312
  0
LINE
  5
26B
100
AcDbEntity
  8
0
100
AcDbLine
 62
7
  6
CONTINUOUS
 10
129.819921875
 20
128.6832492249
 11
129.819921875
 21
84.4808132751
  0
LINE
  5
26C
100
AcDbEntity
  8
ASSI
100
AcDbLine
 62
7
  6
CONTINUOUS
 10
129.819921875
 20
128.6832492249
 11
129.819921875
 21
84.4808132751
  0
LINE
  5
26D
100
AcDbEntity
  8
0
100
AcDbLine
 62
250
  6
CONTINUOUS
 10
130.2198307938
 20
129.4804171663
 11
130.2198307938
 21
129.2809043563
  0
LINE
  5
26E
100
AcDbEntity
  8
ASSI
100
AcDbLine
 62
250
  6
CONTINUOUS
 10
130.2198307938
 20
129.4804171663
 11
130.2198307938
 21
129.2809043563
  0
LINE
  5
26F
100
AcDbEntity
  8
0
100
AcDbLine
 62
250
  6
CONTINUOUS
 10
130.2198307938
 20
83.6836453337
 11
130.2198307938
 21
83.8831581437
  0
LINE
  5
270
100
AcDbEntity
  8
ASSI
100
AcDbLine
 62
250
  6
CONTINUOUS
 10
130.2198307938
 20
83.6836453337
 11
130.2198307938
 21
83.8831581437
  0
LWPOLYLINE
  5
271
100
AcDbEntity
  8
0
100
AcDbPolyline
 62
250
  6
CONTINUOUS
 90
25
 70
0
 10
129.7210487687
 20
128.7821223312
 10
129.7220383
 20
128.8146320252
 10
129.7251380566
 20
128.8470292644
 10
129.7303419144
 20
128.8791778249
 10
129.7376380833
 20
128.9109569207
 10
129.7470012821
 20
128.9422153274
 10
129.7583833693
 20
128.9727747991
 10
129.7717349881
 20
129.0025064448
 10
129.7869977543
 20
129.0312852765
 10
129.8040813734
 20
129.0589509091
 10
129.8228908546
 20
129.0853727954
 10
129.843350376
 20
129.1104666244
 10
129.8653843901
 20
129.1341513612
 10
129.8889073165
 20
129.156339991
 10
129.9138082998
 20
129.1769333636
 10
129.939967246
 20
129.1958412557
 10
129.9671830692
 20
129.2129398826
 10
129.9954199494
 20
129.2282269633
 10
130.0248243793
 20
129.241759462
 10
130.0553904229
 20
129.253470323
 10
130.0869140382
 20
129.263218026
 10
130.1192564307
 20
129.2709103305
 10
130.1522809326
 20
129.2764675143
 10
130.1858544533
 20
129.2798196529
 10
130.2198307938
 20
129.2809043563
  0
LWPOLYLINE
  5
272
100
AcDbEntity
  8
ASSI
100
AcDbPolyline
 62
250
  6
CONTINUOUS
 90
25
 70
0
 10
129.7210487687
 20
128.7821223312
 10
129.7220383
 20
128.8146320252
 10
129.7251380566
 20
128.8470292644
 10
129.7303419144
 20
128.8791778249
 10
129.7376380833
 20
128.9109569207
 10
129.7470012821
 20
128.9422153274
 10
129.7583833693
 20
128.9727747991
 10
129.7717349881
 20
129.0025064448
 10
129.7869977543
 20
129.0312852765
 10
129.8040813734
 20
129.0589509091
 10
129.8228908546
 20
129.0853727954
 10
129.843350376
 20
129.1104666244
 10
129.8653843901
 20
129.1341513612
 10
129.8889073165
 20
129.156339991
 10
129.9138082998
 20
129.1769333636
 10
129.939967246
 20
129.1958412557
 10
129.9671830692
 20
129.2129398826
 10
129.9954199494
 20
129.2282269633
 10
130.0248243793
 20
129.241759462
 10
130.0553904229
 20
129.253470323
 10
130.0869140382
 20
129.263218026
 10
130.1192564307
 20
129.2709103305
 10
130.1522809326
 20
129.2764675143
 10
130.1858544533
 20
129.2798196529
 10
130.2198307938
 20
129.2809043563
  0
LWPOLYLINE
  5
273
100
AcDbEntity
  8
0
100
AcDbPolyline
 62
250
  6
CONTINUOUS
 90
25
 70
0
 10
129.5215359587
 20
128.7821223312
 10
129.5230420658
 20
128.827867199
 10
129.5274579023
 20
128.87308074
 10
129.534783468
 20
128.9177629541
 10
129.5450756546
 20
128.9621190091
 10
129.5582775704
 20
129.0059437371
 10
129.5742185409
 20
129.0486216348
 10
129.5929482037
 20
129.0901317059
 10
129.6144169212
 20
129.1304949467
 10
129.6383051051
 20
129.1691588415
 10
129.6646268107
 20
129.2060706371
 10
129.6933679826
 20
129.2412830869
 10
129.7241668668
 20
129.2744019349
 10
129.7570586483
 20
129.3054130803
 10
129.7920081419
 20
129.3343306239
 10
129.8285480383
 20
129.3608026134
 10
129.8665588598
 20
129.3847633316
 10
129.9061600841
 20
129.4062784957
 10
129.9472428347
 20
129.4251933044
 10
129.9899487026
 20
129.4415801545
 10
130.0341360968
 20
129.4553666493
 10
130.0792713679
 20
129.4661807971
 10
130.1251766329
 20
129.4738986005
 10
130.1720297749
 20
129.478644057
 10
130.2198307938
 20
129.4804171663
  0
LWPOLYLINE
  5
274
100
AcDbEntity
  8
ASSI
100
AcDbPolyline
 62
250
  6
CONTINUOUS
 90
25
 70
0
 10
129.5215359587
 20
128.7821223312
 10
129.5230420658
 20
128.827867199
 10
129.5274579023
 20
128.87308074
 10
129.534783468
 20
128.9177629541
 10
129.5450756546
 20
128.9621190091
 10
129.5582775704
 20
129.0059437371
 10
129.5742185409
 20
129.0486216348
 10
129.5929482037
 20
129.0901317059
 10
129.6144169212
 20
129.1304949467
 10
129.6383051051
 20
129.1691588415
 10
129.6646268107
 20
129.2060706371
 10
129.6933679826
 20
129.2412830869
 10
129.7241668668
 20
129.2744019349
 10
129.7570586483
 20
129.3054130803
 10
129.7920081419
 20
129.3343306239
 10
129.8285480383
 20
129.3608026134
 10
129.8665588598
 20
129.3847633316
 10
129.9061600841
 20
129.4062784957
 10
129.9472428347
 20
129.4251933044
 10
129.9899487026
 20
129.4415801545
 10
130.0341360968
 20
129.4553666493
 10
130.0792713679
 20
129.4661807971
 10
130.1251766329
 20
129.4738986005
 10
130.1720297749
 20
129.478644057
 10
130.2198307938
 20
129.4804171663
  0
LINE
  5
275
100
AcDbEntity
  8
0
100
AcDbLine
 62
7
  6
CONTINUOUS
 10
104.2931844648
 20
62.8107622902
 11
103.8499364051
 21
61.7913319277
  0
LINE
  5
276
100
AcDbEntity
  8
ASSI
100
AcDbLine
 62
7
  6
CONTINUOUS
 10
104.2931844648
 20
62.8107622902
 11
103.8499364051
 21
61.7913319277
  0
LINE
  5
277
100
AcDbEntity
  8
0
100
AcDbLine
 62
7
  6
CONTINUOUS
 10
103.6705306771
 20
61.58203125
 11
246.1693130729
 21
61.58203125
  0
LINE
  5
278
100
AcDbEntity
  8
ASSI
100
AcDbLine
 62
7
  6
CONTINUOUS
 10
103.6705306771
 20
61.58203125
 11
246.1693130729
 21
61.58203125
  0
LINE
  5
279
100
AcDbEntity
  8
0
100
AcDbLine
 62
7
  6
CONTINUOUS
 10
103.8643622206
 20
61.7758627935
 11
245.9754815294
 21
61.7758627935
  0
LINE
  5
27A
100
AcDbEntity
  8
ASSI
100
AcDbLine
 62
7
  6
CONTINUOUS
 10
103.8643622206
 20
61.7758627935
 11
245.9754815294
 21
61.7758627935
  0
LINE
  5
27B
100
AcDbEntity
  8
0
100
AcDbLine
 62
7
  6
CONTINUOUS
 10
104.2931844648
 20
150.3533002098
 11
103.8499364051
 21
151.3727305723
  0
LINE
  5
27C
100
AcDbEntity
  8
ASSI
100
AcDbLine
 62
7
  6
CONTINUOUS
 10
104.2931844648
 20
150.3533002098
 11
103.8499364051
 21
151.3727305723
  0
LWPOLYLINE
  5
27D
100
AcDbEntity
  8
0
100
AcDbPolyline
 62
7
  6
CONTINUOUS
 90
3
 70
0
 43
0.3500000006
 10
169.7770662231
 20
162.4748838501
 10
170.6342041626
 20
163.332039917
 10
170.6342041626
 20
160.3320390015
  0
LINE
  5
27E
100
AcDbEntity
  8
0
100
AcDbLine
 62
7
  6
CONTINUOUS
 10
104.2931844648
 20
62.8107622902
 11
245.5466592852
 21
62.8107622902
  0
LINE
  5
27F
100
AcDbEntity
  8
ASSI
100
AcDbLine
 62
7
  6
CONTINUOUS
 10
104.2931844648
 20
62.8107622902
 11
245.5466592852
 21
62.8107622902
  0
LWPOLYLINE
  5
280
100
AcDbEntity
  8
CURVE
100
AcDbPolyline
 62
250
  6
CONTINUOUS
 90
73
 70
0
 10
178.725277008
 20
80.558368359
 10
178.7304702818
 20
80.5594143871
 10
178.7355070765
 20
80.561088684
 10
178.7404145797
 20
80.5632396626
 10
178.745219979
 20
80.5657157357
 10
178.7499504618
 20
80.5683653162
 10
178.7645506219
 20
80.5769667491
 10
178.7787194698
 20
80.5859147521
 10
178.7925004811
 20
80.5953378411
 10
178.8064209372
 20
80.6057121769
 10
178.8199743182
 20
80.6166582984
 10
178.8331638763
 20
80.628098875
 10
178.8459928638
 20
80.6399565759
 10
178.8612048319
 20
80.6549460512
 10
178.8758679843
 20
80.6704376303
 10
178.8899687281
 20
80.6864244446
 10
178.9034934704
 20
80.7028996253
 10
178.915463489
 20
80.7185445863
 10
178.9269181621
 20
80.7345803509
 10
178.9378452837
 20
80.7509868293
 10
178.9482326476
 20
80.7677439316
 10
178.9580680478
 20
80.7848315679
 10
178.9684819218
 20
80.8044701233
 10
178.9781694195
 20
80.8244761172
 10
178.9871214175
 20
80.8448223078
 10
178.9953287925
 20
80.8654814529
 10
179.0027824212
 20
80.8864263107
 10
179.0090896346
 20
80.9063304666
 10
179.014728894
 20
80.9264364211
 10
179.0197049997
 20
80.9467180342
 10
179.0240227517
 20
80.9671491664
 10
179.0276869505
 20
80.9877036777
 10
179.0307023963
 20
81.0083554285
 10
179.0332858488
 20
81.0312296259
 10
179.0351094439
 20
81.0541697762
 10
179.0361975488
 20
81.0771552452
 10
179.0365713384
 20
81.1018750592
 10
179.0361336647
 20
81.1265959476
 10
179.0348937788
 20
81.1512904962
 10
179.033310631
 20
81.1711736686
 10
179.0311887248
 20
81.191004117
 10
179.0285053599
 20
81.2107641002
 10
179.0254376113
 20
81.2293421185
 10
179.0218412451
 20
81.2478270092
 10
179.0177084984
 20
81.266204292
 10
179.0124873386
 20
81.2864491072
 10
179.0065935428
 20
81.3065146545
 10
179.0000243268
 20
81.3263719586
 10
178.9927769066
 20
81.3459920445
 10
178.9848484978
 20
81.3653459371
 10
178.977028414
 20
81.3827299685
 10
178.9686485085
 20
81.3998500154
 10
178.9597169828
 20
81.4166872958
 10
178.9502420385
 20
81.4332230274
 10
178.9402318772
 20
81.4494384279
 10
178.9281120223
 20
81.4676062535
 10
178.9153176706
 20
81.4853053923
 10
178.9018666371
 20
81.5025126323
 10
178.8877767365
 20
81.5192047612
 10
178.8733031768
 20
81.5351090878
 10
178.8582493432
 20
81.5504752719
 10
178.8426365853
 20
81.5652866531
 10
178.8264862523
 20
81.579526571
 10
178.8098196934
 20
81.5931783652
 10
178.7926582581
 20
81.6062253754
 10
178.7750232957
 20
81.6186509412
 10
178.7618814257
 20
81.6273001828
 10
178.7484983819
 20
81.6355638334
 10
178.7348732335
 20
81.6433953281
 10
178.7210050496
 20
81.6507481019
 10
178.7068928993
 20
81.65757559
 10
178.6925358518
 20
81.6638312275
 10
178.6779329762
 20
81.6694684495
  0
LWPOLYLINE
  5
281
100
AcDbEntity
  8
CURVE
100
AcDbPolyline
 62
250
  6
CONTINUOUS
 90
23
 70
0
 10
177.9868420818
 20
81.3435699507
 10
178.0035435141
 20
81.3463518791
 10
178.0202745427
 20
81.348993737
 10
178.0370334634
 20
81.3514812865
 10
178.0538185723
 20
81.3538002893
 10
178.0706281651
 20
81.3559365073
 10
178.0874605379
 20
81.3578757026
 10
178.1043139866
 20
81.3596036369
 10
178.121186807
 20
81.3611060722
 10
178.1380772952
 20
81.3623687703
 10
178.1549837469
 20
81.3633774932
 10
178.1719044583
 20
81.3641180028
 10
178.1878034861
 20
81.3645593667
 10
178.2037098183
 20
81.3647573549
 10
178.2196196896
 20
81.3647176165
 10
178.2355293349
 20
81.3644458006
 10
178.2514349888
 20
81.3639475565
 10
178.2673328863
 20
81.3632285332
 10
178.2832192619
 20
81.36229438
 10
178.2990903506
 20
81.361150746
 10
178.314942387
 20
81.3598032803
 10
178.330771606
 20
81.3582576322
 10
178.3465742424
 20
81.3565194507
  0
LINE
  5
282
100
AcDbEntity
  8
CURVE
100
AcDbLine
 62
250
  6
CONTINUOUS
 10
177.4098880475
 20
79.5185156793
 11
176.9259236886
 21
79.5185156793
  0
LINE
  5
283
100
AcDbEntity
  8
CURVE
100
AcDbLine
 62
250
  6
CONTINUOUS
 10
176.054924871
 20
79.5185156793
 11
175.6007191774
 21
79.5185156793
  0
LINE
  5
284
100
AcDbEntity
  8
CURVE
100
AcDbLine
 62
250
  6
CONTINUOUS
 10
175.5286147045
 20
79.5185156793
 11
175.0794072011
 21
79.5185156793
  0
LINE
  5
285
100
AcDbEntity
  8
CURVE
100
AcDbLine
 62
250
  6
CONTINUOUS
 10
174.4390909445
 20
79.5185156793
 11
174.3746906617
 21
79.5185156793
  0
LINE
  5
286
100
AcDbEntity
  8
CURVE
100
AcDbLine
 62
250
  6
CONTINUOUS
 10
173.7369148812
 20
79.5185156793
 11
173.297622044
 21
79.5185156793
  0
LINE
  5
287
100
AcDbEntity
  8
CURVE
100
AcDbLine
 62
250
  6
CONTINUOUS
 10
171.7137247826
 20
79.5185156793
 11
171.309065182
 21
79.5185156793
  0
LINE
  5
288
100
AcDbEntity
  8
CURVE
100
AcDbLine
 62
250
  6
CONTINUOUS
 10
172.5912387428
 20
79.5185156793
 11
173.0504269124
 21
79.5185156793
  0
LINE
  5
289
100
AcDbEntity
  8
CURVE
100
AcDbLine
 62
250
  6
CONTINUOUS
 10
177.5447280068
 20
79.5185152626
 11
178.0020680544
 21
79.5185152626
  0
LINE
  5
28A
100
AcDbEntity
  8
CURVE
100
AcDbLine
 62
250
  6
CONTINUOUS
 10
178.7052506475
 20
79.5185152626
 11
179.1469358219
 21
79.5185152626
  0
LINE
  5
28B
100
AcDbEntity
  8
CURVE
100
AcDbLine
 62
250
  6
CONTINUOUS
 10
176.806969694
 20
79.9576765165
 11
176.1816322938
 21
79.9576765165
  0
LINE
  5
28C
100
AcDbEntity
  8
CURVE
100
AcDbLine
 62
250
  6
CONTINUOUS
 10
176.2755618134
 20
80.2974979296
 11
176.7152014124
 21
80.2974979296
  0
LINE
  5
28D
100
AcDbEntity
  8
CURVE
100
AcDbLine
 62
250
  6
CONTINUOUS
 10
178.0020680544
 20
80.3794013204
 11
178.2482735158
 21
80.3794013204
  0
LINE
  5
28E
100
AcDbEntity
  8
CURVE
100
AcDbLine
 62
250
  6
CONTINUOUS
 10
178.2492632865
 20
80.7396778549
 11
177.9868420818
 21
80.7396778549
  0
LINE
  5
28F
100
AcDbEntity
  8
CURVE
100
AcDbLine
 62
250
  6
CONTINUOUS
 10
170.611680928
 20
81.7183301507
 11
171.1105005243
 21
81.7183301507
  0
LINE
  5
290
100
AcDbEntity
  8
CURVE
100
AcDbLine
 62
250
  6
CONTINUOUS
 10
171.9619591523
 20
81.7183301507
 11
172.4208340838
 21
81.7183301507
  0
LINE
  5
291
100
AcDbEntity
  8
CURVE
100
AcDbLine
 62
250
  6
CONTINUOUS
 10
173.4962527016
 20
81.7183301507
 11
173.9550605855
 21
81.7183301507
  0
LINE
  5
292
100
AcDbEntity
  8
CURVE
100
AcDbLine
 62
250
  6
CONTINUOUS
 10
174.8685864488
 20
81.7183301507
 11
175.3229073805
 21
81.7183301507
  0
LINE
  5
293
100
AcDbEntity
  8
CURVE
100
AcDbLine
 62
250
  6
CONTINUOUS
 10
176.2907219079
 20
81.7183301507
 11
176.7349301735
 21
81.7183301507
  0
LINE
  5
294
100
AcDbEntity
  8
CURVE
100
AcDbLine
 62
250
  6
CONTINUOUS
 10
173.0504269124
 20
81.7184621507
 11
172.5912387428
 21
81.7184621507
  0
LINE
  5
295
100
AcDbEntity
  8
0
100
AcDbLine
 62
250
  6
CONTINUOUS
 10
219.6200129562
 20
83.6836453337
 11
130.2198307938
 21
83.6836453337
  0
LINE
  5
296
100
AcDbEntity
  8
ASSI
100
AcDbLine
 62
250
  6
CONTINUOUS
 10
219.6200129562
 20
83.6836453337
 11
130.2198307938
 21
83.6836453337
  0
LINE
  5
297
100
AcDbEntity
  8
0
100
AcDbLine
 62
250
  6
CONTINUOUS
 10
219.6200129562
 20
83.8831581437
 11
130.2198307938
 21
83.8831581437
  0
LINE
  5
298
100
AcDbEntity
  8
ASSI
100
AcDbLine
 62
250
  6
CONTINUOUS
 10
219.6200129562
 20
83.8831581437
 11
130.2198307938
 21
83.8831581437
  0
LINE
  5
299
100
AcDbEntity
  8
0
100
AcDbLine
 62
7
  6
CONTINUOUS
 10
130.3187039001
 20
83.98203125
 11
219.5211398499
 21
83.98203125
  0
LINE
  5
29A
100
AcDbEntity
  8
ASSI
100
AcDbLine
 62
7
  6
CONTINUOUS
 10
130.3187039001
 20
83.98203125
 11
219.5211398499
 21
83.98203125
  0
LINE
  5
29B
100
AcDbEntity
  8
0
100
AcDbLine
 62
250
  6
CONTINUOUS
 10
220.3183077913
 20
84.3819401688
 11
220.1187949813
 21
84.3819401688
  0
LINE
  5
29C
100
AcDbEntity
  8
ASSI
100
AcDbLine
 62
250
  6
CONTINUOUS
 10
220.3183077913
 20
84.3819401688
 11
220.1187949813
 21
84.3819401688
  0
LINE
  5
29D
100
AcDbEntity
  8
0
100
AcDbLine
 62
250
  6
CONTINUOUS
 10
129.5215359587
 20
84.3819401688
 11
129.7210487687
 21
84.3819401688
  0
LINE
  5
29E
100
AcDbEntity
  8
ASSI
100
AcDbLine
 62
250
  6
CONTINUOUS
 10
129.5215359587
 20
84.3819401688
 11
129.7210487687
 21
84.3819401688
  0
LWPOLYLINE
  5
29F
100
AcDbEntity
  8
CURVE
100
AcDbPolyline
 62
250
  6
CONTINUOUS
 90
46
 70
0
 10
178.2482735158
 20
80.3794013204
 10
178.2557850339
 20
80.3792955097
 10
178.2633084546
 20
80.3789780912
 10
178.270835455
 20
80.3784490856
 10
178.2783577119
 20
80.3777085135
 10
178.2858669025
 20
80.3767563956
 10
178.2933547036
 20
80.3755927524
 10
178.3008127924
 20
80.3742176045
 10
178.3082328456
 20
80.3726309727
 10
178.3156065404
 20
80.3708328774
 10
178.3229255537
 20
80.3688233394
 10
178.3301815626
 20
80.3666023792
 10
178.3373662439
 20
80.3641700175
 10
178.3444712748
 20
80.3615262749
 10
178.351488332
 20
80.358671172
 10
178.3584090928
 20
80.3556047294
 10
178.365225234
 20
80.3523269678
 10
178.3717591582
 20
80.3489306657
 10
178.378182528
 20
80.3453389623
 10
178.3844920268
 20
80.3415570822
 10
178.390684338
 20
80.3375902499
 10
178.3967561452
 20
80.3334436898
 10
178.4027041317
 20
80.3291226267
 10
178.4085249809
 20
80.324632285
 10
178.4142153765
 20
80.3199778893
 10
178.4197720017
 20
80.3151646641
 10
178.42519154
 20
80.3101978339
 10
178.430470675
 20
80.3050826234
 10
178.43560609
 20
80.2998242571
 10
178.4405944684
 20
80.2944279594
 10
178.4458089738
 20
80.2884571581
 10
178.4508505619
 20
80.2823395385
 10
178.4557213447
 20
80.2760827689
 10
178.4604234342
 20
80.2696945177
 10
178.4649589422
 20
80.2631824533
 10
178.4693299806
 20
80.2565542441
 10
178.4735386615
 20
80.2498175583
 10
178.4775870967
 20
80.2429800644
 10
178.4814773982
 20
80.2360494308
 10
178.4852116778
 20
80.2290333258
 10
178.4887920475
 20
80.2219394178
 10
178.4922206193
 20
80.2147753751
 10
178.495499505
 20
80.2075488661
 10
178.4986308166
 20
80.2002675592
 10
178.5016166659
 20
80.1929391228
 10
178.504459165
 20
80.1855712252
  0
LWPOLYLINE
  5
2A0
100
AcDbEntity
  8
0
100
AcDbPolyline
 62
250
  6
CONTINUOUS
 90
25
 70
0
 10
130.2198307938
 20
83.8831581437
 10
130.1873210998
 20
83.884147675
 10
130.1549238606
 20
83.8872474316
 10
130.1227753001
 20
83.8924512894
 10
130.0909962043
 20
83.8997474583
 10
130.0597377976
 20
83.9091106571
 10
130.0291783259
 20
83.9204927443
 10
129.9994466802
 20
83.9338443631
 10
129.9706678485
 20
83.9491071293
 10
129.9430022159
 20
83.9661907484
 10
129.9165803296
 20
83.9850002296
 10
129.8914865006
 20
84.005459751
 10
129.8678017638
 20
84.0274937651
 10
129.845613134
 20
84.0510166915
 10
129.8250197614
 20
84.0759176748
 10
129.8061118693
 20
84.102076621
 10
129.7890132424
 20
84.1292924442
 10
129.7737261617
 20
84.1575293244
 10
129.760193663
 20
84.1869337543
 10
129.748482802
 20
84.2174997979
 10
129.738735099
 20
84.2490234132
 10
129.7310427945
 20
84.2813658057
 10
129.7254856107
 20
84.3143903076
 10
129.7221334721
 20
84.3479638283
 10
129.7210487687
 20
84.3819401688
  0
LWPOLYLINE
  5
2A1
100
AcDbEntity
  8
ASSI
100
AcDbPolyline
 62
250
  6
CONTINUOUS
 90
25
 70
0
 10
130.2198307938
 20
83.8831581437
 10
130.1873210998
 20
83.884147675
 10
130.1549238606
 20
83.8872474316
 10
130.1227753001
 20
83.8924512894
 10
130.0909962043
 20
83.8997474583
 10
130.0597377976
 20
83.9091106571
 10
130.0291783259
 20
83.9204927443
 10
129.9994466802
 20
83.9338443631
 10
129.9706678485
 20
83.9491071293
 10
129.9430022159
 20
83.9661907484
 10
129.9165803296
 20
83.9850002296
 10
129.8914865006
 20
84.005459751
 10
129.8678017638
 20
84.0274937651
 10
129.845613134
 20
84.0510166915
 10
129.8250197614
 20
84.0759176748
 10
129.8061118693
 20
84.102076621
 10
129.7890132424
 20
84.1292924442
 10
129.7737261617
 20
84.1575293244
 10
129.760193663
 20
84.1869337543
 10
129.748482802
 20
84.2174997979
 10
129.738735099
 20
84.2490234132
 10
129.7310427945
 20
84.2813658057
 10
129.7254856107
 20
84.3143903076
 10
129.7221334721
 20
84.3479638283
 10
129.7210487687
 20
84.3819401688
  0
LWPOLYLINE
  5
2A2
100
AcDbEntity
  8
0
100
AcDbPolyline
 62
250
  6
CONTINUOUS
 90
25
 70
0
 10
130.2198307938
 20
83.6836453337
 10
130.174085926
 20
83.6851514408
 10
130.128872385
 20
83.6895672773
 10
130.0841901709
 20
83.696892843
 10
130.0398341159
 20
83.7071850296
 10
129.9960093879
 20
83.7203869454
 10
129.9533314902
 20
83.7363279159
 10
129.9118214191
 20
83.7550575787
 10
129.8714581783
 20
83.7765262962
 10
129.8327942835
 20
83.8004144801
 10
129.7958824879
 20
83.8267361857
 10
129.7606700381
 20
83.8554773576
 10
129.7275511901
 20
83.8862762418
 10
129.6965400447
 20
83.9191680233
 10
129.6676225011
 20
83.9541175169
 10
129.6411505116
 20
83.9906574133
 10
129.6171897934
 20
84.0286682348
 10
129.5956746293
 20
84.0682694591
 10
129.5767598206
 20
84.1093522097
 10
129.5603729705
 20
84.1520580776
 10
129.5465864757
 20
84.1962454718
 10
129.5357723279
 20
84.2413807429
 10
129.5280545245
 20
84.2872860079
 10
129.523309068
 20
84.3341391499
 10
129.5215359587
 20
84.3819401688
  0
LWPOLYLINE
  5
2A3
100
AcDbEntity
  8
ASSI
100
AcDbPolyline
 62
250
  6
CONTINUOUS
 90
25
 70
0
 10
130.2198307938
 20
83.6836453337
 10
130.174085926
 20
83.6851514408
 10
130.128872385
 20
83.6895672773
 10
130.0841901709
 20
83.696892843
 10
130.0398341159
 20
83.7071850296
 10
129.9960093879
 20
83.7203869454
 10
129.9533314902
 20
83.7363279159
 10
129.9118214191
 20
83.7550575787
 10
129.8714581783
 20
83.7765262962
 10
129.8327942835
 20
83.8004144801
 10
129.7958824879
 20
83.8267361857
 10
129.7606700381
 20
83.8554773576
 10
129.7275511901
 20
83.8862762418
 10
129.6965400447
 20
83.9191680233
 10
129.6676225011
 20
83.9541175169
 10
129.6411505116
 20
83.9906574133
 10
129.6171897934
 20
84.0286682348
 10
129.5956746293
 20
84.0682694591
 10
129.5767598206
 20
84.1093522097
 10
129.5603729705
 20
84.1520580776
 10
129.5465864757
 20
84.1962454718
 10
129.5357723279
 20
84.2413807429
 10
129.5280545245
 20
84.2872860079
 10
129.523309068
 20
84.3341391499
 10
129.5215359587
 20
84.3819401688
  0
LWPOLYLINE
  5
2A4
100
AcDbEntity
  8
CURVE
100
AcDbPolyline
 62
250
  6
CONTINUOUS
 90
49
 70
0
 10
178.3465742424
 20
81.3565194507
 10
178.3549900212
 20
81.3554288167
 10
178.3634063738
 20
81.354110697
 10
178.3718140306
 20
81.3525657312
 10
178.3802037224
 20
81.3507945588
 10
178.3885661794
 20
81.3487978193
 10
178.3968921324
 20
81.3465761521
 10
178.4051723117
 20
81.3441301969
 10
178.413397448
 20
81.3414605931
 10
178.4215582718
 20
81.3385679803
 10
178.4296455136
 20
81.3354529979
 10
178.4376499039
 20
81.3321162855
 10
178.4455621732
 20
81.3285584827
 10
178.4533730522
 20
81.3247802288
 10
178.4610732712
 20
81.3207821635
 10
178.468653561
 20
81.3165649262
 10
178.4761046518
 20
81.3121291564
 10
178.4834172744
 20
81.3074754938
 10
178.4905821592
 20
81.3026045778
 10
178.4975900368
 20
81.2975170478
 10
178.5044316377
 20
81.2922135435
 10
178.5110976923
 20
81.2866947044
 10
178.5175789314
 20
81.2809611699
 10
178.5238660853
 20
81.2750135796
 10
178.5299498846
 20
81.268852573
 10
178.5357910792
 20
81.262515263
 10
178.5414192725
 20
81.2559774053
 10
178.5468318013
 20
81.2492489418
 10
178.5520260026
 20
81.2423398142
 10
178.5569992134
 20
81.2352599643
 10
178.5617487706
 20
81.228019334
 10
178.5662720111
 20
81.220627865
 10
178.5705662719
 20
81.213095499
 10
178.5746288899
 20
81.2054321779
 10
178.5784572021
 20
81.1976478435
 10
178.5820485454
 20
81.1897524374
 10
178.5854002568
 20
81.1817559016
 10
178.5885096731
 20
81.1736681778
 10
178.5913741315
 20
81.1654992078
 10
178.5939909687
 20
81.1572589334
 10
178.5963575218
 20
81.1489572963
 10
178.5984711277
 20
81.1406042383
 10
178.6003291233
 20
81.1322097012
 10
178.6019288456
 20
81.1237836269
 10
178.6032676315
 20
81.115335957
 10
178.6043428179
 20
81.1068766334
 10
178.6051517419
 20
81.0984155979
 10
178.6056917404
 20
81.0899627922
 10
178.6059601502
 20
81.0815281581
  0
LWPOLYLINE
  5
2A5
100
AcDbEntity
  8
CURVE
100
AcDbPolyline
 62
250
  6
CONTINUOUS
 90
30
 70
0
 10
178.6779329762
 20
81.6694684495
 10
178.6513505893
 20
81.6786231407
 10
178.624510077
 20
81.6870019743
 10
178.597434955
 20
81.6946395379
 10
178.5701487389
 20
81.701570419
 10
178.5426749443
 20
81.7078292053
 10
178.515037087
 20
81.7134504844
 10
178.4872586825
 20
81.7184688438
 10
178.4593632465
 20
81.7229188712
 10
178.4313742946
 20
81.726835154
 10
178.4033153424
 20
81.73025228
 10
178.3752099056
 20
81.7332048367
 10
178.3470814999
 20
81.7357274117
 10
178.3057375962
 20
81.738716934
 10
178.2643966125
 20
81.7409016689
 10
178.223060288
 20
81.7423308508
 10
178.181730362
 20
81.743053714
 10
178.1404085737
 20
81.7431194926
 10
178.0990966624
 20
81.7425774209
 10
178.0577963672
 20
81.7414767332
 10
178.0165094275
 20
81.7398666637
 10
177.9638980448
 20
81.7371422445
 10
177.9113181763
 20
81.7337050261
 10
177.8587768043
 20
81.7295900437
 10
177.8062809112
 20
81.7248323327
 10
177.7538374791
 20
81.7194669284
 10
177.7014534903
 20
81.7135288661
 10
177.6491359271
 20
81.707053181
 10
177.5968917719
 20
81.7000749085
 10
177.5447280068
 20
81.6926290839
  0
LINE
  5
2A6
100
AcDbEntity
  8
0
100
AcDbLine
 62
7
  6
CONTINUOUS
 10
102.8637534185
 20
62.7764715956
 11
102.669921875
 21
62.5826400521
  0
LINE
  5
2A7
100
AcDbEntity
  8
ASSI
100
AcDbLine
 62
7
  6
CONTINUOUS
 10
102.8637534185
 20
62.7764715956
 11
102.669921875
 21
62.5826400521
  0
LINE
  5
2A8
100
AcDbEntity
  8
0
100
AcDbLine
 62
7
  6
CONTINUOUS
 10
103.8643622206
 20
61.7758627935
 11
103.6705306771
 21
61.58203125
  0
LINE
  5
2A9
100
AcDbEntity
  8
ASSI
100
AcDbLine
 62
7
  6
CONTINUOUS
 10
103.8643622206
 20
61.7758627935
 11
103.6705306771
 21
61.58203125
  0
LINE
  5
2AA
100
AcDbEntity
  8
0
100
AcDbLine
 62
250
  6
CONTINUOUS
 10
129.7210487687
 20
84.3819401688
 11
129.819921875
 21
84.4808132751
  0
LINE
  5
2AB
100
AcDbEntity
  8
ASSI
100
AcDbLine
 62
250
  6
CONTINUOUS
 10
129.7210487687
 20
84.3819401688
 11
129.819921875
 21
84.4808132751
  0
LINE
  5
2AC
100
AcDbEntity
  8
0
100
AcDbLine
 62
7
  6
CONTINUOUS
 10
102.8637534185
 20
150.3875909044
 11
102.669921875
 21
150.5814224479
  0
LINE
  5
2AD
100
AcDbEntity
  8
ASSI
100
AcDbLine
 62
7
  6
CONTINUOUS
 10
102.8637534185
 20
150.3875909044
 11
102.669921875
 21
150.5814224479
  0
LINE
  5
2AE
100
AcDbEntity
  8
0
100
AcDbLine
 62
7
  6
CONTINUOUS
 10
103.8643622206
 20
151.3881997065
 11
103.6705306771
 21
151.58203125
  0
LINE
  5
2AF
100
AcDbEntity
  8
ASSI
100
AcDbLine
 62
7
  6
CONTINUOUS
 10
103.8643622206
 20
151.3881997065
 11
103.6705306771
 21
151.58203125
  0
LINE
  5
2B0
100
AcDbEntity
  8
0
100
AcDbLine
 62
250
  6
CONTINUOUS
 10
129.7210487687
 20
128.7821223312
 11
129.819921875
 21
128.6832492249
  0
LINE
  5
2B1
100
AcDbEntity
  8
ASSI
100
AcDbLine
 62
250
  6
CONTINUOUS
 10
129.7210487687
 20
128.7821223312
 11
129.819921875
 21
128.6832492249
  0
LWPOLYLINE
  5
2B2
100
AcDbEntity
  8
0
100
AcDbPolyline
 62
7
  6
CONTINUOUS
 90
3
 70
0
 43
0.3500000006
 10
176.9199307251
 20
160.6177456055
 10
176.8484904785
 20
160.4034611206
 10
176.7056281128
 20
160.1177545166
  0
LINE
  5
2B3
100
AcDbEntity
  8
0
100
AcDbLine
 62
250
  6
CONTINUOUS
 10
130.2198307938
 20
83.8831581437
 11
130.3187039001
 21
83.98203125
  0
LINE
  5
2B4
100
AcDbEntity
  8
ASSI
100
AcDbLine
 62
250
  6
CONTINUOUS
 10
130.2198307938
 20
83.8831581437
 11
130.3187039001
 21
83.98203125
  0
LINE
  5
2B5
100
AcDbEntity
  8
0
100
AcDbLine
 62
7
  6
CONTINUOUS
 10
245.9411908348
 20
149.9587686602
 11
246.9606211973
 21
150.4020167199
  0
LINE
  5
2B6
100
AcDbEntity
  8
ASSI
100
AcDbLine
 62
7
  6
CONTINUOUS
 10
245.9411908348
 20
149.9587686602
 11
246.9606211973
 21
150.4020167199
  0
LINE
  5
2B7
100
AcDbEntity
  8
0
100
AcDbLine
 62
7
  6
CONTINUOUS
 10
245.9411908348
 20
63.2052938398
 11
246.9606211973
 21
62.7620457801
  0
LINE
  5
2B8
100
AcDbEntity
  8
ASSI
100
AcDbLine
 62
7
  6
CONTINUOUS
 10
245.9411908348
 20
63.2052938398
 11
246.9606211973
 21
62.7620457801
  0
LINE
  5
2B9
100
AcDbEntity
  8
0
100
AcDbLine
 62
250
  6
CONTINUOUS
 10
130.2198307938
 20
129.2809043563
 11
130.3187039001
 21
129.18203125
  0
LINE
  5
2BA
100
AcDbEntity
  8
ASSI
100
AcDbLine
 62
250
  6
CONTINUOUS
 10
130.2198307938
 20
129.2809043563
 11
130.3187039001
 21
129.18203125
  0
LINE
  5
2BB
100
AcDbEntity
  8
CURVE
100
AcDbLine
 62
250
  6
CONTINUOUS
 10
171.309065182
 20
79.5185156793
 11
170.611680928
 21
81.7183301507
  0
LINE
  5
2BC
100
AcDbEntity
  8
CURVE
100
AcDbLine
 62
250
  6
CONTINUOUS
 10
174.3746906617
 20
79.5185156793
 11
173.8360081147
 21
80.954953233
  0
LINE
  5
2BD
100
AcDbEntity
  8
CURVE
100
AcDbLine
 62
250
  6
CONTINUOUS
 10
173.9550605855
 20
81.7183301507
 11
174.4093982792
 21
80.4969865872
  0
LWPOLYLINE
  5
2BE
100
AcDbEntity
  8
CURVE
100
AcDbPolyline
 62
250
  6
CONTINUOUS
 90
6
 70
0
 10
178.504459165
 20
80.1855712252
 10
178.5120336076
 20
80.1647948058
 10
178.5192424798
 20
80.143889866
 10
178.5261493216
 20
80.1228792716
 10
178.5328176729
 20
80.1017858889
 10
178.5393110738
 20
80.0806325838
  0
LINE
  5
2BF
100
AcDbEntity
  8
CURVE
100
AcDbLine
 62
250
  6
CONTINUOUS
 10
176.7349301735
 20
81.7183301507
 11
177.4098880475
 21
79.5185156793
  0
LINE
  5
2C0
100
AcDbEntity
  8
CURVE
100
AcDbLine
 62
250
  6
CONTINUOUS
 10
171.1105005243
 20
81.7183301507
 11
171.5298257434
 21
80.2041299338
  0
LINE
  5
2C1
100
AcDbEntity
  8
CURVE
100
AcDbLine
 62
250
  6
CONTINUOUS
 10
176.9259236886
 20
79.5185156793
 11
176.806969694
 21
79.9576765165
  0
LINE
  5
2C2
100
AcDbEntity
  8
CURVE
100
AcDbLine
 62
250
  6
CONTINUOUS
 10
175.3229073805
 20
81.7183301507
 11
175.5286147045
 21
79.5185156793
  0
LINE
  5
2C3
100
AcDbEntity
  8
CURVE
100
AcDbLine
 62
250
  6
CONTINUOUS
 10
175.0794072011
 20
79.5185156793
 11
174.9850659673
 21
80.9489650428
  0
LWPOLYLINE
  5
2C4
100
AcDbEntity
  8
0
100
AcDbPolyline
 62
7
  6
CONTINUOUS
 90
2
 70
0
 43
0.3500000006
 10
172.4913424072
 20
160.3320390015
 10
172.4913424072
 20
161.8320303955
  0
LINE
  5
2C5
100
AcDbEntity
  8
CURVE
100
AcDbLine
 62
250
  6
CONTINUOUS
 10
172.5912387428
 20
81.7184621507
 11
172.5912387428
 21
79.5185156793
  0
LINE
  5
2C6
100
AcDbEntity
  8
CURVE
100
AcDbLine
 62
250
  6
CONTINUOUS
 10
173.0504269124
 20
79.5185156793
 11
173.0504269124
 21
81.7184621507
  0
LWPOLYLINE
  5
2C7
100
AcDbEntity
  8
0
100
AcDbPolyline
 62
7
  6
CONTINUOUS
 90
2
 70
0
 43
0.3500000006
 10
174.8484898682
 20
160.3320390015
 10
174.8484898682
 20
161.8320303955
  0
LINE
  5
2C8
100
AcDbEntity
  8
CURVE
100
AcDbLine
 62
250
  6
CONTINUOUS
 10
173.8360081147
 20
80.954953233
 11
173.7369148812
 21
79.5185156793
  0
LWPOLYLINE
  5
2C9
100
AcDbEntity
  8
0
100
AcDbPolyline
 62
7
  6
CONTINUOUS
 90
13
 70
0
 43
0.3500000006
 10
253.5627711182
 20
106.5820271301
 10
252.277064209
 20
106.5820271301
 10
251.8484952393
 20
106.7963206787
 10
251.4199262695
 20
107.2248896484
 10
251.4199262695
 20
107.4391741333
 10
251.8484952393
 20
107.867743103
 10
252.277064209
 20
108.0820275879
 10
253.5627711182
 20
108.0820275879
 10
253.9913582153
 20
107.867743103
 10
254.4199271851
 20
107.4391741333
 10
254.4199271851
 20
107.2248896484
 10
253.9913582153
 20
106.7963206787
 10
253.5627711182
 20
106.5820271301
  0
LINE
  5
2CA
100
AcDbEntity
  8
CURVE
100
AcDbLine
 62
250
  6
CONTINUOUS
 10
178.5393110738
 20
80.0806325838
 11
178.6192498839
 21
79.8137267457
  0
LWPOLYLINE
  5
2CB
100
AcDbEntity
  8
CURVE
100
AcDbPolyline
 62
250
  6
CONTINUOUS
 90
3
 70
0
 10
178.6192498839
 20
79.8137267457
 10
178.679275095
 20
79.60837407
 10
178.7052506475
 20
79.5185152626
  0
LWPOLYLINE
  5
2CC
100
AcDbEntity
  8
CURVE
100
AcDbPolyline
 62
250
  6
CONTINUOUS
 90
38
 70
0
 10
178.9727685572
 20
80.1763599201
 10
178.9683137532
 20
80.1919467071
 10
178.9637496573
 20
80.2075014372
 10
178.9590531029
 20
80.2230131295
 10
178.9542009232
 20
80.2384708026
 10
178.9491699515
 20
80.2538634756
 10
178.9439370212
 20
80.2691801671
 10
178.9384789654
 20
80.2844098962
 10
178.9327726175
 20
80.2995416817
 10
178.9267948107
 20
80.3145645424
 10
178.9205223784
 20
80.3294674971
 10
178.9139321539
 20
80.3442395649
 10
178.9070009703
 20
80.3588697645
 10
178.9020382438
 20
80.3688136255
 10
178.8968946803
 20
80.3786723958
 10
178.8915606914
 20
80.3884328696
 10
178.8860266884
 20
80.3980818413
 10
178.8802830828
 20
80.4076061051
 10
178.8743202859
 20
80.4169924553
 10
178.8681287092
 20
80.4262276863
 10
178.8616987642
 20
80.4352985923
 10
178.8550208622
 20
80.4441919675
 10
178.8480854146
 20
80.4528946064
 10
178.8408828329
 20
80.4613933031
 10
178.8334035285
 20
80.469674852
 10
178.826304665
 20
80.4770575978
 10
178.8189735616
 20
80.4842327903
 10
178.8114181674
 20
80.4911861219
 10
178.8036464313
 20
80.4979032847
 10
178.7956663024
 20
80.5043699709
 10
178.7874857296
 20
80.5105718727
 10
178.779112662
 20
80.5164946825
 10
178.7705550485
 20
80.5221240923
 10
178.7618208381
 20
80.5274457945
 10
178.7529179799
 20
80.5324454811
 10
178.7438544228
 20
80.5371088446
 10
178.7346381158
 20
80.5414215769
 10
178.725277008
 20
80.5453693705
  0
LINE
  5
2CD
100
AcDbEntity
  8
CURVE
100
AcDbLine
 62
250
  6
CONTINUOUS
 10
178.9814429566
 20
80.1451341002
 11
178.9727685572
 21
80.1763599201
  0
LINE
  5
2CE
100
AcDbEntity
  8
CURVE
100
AcDbLine
 62
250
  6
CONTINUOUS
 10
179.0114047357
 20
80.0344530812
 11
178.9814429566
 21
80.1451341002
  0
LINE
  5
2CF
100
AcDbEntity
  8
CURVE
100
AcDbLine
 62
250
  6
CONTINUOUS
 10
179.1469358219
 20
79.5185152626
 11
179.1259856683
 21
79.5970526452
  0
LINE
  5
2D0
100
AcDbEntity
  8
CURVE
100
AcDbLine
 62
250
  6
CONTINUOUS
 10
179.0534387542
 20
79.8753056557
 11
179.0114047357
 21
80.0344530812
  0
LINE
  5
2D1
100
AcDbEntity
  8
CURVE
100
AcDbLine
 62
250
  6
CONTINUOUS
 10
179.1259856683
 20
79.5970526452
 11
179.0534387542
 21
79.8753056557
  0
LINE
  5
2D2
100
AcDbEntity
  8
CURVE
100
AcDbLine
 62
250
  6
CONTINUOUS
 10
176.7152014124
 20
80.2974979296
 11
176.5041983744
 21
81.1138770353
  0
LWPOLYLINE
  5
2D3
100
AcDbEntity
  8
CURVE
100
AcDbPolyline
 62
250
  6
CONTINUOUS
 90
58
 70
0
 10
178.6059601502
 20
81.0815281581
 10
178.6060293272
 20
81.0713292604
 10
178.605915094
 20
81.0611009226
 10
178.6056060711
 20
81.0508540493
 10
178.6050908792
 20
81.040599545
 10
178.6043581388
 20
81.0303483145
 10
178.6033964704
 20
81.0201112622
 10
178.6021944945
 20
81.0098992929
 10
178.6007408317
 20
80.9997233111
 10
178.5990241026
 20
80.9895942214
 10
178.5970329276
 20
80.9795229286
 10
178.5947559273
 20
80.9695203371
 10
178.5921817223
 20
80.9595973516
 10
178.5892989332
 20
80.9497648767
 10
178.5860961803
 20
80.940033817
 10
178.5825620844
 20
80.9304150772
 10
178.5786852659
 20
80.9209195618
 10
178.5748279228
 20
80.9123434037
 10
178.5706800515
 20
80.9038913309
 10
178.5662479737
 20
80.8955749859
 10
178.5615380108
 20
80.8874060115
 10
178.5565564845
 20
80.8793960502
 10
178.5513097162
 20
80.8715567447
 10
178.5458040276
 20
80.8638997375
 10
178.5400457401
 20
80.8564366713
 10
178.5340411754
 20
80.8491791888
 10
178.5277966549
 20
80.8421389325
 10
178.5213185002
 20
80.835327545
 10
178.514613033
 20
80.828756669
 10
178.5076865746
 20
80.8224379472
 10
178.5005454467
 20
80.816383022
 10
178.4928700165
 20
80.8103536883
 10
178.4849784639
 20
80.8046185754
 10
178.4768816652
 20
80.7991718085
 10
178.4685904969
 20
80.7940075122
 10
178.4601158353
 20
80.7891198116
 10
178.4514685567
 20
80.7845028314
 10
178.4426595377
 20
80.7801506966
 10
178.4336996546
 20
80.7760575321
 10
178.4245997837
 20
80.7722174627
 10
178.4153708015
 20
80.7686246134
 10
178.4060235843
 20
80.765273109
 10
178.3965690085
 20
80.7621570744
 10
178.3870179506
 20
80.7592706345
 10
178.3773812868
 20
80.7566079141
 10
178.3676698937
 20
80.7541630383
 10
178.3578946475
 20
80.7519301318
 10
178.3480664247
 20
80.7499033195
 10
178.3381961016
 20
80.7480767264
 10
178.3282945547
 20
80.7464444772
 10
178.3183726603
 20
80.745000697
 10
178.3084412948
 20
80.7437395105
 10
178.2985113346
 20
80.7426550427
 10
178.288593656
 20
80.7417414185
 10
178.2786991356
 20
80.7409927627
 10
178.2688386496
 20
80.7404032003
 10
178.2590230744
 20
80.739966856
 10
178.2492632865
 20
80.7396778549
  0
LINE
  5
2D4
100
AcDbEntity
  8
CURVE
100
AcDbLine
 62
250
  6
CONTINUOUS
 10
177.5447280068
 20
81.6926290839
 11
177.5447280068
 21
79.5185152626
  0
LINE
  5
2D5
100
AcDbEntity
  8
CURVE
100
AcDbLine
 62
250
  6
CONTINUOUS
 10
177.9868420818
 20
80.7396778549
 11
177.9868420818
 21
81.3435699507
  0
LINE
  5
2D6
100
AcDbEntity
  8
CURVE
100
AcDbLine
 62
250
  6
CONTINUOUS
 10
178.0020680544
 20
79.5185152626
 11
178.0020680544
 21
80.3794013204
  0
LINE
  5
2D7
100
AcDbEntity
  8
CURVE
100
AcDbLine
 62
250
  6
CONTINUOUS
 10
178.725277008
 20
80.5453693705
 11
178.725277008
 21
80.558368359
  0
LINE
  5
2D8
100
AcDbEntity
  8
CURVE
100
AcDbLine
 62
250
  6
CONTINUOUS
 10
173.297622044
 20
79.5185156793
 11
173.4962527016
 21
81.7183301507
  0
LINE
  5
2D9
100
AcDbEntity
  8
CURVE
100
AcDbLine
 62
250
  6
CONTINUOUS
 10
171.5298257434
 20
80.2041299338
 11
171.9619591523
 21
81.7183301507
  0
LINE
  5
2DA
100
AcDbEntity
  8
CURVE
100
AcDbLine
 62
250
  6
CONTINUOUS
 10
172.4208340838
 20
81.7183301507
 11
171.7137247826
 21
79.5185156793
  0
LINE
  5
2DB
100
AcDbEntity
  8
CURVE
100
AcDbLine
 62
250
  6
CONTINUOUS
 10
176.5041983744
 20
81.1138770353
 11
176.2755618134
 21
80.2974979296
  0
LINE
  5
2DC
100
AcDbEntity
  8
CURVE
100
AcDbLine
 62
250
  6
CONTINUOUS
 10
176.1816322938
 20
79.9576765165
 11
176.054924871
 21
79.5185156793
  0
LINE
  5
2DD
100
AcDbEntity
  8
CURVE
100
AcDbLine
 62
250
  6
CONTINUOUS
 10
175.6007191774
 20
79.5185156793
 11
176.2907219079
 21
81.7183301507
  0
LINE
  5
2DE
100
AcDbEntity
  8
CURVE
100
AcDbLine
 62
250
  6
CONTINUOUS
 10
174.4093982792
 20
80.4969865872
 11
174.8685864488
 21
81.7183301507
  0
LINE
  5
2DF
100
AcDbEntity
  8
CURVE
100
AcDbLine
 62
250
  6
CONTINUOUS
 10
174.9850659673
 20
80.9489650428
 11
174.4390909445
 21
79.5185156793
  0
LINE
  5
2E0
100
AcDbEntity
  8
0
100
AcDbLine
 62
7
  6
CONTINUOUS
 10
103.8986529152
 20
63.2052938398
 11
102.8792225527
 21
62.7620457801
  0
LINE
  5
2E1
100
AcDbEntity
  8
ASSI
100
AcDbLine
 62
7
  6
CONTINUOUS
 10
103.8986529152
 20
63.2052938398
 11
102.8792225527
 21
62.7620457801
  0
LINE
  5
2E2
100
AcDbEntity
  8
0
100
AcDbLine
 62
7
  6
CONTINUOUS
 10
103.8986529152
 20
149.9587686602
 11
102.8792225527
 21
150.4020167199
  0
LINE
  5
2E3
100
AcDbEntity
  8
ASSI
100
AcDbLine
 62
7
  6
CONTINUOUS
 10
103.8986529152
 20
149.9587686602
 11
102.8792225527
 21
150.4020167199
  0
LINE
  5
2E4
100
AcDbEntity
  8
CURVE
100
AcDbLine
 62
7
  6
CONTINUOUS
 10
170.7127842205
 20
81.3994120152
 11
171.031702356
 21
81.7183301507
  0
LINE
  5
2E5
100
AcDbEntity
  8
CURVE
100
AcDbLine
 62
7
  6
CONTINUOUS
 10
170.813887513
 20
81.0804938797
 11
171.1845018876
 21
81.4511082543
  0
LINE
  5
2E6
100
AcDbEntity
  8
CURVE
100
AcDbLine
 62
7
  6
CONTINUOUS
 10
170.9149908056
 20
80.7615757442
 11
171.2755922731
 21
81.1221772117
  0
LINE
  5
2E7
100
AcDbEntity
  8
0
100
AcDbLine
 62
250
  6
CONTINUOUS
 10
219.6200129562
 20
129.2809043563
 11
219.5211398499
 21
129.18203125
  0
LINE
  5
2E8
100
AcDbEntity
  8
ASSI
100
AcDbLine
 62
250
  6
CONTINUOUS
 10
219.6200129562
 20
129.2809043563
 11
219.5211398499
 21
129.18203125
  0
LINE
  5
2E9
100
AcDbEntity
  8
CURVE
100
AcDbLine
 62
7
  6
CONTINUOUS
 10
171.0160940981
 20
80.4426576087
 11
171.3666826586
 21
80.7932461692
  0
LINE
  5
2EA
100
AcDbEntity
  8
CURVE
100
AcDbLine
 62
7
  6
CONTINUOUS
 10
171.8302474752
 20
81.2568109859
 11
172.2917666401
 21
81.7183301507
  0
LINE
  5
2EB
100
AcDbEntity
  8
CURVE
100
AcDbLine
 62
7
  6
CONTINUOUS
 10
171.1171973906
 20
80.1237394733
 11
171.457773044
 21
80.4643151267
  0
LINE
  5
2EC
100
AcDbEntity
  8
CURVE
100
AcDbLine
 62
7
  6
CONTINUOUS
 10
171.662508025
 20
80.6690501076
 11
172.2830062846
 21
81.2895483673
  0
LINE
  5
2ED
100
AcDbEntity
  8
CURVE
100
AcDbLine
 62
7
  6
CONTINUOUS
 10
172.5912387428
 20
81.5977808254
 11
172.7119200681
 21
81.7184621507
  0
LINE
  5
2EE
100
AcDbEntity
  8
0
100
AcDbLine
 62
250
  6
CONTINUOUS
 10
220.1187949813
 20
128.7821223312
 11
220.019921875
 21
128.6832492249
  0
LINE
  5
2EF
100
AcDbEntity
  8
ASSI
100
AcDbLine
 62
250
  6
CONTINUOUS
 10
220.1187949813
 20
128.7821223312
 11
220.019921875
 21
128.6832492249
  0
LINE
  5
2F0
100
AcDbEntity
  8
CURVE
100
AcDbLine
 62
7
  6
CONTINUOUS
 10
171.2183006831
 20
79.8048213378
 11
172.0840379522
 21
80.6705586069
  0
LINE
  5
2F1
100
AcDbEntity
  8
CURVE
100
AcDbLine
 62
7
  6
CONTINUOUS
 10
172.5912387428
 20
81.1777593974
 11
173.0504269124
 21
81.636947567
  0
LINE
  5
2F2
100
AcDbEntity
  8
CURVE
100
AcDbLine
 62
7
  6
CONTINUOUS
 10
171.3520164527
 20
79.5185156793
 11
171.8850696199
 21
80.0515688464
  0
LINE
  5
2F3
100
AcDbEntity
  8
CURVE
100
AcDbLine
 62
7
  6
CONTINUOUS
 10
172.5912387428
 20
80.7577379693
 11
173.0504269124
 21
81.2169261389
  0
LINE
  5
2F4
100
AcDbEntity
  8
CURVE
100
AcDbLine
 62
7
  6
CONTINUOUS
 10
173.4907361974
 20
81.657235424
 11
173.5518309241
 21
81.7183301507
  0
LINE
  5
2F5
100
AcDbEntity
  8
CURVE
100
AcDbLine
 62
7
  6
CONTINUOUS
 10
172.5912387428
 20
80.3377165413
 11
173.0504269124
 21
80.7969047109
  0
LINE
  5
2F6
100
AcDbEntity
  8
CURVE
100
AcDbLine
 62
7
  6
CONTINUOUS
 10
173.4490463077
 20
81.1955241063
 11
173.9596134398
 21
81.7060912383
  0
LINE
  5
2F7
100
AcDbEntity
  8
CURVE
100
AcDbLine
 62
7
  6
CONTINUOUS
 10
172.5912387428
 20
79.9176951133
 11
173.0504269124
 21
80.3768832829
  0
LINE
  5
2F8
100
AcDbEntity
  8
CURVE
100
AcDbLine
 62
7
  6
CONTINUOUS
 10
173.407356418
 20
80.7338127886
 11
174.0734964149
 21
81.3999527854
  0
LINE
  5
2F9
100
AcDbEntity
  8
CURVE
100
AcDbLine
 62
7
  6
CONTINUOUS
 10
172.6120807368
 20
79.5185156793
 11
173.0504269124
 21
79.9568618549
  0
LINE
  5
2FA
100
AcDbEntity
  8
CURVE
100
AcDbLine
 62
7
  6
CONTINUOUS
 10
173.3656665283
 20
80.2721014708
 11
173.8202617432
 21
80.7266966858
  0
LINE
  5
2FB
100
AcDbEntity
  8
CURVE
100
AcDbLine
 62
7
  6
CONTINUOUS
 10
173.8939668802
 20
80.8004018228
 11
174.18737939
 21
81.0938143325
  0
LINE
  5
2FC
100
AcDbEntity
  8
0
100
AcDbLine
 62
250
  6
CONTINUOUS
 10
219.6200129562
 20
83.8831581437
 11
219.5211398499
 21
83.98203125
  0
LINE
  5
2FD
100
AcDbEntity
  8
ASSI
100
AcDbLine
 62
250
  6
CONTINUOUS
 10
219.6200129562
 20
83.8831581437
 11
219.5211398499
 21
83.98203125
  0
LINE
  5
2FE
100
AcDbEntity
  8
0
100
AcDbLine
 62
250
  6
CONTINUOUS
 10
220.1187949813
 20
84.3819401688
 11
220.019921875
 21
84.4808132751
  0
LINE
  5
2FF
100
AcDbEntity
  8
ASSI
100
AcDbLine
 62
250
  6
CONTINUOUS
 10
220.1187949813
 20
84.3819401688
 11
220.019921875
 21
84.4808132751
  0
LINE
  5
300
100
AcDbEntity
  8
CURVE
100
AcDbLine
 62
7
  6
CONTINUOUS
 10
173.0321021648
 20
79.5185156793
 11
173.0504269124
 21
79.5368404268
  0
LINE
  5
301
100
AcDbEntity
  8
CURVE
100
AcDbLine
 62
7
  6
CONTINUOUS
 10
173.3239766386
 20
79.8103901531
 11
173.7891394056
 21
80.2755529201
  0
LINE
  5
302
100
AcDbEntity
  8
CURVE
100
AcDbLine
 62
7
  6
CONTINUOUS
 10
174.0085210345
 20
80.4949345489
 11
174.3012623651
 21
80.7876758796
  0
LINE
  5
303
100
AcDbEntity
  8
CURVE
100
AcDbLine
 62
7
  6
CONTINUOUS
 10
174.649684995
 20
81.1360985094
 11
175.2319166362
 21
81.7183301507
  0
LINE
  5
304
100
AcDbEntity
  8
CURVE
100
AcDbLine
 62
7
  6
CONTINUOUS
 10
173.4521235928
 20
79.5185156793
 11
173.758017068
 21
79.8244091544
  0
LINE
  5
305
100
AcDbEntity
  8
CURVE
100
AcDbLine
 62
7
  6
CONTINUOUS
 10
174.1230751887
 20
80.1894672751
 11
175.3510443201
 21
81.4174364066
  0
LINE
  5
306
100
AcDbEntity
  8
CURVE
100
AcDbLine
 62
7
  6
CONTINUOUS
 10
174.2376293429
 20
79.8840000013
 11
174.78905962
 21
80.4354302784
  0
LINE
  5
307
100
AcDbEntity
  8
CURVE
100
AcDbLine
 62
7
  6
CONTINUOUS
 10
175.0047119585
 20
80.6510826169
 11
175.3869623002
 21
81.0333329586
  0
LINE
  5
308
100
AcDbEntity
  8
0
100
AcDbLine
 62
7
  6
CONTINUOUS
 10
245.9754815294
 20
151.3881997065
 11
246.1693130729
 21
151.58203125
  0
LINE
  5
309
100
AcDbEntity
  8
ASSI
100
AcDbLine
 62
7
  6
CONTINUOUS
 10
245.9754815294
 20
151.3881997065
 11
246.1693130729
 21
151.58203125
  0
LINE
  5
30A
100
AcDbEntity
  8
CURVE
100
AcDbLine
 62
7
  6
CONTINUOUS
 10
174.3521834971
 20
79.5785327275
 11
174.5297856104
 21
79.7561348408
  0
LINE
  5
30B
100
AcDbEntity
  8
CURVE
100
AcDbLine
 62
7
  6
CONTINUOUS
 10
175.0306993562
 20
80.2570485866
 11
175.4228802803
 21
80.6492295107
  0
LINE
  5
30C
100
AcDbEntity
  8
CURVE
100
AcDbLine
 62
7
  6
CONTINUOUS
 10
176.1987440379
 20
81.4250932683
 11
176.4919809203
 21
81.7183301507
  0
LINE
  5
30D
100
AcDbEntity
  8
CURVE
100
AcDbLine
 62
7
  6
CONTINUOUS
 10
175.056686754
 20
79.8630145564
 11
175.4587982604
 21
80.2651260628
  0
LINE
  5
30E
100
AcDbEntity
  8
CURVE
100
AcDbLine
 62
7
  6
CONTINUOUS
 10
176.006789025
 20
80.8131168274
 11
176.7765043381
 21
81.5828321405
  0
LINE
  5
30F
100
AcDbEntity
  8
CURVE
100
AcDbLine
 62
7
  6
CONTINUOUS
 10
175.1322093049
 20
79.5185156793
 11
175.4947162405
 21
79.8810226148
  0
LINE
  5
310
100
AcDbEntity
  8
CURVE
100
AcDbLine
 62
7
  6
CONTINUOUS
 10
175.8148340121
 20
80.2011403864
 11
176.4173047645
 21
80.8036111388
  0
LINE
  5
311
100
AcDbEntity
  8
CURVE
100
AcDbLine
 62
7
  6
CONTINUOUS
 10
176.550074421
 20
80.9363807954
 11
176.8751197191
 21
81.2614260934
  0
LINE
  5
312
100
AcDbEntity
  8
CURVE
100
AcDbLine
 62
7
  6
CONTINUOUS
 10
175.6228789991
 20
79.5891639455
 11
176.3312129833
 21
80.2974979296
  0
LINE
  5
313
100
AcDbEntity
  8
CURVE
100
AcDbLine
 62
7
  6
CONTINUOUS
 10
176.636338133
 20
80.6026230793
 11
176.9737351001
 21
80.9400200464
  0
LINE
  5
314
100
AcDbEntity
  8
CURVE
100
AcDbLine
 62
7
  6
CONTINUOUS
 10
177.5447280068
 20
81.5110129531
 11
177.7524501855
 21
81.7187351318
  0
LINE
  5
315
100
AcDbEntity
  8
CURVE
100
AcDbLine
 62
7
  6
CONTINUOUS
 10
175.972252161
 20
79.5185156793
 11
176.0884506561
 21
79.6347141744
  0
LINE
  5
316
100
AcDbEntity
  8
CURVE
100
AcDbLine
 62
7
  6
CONTINUOUS
 10
176.4114129982
 20
79.9576765165
 11
177.0723504811
 21
80.6186139994
  0
LINE
  5
317
100
AcDbEntity
  8
CURVE
100
AcDbLine
 62
7
  6
CONTINUOUS
 10
177.5447280068
 20
81.0909915251
 11
178.1960671775
 21
81.7423306958
  0
LINE
  5
318
100
AcDbEntity
  8
0
100
AcDbLine
 62
7
  6
CONTINUOUS
 10
246.9760903315
 20
150.3875909044
 11
247.169921875
 21
150.5814224479
  0
LINE
  5
319
100
AcDbEntity
  8
ASSI
100
AcDbLine
 62
7
  6
CONTINUOUS
 10
246.9760903315
 20
150.3875909044
 11
247.169921875
 21
150.5814224479
  0
LINE
  5
31A
100
AcDbEntity
  8
CURVE
100
AcDbLine
 62
7
  6
CONTINUOUS
 10
176.812183993
 20
79.9384260833
 11
177.170965862
 21
80.2972079523
  0
LINE
  5
31B
100
AcDbEntity
  8
CURVE
100
AcDbLine
 62
7
  6
CONTINUOUS
 10
177.5447280068
 20
80.6709700971
 11
177.9868420818
 21
81.1130841721
  0
LINE
  5
31C
100
AcDbEntity
  8
CURVE
100
AcDbLine
 62
7
  6
CONTINUOUS
 10
178.2379295343
 20
81.3641716246
 11
178.573794438
 21
81.7000365283
  0
LINE
  5
31D
100
AcDbEntity
  8
CURVE
100
AcDbLine
 62
7
  6
CONTINUOUS
 10
176.901705403
 20
79.6079260653
 11
177.269581243
 21
79.9758019053
  0
LINE
  5
31E
100
AcDbEntity
  8
CURVE
100
AcDbLine
 62
7
  6
CONTINUOUS
 10
177.5447280068
 20
80.250948669
 11
178.0334571926
 21
80.7396778549
  0
LINE
  5
31F
100
AcDbEntity
  8
CURVE
100
AcDbLine
 62
7
  6
CONTINUOUS
 10
178.5450719062
 20
81.2512925684
 11
178.851059127
 21
81.5572797892
  0
LINE
  5
320
100
AcDbEntity
  8
CURVE
100
AcDbLine
 62
7
  6
CONTINUOUS
 10
177.2323164451
 20
79.5185156793
 11
177.368196624
 21
79.6543958583
  0
LINE
  5
321
100
AcDbEntity
  8
CURVE
100
AcDbLine
 62
7
  6
CONTINUOUS
 10
177.5447280068
 20
79.830927241
 11
178.0020680544
 21
80.2882672887
  0
LINE
  5
322
100
AcDbEntity
  8
CURVE
100
AcDbLine
 62
7
  6
CONTINUOUS
 10
178.0932020862
 20
80.3794013204
 11
179.009351296
 21
81.2955505303
  0
LINE
  5
323
100
AcDbEntity
  8
CURVE
100
AcDbLine
 62
7
  6
CONTINUOUS
 10
177.6523374564
 20
79.5185152626
 11
178.0020680544
 21
79.8682458606
  0
LINE
  5
324
100
AcDbEntity
  8
CURVE
100
AcDbLine
 62
7
  6
CONTINUOUS
 10
178.4344736534
 20
80.3006514596
 11
178.9917638162
 21
80.8579416224
  0
LINE
  5
325
100
AcDbEntity
  8
CURVE
100
AcDbLine
 62
7
  6
CONTINUOUS
 10
178.5612566491
 20
80.0074130273
 11
178.9087580441
 21
80.3549144223
  0
LINE
  5
326
100
AcDbEntity
  8
CURVE
100
AcDbLine
 62
7
  6
CONTINUOUS
 10
178.6573267519
 20
79.6834617021
 11
179.010513827
 21
80.0366487771
  0
LINE
  5
327
100
AcDbEntity
  8
CURVE
100
AcDbLine
 62
7
  6
CONTINUOUS
 10
178.9124017405
 20
79.5185152626
 11
179.0980277343
 21
79.7041412564
  0
LINE
  5
328
100
AcDbEntity
  8
0
100
AcDbLine
 62
250
  6
CONTINUOUS
 10
220.3183077913
 20
128.7821223312
 11
220.1187949813
 21
128.7821223312
  0
LINE
  5
329
100
AcDbEntity
  8
ASSI
100
AcDbLine
 62
250
  6
CONTINUOUS
 10
220.3183077913
 20
128.7821223312
 11
220.1187949813
 21
128.7821223312
  0
LINE
  5
32A
100
AcDbEntity
  8
0
100
AcDbLine
 62
250
  6
CONTINUOUS
 10
129.5215359587
 20
128.7821223312
 11
129.7210487687
 21
128.7821223312
  0
LINE
  5
32B
100
AcDbEntity
  8
ASSI
100
AcDbLine
 62
250
  6
CONTINUOUS
 10
129.5215359587
 20
128.7821223312
 11
129.7210487687
 21
128.7821223312
  0
LINE
  5
32C
100
AcDbEntity
  8
0
100
AcDbLine
 62
7
  6
CONTINUOUS
 10
219.5211398499
 20
129.18203125
 11
130.3187039001
 21
129.18203125
  0
LINE
  5
32D
100
AcDbEntity
  8
ASSI
100
AcDbLine
 62
7
  6
CONTINUOUS
 10
219.5211398499
 20
129.18203125
 11
130.3187039001
 21
129.18203125
  0
LINE
  5
32E
100
AcDbEntity
  8
0
100
AcDbLine
 62
250
  6
CONTINUOUS
 10
130.2198307938
 20
129.2809043563
 11
219.6200129562
 21
129.2809043563
  0
LINE
  5
32F
100
AcDbEntity
  8
ASSI
100
AcDbLine
 62
250
  6
CONTINUOUS
 10
130.2198307938
 20
129.2809043563
 11
219.6200129562
 21
129.2809043563
  0
LINE
  5
330
100
AcDbEntity
  8
0
100
AcDbLine
 62
250
  6
CONTINUOUS
 10
130.2198307938
 20
129.4804171663
 11
219.6200129562
 21
129.4804171663
  0
LINE
  5
331
100
AcDbEntity
  8
ASSI
100
AcDbLine
 62
250
  6
CONTINUOUS
 10
130.2198307938
 20
129.4804171663
 11
219.6200129562
 21
129.4804171663
  0
LINE
  5
332
100
AcDbEntity
  8
0
100
AcDbLine
 62
7
  6
CONTINUOUS
 10
245.9754815294
 20
61.7758627935
 11
246.1693130729
 21
61.58203125
  0
LINE
  5
333
100
AcDbEntity
  8
ASSI
100
AcDbLine
 62
7
  6
CONTINUOUS
 10
245.9754815294
 20
61.7758627935
 11
246.1693130729
 21
61.58203125
  0
LINE
  5
334
100
AcDbEntity
  8
0
100
AcDbLine
 62
7
  6
CONTINUOUS
 10
246.9760903315
 20
62.7764715956
 11
247.169921875
 21
62.5826400521
  0
LINE
  5
335
100
AcDbEntity
  8
ASSI
100
AcDbLine
 62
7
  6
CONTINUOUS
 10
246.9760903315
 20
62.7764715956
 11
247.169921875
 21
62.5826400521
  0
LWPOLYLINE
  5
336
100
AcDbEntity
  8
0
100
AcDbPolyline
 62
250
  6
CONTINUOUS
 90
25
 70
0
 10
219.6200129562
 20
129.2809043563
 10
219.6525226502
 20
129.279914825
 10
219.6849198894
 20
129.2768150684
 10
219.7170684499
 20
129.2716112106
 10
219.7488475457
 20
129.2643150417
 10
219.7801059524
 20
129.2549518429
 10
219.8106654241
 20
129.2435697557
 10
219.8403970698
 20
129.2302181369
 10
219.8691759015
 20
129.2149553707
 10
219.8968415341
 20
129.1978717516
 10
219.9232634204
 20
129.1790622704
 10
219.9483572494
 20
129.158602749
 10
219.9720419862
 20
129.1365687349
 10
219.994230616
 20
129.1130458085
 10
220.0148239886
 20
129.0881448252
 10
220.0337318807
 20
129.061985879
 10
220.0508305076
 20
129.0347700558
 10
220.0661175883
 20
129.0065331756
 10
220.079650087
 20
128.9771287457
 10
220.091360948
 20
128.9465627021
 10
220.101108651
 20
128.9150390868
 10
220.1088009555
 20
128.8826966943
 10
220.1143581393
 20
128.8496721924
 10
220.1177102779
 20
128.8160986717
 10
220.1187949813
 20
128.7821223312
  0
LWPOLYLINE
  5
337
100
AcDbEntity
  8
ASSI
100
AcDbPolyline
 62
250
  6
CONTINUOUS
 90
25
 70
0
 10
219.6200129562
 20
129.2809043563
 10
219.6525226502
 20
129.279914825
 10
219.6849198894
 20
129.2768150684
 10
219.7170684499
 20
129.2716112106
 10
219.7488475457
 20
129.2643150417
 10
219.7801059524
 20
129.2549518429
 10
219.8106654241
 20
129.2435697557
 10
219.8403970698
 20
129.2302181369
 10
219.8691759015
 20
129.2149553707
 10
219.8968415341
 20
129.1978717516
 10
219.9232634204
 20
129.1790622704
 10
219.9483572494
 20
129.158602749
 10
219.9720419862
 20
129.1365687349
 10
219.994230616
 20
129.1130458085
 10
220.0148239886
 20
129.0881448252
 10
220.0337318807
 20
129.061985879
 10
220.0508305076
 20
129.0347700558
 10
220.0661175883
 20
129.0065331756
 10
220.079650087
 20
128.9771287457
 10
220.091360948
 20
128.9465627021
 10
220.101108651
 20
128.9150390868
 10
220.1088009555
 20
128.8826966943
 10
220.1143581393
 20
128.8496721924
 10
220.1177102779
 20
128.8160986717
 10
220.1187949813
 20
128.7821223312
  0
LWPOLYLINE
  5
338
100
AcDbEntity
  8
0
100
AcDbPolyline
 62
250
  6
CONTINUOUS
 90
25
 70
0
 10
219.6200129562
 20
129.4804171663
 10
219.665757824
 20
129.4789110592
 10
219.710971365
 20
129.4744952227
 10
219.7556535791
 20
129.467169657
 10
219.8000096341
 20
129.4568774704
 10
219.8438343621
 20
129.4436755546
 10
219.8865122598
 20
129.4277345841
 10
219.9280223309
 20
129.4090049213
 10
219.9683855717
 20
129.3875362038
 10
220.0070494665
 20
129.3636480199
 10
220.0439612621
 20
129.3373263143
 10
220.0791737119
 20
129.3085851424
 10
220.1122925599
 20
129.2777862582
 10
220.1433037053
 20
129.2448944767
 10
220.1722212489
 20
129.2099449831
 10
220.1986932384
 20
129.1734050867
 10
220.2226539566
 20
129.1353942652
 10
220.2441691207
 20
129.0957930409
 10
220.2630839294
 20
129.0547102903
 10
220.2794707795
 20
129.0120044224
 10
220.2932572743
 20
128.9678170282
 10
220.3040714221
 20
128.9226817571
 10
220.3117892255
 20
128.8767764921
 10
220.316534682
 20
128.8299233501
 10
220.3183077913
 20
128.7821223312
  0
LWPOLYLINE
  5
339
100
AcDbEntity
  8
ASSI
100
AcDbPolyline
 62
250
  6
CONTINUOUS
 90
25
 70
0
 10
219.6200129562
 20
129.4804171663
 10
219.665757824
 20
129.4789110592
 10
219.710971365
 20
129.4744952227
 10
219.7556535791
 20
129.467169657
 10
219.8000096341
 20
129.4568774704
 10
219.8438343621
 20
129.4436755546
 10
219.8865122598
 20
129.4277345841
 10
219.9280223309
 20
129.4090049213
 10
219.9683855717
 20
129.3875362038
 10
220.0070494665
 20
129.3636480199
 10
220.0439612621
 20
129.3373263143
 10
220.0791737119
 20
129.3085851424
 10
220.1122925599
 20
129.2777862582
 10
220.1433037053
 20
129.2448944767
 10
220.1722212489
 20
129.2099449831
 10
220.1986932384
 20
129.1734050867
 10
220.2226539566
 20
129.1353942652
 10
220.2441691207
 20
129.0957930409
 10
220.2630839294
 20
129.0547102903
 10
220.2794707795
 20
129.0120044224
 10
220.2932572743
 20
128.9678170282
 10
220.3040714221
 20
128.9226817571
 10
220.3117892255
 20
128.8767764921
 10
220.316534682
 20
128.8299233501
 10
220.3183077913
 20
128.7821223312
  0
LWPOLYLINE
  5
33A
100
AcDbEntity
  8
0
100
AcDbPolyline
 62
7
  6
CONTINUOUS
 90
10
 70
0
 43
0.3500000006
 10
176.8484904785
 20
160.8320300903
 10
176.9199307251
 20
160.6891677246
 10
176.9199307251
 20
160.6177456055
 10
176.7770683594
 20
160.4748832397
 10
176.7056281128
 20
160.4748832397
 10
176.6342059937
 20
160.5463234863
 10
176.6342059937
 20
160.6177456055
 10
176.7056281128
 20
160.7606079712
 10
176.7770683594
 20
160.8320300903
 10
176.8484904785
 20
160.8320300903
  0
LINE
  5
33B
100
AcDbEntity
  8
0
100
AcDbLine
 62
250
  6
CONTINUOUS
 10
219.6200129562
 20
129.4804171663
 11
219.6200129562
 21
129.2809043563
  0
LINE
  5
33C
100
AcDbEntity
  8
ASSI
100
AcDbLine
 62
250
  6
CONTINUOUS
 10
219.6200129562
 20
129.4804171663
 11
219.6200129562
 21
129.2809043563
  0
LINE
  5
33D
100
AcDbEntity
  8
0
100
AcDbLine
 62
250
  6
CONTINUOUS
 10
219.6200129562
 20
83.6836453337
 11
219.6200129562
 21
83.8831581437
  0
LINE
  5
33E
100
AcDbEntity
  8
ASSI
100
AcDbLine
 62
250
  6
CONTINUOUS
 10
219.6200129562
 20
83.6836453337
 11
219.6200129562
 21
83.8831581437
  0
LINE
  5
33F
100
AcDbEntity
  8
0
100
AcDbLine
 62
7
  6
CONTINUOUS
 10
220.019921875
 20
84.4808132751
 11
220.019921875
 21
128.6832492249
  0
LINE
  5
340
100
AcDbEntity
  8
ASSI
100
AcDbLine
 62
7
  6
CONTINUOUS
 10
220.019921875
 20
84.4808132751
 11
220.019921875
 21
128.6832492249
  0
LINE
  5
341
100
AcDbEntity
  8
0
100
AcDbLine
 62
250
  6
CONTINUOUS
 10
220.1187949813
 20
128.7821223312
 11
220.1187949813
 21
84.3819401688
  0
LINE
  5
342
100
AcDbEntity
  8
ASSI
100
AcDbLine
 62
250
  6
CONTINUOUS
 10
220.1187949813
 20
128.7821223312
 11
220.1187949813
 21
84.3819401688
  0
LINE
  5
343
100
AcDbEntity
  8
0
100
AcDbLine
 62
250
  6
CONTINUOUS
 10
220.3183077913
 20
128.7821223312
 11
220.3183077913
 21
84.3819401688
  0
LINE
  5
344
100
AcDbEntity
  8
ASSI
100
AcDbLine
 62
250
  6
CONTINUOUS
 10
220.3183077913
 20
128.7821223312
 11
220.3183077913
 21
84.3819401688
  0
LWPOLYLINE
  5
345
100
AcDbEntity
  8
0
100
AcDbPolyline
 62
250
  6
CONTINUOUS
 90
25
 70
0
 10
220.1187949813
 20
84.3819401688
 10
220.11780545
 20
84.3494304748
 10
220.1147056934
 20
84.3170332356
 10
220.1095018356
 20
84.2848846751
 10
220.1022056667
 20
84.2531055793
 10
220.0928424679
 20
84.2218471726
 10
220.0814603807
 20
84.1912877009
 10
220.0681087619
 20
84.1615560552
 10
220.0528459957
 20
84.1327772235
 10
220.0357623766
 20
84.1051115909
 10
220.0169528954
 20
84.0786897046
 10
219.996493374
 20
84.0535958756
 10
219.9744593599
 20
84.0299111388
 10
219.9509364335
 20
84.007722509
 10
219.9260354502
 20
83.9871291364
 10
219.899876504
 20
83.9682212443
 10
219.8726606808
 20
83.9511226174
 10
219.8444238006
 20
83.9358355367
 10
219.8150193707
 20
83.922303038
 10
219.7844533271
 20
83.910592177
 10
219.7529297118
 20
83.900844474
 10
219.7205873193
 20
83.8931521695
 10
219.6875628174
 20
83.8875949857
 10
219.6539892967
 20
83.8842428471
 10
219.6200129562
 20
83.8831581437
  0
LWPOLYLINE
  5
346
100
AcDbEntity
  8
ASSI
100
AcDbPolyline
 62
250
  6
CONTINUOUS
 90
25
 70
0
 10
220.1187949813
 20
84.3819401688
 10
220.11780545
 20
84.3494304748
 10
220.1147056934
 20
84.3170332356
 10
220.1095018356
 20
84.2848846751
 10
220.1022056667
 20
84.2531055793
 10
220.0928424679
 20
84.2218471726
 10
220.0814603807
 20
84.1912877009
 10
220.0681087619
 20
84.1615560552
 10
220.0528459957
 20
84.1327772235
 10
220.0357623766
 20
84.1051115909
 10
220.0169528954
 20
84.0786897046
 10
219.996493374
 20
84.0535958756
 10
219.9744593599
 20
84.0299111388
 10
219.9509364335
 20
84.007722509
 10
219.9260354502
 20
83.9871291364
 10
219.899876504
 20
83.9682212443
 10
219.8726606808
 20
83.9511226174
 10
219.8444238006
 20
83.9358355367
 10
219.8150193707
 20
83.922303038
 10
219.7844533271
 20
83.910592177
 10
219.7529297118
 20
83.900844474
 10
219.7205873193
 20
83.8931521695
 10
219.6875628174
 20
83.8875949857
 10
219.6539892967
 20
83.8842428471
 10
219.6200129562
 20
83.8831581437
  0
LWPOLYLINE
  5
347
100
AcDbEntity
  8
0
100
AcDbPolyline
 62
250
  6
CONTINUOUS
 90
25
 70
0
 10
220.3183077913
 20
84.3819401688
 10
220.3168016842
 20
84.336195301
 10
220.3123858477
 20
84.29098176
 10
220.305060282
 20
84.2462995459
 10
220.2947680954
 20
84.2019434909
 10
220.2815661796
 20
84.1581187629
 10
220.2656252091
 20
84.1154408652
 10
220.2468955463
 20
84.0739307941
 10
220.2254268288
 20
84.0335675533
 10
220.2015386449
 20
83.9949036585
 10
220.1752169393
 20
83.9579918629
 10
220.1464757674
 20
83.9227794131
 10
220.1156768832
 20
83.8896605651
 10
220.0827851017
 20
83.8586494197
 10
220.0478356081
 20
83.8297318761
 10
220.0112957117
 20
83.8032598866
 10
219.9732848902
 20
83.7792991684
 10
219.9336836659
 20
83.7577840043
 10
219.8926009153
 20
83.7388691956
 10
219.8498950474
 20
83.7224823455
 10
219.8057076532
 20
83.7086958507
 10
219.7605723821
 20
83.6978817029
 10
219.7146671171
 20
83.6901638995
 10
219.6678139751
 20
83.685418443
 10
219.6200129562
 20
83.6836453337
  0
LWPOLYLINE
  5
348
100
AcDbEntity
  8
ASSI
100
AcDbPolyline
 62
250
  6
CONTINUOUS
 90
25
 70
0
 10
220.3183077913
 20
84.3819401688
 10
220.3168016842
 20
84.336195301
 10
220.3123858477
 20
84.29098176
 10
220.305060282
 20
84.2462995459
 10
220.2947680954
 20
84.2019434909
 10
220.2815661796
 20
84.1581187629
 10
220.2656252091
 20
84.1154408652
 10
220.2468955463
 20
84.0739307941
 10
220.2254268288
 20
84.0335675533
 10
220.2015386449
 20
83.9949036585
 10
220.1752169393
 20
83.9579918629
 10
220.1464757674
 20
83.9227794131
 10
220.1156768832
 20
83.8896605651
 10
220.0827851017
 20
83.8586494197
 10
220.0478356081
 20
83.8297318761
 10
220.0112957117
 20
83.8032598866
 10
219.9732848902
 20
83.7792991684
 10
219.9336836659
 20
83.7577840043
 10
219.8926009153
 20
83.7388691956
 10
219.8498950474
 20
83.7224823455
 10
219.8057076532
 20
83.7086958507
 10
219.7605723821
 20
83.6978817029
 10
219.7146671171
 20
83.6901638995
 10
219.6678139751
 20
83.685418443
 10
219.6200129562
 20
83.6836453337
  0
LINE
  5
349
100
AcDbEntity
  8
0
100
AcDbLine
 62
7
  6
CONTINUOUS
 10
245.5466592852
 20
150.3533002098
 11
104.2931844648
 21
150.3533002098
  0
LINE
  5
34A
100
AcDbEntity
  8
ASSI
100
AcDbLine
 62
7
  6
CONTINUOUS
 10
245.5466592852
 20
150.3533002098
 11
104.2931844648
 21
150.3533002098
  0
LINE
  5
34B
100
AcDbEntity
  8
0
100
AcDbLine
 62
7
  6
CONTINUOUS
 10
245.9754815294
 20
151.3881997065
 11
103.8643622206
 21
151.3881997065
  0
LINE
  5
34C
100
AcDbEntity
  8
ASSI
100
AcDbLine
 62
7
  6
CONTINUOUS
 10
245.9754815294
 20
151.3881997065
 11
103.8643622206
 21
151.3881997065
  0
LINE
  5
34D
100
AcDbEntity
  8
0
100
AcDbLine
 62
7
  6
CONTINUOUS
 10
246.1693130729
 20
151.58203125
 11
103.6705306771
 21
151.58203125
  0
LINE
  5
34E
100
AcDbEntity
  8
ASSI
100
AcDbLine
 62
7
  6
CONTINUOUS
 10
246.1693130729
 20
151.58203125
 11
103.6705306771
 21
151.58203125
  0
LINE
  5
34F
100
AcDbEntity
  8
0
100
AcDbLine
 62
7
  6
CONTINUOUS
 10
245.5466592852
 20
150.3533002098
 11
245.9899073449
 21
151.3727305723
  0
LINE
  5
350
100
AcDbEntity
  8
ASSI
100
AcDbLine
 62
7
  6
CONTINUOUS
 10
245.5466592852
 20
150.3533002098
 11
245.9899073449
 21
151.3727305723
  0
LINE
  5
351
100
AcDbEntity
  8
0
100
AcDbLine
 62
7
  6
CONTINUOUS
 10
245.5466592852
 20
62.8107622902
 11
245.9899073449
 21
61.7913319277
  0
LINE
  5
352
100
AcDbEntity
  8
ASSI
100
AcDbLine
 62
7
  6
CONTINUOUS
 10
245.5466592852
 20
62.8107622902
 11
245.9899073449
 21
61.7913319277
  0
LWPOLYLINE
  5
353
100
AcDbEntity
  8
0
100
AcDbPolyline
 62
7
  6
CONTINUOUS
 90
8
 70
0
 43
0.3500000006
 10
177.9199129028
 20
160.3320390015
 10
178.7770689697
 20
160.3320390015
 10
179.2056379395
 20
160.7606079712
 10
179.2056379395
 20
161.6177459106
 10
178.7770689697
 20
162.0463148804
 10
177.9199129028
 20
162.0463148804
 10
177.9199129028
 20
163.332039917
 10
179.2056379395
 20
163.332039917
  0
LWPOLYLINE
  5
354
100
AcDbEntity
  8
0
100
AcDbPolyline
 62
7
  6
CONTINUOUS
 90
3
 70
0
 43
0.3500000006
 10
175.3484990845
 20
160.9748924561
 10
173.848489563
 20
160.9748924561
 10
174.4913430176
 20
163.332039917
  0
LWPOLYLINE
  5
355
100
AcDbEntity
  8
0
100
AcDbPolyline
 62
7
  6
CONTINUOUS
 90
3
 70
0
 43
0.3500000006
 10
172.9913516235
 20
160.9748924561
 10
171.4913421021
 20
160.9748924561
 10
172.1342136841
 20
163.332039917
  0
LWPOLYLINE
  5
356
100
AcDbEntity
  8
0
100
AcDbPolyline
 62
7
  6
CONTINUOUS
 90
10
 70
0
 43
0.3500000006
 10
254.4199271851
 20
104.6534577026
 10
253.5627711182
 20
105.5106047058
 10
252.7056331787
 20
105.7248891907
 10
251.8484952393
 20
105.7248891907
 10
251.4199262695
 20
105.2963202209
 10
251.4199262695
 20
104.6534577026
 10
251.8484952393
 20
104.2248887329
 10
252.7056331787
 20
104.2248887329
 10
253.1342021484
 20
104.6534577026
 10
253.1342021484
 20
105.582026825
  0
LINE
  5
357
100
AcDbEntity
  8
0
100
AcDbLine
 62
7
  6
CONTINUOUS
 10
245.9411908348
 20
63.2052938398
 11
245.9411908348
 21
149.9587686602
  0
LINE
  5
358
100
AcDbEntity
  8
ASSI
100
AcDbLine
 62
7
  6
CONTINUOUS
 10
245.9411908348
 20
63.2052938398
 11
245.9411908348
 21
149.9587686602
  0
LINE
  5
359
100
AcDbEntity
  8
0
100
AcDbLine
 62
7
  6
CONTINUOUS
 10
246.9760903315
 20
62.7764715956
 11
246.9760903315
 21
150.3875909044
  0
LINE
  5
35A
100
AcDbEntity
  8
ASSI
100
AcDbLine
 62
7
  6
CONTINUOUS
 10
246.9760903315
 20
62.7764715956
 11
246.9760903315
 21
150.3875909044
  0
LINE
  5
35B
100
AcDbEntity
  8
0
100
AcDbLine
 62
7
  6
CONTINUOUS
 10
247.169921875
 20
62.5826400521
 11
247.169921875
 21
150.5814224479
  0
LINE
  5
35C
100
AcDbEntity
  8
ASSI
100
AcDbLine
 62
7
  6
CONTINUOUS
 10
247.169921875
 20
62.5826400521
 11
247.169921875
 21
150.5814224479
  0
LINE
  5
35D
100
AcDbEntity
  8
0
100
AcDbLine
 62
7
  6
CONTINUOUS
 10
245.9899073449
 20
61.7913319277
 11
245.9754815294
 21
61.7758627935
  0
LINE
  5
35E
100
AcDbEntity
  8
ASSI
100
AcDbLine
 62
7
  6
CONTINUOUS
 10
245.9899073449
 20
61.7913319277
 11
245.9754815294
 21
61.7758627935
  0
LINE
  5
35F
100
AcDbEntity
  8
0
100
AcDbLine
 62
7
  6
CONTINUOUS
 10
245.5466592852
 20
62.8107622902
 11
245.9411908348
 21
63.2052938398
  0
LINE
  5
360
100
AcDbEntity
  8
ASSI
100
AcDbLine
 62
7
  6
CONTINUOUS
 10
245.5466592852
 20
62.8107622902
 11
245.9411908348
 21
63.2052938398
  0
LINE
  5
361
100
AcDbEntity
  8
0
100
AcDbLine
 62
7
  6
CONTINUOUS
 10
245.9899073449
 20
61.7913319277
 11
246.9606211973
 21
62.7620457801
  0
LINE
  5
362
100
AcDbEntity
  8
ASSI
100
AcDbLine
 62
7
  6
CONTINUOUS
 10
245.9899073449
 20
61.7913319277
 11
246.9606211973
 21
62.7620457801
  0
LINE
  5
363
100
AcDbEntity
  8
0
100
AcDbLine
 62
7
  6
CONTINUOUS
 10
247.169921875
 20
62.5826400521
 11
246.1693130729
 21
61.58203125
  0
LINE
  5
364
100
AcDbEntity
  8
ASSI
100
AcDbLine
 62
7
  6
CONTINUOUS
 10
247.169921875
 20
62.5826400521
 11
246.1693130729
 21
61.58203125
  0
LINE
  5
365
100
AcDbEntity
  8
0
100
AcDbLine
 62
7
  6
CONTINUOUS
 10
246.9760903315
 20
62.7764715956
 11
246.9606211973
 21
62.7620457801
  0
LINE
  5
366
100
AcDbEntity
  8
ASSI
100
AcDbLine
 62
7
  6
CONTINUOUS
 10
246.9760903315
 20
62.7764715956
 11
246.9606211973
 21
62.7620457801
  0
LINE
  5
367
100
AcDbEntity
  8
0
100
AcDbLine
 62
7
  6
CONTINUOUS
 10
246.9606211973
 20
150.4020167199
 11
246.9760903315
 21
150.3875909044
  0
LINE
  5
368
100
AcDbEntity
  8
ASSI
100
AcDbLine
 62
7
  6
CONTINUOUS
 10
246.9606211973
 20
150.4020167199
 11
246.9760903315
 21
150.3875909044
  0
LINE
  5
369
100
AcDbEntity
  8
0
100
AcDbLine
 62
7
  6
CONTINUOUS
 10
245.9411908348
 20
149.9587686602
 11
245.5466592852
 21
150.3533002098
  0
LINE
  5
36A
100
AcDbEntity
  8
ASSI
100
AcDbLine
 62
7
  6
CONTINUOUS
 10
245.9411908348
 20
149.9587686602
 11
245.5466592852
 21
150.3533002098
  0
LINE
  5
36B
100
AcDbEntity
  8
0
100
AcDbLine
 62
7
  6
CONTINUOUS
 10
246.9606211973
 20
150.4020167199
 11
245.9899073449
 21
151.3727305723
  0
LINE
  5
36C
100
AcDbEntity
  8
ASSI
100
AcDbLine
 62
7
  6
CONTINUOUS
 10
246.9606211973
 20
150.4020167199
 11
245.9899073449
 21
151.3727305723
  0
LINE
  5
36D
100
AcDbEntity
  8
0
100
AcDbLine
 62
7
  6
CONTINUOUS
 10
246.1693130729
 20
151.58203125
 11
247.169921875
 21
150.5814224479
  0
LINE
  5
36E
100
AcDbEntity
  8
ASSI
100
AcDbLine
 62
7
  6
CONTINUOUS
 10
246.1693130729
 20
151.58203125
 11
247.169921875
 21
150.5814224479
  0
LINE
  5
36F
100
AcDbEntity
  8
0
100
AcDbLine
 62
7
  6
CONTINUOUS
 10
245.9754815294
 20
151.3881997065
 11
245.9899073449
 21
151.3727305723
  0
LINE
  5
370
100
AcDbEntity
  8
ASSI
100
AcDbLine
 62
7
  6
CONTINUOUS
 10
245.9754815294
 20
151.3881997065
 11
245.9899073449
 21
151.3727305723
  0
LINE
  5
371
100
AcDbEntity
  8
0
100
AcDbLine
 62
7
  6
CONTINUOUS
 10
63.266187702
 20
61.7758627935
 11
68.816796875
 21
61.58203125
  0
LINE
  5
372
100
AcDbEntity
  8
ASSI
100
AcDbLine
 62
7
  6
CONTINUOUS
 10
63.266187702
 20
61.7758627935
 11
68.816796875
 21
61.58203125
  0
LWPOLYLINE
  5
373
100
AcDbEntity
  8
0
100
AcDbPolyline
 62
7
  6
CONTINUOUS
 90
3
 70
0
 43
0.3500000006
 10
73.8153809967
 20
172.4748869019
 10
74.672523468
 20
173.3320248413
 10
74.672523468
 20
170.3320239258
  0
LINE
  5
374
100
AcDbEntity
  8
0
100
AcDbLine
 62
7
  6
CONTINUOUS
 10
63.266187702
 20
62.7764715956
 11
68.816796875
 21
62.5826400521
  0
LINE
  5
375
100
AcDbEntity
  8
ASSI
100
AcDbLine
 62
7
  6
CONTINUOUS
 10
63.266187702
 20
62.7764715956
 11
68.816796875
 21
62.5826400521
  0
LINE
  5
376
100
AcDbEntity
  8
0
100
AcDbLine
 62
7
  6
CONTINUOUS
 10
68.816796875
 20
63.8239873372
 11
69.416796875
 21
63.78203125
  0
LINE
  5
377
100
AcDbEntity
  8
0
100
AcDbLine
 62
7
  6
CONTINUOUS
 10
62.266796875
 20
149.9587686602
 11
63.2512493328
 21
150.4020167199
  0
LINE
  5
378
100
AcDbEntity
  8
ASSI
100
AcDbLine
 62
7
  6
CONTINUOUS
 10
62.266796875
 20
149.9587686602
 11
63.2512493328
 21
150.4020167199
  0
LINE
  5
379
100
AcDbEntity
  8
0
100
AcDbLine
 62
250
  6
CONTINUOUS
 10
68.816796875
 20
65.4200898176
 11
69.416796875
 21
65.3781337304
  0
LINE
  5
37A
100
AcDbEntity
  8
0
100
AcDbLine
 62
7
  6
CONTINUOUS
 10
62.266796875
 20
63.2052938398
 11
63.2512493328
 21
62.7620457801
  0
LINE
  5
37B
100
AcDbEntity
  8
ASSI
100
AcDbLine
 62
7
  6
CONTINUOUS
 10
62.266796875
 20
63.2052938398
 11
63.2512493328
 21
62.7620457801
  0
LWPOLYLINE
  5
37C
100
AcDbEntity
  8
0
100
AcDbPolyline
 62
7
  6
CONTINUOUS
 90
3
 70
0
 43
0.3500000006
 10
79.601093811
 20
172.4748869019
 10
80.4582408142
 20
173.3320248413
 10
80.4582408142
 20
170.3320239258
  0
LINE
  5
37D
100
AcDbEntity
  8
0
100
AcDbLine
 62
7
  6
CONTINUOUS
 10
62.266796875
 20
150.3533002098
 11
63.266187702
 21
151.3881997065
  0
LINE
  5
37E
100
AcDbEntity
  8
ASSI
100
AcDbLine
 62
7
  6
CONTINUOUS
 10
62.266796875
 20
150.3533002098
 11
63.266187702
 21
151.3881997065
  0
LINE
  5
37F
100
AcDbEntity
  8
0
100
AcDbLine
 62
7
  6
CONTINUOUS
 10
62.266796875
 20
62.8107622902
 11
63.266187702
 21
61.7758627935
  0
LINE
  5
380
100
AcDbEntity
  8
ASSI
100
AcDbLine
 62
7
  6
CONTINUOUS
 10
62.266796875
 20
62.8107622902
 11
63.266187702
 21
61.7758627935
  0
LWPOLYLINE
  5
381
100
AcDbEntity
  8
0
100
AcDbPolyline
 62
7
  6
CONTINUOUS
 90
3
 70
0
 43
0.3500000006
 10
78.3185501404
 20
162.4748838501
 10
79.1756971436
 20
163.332039917
 10
79.1756971436
 20
160.3320390015
  0
LINE
  5
382
100
AcDbEntity
  8
0
100
AcDbLine
 62
7
  6
CONTINUOUS
 10
70.416796875
 20
79.43203125
 11
69.416796875
 21
79.430285919
  0
LINE
  5
383
100
AcDbEntity
  8
0
100
AcDbLine
 62
250
  6
CONTINUOUS
 10
70.3425694587
 20
79.6543520061
 11
69.416796875
 21
79.6539338116
  0
LINE
  5
384
100
AcDbEntity
  8
0
100
AcDbLine
 62
7
  6
CONTINUOUS
 10
71.8668461072
 20
80.2404673897
 11
69.416796875
 21
80.2262134202
  0
LINE
  5
385
100
AcDbEntity
  8
0
100
AcDbLine
 62
250
  6
CONTINUOUS
 10
71.8668461072
 20
80.3283338683
 11
69.416796875
 21
80.3140798988
  0
LINE
  5
386
100
AcDbEntity
  8
0
100
AcDbLine
 62
7
  6
CONTINUOUS
 10
72.416796875
 20
80.4296700433
 11
72.2962341079
 21
80.4296700433
  0
LINE
  5
387
100
AcDbEntity
  8
0
100
AcDbLine
 62
7
  6
CONTINUOUS
 10
70.3669212539
 20
81.38203125
 11
69.416796875
 21
81.38203125
  0
LINE
  5
388
100
AcDbEntity
  8
0
100
AcDbLine
 62
7
  6
CONTINUOUS
 10
69.416796875
 20
81.53203125
 11
69.566796875
 21
81.53203125
  0
LINE
  5
389
100
AcDbEntity
  8
0
100
AcDbLine
 62
7
  6
CONTINUOUS
 10
69.866796875
 20
81.53203125
 11
70.066796875
 21
81.53203125
  0
LINE
  5
38A
100
AcDbEntity
  8
0
100
AcDbLine
 62
7
  6
CONTINUOUS
 10
71.918763388
 20
81.2318345987
 11
72.4167778369
 21
81.2274884925
  0
LINE
  5
38B
100
AcDbEntity
  8
0
100
AcDbLine
 62
7
  6
CONTINUOUS
 10
69.416796875
 20
80.8262113755
 11
72.2272640662
 21
80.7020445823
  0
LINE
  5
38C
100
AcDbEntity
  8
0
100
AcDbLine
 62
7
  6
CONTINUOUS
 10
70.4664249729
 20
81.3770684402
 11
72.416796875
 21
81.18203125
  0
LWPOLYLINE
  5
38D
100
AcDbEntity
  8
0
100
AcDbPolyline
 62
250
  6
CONTINUOUS
 90
4
 70
0
 10
71.9064762904
 20
132.8679649961
 10
71.8933984785
 20
132.8584997948
 10
71.880164002
 20
132.8477344841
 10
71.8668461072
 20
132.8357286317
  0
LWPOLYLINE
  5
38E
100
AcDbEntity
  8
0
100
AcDbPolyline
 62
250
  6
CONTINUOUS
 90
4
 70
0
 10
71.9064796072
 20
80.2960952552
 10
71.8934025066
 20
80.3055596082
 10
71.8801669346
 20
80.3163255009
 10
71.8668461072
 20
80.3283338683
  0
LINE
  5
38F
100
AcDbEntity
  8
0
100
AcDbLine
 62
7
  6
CONTINUOUS
 10
69.566796875
 20
131.63203125
 11
69.716796875
 21
131.78203125
  0
LINE
  5
390
100
AcDbEntity
  8
0
100
AcDbLine
 62
7
  6
CONTINUOUS
 10
70.066796875
 20
131.63203125
 11
70.216796875
 21
131.78203125
  0
LINE
  5
391
100
AcDbEntity
  8
0
100
AcDbLine
 62
7
  6
CONTINUOUS
 10
69.566796875
 20
81.53203125
 11
69.716796875
 21
81.38203125
  0
LINE
  5
392
100
AcDbEntity
  8
0
100
AcDbLine
 62
7
  6
CONTINUOUS
 10
70.066796875
 20
81.53203125
 11
70.216796875
 21
81.38203125
  0
LWPOLYLINE
  5
393
100
AcDbEntity
  8
0
100
AcDbPolyline
 62
250
  6
CONTINUOUS
 90
9
 70
0
 10
70.4362771505
 20
79.50802001
 10
70.4436442254
 20
79.4986627115
 10
70.4508012088
 20
79.4901077487
 10
70.4576744453
 20
79.4825210418
 10
70.464113409
 20
79.4761523823
 10
70.4699452255
 20
79.4712488977
 10
70.4750495915
 20
79.4679885519
 10
70.4793382882
 20
79.4665235558
 10
70.4827031087
 20
79.4670154539
  0
LWPOLYLINE
  5
394
100
AcDbEntity
  8
0
100
AcDbPolyline
 62
7
  6
CONTINUOUS
 90
3
 70
0
 43
0.3500000006
 10
78.6010935059
 20
170.6177486572
 10
78.5296713867
 20
170.4034641724
 10
78.386809021
 20
170.1177394409
  0
LWPOLYLINE
  5
395
100
AcDbEntity
  8
0
100
AcDbPolyline
 62
250
  6
CONTINUOUS
 90
19
 70
0
 10
70.3425694587
 20
133.5097104939
 10
70.3510419897
 20
133.5244152166
 10
70.3595996801
 20
133.5390159778
 10
70.3682104094
 20
133.5534460381
 10
70.3767800863
 20
133.5675434556
 10
70.385333237
 20
133.5813341141
 10
70.3940032687
 20
133.5949961249
 10
70.4027431089
 20
133.6084178554
 10
70.411484679
 20
133.6214652097
 10
70.4202960281
 20
133.6341934114
 10
70.4291263956
 20
133.6464646445
 10
70.4378190526
 20
133.6579903659
 10
70.4462503281
 20
133.6685330642
 10
70.4543402159
 20
133.6778994657
 10
70.4618818847
 20
133.6857529377
 10
70.4685967437
 20
133.6917356991
 10
70.47434714
 20
133.695680755
 10
70.4790810779
 20
133.6974925381
 10
70.4827031087
 20
133.6970470461
  0
LWPOLYLINE
  5
396
100
AcDbEntity
  8
0
100
AcDbPolyline
 62
7
  6
CONTINUOUS
 90
7
 70
0
 10
72.38893796
 20
80.6054695325
 10
72.3972093471
 20
80.5914152514
 10
72.4041209641
 20
80.5783323444
 10
72.409596484
 20
80.5662208114
 10
72.4135694555
 20
80.5550806525
 10
72.4159842372
 20
80.5449118676
 10
72.416796875
 20
80.5357144568
  0
LWPOLYLINE
  5
397
100
AcDbEntity
  8
0
100
AcDbPolyline
 62
250
  6
CONTINUOUS
 90
14
 70
0
 10
70.3425694587
 20
79.6543520061
 10
70.3491870903
 20
79.6428284278
 10
70.3559326779
 20
79.6312387898
 10
70.3627899847
 20
79.6196220513
 10
70.3697048175
 20
79.6080773248
 10
70.3766937887
 20
79.596589756
 10
70.3838404764
 20
79.5850463281
 10
70.3911297154
 20
79.5734962445
 10
70.3985137028
 20
79.5620358891
 10
70.4060136154
 20
79.5506594467
 10
70.4135843006
 20
79.5394675012
 10
70.4211700687
 20
79.5285766542
 10
70.4287577659
 20
79.5180458937
 10
70.4362771505
 20
79.50802001
  0
LWPOLYLINE
  5
398
100
AcDbEntity
  8
0
100
AcDbPolyline
 62
7
  6
CONTINUOUS
 90
3
 70
0
 43
0.3500000006
 10
77.3185498352
 20
160.6177456055
 10
77.2471277161
 20
160.4034611206
 10
77.1042653503
 20
160.1177545166
  0
LINE
  5
399
100
AcDbEntity
  8
0
100
AcDbLine
 62
7
  6
CONTINUOUS
 10
62.266796875
 20
62.8107622902
 11
62.266796875
 21
150.3533002098
  0
LINE
  5
39A
100
AcDbEntity
  8
ASSI
100
AcDbLine
 62
7
  6
CONTINUOUS
 10
62.266796875
 20
62.8107622902
 11
62.266796875
 21
150.3533002098
  0
LINE
  5
39B
100
AcDbEntity
  8
0
100
AcDbLine
 62
7
  6
CONTINUOUS
 10
63.2512493328
 20
61.7913319277
 11
63.2512493328
 21
62.7620457801
  0
LINE
  5
39C
100
AcDbEntity
  8
ASSI
100
AcDbLine
 62
7
  6
CONTINUOUS
 10
63.2512493328
 20
61.7913319277
 11
63.2512493328
 21
62.7620457801
  0
LINE
  5
39D
100
AcDbEntity
  8
0
100
AcDbLine
 62
7
  6
CONTINUOUS
 10
63.2512493328
 20
150.4020167199
 11
63.2512493328
 21
151.3727305723
  0
LINE
  5
39E
100
AcDbEntity
  8
ASSI
100
AcDbLine
 62
7
  6
CONTINUOUS
 10
63.2512493328
 20
150.4020167199
 11
63.2512493328
 21
151.3727305723
  0
LINE
  5
39F
100
AcDbEntity
  8
0
100
AcDbLine
 62
7
  6
CONTINUOUS
 10
63.266187702
 20
62.7764715956
 11
63.266187702
 21
150.3875909044
  0
LINE
  5
3A0
100
AcDbEntity
  8
ASSI
100
AcDbLine
 62
7
  6
CONTINUOUS
 10
63.266187702
 20
62.7764715956
 11
63.266187702
 21
150.3875909044
  0
LINE
  5
3A1
100
AcDbEntity
  8
0
100
AcDbLine
 62
250
  6
CONTINUOUS
 10
69.666796875
 20
103.9606247406
 11
69.416796875
 21
103.9606247406
  0
LINE
  5
3A2
100
AcDbEntity
  8
0
100
AcDbLine
 62
7
  6
CONTINUOUS
 10
68.816796875
 20
61.58203125
 11
68.816796875
 21
151.58203125
  0
LINE
  5
3A3
100
AcDbEntity
  8
ASSI
100
AcDbLine
 62
7
  6
CONTINUOUS
 10
68.816796875
 20
61.58203125
 11
68.816796875
 21
151.58203125
  0
LINE
  5
3A4
100
AcDbEntity
  8
0
100
AcDbLine
 62
7
  6
CONTINUOUS
 10
69.416796875
 20
63.78203125
 11
69.416796875
 21
149.38203125
  0
LINE
  5
3A5
100
AcDbEntity
  8
0
100
AcDbLine
 62
7
  6
CONTINUOUS
 10
69.666796875
 20
109.2034377594
 11
69.666796875
 21
103.9606247406
  0
LINE
  5
3A6
100
AcDbEntity
  8
0
100
AcDbLine
 62
250
  6
CONTINUOUS
 10
70.3426340174
 20
79.4319018113
 11
70.3425694587
 21
79.6543520061
  0
LINE
  5
3A7
100
AcDbEntity
  8
0
100
AcDbLine
 62
250
  6
CONTINUOUS
 10
70.3425694587
 20
133.5097104939
 11
70.3426340139
 21
133.7310169892
  0
LWPOLYLINE
  5
3A8
100
AcDbEntity
  8
0
100
AcDbPolyline
 62
7
  6
CONTINUOUS
 90
7
 70
0
 10
72.416796875
 20
132.6283480432
 10
72.4159843557
 20
132.6191514757
 10
72.413569832
 20
132.6089831968
 10
72.4095971136
 20
132.5978432065
 10
72.4041217014
 20
132.5857315049
 10
72.3972099148
 20
132.5726480919
 10
72.38893796
 20
132.5585929675
  0
LINE
  5
3A9
100
AcDbEntity
  8
0
100
AcDbLine
 62
250
  6
CONTINUOUS
 10
69.666796875
 20
109.2034377594
 11
69.416796875
 21
109.2034377594
  0
LWPOLYLINE
  5
3AA
100
AcDbEntity
  8
0
100
AcDbPolyline
 62
250
  6
CONTINUOUS
 90
3
 70
0
 10
71.8669451277
 20
132.9190365359
 10
71.8669024736
 20
132.9224531194
 10
71.8668461072
 20
132.9235951103
  0
LINE
  5
3AB
100
AcDbEntity
  8
0
100
AcDbLine
 62
250
  6
CONTINUOUS
 10
71.8669881062
 20
132.9055002971
 11
71.8669451277
 21
132.9190365359
  0
LINE
  5
3AC
100
AcDbEntity
  8
0
100
AcDbLine
 62
250
  6
CONTINUOUS
 10
71.8669881062
 20
80.2585622029
 11
71.8668461072
 21
80.3283338683
  0
LINE
  5
3AD
100
AcDbEntity
  8
0
100
AcDbLine
 62
250
  6
CONTINUOUS
 10
72.1324976619
 20
131.9536013287
 11
72.1324976619
 21
131.9319114151
  0
LINE
  5
3AE
100
AcDbEntity
  8
0
100
AcDbLine
 62
250
  6
CONTINUOUS
 10
72.1324976619
 20
81.2321510849
 11
72.1324976619
 21
81.2104611713
  0
LINE
  5
3AF
100
AcDbEntity
  8
0
100
AcDbLine
 62
250
  6
CONTINUOUS
 10
72.2272640662
 20
132.4620179177
 11
72.2272640662
 21
131.9630779691
  0
LINE
  5
3B0
100
AcDbEntity
  8
0
100
AcDbLine
 62
250
  6
CONTINUOUS
 10
72.2272640662
 20
81.2009845309
 11
72.2272640662
 21
80.7020445823
  0
LINE
  5
3B1
100
AcDbEntity
  8
0
100
AcDbLine
 62
7
  6
CONTINUOUS
 10
72.416796875
 20
132.7343924567
 11
72.416796875
 21
131.9343924567
  0
LINE
  5
3B2
100
AcDbEntity
  8
0
100
AcDbLine
 62
7
  6
CONTINUOUS
 10
72.416796875
 20
81.2296700433
 11
72.416796875
 21
80.4296700433
  0
LINE
  5
3B3
100
AcDbEntity
  8
0
100
AcDbLine
 62
250
  6
CONTINUOUS
 10
71.8668461072
 20
132.8357286317
 11
71.8669881062
 21
132.9055002971
  0
LWPOLYLINE
  5
3B4
100
AcDbEntity
  8
0
100
AcDbPolyline
 62
250
  6
CONTINUOUS
 90
4
 70
0
 10
71.8668461072
 20
80.2404673897
 10
71.8669024736
 20
80.2416093806
 10
71.8669451277
 20
80.2450259641
 10
71.8669881062
 20
80.2585622029
  0
LWPOLYLINE
  5
3B5
100
AcDbEntity
  8
0
100
AcDbPolyline
 62
7
  6
CONTINUOUS
 90
4
 70
0
 43
0.3500000006
 10
74.2471268005
 20
162.689168335
 10
74.2471268005
 20
163.332039917
 10
75.7471272583
 20
163.332039917
 10
74.889984787
 20
160.3320390015
  0
LWPOLYLINE
  5
3B6
100
AcDbEntity
  8
0
100
AcDbPolyline
 62
7
  6
CONTINUOUS
 90
13
 70
0
 43
0.3500000006
 10
75.5296659393
 20
171.1891799927
 10
75.5296659393
 20
172.4748869019
 10
75.7439504242
 20
172.9034558716
 10
76.1725239258
 20
173.3320248413
 10
76.3868084106
 20
173.3320248413
 10
76.8153773804
 20
172.9034558716
 10
77.029670929
 20
172.4748869019
 10
77.029670929
 20
171.1891799927
 10
76.8153773804
 20
170.7606110229
 10
76.3868084106
 20
170.3320239258
 10
76.1725239258
 20
170.3320239258
 10
75.7439504242
 20
170.7606110229
 10
75.5296659393
 20
171.1891799927
  0
LINE
  5
3B7
100
AcDbEntity
  8
0
100
AcDbLine
 62
7
  6
CONTINUOUS
 10
69.716796875
 20
81.38203125
 11
69.866796875
 21
81.53203125
  0
LINE
  5
3B8
100
AcDbEntity
  8
0
100
AcDbLine
 62
7
  6
CONTINUOUS
 10
69.716796875
 20
131.78203125
 11
69.866796875
 21
131.63203125
  0
LINE
  5
3B9
100
AcDbEntity
  8
0
100
AcDbLine
 62
250
  6
CONTINUOUS
 10
70.3425694587
 20
79.6543520061
 11
71.4420883186
 21
80.2379962211
  0
LINE
  5
3BA
100
AcDbEntity
  8
0
100
AcDbLine
 62
250
  6
CONTINUOUS
 10
71.8668461072
 20
80.3283338683
 11
72.38893796
 21
80.6054695325
  0
LINE
  5
3BB
100
AcDbEntity
  8
0
100
AcDbLine
 62
7
  6
CONTINUOUS
 10
70.4167968705
 20
79.4320312476
 11
72.416796875
 21
80.4936669096
  0
LWPOLYLINE
  5
3BC
100
AcDbEntity
  8
0
100
AcDbPolyline
 62
250
  6
CONTINUOUS
 90
10
 70
0
 10
72.0057580363
 20
80.2754801653
 10
71.9971076789
 20
80.2718293534
 10
71.9877294415
 20
80.2696674945
 10
71.9776760185
 20
80.2690049283
 10
71.9670057649
 20
80.26984339
 10
71.9557765067
 20
80.2721763487
 10
71.9440442211
 20
80.2759918119
 10
71.9318709754
 20
80.2812707386
 10
71.9193261575
 20
80.2879841422
 10
71.9064796072
 20
80.2960952552
  0
LINE
  5
3BD
100
AcDbEntity
  8
0
100
AcDbLine
 62
7
  6
CONTINUOUS
 10
70.4664249729
 20
131.7869940598
 11
72.416796875
 21
131.98203125
  0
LINE
  5
3BE
100
AcDbEntity
  8
0
100
AcDbLine
 62
7
  6
CONTINUOUS
 10
69.416796875
 20
132.3378511245
 11
72.2272640662
 21
132.4620179177
  0
LINE
  5
3BF
100
AcDbEntity
  8
0
100
AcDbLine
 62
7
  6
CONTINUOUS
 10
71.8948602207
 20
131.9298375846
 11
72.416796875
 21
131.9343924567
  0
LINE
  5
3C0
100
AcDbEntity
  8
0
100
AcDbLine
 62
7
  6
CONTINUOUS
 10
69.416796875
 20
131.63203125
 11
69.566796875
 21
131.63203125
  0
LINE
  5
3C1
100
AcDbEntity
  8
0
100
AcDbLine
 62
7
  6
CONTINUOUS
 10
69.866796875
 20
131.63203125
 11
70.066796875
 21
131.63203125
  0
LINE
  5
3C2
100
AcDbEntity
  8
0
100
AcDbLine
 62
7
  6
CONTINUOUS
 10
69.416796875
 20
131.78203125
 11
70.3669212539
 21
131.78203125
  0
LINE
  5
3C3
100
AcDbEntity
  8
0
100
AcDbLine
 62
7
  6
CONTINUOUS
 10
72.416796875
 20
132.7343924567
 11
72.2962341079
 21
132.7343924567
  0
LINE
  5
3C4
100
AcDbEntity
  8
0
100
AcDbLine
 62
250
  6
CONTINUOUS
 10
70.3425694587
 20
133.5097104939
 11
69.416796875
 21
133.5101286884
  0
LINE
  5
3C5
100
AcDbEntity
  8
0
100
AcDbLine
 62
7
  6
CONTINUOUS
 10
70.416796875
 20
133.73203125
 11
69.416796875
 21
133.733776581
  0
LINE
  5
3C6
100
AcDbEntity
  8
0
100
AcDbLine
 62
250
  6
CONTINUOUS
 10
71.8668461072
 20
132.8357286317
 11
69.416796875
 21
132.8499826012
  0
LINE
  5
3C7
100
AcDbEntity
  8
0
100
AcDbLine
 62
7
  6
CONTINUOUS
 10
71.8668461072
 20
132.9235951103
 11
69.416796875
 21
132.9378490798
  0
LWPOLYLINE
  5
3C8
100
AcDbEntity
  8
0
100
AcDbPolyline
 62
250
  6
CONTINUOUS
 90
10
 70
0
 10
72.0057580363
 20
132.8885823347
 10
71.9971100808
 20
132.8922323723
 10
71.9877340441
 20
132.8943943365
 10
71.9776824615
 20
132.8950576263
 10
71.9670137558
 20
132.894220267
 10
71.9557854402
 20
132.8918885429
 10
71.9440526982
 20
132.8880739126
 10
71.9318761672
 20
132.8827942801
 10
71.9193263382
 20
132.8760784633
 10
71.9064762904
 20
132.8679649961
  0
LINE
  5
3C9
100
AcDbEntity
  8
0
100
AcDbLine
 62
250
  6
CONTINUOUS
 10
71.4420883186
 20
132.9260662789
 11
70.3425694587
 21
133.5097104939
  0
LINE
  5
3CA
100
AcDbEntity
  8
0
100
AcDbLine
 62
250
  6
CONTINUOUS
 10
72.38893796
 20
132.5585929675
 11
71.8668461072
 21
132.8357286317
  0
LINE
  5
3CB
100
AcDbEntity
  8
0
100
AcDbLine
 62
7
  6
CONTINUOUS
 10
72.416796875
 20
132.6703955904
 11
70.4167968714
 21
133.7320312519
  0
LINE
  5
3CC
100
AcDbEntity
  8
0
100
AcDbLine
 62
7
  6
CONTINUOUS
 10
63.266187702
 20
62.7764715956
 11
63.2512493328
 21
62.7620457801
  0
LINE
  5
3CD
100
AcDbEntity
  8
ASSI
100
AcDbLine
 62
7
  6
CONTINUOUS
 10
63.266187702
 20
62.7764715956
 11
63.2512493328
 21
62.7620457801
  0
LINE
  5
3CE
100
AcDbEntity
  8
0
100
AcDbLine
 62
7
  6
CONTINUOUS
 10
63.2512493328
 20
150.4020167199
 11
63.266187702
 21
150.3875909044
  0
LINE
  5
3CF
100
AcDbEntity
  8
ASSI
100
AcDbLine
 62
7
  6
CONTINUOUS
 10
63.2512493328
 20
150.4020167199
 11
63.266187702
 21
150.3875909044
  0
LWPOLYLINE
  5
3D0
100
AcDbEntity
  8
0
100
AcDbPolyline
 62
7
  6
CONTINUOUS
 90
10
 70
0
 43
0.3500000006
 10
77.2471277161
 20
160.8320300903
 10
77.3185498352
 20
160.6891677246
 10
77.3185498352
 20
160.6177456055
 10
77.1756965332
 20
160.4748832397
 10
77.1042653503
 20
160.4748832397
 10
77.0328432312
 20
160.5463234863
 10
77.0328432312
 20
160.6177456055
 10
77.1042653503
 20
160.7606079712
 10
77.1756965332
 20
160.8320300903
 10
77.2471277161
 20
160.8320300903
  0
LWPOLYLINE
  5
3D1
100
AcDbEntity
  8
0
100
AcDbPolyline
 62
7
  6
CONTINUOUS
 90
10
 70
0
 43
0.3500000006
 10
78.5296713867
 20
170.8320331421
 10
78.6010935059
 20
170.6891707764
 10
78.6010935059
 20
170.6177486572
 10
78.4582402039
 20
170.4748862915
 10
78.386809021
 20
170.4748862915
 10
78.3153778381
 20
170.5463084106
 10
78.3153778381
 20
170.6177486572
 10
78.386809021
 20
170.7606110229
 10
78.4582402039
 20
170.8320331421
 10
78.5296713867
 20
170.8320331421
  0
LINE
  5
3D2
100
AcDbEntity
  8
0
100
AcDbLine
 62
250
  6
CONTINUOUS
 10
68.816796875
 20
147.7439726824
 11
69.416796875
 21
147.7859287696
  0
LINE
  5
3D3
100
AcDbEntity
  8
0
100
AcDbLine
 62
7
  6
CONTINUOUS
 10
68.816796875
 20
149.3400751628
 11
69.416796875
 21
149.38203125
  0
LINE
  5
3D4
100
AcDbEntity
  8
0
100
AcDbLine
 62
7
  6
CONTINUOUS
 10
63.266187702
 20
150.3875909044
 11
68.816796875
 21
150.5814224479
  0
LINE
  5
3D5
100
AcDbEntity
  8
ASSI
100
AcDbLine
 62
7
  6
CONTINUOUS
 10
63.266187702
 20
150.3875909044
 11
68.816796875
 21
150.5814224479
  0
LINE
  5
3D6
100
AcDbEntity
  8
0
100
AcDbLine
 62
7
  6
CONTINUOUS
 10
63.266187702
 20
151.3881997065
 11
68.816796875
 21
151.58203125
  0
LINE
  5
3D7
100
AcDbEntity
  8
ASSI
100
AcDbLine
 62
7
  6
CONTINUOUS
 10
63.266187702
 20
151.3881997065
 11
68.816796875
 21
151.58203125
  0
LWPOLYLINE
  5
3D8
100
AcDbEntity
  8
0
100
AcDbPolyline
 62
7
  6
CONTINUOUS
 90
8
 70
0
 43
0.3500000006
 10
80.0328441467
 20
160.3320390015
 10
80.8899820862
 20
160.3320390015
 10
81.3185510559
 20
160.7606079712
 10
81.3185510559
 20
161.6177459106
 10
80.8899820862
 20
162.0463148804
 10
80.0328441467
 20
162.0463148804
 10
80.0328441467
 20
163.332039917
 10
81.3185510559
 20
163.332039917
  0
LWPOLYLINE
  5
3D9
100
AcDbEntity
  8
0
100
AcDbPolyline
 62
7
  6
CONTINUOUS
 90
8
 70
0
 43
0.3500000006
 10
81.3153787537
 20
170.3320239258
 10
82.1725257568
 20
170.3320239258
 10
82.6010947266
 20
170.7606110229
 10
82.6010947266
 20
171.6177489624
 10
82.1725257568
 20
172.0463179321
 10
81.3153787537
 20
172.0463179321
 10
81.3153787537
 20
173.3320248413
 10
82.6010947266
 20
173.3320248413
  0
ARC
  5
3DA
100
AcDbEntity
  8
0
100
AcDbCircle
 62
7
  6
CONTINUOUS
 10
70.3669212539
 20
80.38203125
 40
1.0
100
AcDbArc
 50
84.2894068625
 51
90.0
  0
ARC
  5
3DB
100
AcDbEntity
  8
0
100
AcDbCircle
 62
7
  6
CONTINUOUS
 10
70.3669212539
 20
132.78203125
 40
1.0
100
AcDbArc
 50
270.0
 51
275.7105931375
  0
ARC
  5
3DC
100
AcDbEntity
  8
0
100
AcDbCircle
 62
7
  6
CONTINUOUS
 10
70.3421101999
 20
79.732031754
 40
0.3
100
AcDbArc
 50
270.1000001427
 51
297.9489685197
  0
ARC
  5
3DD
100
AcDbEntity
  8
0
100
AcDbCircle
 62
7
  6
CONTINUOUS
 10
70.3421101999
 20
133.432030746
 40
0.3
100
AcDbArc
 50
62.0510314803
 51
89.8999998573
  0
ARC
  5
3DE
100
AcDbEntity
  8
0
100
AcDbCircle
 62
7
  6
CONTINUOUS
 10
69.366796875
 20
109.2034377594
 40
0.3
100
AcDbArc
 50
0.0
 51
80.4016345752
  0
ARC
  5
3DF
100
AcDbEntity
  8
0
100
AcDbCircle
 62
7
  6
CONTINUOUS
 10
69.366796875
 20
103.9606247406
 40
0.3
100
AcDbArc
 50
279.5989113415
 51
360.0
  0
ARC
  5
3E0
100
AcDbEntity
  8
0
100
AcDbCircle
 62
7
  6
CONTINUOUS
 10
71.8651007878
 20
80.5404623127
 40
0.3
100
AcDbArc
 50
270.3333333333
 51
297.9601595792
  0
ARC
  5
3E1
100
AcDbEntity
  8
0
100
AcDbCircle
 62
7
  6
CONTINUOUS
 10
71.8651007878
 20
132.6236001873
 40
0.3
100
AcDbArc
 50
62.0398404207
 51
89.6666666667
  0
ELLIPSE
  5
3E2
100
AcDbEntity
  8
0
100
AcDbEllipse
 62
7
  6
CONTINUOUS
 10
130.321142824
 20
84.483252199
 30
0.0
 11
-0.3552779753
 21
-0.3552779753
 31
0.0
 40
0.9951458158
 41
-0.782965171
 42
0.782965171
  0
ELLIPSE
  5
3E3
100
AcDbEntity
  8
0
100
AcDbEllipse
 62
7
  6
CONTINUOUS
 10
219.518700926
 20
84.483252199
 30
0.0
 11
0.3552779753
 21
-0.3552779753
 31
0.0
 40
0.9951458158
 41
-0.782965171
 42
0.782965171
  0
ELLIPSE
  5
3E4
100
AcDbEntity
  8
0
100
AcDbEllipse
 62
7
  6
CONTINUOUS
 10
219.518700926
 20
128.680810301
 30
0.0
 11
0.3552779753
 21
0.3552779753
 31
0.0
 40
0.9951458158
 41
-0.782965171
 42
0.782965171
  0
ELLIPSE
  5
3E5
100
AcDbEntity
  8
0
100
AcDbEllipse
 62
7
  6
CONTINUOUS
 10
130.321142824
 20
128.680810301
 30
0.0
 11
-0.3552779753
 21
0.3552779753
 31
0.0
 40
0.9951458158
 41
-0.782965171
 42
0.782965171
  0
ELLIPSE
  5
3E6
100
AcDbEntity
  8
ASSI
100
AcDbEllipse
 62
7
  6
CONTINUOUS
 10
130.321142824
 20
84.483252199
 30
0.0
 11
-0.3552779753
 21
-0.3552779753
 31
0.0
 40
0.9951458158
 41
-0.782965171
 42
0.782965171
  0
ELLIPSE
  5
3E7
100
AcDbEntity
  8
ASSI
100
AcDbEllipse
 62
7
  6
CONTINUOUS
 10
219.518700926
 20
84.483252199
 30
0.0
 11
0.3552779753
 21
-0.3552779753
 31
0.0
 40
0.9951458158
 41
-0.782965171
 42
0.782965171
  0
ELLIPSE
  5
3E8
100
AcDbEntity
  8
ASSI
100
AcDbEllipse
 62
7
  6
CONTINUOUS
 10
219.518700926
 20
128.680810301
 30
0.0
 11
0.3552779753
 21
0.3552779753
 31
0.0
 40
0.9951458158
 41
-0.782965171
 42
0.782965171
  0
ELLIPSE
  5
3E9
100
AcDbEntity
  8
ASSI
100
AcDbEllipse
 62
7
  6
CONTINUOUS
 10
130.321142824
 20
128.680810301
 30
0.0
 11
-0.3552779753
 21
0.3552779753
 31
0.0
 40
0.9951458158
 41
-0.782965171
 42
0.782965171
  0
ELLIPSE
  5
3EA
100
AcDbEntity
  8
0
100
AcDbEllipse
 62
7
  6
CONTINUOUS
 10
72.216796875
 20
80.502232555
 30
0.0
 11
0.1417119467
 21
0.1422961243
 31
0.0
 40
0.9918061237
 41
-0.2491986107
 42
0.7350951877
  0
ELLIPSE
  5
3EB
100
AcDbEntity
  8
0
100
AcDbEllipse
 62
7
  6
CONTINUOUS
 10
72.216796875
 20
132.661829945
 30
0.0
 11
-0.1417119467
 21
0.1422961243
 31
0.0
 40
0.9918061237
 41
-3.8766878413
 42
-2.8923940429
  0
ENDSEC
  0
SECTION
  2
OBJECTS
  0
DICTIONARY
  5
C
100
AcDbDictionary
280
0
281
1
  3
ACAD_GROUP
350
D
  3
ACAD_MLINESTYLE
350
17
  3
ACAD_LAYOUT
350
1A
  3
ACAD_PLOTSETTINGS
350
19
  3
ACAD_PLOTSTYLENAME
350
E
  0
DICTIONARY
  5
D
102
{ACAD_REACTORS
330
C
102
}
100
AcDbDictionary
280
0
281
1
  0
ACDBDICTIONARYWDFLT
  5
E
102
{ACAD_REACTORS
330
C
102
}
100
AcDbDictionary
281
1
  3
Normal
350
F
100
AcDbDictionaryWithDefault
340
F
  0
DICTIONARY
  5
17
102
{ACAD_REACTORS
330
C
102
}
100
AcDbDictionary
280
0
281
1
  3
Standard
350
18
  0
DICTIONARY
  5
19
102
{ACAD_REACTORS
330
C
102
}
100
AcDbDictionary
281
1
  0
DICTIONARY
  5
1A
102
{ACAD_REACTORS
330
C
102
}
100
AcDbDictionary
281
1
  3
Model
350
3EC
  3
Layout1
350
3ED
  0
ACDBPLACEHOLDER
  5
F
102
{ACAD_REACTORS
330
E
102
}
  0
MLINESTYLE
  5
18
102
{ACAD_REACTORS
330
17
102
}
100
AcDbMlineStyle
  2
STANDARD
 70
0
  3

 62
256
 51
90.0
 52
90.0
 71
2
 49
0.5
 62
256
  6
BYLAYER
 49
-0.5
 62
256
  6
BYLAYER
  0
LAYOUT
  5
3EC
102
{ACAD_REACTORS
330
1A
102
}
100
AcDbPlotSettings
  1

  2
none_device
  4
ISO_A4_(297.00_x_210.00_MM)
  6

 40
0.0
 41
0.0
 42
0.0
 43
0.0
 44
297.0
 45
210.0
 46
0.0
 47
0.0
 48
0.0
 49
0.0
140
0.0
141
0.0
142
1.0
143
1.0
 70
1024
 72
1
 73
0
 74
0
  7

 75
0
147
1.0
148
0.0
149
0.0
100
AcDbLayout
  1
Model
 70
0
 71
0
 10
0.0
 20
0.0
 11
297.0
 21
210.0
 12
0.0
 22
0.0
 32
0.0
 14
0.0
 24
0.0
 34
0.0
 15
0.0
 25
0.0
 35
0.0
146
0.0
 13
0.0
 23
0.0
 33
0.0
 16
1.0
 26
0.0
 36
0.0
 17
0.0
 27
1.0
 37
0.0
 76
0
330
21B
345
0
346
0
  0
LAYOUT
  5
3ED
102
{ACAD_REACTORS
330
1A
102
}
100
AcDbPlotSettings
  1

  2
none_device
  4
ISO_A4_(297.00_x_210.00_MM)
  6

 40
0.0
 41
0.0
 42
0.0
 43
0.0
 44
297.0
 45
210.0
 46
0.0
 47
0.0
 48
0.0
 49
0.0
140
0.0
141
0.0
142
1.0
143
1.0
 70
0
 72
1
 73
0
 74
0
  7

 75
0
147
1.0
148
0.0
149
0.0
100
AcDbLayout
  1
Layout1
 70
0
 71
1
 10
0.0
 20
0.0
 11
297.0
 21
210.0
 12
0.0
 22
0.0
 32
0.0
 14
0.0
 24
0.0
 34
0.0
 15
0.0
 25
0.0
 35
0.0
146
0.0
 13
0.0
 23
0.0
 33
0.0
 16
1.0
 26
0.0
 36
0.0
 17
0.0
 27
1.0
 37
0.0
 76
0
330
21C
345
0
346
0
  0
ENDSEC
  0
EOF
