  0
SECTION
  2
HEADER
  9
$ACADVER
  1
AC1021
  9
$DWGCODEPAGE
  3
ANSI_1252
  9
$EXTMAX
 10
297.0
 20
210.0
 30
0.0
  9
$EXTMIN
 10
0.0
 20
0.0
 30
0.0
  9
$LIMMIN
 10
0.0
 20
0.0
  9
$LIMMAX
 10
297.0
 20
210.0
  9
$VIEWCTR
 10
148.5
 20
105.0
  9
$VIEWSIZE
 40
210.0
  9
$CLAYER
  8
0
  9
$LTSCALE
 40
16.335
  9
$CELTYPE
  6
BYLAYER
  9
$DIMSCALE
 40
1.0
  9
$DIMASZ
 40
3.0
  9
$DIMEXO
 40
0.5
  9
$DIMDLI
 40
11.286
  9
$DIMEXE
 40
1.5
  9
$DIMCEN
 40
2.673
  9
$DIMLFAC
 40
1.0
  9
$DIMBLK
  1
_FILLED
  9
$DIMALT
 70
0
  9
$DIMALTF
 40
25.4
  9
$DIMTXT
 40
3.0
  9
$DIMTOL
 70
1
  9
$DIMLIM
 70
0
  9
$DIMTFAC
 40
1.0
  9
$DIMTP
 40
0.01
  9
$DIMTM
 40
0.01
  9
$DIMGAP
 40
0.625
  9
$DIMDSEP
 70
44
  9
$AUNITS
 70
0
  9
$PDMODE
 70
3
  9
$PDSIZE
 40
3.0
  9
$HANDSEED
  5
381
  9
$TILEMODE
 70
1
  9
$MEASUREMENT
 70
1
  9
$INSUNITS
 70
4
  0
ENDSEC
  0
SECTION
  2
CLASSES
  0
CLASS
  1
ACDBDICTIONARYWDFLT
  2
AcDbDictionaryWithDefault
  3
AutoCAD 2000
 90
0
 91
1
280
0
281
0
  0
CLASS
  1
ACDBPLACEHOLDER
  2
AcDbPlaceHolder
  3
AutoCAD 2000
 90
0
 91
1
280
0
281
0
  0
CLASS
  1
LAYOUT
  2
AcDbLayout
  3
AutoCAD 2000
 90
0
 91
0
280
0
281
0
  0
ENDSEC
  0
SECTION
  2
TABLES
  0
TABLE
  2
VPORT
  5
8
100
AcDbSymbolTable
 70
2
  0
VPORT
  5
1F4
100
AcDbSymbolTableRecord
100
AcDbViewportTableRecord
  2
*ACTIVE
 70
0
 10
0.0
 20
0.0
 11
1.0
 21
1.0
 12
148.5
 22
105.0
 13
0.0
 23
0.0
 14
1.0
 24
1.0
 15
0.0
 25
0.0
 16
0.0
 26
0.0
 36
1.0
 17
0.0
 27
0.0
 37
0.0
 40
210.0
 41
1.4142857143
 42
50.0
 43
0.0
 44
0.0
 50
0.0
 51
0.0
 71
0
 72
100
 73
1
 74
1
 75
0
 76
0
 77
0
 78
0
  0
ENDTAB
  0
TABLE
  2
LTYPE
  5
5
100
AcDbSymbolTable
 70
6
  0
LTYPE
  5
14
100
AcDbSymbolTableRecord
100
AcDbLinetypeTableRecord
  2
BYBLOCK
 70
0
  3

 72
65
 73
0
 40
0.0
  0
LTYPE
  5
15
100
AcDbSymbolTableRecord
100
AcDbLinetypeTableRecord
  2
BYLAYER
 70
0
  3

 72
65
 73
0
 40
0.0
  0
LTYPE
  5
16
100
AcDbSymbolTableRecord
100
AcDbLinetypeTableRecord
  2
CONTINUOUS
 70
64
  3
Solid line
 72
65
 73
0
 40
0.0
  0
LTYPE
  5
1F5
100
AcDbSymbolTableRecord
100
AcDbLinetypeTableRecord
  2
CENTER
 70
64
  3
____ _ ____ _ ____ _ ____ _ ____ _ ____ _ ____
 72
65
 73
4
 40
0.6
 49
0.375
 74
0
 49
-0.075
 74
0
 49
0.075
 74
0
 49
-0.075
 74
0
  0
LTYPE
  5
1F6
100
AcDbSymbolTableRecord
100
AcDbLinetypeTableRecord
  2
HIDDEN
 70
64
  3
- - - - - - - - - - - - - - - - - - - -
 72
65
 73
2
 40
0.2
 49
0.1
 74
0
 49
-0.1
 74
0
  0
LTYPE
  5
1F7
100
AcDbSymbolTableRecord
100
AcDbLinetypeTableRecord
  2
PHANTOM
 70
64
  3
_____ _ _ _____ _ _ _____ _ _ _____
 72
65
 73
6
 40
0.8
 49
0.45
 74
0
 49
-0.05
 74
0
 49
0.1
 74
0
 49
-0.05
 74
0
 49
0.1
 74
0
 49
-0.05
 74
0
  0
LTYPE
  5
1F8
100
AcDbSymbolTableRecord
100
AcDbLinetypeTableRecord
  2
DOT
 70
64
  3
. . . . . . . . . . . . . . . . . . . .
 72
65
 73
2
 40
0.2
 49
0.1
 74
0
 49
-0.1
 74
0
  0
LTYPE
  5
1F9
100
AcDbSymbolTableRecord
100
AcDbLinetypeTableRecord
  2
DASHED
 70
64
  3
- - - - - - - - - - - - - - - - - - - -
 72
65
 73
2
 40
0.2
 49
0.1
 74
0
 49
-0.1
 74
0
  0
ENDTAB
  0
TABLE
  2
LAYER
  5
2
100
AcDbSymbolTable
 70
36
  0
LAYER
  5
10
100
AcDbSymbolTableRecord
100
AcDbLayerTableRecord
  2
0
 70
0
 62
7
  6
CONTINUOUS
370
-3
390
F
  0
LAYER
  5
1FA
100
AcDbSymbolTableRecord
100
AcDbLayerTableRecord
  2
DEFAULT_1
 70
0
 62
7
  6
CENTER
370
-3
390
F
  0
LAYER
  5
1FB
100
AcDbSymbolTableRecord
100
AcDbLayerTableRecord
  2
DEFAULT_2
 70
0
 62
7
  6
HIDDEN
370
-3
390
F
  0
LAYER
  5
1FC
100
AcDbSymbolTableRecord
100
AcDbLayerTableRecord
  2
DEFAULT_3
 70
0
 62
7
  6
PHANTOM
370
-3
390
F
  0
LAYER
  5
1FD
100
AcDbSymbolTableRecord
100
AcDbLayerTableRecord
  2
ASSI
 70
0
 62
7
  6
CONTINUOUS
370
-3
390
F
  0
LAYER
  5
1FE
100
AcDbSymbolTableRecord
100
AcDbLayerTableRecord
  2
COORDINATE
 70
0
 62
7
  6
CONTINUOUS
370
-3
390
F
  0
LAYER
  5
1FF
100
AcDbSymbolTableRecord
100
AcDbLayerTableRecord
  2
COORD_ORIGINE
 70
0
 62
7
  6
CONTINUOUS
370
-3
390
F
  0
LAYER
  5
200
100
AcDbSymbolTableRecord
100
AcDbLayerTableRecord
  2
COPY_PUBLISH
 70
0
 62
7
  6
CONTINUOUS
370
-3
390
F
  0
LAYER
  5
201
100
AcDbSymbolTableRecord
100
AcDbLayerTableRecord
  2
COSMETIC
 70
0
 62
7
  6
CONTINUOUS
370
-3
390
F
  0
LAYER
  5
202
100
AcDbSymbolTableRecord
100
AcDbLayerTableRecord
  2
COSMETICI
 70
0
 62
7
  6
CONTINUOUS
370
-3
390
F
  0
LAYER
  5
203
100
AcDbSymbolTableRecord
100
AcDbLayerTableRecord
  2
CURVA_TASSELLO
 70
0
 62
7
  6
CONTINUOUS
370
-3
390
F
  0
LAYER
  5
204
100
AcDbSymbolTableRecord
100
AcDbLayerTableRecord
  2
CURVE
 70
0
 62
7
  6
CONTINUOUS
370
-3
390
F
  0
LAYER
  5
205
100
AcDbSymbolTableRecord
100
AcDbLayerTableRecord
  2
DRAFT
 70
0
 62
7
  6
CONTINUOUS
370
-3
390
F
  0
LAYER
  5
206
100
AcDbSymbolTableRecord
100
AcDbLayerTableRecord
  2
IMPORT_IGES
 70
0
 62
7
  6
CONTINUOUS
370
-3
390
F
  0
LAYER
  5
207
100
AcDbSymbolTableRecord
100
AcDbLayerTableRecord
  2
INTFCLR_2
 70
0
 62
7
  6
CONTINUOUS
370
-3
390
F
  0
LAYER
  5
208
100
AcDbSymbolTableRecord
100
AcDbLayerTableRecord
  2
INTF_1
 70
0
 62
7
  6
CONTINUOUS
370
-3
390
F
  0
LAYER
  5
209
100
AcDbSymbolTableRecord
100
AcDbLayerTableRecord
  2
INTF_7
 70
0
 62
7
  6
CONTINUOUS
370
-3
390
F
  0
LAYER
  5
20A
100
AcDbSymbolTableRecord
100
AcDbLayerTableRecord
  2
LINEA_CHIUSURA
 70
0
 62
7
  6
CONTINUOUS
370
-3
390
F
  0
LAYER
  5
20B
100
AcDbSymbolTableRecord
100
AcDbLayerTableRecord
  2
NOTE
 70
0
 62
7
  6
CONTINUOUS
370
-3
390
F
  0
LAYER
  5
20C
100
AcDbSymbolTableRecord
100
AcDbLayerTableRecord
  2
PIANI
 70
0
 62
7
  6
CONTINUOUS
370
-3
390
F
  0
LAYER
  5
20D
100
AcDbSymbolTableRecord
100
AcDbLayerTableRecord
  2
PIANI_ORIGINE
 70
0
 62
7
  6
CONTINUOUS
370
-3
390
F
  0
LAYER
  5
20E
100
AcDbSymbolTableRecord
100
AcDbLayerTableRecord
  2
PIANI_RIFERIMENTO
 70
0
 62
7
  6
CONTINUOUS
370
-3
390
F
  0
LAYER
  5
20F
100
AcDbSymbolTableRecord
100
AcDbLayerTableRecord
  2
PUNTI
 70
0
 62
7
  6
CONTINUOUS
370
-3
390
F
  0
LAYER
  5
210
100
AcDbSymbolTableRecord
100
AcDbLayerTableRecord
  2
RACCORDO
 70
0
 62
7
  6
CONTINUOUS
370
-3
390
F
  0
LAYER
  5
211
100
AcDbSymbolTableRecord
100
AcDbLayerTableRecord
  2
RGB__255__255__255__
 70
0
 62
7
  6
CONTINUOUS
370
-3
390
F
  0
LAYER
  5
212
100
AcDbSymbolTableRecord
100
AcDbLayerTableRecord
  2
RGB____0____0____0__
 70
0
 62
7
  6
CONTINUOUS
370
-3
390
F
  0
LAYER
  5
213
100
AcDbSymbolTableRecord
100
AcDbLayerTableRecord
  2
SIMBOLI
 70
0
 62
7
  6
CONTINUOUS
370
-3
390
F
  0
LAYER
  5
214
100
AcDbSymbolTableRecord
100
AcDbLayerTableRecord
  2
SMUSSO
 70
0
 62
7
  6
CONTINUOUS
370
-3
390
F
  0
LAYER
  5
215
100
AcDbSymbolTableRecord
100
AcDbLayerTableRecord
  2
SNAPLINE
 70
0
 62
7
  6
CONTINUOUS
370
-3
390
F
  0
LAYER
  5
216
100
AcDbSymbolTableRecord
100
AcDbLayerTableRecord
  2
SUPERFICI
 70
0
 62
7
  6
CONTINUOUS
370
-3
390
F
  0
LAYER
  5
217
100
AcDbSymbolTableRecord
100
AcDbLayerTableRecord
  2
TRASH
 70
0
 62
7
  6
CONTINUOUS
370
-3
390
F
  0
LAYER
  5
218
100
AcDbSymbolTableRecord
100
AcDbLayerTableRecord
  2
WHITE
 70
0
 62
7
  6
CONTINUOUS
370
-3
390
F
  0
LAYER
  5
219
100
AcDbSymbolTableRecord
100
AcDbLayerTableRecord
  2
XSEC_DATUMS
 70
0
 62
7
  6
CONTINUOUS
370
-3
390
F
  0
ENDTAB
  0
TABLE
  2
STYLE
  5
3
100
AcDbSymbolTable
 70
1
  0
STYLE
  5
11
100
AcDbSymbolTableRecord
100
AcDbTextStyleTableRecord
  2
STANDARD
 70
0
 40
0.0
 41
0.8
 50
0.0
 71
0
 42
0.2
  3
txt
  4

  0
STYLE
  5
21A
100
AcDbSymbolTableRecord
100
AcDbTextStyleTableRecord
  2
TEXTSTYLE_1
 70
0
 40
0.0
 41
0.8
 50
0.0
 71
0
 42
0.2
  3
gdt
  4

  0
ENDTAB
  0
TABLE
  2
VIEW
  5
6
100
AcDbSymbolTable
 70
0
  0
ENDTAB
  0
TABLE
  2
UCS
  5
7
100
AcDbSymbolTable
 70
0
  0
ENDTAB
  0
TABLE
  2
APPID
  5
9
100
AcDbSymbolTable
 70
1
  0
APPID
  5
21B
100
AcDbSymbolTableRecord
100
AcDbRegAppTableRecord
  2
ACAD
 70
0
  0
ENDTAB
  0
TABLE
  2
BLOCK_RECORD
  5
1
100
AcDbSymbolTable
 70
0
  0
BLOCK_RECORD
  5
21C
100
AcDbSymbolTableRecord
100
AcDbBlockTableRecord
  2
*Model_Space
  0
BLOCK_RECORD
  5
21D
100
AcDbSymbolTableRecord
100
AcDbBlockTableRecord
  2
*Paper_Space
  0
BLOCK_RECORD
  5
21E
100
AcDbSymbolTableRecord
100
AcDbBlockTableRecord
  2
_FILLED
  0
BLOCK_RECORD
  5
21F
100
AcDbSymbolTableRecord
100
AcDbBlockTableRecord
  2
*D0
  0
BLOCK_RECORD
  5
220
100
AcDbSymbolTableRecord
100
AcDbBlockTableRecord
  2
*D1
  0
BLOCK_RECORD
  5
221
100
AcDbSymbolTableRecord
100
AcDbBlockTableRecord
  2
*D2
  0
BLOCK_RECORD
  5
222
100
AcDbSymbolTableRecord
100
AcDbBlockTableRecord
  2
*D3
  0
ENDTAB
  0
TABLE
  2
DIMSTYLE
  5
A
100
AcDbSymbolTable
 70
1
100
AcDbDimStyleTable
 71
0
  0
DIMSTYLE
105
223
100
AcDbSymbolTableRecord
100
AcDbDimStyleTableRecord
  2
STANDARD
 70
0
  3

  4

 40
1.0
 41
3.0
 42
0.5
 43
0.38
 44
1.5
 45
0.0
 46
0.0
 47
0.01
 48
0.01
140
3.0
141
0.09
142
0.0
143
25.4
144
1.0
145
0.0
146
1.0
147
0.625
 71
1.0
 72
0.0
 73
0
 74
0
 75
0
 76
0
 77
1
 78
8
 79
2
170
0
171
1
172
0
173
0
174
0
175
0
176
0
177
0
178
0
270
2
179
2
271
2
272
2
273
2
274
2
275
0
280
0
281
0
282
0
283
1
284
8
285
0
286
0
287
3
288
0
340
11
278
44
341
21E
342
21E
343
21E
344
21E
  0
DIMSTYLE
105
224
100
AcDbSymbolTableRecord
100
AcDbDimStyleTableRecord
  2
DIMSTYLE_1
 70
0
  3

  4

 40
1.0
 41
3.0
 42
0.5
 43
0.38
 44
1.5
 45
0.0
 46
0.0
 47
0.0
 48
0.0
140
3.0
141
0.09
142
0.0
143
25.4
144
1.0
145
0.0
146
1.0
147
0.75
 71
0.0
 72
0.0
 73
0
 74
0
 75
0
 76
0
 77
1
 78
8
 79
2
170
0
171
1
172
0
173
0
174
0
175
0
176
0
177
0
178
0
270
2
179
2
271
2
272
2
273
2
274
2
275
0
280
0
281
0
282
0
283
1
284
8
285
0
286
0
287
3
288
0
340
11
278
44
341
21E
342
21E
343
21E
344
21E
  0
ENDTAB
  0
ENDSEC
  0
SECTION
  2
BLOCKS
  0
BLOCK
  5
20
100
AcDbEntity
  8
0
100
AcDbBlockBegin
  2
*Model_Space
 70
0
 10
0.0
 20
0.0
 30
0.0
  3
*Model_Space
  1

  0
ENDBLK
  5
21
100
AcDbEntity
  8
0
100
AcDbBlockEnd
  0
BLOCK
  5
1C
100
AcDbEntity
  8
0
100
AcDbBlockBegin
  2
*Paper_Space
 70
0
 10
0.0
 20
0.0
 30
0.0
  3
*Paper_Space
  1

  0
ENDBLK
  5
1D
100
AcDbEntity
  8
0
100
AcDbBlockEnd
  0
BLOCK
  5
225
100
AcDbEntity
  8
0
100
AcDbBlockBegin
  2
_FILLED
 70
64
 10
0.0
 20
0.0
  3
_FILLED
  1

  0
SOLID
  5
226
100
AcDbEntity
  8
0
  6
BYBLOCK
 62
0
100
AcDbTrace
 10
0.0
 20
0.0
 11
-1.0
 21
0.3166666667
 12
-1.0
 22
-0.3166666667
 13
-1.0
 23
-0.3166666667
  0
ENDBLK
  5
227
100
AcDbEntity
  8
0
  6
BYBLOCK
 62
0
100
AcDbBlockEnd
  0
BLOCK
  5
228
100
AcDbEntity
  8
0
100
AcDbBlockBegin
 62
7
  6
CONTINUOUS
  2
*D0
 70
65
 10
0.0
 20
0.0
  3
*D0
  1

  0
LINE
  5
229
100
AcDbEntity
  8
0
100
AcDbLine
 62
7
  6
CONTINUOUS
 10
248.0364073485
 20
63.8513838867
 11
258.0864073485
 21
63.8513838867
  0
LINE
  5
22A
100
AcDbEntity
  8
0
100
AcDbLine
 62
7
  6
CONTINUOUS
 10
248.0364073485
 20
153.8513838867
 11
258.0864073485
 21
153.8513838867
  0
LINE
  5
22B
100
AcDbEntity
  8
0
100
AcDbLine
 62
7
  6
CONTINUOUS
 10
256.5864073485
 20
63.8513838867
 11
256.5864073485
 21
108.8513838867
  0
LINE
  5
22C
100
AcDbEntity
  8
0
100
AcDbLine
 62
7
  6
CONTINUOUS
 10
256.5864073485
 20
153.8513838867
 11
256.5864073485
 21
108.8513838867
  0
INSERT
  5
22D
100
AcDbEntity
  8
0
100
AcDbBlockReference
 62
7
  6
CONTINUOUS
  2
_FILLED
 10
256.5864073485
 20
63.8513838867
 41
3.0
 42
3.0
 43
3.0
 50
270.0
  0
INSERT
  5
22E
100
AcDbEntity
  8
0
100
AcDbBlockReference
 62
7
  6
CONTINUOUS
  2
_FILLED
 10
256.5864073485
 20
153.8513838867
 41
3.0
 42
3.0
 43
3.0
 50
90.0
  0
ENDBLK
  5
22F
100
AcDbEntity
  8
0
  6
BYBLOCK
 62
0
100
AcDbBlockEnd
  0
BLOCK
  5
230
100
AcDbEntity
  8
0
100
AcDbBlockBegin
 62
7
  6
CONTINUOUS
  2
*D1
 70
65
 10
0.0
 20
0.0
  3
*D1
  1

  0
LINE
  5
231
100
AcDbEntity
  8
0
100
AcDbLine
 62
7
  6
CONTINUOUS
 10
248.5364073485
 20
153.3513838867
 11
248.5364073485
 21
163.3513838864
  0
LINE
  5
232
100
AcDbEntity
  8
0
100
AcDbLine
 62
7
  6
CONTINUOUS
 10
104.0364073485
 20
153.3513838867
 11
104.0364073485
 21
163.3513838864
  0
LINE
  5
233
100
AcDbEntity
  8
0
100
AcDbLine
 62
7
  6
CONTINUOUS
 10
248.5364073485
 20
161.8513838864
 11
176.2864073485
 21
161.8513838864
  0
LINE
  5
234
100
AcDbEntity
  8
0
100
AcDbLine
 62
7
  6
CONTINUOUS
 10
104.0364073485
 20
161.8513838864
 11
176.2864073485
 21
161.8513838864
  0
INSERT
  5
235
100
AcDbEntity
  8
0
100
AcDbBlockReference
 62
7
  6
CONTINUOUS
  2
_FILLED
 10
248.5364073485
 20
161.8513838864
 41
3.0
 42
3.0
 43
3.0
  0
INSERT
  5
236
100
AcDbEntity
  8
0
100
AcDbBlockReference
 62
7
  6
CONTINUOUS
  2
_FILLED
 10
104.0364073485
 20
161.8513838864
 41
3.0
 42
3.0
 43
3.0
 50
180.0
  0
ENDBLK
  5
237
100
AcDbEntity
  8
0
  6
BYBLOCK
 62
0
100
AcDbBlockEnd
  0
BLOCK
  5
238
100
AcDbEntity
  8
0
100
AcDbBlockBegin
 62
7
  6
CONTINUOUS
  2
*D2
 70
65
 10
0.0
 20
0.0
  3
*D2
  1

  0
LINE
  5
239
100
AcDbEntity
  8
0
100
AcDbLine
 62
7
  6
CONTINUOUS
 10
64.1234375
 20
153.3513838867
 11
64.1234375
 21
163.3513838864
  0
LINE
  5
23A
100
AcDbEntity
  8
0
100
AcDbLine
 62
7
  6
CONTINUOUS
 10
71.6734375
 20
152.3897871143
 11
71.6734375
 21
163.3513838864
  0
LINE
  5
23B
100
AcDbEntity
  8
0
100
AcDbLine
 62
7
  6
CONTINUOUS
 10
64.1234375
 20
161.8513838864
 11
67.8984375
 21
161.8513838864
  0
LINE
  5
23C
100
AcDbEntity
  8
0
100
AcDbLine
 62
7
  6
CONTINUOUS
 10
71.6734375
 20
161.8513838864
 11
67.8984375
 21
161.8513838864
  0
LINE
  5
23D
100
AcDbEntity
  8
0
100
AcDbLine
 62
7
  6
CONTINUOUS
 10
67.8984375
 20
161.8513838864
 11
84.9180489082
 21
161.8513838864
  0
INSERT
  5
23E
100
AcDbEntity
  8
0
100
AcDbBlockReference
 62
7
  6
CONTINUOUS
  2
_FILLED
 10
64.1234375
 20
161.8513838864
 41
3.0
 42
3.0
 43
3.0
 50
180.0
  0
INSERT
  5
23F
100
AcDbEntity
  8
0
100
AcDbBlockReference
 62
7
  6
CONTINUOUS
  2
_FILLED
 10
71.6734375
 20
161.8513838864
 41
3.0
 42
3.0
 43
3.0
  0
ENDBLK
  5
240
100
AcDbEntity
  8
0
  6
BYBLOCK
 62
0
100
AcDbBlockEnd
  0
BLOCK
  5
241
100
AcDbEntity
  8
0
100
AcDbBlockBegin
 62
7
  6
CONTINUOUS
  2
*D3
 70
65
 10
0.0
 20
0.0
  3
*D3
  1

  0
LINE
  5
242
100
AcDbEntity
  8
0
100
AcDbLine
 62
7
  6
CONTINUOUS
 10
74.6734375
 20
135.3977006799
 11
74.6734375
 21
173.3513838864
  0
LINE
  5
243
100
AcDbEntity
  8
0
100
AcDbLine
 62
7
  6
CONTINUOUS
 10
64.1234375
 20
153.3513838867
 11
64.1234375
 21
173.3513838864
  0
LINE
  5
244
100
AcDbEntity
  8
0
100
AcDbLine
 62
7
  6
CONTINUOUS
 10
74.6734375
 20
171.8513838864
 11
69.3984375
 21
171.8513838864
  0
LINE
  5
245
100
AcDbEntity
  8
0
100
AcDbLine
 62
7
  6
CONTINUOUS
 10
69.3984375
 20
171.8513838864
 11
85.9960637714
 21
171.8513838864
  0
LINE
  5
246
100
AcDbEntity
  8
0
100
AcDbLine
 62
7
  6
CONTINUOUS
 10
64.1234375
 20
171.8513838864
 11
69.3984375
 21
171.8513838864
  0
INSERT
  5
247
100
AcDbEntity
  8
0
100
AcDbBlockReference
 62
7
  6
CONTINUOUS
  2
_FILLED
 10
74.6734375
 20
171.8513838864
 41
3.0
 42
3.0
 43
3.0
  0
INSERT
  5
248
100
AcDbEntity
  8
0
100
AcDbBlockReference
 62
7
  6
CONTINUOUS
  2
_FILLED
 10
64.1234375
 20
171.8513838864
 41
3.0
 42
3.0
 43
3.0
 50
180.0
  0
ENDBLK
  5
249
100
AcDbEntity
  8
0
  6
BYBLOCK
 62
0
100
AcDbBlockEnd
  0
ENDSEC
  0
SECTION
  2
ENTITIES
  0
DIMENSION
  5
24A
100
AcDbEntity
  8
0
100
AcDbDimension
 62
7
  6
CONTINUOUS
  2
*D0
 10
256.5864073485
 20
153.8513838867
 11
256.5864073485
 21
106.4942410296
 70
160
 71
2
 72
2
 41
0.9
 42
90.0
  3
DIMSTYLE_1
100
AcDbAlignedDimension
 13
247.5364073485
 23
63.8513838867
 14
247.5364073485
 24
153.8513838867
 50
90.0
100
AcDbRotatedDimension
  0
DIMENSION
  5
24B
100
AcDbEntity
  8
0
100
AcDbDimension
 62
7
  6
CONTINUOUS
  2
*D1
 10
104.0364073485
 20
161.8513838864
 11
171.1435502056
 21
161.8513838864
 70
160
 71
2
 72
2
 41
0.9
 42
144.5
  3
DIMSTYLE_1
100
AcDbAlignedDimension
 13
248.5364073485
 23
152.8513838867
 14
104.0364073485
 24
152.8513838867
 50
180.0
100
AcDbRotatedDimension
  0
DIMENSION
  5
24C
100
AcDbEntity
  8
0
100
AcDbDimension
 62
7
  6
CONTINUOUS
  2
*D2
 10
71.6734375
 20
161.8513838864
 11
76.5609060511
 21
161.8513838864
 70
160
 71
1
 72
2
 41
0.9
 42
7.55
  3
DIMSTYLE_1
100
AcDbAlignedDimension
 13
64.1234375
 23
152.8513838867
 14
71.6734375
 24
151.8897871143
100
AcDbRotatedDimension
  0
DIMENSION
  5
24D
100
AcDbEntity
  8
0
100
AcDbDimension
 62
7
  6
CONTINUOUS
  2
*D3
 10
64.1234375
 20
171.8513838864
 11
75.9246352
 21
171.8513838864
 70
160
 71
1
 72
2
 41
0.9
 42
10.55
  3
DIMSTYLE_1
100
AcDbAlignedDimension
 13
74.6734375
 23
134.8977006799
 14
64.1234375
 24
152.8513838867
 50
180.0
100
AcDbRotatedDimension
  0
LINE
  5
24E
100
AcDbEntity
  8
SMUSSO
100
AcDbLine
 62
7
  6
CONTINUOUS
 10
104.0364073485
 20
152.8513838867
 11
104.0364073485
 21
64.8513838867
  0
LINE
  5
24F
100
AcDbEntity
  8
SMUSSO
100
AcDbLine
 62
7
  6
CONTINUOUS
 10
105.0364073485
 20
152.8513838867
 11
105.0364073485
 21
64.8513838867
  0
LINE
  5
250
100
AcDbEntity
  8
SMUSSO
100
AcDbLine
 62
250
  6
CONTINUOUS
 10
105.0364073485
 20
64.8513838867
 11
105.0364073485
 21
63.8513838867
  0
LINE
  5
251
100
AcDbEntity
  8
SMUSSO
100
AcDbLine
 62
250
  6
CONTINUOUS
 10
105.0364073485
 20
152.8513838867
 11
105.0364073485
 21
153.8513838867
  0
LINE
  5
252
100
AcDbEntity
  8
RACCORDO
100
AcDbLine
 62
7
  6
CONTINUOUS
 10
131.1864073485
 20
130.2513838867
 11
131.1864073485
 21
87.4513838867
  0
LINE
  5
253
100
AcDbEntity
  8
SMUSSO
100
AcDbLine
 62
7
  6
CONTINUOUS
 10
105.0364073485
 20
63.8513838867
 11
247.5364073485
 21
63.8513838867
  0
LWPOLYLINE
  5
254
100
AcDbEntity
  8
0
100
AcDbPolyline
 62
7
  6
CONTINUOUS
 90
3
 70
0
 43
0.3500000006
 10
171.1435490112
 20
164.7442401123
 10
172.0006869507
 20
165.6013780518
 10
172.0006869507
 20
162.6013771362
  0
LINE
  5
255
100
AcDbEntity
  8
SMUSSO
100
AcDbLine
 62
250
  6
CONTINUOUS
 10
105.0364073485
 20
64.8513838867
 11
104.0364073485
 21
64.8513838867
  0
LINE
  5
256
100
AcDbEntity
  8
SMUSSO
100
AcDbLine
 62
7
  6
CONTINUOUS
 10
105.0364073485
 20
64.8513838867
 11
247.5364073485
 21
64.8513838867
  0
LINE
  5
257
100
AcDbEntity
  8
SMUSSO
100
AcDbLine
 62
250
  6
CONTINUOUS
 10
247.5364073485
 20
64.8513838867
 11
248.5364073485
 21
64.8513838867
  0
LINE
  5
258
100
AcDbEntity
  8
RACCORDO
100
AcDbLine
 62
7
  6
CONTINUOUS
 10
132.3864073485
 20
86.2513838867
 11
220.1864073485
 21
86.2513838867
  0
LWPOLYLINE
  5
259
100
AcDbEntity
  8
0
100
AcDbPolyline
 62
7
  6
CONTINUOUS
 90
3
 70
0
 43
0.3500000006
 10
178.2864135132
 20
162.8871018677
 10
178.2149732666
 20
162.6728173828
 10
178.0721290283
 20
162.3870926514
  0
LWPOLYLINE
  5
25A
100
AcDbEntity
  8
0
100
AcDbPolyline
 62
7
  6
CONTINUOUS
 90
2
 70
0
 43
0.3500000006
 10
173.8578433228
 20
162.6013771362
 10
173.8578433228
 20
164.1013866577
  0
LWPOLYLINE
  5
25B
100
AcDbEntity
  8
0
100
AcDbPolyline
 62
7
  6
CONTINUOUS
 90
2
 70
0
 43
0.3500000006
 10
176.2149726563
 20
162.6013771362
 10
176.2149726563
 20
164.1013866577
  0
LWPOLYLINE
  5
25C
100
AcDbEntity
  8
0
100
AcDbPolyline
 62
7
  6
CONTINUOUS
 90
13
 70
0
 43
0.3500000006
 10
254.9792675171
 20
108.8513833923
 10
253.6935424805
 20
108.8513833923
 10
253.2649735107
 20
109.0656678772
 10
252.836404541
 20
109.4942368469
 10
252.836404541
 20
109.7085303955
 10
253.2649735107
 20
110.1370993652
 10
253.6935424805
 20
110.3513838501
 10
254.9792675171
 20
110.3513838501
 10
255.4078364868
 20
110.1370993652
 10
255.8364054565
 20
109.7085303955
 10
255.8364054565
 20
109.4942368469
 10
255.4078364868
 20
109.0656678772
 10
254.9792675171
 20
108.8513833923
  0
LINE
  5
25D
100
AcDbEntity
  8
RACCORDO
100
AcDbLine
 62
7
  6
CONTINUOUS
 10
220.1864073485
 20
131.4513838867
 11
132.3864073485
 21
131.4513838867
  0
LWPOLYLINE
  5
25E
100
AcDbEntity
  8
0
100
AcDbPolyline
 62
7
  6
CONTINUOUS
 90
10
 70
0
 43
0.3500000006
 10
178.2149732666
 20
163.1013863525
 10
178.2864135132
 20
162.9585239868
 10
178.2864135132
 20
162.8871018677
 10
178.1435511475
 20
162.744239502
 10
178.0721290283
 20
162.744239502
 10
178.0006887817
 20
162.8156616211
 10
178.0006887817
 20
162.8871018677
 10
178.0721290283
 20
163.0299642334
 10
178.1435511475
 20
163.1013863525
 10
178.2149732666
 20
163.1013863525
  0
LINE
  5
25F
100
AcDbEntity
  8
RACCORDO
100
AcDbLine
 62
7
  6
CONTINUOUS
 10
221.3864073485
 20
87.4513838867
 11
221.3864073485
 21
130.2513838867
  0
LINE
  5
260
100
AcDbEntity
  8
SMUSSO
100
AcDbLine
 62
7
  6
CONTINUOUS
 10
247.5364073485
 20
152.8513838867
 11
105.0364073485
 21
152.8513838867
  0
LINE
  5
261
100
AcDbEntity
  8
SMUSSO
100
AcDbLine
 62
250
  6
CONTINUOUS
 10
105.0364073485
 20
152.8513838867
 11
104.0364073485
 21
152.8513838867
  0
LINE
  5
262
100
AcDbEntity
  8
SMUSSO
100
AcDbLine
 62
250
  6
CONTINUOUS
 10
247.5364073485
 20
152.8513838867
 11
248.5364073485
 21
152.8513838867
  0
LINE
  5
263
100
AcDbEntity
  8
SMUSSO
100
AcDbLine
 62
7
  6
CONTINUOUS
 10
247.5364073485
 20
153.8513838867
 11
105.0364073485
 21
153.8513838867
  0
LWPOLYLINE
  5
264
100
AcDbEntity
  8
0
100
AcDbPolyline
 62
7
  6
CONTINUOUS
 90
8
 70
0
 43
0.3500000006
 10
179.2864138184
 20
162.6013771362
 10
180.1435517578
 20
162.6013771362
 10
180.5721207275
 20
163.0299642334
 10
180.5721207275
 20
163.8871021729
 10
180.1435517578
 20
164.3156711426
 10
179.2864138184
 20
164.3156711426
 10
179.2864138184
 20
165.6013780518
 10
180.5721207275
 20
165.6013780518
  0
LWPOLYLINE
  5
265
100
AcDbEntity
  8
0
100
AcDbPolyline
 62
7
  6
CONTINUOUS
 90
3
 70
0
 43
0.3500000006
 10
176.7149818726
 20
163.2442487183
 10
175.2149723511
 20
163.2442487183
 10
175.8578439331
 20
165.6013780518
  0
LWPOLYLINE
  5
266
100
AcDbEntity
  8
0
100
AcDbPolyline
 62
7
  6
CONTINUOUS
 90
3
 70
0
 43
0.3500000006
 10
174.3578344116
 20
163.2442487183
 10
172.8578430176
 20
163.2442487183
 10
173.5006964722
 20
165.6013780518
  0
LWPOLYLINE
  5
267
100
AcDbEntity
  8
0
100
AcDbPolyline
 62
7
  6
CONTINUOUS
 90
10
 70
0
 43
0.3500000006
 10
255.8364054565
 20
106.9228139648
 10
254.9792675171
 20
107.7799519043
 10
254.1221295776
 20
107.9942454529
 10
253.2649735107
 20
107.9942454529
 10
252.836404541
 20
107.5656674194
 10
252.836404541
 20
106.9228139648
 10
253.2649735107
 20
106.4942449951
 10
254.1221295776
 20
106.4942449951
 10
254.5506985474
 20
106.9228139648
 10
254.5506985474
 20
107.8513830872
  0
LINE
  5
268
100
AcDbEntity
  8
SMUSSO
100
AcDbLine
 62
250
  6
CONTINUOUS
 10
247.5364073485
 20
64.8513838867
 11
247.5364073485
 21
63.8513838867
  0
LINE
  5
269
100
AcDbEntity
  8
SMUSSO
100
AcDbLine
 62
7
  6
CONTINUOUS
 10
247.5364073485
 20
64.8513838867
 11
247.5364073485
 21
152.8513838867
  0
LINE
  5
26A
100
AcDbEntity
  8
SMUSSO
100
AcDbLine
 62
250
  6
CONTINUOUS
 10
247.5364073485
 20
152.8513838867
 11
247.5364073485
 21
153.8513838867
  0
LINE
  5
26B
100
AcDbEntity
  8
SMUSSO
100
AcDbLine
 62
7
  6
CONTINUOUS
 10
248.5364073485
 20
64.8513838867
 11
248.5364073485
 21
152.8513838867
  0
LINE
  5
26C
100
AcDbEntity
  8
SMUSSO
100
AcDbLine
 62
7
  6
CONTINUOUS
 10
65.1234375
 20
63.8513838867
 11
66.6234375
 21
63.8513838867
  0
LWPOLYLINE
  5
26D
100
AcDbEntity
  8
0
100
AcDbPolyline
 62
7
  6
CONTINUOUS
 90
3
 70
0
 43
0.3500000006
 10
75.9246356964
 20
174.7442431641
 10
76.7817781677
 20
175.6013811035
 10
76.7817781677
 20
172.601380188
  0
LINE
  5
26E
100
AcDbEntity
  8
0
100
AcDbLine
 62
250
  6
CONTINUOUS
 10
70.1742350589
 20
65.5159179169
 11
71.6734375
 21
65.8129806592
  0
LINE
  5
26F
100
AcDbEntity
  8
ASSI
100
AcDbLine
 62
250
  6
CONTINUOUS
 10
70.1742350589
 20
65.5159179169
 11
71.6734375
 21
65.8129806592
  0
LINE
  5
270
100
AcDbEntity
  8
0
100
AcDbLine
 62
7
  6
CONTINUOUS
 10
67.2734375
 20
64.5007641984
 11
70.1734375
 21
64.5513838867
  0
LINE
  5
271
100
AcDbEntity
  8
ASSI
100
AcDbLine
 62
7
  6
CONTINUOUS
 10
67.2734375
 20
64.5007641984
 11
70.1734375
 21
64.5513838867
  0
LINE
  5
272
100
AcDbEntity
  8
0
100
AcDbLine
 62
250
  6
CONTINUOUS
 10
67.2734375
 20
65.5006118936
 11
70.1734375
 21
65.5512315819
  0
LINE
  5
273
100
AcDbEntity
  8
ASSI
100
AcDbLine
 62
250
  6
CONTINUOUS
 10
67.2734375
 20
65.5006118936
 11
70.1734375
 21
65.5512315819
  0
LINE
  5
274
100
AcDbEntity
  8
SMUSSO
100
AcDbLine
 62
250
  6
CONTINUOUS
 10
64.1234375
 20
64.8513838867
 11
67.1234375
 21
64.8513838867
  0
LINE
  5
275
100
AcDbEntity
  8
RACCORDO
100
AcDbLine
 62
7
  6
CONTINUOUS
 10
67.1234375
 20
69.8513838867
 11
67.2734375
 21
69.8513838867
  0
LINE
  5
276
100
AcDbEntity
  8
RACCORDO
100
AcDbLine
 62
250
  6
CONTINUOUS
 10
67.1234375
 20
71.8513838867
 11
67.2734375
 21
71.8513838867
  0
LINE
  5
277
100
AcDbEntity
  8
0
100
AcDbLine
 62
250
  6
CONTINUOUS
 10
69.6919315
 20
72.6902428867
 11
67.7919715
 21
72.6902428867
  0
LINE
  5
278
100
AcDbEntity
  8
SMUSSO
100
AcDbLine
 62
7
  6
CONTINUOUS
 10
64.1234375
 20
152.8513838867
 11
65.1234375
 21
153.8513838867
  0
LINE
  5
279
100
AcDbEntity
  8
0
100
AcDbLine
 62
250
  6
CONTINUOUS
 10
69.0998085
 20
71.7735648867
 11
67.7920855
 21
71.4114198867
  0
LINE
  5
27A
100
AcDbEntity
  8
0
100
AcDbLine
 62
250
  6
CONTINUOUS
 10
69.6919315
 20
75.2270748867
 11
67.7920855
 21
75.0494178867
  0
LINE
  5
27B
100
AcDbEntity
  8
0
100
AcDbLine
 62
250
  6
CONTINUOUS
 10
68.4565395
 20
74.7576448867
 11
69.6919315
 21
74.8391218867
  0
LINE
  5
27C
100
AcDbEntity
  8
0
100
AcDbLine
 62
250
  6
CONTINUOUS
 10
67.7919715
 20
73.0868148867
 11
69.6919315
 21
73.0868148867
  0
LINE
  5
27D
100
AcDbEntity
  8
0
100
AcDbLine
 62
250
  6
CONTINUOUS
 10
69.6919315
 20
73.6796928867
 11
68.4513675
 21
73.7652738867
  0
LINE
  5
27E
100
AcDbEntity
  8
0
100
AcDbLine
 62
250
  6
CONTINUOUS
 10
67.7920855
 20
73.4718478867
 11
69.6919315
 21
73.3003028867
  0
LINE
  5
27F
100
AcDbEntity
  8
0
100
AcDbLine
 62
250
  6
CONTINUOUS
 10
67.7920855
 20
72.1467728867
 11
69.0998085
 21
71.7735648867
  0
LINE
  5
280
100
AcDbEntity
  8
0
100
AcDbLine
 62
250
  6
CONTINUOUS
 10
69.6919315
 20
71.9323878867
 11
67.7920855
 21
72.5430738867
  0
LINE
  5
281
100
AcDbEntity
  8
SMUSSO
100
AcDbLine
 62
7
  6
CONTINUOUS
 10
64.1234375
 20
64.8513838867
 11
65.1234375
 21
63.8513838867
  0
LINE
  5
282
100
AcDbEntity
  8
0
100
AcDbLine
 62
250
  6
CONTINUOUS
 10
69.3126545
 20
76.3311118867
 11
69.6919315
 21
76.4338448867
  0
LINE
  5
283
100
AcDbEntity
  8
0
100
AcDbLine
 62
250
  6
CONTINUOUS
 10
68.3141145
 20
76.0696268867
 11
69.0191715
 21
76.2518568867
  0
LWPOLYLINE
  5
284
100
AcDbEntity
  8
0
100
AcDbPolyline
 62
250
  6
CONTINUOUS
 90
53
 70
0
 10
68.3421568534
 20
77.8847914261
 10
68.3353055375
 20
77.8845856747
 10
68.3285234928
 20
77.8841796211
 10
68.3217944163
 20
77.883576351
 10
68.3151020053
 20
77.8827789502
 10
68.3084299569
 20
77.8817905045
 10
68.3017659485
 20
77.8806137191
 10
68.2951135785
 20
77.8792497766
 10
68.2884804258
 20
77.8776994791
 10
68.2818740689
 20
77.8759636287
 10
68.2753020868
 20
77.8740430273
 10
68.2698563149
 20
77.8723016999
 10
68.2644389868
 20
77.8704314396
 10
68.2590494115
 20
77.8684310559
 10
68.2536885462
 20
77.8663000511
 10
68.2483639384
 20
77.8640406988
 10
68.2430847831
 20
77.8616559658
 10
68.2368201159
 20
77.8586313846
 10
68.2306342807
 20
77.8554261991
 10
68.2245274167
 20
77.8520360816
 10
68.2184996631
 20
77.8484567042
 10
68.2125511592
 20
77.8446837394
 10
68.2066844534
 20
77.840713899
 10
68.2009117305
 20
77.8365480535
 10
68.1952475844
 20
77.8321881134
 10
68.1897066091
 20
77.8276359888
 10
68.1843033984
 20
77.8228935901
 10
68.1790509331
 20
77.8179641766
 10
68.1739557404
 20
77.812856404
 10
68.1690227342
 20
77.8075802771
 10
68.1642568283
 20
77.8021458009
 10
68.1596629368
 20
77.7965629801
 10
68.1552446616
 20
77.7908402773
 10
68.1510003565
 20
77.784979986
 10
68.1469270634
 20
77.7789828574
 10
68.1430218243
 20
77.7728496427
 10
68.1392816809
 20
77.7665810931
 10
68.1362899125
 20
77.7612559475
 10
68.1334152494
 20
77.7558466837
 10
68.1306622014
 20
77.7503626442
 10
68.1280343358
 20
77.7448114167
 10
68.1255314508
 20
77.739193569
 10
68.1231524021
 20
77.7335079138
 10
68.1204601124
 20
77.7265957044
 10
68.1179468165
 20
77.7195926175
 10
68.1156148317
 20
77.7125071277
 10
68.1134664753
 20
77.7053477098
 10
68.1115040644
 20
77.6981228383
 10
68.1097298776
 20
77.6908365401
 10
68.1081460374
 20
77.6834750492
 10
68.106754628
 20
77.6760201518
 10
68.1055577333
 20
77.6684536339
 10
68.104557437
 20
77.6607572817
  0
LINE
  5
285
100
AcDbEntity
  8
0
100
AcDbLine
 62
250
  6
CONTINUOUS
 10
69.691931246
 20
76.9682684895
 11
67.8142820413
 21
76.9682684895
  0
LINE
  5
286
100
AcDbEntity
  8
0
100
AcDbLine
 62
250
  6
CONTINUOUS
 10
68.1157430768
 20
77.3500953898
 11
68.6372877642
 21
77.3500953898
  0
LINE
  5
287
100
AcDbEntity
  8
0
100
AcDbLine
 62
250
  6
CONTINUOUS
 10
68.9484365835
 20
77.3632451316
 11
69.691931246
 21
77.3632451316
  0
LINE
  5
288
100
AcDbEntity
  8
0
100
AcDbLine
 62
250
  6
CONTINUOUS
 10
68.7938736925
 20
77.9878364954
 11
68.8051001242
 21
77.9878364954
  0
LINE
  5
289
100
AcDbEntity
  8
0
100
AcDbLine
 62
250
  6
CONTINUOUS
 10
69.0191715
 20
75.8721668867
 11
68.3141145
 21
76.0696268867
  0
LINE
  5
28A
100
AcDbEntity
  8
0
100
AcDbLine
 62
250
  6
CONTINUOUS
 10
69.6919315
 20
75.6816168867
 11
69.3126545
 21
75.7910458867
  0
LINE
  5
28B
100
AcDbEntity
  8
0
100
AcDbLine
 62
250
  6
CONTINUOUS
 10
67.7920855
 20
75.8852598867
 11
69.6919315
 21
75.2893468867
  0
LINE
  5
28C
100
AcDbEntity
  8
0
100
AcDbLine
 62
250
  6
CONTINUOUS
 10
67.7920855
 20
74.6570478867
 11
68.8468855
 21
74.2604758867
  0
LINE
  5
28D
100
AcDbEntity
  8
0
100
AcDbLine
 62
250
  6
CONTINUOUS
 10
69.6919315
 20
74.2861198867
 11
68.4565395
 21
74.7576448867
  0
LWPOLYLINE
  5
28E
100
AcDbEntity
  8
0
100
AcDbPolyline
 62
250
  6
CONTINUOUS
 90
3
 70
0
 10
69.4226915697
 20
77.8922243458
 10
69.3583490308
 20
77.8739607896
 10
69.295308609
 20
77.8558351682
  0
LINE
  5
28F
100
AcDbEntity
  8
0
100
AcDbLine
 62
250
  6
CONTINUOUS
 10
69.1313553827
 20
78.2038415417
 11
69.2219668498
 21
78.2284038899
  0
LINE
  5
290
100
AcDbEntity
  8
0
100
AcDbLine
 62
250
  6
CONTINUOUS
 10
69.6088495375
 20
78.3298618821
 11
69.691931246
 21
78.3519974371
  0
LINE
  5
291
100
AcDbEntity
  8
0
100
AcDbLine
 62
250
  6
CONTINUOUS
 10
69.2219668498
 20
78.2284038899
 11
69.3531713243
 21
78.2632291882
  0
LINE
  5
292
100
AcDbEntity
  8
0
100
AcDbLine
 62
250
  6
CONTINUOUS
 10
69.3531713243
 20
78.2632291882
 11
69.6088495375
 21
78.3298618821
  0
LINE
  5
293
100
AcDbEntity
  8
0
100
AcDbLine
 62
7
  6
CONTINUOUS
 10
72.5992746978
 20
81.7012544481
 11
71.6734375
 21
81.6996385557
  0
LINE
  5
294
100
AcDbEntity
  8
ASSI
100
AcDbLine
 62
7
  6
CONTINUOUS
 10
72.5992746978
 20
81.7012544481
 11
71.6734375
 21
81.6996385557
  0
LINE
  5
295
100
AcDbEntity
  8
0
100
AcDbLine
 62
250
  6
CONTINUOUS
 10
72.5992100837
 20
81.9237046428
 11
71.6734375
 21
81.9232864483
  0
LINE
  5
296
100
AcDbEntity
  8
ASSI
100
AcDbLine
 62
250
  6
CONTINUOUS
 10
72.5992100837
 20
81.9237046428
 11
71.6734375
 21
81.9232864483
  0
LINE
  5
297
100
AcDbEntity
  8
0
100
AcDbLine
 62
7
  6
CONTINUOUS
 10
74.1234867322
 20
82.5098200264
 11
71.6734375
 21
82.4955660569
  0
LINE
  5
298
100
AcDbEntity
  8
ASSI
100
AcDbLine
 62
7
  6
CONTINUOUS
 10
74.1234867322
 20
82.5098200264
 11
71.6734375
 21
82.4955660569
  0
LINE
  5
299
100
AcDbEntity
  8
0
100
AcDbLine
 62
250
  6
CONTINUOUS
 10
74.1234867322
 20
82.597686505
 11
71.6734375
 21
82.5834325355
  0
LINE
  5
29A
100
AcDbEntity
  8
ASSI
100
AcDbLine
 62
250
  6
CONTINUOUS
 10
74.1234867322
 20
82.597686505
 11
71.6734375
 21
82.5834325355
  0
LINE
  5
29B
100
AcDbEntity
  8
0
100
AcDbLine
 62
7
  6
CONTINUOUS
 10
74.6734375
 20
82.69902268
 11
74.5528747329
 21
82.69902268
  0
LINE
  5
29C
100
AcDbEntity
  8
ASSI
100
AcDbLine
 62
7
  6
CONTINUOUS
 10
74.6734375
 20
82.69902268
 11
74.5528747329
 21
82.69902268
  0
LINE
  5
29D
100
AcDbEntity
  8
0
100
AcDbLine
 62
7
  6
CONTINUOUS
 10
72.6235618789
 20
83.6513838867
 11
71.6734375
 21
83.6513838867
  0
LINE
  5
29E
100
AcDbEntity
  8
ASSI
100
AcDbLine
 62
7
  6
CONTINUOUS
 10
72.6235618789
 20
83.6513838867
 11
71.6734375
 21
83.6513838867
  0
LINE
  5
29F
100
AcDbEntity
  8
0
100
AcDbLine
 62
7
  6
CONTINUOUS
 10
71.6734375
 20
83.8013838867
 11
71.8234375
 21
83.8013838867
  0
LINE
  5
2A0
100
AcDbEntity
  8
ASSI
100
AcDbLine
 62
7
  6
CONTINUOUS
 10
71.6734375
 20
83.8013838867
 11
71.8234375
 21
83.8013838867
  0
LINE
  5
2A1
100
AcDbEntity
  8
0
100
AcDbLine
 62
7
  6
CONTINUOUS
 10
72.1234375
 20
83.8013838867
 11
72.3234375
 21
83.8013838867
  0
LINE
  5
2A2
100
AcDbEntity
  8
ASSI
100
AcDbLine
 62
7
  6
CONTINUOUS
 10
72.1234375
 20
83.8013838867
 11
72.3234375
 21
83.8013838867
  0
LINE
  5
2A3
100
AcDbEntity
  8
0
100
AcDbLine
 62
7
  6
CONTINUOUS
 10
74.1515008457
 20
83.5035775522
 11
74.6734375
 21
83.49902268
  0
LINE
  5
2A4
100
AcDbEntity
  8
ASSI
100
AcDbLine
 62
7
  6
CONTINUOUS
 10
74.1515008457
 20
83.5035775522
 11
74.6734375
 21
83.49902268
  0
LINE
  5
2A5
100
AcDbEntity
  8
0
100
AcDbLine
 62
7
  6
CONTINUOUS
 10
71.6734375
 20
83.0955640122
 11
74.4839046912
 21
82.9713972191
  0
LINE
  5
2A6
100
AcDbEntity
  8
ASSI
100
AcDbLine
 62
7
  6
CONTINUOUS
 10
71.6734375
 20
83.0955640122
 11
74.4839046912
 21
82.9713972191
  0
LINE
  5
2A7
100
AcDbEntity
  8
0
100
AcDbLine
 62
7
  6
CONTINUOUS
 10
72.7230655979
 20
83.6464210769
 11
74.6734375
 21
83.4513838867
  0
LINE
  5
2A8
100
AcDbEntity
  8
ASSI
100
AcDbLine
 62
7
  6
CONTINUOUS
 10
72.7230655979
 20
83.6464210769
 11
74.6734375
 21
83.4513838867
  0
LWPOLYLINE
  5
2A9
100
AcDbEntity
  8
0
100
AcDbPolyline
 62
250
  6
CONTINUOUS
 90
5
 70
0
 10
74.212426619
 20
135.1612413279
 10
74.200693772
 20
135.15742672
 10
74.1885171942
 20
135.1521471119
 10
74.1759673281
 20
135.1454313131
 10
74.1631172244
 20
135.1373178423
  0
LWPOLYLINE
  5
2AA
100
AcDbEntity
  8
ASSI
100
AcDbPolyline
 62
250
  6
CONTINUOUS
 90
5
 70
0
 10
74.212426619
 20
135.1612413279
 10
74.200693772
 20
135.15742672
 10
74.1885171942
 20
135.1521471119
 10
74.1759673281
 20
135.1454313131
 10
74.1631172244
 20
135.1373178423
  0
LWPOLYLINE
  5
2AB
100
AcDbEntity
  8
0
100
AcDbPolyline
 62
250
  6
CONTINUOUS
 90
5
 70
0
 10
74.2124170055
 20
82.5415290192
 10
74.2006857814
 20
82.5453440928
 10
74.1885125379
 20
82.5506229205
 10
74.1759671854
 20
82.5573365437
 10
74.1631201931
 20
82.5654479184
  0
LWPOLYLINE
  5
2AC
100
AcDbEntity
  8
ASSI
100
AcDbPolyline
 62
250
  6
CONTINUOUS
 90
5
 70
0
 10
74.2124170055
 20
82.5415290192
 10
74.2006857814
 20
82.5453440928
 10
74.1885125379
 20
82.5506229205
 10
74.1759671854
 20
82.5573365437
 10
74.1631201931
 20
82.5654479184
  0
LWPOLYLINE
  5
2AD
100
AcDbEntity
  8
0
100
AcDbPolyline
 62
250
  6
CONTINUOUS
 90
4
 70
0
 10
74.1631172244
 20
135.1373178423
 10
74.1500393274
 20
135.1278526036
 10
74.1368047475
 20
135.1170872241
 10
74.1234867322
 20
135.1050812684
  0
LWPOLYLINE
  5
2AE
100
AcDbEntity
  8
ASSI
100
AcDbPolyline
 62
250
  6
CONTINUOUS
 90
4
 70
0
 10
74.1631172244
 20
135.1373178423
 10
74.1500393274
 20
135.1278526036
 10
74.1368047475
 20
135.1170872241
 10
74.1234867322
 20
135.1050812684
  0
LWPOLYLINE
  5
2AF
100
AcDbEntity
  8
0
100
AcDbPolyline
 62
250
  6
CONTINUOUS
 90
4
 70
0
 10
74.1631201931
 20
82.5654479184
 10
74.1500429821
 20
82.5749123599
 10
74.136807422
 20
82.5856782556
 10
74.1234867322
 20
82.597686505
  0
LWPOLYLINE
  5
2B0
100
AcDbEntity
  8
ASSI
100
AcDbPolyline
 62
250
  6
CONTINUOUS
 90
4
 70
0
 10
74.1631201931
 20
82.5654479184
 10
74.1500429821
 20
82.5749123599
 10
74.136807422
 20
82.5856782556
 10
74.1234867322
 20
82.597686505
  0
LINE
  5
2B1
100
AcDbEntity
  8
0
100
AcDbLine
 62
7
  6
CONTINUOUS
 10
71.8234375
 20
133.9013838867
 11
71.9734375
 21
134.0513838867
  0
LINE
  5
2B2
100
AcDbEntity
  8
ASSI
100
AcDbLine
 62
7
  6
CONTINUOUS
 10
71.8234375
 20
133.9013838867
 11
71.9734375
 21
134.0513838867
  0
LINE
  5
2B3
100
AcDbEntity
  8
0
100
AcDbLine
 62
7
  6
CONTINUOUS
 10
72.3234375
 20
133.9013838867
 11
72.4734375
 21
134.0513838867
  0
LINE
  5
2B4
100
AcDbEntity
  8
ASSI
100
AcDbLine
 62
7
  6
CONTINUOUS
 10
72.3234375
 20
133.9013838867
 11
72.4734375
 21
134.0513838867
  0
LINE
  5
2B5
100
AcDbEntity
  8
0
100
AcDbLine
 62
7
  6
CONTINUOUS
 10
71.8234375
 20
83.8013838867
 11
71.9734375
 21
83.6513838867
  0
LINE
  5
2B6
100
AcDbEntity
  8
ASSI
100
AcDbLine
 62
7
  6
CONTINUOUS
 10
71.8234375
 20
83.8013838867
 11
71.9734375
 21
83.6513838867
  0
LINE
  5
2B7
100
AcDbEntity
  8
0
100
AcDbLine
 62
7
  6
CONTINUOUS
 10
72.3234375
 20
83.8013838867
 11
72.4734375
 21
83.6513838867
  0
LINE
  5
2B8
100
AcDbEntity
  8
ASSI
100
AcDbLine
 62
7
  6
CONTINUOUS
 10
72.3234375
 20
83.8013838867
 11
72.4734375
 21
83.6513838867
  0
LWPOLYLINE
  5
2B9
100
AcDbEntity
  8
0
100
AcDbPolyline
 62
250
  6
CONTINUOUS
 90
8
 70
0
 10
72.694454987
 20
135.9273368666
 10
72.7028928147
 20
135.9378878686
 10
72.7109873056
 20
135.9472591627
 10
72.7185318766
 20
135.9551145996
 10
72.72524667
 20
135.9610956726
 10
72.7309945298
 20
135.9650370584
 10
72.7357249969
 20
135.9668456983
 10
72.7393437337
 20
135.9663996828
  0
LWPOLYLINE
  5
2BA
100
AcDbEntity
  8
ASSI
100
AcDbPolyline
 62
250
  6
CONTINUOUS
 90
8
 70
0
 10
72.694454987
 20
135.9273368666
 10
72.7028928147
 20
135.9378878686
 10
72.7109873056
 20
135.9472591627
 10
72.7185318766
 20
135.9551145996
 10
72.72524667
 20
135.9610956726
 10
72.7309945298
 20
135.9650370584
 10
72.7357249969
 20
135.9668456983
 10
72.7393437337
 20
135.9663996828
  0
LWPOLYLINE
  5
2BB
100
AcDbEntity
  8
0
100
AcDbPolyline
 62
250
  6
CONTINUOUS
 90
9
 70
0
 10
72.692867311
 20
81.7774385131
 10
72.7002418387
 20
81.7680685524
 10
72.707407683
 20
81.7594998355
 10
72.7142918737
 20
81.7518981334
 10
72.7207417511
 20
81.7455163982
 10
72.7265809069
 20
81.7406052888
 10
72.7316887814
 20
81.7373419491
 10
72.7359788732
 20
81.7358762108
 10
72.7393437337
 20
81.7363680906
  0
LWPOLYLINE
  5
2BC
100
AcDbEntity
  8
ASSI
100
AcDbPolyline
 62
250
  6
CONTINUOUS
 90
9
 70
0
 10
72.692867311
 20
81.7774385131
 10
72.7002418387
 20
81.7680685524
 10
72.707407683
 20
81.7594998355
 10
72.7142918737
 20
81.7518981334
 10
72.7207417511
 20
81.7455163982
 10
72.7265809069
 20
81.7406052888
 10
72.7316887814
 20
81.7373419491
 10
72.7359788732
 20
81.7358762108
 10
72.7393437337
 20
81.7363680906
  0
LWPOLYLINE
  5
2BD
100
AcDbEntity
  8
0
100
AcDbPolyline
 62
7
  6
CONTINUOUS
 90
3
 70
0
 43
0.3500000006
 10
80.7103482056
 20
172.8871049194
 10
80.6389170227
 20
172.6728204346
 10
80.4960637207
 20
172.3870957031
  0
LWPOLYLINE
  5
2BE
100
AcDbEntity
  8
0
100
AcDbPolyline
 62
250
  6
CONTINUOUS
 90
12
 70
0
 10
72.5992100837
 20
135.7790631306
 10
72.6076790561
 20
135.7937616593
 10
72.6162328739
 20
135.8083559331
 10
72.6248394654
 20
135.8227793343
 10
72.6334040363
 20
135.836868817
 10
72.6419519663
 20
135.8506517473
 10
72.6506189539
 20
135.8643098573
 10
72.6593583845
 20
135.877731997
 10
72.6681014982
 20
135.8907827688
 10
72.6769166863
 20
135.9035176358
 10
72.6857540044
 20
135.9157994997
 10
72.694454987
 20
135.9273368666
  0
LWPOLYLINE
  5
2BF
100
AcDbEntity
  8
ASSI
100
AcDbPolyline
 62
250
  6
CONTINUOUS
 90
12
 70
0
 10
72.5992100837
 20
135.7790631306
 10
72.6076790561
 20
135.7937616593
 10
72.6162328739
 20
135.8083559331
 10
72.6248394654
 20
135.8227793343
 10
72.6334040363
 20
135.836868817
 10
72.6419519663
 20
135.8506517473
 10
72.6506189539
 20
135.8643098573
 10
72.6593583845
 20
135.877731997
 10
72.6681014982
 20
135.8907827688
 10
72.6769166863
 20
135.9035176358
 10
72.6857540044
 20
135.9157994997
 10
72.694454987
 20
135.9273368666
  0
LWPOLYLINE
  5
2C0
100
AcDbEntity
  8
0
100
AcDbPolyline
 62
250
  6
CONTINUOUS
 90
14
 70
0
 10
72.5992100837
 20
81.9237046428
 10
72.605819142
 20
81.912195984
 10
72.6125562673
 20
81.9006206342
 10
72.6194052814
 20
81.8890174425
 10
72.6263117504
 20
81.8774859105
 10
72.6332926608
 20
81.8660105407
 10
72.6404325564
 20
81.8544767513
 10
72.6477164518
 20
81.8429335266
 10
72.6550964274
 20
81.8314775122
 10
72.6625941187
 20
81.8201022672
 10
72.6701642037
 20
81.8089087617
 10
72.6777510614
 20
81.7980136414
 10
72.685342198
 20
81.7874751563
 10
72.692867311
 20
81.7774385131
  0
LWPOLYLINE
  5
2C1
100
AcDbEntity
  8
ASSI
100
AcDbPolyline
 62
250
  6
CONTINUOUS
 90
14
 70
0
 10
72.5992100837
 20
81.9237046428
 10
72.605819142
 20
81.912195984
 10
72.6125562673
 20
81.9006206342
 10
72.6194052814
 20
81.8890174425
 10
72.6263117504
 20
81.8774859105
 10
72.6332926608
 20
81.8660105407
 10
72.6404325564
 20
81.8544767513
 10
72.6477164518
 20
81.8429335266
 10
72.6550964274
 20
81.8314775122
 10
72.6625941187
 20
81.8201022672
 10
72.6701642037
 20
81.8089087617
 10
72.6777510614
 20
81.7980136414
 10
72.685342198
 20
81.7874751563
 10
72.692867311
 20
81.7774385131
  0
LWPOLYLINE
  5
2C2
100
AcDbEntity
  8
0
100
AcDbPolyline
 62
7
  6
CONTINUOUS
 90
3
 70
0
 43
0.3500000006
 10
79.6323364563
 20
162.8871018677
 10
79.5609052734
 20
162.6728173828
 10
79.4180519714
 20
162.3870926514
  0
LWPOLYLINE
  5
2C3
100
AcDbEntity
  8
0
100
AcDbPolyline
 62
7
  6
CONTINUOUS
 90
3
 70
0
 10
74.6607622444
 20
134.8550839916
 10
74.6538504767
 20
134.8420006348
 10
74.645578585
 20
134.8279456042
  0
LWPOLYLINE
  5
2C4
100
AcDbEntity
  8
ASSI
100
AcDbPolyline
 62
7
  6
CONTINUOUS
 90
3
 70
0
 10
74.6607622444
 20
134.8550839916
 10
74.6538504767
 20
134.8420006348
 10
74.645578585
 20
134.8279456042
  0
LWPOLYLINE
  5
2C5
100
AcDbEntity
  8
0
100
AcDbPolyline
 62
7
  6
CONTINUOUS
 90
7
 70
0
 10
74.645578585
 20
82.8748221693
 10
74.6538498931
 20
82.8607680055
 10
74.6607614864
 20
82.8476851689
 10
74.6662370214
 20
82.8355736594
 10
74.6702100281
 20
82.824433477
 10
74.6726248457
 20
82.8142646217
 10
74.6734375
 20
82.8050670935
  0
LWPOLYLINE
  5
2C6
100
AcDbEntity
  8
ASSI
100
AcDbPolyline
 62
7
  6
CONTINUOUS
 90
7
 70
0
 10
74.645578585
 20
82.8748221693
 10
74.6538498931
 20
82.8607680055
 10
74.6607614864
 20
82.8476851689
 10
74.6662370214
 20
82.8355736594
 10
74.6702100281
 20
82.824433477
 10
74.6726248457
 20
82.8142646217
 10
74.6734375
 20
82.8050670935
  0
LINE
  5
2C7
100
AcDbEntity
  8
0
100
AcDbLine
 62
250
  6
CONTINUOUS
 10
67.8142820413
 20
76.9682684895
 11
67.80584831
 21
77.0266595436
  0
LWPOLYLINE
  5
2C8
100
AcDbEntity
  8
0
100
AcDbPolyline
 62
250
  6
CONTINUOUS
 90
33
 70
0
 10
67.80584831
 20
77.0266595436
 10
67.798057303
 20
77.0832682318
 10
67.7944380454
 20
77.1108792992
 10
67.7910197962
 20
77.1380226535
 10
67.7878069356
 20
77.1647270673
 10
67.7848019021
 20
77.1910290593
 10
67.7820071342
 20
77.2169651478
 10
67.7794250703
 20
77.2425718512
 10
67.7765009535
 20
77.2741671732
 10
67.7739215591
 20
77.305343257
 10
67.7716954495
 20
77.3361384682
 10
67.769831187
 20
77.3665911727
 10
67.768338127
 20
77.3967420084
 10
67.7672287972
 20
77.426640702
 10
67.7665165182
 20
77.4563392526
 10
67.7662146107
 20
77.4858896591
 10
67.766337656
 20
77.5153369649
 10
67.7669052769
 20
77.5446983908
 10
67.7679383565
 20
77.5739842019
 10
67.7694577782
 20
77.6032046633
 10
67.7714848615
 20
77.6323671508
 10
67.7740426714
 20
77.6614674832
 10
67.7771547092
 20
77.6904985896
 10
67.7808444761
 20
77.7194533994
 10
67.7851342361
 20
77.7483242841
 10
67.7900413042
 20
77.7771013835
 10
67.7955817577
 20
77.8057742796
 10
67.8017716743
 20
77.8343325544
 10
67.8072095207
 20
77.857087544
 10
67.813126518
 20
77.8797445634
 10
67.8195758713
 20
77.9022856675
 10
67.8266107854
 20
77.9246929111
 10
67.8342844654
 20
77.9469483492
  0
LINE
  5
2C9
100
AcDbEntity
  8
SMUSSO
100
AcDbLine
 62
7
  6
CONTINUOUS
 10
64.1234375
 20
64.8513838867
 11
64.1234375
 21
152.8513838867
  0
LINE
  5
2CA
100
AcDbEntity
  8
SMUSSO
100
AcDbLine
 62
7
  6
CONTINUOUS
 10
65.1234375
 20
63.8513838867
 11
65.1234375
 21
153.8513838867
  0
LINE
  5
2CB
100
AcDbEntity
  8
SMUSSO
100
AcDbLine
 62
7
  6
CONTINUOUS
 10
66.6234375
 20
153.8513838867
 11
66.6234375
 21
63.8513838867
  0
LINE
  5
2CC
100
AcDbEntity
  8
0
100
AcDbLine
 62
7
  6
CONTINUOUS
 10
70.1795832757
 20
65.3915087231
 11
70.1742350589
 21
65.5159179169
  0
LINE
  5
2CD
100
AcDbEntity
  8
ASSI
100
AcDbLine
 62
7
  6
CONTINUOUS
 10
70.1795832757
 20
65.3915087231
 11
70.1742350589
 21
65.5159179169
  0
LINE
  5
2CE
100
AcDbEntity
  8
0
100
AcDbLine
 62
7
  6
CONTINUOUS
 10
70.1841396822
 20
65.2697768993
 11
70.1795832757
 21
65.3915087231
  0
LINE
  5
2CF
100
AcDbEntity
  8
ASSI
100
AcDbLine
 62
7
  6
CONTINUOUS
 10
70.1841396822
 20
65.2697768993
 11
70.1795832757
 21
65.3915087231
  0
LWPOLYLINE
  5
2D0
100
AcDbEntity
  8
0
100
AcDbPolyline
 62
250
  6
CONTINUOUS
 90
56
 70
0
 10
68.6372877642
 20
77.5767325426
 10
68.6369220312
 20
77.5882813832
 10
68.6363485736
 20
77.5996025935
 10
68.6355716397
 20
77.6106909178
 10
68.6345954778
 20
77.6215411004
 10
68.6334243358
 20
77.6321478857
 10
68.6320624621
 20
77.6425060181
 10
68.6305141049
 20
77.6526102418
 10
68.6287818297
 20
77.6624588322
 10
68.6268614722
 20
77.6720641877
 10
68.6247471857
 20
77.6814422378
 10
68.6224331232
 20
77.6906089118
 10
68.6199134379
 20
77.6995801391
 10
68.6171822829
 20
77.7083718492
 10
68.6142338115
 20
77.7169999715
 10
68.6114710975
 20
77.7244246957
 10
68.6085339814
 20
77.731727767
 10
68.6054189204
 20
77.7389005837
 10
68.6021223719
 20
77.7459345439
 10
68.5986386855
 20
77.7528238733
 10
68.59495378
 20
77.7595741082
 10
68.5910514666
 20
77.7661936125
 10
68.5869155566
 20
77.7726907501
 10
68.5825325296
 20
77.7790693371
 10
68.5778995394
 20
77.785314999
 10
68.5730164083
 20
77.7914088132
 10
68.5678829587
 20
77.7973318575
 10
68.5625003298
 20
77.8030687589
 10
68.5568749297
 20
77.8086183421
 10
68.5510144834
 20
77.8139829811
 10
68.544926716
 20
77.81916505
 10
68.5386186587
 20
77.8241664765
 10
68.532094567
 20
77.8289874028
 10
68.5253580027
 20
77.8336275248
 10
68.5184125273
 20
77.8380865383
 10
68.5112625745
 20
77.8423637844
 10
68.5039160658
 20
77.8464571841
 10
68.4963817947
 20
77.8503643036
 10
68.4886685545
 20
77.8540827091
 10
68.4807836765
 20
77.8576099514
 10
68.4727286423
 20
77.8609435195
 10
68.4645034714
 20
77.8640808867
 10
68.4561081831
 20
77.8670195268
 10
68.4475427969
 20
77.8697569131
 10
68.4388073321
 20
77.8722905193
 10
68.4299018082
 20
77.8746178187
 10
68.4208262445
 20
77.876736285
 10
68.4126163458
 20
77.8784405361
 10
68.4042721407
 20
77.8799671877
 10
68.39579366
 20
77.8813056404
 10
68.3871809342
 20
77.882445295
 10
68.3784339942
 20
77.8833755521
 10
68.3695528705
 20
77.8840858124
 10
68.3605375938
 20
77.8845654766
 10
68.351388195
 20
77.8848039454
 10
68.3421047046
 20
77.8847906195
  0
LINE
  5
2D1
100
AcDbEntity
  8
0
100
AcDbLine
 62
7
  6
CONTINUOUS
 10
70.1878476854
 20
65.1525573887
 11
70.1841396822
 21
65.2697768993
  0
LINE
  5
2D2
100
AcDbEntity
  8
ASSI
100
AcDbLine
 62
7
  6
CONTINUOUS
 10
70.1878476854
 20
65.1525573887
 11
70.1841396822
 21
65.2697768993
  0
LINE
  5
2D3
100
AcDbEntity
  8
SMUSSO
100
AcDbLine
 62
7
  6
CONTINUOUS
 10
67.1234375
 20
153.3513838867
 11
67.1234375
 21
64.3513838867
  0
LINE
  5
2D4
100
AcDbEntity
  8
0
100
AcDbLine
 62
7
  6
CONTINUOUS
 10
67.2734375
 20
64.5007641984
 11
67.2734375
 21
153.202003575
  0
LINE
  5
2D5
100
AcDbEntity
  8
ASSI
100
AcDbLine
 62
7
  6
CONTINUOUS
 10
67.2734375
 20
64.5007641984
 11
67.2734375
 21
153.202003575
  0
LINE
  5
2D6
100
AcDbEntity
  8
0
100
AcDbLine
 62
250
  6
CONTINUOUS
 10
67.7919715
 20
72.6902428867
 11
67.7919715
 21
73.0868148867
  0
LINE
  5
2D7
100
AcDbEntity
  8
0
100
AcDbLine
 62
250
  6
CONTINUOUS
 10
67.7920855
 20
76.2688958867
 11
67.7920855
 21
75.8852598867
  0
LINE
  5
2D8
100
AcDbEntity
  8
0
100
AcDbLine
 62
250
  6
CONTINUOUS
 10
67.7920855
 20
75.0494178867
 11
67.7920855
 21
74.6570478867
  0
LINE
  5
2D9
100
AcDbEntity
  8
0
100
AcDbLine
 62
250
  6
CONTINUOUS
 10
67.7920855
 20
73.8680918867
 11
67.7920855
 21
73.4718478867
  0
LINE
  5
2DA
100
AcDbEntity
  8
0
100
AcDbLine
 62
250
  6
CONTINUOUS
 10
67.7920855
 20
72.5430738867
 11
67.7920855
 21
72.1467728867
  0
LINE
  5
2DB
100
AcDbEntity
  8
0
100
AcDbLine
 62
250
  6
CONTINUOUS
 10
67.7920855
 20
71.4114198867
 11
67.7920855
 21
70.9806198867
  0
LINE
  5
2DC
100
AcDbEntity
  8
0
100
AcDbLine
 62
250
  6
CONTINUOUS
 10
68.6372877642
 20
77.3500953898
 11
68.6372877642
 21
77.5767325426
  0
LINE
  5
2DD
100
AcDbEntity
  8
0
100
AcDbLine
 62
250
  6
CONTINUOUS
 10
68.9484365835
 20
77.5758777382
 11
68.9484365835
 21
77.3632451316
  0
LINE
  5
2DE
100
AcDbEntity
  8
0
100
AcDbLine
 62
250
  6
CONTINUOUS
 10
69.0191715
 20
76.2518568867
 11
69.0191715
 21
75.8721668867
  0
LINE
  5
2DF
100
AcDbEntity
  8
0
100
AcDbLine
 62
250
  6
CONTINUOUS
 10
69.3126545
 20
75.7910458867
 11
69.3126545
 21
76.3311118867
  0
LINE
  5
2E0
100
AcDbEntity
  8
0
100
AcDbLine
 62
250
  6
CONTINUOUS
 10
69.691931246
 20
78.3519974371
 11
69.691931246
 21
77.970540952
  0
LINE
  5
2E1
100
AcDbEntity
  8
0
100
AcDbLine
 62
250
  6
CONTINUOUS
 10
69.691931246
 20
77.3632451316
 11
69.691931246
 21
76.9682684895
  0
LINE
  5
2E2
100
AcDbEntity
  8
0
100
AcDbLine
 62
250
  6
CONTINUOUS
 10
69.6919315
 20
73.0868148867
 11
69.6919315
 21
72.6902428867
  0
LINE
  5
2E3
100
AcDbEntity
  8
0
100
AcDbLine
 62
250
  6
CONTINUOUS
 10
69.6919315
 20
71.5829078867
 11
69.6919315
 21
71.9323878867
  0
LINE
  5
2E4
100
AcDbEntity
  8
0
100
AcDbLine
 62
250
  6
CONTINUOUS
 10
69.6919315
 20
73.3003028867
 11
69.6919315
 21
73.6796928867
  0
LINE
  5
2E5
100
AcDbEntity
  8
0
100
AcDbLine
 62
250
  6
CONTINUOUS
 10
69.6919315
 20
74.2305008867
 11
69.6919315
 21
74.2861198867
  0
LINE
  5
2E6
100
AcDbEntity
  8
0
100
AcDbLine
 62
250
  6
CONTINUOUS
 10
69.6919315
 20
74.8391218867
 11
69.6919315
 21
75.2270748867
  0
LINE
  5
2E7
100
AcDbEntity
  8
0
100
AcDbLine
 62
250
  6
CONTINUOUS
 10
69.6919315
 20
75.2893468867
 11
69.6919315
 21
75.6816168867
  0
LINE
  5
2E8
100
AcDbEntity
  8
0
100
AcDbLine
 62
250
  6
CONTINUOUS
 10
69.6919315
 20
76.4338448867
 11
69.6919315
 21
76.8518158867
  0
LWPOLYLINE
  5
2E9
100
AcDbEntity
  8
0
100
AcDbPolyline
 62
7
  6
CONTINUOUS
 90
16
 70
0
 10
70.1915428753
 20
152.7140551525
 10
70.1922368889
 20
152.7645626324
 10
70.1926589225
 20
152.8126785857
 10
70.192801254
 20
152.8582159055
 10
70.1926589204
 20
152.9009969024
 10
70.1922368847
 20
152.9408544814
 10
70.1915428695
 20
152.9776333493
 10
70.190572926
 20
153.0111934443
 10
70.1893332188
 20
153.041399332
 10
70.1878472791
 20
153.0681246554
 10
70.1861137086
 20
153.0912596852
 10
70.184138544
 20
153.1107293825
 10
70.1819568373
 20
153.1264735913
 10
70.1795822092
 20
153.1384269508
 10
70.1770071024
 20
153.1465306034
 10
70.1742350589
 20
153.1507458396
  0
LWPOLYLINE
  5
2EA
100
AcDbEntity
  8
ASSI
100
AcDbPolyline
 62
7
  6
CONTINUOUS
 90
16
 70
0
 10
70.1915428753
 20
152.7140551525
 10
70.1922368889
 20
152.7645626324
 10
70.1926589225
 20
152.8126785857
 10
70.192801254
 20
152.8582159055
 10
70.1926589204
 20
152.9009969024
 10
70.1922368847
 20
152.9408544814
 10
70.1915428695
 20
152.9776333493
 10
70.190572926
 20
153.0111934443
 10
70.1893332188
 20
153.041399332
 10
70.1878472791
 20
153.0681246554
 10
70.1861137086
 20
153.0912596852
 10
70.184138544
 20
153.1107293825
 10
70.1819568373
 20
153.1264735913
 10
70.1795822092
 20
153.1384269508
 10
70.1770071024
 20
153.1465306034
 10
70.1742350589
 20
153.1507458396
  0
LINE
  5
2EB
100
AcDbEntity
  8
0
100
AcDbLine
 62
7
  6
CONTINUOUS
 10
70.189333225
 20
152.6066505859
 11
70.1915428753
 21
152.7140551525
  0
LINE
  5
2EC
100
AcDbEntity
  8
ASSI
100
AcDbLine
 62
7
  6
CONTINUOUS
 10
70.189333225
 20
152.6066505859
 11
70.1915428753
 21
152.7140551525
  0
LINE
  5
2ED
100
AcDbEntity
  8
0
100
AcDbLine
 62
7
  6
CONTINUOUS
 10
70.1861137105
 20
152.4922303977
 11
70.189333225
 21
152.6066505859
  0
LINE
  5
2EE
100
AcDbEntity
  8
ASSI
100
AcDbLine
 62
7
  6
CONTINUOUS
 10
70.1861137105
 20
152.4922303977
 11
70.189333225
 21
152.6066505859
  0
LINE
  5
2EF
100
AcDbEntity
  8
0
100
AcDbLine
 62
7
  6
CONTINUOUS
 10
70.1819568324
 20
152.3725530099
 11
70.1861137105
 21
152.4922303977
  0
LINE
  5
2F0
100
AcDbEntity
  8
ASSI
100
AcDbLine
 62
7
  6
CONTINUOUS
 10
70.1819568324
 20
152.3725530099
 11
70.1861137105
 21
152.4922303977
  0
LWPOLYLINE
  5
2F1
100
AcDbEntity
  8
0
100
AcDbPolyline
 62
7
  6
CONTINUOUS
 90
3
 70
0
 10
70.1742350589
 20
152.1868498565
 10
70.1770070988
 20
152.2492499177
 10
70.1819568324
 20
152.3725530099
  0
LWPOLYLINE
  5
2F2
100
AcDbEntity
  8
ASSI
100
AcDbPolyline
 62
7
  6
CONTINUOUS
 90
3
 70
0
 10
70.1742350589
 20
152.1868498565
 10
70.1770070988
 20
152.2492499177
 10
70.1819568324
 20
152.3725530099
  0
LINE
  5
2F3
100
AcDbEntity
  8
0
100
AcDbLine
 62
7
  6
CONTINUOUS
 10
70.1734375
 20
152.1515361916
 11
70.1734375
 21
65.5512315819
  0
LINE
  5
2F4
100
AcDbEntity
  8
ASSI
100
AcDbLine
 62
7
  6
CONTINUOUS
 10
70.1734375
 20
152.1515361916
 11
70.1734375
 21
65.5512315819
  0
LINE
  5
2F5
100
AcDbEntity
  8
0
100
AcDbLine
 62
7
  6
CONTINUOUS
 10
71.6734375
 20
151.9513838867
 11
71.6734375
 21
65.7513838867
  0
LINE
  5
2F6
100
AcDbEntity
  8
ASSI
100
AcDbLine
 62
7
  6
CONTINUOUS
 10
71.6734375
 20
151.9513838867
 11
71.6734375
 21
65.7513838867
  0
LINE
  5
2F7
100
AcDbEntity
  8
0
100
AcDbLine
 62
250
  6
CONTINUOUS
 10
72.5992746857
 20
81.7012544481
 11
72.5992100837
 21
81.9237046428
  0
LINE
  5
2F8
100
AcDbEntity
  8
ASSI
100
AcDbLine
 62
250
  6
CONTINUOUS
 10
72.5992746857
 20
81.7012544481
 11
72.5992100837
 21
81.9237046428
  0
LINE
  5
2F9
100
AcDbEntity
  8
0
100
AcDbLine
 62
250
  6
CONTINUOUS
 10
72.5992100837
 20
135.7790631306
 11
72.5992746826
 21
136.0003696243
  0
LINE
  5
2FA
100
AcDbEntity
  8
ASSI
100
AcDbLine
 62
250
  6
CONTINUOUS
 10
72.5992100837
 20
135.7790631306
 11
72.5992746826
 21
136.0003696243
  0
LWPOLYLINE
  5
2FB
100
AcDbEntity
  8
0
100
AcDbPolyline
 62
7
  6
CONTINUOUS
 90
5
 70
0
 10
74.6734375
 20
134.8977006799
 10
74.6726249675
 20
134.8885040187
 10
74.6702104152
 20
134.8783356835
 10
74.6662376686
 20
134.8671956745
 10
74.6607622444
 20
134.8550839916
  0
LWPOLYLINE
  5
2FC
100
AcDbEntity
  8
ASSI
100
AcDbPolyline
 62
7
  6
CONTINUOUS
 90
5
 70
0
 10
74.6734375
 20
134.8977006799
 10
74.6726249675
 20
134.8885040187
 10
74.6702104152
 20
134.8783356835
 10
74.6662376686
 20
134.8671956745
 10
74.6607622444
 20
134.8550839916
  0
LWPOLYLINE
  5
2FD
100
AcDbEntity
  8
0
100
AcDbPolyline
 62
250
  6
CONTINUOUS
 90
24
 70
0
 10
68.1045578268
 20
77.6607606394
 10
68.1029706516
 20
77.6461549952
 10
68.1015970408
 20
77.6315333886
 10
68.1004365044
 20
77.6168975989
 10
68.0994885523
 20
77.6022494057
 10
68.0987526946
 20
77.5875905884
 10
68.0982284413
 20
77.5729229267
 10
68.0979153024
 20
77.5582481999
 10
68.0978141579
 20
77.5454026976
 10
68.0978742896
 20
77.532550022
 10
68.0980957144
 20
77.5196870466
 10
68.0984784491
 20
77.5068106448
 10
68.0990231587
 20
77.4939171649
 10
68.0997331001
 20
77.4810008541
 10
68.1006121784
 20
77.4680554341
 10
68.1016642986
 20
77.4550746271
 10
68.1028914937
 20
77.4420542199
 10
68.1042883085
 20
77.4289982601
 10
68.1058474163
 20
77.4159128603
 10
68.1075614898
 20
77.4028041331
 10
68.1094219861
 20
77.3896756471
 10
68.111415498
 20
77.3765207953
 10
68.1135274026
 20
77.3633304265
 10
68.1157430768
 20
77.3500953898
  0
LWPOLYLINE
  5
2FE
100
AcDbEntity
  8
0
100
AcDbPolyline
 62
250
  6
CONTINUOUS
 90
3
 70
0
 10
74.1235857527
 20
135.1883891726
 10
74.1235430986
 20
135.1918057561
 10
74.1234867322
 20
135.1929477471
  0
LWPOLYLINE
  5
2FF
100
AcDbEntity
  8
ASSI
100
AcDbPolyline
 62
250
  6
CONTINUOUS
 90
3
 70
0
 10
74.1235857527
 20
135.1883891726
 10
74.1235430986
 20
135.1918057561
 10
74.1234867322
 20
135.1929477471
  0
LINE
  5
300
100
AcDbEntity
  8
0
100
AcDbLine
 62
250
  6
CONTINUOUS
 10
74.1236287312
 20
135.1748529338
 11
74.1235857527
 21
135.1883891726
  0
LINE
  5
301
100
AcDbEntity
  8
ASSI
100
AcDbLine
 62
250
  6
CONTINUOUS
 10
74.1236287312
 20
135.1748529338
 11
74.1235857527
 21
135.1883891726
  0
LINE
  5
302
100
AcDbEntity
  8
0
100
AcDbLine
 62
250
  6
CONTINUOUS
 10
74.1236287312
 20
82.5279148396
 11
74.1234867322
 21
82.597686505
  0
LINE
  5
303
100
AcDbEntity
  8
ASSI
100
AcDbLine
 62
250
  6
CONTINUOUS
 10
74.1236287312
 20
82.5279148396
 11
74.1234867322
 21
82.597686505
  0
LINE
  5
304
100
AcDbEntity
  8
0
100
AcDbLine
 62
250
  6
CONTINUOUS
 10
74.3891382869
 20
134.2229539654
 11
74.3891382869
 21
134.2012640518
  0
LINE
  5
305
100
AcDbEntity
  8
ASSI
100
AcDbLine
 62
250
  6
CONTINUOUS
 10
74.3891382869
 20
134.2229539654
 11
74.3891382869
 21
134.2012640518
  0
LINE
  5
306
100
AcDbEntity
  8
0
100
AcDbLine
 62
250
  6
CONTINUOUS
 10
74.3891382869
 20
83.5015037216
 11
74.3891382869
 21
83.479813808
  0
LINE
  5
307
100
AcDbEntity
  8
ASSI
100
AcDbLine
 62
250
  6
CONTINUOUS
 10
74.3891382869
 20
83.5015037216
 11
74.3891382869
 21
83.479813808
  0
LINE
  5
308
100
AcDbEntity
  8
0
100
AcDbLine
 62
250
  6
CONTINUOUS
 10
74.4839046912
 20
134.7313705544
 11
74.4839046912
 21
134.2324306058
  0
LINE
  5
309
100
AcDbEntity
  8
ASSI
100
AcDbLine
 62
250
  6
CONTINUOUS
 10
74.4839046912
 20
134.7313705544
 11
74.4839046912
 21
134.2324306058
  0
LINE
  5
30A
100
AcDbEntity
  8
0
100
AcDbLine
 62
250
  6
CONTINUOUS
 10
74.4839046912
 20
83.4703371676
 11
74.4839046912
 21
82.9713972191
  0
LINE
  5
30B
100
AcDbEntity
  8
ASSI
100
AcDbLine
 62
250
  6
CONTINUOUS
 10
74.4839046912
 20
83.4703371676
 11
74.4839046912
 21
82.9713972191
  0
LINE
  5
30C
100
AcDbEntity
  8
0
100
AcDbLine
 62
7
  6
CONTINUOUS
 10
74.6734375
 20
135.0037450935
 11
74.6734375
 21
134.2037450935
  0
LINE
  5
30D
100
AcDbEntity
  8
ASSI
100
AcDbLine
 62
7
  6
CONTINUOUS
 10
74.6734375
 20
135.0037450935
 11
74.6734375
 21
134.2037450935
  0
LINE
  5
30E
100
AcDbEntity
  8
0
100
AcDbLine
 62
7
  6
CONTINUOUS
 10
74.6734375
 20
83.49902268
 11
74.6734375
 21
82.69902268
  0
LINE
  5
30F
100
AcDbEntity
  8
ASSI
100
AcDbLine
 62
7
  6
CONTINUOUS
 10
74.6734375
 20
83.49902268
 11
74.6734375
 21
82.69902268
  0
LINE
  5
310
100
AcDbEntity
  8
0
100
AcDbLine
 62
250
  6
CONTINUOUS
 10
74.1234867322
 20
135.1050812684
 11
74.1236287312
 21
135.1748529338
  0
LINE
  5
311
100
AcDbEntity
  8
ASSI
100
AcDbLine
 62
250
  6
CONTINUOUS
 10
74.1234867322
 20
135.1050812684
 11
74.1236287312
 21
135.1748529338
  0
LWPOLYLINE
  5
312
100
AcDbEntity
  8
0
100
AcDbPolyline
 62
250
  6
CONTINUOUS
 90
4
 70
0
 10
74.1234867322
 20
82.5098200264
 10
74.1235430986
 20
82.5109620174
 10
74.1235857527
 20
82.5143786008
 10
74.1236287312
 20
82.5279148396
  0
LWPOLYLINE
  5
313
100
AcDbEntity
  8
ASSI
100
AcDbPolyline
 62
250
  6
CONTINUOUS
 90
4
 70
0
 10
74.1234867322
 20
82.5098200264
 10
74.1235430986
 20
82.5109620174
 10
74.1235857527
 20
82.5143786008
 10
74.1236287312
 20
82.5279148396
  0
LWPOLYLINE
  5
314
100
AcDbEntity
  8
0
100
AcDbPolyline
 62
7
  6
CONTINUOUS
 90
4
 70
0
 43
0.3500000006
 10
76.5609043579
 20
164.9585245972
 10
76.5609043579
 20
165.6013780518
 10
78.0609048157
 20
165.6013780518
 10
77.2037668762
 20
162.6013771362
  0
LWPOLYLINE
  5
315
100
AcDbEntity
  8
0
100
AcDbPolyline
 62
7
  6
CONTINUOUS
 90
13
 70
0
 43
0.3500000006
 10
77.6389251709
 20
173.4585181274
 10
77.6389251709
 20
174.7442431641
 10
77.8532096558
 20
175.1728121338
 10
78.2817786255
 20
175.6013811035
 10
78.4960631104
 20
175.6013811035
 10
78.9246320801
 20
175.1728121338
 10
79.1389165649
 20
174.7442431641
 10
79.1389165649
 20
173.4585181274
 10
78.9246320801
 20
173.0299491577
 10
78.4960631104
 20
172.601380188
 10
78.2817786255
 20
172.601380188
 10
77.8532096558
 20
173.0299491577
 10
77.6389251709
 20
173.4585181274
  0
LWPOLYLINE
  5
316
100
AcDbEntity
  8
0
100
AcDbPolyline
 62
250
  6
CONTINUOUS
 90
84
 70
0
 10
67.8342844654
 20
77.9469483492
 10
67.8389491225
 20
77.9590662741
 10
67.8442190941
 20
77.9712309113
 10
67.8501065309
 20
77.9834663088
 10
67.8566235837
 20
77.9957965148
 10
67.8637824033
 20
78.0082455771
 10
67.8715951402
 20
78.0208375437
 10
67.8800680736
 20
78.0335796307
 10
67.8891839949
 20
78.0464117255
 10
67.8989198242
 20
78.0592568838
 10
67.9092524811
 20
78.0720381611
 10
67.9201588855
 20
78.084678613
 10
67.9316159573
 20
78.097101295
 10
67.9436009074
 20
78.1092367507
 10
67.9560921116
 20
78.1210454764
 10
67.9690682368
 20
78.1324954563
 10
67.98250795
 20
78.1435546746
 10
67.996389918
 20
78.1541911156
 10
68.0106928078
 20
78.1643727636
 10
68.0253878479
 20
78.1740688765
 10
68.040416514
 20
78.1832538064
 10
68.055712843
 20
78.1919031791
 10
68.0712108723
 20
78.1999926204
 10
68.0868446389
 20
78.2074977561
 10
68.10254818
 20
78.214394212
 10
68.1182628407
 20
78.2206660946
 10
68.133959198
 20
78.2263314336
 10
68.1496151365
 20
78.2314167394
 10
68.1652085413
 20
78.2359485224
 10
68.180717297
 20
78.2399532931
 10
68.1961192886
 20
78.2434575618
 10
68.2144288826
 20
78.2470392034
 10
68.2325103012
 20
78.2499832372
 10
68.2503209553
 20
78.2523346032
 10
68.2678182558
 20
78.2541382415
 10
68.2849596135
 20
78.2554390921
 10
68.3017107943
 20
78.2562783278
 10
68.3180709847
 20
78.2566820534
 10
68.3340477262
 20
78.2566726063
 10
68.3496485602
 20
78.2562723242
 10
68.3648810283
 20
78.2555035445
 10
68.383413651
 20
78.2540567503
 10
68.4013885931
 20
78.2521028105
 10
68.4188119625
 20
78.2496754544
 10
68.4356898669
 20
78.2468084114
 10
68.4520310183
 20
78.2435338561
 10
68.4678545474
 20
78.2398777444
 10
68.4831821891
 20
78.2358644777
 10
68.4980356783
 20
78.2315184571
 10
68.5124322191
 20
78.2268650727
 10
68.5263708928
 20
78.2219336689
 10
68.5398462494
 20
78.2167545792
 10
68.5528528393
 20
78.2113581368
 10
68.5653887469
 20
78.2057722293
 10
68.5774661943
 20
78.2000149616
 10
68.5891009374
 20
78.1941019928
 10
68.6003087325
 20
78.188048982
 10
68.6146110022
 20
78.1797870779
 10
68.6281923203
 20
78.1713384967
 10
68.6410627428
 20
78.1627376862
 10
68.6532361883
 20
78.1540171055
 10
68.6647420246
 20
78.1452012586
 10
68.6756134818
 20
78.1363126606
 10
68.685885512
 20
78.1273774937
 10
68.6955999537
 20
78.1184366088
 10
68.7048003671
 20
78.1095345237
 10
68.7135290426
 20
78.100712223
 10
68.721823191
 20
78.0919965583
 10
68.7297187534
 20
78.0834108476
 10
68.735400815
 20
78.0770692909
 10
68.7408960982
 20
78.0708142864
 10
68.7462191288
 20
78.0646484943
 10
68.7513736978
 20
78.0585838692
 10
68.7563646516
 20
78.0526307679
 10
68.7612117941
 20
78.0467838633
 10
68.7705045997
 20
78.0352698956
 10
68.7748949644
 20
78.0294631822
 10
68.7790066922
 20
78.0236092735
 10
68.7827394655
 20
78.017730807
 10
68.7860282052
 20
78.0118330342
 10
68.7888206797
 20
78.0059123057
 10
68.7910808068
 20
77.9999467568
 10
68.7927762733
 20
77.9939175903
 10
68.7938736925
 20
77.9878364954
  0
LWPOLYLINE
  5
317
100
AcDbEntity
  8
0
100
AcDbPolyline
 62
250
  6
CONTINUOUS
 90
41
 70
0
 10
68.8051001242
 20
77.9878364954
 10
68.8082275145
 20
77.9952713859
 10
68.8116151192
 20
78.0025513775
 10
68.8152601705
 20
78.0096826003
 10
68.8191599006
 20
78.0166711849
 10
68.8233115418
 20
78.0235232616
 10
68.8277123261
 20
78.0302449608
 10
68.832357076
 20
78.0368400485
 10
68.8372309734
 20
78.0433028331
 10
68.8423167907
 20
78.0496252586
 10
68.8475972999
 20
78.0557992688
 10
68.8530552734
 20
78.0618168077
 10
68.8586734832
 20
78.0676698193
 10
68.8656054538
 20
78.0744690273
 10
68.8727307686
 20
78.0810304729
 10
68.8800368392
 20
78.0873649141
 10
68.8875110775
 20
78.0934831085
 10
68.8951408953
 20
78.099395814
 10
68.9029128296
 20
78.105112419
 10
68.910809918
 20
78.1106368352
 10
68.9188143234
 20
78.1159716046
 10
68.9269082088
 20
78.1211192696
 10
68.935073737
 20
78.1260823723
 10
68.9453626654
 20
78.1320341887
 10
68.9557514918
 20
78.1377281983
 10
68.9662560428
 20
78.1431910005
 10
68.9768921449
 20
78.1484491947
 10
68.9876751157
 20
78.153526941
 10
68.9986182369
 20
78.1584386415
 10
69.0097342813
 20
78.1631962587
 10
69.0210360216
 20
78.1678117553
 10
69.0325373497
 20
78.1722962019
 10
69.0442566343
 20
78.1766571006
 10
69.0562133634
 20
78.1809010612
 10
69.0684270248
 20
78.1850346936
 10
69.0783965751
 20
78.188267954
 10
69.0885562166
 20
78.1914463112
 10
69.0989191313
 20
78.194581242
 10
69.1094985014
 20
78.1976842227
 10
69.1203075091
 20
78.2007667299
 10
69.1313553827
 20
78.2038415417
  0
LINE
  5
318
100
AcDbEntity
  8
0
100
AcDbLine
 62
7
  6
CONTINUOUS
 10
71.9734375
 20
83.6513838867
 11
72.1234375
 21
83.8013838867
  0
LINE
  5
319
100
AcDbEntity
  8
ASSI
100
AcDbLine
 62
7
  6
CONTINUOUS
 10
71.9734375
 20
83.6513838867
 11
72.1234375
 21
83.8013838867
  0
LINE
  5
31A
100
AcDbEntity
  8
0
100
AcDbLine
 62
7
  6
CONTINUOUS
 10
71.9734375
 20
134.0513838867
 11
72.1234375
 21
133.9013838867
  0
LINE
  5
31B
100
AcDbEntity
  8
ASSI
100
AcDbLine
 62
7
  6
CONTINUOUS
 10
71.9734375
 20
134.0513838867
 11
72.1234375
 21
133.9013838867
  0
LWPOLYLINE
  5
31C
100
AcDbEntity
  8
0
100
AcDbPolyline
 62
7
  6
CONTINUOUS
 90
18
 70
0
 10
70.1742350589
 20
64.5520219338
 10
70.1770077611
 20
64.5562387936
 10
70.1795832659
 20
64.5643452356
 10
70.1819580495
 20
64.5763015098
 10
70.184139686
 20
64.592048222
 10
70.1861145753
 20
64.611518729
 10
70.1878477135
 20
64.6346498262
 10
70.1893329397
 20
64.6613587182
 10
70.1905719111
 20
64.6915385148
 10
70.191541591
 20
64.7250805253
 10
70.192236001
 20
64.7618648836
 10
70.1926586346
 20
64.8017452093
 10
70.192801254
 20
64.844552803
 10
70.1926586241
 20
64.8901202787
 10
70.1922359799
 20
64.9382695762
 10
70.1915415621
 20
64.9887938652
 10
70.1905718785
 20
65.0414826385
 10
70.1878476854
 20
65.1525573887
  0
LWPOLYLINE
  5
31D
100
AcDbEntity
  8
ASSI
100
AcDbPolyline
 62
7
  6
CONTINUOUS
 90
18
 70
0
 10
70.1742350589
 20
64.5520219338
 10
70.1770077611
 20
64.5562387936
 10
70.1795832659
 20
64.5643452356
 10
70.1819580495
 20
64.5763015098
 10
70.184139686
 20
64.592048222
 10
70.1861145753
 20
64.611518729
 10
70.1878477135
 20
64.6346498262
 10
70.1893329397
 20
64.6613587182
 10
70.1905719111
 20
64.6915385148
 10
70.191541591
 20
64.7250805253
 10
70.192236001
 20
64.7618648836
 10
70.1926586346
 20
64.8017452093
 10
70.192801254
 20
64.844552803
 10
70.1926586241
 20
64.8901202787
 10
70.1922359799
 20
64.9382695762
 10
70.1915415621
 20
64.9887938652
 10
70.1905718785
 20
65.0414826385
 10
70.1878476854
 20
65.1525573887
  0
LINE
  5
31E
100
AcDbEntity
  8
0
100
AcDbLine
 62
250
  6
CONTINUOUS
 10
72.5992100837
 20
81.9237046428
 11
73.6987289436
 21
82.5073488578
  0
LINE
  5
31F
100
AcDbEntity
  8
ASSI
100
AcDbLine
 62
250
  6
CONTINUOUS
 10
72.5992100837
 20
81.9237046428
 11
73.6987289436
 21
82.5073488578
  0
LINE
  5
320
100
AcDbEntity
  8
0
100
AcDbLine
 62
250
  6
CONTINUOUS
 10
74.1234867322
 20
82.597686505
 11
74.645578585
 21
82.8748221693
  0
LINE
  5
321
100
AcDbEntity
  8
ASSI
100
AcDbLine
 62
250
  6
CONTINUOUS
 10
74.1234867322
 20
82.597686505
 11
74.645578585
 21
82.8748221693
  0
LINE
  5
322
100
AcDbEntity
  8
0
100
AcDbLine
 62
7
  6
CONTINUOUS
 10
72.7384494617
 20
81.7358933952
 11
74.6734375
 21
82.7630195463
  0
LINE
  5
323
100
AcDbEntity
  8
ASSI
100
AcDbLine
 62
7
  6
CONTINUOUS
 10
72.7384494617
 20
81.7358933952
 11
74.6734375
 21
82.7630195463
  0
LWPOLYLINE
  5
324
100
AcDbEntity
  8
0
100
AcDbPolyline
 62
250
  6
CONTINUOUS
 90
6
 70
0
 10
74.2623986613
 20
82.544832802
 10
74.2537471438
 20
82.5411816161
 10
74.2443681158
 20
82.5390198477
 10
74.2343144033
 20
82.5383575842
 10
74.2236448347
 20
82.539196252
 10
74.2124170055
 20
82.5415290192
  0
LWPOLYLINE
  5
325
100
AcDbEntity
  8
ASSI
100
AcDbPolyline
 62
250
  6
CONTINUOUS
 90
6
 70
0
 10
74.2623986613
 20
82.544832802
 10
74.2537471438
 20
82.5411816161
 10
74.2443681158
 20
82.5390198477
 10
74.2343144033
 20
82.5383575842
 10
74.2236448347
 20
82.539196252
 10
74.2124170055
 20
82.5415290192
  0
LINE
  5
326
100
AcDbEntity
  8
0
100
AcDbLine
 62
7
  6
CONTINUOUS
 10
72.7230655979
 20
134.0563466965
 11
74.6734375
 21
134.2513838867
  0
LINE
  5
327
100
AcDbEntity
  8
ASSI
100
AcDbLine
 62
7
  6
CONTINUOUS
 10
72.7230655979
 20
134.0563466965
 11
74.6734375
 21
134.2513838867
  0
LINE
  5
328
100
AcDbEntity
  8
0
100
AcDbLine
 62
7
  6
CONTINUOUS
 10
71.6734375
 20
134.6072037613
 11
74.4839046912
 21
134.7313705544
  0
LINE
  5
329
100
AcDbEntity
  8
ASSI
100
AcDbLine
 62
7
  6
CONTINUOUS
 10
71.6734375
 20
134.6072037613
 11
74.4839046912
 21
134.7313705544
  0
LINE
  5
32A
100
AcDbEntity
  8
0
100
AcDbLine
 62
7
  6
CONTINUOUS
 10
74.1515008457
 20
134.1991902213
 11
74.6734375
 21
134.2037450935
  0
LINE
  5
32B
100
AcDbEntity
  8
ASSI
100
AcDbLine
 62
7
  6
CONTINUOUS
 10
74.1515008457
 20
134.1991902213
 11
74.6734375
 21
134.2037450935
  0
LINE
  5
32C
100
AcDbEntity
  8
0
100
AcDbLine
 62
7
  6
CONTINUOUS
 10
71.6734375
 20
133.9013838867
 11
71.8234375
 21
133.9013838867
  0
LINE
  5
32D
100
AcDbEntity
  8
ASSI
100
AcDbLine
 62
7
  6
CONTINUOUS
 10
71.6734375
 20
133.9013838867
 11
71.8234375
 21
133.9013838867
  0
LINE
  5
32E
100
AcDbEntity
  8
0
100
AcDbLine
 62
7
  6
CONTINUOUS
 10
72.1234375
 20
133.9013838867
 11
72.3234375
 21
133.9013838867
  0
LINE
  5
32F
100
AcDbEntity
  8
ASSI
100
AcDbLine
 62
7
  6
CONTINUOUS
 10
72.1234375
 20
133.9013838867
 11
72.3234375
 21
133.9013838867
  0
LINE
  5
330
100
AcDbEntity
  8
0
100
AcDbLine
 62
7
  6
CONTINUOUS
 10
71.6734375
 20
134.0513838867
 11
72.6235618789
 21
134.0513838867
  0
LINE
  5
331
100
AcDbEntity
  8
ASSI
100
AcDbLine
 62
7
  6
CONTINUOUS
 10
71.6734375
 20
134.0513838867
 11
72.6235618789
 21
134.0513838867
  0
LINE
  5
332
100
AcDbEntity
  8
0
100
AcDbLine
 62
7
  6
CONTINUOUS
 10
74.6734375
 20
135.0037450935
 11
74.5528747329
 21
135.0037450935
  0
LINE
  5
333
100
AcDbEntity
  8
ASSI
100
AcDbLine
 62
7
  6
CONTINUOUS
 10
74.6734375
 20
135.0037450935
 11
74.5528747329
 21
135.0037450935
  0
LINE
  5
334
100
AcDbEntity
  8
0
100
AcDbLine
 62
250
  6
CONTINUOUS
 10
72.5992100837
 20
135.7790631306
 11
71.6734375
 21
135.7794813252
  0
LINE
  5
335
100
AcDbEntity
  8
ASSI
100
AcDbLine
 62
250
  6
CONTINUOUS
 10
72.5992100837
 20
135.7790631306
 11
71.6734375
 21
135.7794813252
  0
LINE
  5
336
100
AcDbEntity
  8
0
100
AcDbLine
 62
7
  6
CONTINUOUS
 10
72.5992746978
 20
136.0015133254
 11
71.6734375
 21
136.0031292177
  0
LINE
  5
337
100
AcDbEntity
  8
ASSI
100
AcDbLine
 62
7
  6
CONTINUOUS
 10
72.5992746978
 20
136.0015133254
 11
71.6734375
 21
136.0031292177
  0
LINE
  5
338
100
AcDbEntity
  8
0
100
AcDbLine
 62
250
  6
CONTINUOUS
 10
74.1234867322
 20
135.1050812684
 11
71.6734375
 21
135.1193352379
  0
LINE
  5
339
100
AcDbEntity
  8
ASSI
100
AcDbLine
 62
250
  6
CONTINUOUS
 10
74.1234867322
 20
135.1050812684
 11
71.6734375
 21
135.1193352379
  0
LINE
  5
33A
100
AcDbEntity
  8
0
100
AcDbLine
 62
7
  6
CONTINUOUS
 10
74.1234867322
 20
135.1929477471
 11
71.6734375
 21
135.2072017165
  0
LINE
  5
33B
100
AcDbEntity
  8
ASSI
100
AcDbLine
 62
7
  6
CONTINUOUS
 10
74.1234867322
 20
135.1929477471
 11
71.6734375
 21
135.2072017165
  0
LWPOLYLINE
  5
33C
100
AcDbEntity
  8
0
100
AcDbPolyline
 62
250
  6
CONTINUOUS
 90
6
 70
0
 10
74.2623986613
 20
135.1579349714
 10
74.2537509802
 20
135.1615849205
 10
74.2443751668
 20
135.1637469008
 10
74.2343237327
 20
135.1644102685
 10
74.2236550395
 20
135.1635729991
 10
74.212426619
 20
135.1612413279
  0
LWPOLYLINE
  5
33D
100
AcDbEntity
  8
ASSI
100
AcDbPolyline
 62
250
  6
CONTINUOUS
 90
6
 70
0
 10
74.2623986613
 20
135.1579349714
 10
74.2537509802
 20
135.1615849205
 10
74.2443751668
 20
135.1637469008
 10
74.2343237327
 20
135.1644102685
 10
74.2236550395
 20
135.1635729991
 10
74.212426619
 20
135.1612413279
  0
LINE
  5
33E
100
AcDbEntity
  8
0
100
AcDbLine
 62
250
  6
CONTINUOUS
 10
73.6987289436
 20
135.1954189156
 11
72.5992100837
 21
135.7790631306
  0
LINE
  5
33F
100
AcDbEntity
  8
ASSI
100
AcDbLine
 62
250
  6
CONTINUOUS
 10
73.6987289436
 20
135.1954189156
 11
72.5992100837
 21
135.7790631306
  0
LINE
  5
340
100
AcDbEntity
  8
0
100
AcDbLine
 62
250
  6
CONTINUOUS
 10
74.645578585
 20
134.8279456042
 11
74.1234867322
 21
135.1050812684
  0
LINE
  5
341
100
AcDbEntity
  8
ASSI
100
AcDbLine
 62
250
  6
CONTINUOUS
 10
74.645578585
 20
134.8279456042
 11
74.1234867322
 21
135.1050812684
  0
LINE
  5
342
100
AcDbEntity
  8
0
100
AcDbLine
 62
7
  6
CONTINUOUS
 10
74.6734375
 20
134.9397482271
 11
72.7384494617
 21
135.9668743783
  0
LINE
  5
343
100
AcDbEntity
  8
ASSI
100
AcDbLine
 62
7
  6
CONTINUOUS
 10
74.6734375
 20
134.9397482271
 11
72.7384494617
 21
135.9668743783
  0
LINE
  5
344
100
AcDbEntity
  8
SMUSSO
100
AcDbLine
 62
7
  6
CONTINUOUS
 10
67.1234375
 20
64.3513838867
 11
66.6234375
 21
63.8513838867
  0
LWPOLYLINE
  5
345
100
AcDbEntity
  8
0
100
AcDbPolyline
 62
250
  6
CONTINUOUS
 90
48
 70
0
 10
69.1156365131
 20
77.7970547571
 10
69.1096542665
 20
77.7947335114
 10
69.1037786498
 20
77.792311066
 10
69.0979978828
 20
77.7897851043
 10
69.0923001853
 20
77.7871533101
 10
69.0866737772
 20
77.7844133671
 10
69.0797282729
 20
77.780834107
 10
69.0728839523
 20
77.7770854123
 10
69.066149016
 20
77.7731704504
 10
69.0595316643
 20
77.7690923886
 10
69.0530401677
 20
77.7648546248
 10
69.0466830754
 20
77.7604614792
 10
69.0404690063
 20
77.7559175024
 10
69.0344065795
 20
77.7512272452
 10
69.0296715289
 20
77.7473727209
 10
69.0250429575
 20
77.7434294905
 10
69.0205247773
 20
77.7393995551
 10
69.0161209003
 20
77.7352849157
 10
69.0118352386
 20
77.7310875733
 10
69.0076714521
 20
77.7268093744
 10
69.0036321928
 20
77.7224515477
 10
68.9997198606
 20
77.7180151676
 10
68.9959368553
 20
77.7135013083
 10
68.992285577
 20
77.7089110441
 10
68.9887684258
 20
77.704244663
 10
68.9853878031
 20
77.6994993085
 10
68.9821461103
 20
77.6946713375
 10
68.979045749
 20
77.6897571071
 10
68.9760891209
 20
77.6847529745
 10
68.973278713
 20
77.679657322
 10
68.9706173542
 20
77.6744766334
 10
68.9681079593
 20
77.6692194179
 10
68.9657534425
 20
77.6638941847
 10
68.9635567186
 20
77.6585094429
 10
68.9615198628
 20
77.6530741134
 10
68.9596415939
 20
77.6475987645
 10
68.9579197913
 20
77.6420943762
 10
68.9563523346
 20
77.6365719286
 10
68.9549371033
 20
77.6310424018
 10
68.9536716528
 20
77.6255151458
 10
68.9525522416
 20
77.6199929905
 10
68.9515748039
 20
77.614477136
 10
68.9507352742
 20
77.6089687821
 10
68.9500295867
 20
77.6034691289
 10
68.9493305944
 20
77.5966044753
 10
68.9488330091
 20
77.5897327319
 10
68.9485354617
 20
77.5828313394
 10
68.9484365835
 20
77.5758777382
  0
LWPOLYLINE
  5
346
100
AcDbEntity
  8
0
100
AcDbPolyline
 62
250
  6
CONTINUOUS
 90
8
 70
0
 10
69.295308609
 20
77.8558351682
 10
69.2687333863
 20
77.8479564491
 10
69.2424421806
 20
77.8399564279
 10
69.2164472767
 20
77.831804617
 10
69.1907609593
 20
77.8234705288
 10
69.1653955132
 20
77.8149236756
 10
69.1403632231
 20
77.80613357
 10
69.1156763739
 20
77.7970697241
  0
LINE
  5
347
100
AcDbEntity
  8
0
100
AcDbLine
 62
250
  6
CONTINUOUS
 10
69.6571766677
 20
77.9604937682
 11
69.4882130844
 21
77.91104121
  0
LINE
  5
348
100
AcDbEntity
  8
0
100
AcDbLine
 62
250
  6
CONTINUOUS
 10
69.691931246
 20
77.970540952
 11
69.6571766677
 21
77.9604937682
  0
LINE
  5
349
100
AcDbEntity
  8
0
100
AcDbLine
 62
250
  6
CONTINUOUS
 10
69.4882130844
 20
77.91104121
 11
69.4226915697
 21
77.8922243458
  0
LINE
  5
34A
100
AcDbEntity
  8
SMUSSO
100
AcDbLine
 62
7
  6
CONTINUOUS
 10
67.1234375
 20
153.3513838867
 11
66.6234375
 21
153.8513838867
  0
LINE
  5
34B
100
AcDbEntity
  8
0
100
AcDbLine
 62
250
  6
CONTINUOUS
 10
68.4513675
 20
73.7652738867
 11
69.6919315
 21
74.2305008867
  0
LINE
  5
34C
100
AcDbEntity
  8
0
100
AcDbLine
 62
250
  6
CONTINUOUS
 10
68.8468855
 20
74.2604758867
 11
67.7920855
 21
73.8680918867
  0
LINE
  5
34D
100
AcDbEntity
  8
0
100
AcDbLine
 62
250
  6
CONTINUOUS
 10
69.6919315
 20
76.8518158867
 11
67.7920855
 21
76.2688958867
  0
LWPOLYLINE
  5
34E
100
AcDbEntity
  8
0
100
AcDbPolyline
 62
7
  6
CONTINUOUS
 90
10
 70
0
 43
0.3500000006
 10
79.5609052734
 20
163.1013863525
 10
79.6323364563
 20
162.9585239868
 10
79.6323364563
 20
162.8871018677
 10
79.4894740906
 20
162.744239502
 10
79.4180519714
 20
162.744239502
 10
79.3466207886
 20
162.8156616211
 10
79.3466207886
 20
162.8871018677
 10
79.4180519714
 20
163.0299642334
 10
79.4894740906
 20
163.1013863525
 10
79.5609052734
 20
163.1013863525
  0
LINE
  5
34F
100
AcDbEntity
  8
0
100
AcDbLine
 62
7
  6
CONTINUOUS
 10
70.1739911402
 20
64.5518267989
 11
71.6734375
 21
65.7513838867
  0
LINE
  5
350
100
AcDbEntity
  8
ASSI
100
AcDbLine
 62
7
  6
CONTINUOUS
 10
70.1739911402
 20
64.5518267989
 11
71.6734375
 21
65.7513838867
  0
LINE
  5
351
100
AcDbEntity
  8
0
100
AcDbLine
 62
250
  6
CONTINUOUS
 10
67.7920855
 20
70.9806198867
 11
69.6919315
 21
71.5829078867
  0
LINE
  5
352
100
AcDbEntity
  8
0
100
AcDbLine
 62
7
  6
CONTINUOUS
 10
70.1734375
 20
153.1513838867
 11
71.6734375
 21
151.9513838867
  0
LINE
  5
353
100
AcDbEntity
  8
ASSI
100
AcDbLine
 62
7
  6
CONTINUOUS
 10
70.1734375
 20
153.1513838867
 11
71.6734375
 21
151.9513838867
  0
LINE
  5
354
100
AcDbEntity
  8
RACCORDO
100
AcDbLine
 62
250
  6
CONTINUOUS
 10
67.1234375
 20
145.8513838867
 11
67.2734375
 21
145.8513838867
  0
LINE
  5
355
100
AcDbEntity
  8
RACCORDO
100
AcDbLine
 62
7
  6
CONTINUOUS
 10
67.1234375
 20
147.8513838867
 11
67.2734375
 21
147.8513838867
  0
LWPOLYLINE
  5
356
100
AcDbEntity
  8
0
100
AcDbPolyline
 62
7
  6
CONTINUOUS
 90
10
 70
0
 43
0.3500000006
 10
80.6389170227
 20
173.1013894043
 10
80.7103482056
 20
172.9585270386
 10
80.7103482056
 20
172.8871049194
 10
80.5674949036
 20
172.7442425537
 10
80.4960637207
 20
172.7442425537
 10
80.4246325378
 20
172.8156646729
 10
80.4246325378
 20
172.8871049194
 10
80.4960637207
 20
173.0299491577
 10
80.5674949036
 20
173.1013894043
 10
80.6389170227
 20
173.1013894043
  0
LINE
  5
357
100
AcDbEntity
  8
SMUSSO
100
AcDbLine
 62
250
  6
CONTINUOUS
 10
64.1234375
 20
152.8513838867
 11
67.1234375
 21
152.8513838867
  0
LINE
  5
358
100
AcDbEntity
  8
SMUSSO
100
AcDbLine
 62
7
  6
CONTINUOUS
 10
65.1234375
 20
153.8513838867
 11
66.6234375
 21
153.8513838867
  0
LWPOLYLINE
  5
359
100
AcDbEntity
  8
0
100
AcDbPolyline
 62
7
  6
CONTINUOUS
 90
8
 70
0
 43
0.3500000006
 10
80.6323367615
 20
162.6013771362
 10
81.4894747009
 20
162.6013771362
 10
81.9180527344
 20
163.0299642334
 10
81.9180527344
 20
163.8871021729
 10
81.4894747009
 20
164.3156711426
 10
80.6323367615
 20
164.3156711426
 10
80.6323367615
 20
165.6013780518
 10
81.9180527344
 20
165.6013780518
  0
LWPOLYLINE
  5
35A
100
AcDbEntity
  8
0
100
AcDbPolyline
 62
7
  6
CONTINUOUS
 90
8
 70
0
 43
0.3500000006
 10
82.7751906738
 20
162.6013771362
 10
83.632337677
 20
162.6013771362
 10
84.0609066467
 20
163.0299642334
 10
84.0609066467
 20
163.8871021729
 10
83.632337677
 20
164.3156711426
 10
82.7751906738
 20
164.3156711426
 10
82.7751906738
 20
165.6013780518
 10
84.0609066467
 20
165.6013780518
  0
LWPOLYLINE
  5
35B
100
AcDbEntity
  8
0
100
AcDbPolyline
 62
7
  6
CONTINUOUS
 90
8
 70
0
 43
0.3500000006
 10
81.7103485107
 20
172.601380188
 10
82.5674955139
 20
172.601380188
 10
82.9960644836
 20
173.0299491577
 10
82.9960644836
 20
173.8871052246
 10
82.5674955139
 20
174.3156741943
 10
81.7103485107
 20
174.3156741943
 10
81.7103485107
 20
175.6013811035
 10
82.9960644836
 20
175.6013811035
  0
LWPOLYLINE
  5
35C
100
AcDbEntity
  8
0
100
AcDbPolyline
 62
7
  6
CONTINUOUS
 90
8
 70
0
 43
0.3500000006
 10
83.8532024231
 20
172.601380188
 10
84.7103494263
 20
172.601380188
 10
85.138918396
 20
173.0299491577
 10
85.138918396
 20
173.8871052246
 10
84.7103494263
 20
174.3156741943
 10
83.8532024231
 20
174.3156741943
 10
83.8532024231
 20
175.6013811035
 10
85.138918396
 20
175.6013811035
  0
LINE
  5
35D
100
AcDbEntity
  8
0
100
AcDbLine
 62
250
  6
CONTINUOUS
 10
67.2734375
 20
152.2021558799
 11
70.1734375
 21
152.1515361916
  0
LINE
  5
35E
100
AcDbEntity
  8
ASSI
100
AcDbLine
 62
250
  6
CONTINUOUS
 10
67.2734375
 20
152.2021558799
 11
70.1734375
 21
152.1515361916
  0
LINE
  5
35F
100
AcDbEntity
  8
0
100
AcDbLine
 62
7
  6
CONTINUOUS
 10
67.2734375
 20
153.202003575
 11
70.1734375
 21
153.1513838867
  0
LINE
  5
360
100
AcDbEntity
  8
ASSI
100
AcDbLine
 62
7
  6
CONTINUOUS
 10
67.2734375
 20
153.202003575
 11
70.1734375
 21
153.1513838867
  0
LINE
  5
361
100
AcDbEntity
  8
0
100
AcDbLine
 62
250
  6
CONTINUOUS
 10
70.1742350589
 20
152.1868498565
 11
71.6734375
 21
151.8897871143
  0
LINE
  5
362
100
AcDbEntity
  8
ASSI
100
AcDbLine
 62
250
  6
CONTINUOUS
 10
70.1742350589
 20
152.1868498565
 11
71.6734375
 21
151.8897871143
  0
ARC
  5
363
100
AcDbEntity
  8
RACCORDO
100
AcDbCircle
 62
7
  6
CONTINUOUS
 10
132.3864073485
 20
87.4513838867
 40
1.2
100
AcDbArc
 50
180.0
 51
270.0
  0
ARC
  5
364
100
AcDbEntity
  8
RACCORDO
100
AcDbCircle
 62
7
  6
CONTINUOUS
 10
220.1864073485
 20
87.4513838867
 40
1.2
100
AcDbArc
 50
270.0
 51
360.0
  0
ARC
  5
365
100
AcDbEntity
  8
RACCORDO
100
AcDbCircle
 62
7
  6
CONTINUOUS
 10
220.1864073485
 20
130.2513838867
 40
1.2
100
AcDbArc
 50
0.0
 51
90.0
  0
ARC
  5
366
100
AcDbEntity
  8
RACCORDO
100
AcDbCircle
 62
7
  6
CONTINUOUS
 10
132.3864073485
 20
130.2513838867
 40
1.2
100
AcDbArc
 50
90.0
 51
180.0
  0
ARC
  5
367
100
AcDbEntity
  8
SMUSSO
100
AcDbCircle
 62
7
  6
CONTINUOUS
 10
105.0364073485
 20
152.8513838867
 40
1.0
100
AcDbArc
 50
90.0
 51
180.0
  0
ARC
  5
368
100
AcDbEntity
  8
SMUSSO
100
AcDbCircle
 62
7
  6
CONTINUOUS
 10
105.0364073485
 20
64.8513838867
 40
1.0
100
AcDbArc
 50
180.0
 51
270.0
  0
ARC
  5
369
100
AcDbEntity
  8
SMUSSO
100
AcDbCircle
 62
7
  6
CONTINUOUS
 10
247.5364073485
 20
64.8513838867
 40
1.0
100
AcDbArc
 50
270.0
 51
360.0
  0
ARC
  5
36A
100
AcDbEntity
  8
SMUSSO
100
AcDbCircle
 62
7
  6
CONTINUOUS
 10
247.5364073485
 20
152.8513838867
 40
1.0
100
AcDbArc
 50
0.0
 51
90.0
  0
ARC
  5
36B
100
AcDbEntity
  8
0
100
AcDbCircle
 62
7
  6
CONTINUOUS
 10
72.6235618789
 20
82.6513838867
 40
1.0
100
AcDbArc
 50
84.2894068625
 51
90.0
  0
ARC
  5
36C
100
AcDbEntity
  8
ASSI
100
AcDbCircle
 62
7
  6
CONTINUOUS
 10
72.6235618789
 20
82.6513838867
 40
1.0
100
AcDbArc
 50
84.2894068625
 51
90.0
  0
ARC
  5
36D
100
AcDbEntity
  8
0
100
AcDbCircle
 62
7
  6
CONTINUOUS
 10
72.5987506849
 20
82.0013843164
 40
0.3
100
AcDbArc
 50
270.1000000226
 51
297.9490718564
  0
ARC
  5
36E
100
AcDbEntity
  8
ASSI
100
AcDbCircle
 62
7
  6
CONTINUOUS
 10
72.5987506849
 20
82.0013843164
 40
0.3
100
AcDbArc
 50
270.1000000226
 51
297.9490718564
  0
ARC
  5
36F
100
AcDbEntity
  8
0
100
AcDbCircle
 62
7
  6
CONTINUOUS
 10
72.6235618789
 20
135.0513838867
 40
1.0
100
AcDbArc
 50
270.0
 51
275.7105931375
  0
ARC
  5
370
100
AcDbEntity
  8
ASSI
100
AcDbCircle
 62
7
  6
CONTINUOUS
 10
72.6235618789
 20
135.0513838867
 40
1.0
100
AcDbArc
 50
270.0
 51
275.7105931375
  0
ARC
  5
371
100
AcDbEntity
  8
0
100
AcDbCircle
 62
7
  6
CONTINUOUS
 10
72.5987506849
 20
135.701383457
 40
0.3
100
AcDbArc
 50
62.0509281436
 51
89.8999999774
  0
ARC
  5
372
100
AcDbEntity
  8
ASSI
100
AcDbCircle
 62
7
  6
CONTINUOUS
 10
72.5987506849
 20
135.701383457
 40
0.3
100
AcDbArc
 50
62.0509281436
 51
89.8999999774
  0
ARC
  5
373
100
AcDbEntity
  8
0
100
AcDbCircle
 62
7
  6
CONTINUOUS
 10
74.1217414128
 20
82.8098149494
 40
0.3
100
AcDbArc
 50
270.3333333333
 51
297.9601595792
  0
ARC
  5
374
100
AcDbEntity
  8
ASSI
100
AcDbCircle
 62
7
  6
CONTINUOUS
 10
74.1217414128
 20
82.8098149494
 40
0.3
100
AcDbArc
 50
270.3333333333
 51
297.9601595792
  0
ARC
  5
375
100
AcDbEntity
  8
0
100
AcDbCircle
 62
7
  6
CONTINUOUS
 10
74.1217414128
 20
134.892952824
 40
0.3
100
AcDbArc
 50
62.0398404207
 51
89.6666666667
  0
ARC
  5
376
100
AcDbEntity
  8
ASSI
100
AcDbCircle
 62
7
  6
CONTINUOUS
 10
74.1217414128
 20
134.892952824
 40
0.3
100
AcDbArc
 50
62.0398404207
 51
89.6666666667
  0
ELLIPSE
  5
377
100
AcDbEntity
  8
0
100
AcDbEllipse
 62
7
  6
CONTINUOUS
 10
74.4734375
 20
82.7715851917
 30
0.0
 11
0.1417119467
 21
0.1422961243
 31
0.0
 40
0.9918061237
 41
-0.2491986107
 42
0.7350951877
  0
ELLIPSE
  5
378
100
AcDbEntity
  8
0
100
AcDbEllipse
 62
7
  6
CONTINUOUS
 10
71.4515140464
 20
152.1289226496
 30
0.0
 11
1.2772653435
 21
-0.0582277698
 31
0.0
 40
0.7819142031
 41
-3.1412917057
 42
-3.1059619589
  0
ELLIPSE
  5
379
100
AcDbEntity
  8
0
100
AcDbEllipse
 62
7
  6
CONTINUOUS
 10
71.4515140464
 20
65.5738451239
 30
0.0
 11
1.2772653435
 21
0.0582277698
 31
0.0
 40
0.7819142031
 41
3.1059619589
 42
3.1412917057
  0
ELLIPSE
  5
37A
100
AcDbEntity
  8
0
100
AcDbEllipse
 62
7
  6
CONTINUOUS
 10
74.4734375
 20
134.9311825817
 30
0.0
 11
-0.1417119467
 21
0.1422961243
 31
0.0
 40
0.9918061237
 41
-3.8766878413
 42
-2.8923940429
  0
ELLIPSE
  5
37B
100
AcDbEntity
  8
ASSI
100
AcDbEllipse
 62
7
  6
CONTINUOUS
 10
74.4734375
 20
82.7715851917
 30
0.0
 11
0.1417119467
 21
0.1422961243
 31
0.0
 40
0.9918061237
 41
-0.2491986107
 42
0.7350951877
  0
ELLIPSE
  5
37C
100
AcDbEntity
  8
ASSI
100
AcDbEllipse
 62
7
  6
CONTINUOUS
 10
71.4515140464
 20
152.1289226496
 30
0.0
 11
1.2772653435
 21
-0.0582277698
 31
0.0
 40
0.7819142031
 41
-3.1412917057
 42
-3.1059619589
  0
ELLIPSE
  5
37D
100
AcDbEntity
  8
ASSI
100
AcDbEllipse
 62
7
  6
CONTINUOUS
 10
71.4515140464
 20
65.5738451239
 30
0.0
 11
1.2772653435
 21
0.0582277698
 31
0.0
 40
0.7819142031
 41
3.1059619589
 42
3.1412917057
  0
ELLIPSE
  5
37E
100
AcDbEntity
  8
ASSI
100
AcDbEllipse
 62
7
  6
CONTINUOUS
 10
74.4734375
 20
134.9311825817
 30
0.0
 11
-0.1417119467
 21
0.1422961243
 31
0.0
 40
0.9918061237
 41
-3.8766878413
 42
-2.8923940429
  0
ENDSEC
  0
SECTION
  2
OBJECTS
  0
DICTIONARY
  5
C
100
AcDbDictionary
280
0
281
1
  3
ACAD_GROUP
350
D
  3
ACAD_MLINESTYLE
350
17
  3
ACAD_LAYOUT
350
1A
  3
ACAD_PLOTSETTINGS
350
19
  3
ACAD_PLOTSTYLENAME
350
E
  0
DICTIONARY
  5
D
102
{ACAD_REACTORS
330
C
102
}
100
AcDbDictionary
280
0
281
1
  0
ACDBDICTIONARYWDFLT
  5
E
102
{ACAD_REACTORS
330
C
102
}
100
AcDbDictionary
281
1
  3
Normal
350
F
100
AcDbDictionaryWithDefault
340
F
  0
DICTIONARY
  5
17
102
{ACAD_REACTORS
330
C
102
}
100
AcDbDictionary
280
0
281
1
  3
Standard
350
18
  0
DICTIONARY
  5
19
102
{ACAD_REACTORS
330
C
102
}
100
AcDbDictionary
281
1
  0
DICTIONARY
  5
1A
102
{ACAD_REACTORS
330
C
102
}
100
AcDbDictionary
281
1
  3
Model
350
37F
  3
Layout1
350
380
  0
ACDBPLACEHOLDER
  5
F
102
{ACAD_REACTORS
330
E
102
}
  0
MLINESTYLE
  5
18
102
{ACAD_REACTORS
330
17
102
}
100
AcDbMlineStyle
  2
STANDARD
 70
0
  3

 62
256
 51
90.0
 52
90.0
 71
2
 49
0.5
 62
256
  6
BYLAYER
 49
-0.5
 62
256
  6
BYLAYER
  0
LAYOUT
  5
37F
102
{ACAD_REACTORS
330
1A
102
}
100
AcDbPlotSettings
  1

  2
none_device
  4
ISO_A4_(297.00_x_210.00_MM)
  6

 40
0.0
 41
0.0
 42
0.0
 43
0.0
 44
297.0
 45
210.0
 46
0.0
 47
0.0
 48
0.0
 49
0.0
140
0.0
141
0.0
142
1.0
143
1.0
 70
1024
 72
1
 73
0
 74
0
  7

 75
0
147
1.0
148
0.0
149
0.0
100
AcDbLayout
  1
Model
 70
0
 71
0
 10
0.0
 20
0.0
 11
297.0
 21
210.0
 12
0.0
 22
0.0
 32
0.0
 14
0.0
 24
0.0
 34
0.0
 15
0.0
 25
0.0
 35
0.0
146
0.0
 13
0.0
 23
0.0
 33
0.0
 16
1.0
 26
0.0
 36
0.0
 17
0.0
 27
1.0
 37
0.0
 76
0
330
21C
345
0
346
0
  0
LAYOUT
  5
380
102
{ACAD_REACTORS
330
1A
102
}
100
AcDbPlotSettings
  1

  2
none_device
  4
ISO_A4_(297.00_x_210.00_MM)
  6

 40
0.0
 41
0.0
 42
0.0
 43
0.0
 44
297.0
 45
210.0
 46
0.0
 47
0.0
 48
0.0
 49
0.0
140
0.0
141
0.0
142
1.0
143
1.0
 70
0
 72
1
 73
0
 74
0
  7

 75
0
147
1.0
148
0.0
149
0.0
100
AcDbLayout
  1
Layout1
 70
0
 71
1
 10
0.0
 20
0.0
 11
297.0
 21
210.0
 12
0.0
 22
0.0
 32
0.0
 14
0.0
 24
0.0
 34
0.0
 15
0.0
 25
0.0
 35
0.0
146
0.0
 13
0.0
 23
0.0
 33
0.0
 16
1.0
 26
0.0
 36
0.0
 17
0.0
 27
1.0
 37
0.0
 76
0
330
21D
345
0
346
0
  0
ENDSEC
  0
EOF
