  0
SECTION
  2
HEADER
  9
$ACADVER
  1
AC1021
  9
$DWGCODEPAGE
  3
ANSI_1252
  9
$EXTMAX
 10
297.0
 20
210.0
 30
0.0
  9
$EXTMIN
 10
0.0
 20
0.0
 30
0.0
  9
$LIMMIN
 10
0.0
 20
0.0
  9
$LIMMAX
 10
297.0
 20
210.0
  9
$VIEWCTR
 10
148.5
 20
105.0
  9
$VIEWSIZE
 40
210.0
  9
$CLAYER
  8
0
  9
$LTSCALE
 40
16.335
  9
$CELTYPE
  6
BYLAYER
  9
$DIMSCALE
 40
1.0
  9
$DIMASZ
 40
3.0
  9
$DIMEXO
 40
0.5
  9
$DIMDLI
 40
11.286
  9
$DIMEXE
 40
1.5
  9
$DIMCEN
 40
2.673
  9
$DIMLFAC
 40
1.0
  9
$DIMBLK
  1
_FILLED
  9
$DIMALT
 70
0
  9
$DIMALTF
 40
25.4
  9
$DIMTXT
 40
3.0
  9
$DIMTOL
 70
1
  9
$DIMLIM
 70
0
  9
$DIMTFAC
 40
1.0
  9
$DIMTP
 40
0.01
  9
$DIMTM
 40
0.01
  9
$DIMGAP
 40
0.625
  9
$DIMDSEP
 70
44
  9
$AUNITS
 70
0
  9
$PDMODE
 70
3
  9
$PDSIZE
 40
3.0
  9
$HANDSEED
  5
327
  9
$TILEMODE
 70
1
  9
$MEASUREMENT
 70
1
  9
$INSUNITS
 70
4
  0
ENDSEC
  0
SECTION
  2
CLASSES
  0
CLASS
  1
ACDBDICTIONARYWDFLT
  2
AcDbDictionaryWithDefault
  3
AutoCAD 2000
 90
0
 91
1
280
0
281
0
  0
CLASS
  1
ACDBPLACEHOLDER
  2
AcDbPlaceHolder
  3
AutoCAD 2000
 90
0
 91
1
280
0
281
0
  0
CLASS
  1
LAYOUT
  2
AcDbLayout
  3
AutoCAD 2000
 90
0
 91
0
280
0
281
0
  0
ENDSEC
  0
SECTION
  2
TABLES
  0
TABLE
  2
VPORT
  5
8
100
AcDbSymbolTable
 70
2
  0
VPORT
  5
1F4
100
AcDbSymbolTableRecord
100
AcDbViewportTableRecord
  2
*ACTIVE
 70
0
 10
0.0
 20
0.0
 11
1.0
 21
1.0
 12
148.5
 22
105.0
 13
0.0
 23
0.0
 14
1.0
 24
1.0
 15
0.0
 25
0.0
 16
0.0
 26
0.0
 36
1.0
 17
0.0
 27
0.0
 37
0.0
 40
210.0
 41
1.4142857143
 42
50.0
 43
0.0
 44
0.0
 50
0.0
 51
0.0
 71
0
 72
100
 73
1
 74
1
 75
0
 76
0
 77
0
 78
0
  0
ENDTAB
  0
TABLE
  2
LTYPE
  5
5
100
AcDbSymbolTable
 70
6
  0
LTYPE
  5
14
100
AcDbSymbolTableRecord
100
AcDbLinetypeTableRecord
  2
BYBLOCK
 70
0
  3

 72
65
 73
0
 40
0.0
  0
LTYPE
  5
15
100
AcDbSymbolTableRecord
100
AcDbLinetypeTableRecord
  2
BYLAYER
 70
0
  3

 72
65
 73
0
 40
0.0
  0
LTYPE
  5
16
100
AcDbSymbolTableRecord
100
AcDbLinetypeTableRecord
  2
CONTINUOUS
 70
64
  3
Solid line
 72
65
 73
0
 40
0.0
  0
LTYPE
  5
1F5
100
AcDbSymbolTableRecord
100
AcDbLinetypeTableRecord
  2
CENTER
 70
64
  3
____ _ ____ _ ____ _ ____ _ ____ _ ____ _ ____
 72
65
 73
4
 40
0.6
 49
0.375
 74
0
 49
-0.075
 74
0
 49
0.075
 74
0
 49
-0.075
 74
0
  0
LTYPE
  5
1F6
100
AcDbSymbolTableRecord
100
AcDbLinetypeTableRecord
  2
HIDDEN
 70
64
  3
- - - - - - - - - - - - - - - - - - - -
 72
65
 73
2
 40
0.2
 49
0.1
 74
0
 49
-0.1
 74
0
  0
LTYPE
  5
1F7
100
AcDbSymbolTableRecord
100
AcDbLinetypeTableRecord
  2
PHANTOM
 70
64
  3
_____ _ _ _____ _ _ _____ _ _ _____
 72
65
 73
6
 40
0.8
 49
0.45
 74
0
 49
-0.05
 74
0
 49
0.1
 74
0
 49
-0.05
 74
0
 49
0.1
 74
0
 49
-0.05
 74
0
  0
LTYPE
  5
1F8
100
AcDbSymbolTableRecord
100
AcDbLinetypeTableRecord
  2
DOT
 70
64
  3
. . . . . . . . . . . . . . . . . . . .
 72
65
 73
2
 40
0.2
 49
0.1
 74
0
 49
-0.1
 74
0
  0
LTYPE
  5
1F9
100
AcDbSymbolTableRecord
100
AcDbLinetypeTableRecord
  2
DASHED
 70
64
  3
- - - - - - - - - - - - - - - - - - - -
 72
65
 73
2
 40
0.2
 49
0.1
 74
0
 49
-0.1
 74
0
  0
ENDTAB
  0
TABLE
  2
LAYER
  5
2
100
AcDbSymbolTable
 70
36
  0
LAYER
  5
10
100
AcDbSymbolTableRecord
100
AcDbLayerTableRecord
  2
0
 70
0
 62
7
  6
CONTINUOUS
370
-3
390
F
  0
LAYER
  5
1FA
100
AcDbSymbolTableRecord
100
AcDbLayerTableRecord
  2
DEFAULT_1
 70
0
 62
7
  6
CENTER
370
-3
390
F
  0
LAYER
  5
1FB
100
AcDbSymbolTableRecord
100
AcDbLayerTableRecord
  2
DEFAULT_2
 70
0
 62
7
  6
HIDDEN
370
-3
390
F
  0
LAYER
  5
1FC
100
AcDbSymbolTableRecord
100
AcDbLayerTableRecord
  2
DEFAULT_3
 70
0
 62
7
  6
PHANTOM
370
-3
390
F
  0
LAYER
  5
1FD
100
AcDbSymbolTableRecord
100
AcDbLayerTableRecord
  2
ASSI
 70
0
 62
7
  6
CONTINUOUS
370
-3
390
F
  0
LAYER
  5
1FE
100
AcDbSymbolTableRecord
100
AcDbLayerTableRecord
  2
COORDINATE
 70
0
 62
7
  6
CONTINUOUS
370
-3
390
F
  0
LAYER
  5
1FF
100
AcDbSymbolTableRecord
100
AcDbLayerTableRecord
  2
COORD_ORIGINE
 70
0
 62
7
  6
CONTINUOUS
370
-3
390
F
  0
LAYER
  5
200
100
AcDbSymbolTableRecord
100
AcDbLayerTableRecord
  2
COPY_PUBLISH
 70
0
 62
7
  6
CONTINUOUS
370
-3
390
F
  0
LAYER
  5
201
100
AcDbSymbolTableRecord
100
AcDbLayerTableRecord
  2
COSMETIC
 70
0
 62
7
  6
CONTINUOUS
370
-3
390
F
  0
LAYER
  5
202
100
AcDbSymbolTableRecord
100
AcDbLayerTableRecord
  2
COSMETICI
 70
0
 62
7
  6
CONTINUOUS
370
-3
390
F
  0
LAYER
  5
203
100
AcDbSymbolTableRecord
100
AcDbLayerTableRecord
  2
CURVA_TASSELLO
 70
0
 62
7
  6
CONTINUOUS
370
-3
390
F
  0
LAYER
  5
204
100
AcDbSymbolTableRecord
100
AcDbLayerTableRecord
  2
CURVE
 70
0
 62
7
  6
CONTINUOUS
370
-3
390
F
  0
LAYER
  5
205
100
AcDbSymbolTableRecord
100
AcDbLayerTableRecord
  2
DRAFT
 70
0
 62
7
  6
CONTINUOUS
370
-3
390
F
  0
LAYER
  5
206
100
AcDbSymbolTableRecord
100
AcDbLayerTableRecord
  2
IMPORT_IGES
 70
0
 62
7
  6
CONTINUOUS
370
-3
390
F
  0
LAYER
  5
207
100
AcDbSymbolTableRecord
100
AcDbLayerTableRecord
  2
INTFCLR_2
 70
0
 62
7
  6
CONTINUOUS
370
-3
390
F
  0
LAYER
  5
208
100
AcDbSymbolTableRecord
100
AcDbLayerTableRecord
  2
INTF_1
 70
0
 62
7
  6
CONTINUOUS
370
-3
390
F
  0
LAYER
  5
209
100
AcDbSymbolTableRecord
100
AcDbLayerTableRecord
  2
INTF_7
 70
0
 62
7
  6
CONTINUOUS
370
-3
390
F
  0
LAYER
  5
20A
100
AcDbSymbolTableRecord
100
AcDbLayerTableRecord
  2
LINEA_CHIUSURA
 70
0
 62
7
  6
CONTINUOUS
370
-3
390
F
  0
LAYER
  5
20B
100
AcDbSymbolTableRecord
100
AcDbLayerTableRecord
  2
NOTE
 70
0
 62
7
  6
CONTINUOUS
370
-3
390
F
  0
LAYER
  5
20C
100
AcDbSymbolTableRecord
100
AcDbLayerTableRecord
  2
PIANI
 70
0
 62
7
  6
CONTINUOUS
370
-3
390
F
  0
LAYER
  5
20D
100
AcDbSymbolTableRecord
100
AcDbLayerTableRecord
  2
PIANI_ORIGINE
 70
0
 62
7
  6
CONTINUOUS
370
-3
390
F
  0
LAYER
  5
20E
100
AcDbSymbolTableRecord
100
AcDbLayerTableRecord
  2
PIANI_RIFERIMENTO
 70
0
 62
7
  6
CONTINUOUS
370
-3
390
F
  0
LAYER
  5
20F
100
AcDbSymbolTableRecord
100
AcDbLayerTableRecord
  2
PUNTI
 70
0
 62
7
  6
CONTINUOUS
370
-3
390
F
  0
LAYER
  5
210
100
AcDbSymbolTableRecord
100
AcDbLayerTableRecord
  2
RACCORDO
 70
0
 62
7
  6
CONTINUOUS
370
-3
390
F
  0
LAYER
  5
211
100
AcDbSymbolTableRecord
100
AcDbLayerTableRecord
  2
RGB__255__255__255__
 70
0
 62
7
  6
CONTINUOUS
370
-3
390
F
  0
LAYER
  5
212
100
AcDbSymbolTableRecord
100
AcDbLayerTableRecord
  2
RGB____0____0____0__
 70
0
 62
7
  6
CONTINUOUS
370
-3
390
F
  0
LAYER
  5
213
100
AcDbSymbolTableRecord
100
AcDbLayerTableRecord
  2
SIMBOLI
 70
0
 62
7
  6
CONTINUOUS
370
-3
390
F
  0
LAYER
  5
214
100
AcDbSymbolTableRecord
100
AcDbLayerTableRecord
  2
SMUSSO
 70
0
 62
7
  6
CONTINUOUS
370
-3
390
F
  0
LAYER
  5
215
100
AcDbSymbolTableRecord
100
AcDbLayerTableRecord
  2
SNAPLINE
 70
0
 62
7
  6
CONTINUOUS
370
-3
390
F
  0
LAYER
  5
216
100
AcDbSymbolTableRecord
100
AcDbLayerTableRecord
  2
SUPERFICI
 70
0
 62
7
  6
CONTINUOUS
370
-3
390
F
  0
LAYER
  5
217
100
AcDbSymbolTableRecord
100
AcDbLayerTableRecord
  2
TRASH
 70
0
 62
7
  6
CONTINUOUS
370
-3
390
F
  0
LAYER
  5
218
100
AcDbSymbolTableRecord
100
AcDbLayerTableRecord
  2
WHITE
 70
0
 62
7
  6
CONTINUOUS
370
-3
390
F
  0
LAYER
  5
219
100
AcDbSymbolTableRecord
100
AcDbLayerTableRecord
  2
XSEC_DATUMS
 70
0
 62
7
  6
CONTINUOUS
370
-3
390
F
  0
ENDTAB
  0
TABLE
  2
STYLE
  5
3
100
AcDbSymbolTable
 70
1
  0
STYLE
  5
11
100
AcDbSymbolTableRecord
100
AcDbTextStyleTableRecord
  2
STANDARD
 70
0
 40
0.0
 41
0.8
 50
0.0
 71
0
 42
0.2
  3
txt
  4

  0
STYLE
  5
21A
100
AcDbSymbolTableRecord
100
AcDbTextStyleTableRecord
  2
TEXTSTYLE_1
 70
0
 40
0.0
 41
0.8
 50
0.0
 71
0
 42
0.2
  3
gdt
  4

  0
ENDTAB
  0
TABLE
  2
VIEW
  5
6
100
AcDbSymbolTable
 70
0
  0
ENDTAB
  0
TABLE
  2
UCS
  5
7
100
AcDbSymbolTable
 70
0
  0
ENDTAB
  0
TABLE
  2
APPID
  5
9
100
AcDbSymbolTable
 70
1
  0
APPID
  5
21B
100
AcDbSymbolTableRecord
100
AcDbRegAppTableRecord
  2
ACAD
 70
0
  0
ENDTAB
  0
TABLE
  2
BLOCK_RECORD
  5
1
100
AcDbSymbolTable
 70
0
  0
BLOCK_RECORD
  5
21C
100
AcDbSymbolTableRecord
100
AcDbBlockTableRecord
  2
*Model_Space
  0
BLOCK_RECORD
  5
21D
100
AcDbSymbolTableRecord
100
AcDbBlockTableRecord
  2
*Paper_Space
  0
BLOCK_RECORD
  5
21E
100
AcDbSymbolTableRecord
100
AcDbBlockTableRecord
  2
_FILLED
  0
BLOCK_RECORD
  5
21F
100
AcDbSymbolTableRecord
100
AcDbBlockTableRecord
  2
*D0
  0
BLOCK_RECORD
  5
220
100
AcDbSymbolTableRecord
100
AcDbBlockTableRecord
  2
*D1
  0
BLOCK_RECORD
  5
221
100
AcDbSymbolTableRecord
100
AcDbBlockTableRecord
  2
*D2
  0
BLOCK_RECORD
  5
222
100
AcDbSymbolTableRecord
100
AcDbBlockTableRecord
  2
*D3
  0
ENDTAB
  0
TABLE
  2
DIMSTYLE
  5
A
100
AcDbSymbolTable
 70
1
100
AcDbDimStyleTable
 71
0
  0
DIMSTYLE
105
223
100
AcDbSymbolTableRecord
100
AcDbDimStyleTableRecord
  2
STANDARD
 70
0
  3

  4

 40
1.0
 41
3.0
 42
0.5
 43
0.38
 44
1.5
 45
0.0
 46
0.0
 47
0.01
 48
0.01
140
3.0
141
0.09
142
0.0
143
25.4
144
1.0
145
0.0
146
1.0
147
0.625
 71
1.0
 72
0.0
 73
0
 74
0
 75
0
 76
0
 77
1
 78
8
 79
2
170
0
171
1
172
0
173
0
174
0
175
0
176
0
177
0
178
0
270
2
179
2
271
2
272
2
273
2
274
2
275
0
280
0
281
0
282
0
283
1
284
8
285
0
286
0
287
3
288
0
340
11
278
44
341
21E
342
21E
343
21E
344
21E
  0
DIMSTYLE
105
224
100
AcDbSymbolTableRecord
100
AcDbDimStyleTableRecord
  2
DIMSTYLE_1
 70
0
  3

  4

 40
1.0
 41
3.0
 42
0.5
 43
0.38
 44
1.5
 45
0.0
 46
0.0
 47
0.0
 48
0.0
140
3.0
141
0.09
142
0.0
143
25.4
144
1.0
145
0.0
146
1.0
147
0.75
 71
0.0
 72
0.0
 73
0
 74
0
 75
0
 76
0
 77
1
 78
8
 79
2
170
0
171
1
172
0
173
0
174
0
175
0
176
0
177
0
178
0
270
2
179
2
271
2
272
2
273
2
274
2
275
0
280
0
281
0
282
0
283
1
284
8
285
0
286
0
287
3
288
0
340
11
278
44
341
21E
342
21E
343
21E
344
21E
  0
ENDTAB
  0
ENDSEC
  0
SECTION
  2
BLOCKS
  0
BLOCK
  5
20
100
AcDbEntity
  8
0
100
AcDbBlockBegin
  2
*Model_Space
 70
0
 10
0.0
 20
0.0
 30
0.0
  3
*Model_Space
  1

  0
ENDBLK
  5
21
100
AcDbEntity
  8
0
100
AcDbBlockEnd
  0
BLOCK
  5
1C
100
AcDbEntity
  8
0
100
AcDbBlockBegin
  2
*Paper_Space
 70
0
 10
0.0
 20
0.0
 30
0.0
  3
*Paper_Space
  1

  0
ENDBLK
  5
1D
100
AcDbEntity
  8
0
100
AcDbBlockEnd
  0
BLOCK
  5
225
100
AcDbEntity
  8
0
100
AcDbBlockBegin
  2
_FILLED
 70
64
 10
0.0
 20
0.0
  3
_FILLED
  1

  0
SOLID
  5
226
100
AcDbEntity
  8
0
  6
BYBLOCK
 62
0
100
AcDbTrace
 10
0.0
 20
0.0
 11
-1.0
 21
0.3166666667
 12
-1.0
 22
-0.3166666667
 13
-1.0
 23
-0.3166666667
  0
ENDBLK
  5
227
100
AcDbEntity
  8
0
  6
BYBLOCK
 62
0
100
AcDbBlockEnd
  0
BLOCK
  5
228
100
AcDbEntity
  8
0
100
AcDbBlockBegin
 62
7
  6
CONTINUOUS
  2
*D0
 70
65
 10
0.0
 20
0.0
  3
*D0
  1

  0
LINE
  5
229
100
AcDbEntity
  8
0
100
AcDbLine
 62
7
  6
CONTINUOUS
 10
250.30859375
 20
149.7626953125
 11
260.30859375
 21
149.7626953125
  0
LINE
  5
22A
100
AcDbEntity
  8
0
100
AcDbLine
 62
7
  6
CONTINUOUS
 10
250.30859375
 20
59.7626953125
 11
260.30859375
 21
59.7626953125
  0
LINE
  5
22B
100
AcDbEntity
  8
0
100
AcDbLine
 62
7
  6
CONTINUOUS
 10
258.80859375
 20
149.7626953125
 11
258.80859375
 21
104.7626953125
  0
LINE
  5
22C
100
AcDbEntity
  8
0
100
AcDbLine
 62
7
  6
CONTINUOUS
 10
258.80859375
 20
59.7626953125
 11
258.80859375
 21
104.7626953125
  0
INSERT
  5
22D
100
AcDbEntity
  8
0
100
AcDbBlockReference
 62
7
  6
CONTINUOUS
  2
_FILLED
 10
258.80859375
 20
149.7626953125
 41
3.0
 42
3.0
 43
3.0
 50
90.0
  0
INSERT
  5
22E
100
AcDbEntity
  8
0
100
AcDbBlockReference
 62
7
  6
CONTINUOUS
  2
_FILLED
 10
258.80859375
 20
59.7626953125
 41
3.0
 42
3.0
 43
3.0
 50
270.0
  0
ENDBLK
  5
22F
100
AcDbEntity
  8
0
  6
BYBLOCK
 62
0
100
AcDbBlockEnd
  0
BLOCK
  5
230
100
AcDbEntity
  8
0
100
AcDbBlockBegin
 62
7
  6
CONTINUOUS
  2
*D1
 70
65
 10
0.0
 20
0.0
  3
*D1
  1

  0
LINE
  5
231
100
AcDbEntity
  8
0
100
AcDbLine
 62
7
  6
CONTINUOUS
 10
250.80859375
 20
149.2626953125
 11
250.80859375
 21
159.2626953125
  0
LINE
  5
232
100
AcDbEntity
  8
0
100
AcDbLine
 62
7
  6
CONTINUOUS
 10
106.30859375
 20
149.2626953125
 11
106.30859375
 21
159.2626953125
  0
LINE
  5
233
100
AcDbEntity
  8
0
100
AcDbLine
 62
7
  6
CONTINUOUS
 10
250.80859375
 20
157.7626953125
 11
178.55859375
 21
157.7626953125
  0
LINE
  5
234
100
AcDbEntity
  8
0
100
AcDbLine
 62
7
  6
CONTINUOUS
 10
106.30859375
 20
157.7626953125
 11
178.55859375
 21
157.7626953125
  0
INSERT
  5
235
100
AcDbEntity
  8
0
100
AcDbBlockReference
 62
7
  6
CONTINUOUS
  2
_FILLED
 10
250.80859375
 20
157.7626953125
 41
3.0
 42
3.0
 43
3.0
  0
INSERT
  5
236
100
AcDbEntity
  8
0
100
AcDbBlockReference
 62
7
  6
CONTINUOUS
  2
_FILLED
 10
106.30859375
 20
157.7626953125
 41
3.0
 42
3.0
 43
3.0
 50
180.0
  0
ENDBLK
  5
237
100
AcDbEntity
  8
0
  6
BYBLOCK
 62
0
100
AcDbBlockEnd
  0
BLOCK
  5
238
100
AcDbEntity
  8
0
100
AcDbBlockBegin
 62
7
  6
CONTINUOUS
  2
*D2
 70
65
 10
0.0
 20
0.0
  3
*D2
  1

  0
LINE
  5
239
100
AcDbEntity
  8
0
100
AcDbLine
 62
7
  6
CONTINUOUS
 10
68.078515625
 20
149.2626953125
 11
68.078515625
 21
159.2626953125
  0
LINE
  5
23A
100
AcDbEntity
  8
0
100
AcDbLine
 62
7
  6
CONTINUOUS
 10
75.628515625
 20
148.30109854
 11
75.628515625
 21
159.2626953125
  0
LINE
  5
23B
100
AcDbEntity
  8
0
100
AcDbLine
 62
7
  6
CONTINUOUS
 10
68.078515625
 20
157.7626953125
 11
71.853515625
 21
157.7626953125
  0
LINE
  5
23C
100
AcDbEntity
  8
0
100
AcDbLine
 62
7
  6
CONTINUOUS
 10
75.628515625
 20
157.7626953125
 11
71.853515625
 21
157.7626953125
  0
LINE
  5
23D
100
AcDbEntity
  8
0
100
AcDbLine
 62
7
  6
CONTINUOUS
 10
71.853515625
 20
157.7626953125
 11
88.3887281821
 21
157.7626953125
  0
INSERT
  5
23E
100
AcDbEntity
  8
0
100
AcDbBlockReference
 62
7
  6
CONTINUOUS
  2
_FILLED
 10
68.078515625
 20
157.7626953125
 41
3.0
 42
3.0
 43
3.0
 50
180.0
  0
INSERT
  5
23F
100
AcDbEntity
  8
0
100
AcDbBlockReference
 62
7
  6
CONTINUOUS
  2
_FILLED
 10
75.628515625
 20
157.7626953125
 41
3.0
 42
3.0
 43
3.0
  0
ENDBLK
  5
240
100
AcDbEntity
  8
0
  6
BYBLOCK
 62
0
100
AcDbBlockEnd
  0
BLOCK
  5
241
100
AcDbEntity
  8
0
100
AcDbBlockBegin
 62
7
  6
CONTINUOUS
  2
*D3
 70
65
 10
0.0
 20
0.0
  3
*D3
  1

  0
LINE
  5
242
100
AcDbEntity
  8
0
100
AcDbLine
 62
7
  6
CONTINUOUS
 10
78.628515625
 20
131.3090121057
 11
78.628515625
 21
169.2626953125
  0
LINE
  5
243
100
AcDbEntity
  8
0
100
AcDbLine
 62
7
  6
CONTINUOUS
 10
68.078515625
 20
149.2626953125
 11
68.078515625
 21
169.2626953125
  0
LINE
  5
244
100
AcDbEntity
  8
0
100
AcDbLine
 62
7
  6
CONTINUOUS
 10
78.628515625
 20
167.7626953125
 11
73.353515625
 21
167.7626953125
  0
LINE
  5
245
100
AcDbEntity
  8
0
100
AcDbLine
 62
7
  6
CONTINUOUS
 10
73.353515625
 20
167.7626953125
 11
89.5364218964
 21
167.7626953125
  0
LINE
  5
246
100
AcDbEntity
  8
0
100
AcDbLine
 62
7
  6
CONTINUOUS
 10
68.078515625
 20
167.7626953125
 11
73.353515625
 21
167.7626953125
  0
INSERT
  5
247
100
AcDbEntity
  8
0
100
AcDbBlockReference
 62
7
  6
CONTINUOUS
  2
_FILLED
 10
78.628515625
 20
167.7626953125
 41
3.0
 42
3.0
 43
3.0
  0
INSERT
  5
248
100
AcDbEntity
  8
0
100
AcDbBlockReference
 62
7
  6
CONTINUOUS
  2
_FILLED
 10
68.078515625
 20
167.7626953125
 41
3.0
 42
3.0
 43
3.0
 50
180.0
  0
ENDBLK
  5
249
100
AcDbEntity
  8
0
  6
BYBLOCK
 62
0
100
AcDbBlockEnd
  0
ENDSEC
  0
SECTION
  2
ENTITIES
  0
DIMENSION
  5
24A
100
AcDbEntity
  8
0
100
AcDbDimension
 62
7
  6
CONTINUOUS
  2
*D0
 10
258.80859375
 20
59.7626953125
 11
258.80859375
 21
102.4055524554
 70
160
 71
2
 72
2
 41
0.9
 42
90.0
  3
DIMSTYLE_1
100
AcDbAlignedDimension
 13
249.80859375
 23
149.7626953125
 14
249.80859375
 24
59.7626953125
 50
270.0
100
AcDbRotatedDimension
  0
DIMENSION
  5
24B
100
AcDbEntity
  8
0
100
AcDbDimension
 62
7
  6
CONTINUOUS
  2
*D1
 10
106.30859375
 20
157.7626953125
 11
173.4157366071
 21
157.7626953125
 70
160
 71
2
 72
2
 41
0.9
 42
144.5
  3
DIMSTYLE_1
100
AcDbAlignedDimension
 13
250.80859375
 23
148.7626953125
 14
106.30859375
 24
148.7626953125
 50
180.0
100
AcDbRotatedDimension
  0
DIMENSION
  5
24C
100
AcDbEntity
  8
0
100
AcDbDimension
 62
7
  6
CONTINUOUS
  2
*D2
 10
75.628515625
 20
157.7626953125
 11
80.031585325
 21
157.7626953125
 70
160
 71
1
 72
2
 41
0.9
 42
7.55
  3
DIMSTYLE_1
100
AcDbAlignedDimension
 13
68.078515625
 23
148.7626953125
 14
75.628515625
 24
147.80109854
100
AcDbRotatedDimension
  0
DIMENSION
  5
24D
100
AcDbEntity
  8
0
100
AcDbDimension
 62
7
  6
CONTINUOUS
  2
*D3
 10
68.078515625
 20
167.7626953125
 11
79.464993325
 21
167.7626953125
 70
160
 71
1
 72
2
 41
0.9
 42
10.55
  3
DIMSTYLE_1
100
AcDbAlignedDimension
 13
78.628515625
 23
130.8090121057
 14
68.078515625
 24
148.7626953125
 50
180.0
100
AcDbRotatedDimension
  0
LINE
  5
24E
100
AcDbEntity
  8
SMUSSO
100
AcDbLine
 62
7
  6
CONTINUOUS
 10
106.30859375
 20
148.7626953125
 11
107.30859375
 21
149.7626953125
  0
LINE
  5
24F
100
AcDbEntity
  8
SMUSSO
100
AcDbLine
 62
7
  6
CONTINUOUS
 10
107.30859375
 20
59.7626953125
 11
106.30859375
 21
60.7626953125
  0
LINE
  5
250
100
AcDbEntity
  8
SMUSSO
100
AcDbLine
 62
7
  6
CONTINUOUS
 10
106.30859375
 20
148.7626953125
 11
106.30859375
 21
60.7626953125
  0
LINE
  5
251
100
AcDbEntity
  8
SMUSSO
100
AcDbLine
 62
7
  6
CONTINUOUS
 10
107.30859375
 20
148.7626953125
 11
107.30859375
 21
60.7626953125
  0
LINE
  5
252
100
AcDbEntity
  8
RACCORDO
100
AcDbLine
 62
7
  6
CONTINUOUS
 10
133.45859375
 20
126.1626953125
 11
133.45859375
 21
83.3626953125
  0
LINE
  5
253
100
AcDbEntity
  8
SMUSSO
100
AcDbLine
 62
7
  6
CONTINUOUS
 10
107.30859375
 20
59.7626953125
 11
249.80859375
 21
59.7626953125
  0
LWPOLYLINE
  5
254
100
AcDbEntity
  8
0
100
AcDbPolyline
 62
7
  6
CONTINUOUS
 90
3
 70
0
 43
0.3500000006
 10
173.4157331543
 20
160.6555594482
 10
174.2728710938
 20
161.5126973877
 10
174.2728710938
 20
158.5126964722
  0
LINE
  5
255
100
AcDbEntity
  8
SMUSSO
100
AcDbLine
 62
7
  6
CONTINUOUS
 10
107.30859375
 20
60.7626953125
 11
249.80859375
 21
60.7626953125
  0
LWPOLYLINE
  5
256
100
AcDbEntity
  8
0
100
AcDbPolyline
 62
7
  6
CONTINUOUS
 90
6
 70
0
 10
182.363948883
 20
78.7390324215
 10
182.3691946221
 20
78.7403424454
 10
182.374503006
 20
78.74209437
 10
182.3798740347
 20
78.7442881955
 10
182.3852913977
 20
78.747014616
 10
182.3907714054
 20
78.7501829373
  0
LWPOLYLINE
  5
257
100
AcDbEntity
  8
0
100
AcDbPolyline
 62
7
  6
CONTINUOUS
 90
10
 70
0
 10
181.6255139568
 20
79.5242340132
 10
181.6675308902
 20
79.5311254152
 10
181.7087593777
 20
79.5366634662
 10
181.7491994193
 20
79.5408481663
 10
181.7884823962
 20
79.5436925226
 10
181.8269769273
 20
79.5451835278
 10
181.8657888685
 20
79.5452821606
 10
181.9052868387
 20
79.5439754137
 10
181.9451022191
 20
79.5412762943
 10
181.9852350098
 20
79.5371848024
  0
LINE
  5
258
100
AcDbEntity
  8
0
100
AcDbLine
 62
7
  6
CONTINUOUS
 10
174.947737057
 20
77.6991797418
 11
175.3523966576
 21
77.6991797418
  0
LINE
  5
259
100
AcDbEntity
  8
0
100
AcDbLine
 62
7
  6
CONTINUOUS
 10
176.2299106178
 20
77.6991797418
 11
176.6890987874
 21
77.6991797418
  0
LINE
  5
25A
100
AcDbEntity
  8
0
100
AcDbLine
 62
7
  6
CONTINUOUS
 10
176.936293919
 20
77.6991797418
 11
177.3755867562
 21
77.6991797418
  0
LINE
  5
25B
100
AcDbEntity
  8
0
100
AcDbLine
 62
7
  6
CONTINUOUS
 10
178.0133625367
 20
77.6991797418
 11
178.0777628195
 21
77.6991797418
  0
LINE
  5
25C
100
AcDbEntity
  8
0
100
AcDbLine
 62
7
  6
CONTINUOUS
 10
178.7180790761
 20
77.6991797418
 11
179.1672865795
 21
77.6991797418
  0
LINE
  5
25D
100
AcDbEntity
  8
0
100
AcDbLine
 62
7
  6
CONTINUOUS
 10
179.2393910524
 20
77.6991797418
 11
179.693596746
 21
77.6991797418
  0
LINE
  5
25E
100
AcDbEntity
  8
0
100
AcDbLine
 62
7
  6
CONTINUOUS
 10
180.5645955636
 20
77.6991797418
 11
181.0485599225
 21
77.6991797418
  0
LINE
  5
25F
100
AcDbEntity
  8
0
100
AcDbLine
 62
7
  6
CONTINUOUS
 10
181.1833998818
 20
77.6991793251
 11
181.6407399294
 21
77.6991793251
  0
LINE
  5
260
100
AcDbEntity
  8
0
100
AcDbLine
 62
7
  6
CONTINUOUS
 10
182.3439225225
 20
77.6991793251
 11
182.7856076969
 21
77.6991793251
  0
LINE
  5
261
100
AcDbEntity
  8
0
100
AcDbLine
 62
7
  6
CONTINUOUS
 10
179.8203041688
 20
78.138340579
 11
180.445641569
 21
78.138340579
  0
LINE
  5
262
100
AcDbEntity
  8
RACCORDO
100
AcDbLine
 62
7
  6
CONTINUOUS
 10
182.6371983316
 20
78.2626953125
 11
182.1763210276
 21
78.2626953125
  0
LINE
  5
263
100
AcDbEntity
  8
RACCORDO
100
AcDbLine
 62
7
  6
CONTINUOUS
 10
181.6407399294
 20
78.2626953125
 11
181.1833998818
 21
78.2626953125
  0
LINE
  5
264
100
AcDbEntity
  8
RACCORDO
100
AcDbLine
 62
7
  6
CONTINUOUS
 10
180.8756593091
 20
78.2626953125
 11
179.4161456322
 21
78.2626953125
  0
LINE
  5
265
100
AcDbEntity
  8
RACCORDO
100
AcDbLine
 62
7
  6
CONTINUOUS
 10
179.1145915538
 20
78.2626953125
 11
178.6809140036
 21
78.2626953125
  0
LINE
  5
266
100
AcDbEntity
  8
RACCORDO
100
AcDbLine
 62
7
  6
CONTINUOUS
 10
178.2928458797
 20
78.2626953125
 11
177.8020369541
 21
78.2626953125
  0
LINE
  5
267
100
AcDbEntity
  8
RACCORDO
100
AcDbLine
 62
7
  6
CONTINUOUS
 10
177.4144611088
 20
78.2626953125
 11
176.9871761501
 21
78.2626953125
  0
LINE
  5
268
100
AcDbEntity
  8
RACCORDO
100
AcDbLine
 62
7
  6
CONTINUOUS
 10
176.6890987874
 20
78.2626953125
 11
176.2299106178
 21
78.2626953125
  0
LINE
  5
269
100
AcDbEntity
  8
RACCORDO
100
AcDbLine
 62
7
  6
CONTINUOUS
 10
175.5335333428
 20
78.2626953125
 11
174.7690915889
 21
78.2626953125
  0
LINE
  5
26A
100
AcDbEntity
  8
0
100
AcDbLine
 62
7
  6
CONTINUOUS
 10
180.3538732874
 20
78.4781619921
 11
179.9142336884
 21
78.4781619921
  0
LINE
  5
26B
100
AcDbEntity
  8
0
100
AcDbLine
 62
7
  6
CONTINUOUS
 10
181.6407399294
 20
78.5600653829
 11
181.8869453908
 21
78.5600653829
  0
LINE
  5
26C
100
AcDbEntity
  8
0
100
AcDbLine
 62
7
  6
CONTINUOUS
 10
181.8879351615
 20
78.9203419174
 11
181.6255139568
 21
78.9203419174
  0
LINE
  5
26D
100
AcDbEntity
  8
0
100
AcDbLine
 62
7
  6
CONTINUOUS
 10
180.3736020485
 20
79.8989942132
 11
179.9293937829
 21
79.8989942132
  0
LINE
  5
26E
100
AcDbEntity
  8
0
100
AcDbLine
 62
7
  6
CONTINUOUS
 10
178.9615792555
 20
79.8989942132
 11
178.5072583238
 21
79.8989942132
  0
LINE
  5
26F
100
AcDbEntity
  8
0
100
AcDbLine
 62
7
  6
CONTINUOUS
 10
177.5937324605
 20
79.8989942132
 11
177.1349245766
 21
79.8989942132
  0
LINE
  5
270
100
AcDbEntity
  8
0
100
AcDbLine
 62
7
  6
CONTINUOUS
 10
176.0595059588
 20
79.8989942132
 11
175.6006310273
 21
79.8989942132
  0
LINE
  5
271
100
AcDbEntity
  8
0
100
AcDbLine
 62
7
  6
CONTINUOUS
 10
174.7491723993
 20
79.8989942132
 11
174.250352803
 21
79.8989942132
  0
LINE
  5
272
100
AcDbEntity
  8
0
100
AcDbLine
 62
7
  6
CONTINUOUS
 10
176.6890987874
 20
79.8991262132
 11
176.2299106178
 21
79.8991262132
  0
LINE
  5
273
100
AcDbEntity
  8
RACCORDO
100
AcDbLine
 62
7
  6
CONTINUOUS
 10
134.65859375
 20
82.1626953125
 11
222.45859375
 21
82.1626953125
  0
LWPOLYLINE
  5
274
100
AcDbEntity
  8
0
100
AcDbPolyline
 62
7
  6
CONTINUOUS
 90
16
 70
0
 10
181.8869453908
 20
78.5600653829
 10
181.9096010336
 20
78.5590303542
 10
181.9315827161
 20
78.5562927436
 10
181.9528904384
 20
78.5518525514
 10
181.9736001757
 20
78.545681179
 10
181.9936359527
 20
78.5378072248
 10
182.012769844
 20
78.5283164842
 10
182.0309140592
 20
78.5172800135
 10
182.0481563887
 20
78.5046267564
 10
182.0645322788
 20
78.4902293394
 10
182.0801136061
 20
78.4740634348
 10
182.094828494
 20
78.4561533702
 10
182.1084967593
 20
78.4364447555
 10
182.121058341
 20
78.4149194606
 10
182.1325733
 20
78.3915956156
 10
182.1430416364
 20
78.3664732204
  0
LWPOLYLINE
  5
275
100
AcDbEntity
  8
0
100
AcDbPolyline
 62
7
  6
CONTINUOUS
 90
19
 70
0
 10
181.9852350098
 20
79.5371848024
 10
182.010472429
 20
79.533083164
 10
182.0346905726
 20
79.527383913
 10
182.0578894405
 20
79.5200870494
 10
182.0801953048
 20
79.511086819
 10
182.1014818934
 20
79.500488976
 10
182.1213703904
 20
79.4886107836
 10
182.1397365617
 20
79.4755470012
 10
182.1567046413
 20
79.4612028694
 10
182.172268516
 20
79.4456113728
 10
182.1864532929
 20
79.4287010393
 10
182.1992338647
 20
79.4105433412
 10
182.210528797
 20
79.3913856791
 10
182.2203962632
 20
79.3710823272
 10
182.2287780899
 20
79.3497790114
 10
182.2354183223
 20
79.3281603108
 10
182.2402316421
 20
79.3064544186
 10
182.2433033677
 20
79.2844331416
 10
182.2446334991
 20
79.2620964799
  0
LWPOLYLINE
  5
276
100
AcDbEntity
  8
0
100
AcDbPolyline
 62
7
  6
CONTINUOUS
 90
16
 70
0
 10
182.3166048512
 20
79.850132512
 10
182.2603226486
 20
79.8683382687
 10
182.2010751142
 20
79.8839182277
 10
182.138862248
 20
79.8968723889
 10
182.0735502235
 20
79.9070891207
 10
182.0052728671
 20
79.9146800547
 10
181.9344316585
 20
79.9199800859
 10
181.8611484207
 20
79.9230167123
 10
181.7853013306
 20
79.9237624358
 10
181.7069263993
 20
79.9224696569
 10
181.6260454186
 20
79.9191897715
 10
181.5426365966
 20
79.9138713837
 10
181.4566705685
 20
79.906612706
 10
181.3681375458
 20
79.8974464759
 10
181.2770473169
 20
79.8863399561
 10
181.1833998818
 20
79.8732931464
  0
LINE
  5
277
100
AcDbEntity
  8
SMUSSO
100
AcDbLine
 62
7
  6
CONTINUOUS
 10
107.30859375
 20
60.7626953125
 11
106.80859375
 21
60.2626953125
  0
LINE
  5
278
100
AcDbEntity
  8
SMUSSO
100
AcDbLine
 62
7
  6
CONTINUOUS
 10
106.80859375
 20
149.2626953125
 11
107.30859375
 21
148.7626953125
  0
LWPOLYLINE
  5
279
100
AcDbEntity
  8
0
100
AcDbPolyline
 62
7
  6
CONTINUOUS
 90
3
 70
0
 43
0.3500000006
 10
180.5585976563
 20
158.7984030762
 10
180.4871574097
 20
158.5841185913
 10
180.3443131714
 20
158.2984119873
  0
LINE
  5
27A
100
AcDbEntity
  8
0
100
AcDbLine
 62
7
  6
CONTINUOUS
 10
174.250352803
 20
79.8989942132
 11
174.947737057
 21
77.6991797418
  0
LINE
  5
27B
100
AcDbEntity
  8
0
100
AcDbLine
 62
7
  6
CONTINUOUS
 10
177.4746799897
 20
79.1356172955
 11
178.0133625367
 21
77.6991797418
  0
LINE
  5
27C
100
AcDbEntity
  8
0
100
AcDbLine
 62
7
  6
CONTINUOUS
 10
178.0480701542
 20
78.6776506497
 11
177.5937324605
 21
79.8989942132
  0
LINE
  5
27D
100
AcDbEntity
  8
0
100
AcDbLine
 62
7
  6
CONTINUOUS
 10
181.0485599225
 20
77.6991797418
 11
180.3736020485
 21
79.8989942132
  0
LINE
  5
27E
100
AcDbEntity
  8
0
100
AcDbLine
 62
7
  6
CONTINUOUS
 10
175.1684976184
 20
78.3847939963
 11
174.7491723993
 21
79.8989942132
  0
LINE
  5
27F
100
AcDbEntity
  8
0
100
AcDbLine
 62
7
  6
CONTINUOUS
 10
180.445641569
 20
78.138340579
 11
180.5645955636
 21
77.6991797418
  0
LINE
  5
280
100
AcDbEntity
  8
0
100
AcDbLine
 62
7
  6
CONTINUOUS
 10
179.1672865795
 20
77.6991797418
 11
178.9615792555
 21
79.8989942132
  0
LINE
  5
281
100
AcDbEntity
  8
0
100
AcDbLine
 62
7
  6
CONTINUOUS
 10
178.6237378423
 20
79.1296291053
 11
178.7180790761
 21
77.6991797418
  0
LWPOLYLINE
  5
282
100
AcDbEntity
  8
0
100
AcDbPolyline
 62
7
  6
CONTINUOUS
 90
2
 70
0
 43
0.3500000006
 10
176.1300274658
 20
158.5126964722
 10
176.1300274658
 20
160.0126878662
  0
LINE
  5
283
100
AcDbEntity
  8
0
100
AcDbLine
 62
7
  6
CONTINUOUS
 10
176.2299106178
 20
79.8991262132
 11
176.2299106178
 21
77.6991797418
  0
LINE
  5
284
100
AcDbEntity
  8
0
100
AcDbLine
 62
7
  6
CONTINUOUS
 10
176.6890987874
 20
77.6991797418
 11
176.6890987874
 21
79.8991262132
  0
LWPOLYLINE
  5
285
100
AcDbEntity
  8
0
100
AcDbPolyline
 62
7
  6
CONTINUOUS
 90
2
 70
0
 43
0.3500000006
 10
178.4871567993
 20
158.5126964722
 10
178.4871567993
 20
160.0126878662
  0
LINE
  5
286
100
AcDbEntity
  8
0
100
AcDbLine
 62
7
  6
CONTINUOUS
 10
177.3755867562
 20
77.6991797418
 11
177.4746799897
 21
79.1356172955
  0
LWPOLYLINE
  5
287
100
AcDbEntity
  8
0
100
AcDbPolyline
 62
7
  6
CONTINUOUS
 90
13
 70
0
 43
0.3500000006
 10
257.2014561768
 20
104.7626936646
 10
255.9157311401
 20
104.7626936646
 10
255.4871621704
 20
104.9769781494
 10
255.0585932007
 20
105.4055561829
 10
255.0585932007
 20
105.6198406677
 10
255.4871621704
 20
106.0484096375
 10
255.9157311401
 20
106.2626941223
 10
257.2014561768
 20
106.2626941223
 10
257.6300251465
 20
106.0484096375
 10
258.0585941162
 20
105.6198406677
 10
258.0585941162
 20
105.4055561829
 10
257.6300251465
 20
104.9769781494
 10
257.2014561768
 20
104.7626936646
  0
LWPOLYLINE
  5
288
100
AcDbEntity
  8
0
100
AcDbPolyline
 62
7
  6
CONTINUOUS
 90
5
 70
0
 10
182.1430416364
 20
78.3664732204
 10
182.1645079119
 20
78.3000336087
 10
182.1861279239
 20
78.2316981727
 10
182.2079016725
 20
78.1614669125
 10
182.2297495322
 20
78.0893801139
  0
LINE
  5
289
100
AcDbEntity
  8
0
100
AcDbLine
 62
7
  6
CONTINUOUS
 10
182.2297495322
 20
78.0893801139
 11
182.2970117863
 21
77.8613419145
  0
LINE
  5
28A
100
AcDbEntity
  8
0
100
AcDbLine
 62
7
  6
CONTINUOUS
 10
182.2970117863
 20
77.8613419145
 11
182.3439225225
 21
77.6991793251
  0
LINE
  5
28B
100
AcDbEntity
  8
0
100
AcDbLine
 62
7
  6
CONTINUOUS
 10
182.6826771366
 20
78.091985048
 11
182.6286626957
 21
78.2944561129
  0
LWPOLYLINE
  5
28C
100
AcDbEntity
  8
0
100
AcDbPolyline
 62
7
  6
CONTINUOUS
 90
19
 70
0
 10
182.6286626957
 20
78.2944561129
 10
182.6192011879
 20
78.3304997149
 10
182.6093324209
 20
78.3654587928
 10
182.5990563948
 20
78.3993333467
 10
182.5884911775
 20
78.4322234545
 10
182.5775187011
 20
78.4640290384
 10
182.5657847616
 20
78.4944498641
 10
182.5532167107
 20
78.5234917262
 10
182.5398871969
 20
78.5511488303
 10
182.5256599615
 20
78.5771035588
 10
182.510461447
 20
78.601330377
 10
182.494365211
 20
78.6238548197
 10
182.4774556685
 20
78.6444358735
 10
182.459580918
 20
78.663015259
 10
182.4408928611
 20
78.6796512557
 10
182.4219316171
 20
78.6942776889
 10
182.4028772261
 20
78.7068725004
 10
182.383549648
 20
78.7174577484
 10
182.363948883
 20
78.726033433
  0
LINE
  5
28D
100
AcDbEntity
  8
0
100
AcDbLine
 62
7
  6
CONTINUOUS
 10
182.7856076969
 20
77.6991793251
 11
182.6826771366
 21
78.091985048
  0
LINE
  5
28E
100
AcDbEntity
  8
0
100
AcDbLine
 62
7
  6
CONTINUOUS
 10
180.1428702494
 20
79.2945410978
 11
180.3538732874
 21
78.4781619921
  0
LINE
  5
28F
100
AcDbEntity
  8
0
100
AcDbLine
 62
7
  6
CONTINUOUS
 10
181.1833998818
 20
79.8732931464
 11
181.1833998818
 21
77.6991793251
  0
LINE
  5
290
100
AcDbEntity
  8
0
100
AcDbLine
 62
7
  6
CONTINUOUS
 10
181.6255139568
 20
78.9203419174
 11
181.6255139568
 21
79.5242340132
  0
LINE
  5
291
100
AcDbEntity
  8
0
100
AcDbLine
 62
7
  6
CONTINUOUS
 10
181.6407399294
 20
77.6991793251
 11
181.6407399294
 21
78.5600653829
  0
LINE
  5
292
100
AcDbEntity
  8
0
100
AcDbLine
 62
7
  6
CONTINUOUS
 10
182.363948883
 20
78.726033433
 11
182.363948883
 21
78.7390324215
  0
LWPOLYLINE
  5
293
100
AcDbEntity
  8
0
100
AcDbPolyline
 62
7
  6
CONTINUOUS
 90
22
 70
0
 10
182.2446334991
 20
79.2620964799
 10
182.2442992034
 20
79.2308451556
 10
182.242137195
 20
79.2010692352
 10
182.2381474739
 20
79.1727687188
 10
182.2323042254
 20
79.1459272493
 10
182.2246332642
 20
79.1205611837
 10
182.2152120346
 20
79.0967195935
 10
182.2039767241
 20
79.0744151464
 10
182.1909911451
 20
79.0536351746
 10
182.1765241797
 20
79.0343907463
 10
182.1606716728
 20
79.016686185
 10
182.1433377794
 20
79.0005171673
 10
182.1245038458
 20
78.9858817905
 10
182.1041843572
 20
78.9728194815
 10
182.0823648284
 20
78.9612908135
 10
182.0589831502
 20
78.9511756037
 10
182.0339381959
 20
78.9424184092
 10
182.0073310922
 20
78.9350746729
 10
181.9794031098
 20
78.929190541
 10
181.9502346724
 20
78.9247813954
 10
181.9197453563
 20
78.9218318542
 10
181.8879351615
 20
78.9203419174
  0
LINE
  5
294
100
AcDbEntity
  8
0
100
AcDbLine
 62
7
  6
CONTINUOUS
 10
177.1349245766
 20
79.8989942132
 11
176.936293919
 21
77.6991797418
  0
LINE
  5
295
100
AcDbEntity
  8
0
100
AcDbLine
 62
7
  6
CONTINUOUS
 10
175.6006310273
 20
79.8989942132
 11
175.1684976184
 21
78.3847939963
  0
LINE
  5
296
100
AcDbEntity
  8
0
100
AcDbLine
 62
7
  6
CONTINUOUS
 10
175.3523966576
 20
77.6991797418
 11
176.0595059588
 21
79.8989942132
  0
LINE
  5
297
100
AcDbEntity
  8
0
100
AcDbLine
 62
7
  6
CONTINUOUS
 10
179.9142336884
 20
78.4781619921
 11
180.1428702494
 21
79.2945410978
  0
LINE
  5
298
100
AcDbEntity
  8
0
100
AcDbLine
 62
7
  6
CONTINUOUS
 10
179.693596746
 20
77.6991797418
 11
179.8203041688
 21
78.138340579
  0
LINE
  5
299
100
AcDbEntity
  8
0
100
AcDbLine
 62
7
  6
CONTINUOUS
 10
179.9293937829
 20
79.8989942132
 11
179.2393910524
 21
77.6991797418
  0
LINE
  5
29A
100
AcDbEntity
  8
0
100
AcDbLine
 62
7
  6
CONTINUOUS
 10
178.5072583238
 20
79.8989942132
 11
178.0480701542
 21
78.6776506497
  0
LINE
  5
29B
100
AcDbEntity
  8
0
100
AcDbLine
 62
7
  6
CONTINUOUS
 10
178.0777628195
 20
77.6991797418
 11
178.6237378423
 21
79.1296291053
  0
LINE
  5
29C
100
AcDbEntity
  8
SMUSSO
100
AcDbLine
 62
7
  6
CONTINUOUS
 10
250.30859375
 20
149.2626953125
 11
249.80859375
 21
148.7626953125
  0
LINE
  5
29D
100
AcDbEntity
  8
RACCORDO
100
AcDbLine
 62
7
  6
CONTINUOUS
 10
222.45859375
 20
127.3626953125
 11
134.65859375
 21
127.3626953125
  0
LINE
  5
29E
100
AcDbEntity
  8
SMUSSO
100
AcDbLine
 62
7
  6
CONTINUOUS
 10
250.30859375
 20
60.2626953125
 11
249.80859375
 21
60.7626953125
  0
LWPOLYLINE
  5
29F
100
AcDbEntity
  8
0
100
AcDbPolyline
 62
7
  6
CONTINUOUS
 90
67
 70
0
 10
182.3907714054
 20
78.7501829373
 10
182.4020817559
 20
78.7569276165
 10
182.4079120986
 20
78.7605039743
 10
182.4138561361
 20
78.7642823174
 10
182.4199158443
 20
78.7682550667
 10
182.4260892473
 20
78.7724298012
 10
182.4323725356
 20
78.7768614258
 10
182.4387701574
 20
78.7815626819
 10
182.4452776644
 20
78.786520828
 10
182.4518779025
 20
78.7917525445
 10
182.4585663405
 20
78.7972581981
 10
182.4653475096
 20
78.8030374221
 10
182.4722178482
 20
78.8091057978
 10
182.4791826536
 20
78.815463731
 10
182.4862366286
 20
78.8221108158
 10
182.49336032
 20
78.8290614159
 10
182.500553045
 20
78.8363048288
 10
182.5078154865
 20
78.8438517569
 10
182.51513024
 20
78.8517486711
 10
182.5224992488
 20
78.8599914371
 10
182.5299205695
 20
78.8685841893
 10
182.537370968
 20
78.8775858015
 10
182.5448522452
 20
78.886991501
 10
182.5523626001
 20
78.8968060606
 10
182.5598733953
 20
78.9071026711
 10
182.5673919286
 20
78.917880352
 10
182.5749109021
 20
78.929140084
 10
182.582379785
 20
78.9409579999
 10
182.5898072735
 20
78.9533338673
 10
182.5971846714
 20
78.9662679187
 10
182.6044353602
 20
78.9798369841
 10
182.6115690956
 20
78.9940428155
 10
182.6185761219
 20
79.008883661
 10
182.625350554
 20
79.0244310948
 10
182.6319011467
 20
79.0406843738
 10
182.6382191452
 20
79.057644241
 10
182.6441723999
 20
79.0753844997
 10
182.6497686478
 20
79.0939150587
 10
182.6550001518
 20
79.1132260091
 10
182.6597115506
 20
79.1333614277
 10
182.6639090223
 20
79.1543251875
 10
182.6675863888
 20
79.1761134155
 10
182.6705697552
 20
79.1987585694
 10
182.6728657865
 20
79.2222326607
 10
182.6744678176
 20
79.2465636779
 10
182.6751819585
 20
79.2718680441
 10
182.6750782184
 20
79.2981566978
 10
182.674086588
 20
79.3254187005
 10
182.6718031498
 20
79.3537376592
 10
182.6683086706
 20
79.3832134173
 10
182.6635223836
 20
79.4137461314
 10
182.6567980713
 20
79.4451198787
 10
182.6481084467
 20
79.4774883806
 10
182.6374807968
 20
79.5106979157
 10
182.624350765
 20
79.544071397
 10
182.608506224
 20
79.5777903572
 10
182.5901593011
 20
79.6116732636
 10
182.5693820211
 20
79.6444984315
 10
182.5458390404
 20
79.6762564458
 10
182.5198657027
 20
79.7069567216
 10
182.492540064
 20
79.7354058187
 10
182.4636932974
 20
79.761439489
 10
182.4334942299
 20
79.7852219805
 10
182.4035273979
 20
79.8060525981
 10
182.3743209802
 20
79.8236977767
 10
182.345346798
 20
79.8383910813
 10
182.3166048512
 20
79.850132512
  0
LWPOLYLINE
  5
2A0
100
AcDbEntity
  8
0
100
AcDbPolyline
 62
7
  6
CONTINUOUS
 90
10
 70
0
 43
0.3500000006
 10
180.4871574097
 20
159.012687561
 10
180.5585976563
 20
158.8698433228
 10
180.5585976563
 20
158.7984030762
 10
180.4157352905
 20
158.6555588379
 10
180.3443131714
 20
158.6555588379
 10
180.2728729248
 20
158.726980957
 10
180.2728729248
 20
158.7984030762
 10
180.3443131714
 20
158.9412654419
 10
180.4157352905
 20
159.012687561
 10
180.4871574097
 20
159.012687561
  0
LINE
  5
2A1
100
AcDbEntity
  8
RACCORDO
100
AcDbLine
 62
7
  6
CONTINUOUS
 10
223.65859375
 20
83.3626953125
 11
223.65859375
 21
126.1626953125
  0
LINE
  5
2A2
100
AcDbEntity
  8
SMUSSO
100
AcDbLine
 62
7
  6
CONTINUOUS
 10
249.80859375
 20
148.7626953125
 11
107.30859375
 21
148.7626953125
  0
LINE
  5
2A3
100
AcDbEntity
  8
SMUSSO
100
AcDbLine
 62
7
  6
CONTINUOUS
 10
249.80859375
 20
149.7626953125
 11
107.30859375
 21
149.7626953125
  0
LWPOLYLINE
  5
2A4
100
AcDbEntity
  8
0
100
AcDbPolyline
 62
7
  6
CONTINUOUS
 90
8
 70
0
 43
0.3500000006
 10
181.5585979614
 20
158.5126964722
 10
182.4157359009
 20
158.5126964722
 10
182.8443048706
 20
158.9412654419
 10
182.8443048706
 20
159.7984033813
 10
182.4157359009
 20
160.2269723511
 10
181.5585979614
 20
160.2269723511
 10
181.5585979614
 20
161.5126973877
 10
182.8443048706
 20
161.5126973877
  0
LWPOLYLINE
  5
2A5
100
AcDbEntity
  8
0
100
AcDbPolyline
 62
7
  6
CONTINUOUS
 90
3
 70
0
 43
0.3500000006
 10
178.9871660156
 20
159.1555499268
 10
177.4871564941
 20
159.1555499268
 10
178.1300280762
 20
161.5126973877
  0
LWPOLYLINE
  5
2A6
100
AcDbEntity
  8
0
100
AcDbPolyline
 62
7
  6
CONTINUOUS
 90
3
 70
0
 43
0.3500000006
 10
176.6300185547
 20
159.1555499268
 10
175.1300271606
 20
159.1555499268
 10
175.7728806152
 20
161.5126973877
  0
LWPOLYLINE
  5
2A7
100
AcDbEntity
  8
0
100
AcDbPolyline
 62
7
  6
CONTINUOUS
 90
10
 70
0
 43
0.3500000006
 10
258.0585941162
 20
102.8341242371
 10
257.2014561768
 20
103.6912712402
 10
256.3443001099
 20
103.9055557251
 10
255.4871621704
 20
103.9055557251
 10
255.0585932007
 20
103.4769776917
 10
255.0585932007
 20
102.8341242371
 10
255.4871621704
 20
102.4055552673
 10
256.3443001099
 20
102.4055552673
 10
256.772887207
 20
102.8341242371
 10
256.772887207
 20
103.7626933594
  0
LINE
  5
2A8
100
AcDbEntity
  8
SMUSSO
100
AcDbLine
 62
7
  6
CONTINUOUS
 10
249.80859375
 20
60.7626953125
 11
249.80859375
 21
148.7626953125
  0
LINE
  5
2A9
100
AcDbEntity
  8
SMUSSO
100
AcDbLine
 62
7
  6
CONTINUOUS
 10
250.80859375
 20
60.7626953125
 11
250.80859375
 21
148.7626953125
  0
LINE
  5
2AA
100
AcDbEntity
  8
SMUSSO
100
AcDbLine
 62
7
  6
CONTINUOUS
 10
250.80859375
 20
60.7626953125
 11
249.80859375
 21
59.7626953125
  0
LINE
  5
2AB
100
AcDbEntity
  8
SMUSSO
100
AcDbLine
 62
7
  6
CONTINUOUS
 10
249.80859375
 20
149.7626953125
 11
250.80859375
 21
148.7626953125
  0
LINE
  5
2AC
100
AcDbEntity
  8
SMUSSO
100
AcDbLine
 62
7
  6
CONTINUOUS
 10
69.078515625
 20
59.7626953125
 11
70.578515625
 21
59.7626953125
  0
LWPOLYLINE
  5
2AD
100
AcDbEntity
  8
0
100
AcDbPolyline
 62
7
  6
CONTINUOUS
 90
3
 70
0
 43
0.3500000006
 10
79.464992981
 20
170.6555443726
 10
80.3221399841
 20
171.5127004395
 10
80.3221399841
 20
168.5126995239
  0
LINE
  5
2AE
100
AcDbEntity
  8
0
100
AcDbLine
 62
250
  6
CONTINUOUS
 10
74.1293131839
 20
61.4272293427
 11
75.628515625
 21
61.724292085
  0
LINE
  5
2AF
100
AcDbEntity
  8
0
100
AcDbLine
 62
7
  6
CONTINUOUS
 10
71.228515625
 20
60.4120756242
 11
74.128515625
 21
60.4626953125
  0
LINE
  5
2B0
100
AcDbEntity
  8
0
100
AcDbLine
 62
250
  6
CONTINUOUS
 10
71.228515625
 20
61.4119233194
 11
74.128515625
 21
61.4625430077
  0
LINE
  5
2B1
100
AcDbEntity
  8
SMUSSO
100
AcDbLine
 62
7
  6
CONTINUOUS
 10
69.078515625
 20
60.7626953125
 11
70.578515625
 21
60.7626953125
  0
LINE
  5
2B2
100
AcDbEntity
  8
RACCORDO
100
AcDbLine
 62
7
  6
CONTINUOUS
 10
71.078515625
 20
65.7626953125
 11
71.228515625
 21
65.7626953125
  0
LINE
  5
2B3
100
AcDbEntity
  8
RACCORDO
100
AcDbLine
 62
250
  6
CONTINUOUS
 10
71.078515625
 20
67.7626953125
 11
71.228515625
 21
67.7626953125
  0
LINE
  5
2B4
100
AcDbEntity
  8
SMUSSO
100
AcDbLine
 62
7
  6
CONTINUOUS
 10
69.078515625
 20
149.7626953125
 11
68.078515625
 21
148.7626953125
  0
LINE
  5
2B5
100
AcDbEntity
  8
SMUSSO
100
AcDbLine
 62
7
  6
CONTINUOUS
 10
70.578515625
 20
148.7626953125
 11
71.078515625
 21
149.2626953125
  0
LINE
  5
2B6
100
AcDbEntity
  8
SMUSSO
100
AcDbLine
 62
7
  6
CONTINUOUS
 10
69.078515625
 20
59.7626953125
 11
68.078515625
 21
60.7626953125
  0
LINE
  5
2B7
100
AcDbEntity
  8
SMUSSO
100
AcDbLine
 62
7
  6
CONTINUOUS
 10
71.078515625
 20
60.2626953125
 11
70.578515625
 21
60.7626953125
  0
LINE
  5
2B8
100
AcDbEntity
  8
0
100
AcDbLine
 62
7
  6
CONTINUOUS
 10
76.5543528228
 20
77.6125658739
 11
75.628515625
 21
77.6109499815
  0
LINE
  5
2B9
100
AcDbEntity
  8
0
100
AcDbLine
 62
250
  6
CONTINUOUS
 10
76.5542882087
 20
77.8350160686
 11
75.628515625
 21
77.8345978741
  0
LINE
  5
2BA
100
AcDbEntity
  8
0
100
AcDbLine
 62
7
  6
CONTINUOUS
 10
78.0785648572
 20
78.4211314522
 11
75.628515625
 21
78.4068774827
  0
LINE
  5
2BB
100
AcDbEntity
  8
0
100
AcDbLine
 62
250
  6
CONTINUOUS
 10
78.0785648572
 20
78.5089979308
 11
75.628515625
 21
78.4947439613
  0
LINE
  5
2BC
100
AcDbEntity
  8
0
100
AcDbLine
 62
7
  6
CONTINUOUS
 10
78.628515625
 20
78.6103341058
 11
78.5079528579
 21
78.6103341058
  0
LINE
  5
2BD
100
AcDbEntity
  8
0
100
AcDbLine
 62
7
  6
CONTINUOUS
 10
76.5786400039
 20
79.5626953125
 11
75.628515625
 21
79.5626953125
  0
LINE
  5
2BE
100
AcDbEntity
  8
0
100
AcDbLine
 62
7
  6
CONTINUOUS
 10
75.628515625
 20
79.7126953125
 11
75.778515625
 21
79.7126953125
  0
LINE
  5
2BF
100
AcDbEntity
  8
0
100
AcDbLine
 62
7
  6
CONTINUOUS
 10
76.078515625
 20
79.7126953125
 11
76.278515625
 21
79.7126953125
  0
LINE
  5
2C0
100
AcDbEntity
  8
0
100
AcDbLine
 62
7
  6
CONTINUOUS
 10
78.1065789707
 20
79.4148889779
 11
78.628515625
 21
79.4103341058
  0
LINE
  5
2C1
100
AcDbEntity
  8
0
100
AcDbLine
 62
7
  6
CONTINUOUS
 10
75.628515625
 20
79.006875438
 11
78.4389828162
 21
78.8827086448
  0
LINE
  5
2C2
100
AcDbEntity
  8
0
100
AcDbLine
 62
7
  6
CONTINUOUS
 10
76.6781437229
 20
79.5577325027
 11
78.628515625
 21
79.3626953125
  0
LWPOLYLINE
  5
2C3
100
AcDbEntity
  8
0
100
AcDbPolyline
 62
250
  6
CONTINUOUS
 90
4
 70
0
 10
78.1181953494
 20
131.0486292681
 10
78.1051174524
 20
131.0391640294
 10
78.0918828725
 20
131.0283986499
 10
78.0785648572
 20
131.0163926942
  0
LWPOLYLINE
  5
2C4
100
AcDbEntity
  8
0
100
AcDbPolyline
 62
250
  6
CONTINUOUS
 90
4
 70
0
 10
78.1181983181
 20
78.4767593442
 10
78.1051211071
 20
78.4862237857
 10
78.091885547
 20
78.4969896814
 10
78.0785648572
 20
78.5089979308
  0
LINE
  5
2C5
100
AcDbEntity
  8
0
100
AcDbLine
 62
7
  6
CONTINUOUS
 10
75.778515625
 20
129.8126953125
 11
75.928515625
 21
129.9626953125
  0
LINE
  5
2C6
100
AcDbEntity
  8
0
100
AcDbLine
 62
7
  6
CONTINUOUS
 10
76.278515625
 20
129.8126953125
 11
76.428515625
 21
129.9626953125
  0
LINE
  5
2C7
100
AcDbEntity
  8
0
100
AcDbLine
 62
7
  6
CONTINUOUS
 10
75.778515625
 20
79.7126953125
 11
75.928515625
 21
79.5626953125
  0
LINE
  5
2C8
100
AcDbEntity
  8
0
100
AcDbLine
 62
7
  6
CONTINUOUS
 10
76.278515625
 20
79.7126953125
 11
76.428515625
 21
79.5626953125
  0
LWPOLYLINE
  5
2C9
100
AcDbEntity
  8
0
100
AcDbPolyline
 62
250
  6
CONTINUOUS
 90
9
 70
0
 10
76.647945436
 20
77.6887499389
 10
76.6553199637
 20
77.6793799782
 10
76.662485808
 20
77.6708112613
 10
76.6693699987
 20
77.6632095592
 10
76.6758198761
 20
77.656827824
 10
76.6816590319
 20
77.6519167146
 10
76.6867669064
 20
77.6486533749
 10
76.6910569982
 20
77.6471876366
 10
76.6944218587
 20
77.6476795164
  0
LWPOLYLINE
  5
2CA
100
AcDbEntity
  8
0
100
AcDbPolyline
 62
7
  6
CONTINUOUS
 90
3
 70
0
 43
0.3500000006
 10
84.250710022
 20
168.7984061279
 10
84.1792788391
 20
168.5841216431
 10
84.0364255371
 20
168.2984150391
  0
LWPOLYLINE
  5
2CB
100
AcDbEntity
  8
0
100
AcDbPolyline
 62
250
  6
CONTINUOUS
 90
19
 70
0
 10
76.5542882087
 20
131.6903745564
 10
76.5627571811
 20
131.7050730851
 10
76.5713109989
 20
131.7196673589
 10
76.5799175904
 20
131.7340907601
 10
76.5884821613
 20
131.7481802428
 10
76.5970300913
 20
131.7619631731
 10
76.6056970789
 20
131.7756212831
 10
76.6144365095
 20
131.7890434228
 10
76.6231796232
 20
131.8020941946
 10
76.6319948113
 20
131.8148290616
 10
76.6408321294
 20
131.8271109255
 10
76.649533112
 20
131.8386482924
 10
76.6579709397
 20
131.8491992944
 10
76.6660654306
 20
131.8585705885
 10
76.6736100016
 20
131.8664260254
 10
76.680324795
 20
131.8724070984
 10
76.6860726548
 20
131.8763484842
 10
76.6908031219
 20
131.878157124
 10
76.6944218587
 20
131.8777111086
  0
LWPOLYLINE
  5
2CC
100
AcDbEntity
  8
0
100
AcDbPolyline
 62
250
  6
CONTINUOUS
 90
14
 70
0
 10
76.5542882087
 20
77.8350160686
 10
76.560897267
 20
77.8235074098
 10
76.5676343923
 20
77.81193206
 10
76.5744834064
 20
77.8003288683
 10
76.5813898754
 20
77.7887973362
 10
76.5883707858
 20
77.7773219664
 10
76.5955106814
 20
77.7657881771
 10
76.6027945768
 20
77.7542449524
 10
76.6101745524
 20
77.7427889379
 10
76.6176722437
 20
77.731413693
 10
76.6252423287
 20
77.7202201875
 10
76.6328291864
 20
77.7093250671
 10
76.640420323
 20
77.6987865821
 10
76.647945436
 20
77.6887499389
  0
LWPOLYLINE
  5
2CD
100
AcDbEntity
  8
0
100
AcDbPolyline
 62
7
  6
CONTINUOUS
 90
3
 70
0
 43
0.3500000006
 10
83.1030163879
 20
158.7984030762
 10
83.0315852051
 20
158.5841185913
 10
82.8887319031
 20
158.2984119873
  0
LWPOLYLINE
  5
2CE
100
AcDbEntity
  8
0
100
AcDbPolyline
 62
7
  6
CONTINUOUS
 90
7
 70
0
 10
78.60065671
 20
78.786133595
 10
78.6089280181
 20
78.7720794313
 10
78.6158396114
 20
78.7589965947
 10
78.6213151464
 20
78.7468850852
 10
78.6252881531
 20
78.7357449028
 10
78.6277029707
 20
78.7255760475
 10
78.628515625
 20
78.7163785193
  0
LINE
  5
2CF
100
AcDbEntity
  8
SMUSSO
100
AcDbLine
 62
7
  6
CONTINUOUS
 10
68.078515625
 20
60.7626953125
 11
68.078515625
 21
148.7626953125
  0
LINE
  5
2D0
100
AcDbEntity
  8
SMUSSO
100
AcDbLine
 62
7
  6
CONTINUOUS
 10
69.078515625
 20
60.7626953125
 11
69.078515625
 21
148.7626953125
  0
LINE
  5
2D1
100
AcDbEntity
  8
SMUSSO
100
AcDbLine
 62
7
  6
CONTINUOUS
 10
70.578515625
 20
148.7626953125
 11
70.578515625
 21
60.7626953125
  0
LINE
  5
2D2
100
AcDbEntity
  8
0
100
AcDbLine
 62
7
  6
CONTINUOUS
 10
74.1346614007
 20
61.3028201489
 11
74.1293131839
 21
61.4272293427
  0
LINE
  5
2D3
100
AcDbEntity
  8
0
100
AcDbLine
 62
7
  6
CONTINUOUS
 10
74.1392178072
 20
61.1810883251
 11
74.1346614007
 21
61.3028201489
  0
LINE
  5
2D4
100
AcDbEntity
  8
0
100
AcDbLine
 62
7
  6
CONTINUOUS
 10
74.1429258104
 20
61.0638688145
 11
74.1392178072
 21
61.1810883251
  0
LINE
  5
2D5
100
AcDbEntity
  8
SMUSSO
100
AcDbLine
 62
7
  6
CONTINUOUS
 10
71.078515625
 20
149.2626953125
 11
71.078515625
 21
60.2626953125
  0
LINE
  5
2D6
100
AcDbEntity
  8
0
100
AcDbLine
 62
7
  6
CONTINUOUS
 10
71.228515625
 20
60.4120756242
 11
71.228515625
 21
149.1133150008
  0
LWPOLYLINE
  5
2D7
100
AcDbEntity
  8
0
100
AcDbPolyline
 62
7
  6
CONTINUOUS
 90
16
 70
0
 10
74.1466210003
 20
148.6253665783
 10
74.1473150139
 20
148.6758740582
 10
74.1477370475
 20
148.7239900115
 10
74.147879379
 20
148.7695273312
 10
74.1477370454
 20
148.8123083281
 10
74.1473150097
 20
148.8521659072
 10
74.1466209945
 20
148.8889447751
 10
74.145651051
 20
148.9225048701
 10
74.1444113438
 20
148.9527107578
 10
74.1429254041
 20
148.9794360812
 10
74.1411918336
 20
149.002571111
 10
74.139216669
 20
149.0220408083
 10
74.1370349623
 20
149.037785017
 10
74.1346603342
 20
149.0497383766
 10
74.1320852274
 20
149.0578420291
 10
74.1293131839
 20
149.0620572654
  0
LINE
  5
2D8
100
AcDbEntity
  8
0
100
AcDbLine
 62
7
  6
CONTINUOUS
 10
74.14441135
 20
148.5179620117
 11
74.1466210003
 21
148.6253665783
  0
LINE
  5
2D9
100
AcDbEntity
  8
0
100
AcDbLine
 62
7
  6
CONTINUOUS
 10
74.1411918355
 20
148.4035418235
 11
74.14441135
 21
148.5179620117
  0
LINE
  5
2DA
100
AcDbEntity
  8
0
100
AcDbLine
 62
7
  6
CONTINUOUS
 10
74.1370349574
 20
148.2838644357
 11
74.1411918355
 21
148.4035418235
  0
LWPOLYLINE
  5
2DB
100
AcDbEntity
  8
0
100
AcDbPolyline
 62
7
  6
CONTINUOUS
 90
3
 70
0
 10
74.1293131839
 20
148.0981612823
 10
74.1320852238
 20
148.1605613435
 10
74.1370349574
 20
148.2838644357
  0
LINE
  5
2DC
100
AcDbEntity
  8
0
100
AcDbLine
 62
7
  6
CONTINUOUS
 10
74.128515625
 20
148.0628476173
 11
74.128515625
 21
61.4625430077
  0
LINE
  5
2DD
100
AcDbEntity
  8
0
100
AcDbLine
 62
7
  6
CONTINUOUS
 10
75.628515625
 20
147.8626953125
 11
75.628515625
 21
61.6626953125
  0
LINE
  5
2DE
100
AcDbEntity
  8
0
100
AcDbLine
 62
250
  6
CONTINUOUS
 10
76.5543528107
 20
77.6125658738
 11
76.5542882087
 21
77.8350160686
  0
LINE
  5
2DF
100
AcDbEntity
  8
0
100
AcDbLine
 62
250
  6
CONTINUOUS
 10
76.5542882087
 20
131.6903745564
 11
76.5543528076
 21
131.9116810501
  0
LWPOLYLINE
  5
2E0
100
AcDbEntity
  8
0
100
AcDbPolyline
 62
7
  6
CONTINUOUS
 90
7
 70
0
 10
78.628515625
 20
130.8090121057
 10
78.6277030925
 20
130.7998154445
 10
78.6252885402
 20
130.7896471093
 10
78.6213157936
 20
130.7785071003
 10
78.6158403694
 20
130.7663954174
 10
78.6089286017
 20
130.7533120606
 10
78.60065671
 20
130.73925703
  0
LWPOLYLINE
  5
2E1
100
AcDbEntity
  8
0
100
AcDbPolyline
 62
250
  6
CONTINUOUS
 90
3
 70
0
 10
78.0786638777
 20
131.0997005984
 10
78.0786212236
 20
131.1031171819
 10
78.0785648572
 20
131.1042591728
  0
LINE
  5
2E2
100
AcDbEntity
  8
0
100
AcDbLine
 62
250
  6
CONTINUOUS
 10
78.0787068562
 20
131.0861643596
 11
78.0786638777
 21
131.0997005984
  0
LINE
  5
2E3
100
AcDbEntity
  8
0
100
AcDbLine
 62
250
  6
CONTINUOUS
 10
78.0787068562
 20
78.4392262654
 11
78.0785648572
 21
78.5089979308
  0
LINE
  5
2E4
100
AcDbEntity
  8
0
100
AcDbLine
 62
250
  6
CONTINUOUS
 10
78.3442164119
 20
130.1342653912
 11
78.3442164119
 21
130.1125754776
  0
LINE
  5
2E5
100
AcDbEntity
  8
0
100
AcDbLine
 62
250
  6
CONTINUOUS
 10
78.3442164119
 20
79.4128151474
 11
78.3442164119
 21
79.3911252338
  0
LINE
  5
2E6
100
AcDbEntity
  8
0
100
AcDbLine
 62
250
  6
CONTINUOUS
 10
78.4389828162
 20
130.6426819802
 11
78.4389828162
 21
130.1437420316
  0
LINE
  5
2E7
100
AcDbEntity
  8
0
100
AcDbLine
 62
250
  6
CONTINUOUS
 10
78.4389828162
 20
79.3816485934
 11
78.4389828162
 21
78.8827086448
  0
LINE
  5
2E8
100
AcDbEntity
  8
0
100
AcDbLine
 62
7
  6
CONTINUOUS
 10
78.628515625
 20
130.9150565192
 11
78.628515625
 21
130.1150565192
  0
LINE
  5
2E9
100
AcDbEntity
  8
0
100
AcDbLine
 62
7
  6
CONTINUOUS
 10
78.628515625
 20
79.4103341058
 11
78.628515625
 21
78.6103341058
  0
LINE
  5
2EA
100
AcDbEntity
  8
0
100
AcDbLine
 62
250
  6
CONTINUOUS
 10
78.0785648572
 20
131.0163926942
 11
78.0787068562
 21
131.0861643596
  0
LWPOLYLINE
  5
2EB
100
AcDbEntity
  8
0
100
AcDbPolyline
 62
250
  6
CONTINUOUS
 90
4
 70
0
 10
78.0785648572
 20
78.4211314522
 10
78.0786212236
 20
78.4222734431
 10
78.0786638777
 20
78.4256900266
 10
78.0787068562
 20
78.4392262654
  0
LWPOLYLINE
  5
2EC
100
AcDbEntity
  8
0
100
AcDbPolyline
 62
7
  6
CONTINUOUS
 90
4
 70
0
 43
0.3500000006
 10
80.0315842896
 20
160.8698439331
 10
80.0315842896
 20
161.5126973877
 10
81.5315847473
 20
161.5126973877
 10
80.6744468079
 20
158.5126964722
  0
LWPOLYLINE
  5
2ED
100
AcDbEntity
  8
0
100
AcDbPolyline
 62
7
  6
CONTINUOUS
 90
13
 70
0
 43
0.3500000006
 10
81.1792779236
 20
169.3698374634
 10
81.1792779236
 20
170.6555443726
 10
81.3935624084
 20
171.0841314697
 10
81.8221404419
 20
171.5127004395
 10
82.0364249268
 20
171.5127004395
 10
82.4649938965
 20
171.0841314697
 10
82.6792783813
 20
170.6555443726
 10
82.6792783813
 20
169.3698374634
 10
82.4649938965
 20
168.9412684937
 10
82.0364249268
 20
168.5126995239
 10
81.8221404419
 20
168.5126995239
 10
81.3935624084
 20
168.9412684937
 10
81.1792779236
 20
169.3698374634
  0
LINE
  5
2EE
100
AcDbEntity
  8
0
100
AcDbLine
 62
7
  6
CONTINUOUS
 10
75.928515625
 20
79.5626953125
 11
76.078515625
 21
79.7126953125
  0
LINE
  5
2EF
100
AcDbEntity
  8
0
100
AcDbLine
 62
7
  6
CONTINUOUS
 10
75.928515625
 20
129.9626953125
 11
76.078515625
 21
129.8126953125
  0
LWPOLYLINE
  5
2F0
100
AcDbEntity
  8
0
100
AcDbPolyline
 62
7
  6
CONTINUOUS
 90
18
 70
0
 10
74.1293131839
 20
60.4633333596
 10
74.1320858861
 20
60.4675502194
 10
74.1346613909
 20
60.4756566613
 10
74.1370361745
 20
60.4876129356
 10
74.139217811
 20
60.5033596478
 10
74.1411927003
 20
60.5228301548
 10
74.1429258385
 20
60.545961252
 10
74.1444110647
 20
60.572670144
 10
74.1456500361
 20
60.6028499406
 10
74.146619716
 20
60.6363919511
 10
74.147314126
 20
60.6731763094
 10
74.1477367596
 20
60.7130566351
 10
74.147879379
 20
60.7558642287
 10
74.1477367491
 20
60.8014317045
 10
74.1473141049
 20
60.8495810019
 10
74.1466196871
 20
60.900105291
 10
74.1456500035
 20
60.9527940643
 10
74.1429258104
 20
61.0638688145
  0
LINE
  5
2F1
100
AcDbEntity
  8
0
100
AcDbLine
 62
250
  6
CONTINUOUS
 10
76.5542882087
 20
77.8350160686
 11
77.6538070686
 21
78.4186602836
  0
LINE
  5
2F2
100
AcDbEntity
  8
0
100
AcDbLine
 62
250
  6
CONTINUOUS
 10
78.0785648572
 20
78.5089979308
 11
78.60065671
 21
78.786133595
  0
LINE
  5
2F3
100
AcDbEntity
  8
0
100
AcDbLine
 62
7
  6
CONTINUOUS
 10
76.6935275867
 20
77.6472048209
 11
78.628515625
 21
78.6743309721
  0
LWPOLYLINE
  5
2F4
100
AcDbEntity
  8
0
100
AcDbPolyline
 62
250
  6
CONTINUOUS
 90
10
 70
0
 10
78.2174767863
 20
78.4561442278
 10
78.2088252688
 20
78.4524930419
 10
78.1994462408
 20
78.4503312735
 10
78.1893925283
 20
78.44966901
 10
78.1787229597
 20
78.4505076778
 10
78.1674951305
 20
78.452840445
 10
78.1557639064
 20
78.4566555185
 10
78.1435906629
 20
78.4619343462
 10
78.1310453104
 20
78.4686479695
 10
78.1181983181
 20
78.4767593442
  0
LINE
  5
2F5
100
AcDbEntity
  8
0
100
AcDbLine
 62
7
  6
CONTINUOUS
 10
76.6781437229
 20
129.9676581223
 11
78.628515625
 21
130.1626953125
  0
LINE
  5
2F6
100
AcDbEntity
  8
0
100
AcDbLine
 62
7
  6
CONTINUOUS
 10
75.628515625
 20
130.518515187
 11
78.4389828162
 21
130.6426819802
  0
LINE
  5
2F7
100
AcDbEntity
  8
0
100
AcDbLine
 62
7
  6
CONTINUOUS
 10
78.1065789707
 20
130.1105016471
 11
78.628515625
 21
130.1150565192
  0
LINE
  5
2F8
100
AcDbEntity
  8
0
100
AcDbLine
 62
7
  6
CONTINUOUS
 10
75.628515625
 20
129.8126953125
 11
75.778515625
 21
129.8126953125
  0
LINE
  5
2F9
100
AcDbEntity
  8
0
100
AcDbLine
 62
7
  6
CONTINUOUS
 10
76.078515625
 20
129.8126953125
 11
76.278515625
 21
129.8126953125
  0
LINE
  5
2FA
100
AcDbEntity
  8
0
100
AcDbLine
 62
7
  6
CONTINUOUS
 10
75.628515625
 20
129.9626953125
 11
76.5786400039
 21
129.9626953125
  0
LINE
  5
2FB
100
AcDbEntity
  8
0
100
AcDbLine
 62
7
  6
CONTINUOUS
 10
78.628515625
 20
130.9150565192
 11
78.5079528579
 21
130.9150565192
  0
LINE
  5
2FC
100
AcDbEntity
  8
0
100
AcDbLine
 62
250
  6
CONTINUOUS
 10
76.5542882087
 20
131.6903745564
 11
75.628515625
 21
131.6907927509
  0
LINE
  5
2FD
100
AcDbEntity
  8
0
100
AcDbLine
 62
7
  6
CONTINUOUS
 10
76.5543528228
 20
131.9128247511
 11
75.628515625
 21
131.9144406435
  0
LINE
  5
2FE
100
AcDbEntity
  8
0
100
AcDbLine
 62
250
  6
CONTINUOUS
 10
78.0785648572
 20
131.0163926942
 11
75.628515625
 21
131.0306466637
  0
LINE
  5
2FF
100
AcDbEntity
  8
0
100
AcDbLine
 62
7
  6
CONTINUOUS
 10
78.0785648572
 20
131.1042591728
 11
75.628515625
 21
131.1185131423
  0
LWPOLYLINE
  5
300
100
AcDbEntity
  8
0
100
AcDbPolyline
 62
250
  6
CONTINUOUS
 90
10
 70
0
 10
78.2174767863
 20
131.0692463972
 10
78.2088291052
 20
131.0728963463
 10
78.1994532918
 20
131.0750583266
 10
78.1894018577
 20
131.0757216943
 10
78.1787331645
 20
131.0748844249
 10
78.167504744
 20
131.0725527536
 10
78.155771897
 20
131.0687381458
 10
78.1435953192
 20
131.0634585377
 10
78.1310454531
 20
131.0567427388
 10
78.1181953494
 20
131.0486292681
  0
LINE
  5
301
100
AcDbEntity
  8
0
100
AcDbLine
 62
250
  6
CONTINUOUS
 10
77.6538070686
 20
131.1067303414
 11
76.5542882087
 21
131.6903745564
  0
LINE
  5
302
100
AcDbEntity
  8
0
100
AcDbLine
 62
250
  6
CONTINUOUS
 10
78.60065671
 20
130.73925703
 11
78.0785648572
 21
131.0163926942
  0
LINE
  5
303
100
AcDbEntity
  8
0
100
AcDbLine
 62
7
  6
CONTINUOUS
 10
78.628515625
 20
130.8510596529
 11
76.6935275867
 21
131.8781858041
  0
LINE
  5
304
100
AcDbEntity
  8
SMUSSO
100
AcDbLine
 62
7
  6
CONTINUOUS
 10
69.078515625
 20
60.7626953125
 11
68.578515625
 21
60.2626953125
  0
LINE
  5
305
100
AcDbEntity
  8
SMUSSO
100
AcDbLine
 62
7
  6
CONTINUOUS
 10
70.578515625
 20
59.7626953125
 11
71.078515625
 21
60.2626953125
  0
LINE
  5
306
100
AcDbEntity
  8
SMUSSO
100
AcDbLine
 62
7
  6
CONTINUOUS
 10
68.578515625
 20
149.2626953125
 11
69.078515625
 21
148.7626953125
  0
LINE
  5
307
100
AcDbEntity
  8
SMUSSO
100
AcDbLine
 62
7
  6
CONTINUOUS
 10
71.078515625
 20
149.2626953125
 11
70.578515625
 21
149.7626953125
  0
LWPOLYLINE
  5
308
100
AcDbEntity
  8
0
100
AcDbPolyline
 62
7
  6
CONTINUOUS
 90
10
 70
0
 43
0.3500000006
 10
83.0315852051
 20
159.012687561
 10
83.1030163879
 20
158.8698433228
 10
83.1030163879
 20
158.7984030762
 10
82.9601540222
 20
158.6555588379
 10
82.8887319031
 20
158.6555588379
 10
82.8173007202
 20
158.726980957
 10
82.8173007202
 20
158.7984030762
 10
82.8887319031
 20
158.9412654419
 10
82.9601540222
 20
159.012687561
 10
83.0315852051
 20
159.012687561
  0
LINE
  5
309
100
AcDbEntity
  8
0
100
AcDbLine
 62
7
  6
CONTINUOUS
 10
74.128515625
 20
60.4626953125
 11
75.628515625
 21
61.6626953125
  0
LINE
  5
30A
100
AcDbEntity
  8
0
100
AcDbLine
 62
7
  6
CONTINUOUS
 10
74.128515625
 20
149.0626953125
 11
75.628515625
 21
147.8626953125
  0
LINE
  5
30B
100
AcDbEntity
  8
RACCORDO
100
AcDbLine
 62
250
  6
CONTINUOUS
 10
71.078515625
 20
141.7626953125
 11
71.228515625
 21
141.7626953125
  0
LINE
  5
30C
100
AcDbEntity
  8
RACCORDO
100
AcDbLine
 62
7
  6
CONTINUOUS
 10
71.078515625
 20
143.7626953125
 11
71.228515625
 21
143.7626953125
  0
LWPOLYLINE
  5
30D
100
AcDbEntity
  8
0
100
AcDbPolyline
 62
7
  6
CONTINUOUS
 90
10
 70
0
 43
0.3500000006
 10
84.1792788391
 20
169.0126906128
 10
84.250710022
 20
168.8698463745
 10
84.250710022
 20
168.7984061279
 10
84.1078476563
 20
168.6555437622
 10
84.0364255371
 20
168.6555437622
 10
83.9649943542
 20
168.7269840088
 10
83.9649943542
 20
168.7984061279
 10
84.0364255371
 20
168.9412684937
 10
84.1078476563
 20
169.0126906128
 10
84.1792788391
 20
169.0126906128
  0
LINE
  5
30E
100
AcDbEntity
  8
SMUSSO
100
AcDbLine
 62
7
  6
CONTINUOUS
 10
69.078515625
 20
148.7626953125
 11
70.578515625
 21
148.7626953125
  0
LINE
  5
30F
100
AcDbEntity
  8
SMUSSO
100
AcDbLine
 62
7
  6
CONTINUOUS
 10
69.078515625
 20
149.7626953125
 11
70.578515625
 21
149.7626953125
  0
LWPOLYLINE
  5
310
100
AcDbEntity
  8
0
100
AcDbPolyline
 62
7
  6
CONTINUOUS
 90
8
 70
0
 43
0.3500000006
 10
84.1030166931
 20
158.5126964722
 10
84.9601546326
 20
158.5126964722
 10
85.388732666
 20
158.9412654419
 10
85.388732666
 20
159.7984033813
 10
84.9601546326
 20
160.2269723511
 10
84.1030166931
 20
160.2269723511
 10
84.1030166931
 20
161.5126973877
 10
85.388732666
 20
161.5126973877
  0
LWPOLYLINE
  5
311
100
AcDbEntity
  8
0
100
AcDbPolyline
 62
7
  6
CONTINUOUS
 90
8
 70
0
 43
0.3500000006
 10
86.2458706055
 20
158.5126964722
 10
87.1030176086
 20
158.5126964722
 10
87.5315865784
 20
158.9412654419
 10
87.5315865784
 20
159.7984033813
 10
87.1030176086
 20
160.2269723511
 10
86.2458706055
 20
160.2269723511
 10
86.2458706055
 20
161.5126973877
 10
87.5315865784
 20
161.5126973877
  0
LWPOLYLINE
  5
312
100
AcDbEntity
  8
0
100
AcDbPolyline
 62
7
  6
CONTINUOUS
 90
8
 70
0
 43
0.3500000006
 10
85.2507103271
 20
168.5126995239
 10
86.1078482666
 20
168.5126995239
 10
86.5364263
 20
168.9412684937
 10
86.5364263
 20
169.7984064331
 10
86.1078482666
 20
170.2269754028
 10
85.2507103271
 20
170.2269754028
 10
85.2507103271
 20
171.5127004395
 10
86.5364263
 20
171.5127004395
  0
LWPOLYLINE
  5
313
100
AcDbEntity
  8
0
100
AcDbPolyline
 62
7
  6
CONTINUOUS
 90
8
 70
0
 43
0.3500000006
 10
87.3935642395
 20
168.5126995239
 10
88.2507112427
 20
168.5126995239
 10
88.6792802124
 20
168.9412684937
 10
88.6792802124
 20
169.7984064331
 10
88.2507112427
 20
170.2269754028
 10
87.3935642395
 20
170.2269754028
 10
87.3935642395
 20
171.5127004395
 10
88.6792802124
 20
171.5127004395
  0
LINE
  5
314
100
AcDbEntity
  8
0
100
AcDbLine
 62
250
  6
CONTINUOUS
 10
71.228515625
 20
148.1134673056
 11
74.128515625
 21
148.0628476173
  0
LINE
  5
315
100
AcDbEntity
  8
0
100
AcDbLine
 62
7
  6
CONTINUOUS
 10
71.228515625
 20
149.1133150008
 11
74.128515625
 21
149.0626953125
  0
LINE
  5
316
100
AcDbEntity
  8
0
100
AcDbLine
 62
250
  6
CONTINUOUS
 10
74.1293131839
 20
148.0981612823
 11
75.628515625
 21
147.80109854
  0
ARC
  5
317
100
AcDbEntity
  8
RACCORDO
100
AcDbCircle
 62
7
  6
CONTINUOUS
 10
134.65859375
 20
83.3626953125
 40
1.2
100
AcDbArc
 50
180.0
 51
270.0
  0
ARC
  5
318
100
AcDbEntity
  8
RACCORDO
100
AcDbCircle
 62
7
  6
CONTINUOUS
 10
222.45859375
 20
83.3626953125
 40
1.2
100
AcDbArc
 50
270.0
 51
360.0
  0
ARC
  5
319
100
AcDbEntity
  8
RACCORDO
100
AcDbCircle
 62
7
  6
CONTINUOUS
 10
222.45859375
 20
126.1626953125
 40
1.2
100
AcDbArc
 50
0.0
 51
90.0
  0
ARC
  5
31A
100
AcDbEntity
  8
RACCORDO
100
AcDbCircle
 62
7
  6
CONTINUOUS
 10
134.65859375
 20
126.1626953125
 40
1.2
100
AcDbArc
 50
90.0
 51
180.0
  0
ARC
  5
31B
100
AcDbEntity
  8
0
100
AcDbCircle
 62
7
  6
CONTINUOUS
 10
76.5786400039
 20
78.5626953125
 40
1.0
100
AcDbArc
 50
84.2894068625
 51
90.0
  0
ARC
  5
31C
100
AcDbEntity
  8
0
100
AcDbCircle
 62
7
  6
CONTINUOUS
 10
76.5786400039
 20
130.9626953125
 40
1.0
100
AcDbArc
 50
270.0
 51
275.7105931375
  0
ARC
  5
31D
100
AcDbEntity
  8
0
100
AcDbCircle
 62
7
  6
CONTINUOUS
 10
76.5538288099
 20
77.9126957422
 40
0.3
100
AcDbArc
 50
270.1000000226
 51
297.9490718565
  0
ARC
  5
31E
100
AcDbEntity
  8
0
100
AcDbCircle
 62
7
  6
CONTINUOUS
 10
76.5538288099
 20
131.6126948828
 40
0.3
100
AcDbArc
 50
62.0509281435
 51
89.8999999774
  0
ARC
  5
31F
100
AcDbEntity
  8
0
100
AcDbCircle
 62
7
  6
CONTINUOUS
 10
78.0768195378
 20
78.7211263752
 40
0.3
100
AcDbArc
 50
270.3333333333
 51
297.9601595792
  0
ARC
  5
320
100
AcDbEntity
  8
0
100
AcDbCircle
 62
7
  6
CONTINUOUS
 10
78.0768195378
 20
130.8042642498
 40
0.3
100
AcDbArc
 50
62.0398404207
 51
89.6666666667
  0
ELLIPSE
  5
321
100
AcDbEntity
  8
0
100
AcDbEllipse
 62
7
  6
CONTINUOUS
 10
78.428515625
 20
78.6828966175
 30
0.0
 11
0.1417119467
 21
0.1422961243
 31
0.0
 40
0.9918061237
 41
-0.2491986107
 42
0.7350951877
  0
ELLIPSE
  5
322
100
AcDbEntity
  8
0
100
AcDbEllipse
 62
7
  6
CONTINUOUS
 10
75.4065921714
 20
148.0402340754
 30
0.0
 11
1.2772653435
 21
-0.0582277698
 31
0.0
 40
0.7819142031
 41
-3.1412917057
 42
-3.1059619589
  0
ELLIPSE
  5
323
100
AcDbEntity
  8
0
100
AcDbEllipse
 62
7
  6
CONTINUOUS
 10
75.4065921714
 20
61.4851565496
 30
0.0
 11
1.2772653435
 21
0.0582277698
 31
0.0
 40
0.7819142031
 41
3.1059619589
 42
3.1412917057
  0
ELLIPSE
  5
324
100
AcDbEntity
  8
0
100
AcDbEllipse
 62
7
  6
CONTINUOUS
 10
78.428515625
 20
130.8424940075
 30
0.0
 11
-0.1417119467
 21
0.1422961243
 31
0.0
 40
0.9918061237
 41
-3.8766878413
 42
-2.8923940429
  0
ENDSEC
  0
SECTION
  2
OBJECTS
  0
DICTIONARY
  5
C
100
AcDbDictionary
280
0
281
1
  3
ACAD_GROUP
350
D
  3
ACAD_MLINESTYLE
350
17
  3
ACAD_LAYOUT
350
1A
  3
ACAD_PLOTSETTINGS
350
19
  3
ACAD_PLOTSTYLENAME
350
E
  0
DICTIONARY
  5
D
102
{ACAD_REACTORS
330
C
102
}
100
AcDbDictionary
280
0
281
1
  0
ACDBDICTIONARYWDFLT
  5
E
102
{ACAD_REACTORS
330
C
102
}
100
AcDbDictionary
281
1
  3
Normal
350
F
100
AcDbDictionaryWithDefault
340
F
  0
DICTIONARY
  5
17
102
{ACAD_REACTORS
330
C
102
}
100
AcDbDictionary
280
0
281
1
  3
Standard
350
18
  0
DICTIONARY
  5
19
102
{ACAD_REACTORS
330
C
102
}
100
AcDbDictionary
281
1
  0
DICTIONARY
  5
1A
102
{ACAD_REACTORS
330
C
102
}
100
AcDbDictionary
281
1
  3
Model
350
325
  3
Layout1
350
326
  0
ACDBPLACEHOLDER
  5
F
102
{ACAD_REACTORS
330
E
102
}
  0
MLINESTYLE
  5
18
102
{ACAD_REACTORS
330
17
102
}
100
AcDbMlineStyle
  2
STANDARD
 70
0
  3

 62
256
 51
90.0
 52
90.0
 71
2
 49
0.5
 62
256
  6
BYLAYER
 49
-0.5
 62
256
  6
BYLAYER
  0
LAYOUT
  5
325
102
{ACAD_REACTORS
330
1A
102
}
100
AcDbPlotSettings
  1

  2
none_device
  4
ISO_A4_(297.00_x_210.00_MM)
  6

 40
0.0
 41
0.0
 42
0.0
 43
0.0
 44
297.0
 45
210.0
 46
0.0
 47
0.0
 48
0.0
 49
0.0
140
0.0
141
0.0
142
1.0
143
1.0
 70
1024
 72
1
 73
0
 74
0
  7

 75
0
147
1.0
148
0.0
149
0.0
100
AcDbLayout
  1
Model
 70
0
 71
0
 10
0.0
 20
0.0
 11
297.0
 21
210.0
 12
0.0
 22
0.0
 32
0.0
 14
0.0
 24
0.0
 34
0.0
 15
0.0
 25
0.0
 35
0.0
146
0.0
 13
0.0
 23
0.0
 33
0.0
 16
1.0
 26
0.0
 36
0.0
 17
0.0
 27
1.0
 37
0.0
 76
0
330
21C
345
0
346
0
  0
LAYOUT
  5
326
102
{ACAD_REACTORS
330
1A
102
}
100
AcDbPlotSettings
  1

  2
none_device
  4
ISO_A4_(297.00_x_210.00_MM)
  6

 40
0.0
 41
0.0
 42
0.0
 43
0.0
 44
297.0
 45
210.0
 46
0.0
 47
0.0
 48
0.0
 49
0.0
140
0.0
141
0.0
142
1.0
143
1.0
 70
0
 72
1
 73
0
 74
0
  7

 75
0
147
1.0
148
0.0
149
0.0
100
AcDbLayout
  1
Layout1
 70
0
 71
1
 10
0.0
 20
0.0
 11
297.0
 21
210.0
 12
0.0
 22
0.0
 32
0.0
 14
0.0
 24
0.0
 34
0.0
 15
0.0
 25
0.0
 35
0.0
146
0.0
 13
0.0
 23
0.0
 33
0.0
 16
1.0
 26
0.0
 36
0.0
 17
0.0
 27
1.0
 37
0.0
 76
0
330
21D
345
0
346
0
  0
ENDSEC
  0
EOF
