  0
SECTION
  2
HEADER
  9
$ACADVER
  1
AC1024
  9
$DWGCODEPAGE
  3
ANSI_1252
  9
$EXTMAX
 10
297.0
 20
210.0
 30
0.0
  9
$EXTMIN
 10
0.0
 20
0.0
 30
0.0
  9
$LIMMIN
 10
0.0
 20
0.0
  9
$LIMMAX
 10
297.0
 20
210.0
  9
$VIEWCTR
 10
148.5
 20
105.0
  9
$VIEWSIZE
 40
210.0
  9
$CLAYER
  8
0
  9
$LTSCALE
 40
16.335
  9
$CELTYPE
  6
BYLAYER
  9
$DIMSCALE
 40
1.0
  9
$DIMASZ
 40
3.0
  9
$DIMEXO
 40
0.5
  9
$DIMDLI
 40
11.286
  9
$DIMEXE
 40
1.5
  9
$DIMCEN
 40
2.673
  9
$DIMLFAC
 40
1.0
  9
$DIMBLK
  1
_FILLED
  9
$DIMALT
 70
0
  9
$DIMALTF
 40
0.0393700787
  9
$DIMTXT
 40
3.0
  9
$DIMTOL
 70
1
  9
$DIMLIM
 70
0
  9
$DIMTFAC
 40
1.0
  9
$DIMTP
 40
0.01
  9
$DIMTM
 40
0.01
  9
$DIMGAP
 40
0.625
  9
$DIMDSEP
 70
44
  9
$AUNITS
 70
0
  9
$PDMODE
 70
3
  9
$PDSIZE
 40
3.0
  9
$HANDSEED
  5
2F8
  9
$TILEMODE
 70
1
  9
$MEASUREMENT
 70
1
  9
$INSUNITS
 70
4
  0
ENDSEC
  0
SECTION
  2
CLASSES
  0
CLASS
  1
ACDBDICTIONARYWDFLT
  2
AcDbDictionaryWithDefault
  3
AutoCAD 2000
 90
0
 91
1
280
0
281
0
  0
CLASS
  1
ACDBPLACEHOLDER
  2
AcDbPlaceHolder
  3
AutoCAD 2000
 90
0
 91
1
280
0
281
0
  0
CLASS
  1
LAYOUT
  2
AcDbLayout
  3
AutoCAD 2000
 90
0
 91
0
280
0
281
0
  0
ENDSEC
  0
SECTION
  2
TABLES
  0
TABLE
  2
VPORT
  5
8
100
AcDbSymbolTable
 70
2
  0
VPORT
  5
1F4
100
AcDbSymbolTableRecord
100
AcDbViewportTableRecord
  2
*ACTIVE
 70
0
 10
0.0
 20
0.0
 11
1.0
 21
1.0
 12
148.5
 22
105.0
 13
0.0
 23
0.0
 14
1.0
 24
1.0
 15
0.0
 25
0.0
 16
0.0
 26
0.0
 36
1.0
 17
0.0
 27
0.0
 37
0.0
 40
210.0
 41
1.4142857143
 42
50.0
 43
0.0
 44
0.0
 50
0.0
 51
0.0
 71
0
 72
100
 73
1
 74
1
 75
0
 76
0
 77
0
 78
0
  0
ENDTAB
  0
TABLE
  2
LTYPE
  5
5
100
AcDbSymbolTable
 70
6
  0
LTYPE
  5
14
100
AcDbSymbolTableRecord
100
AcDbLinetypeTableRecord
  2
BYBLOCK
 70
0
  3

 72
65
 73
0
 40
0.0
  0
LTYPE
  5
15
100
AcDbSymbolTableRecord
100
AcDbLinetypeTableRecord
  2
BYLAYER
 70
0
  3

 72
65
 73
0
 40
0.0
  0
LTYPE
  5
16
100
AcDbSymbolTableRecord
100
AcDbLinetypeTableRecord
  2
CONTINUOUS
 70
64
  3
Solid line
 72
65
 73
0
 40
0.0
  0
LTYPE
  5
1F5
100
AcDbSymbolTableRecord
100
AcDbLinetypeTableRecord
  2
CENTER
 70
64
  3
____ _ ____ _ ____ _ ____ _ ____ _ ____ _ ____
 72
65
 73
4
 40
0.6
 49
0.375
 74
0
 49
-0.075
 74
0
 49
0.075
 74
0
 49
-0.075
 74
0
  0
LTYPE
  5
1F6
100
AcDbSymbolTableRecord
100
AcDbLinetypeTableRecord
  2
HIDDEN
 70
64
  3
- - - - - - - - - - - - - - - - - - - -
 72
65
 73
2
 40
0.2
 49
0.1
 74
0
 49
-0.1
 74
0
  0
LTYPE
  5
1F7
100
AcDbSymbolTableRecord
100
AcDbLinetypeTableRecord
  2
PHANTOM
 70
64
  3
_____ _ _ _____ _ _ _____ _ _ _____
 72
65
 73
6
 40
0.8
 49
0.45
 74
0
 49
-0.05
 74
0
 49
0.1
 74
0
 49
-0.05
 74
0
 49
0.1
 74
0
 49
-0.05
 74
0
  0
LTYPE
  5
1F8
100
AcDbSymbolTableRecord
100
AcDbLinetypeTableRecord
  2
DOT
 70
64
  3
. . . . . . . . . . . . . . . . . . . .
 72
65
 73
2
 40
0.2
 49
0.1
 74
0
 49
-0.1
 74
0
  0
LTYPE
  5
1F9
100
AcDbSymbolTableRecord
100
AcDbLinetypeTableRecord
  2
DASHED
 70
64
  3
- - - - - - - - - - - - - - - - - - - -
 72
65
 73
2
 40
0.2
 49
0.1
 74
0
 49
-0.1
 74
0
  0
ENDTAB
  0
TABLE
  2
LAYER
  5
2
100
AcDbSymbolTable
 70
36
  0
LAYER
  5
10
100
AcDbSymbolTableRecord
100
AcDbLayerTableRecord
  2
0
 70
0
 62
7
  6
CONTINUOUS
370
-3
390
F
  0
LAYER
  5
1FA
100
AcDbSymbolTableRecord
100
AcDbLayerTableRecord
  2
DEFAULT_1
 70
0
 62
7
  6
CENTER
370
-3
390
F
  0
LAYER
  5
1FB
100
AcDbSymbolTableRecord
100
AcDbLayerTableRecord
  2
DEFAULT_2
 70
0
 62
7
  6
HIDDEN
370
-3
390
F
  0
LAYER
  5
1FC
100
AcDbSymbolTableRecord
100
AcDbLayerTableRecord
  2
DEFAULT_3
 70
0
 62
7
  6
PHANTOM
370
-3
390
F
  0
LAYER
  5
1FD
100
AcDbSymbolTableRecord
100
AcDbLayerTableRecord
  2
ASSI
 70
0
 62
7
  6
CONTINUOUS
370
-3
390
F
  0
LAYER
  5
1FE
100
AcDbSymbolTableRecord
100
AcDbLayerTableRecord
  2
COORDINATE
 70
0
 62
7
  6
CONTINUOUS
370
-3
390
F
  0
LAYER
  5
1FF
100
AcDbSymbolTableRecord
100
AcDbLayerTableRecord
  2
COORD_ORIGINE
 70
0
 62
7
  6
CONTINUOUS
370
-3
390
F
  0
LAYER
  5
200
100
AcDbSymbolTableRecord
100
AcDbLayerTableRecord
  2
COPY_PUBLISH
 70
0
 62
7
  6
CONTINUOUS
370
-3
390
F
  0
LAYER
  5
201
100
AcDbSymbolTableRecord
100
AcDbLayerTableRecord
  2
COSMETIC
 70
0
 62
7
  6
CONTINUOUS
370
-3
390
F
  0
LAYER
  5
202
100
AcDbSymbolTableRecord
100
AcDbLayerTableRecord
  2
COSMETICI
 70
0
 62
7
  6
CONTINUOUS
370
-3
390
F
  0
LAYER
  5
203
100
AcDbSymbolTableRecord
100
AcDbLayerTableRecord
  2
CURVA_TASSELLO
 70
0
 62
7
  6
CONTINUOUS
370
-3
390
F
  0
LAYER
  5
204
100
AcDbSymbolTableRecord
100
AcDbLayerTableRecord
  2
CURVE
 70
0
 62
7
  6
CONTINUOUS
370
-3
390
F
  0
LAYER
  5
205
100
AcDbSymbolTableRecord
100
AcDbLayerTableRecord
  2
DRAFT
 70
0
 62
7
  6
CONTINUOUS
370
-3
390
F
  0
LAYER
  5
206
100
AcDbSymbolTableRecord
100
AcDbLayerTableRecord
  2
IMPORT_IGES
 70
0
 62
7
  6
CONTINUOUS
370
-3
390
F
  0
LAYER
  5
207
100
AcDbSymbolTableRecord
100
AcDbLayerTableRecord
  2
INTFCLR_2
 70
0
 62
7
  6
CONTINUOUS
370
-3
390
F
  0
LAYER
  5
208
100
AcDbSymbolTableRecord
100
AcDbLayerTableRecord
  2
INTF_1
 70
0
 62
7
  6
CONTINUOUS
370
-3
390
F
  0
LAYER
  5
209
100
AcDbSymbolTableRecord
100
AcDbLayerTableRecord
  2
INTF_7
 70
0
 62
7
  6
CONTINUOUS
370
-3
390
F
  0
LAYER
  5
20A
100
AcDbSymbolTableRecord
100
AcDbLayerTableRecord
  2
LINEA_CHIUSURA
 70
0
 62
7
  6
CONTINUOUS
370
-3
390
F
  0
LAYER
  5
20B
100
AcDbSymbolTableRecord
100
AcDbLayerTableRecord
  2
NOTE
 70
0
 62
7
  6
CONTINUOUS
370
-3
390
F
  0
LAYER
  5
20C
100
AcDbSymbolTableRecord
100
AcDbLayerTableRecord
  2
PIANI
 70
0
 62
7
  6
CONTINUOUS
370
-3
390
F
  0
LAYER
  5
20D
100
AcDbSymbolTableRecord
100
AcDbLayerTableRecord
  2
PIANI_ORIGINE
 70
0
 62
7
  6
CONTINUOUS
370
-3
390
F
  0
LAYER
  5
20E
100
AcDbSymbolTableRecord
100
AcDbLayerTableRecord
  2
PIANI_RIFERIMENTO
 70
0
 62
7
  6
CONTINUOUS
370
-3
390
F
  0
LAYER
  5
20F
100
AcDbSymbolTableRecord
100
AcDbLayerTableRecord
  2
PUNTI
 70
0
 62
7
  6
CONTINUOUS
370
-3
390
F
  0
LAYER
  5
210
100
AcDbSymbolTableRecord
100
AcDbLayerTableRecord
  2
RACCORDO
 70
0
 62
7
  6
CONTINUOUS
370
-3
390
F
  0
LAYER
  5
211
100
AcDbSymbolTableRecord
100
AcDbLayerTableRecord
  2
RGB__255__255__255__
 70
0
 62
7
  6
CONTINUOUS
370
-3
390
F
  0
LAYER
  5
212
100
AcDbSymbolTableRecord
100
AcDbLayerTableRecord
  2
RGB____0____0____0__
 70
0
 62
7
  6
CONTINUOUS
370
-3
390
F
  0
LAYER
  5
213
100
AcDbSymbolTableRecord
100
AcDbLayerTableRecord
  2
SIMBOLI
 70
0
 62
7
  6
CONTINUOUS
370
-3
390
F
  0
LAYER
  5
214
100
AcDbSymbolTableRecord
100
AcDbLayerTableRecord
  2
SMUSSO
 70
0
 62
7
  6
CONTINUOUS
370
-3
390
F
  0
LAYER
  5
215
100
AcDbSymbolTableRecord
100
AcDbLayerTableRecord
  2
SNAPLINE
 70
0
 62
7
  6
CONTINUOUS
370
-3
390
F
  0
LAYER
  5
216
100
AcDbSymbolTableRecord
100
AcDbLayerTableRecord
  2
SUPERFICI
 70
0
 62
7
  6
CONTINUOUS
370
-3
390
F
  0
LAYER
  5
217
100
AcDbSymbolTableRecord
100
AcDbLayerTableRecord
  2
TRASH
 70
0
 62
7
  6
CONTINUOUS
370
-3
390
F
  0
LAYER
  5
218
100
AcDbSymbolTableRecord
100
AcDbLayerTableRecord
  2
WHITE
 70
0
 62
7
  6
CONTINUOUS
370
-3
390
F
  0
LAYER
  5
219
100
AcDbSymbolTableRecord
100
AcDbLayerTableRecord
  2
XSEC_DATUMS
 70
0
 62
7
  6
CONTINUOUS
370
-3
390
F
  0
ENDTAB
  0
TABLE
  2
STYLE
  5
3
100
AcDbSymbolTable
 70
1
  0
STYLE
  5
11
100
AcDbSymbolTableRecord
100
AcDbTextStyleTableRecord
  2
STANDARD
 70
0
 40
0.0
 41
0.8
 50
0.0
 71
0
 42
0.2
  3
txt
  4

  0
STYLE
  5
21A
100
AcDbSymbolTableRecord
100
AcDbTextStyleTableRecord
  2
TEXTSTYLE_1
 70
0
 40
0.0
 41
0.8
 50
0.0
 71
0
 42
0.2
  3
gdt
  4

  0
ENDTAB
  0
TABLE
  2
VIEW
  5
6
100
AcDbSymbolTable
 70
0
  0
ENDTAB
  0
TABLE
  2
UCS
  5
7
100
AcDbSymbolTable
 70
0
  0
ENDTAB
  0
TABLE
  2
APPID
  5
9
100
AcDbSymbolTable
 70
1
  0
APPID
  5
21B
100
AcDbSymbolTableRecord
100
AcDbRegAppTableRecord
  2
ACAD
 70
0
  0
ENDTAB
  0
TABLE
  2
BLOCK_RECORD
  5
1
100
AcDbSymbolTable
 70
0
  0
BLOCK_RECORD
  5
21C
100
AcDbSymbolTableRecord
100
AcDbBlockTableRecord
  2
*Model_Space
  0
BLOCK_RECORD
  5
21D
100
AcDbSymbolTableRecord
100
AcDbBlockTableRecord
  2
*Paper_Space
  0
BLOCK_RECORD
  5
21E
100
AcDbSymbolTableRecord
100
AcDbBlockTableRecord
  2
_FILLED
  0
BLOCK_RECORD
  5
21F
100
AcDbSymbolTableRecord
100
AcDbBlockTableRecord
  2
*D0
  0
BLOCK_RECORD
  5
220
100
AcDbSymbolTableRecord
100
AcDbBlockTableRecord
  2
*D1
  0
BLOCK_RECORD
  5
221
100
AcDbSymbolTableRecord
100
AcDbBlockTableRecord
  2
*D2
  0
BLOCK_RECORD
  5
222
100
AcDbSymbolTableRecord
100
AcDbBlockTableRecord
  2
*D3
  0
ENDTAB
  0
TABLE
  2
DIMSTYLE
  5
A
100
AcDbSymbolTable
 70
1
100
AcDbDimStyleTable
 71
0
  0
DIMSTYLE
105
223
100
AcDbSymbolTableRecord
100
AcDbDimStyleTableRecord
  2
STANDARD
 70
0
  3

  4

 40
1.0
 41
3.0
 42
0.5
 43
0.38
 44
1.5
 45
0.0
 46
0.0
 47
0.01
 48
0.01
140
3.0
141
0.09
142
0.0
143
25.4
144
1.0
145
0.0
146
1.0
147
0.625
 71
1.0
 72
0.0
 73
0
 74
0
 75
0
 76
0
 77
1
 78
8
 79
2
170
0
171
1
172
0
173
0
174
0
175
0
176
0
177
0
178
0
270
2
179
2
271
2
272
2
273
2
274
2
275
0
280
0
281
0
282
0
283
1
284
8
285
0
286
0
287
3
288
0
340
11
278
44
341
21E
342
21E
343
21E
344
21E
  0
DIMSTYLE
105
224
100
AcDbSymbolTableRecord
100
AcDbDimStyleTableRecord
  2
DIMSTYLE_1
 70
0
  3

  4

 40
1.0
 41
3.0
 42
0.5
 43
0.38
 44
1.5
 45
0.0
 46
0.0
 47
0.0
 48
0.0
140
3.0
141
0.09
142
0.0
143
25.4
144
1.0
145
0.0
146
1.0
147
0.75
 71
0.0
 72
0.0
 73
0
 74
0
 75
0
 76
0
 77
1
 78
8
 79
2
170
0
171
1
172
0
173
0
174
0
175
0
176
0
177
0
178
0
270
2
179
2
271
2
272
2
273
2
274
2
275
0
280
0
281
0
282
0
283
1
284
8
285
0
286
0
287
3
288
0
340
11
278
44
341
21E
342
21E
343
21E
344
21E
  0
ENDTAB
  0
ENDSEC
  0
SECTION
  2
BLOCKS
  0
BLOCK
  5
20
100
AcDbEntity
  8
0
100
AcDbBlockBegin
  2
*Model_Space
 70
0
 10
0.0
 20
0.0
 30
0.0
  3
*Model_Space
  1

  0
ENDBLK
  5
21
100
AcDbEntity
  8
0
100
AcDbBlockEnd
  0
BLOCK
  5
1C
100
AcDbEntity
  8
0
100
AcDbBlockBegin
  2
*Paper_Space
 70
0
 10
0.0
 20
0.0
 30
0.0
  3
*Paper_Space
  1

  0
ENDBLK
  5
1D
100
AcDbEntity
  8
0
100
AcDbBlockEnd
  0
BLOCK
  5
225
100
AcDbEntity
  8
0
100
AcDbBlockBegin
  2
_FILLED
 70
64
 10
0.0
 20
0.0
  3
_FILLED
  1

  0
SOLID
  5
226
100
AcDbEntity
  8
0
  6
BYBLOCK
 62
0
100
AcDbTrace
 10
0.0
 20
0.0
 11
-1.0
 21
0.3166666667
 12
-1.0
 22
-0.3166666667
 13
-1.0
 23
-0.3166666667
  0
ENDBLK
  5
227
100
AcDbEntity
  8
0
  6
BYBLOCK
 62
0
100
AcDbBlockEnd
  0
BLOCK
  5
228
100
AcDbEntity
  8
0
100
AcDbBlockBegin
 62
7
  6
CONTINUOUS
  2
*D0
 70
65
 10
0.0
 20
0.0
  3
*D0
  1

  0
LINE
  5
229
100
AcDbEntity
  8
0
100
AcDbLine
 62
7
  6
CONTINUOUS
 10
248.0614073486
 20
153.8513838867
 11
258.0614073486
 21
153.8513838867
  0
LINE
  5
22A
100
AcDbEntity
  8
0
100
AcDbLine
 62
7
  6
CONTINUOUS
 10
248.0614073486
 20
63.8513838867
 11
258.0614073486
 21
63.8513838867
  0
LINE
  5
22B
100
AcDbEntity
  8
0
100
AcDbLine
 62
7
  6
CONTINUOUS
 10
256.5614073486
 20
153.8513838867
 11
256.5614073486
 21
108.8513838867
  0
LINE
  5
22C
100
AcDbEntity
  8
0
100
AcDbLine
 62
7
  6
CONTINUOUS
 10
256.5614073486
 20
63.8513838867
 11
256.5614073486
 21
108.8513838867
  0
INSERT
  5
22D
100
AcDbEntity
  8
0
100
AcDbBlockReference
 62
7
  6
CONTINUOUS
  2
_FILLED
 10
256.5614073486
 20
153.8513838867
 41
3.0
 42
3.0
 43
3.0
 50
90.0
  0
INSERT
  5
22E
100
AcDbEntity
  8
0
100
AcDbBlockReference
 62
7
  6
CONTINUOUS
  2
_FILLED
 10
256.5614073486
 20
63.8513838867
 41
3.0
 42
3.0
 43
3.0
 50
270.0
  0
ENDBLK
  5
22F
100
AcDbEntity
  8
0
  6
BYBLOCK
 62
0
100
AcDbBlockEnd
  0
BLOCK
  5
230
100
AcDbEntity
  8
0
100
AcDbBlockBegin
 62
7
  6
CONTINUOUS
  2
*D1
 70
65
 10
0.0
 20
0.0
  3
*D1
  1

  0
LINE
  5
231
100
AcDbEntity
  8
0
100
AcDbLine
 62
7
  6
CONTINUOUS
 10
248.5614073486
 20
153.3513838867
 11
248.5614073486
 21
163.3513838867
  0
LINE
  5
232
100
AcDbEntity
  8
0
100
AcDbLine
 62
7
  6
CONTINUOUS
 10
104.0614073486
 20
153.3513838867
 11
104.0614073486
 21
163.3513838867
  0
LINE
  5
233
100
AcDbEntity
  8
0
100
AcDbLine
 62
7
  6
CONTINUOUS
 10
248.5614073486
 20
161.8513838867
 11
176.3114073486
 21
161.8513838867
  0
LINE
  5
234
100
AcDbEntity
  8
0
100
AcDbLine
 62
7
  6
CONTINUOUS
 10
104.0614073486
 20
161.8513838867
 11
176.3114073486
 21
161.8513838867
  0
INSERT
  5
235
100
AcDbEntity
  8
0
100
AcDbBlockReference
 62
7
  6
CONTINUOUS
  2
_FILLED
 10
248.5614073486
 20
161.8513838867
 41
3.0
 42
3.0
 43
3.0
  0
INSERT
  5
236
100
AcDbEntity
  8
0
100
AcDbBlockReference
 62
7
  6
CONTINUOUS
  2
_FILLED
 10
104.0614073486
 20
161.8513838867
 41
3.0
 42
3.0
 43
3.0
 50
180.0
  0
ENDBLK
  5
237
100
AcDbEntity
  8
0
  6
BYBLOCK
 62
0
100
AcDbBlockEnd
  0
BLOCK
  5
238
100
AcDbEntity
  8
0
100
AcDbBlockBegin
 62
7
  6
CONTINUOUS
  2
*D2
 70
65
 10
0.0
 20
0.0
  3
*D2
  1

  0
LINE
  5
239
100
AcDbEntity
  8
0
100
AcDbLine
 62
7
  6
CONTINUOUS
 10
72.1734375
 20
152.3897871143
 11
72.1734375
 21
163.3513838867
  0
LINE
  5
23A
100
AcDbEntity
  8
0
100
AcDbLine
 62
7
  6
CONTINUOUS
 10
63.6234375
 20
153.3513838867
 11
63.6234375
 21
163.3513838867
  0
LINE
  5
23B
100
AcDbEntity
  8
0
100
AcDbLine
 62
7
  6
CONTINUOUS
 10
72.1734375
 20
161.8513838867
 11
67.8984375
 21
161.8513838867
  0
LINE
  5
23C
100
AcDbEntity
  8
0
100
AcDbLine
 62
7
  6
CONTINUOUS
 10
63.6234375
 20
161.8513838867
 11
67.8984375
 21
161.8513838867
  0
LINE
  5
23D
100
AcDbEntity
  8
0
100
AcDbLine
 62
7
  6
CONTINUOUS
 10
67.8984375
 20
161.8513838867
 11
54.441291598
 21
161.8513838867
  0
INSERT
  5
23E
100
AcDbEntity
  8
0
100
AcDbBlockReference
 62
7
  6
CONTINUOUS
  2
_FILLED
 10
72.1734375
 20
161.8513838867
 41
3.0
 42
3.0
 43
3.0
  0
INSERT
  5
23F
100
AcDbEntity
  8
0
100
AcDbBlockReference
 62
7
  6
CONTINUOUS
  2
_FILLED
 10
63.6234375
 20
161.8513838867
 41
3.0
 42
3.0
 43
3.0
 50
180.0
  0
ENDBLK
  5
240
100
AcDbEntity
  8
0
  6
BYBLOCK
 62
0
100
AcDbBlockEnd
  0
BLOCK
  5
241
100
AcDbEntity
  8
0
100
AcDbBlockBegin
 62
7
  6
CONTINUOUS
  2
*D3
 70
65
 10
0.0
 20
0.0
  3
*D3
  1

  0
LINE
  5
242
100
AcDbEntity
  8
0
100
AcDbLine
 62
7
  6
CONTINUOUS
 10
63.6234375
 20
153.3513838867
 11
63.6234375
 21
173.3513838867
  0
LINE
  5
243
100
AcDbEntity
  8
0
100
AcDbLine
 62
7
  6
CONTINUOUS
 10
75.1734375
 20
135.3977006799
 11
75.1734375
 21
173.3513838867
  0
LINE
  5
244
100
AcDbEntity
  8
0
100
AcDbLine
 62
7
  6
CONTINUOUS
 10
63.6234375
 20
171.8513838867
 11
69.3984375
 21
171.8513838867
  0
LINE
  5
245
100
AcDbEntity
  8
0
100
AcDbLine
 62
7
  6
CONTINUOUS
 10
69.3984375
 20
171.8513838867
 11
53.1738379714
 21
171.8513838867
  0
LINE
  5
246
100
AcDbEntity
  8
0
100
AcDbLine
 62
7
  6
CONTINUOUS
 10
75.1734375
 20
171.8513838867
 11
69.3984375
 21
171.8513838867
  0
INSERT
  5
247
100
AcDbEntity
  8
0
100
AcDbBlockReference
 62
7
  6
CONTINUOUS
  2
_FILLED
 10
63.6234375
 20
171.8513838867
 41
3.0
 42
3.0
 43
3.0
 50
180.0
  0
INSERT
  5
248
100
AcDbEntity
  8
0
100
AcDbBlockReference
 62
7
  6
CONTINUOUS
  2
_FILLED
 10
75.1734375
 20
171.8513838867
 41
3.0
 42
3.0
 43
3.0
  0
ENDBLK
  5
249
100
AcDbEntity
  8
0
  6
BYBLOCK
 62
0
100
AcDbBlockEnd
  0
ENDSEC
  0
SECTION
  2
ENTITIES
  0
DIMENSION
  5
24A
100
AcDbEntity
  8
0
100
AcDbDimension
 62
7
  6
CONTINUOUS
  2
*D0
 10
256.5614073486
 20
63.8513838867
 11
256.5614073486
 21
106.4942410296
 70
160
 71
2
 72
2
 41
0.9
 42
90.0
  3
DIMSTYLE_1
100
AcDbAlignedDimension
 13
247.5614073486
 23
153.8513838867
 14
247.5614073486
 24
63.8513838867
 50
270.0
100
AcDbRotatedDimension
  0
DIMENSION
  5
24B
100
AcDbEntity
  8
0
100
AcDbDimension
 62
7
  6
CONTINUOUS
  2
*D1
 10
104.0614073486
 20
161.8513838867
 11
171.1685502058
 21
161.8513838867
 70
160
 71
2
 72
2
 41
0.9
 42
144.5
  3
DIMSTYLE_1
100
AcDbAlignedDimension
 13
248.5614073486
 23
152.8513838867
 14
104.0614073486
 24
152.8513838867
 50
180.0
100
AcDbRotatedDimension
  0
DIMENSION
  5
24C
100
AcDbEntity
  8
0
100
AcDbDimension
 62
7
  6
CONTINUOUS
  2
*D2
 10
63.6234375
 20
161.8513838867
 11
54.441291598
 21
161.8513838867
 70
160
 71
3
 72
2
 41
0.9
 42
8.55
  3
DIMSTYLE_1
100
AcDbAlignedDimension
 13
72.1734375
 23
151.8897871143
 14
63.6234375
 24
152.8513838867
 50
180.0
100
AcDbRotatedDimension
  0
DIMENSION
  5
24D
100
AcDbEntity
  8
0
100
AcDbDimension
 62
7
  6
CONTINUOUS
  2
*D3
 10
75.1734375
 20
171.8513838867
 11
53.1738379714
 21
171.8513838867
 70
160
 71
3
 72
2
 41
0.9
 42
11.55
  3
DIMSTYLE_1
100
AcDbAlignedDimension
 13
63.6234375
 23
152.8513838867
 14
75.1734375
 24
134.8977006799
100
AcDbRotatedDimension
  0
LINE
  5
24E
100
AcDbEntity
  8
SMUSSO
100
AcDbLine
 62
7
  6
CONTINUOUS
 10
104.0614073486
 20
152.8513838867
 11
105.0614073486
 21
153.8513838867
  0
LINE
  5
24F
100
AcDbEntity
  8
SMUSSO
100
AcDbLine
 62
7
  6
CONTINUOUS
 10
105.0614073486
 20
63.8513838867
 11
104.0614073486
 21
64.8513838867
  0
LINE
  5
250
100
AcDbEntity
  8
SMUSSO
100
AcDbLine
 62
7
  6
CONTINUOUS
 10
104.0614073486
 20
152.8513838867
 11
104.0614073486
 21
64.8513838867
  0
LINE
  5
251
100
AcDbEntity
  8
SMUSSO
100
AcDbLine
 62
7
  6
CONTINUOUS
 10
105.0614073486
 20
152.8513838867
 11
105.0614073486
 21
64.8513838867
  0
LINE
  5
252
100
AcDbEntity
  8
0
100
AcDbLine
 62
7
  6
CONTINUOUS
 10
130.7114073486
 20
87.4513838867
 11
130.7114073486
 21
130.2513838867
  0
LINE
  5
253
100
AcDbEntity
  8
0
100
AcDbLine
 62
7
  6
CONTINUOUS
 10
131.2114073486
 20
87.4513838867
 11
131.2114073486
 21
130.2513838867
  0
LINE
  5
254
100
AcDbEntity
  8
SMUSSO
100
AcDbLine
 62
7
  6
CONTINUOUS
 10
105.0614073486
 20
63.8513838867
 11
247.5614073486
 21
63.8513838867
  0
LINE
  5
255
100
AcDbEntity
  8
0
100
AcDbLine
 62
250
  6
CONTINUOUS
 10
132.4114073486
 20
131.9513838867
 11
132.4114073486
 21
131.4513838867
  0
LINE
  5
256
100
AcDbEntity
  8
0
100
AcDbLine
 62
250
  6
CONTINUOUS
 10
132.4114073486
 20
85.7513838867
 11
132.4114073486
 21
86.2513838867
  0
LWPOLYLINE
  5
257
100
AcDbEntity
  8
0
100
AcDbPolyline
 62
7
  6
CONTINUOUS
 90
3
 70
0
 43
0.3500000006
 10
171.1685467529
 20
164.7442401123
 10
172.0256846924
 20
165.6013780518
 10
172.0256846924
 20
162.6013771362
  0
LINE
  5
258
100
AcDbEntity
  8
SMUSSO
100
AcDbLine
 62
7
  6
CONTINUOUS
 10
105.0614073486
 20
64.8513838867
 11
247.5614073486
 21
64.8513838867
  0
LINE
  5
259
100
AcDbEntity
  8
0
100
AcDbLine
 62
7
  6
CONTINUOUS
 10
220.2114073486
 20
85.7513838867
 11
132.4114073486
 21
85.7513838867
  0
LINE
  5
25A
100
AcDbEntity
  8
0
100
AcDbLine
 62
7
  6
CONTINUOUS
 10
220.2114073486
 20
86.2513838867
 11
132.4114073486
 21
86.2513838867
  0
LINE
  5
25B
100
AcDbEntity
  8
SMUSSO
100
AcDbLine
 62
7
  6
CONTINUOUS
 10
105.0614073486
 20
64.8513838867
 11
104.5614073486
 21
64.3513838867
  0
LINE
  5
25C
100
AcDbEntity
  8
0
100
AcDbLine
 62
250
  6
CONTINUOUS
 10
221.9114073486
 20
87.4513838867
 11
221.4114073486
 21
87.4513838867
  0
LINE
  5
25D
100
AcDbEntity
  8
0
100
AcDbLine
 62
250
  6
CONTINUOUS
 10
130.7114073486
 20
87.4513838867
 11
131.2114073486
 21
87.4513838867
  0
LINE
  5
25E
100
AcDbEntity
  8
SMUSSO
100
AcDbLine
 62
7
  6
CONTINUOUS
 10
104.5614073486
 20
153.3513838867
 11
105.0614073486
 21
152.8513838867
  0
LWPOLYLINE
  5
25F
100
AcDbEntity
  8
0
100
AcDbPolyline
 62
7
  6
CONTINUOUS
 90
3
 70
0
 43
0.3500000006
 10
178.3114112549
 20
162.8871018677
 10
178.2399710083
 20
162.6728173828
 10
178.09712677
 20
162.3870926514
  0
LWPOLYLINE
  5
260
100
AcDbEntity
  8
0
100
AcDbPolyline
 62
7
  6
CONTINUOUS
 90
2
 70
0
 43
0.3500000006
 10
173.8828410645
 20
162.6013771362
 10
173.8828410645
 20
164.1013866577
  0
LWPOLYLINE
  5
261
100
AcDbEntity
  8
0
100
AcDbPolyline
 62
7
  6
CONTINUOUS
 90
2
 70
0
 43
0.3500000006
 10
176.2399703979
 20
162.6013771362
 10
176.2399703979
 20
164.1013866577
  0
LWPOLYLINE
  5
262
100
AcDbEntity
  8
0
100
AcDbPolyline
 62
7
  6
CONTINUOUS
 90
13
 70
0
 43
0.3500000006
 10
254.9542697754
 20
108.8513833923
 10
253.6685447388
 20
108.8513833923
 10
253.239975769
 20
109.0656678772
 10
252.8114067993
 20
109.4942368469
 10
252.8114067993
 20
109.7085303955
 10
253.239975769
 20
110.1370993652
 10
253.6685447388
 20
110.3513838501
 10
254.9542697754
 20
110.3513838501
 10
255.3828387451
 20
110.1370993652
 10
255.8114077148
 20
109.7085303955
 10
255.8114077148
 20
109.4942368469
 10
255.3828387451
 20
109.0656678772
 10
254.9542697754
 20
108.8513833923
  0
LINE
  5
263
100
AcDbEntity
  8
SMUSSO
100
AcDbLine
 62
7
  6
CONTINUOUS
 10
248.0614073486
 20
153.3513838867
 11
247.5614073486
 21
152.8513838867
  0
LINE
  5
264
100
AcDbEntity
  8
0
100
AcDbLine
 62
250
  6
CONTINUOUS
 10
221.9114073486
 20
130.2513838867
 11
221.4114073486
 21
130.2513838867
  0
LINE
  5
265
100
AcDbEntity
  8
0
100
AcDbLine
 62
250
  6
CONTINUOUS
 10
130.7114073486
 20
130.2513838867
 11
131.2114073486
 21
130.2513838867
  0
LINE
  5
266
100
AcDbEntity
  8
0
100
AcDbLine
 62
7
  6
CONTINUOUS
 10
132.4114073486
 20
131.4513838867
 11
220.2114073486
 21
131.4513838867
  0
LINE
  5
267
100
AcDbEntity
  8
0
100
AcDbLine
 62
7
  6
CONTINUOUS
 10
132.4114073486
 20
131.9513838867
 11
220.2114073486
 21
131.9513838867
  0
LINE
  5
268
100
AcDbEntity
  8
SMUSSO
100
AcDbLine
 62
7
  6
CONTINUOUS
 10
248.0614073486
 20
64.3513838867
 11
247.5614073486
 21
64.8513838867
  0
LWPOLYLINE
  5
269
100
AcDbEntity
  8
0
100
AcDbPolyline
 62
7
  6
CONTINUOUS
 90
10
 70
0
 43
0.3500000006
 10
178.2399710083
 20
163.1013863525
 10
178.3114112549
 20
162.9585239868
 10
178.3114112549
 20
162.8871018677
 10
178.1685488892
 20
162.744239502
 10
178.09712677
 20
162.744239502
 10
178.0256865234
 20
162.8156616211
 10
178.0256865234
 20
162.8871018677
 10
178.09712677
 20
163.0299642334
 10
178.1685488892
 20
163.1013863525
 10
178.2399710083
 20
163.1013863525
  0
LINE
  5
26A
100
AcDbEntity
  8
0
100
AcDbLine
 62
250
  6
CONTINUOUS
 10
220.2114073486
 20
131.9513838867
 11
220.2114073486
 21
131.4513838867
  0
LINE
  5
26B
100
AcDbEntity
  8
0
100
AcDbLine
 62
250
  6
CONTINUOUS
 10
220.2114073486
 20
85.7513838867
 11
220.2114073486
 21
86.2513838867
  0
LINE
  5
26C
100
AcDbEntity
  8
0
100
AcDbLine
 62
7
  6
CONTINUOUS
 10
221.4114073486
 20
130.2513838867
 11
221.4114073486
 21
87.4513838867
  0
LINE
  5
26D
100
AcDbEntity
  8
0
100
AcDbLine
 62
7
  6
CONTINUOUS
 10
221.9114073486
 20
130.2513838867
 11
221.9114073486
 21
87.4513838867
  0
LINE
  5
26E
100
AcDbEntity
  8
SMUSSO
100
AcDbLine
 62
7
  6
CONTINUOUS
 10
247.5614073486
 20
152.8513838867
 11
105.0614073486
 21
152.8513838867
  0
LINE
  5
26F
100
AcDbEntity
  8
SMUSSO
100
AcDbLine
 62
7
  6
CONTINUOUS
 10
247.5614073486
 20
153.8513838867
 11
105.0614073486
 21
153.8513838867
  0
LWPOLYLINE
  5
270
100
AcDbEntity
  8
0
100
AcDbPolyline
 62
7
  6
CONTINUOUS
 90
8
 70
0
 43
0.3500000006
 10
179.3114115601
 20
162.6013771362
 10
180.1685494995
 20
162.6013771362
 10
180.5971184692
 20
163.0299642334
 10
180.5971184692
 20
163.8871021729
 10
180.1685494995
 20
164.3156711426
 10
179.3114115601
 20
164.3156711426
 10
179.3114115601
 20
165.6013780518
 10
180.5971184692
 20
165.6013780518
  0
LWPOLYLINE
  5
271
100
AcDbEntity
  8
0
100
AcDbPolyline
 62
7
  6
CONTINUOUS
 90
3
 70
0
 43
0.3500000006
 10
176.7399796143
 20
163.2442487183
 10
175.2399700928
 20
163.2442487183
 10
175.8828416748
 20
165.6013780518
  0
LWPOLYLINE
  5
272
100
AcDbEntity
  8
0
100
AcDbPolyline
 62
7
  6
CONTINUOUS
 90
3
 70
0
 43
0.3500000006
 10
174.3828321533
 20
163.2442487183
 10
172.8828407593
 20
163.2442487183
 10
173.5256942139
 20
165.6013780518
  0
LWPOLYLINE
  5
273
100
AcDbEntity
  8
0
100
AcDbPolyline
 62
7
  6
CONTINUOUS
 90
10
 70
0
 43
0.3500000006
 10
255.8114077148
 20
106.9228139648
 10
254.9542697754
 20
107.7799519043
 10
254.0971137085
 20
107.9942454529
 10
253.239975769
 20
107.9942454529
 10
252.8114067993
 20
107.5656674194
 10
252.8114067993
 20
106.9228139648
 10
253.239975769
 20
106.4942449951
 10
254.0971137085
 20
106.4942449951
 10
254.5257008057
 20
106.9228139648
 10
254.5257008057
 20
107.8513830872
  0
LINE
  5
274
100
AcDbEntity
  8
SMUSSO
100
AcDbLine
 62
7
  6
CONTINUOUS
 10
247.5614073486
 20
64.8513838867
 11
247.5614073486
 21
152.8513838867
  0
LINE
  5
275
100
AcDbEntity
  8
SMUSSO
100
AcDbLine
 62
7
  6
CONTINUOUS
 10
248.5614073486
 20
64.8513838867
 11
248.5614073486
 21
152.8513838867
  0
LINE
  5
276
100
AcDbEntity
  8
SMUSSO
100
AcDbLine
 62
7
  6
CONTINUOUS
 10
248.5614073486
 20
64.8513838867
 11
247.5614073486
 21
63.8513838867
  0
LINE
  5
277
100
AcDbEntity
  8
SMUSSO
100
AcDbLine
 62
7
  6
CONTINUOUS
 10
247.5614073486
 20
153.8513838867
 11
248.5614073486
 21
152.8513838867
  0
LWPOLYLINE
  5
278
100
AcDbEntity
  8
0
100
AcDbPolyline
 62
7
  6
CONTINUOUS
 90
3
 70
0
 43
0.3500000006
 10
53.17384021
 20
174.7442431641
 10
54.0309826813
 20
175.6013811035
 10
54.0309826813
 20
172.601380188
  0
LWPOLYLINE
  5
279
100
AcDbEntity
  8
0
100
AcDbPolyline
 62
7
  6
CONTINUOUS
 90
3
 70
0
 43
0.3500000006
 10
54.8881251526
 20
174.7442431641
 10
55.7452676239
 20
175.6013811035
 10
55.7452676239
 20
172.601380188
  0
LINE
  5
27A
100
AcDbEntity
  8
SMUSSO
100
AcDbLine
 62
7
  6
CONTINUOUS
 10
64.6234375
 20
63.8513838867
 11
67.1234375
 21
63.8513838867
  0
LINE
  5
27B
100
AcDbEntity
  8
0
100
AcDbLine
 62
250
  6
CONTINUOUS
 10
70.6742350589
 20
65.5159179169
 11
72.1734375
 21
65.8129806592
  0
LINE
  5
27C
100
AcDbEntity
  8
0
100
AcDbLine
 62
7
  6
CONTINUOUS
 10
67.7734375
 20
64.5007641984
 11
70.6734375
 21
64.5513838867
  0
LINE
  5
27D
100
AcDbEntity
  8
0
100
AcDbLine
 62
250
  6
CONTINUOUS
 10
67.7734375
 20
65.5006118936
 11
70.6734375
 21
65.5512315819
  0
LINE
  5
27E
100
AcDbEntity
  8
SMUSSO
100
AcDbLine
 62
7
  6
CONTINUOUS
 10
64.6234375
 20
64.8513838867
 11
67.1234375
 21
64.8513838867
  0
LINE
  5
27F
100
AcDbEntity
  8
RACCORDO
100
AcDbLine
 62
7
  6
CONTINUOUS
 10
67.6234375
 20
69.8513838867
 11
67.7734375
 21
69.8513838867
  0
LINE
  5
280
100
AcDbEntity
  8
RACCORDO
100
AcDbLine
 62
250
  6
CONTINUOUS
 10
67.6234375
 20
71.8513838867
 11
67.7734375
 21
71.8513838867
  0
LINE
  5
281
100
AcDbEntity
  8
SMUSSO
100
AcDbLine
 62
7
  6
CONTINUOUS
 10
64.6234375
 20
153.8513838867
 11
63.6234375
 21
152.8513838867
  0
LINE
  5
282
100
AcDbEntity
  8
SMUSSO
100
AcDbLine
 62
7
  6
CONTINUOUS
 10
64.6234375
 20
63.8513838867
 11
63.6234375
 21
64.8513838867
  0
LWPOLYLINE
  5
283
100
AcDbEntity
  8
0
100
AcDbPolyline
 62
7
  6
CONTINUOUS
 90
3
 70
0
 43
0.3500000006
 10
57.3166947327
 20
172.8871049194
 10
57.2452680817
 20
172.6728204346
 10
57.1024102478
 20
172.3870957031
  0
LINE
  5
284
100
AcDbEntity
  8
SMUSSO
100
AcDbLine
 62
7
  6
CONTINUOUS
 10
67.1234375
 20
152.8513838867
 11
67.6234375
 21
153.3513838867
  0
LINE
  5
285
100
AcDbEntity
  8
SMUSSO
100
AcDbLine
 62
7
  6
CONTINUOUS
 10
67.6234375
 20
64.3513838867
 11
67.1234375
 21
64.8513838867
  0
LWPOLYLINE
  5
286
100
AcDbEntity
  8
0
100
AcDbPolyline
 62
7
  6
CONTINUOUS
 90
3
 70
0
 43
0.3500000006
 10
57.5127203522
 20
162.8871018677
 10
57.4412937012
 20
162.6728173828
 10
57.2984358673
 20
162.3870926514
  0
LINE
  5
287
100
AcDbEntity
  8
0
100
AcDbLine
 62
7
  6
CONTINUOUS
 10
73.0992746978
 20
81.7012544481
 11
72.1734375
 21
81.6996385557
  0
LINE
  5
288
100
AcDbEntity
  8
0
100
AcDbLine
 62
250
  6
CONTINUOUS
 10
73.0992100837
 20
81.9237046428
 11
72.1734375
 21
81.9232864483
  0
LINE
  5
289
100
AcDbEntity
  8
0
100
AcDbLine
 62
7
  6
CONTINUOUS
 10
74.6234867322
 20
82.5098200264
 11
72.1734375
 21
82.4955660569
  0
LINE
  5
28A
100
AcDbEntity
  8
0
100
AcDbLine
 62
250
  6
CONTINUOUS
 10
74.6234867322
 20
82.597686505
 11
72.1734375
 21
82.5834325355
  0
LINE
  5
28B
100
AcDbEntity
  8
0
100
AcDbLine
 62
7
  6
CONTINUOUS
 10
75.1734375
 20
82.69902268
 11
75.0528747329
 21
82.69902268
  0
LINE
  5
28C
100
AcDbEntity
  8
0
100
AcDbLine
 62
7
  6
CONTINUOUS
 10
73.1235618789
 20
83.6513838867
 11
72.1734375
 21
83.6513838867
  0
LINE
  5
28D
100
AcDbEntity
  8
0
100
AcDbLine
 62
7
  6
CONTINUOUS
 10
72.1734375
 20
83.8013838867
 11
72.3234375
 21
83.8013838867
  0
LINE
  5
28E
100
AcDbEntity
  8
0
100
AcDbLine
 62
7
  6
CONTINUOUS
 10
72.6234375
 20
83.8013838867
 11
72.8234375
 21
83.8013838867
  0
LINE
  5
28F
100
AcDbEntity
  8
0
100
AcDbLine
 62
7
  6
CONTINUOUS
 10
74.6515008457
 20
83.5035775522
 11
75.1734375
 21
83.49902268
  0
LINE
  5
290
100
AcDbEntity
  8
0
100
AcDbLine
 62
7
  6
CONTINUOUS
 10
72.1734375
 20
83.0955640122
 11
74.9839046912
 21
82.9713972191
  0
LINE
  5
291
100
AcDbEntity
  8
0
100
AcDbLine
 62
7
  6
CONTINUOUS
 10
73.2230655979
 20
83.6464210769
 11
75.1734375
 21
83.4513838867
  0
LWPOLYLINE
  5
292
100
AcDbEntity
  8
0
100
AcDbPolyline
 62
250
  6
CONTINUOUS
 90
4
 70
0
 10
74.6631172244
 20
135.1373178423
 10
74.6500393274
 20
135.1278526036
 10
74.6368047475
 20
135.1170872241
 10
74.6234867322
 20
135.1050812684
  0
LWPOLYLINE
  5
293
100
AcDbEntity
  8
0
100
AcDbPolyline
 62
250
  6
CONTINUOUS
 90
4
 70
0
 10
74.6631201931
 20
82.5654479184
 10
74.6500429821
 20
82.5749123599
 10
74.636807422
 20
82.5856782556
 10
74.6234867322
 20
82.597686505
  0
LWPOLYLINE
  5
294
100
AcDbEntity
  8
0
100
AcDbPolyline
 62
7
  6
CONTINUOUS
 90
4
 70
0
 43
0.3500000006
 10
54.4412927856
 20
163.0299642334
 10
54.4412927856
 20
163.8871021729
 10
54.8698617554
 20
164.3156711426
 10
55.5127197418
 20
164.3156711426
  0
LINE
  5
295
100
AcDbEntity
  8
0
100
AcDbLine
 62
7
  6
CONTINUOUS
 10
72.3234375
 20
133.9013838867
 11
72.4734375
 21
134.0513838867
  0
LINE
  5
296
100
AcDbEntity
  8
0
100
AcDbLine
 62
7
  6
CONTINUOUS
 10
72.8234375
 20
133.9013838867
 11
72.9734375
 21
134.0513838867
  0
LINE
  5
297
100
AcDbEntity
  8
0
100
AcDbLine
 62
7
  6
CONTINUOUS
 10
72.3234375
 20
83.8013838867
 11
72.4734375
 21
83.6513838867
  0
LINE
  5
298
100
AcDbEntity
  8
0
100
AcDbLine
 62
7
  6
CONTINUOUS
 10
72.8234375
 20
83.8013838867
 11
72.9734375
 21
83.6513838867
  0
LWPOLYLINE
  5
299
100
AcDbEntity
  8
0
100
AcDbPolyline
 62
250
  6
CONTINUOUS
 90
9
 70
0
 10
73.192867311
 20
81.7774385131
 10
73.2002418387
 20
81.7680685524
 10
73.207407683
 20
81.7594998355
 10
73.2142918737
 20
81.7518981334
 10
73.2207417511
 20
81.7455163982
 10
73.2265809069
 20
81.7406052888
 10
73.2316887814
 20
81.7373419491
 10
73.2359788732
 20
81.7358762108
 10
73.2393437337
 20
81.7363680906
  0
LWPOLYLINE
  5
29A
100
AcDbEntity
  8
0
100
AcDbPolyline
 62
250
  6
CONTINUOUS
 90
19
 70
0
 10
73.0992100837
 20
135.7790631306
 10
73.1076790561
 20
135.7937616593
 10
73.1162328739
 20
135.8083559331
 10
73.1248394654
 20
135.8227793343
 10
73.1334040363
 20
135.836868817
 10
73.1419519663
 20
135.8506517473
 10
73.1506189539
 20
135.8643098573
 10
73.1593583845
 20
135.877731997
 10
73.1681014982
 20
135.8907827688
 10
73.1769166863
 20
135.9035176358
 10
73.1857540044
 20
135.9157994997
 10
73.194454987
 20
135.9273368666
 10
73.2028928147
 20
135.9378878686
 10
73.2109873056
 20
135.9472591627
 10
73.2185318766
 20
135.9551145996
 10
73.22524667
 20
135.9610956726
 10
73.2309945298
 20
135.9650370584
 10
73.2357249969
 20
135.9668456983
 10
73.2393437337
 20
135.9663996828
  0
LWPOLYLINE
  5
29B
100
AcDbEntity
  8
0
100
AcDbPolyline
 62
250
  6
CONTINUOUS
 90
14
 70
0
 10
73.0992100837
 20
81.9237046428
 10
73.105819142
 20
81.912195984
 10
73.1125562673
 20
81.9006206342
 10
73.1194052814
 20
81.8890174425
 10
73.1263117504
 20
81.8774859105
 10
73.1332926608
 20
81.8660105407
 10
73.1404325564
 20
81.8544767513
 10
73.1477164518
 20
81.8429335266
 10
73.1550964274
 20
81.8314775122
 10
73.1625941187
 20
81.8201022672
 10
73.1701642037
 20
81.8089087617
 10
73.1777510614
 20
81.7980136414
 10
73.185342198
 20
81.7874751563
 10
73.192867311
 20
81.7774385131
  0
LINE
  5
29C
100
AcDbEntity
  8
SMUSSO
100
AcDbLine
 62
7
  6
CONTINUOUS
 10
63.6234375
 20
64.8513838867
 11
63.6234375
 21
152.8513838867
  0
LWPOLYLINE
  5
29D
100
AcDbEntity
  8
0
100
AcDbPolyline
 62
7
  6
CONTINUOUS
 90
7
 70
0
 10
75.145578585
 20
82.8748221693
 10
75.1538498931
 20
82.8607680055
 10
75.1607614864
 20
82.8476851689
 10
75.1662370214
 20
82.8355736594
 10
75.1702100281
 20
82.824433477
 10
75.1726248457
 20
82.8142646217
 10
75.1734375
 20
82.8050670935
  0
LINE
  5
29E
100
AcDbEntity
  8
SMUSSO
100
AcDbLine
 62
7
  6
CONTINUOUS
 10
64.6234375
 20
64.8513838867
 11
64.6234375
 21
152.8513838867
  0
LINE
  5
29F
100
AcDbEntity
  8
0
100
AcDbLine
 62
7
  6
CONTINUOUS
 10
70.6795832757
 20
65.3915087231
 11
70.6742350589
 21
65.5159179169
  0
LINE
  5
2A0
100
AcDbEntity
  8
0
100
AcDbLine
 62
7
  6
CONTINUOUS
 10
70.6841396822
 20
65.2697768993
 11
70.6795832757
 21
65.3915087231
  0
LINE
  5
2A1
100
AcDbEntity
  8
0
100
AcDbLine
 62
7
  6
CONTINUOUS
 10
70.6878476854
 20
65.1525573887
 11
70.6841396822
 21
65.2697768993
  0
LINE
  5
2A2
100
AcDbEntity
  8
SMUSSO
100
AcDbLine
 62
7
  6
CONTINUOUS
 10
67.1234375
 20
152.8513838867
 11
67.1234375
 21
64.8513838867
  0
LINE
  5
2A3
100
AcDbEntity
  8
SMUSSO
100
AcDbLine
 62
7
  6
CONTINUOUS
 10
67.6234375
 20
153.3513838867
 11
67.6234375
 21
64.3513838867
  0
LINE
  5
2A4
100
AcDbEntity
  8
0
100
AcDbLine
 62
7
  6
CONTINUOUS
 10
67.7734375
 20
64.5007641984
 11
67.7734375
 21
153.202003575
  0
LINE
  5
2A5
100
AcDbEntity
  8
0
100
AcDbLine
 62
7
  6
CONTINUOUS
 10
70.6878472841
 20
152.5501961592
 11
70.6905729324
 21
152.6613474181
  0
LINE
  5
2A6
100
AcDbEntity
  8
0
100
AcDbLine
 62
7
  6
CONTINUOUS
 10
70.6841385418
 20
152.4329575474
 11
70.6878472841
 21
152.5501961592
  0
LINE
  5
2A7
100
AcDbEntity
  8
0
100
AcDbLine
 62
7
  6
CONTINUOUS
 10
70.679582204
 20
152.3112315084
 11
70.6841385418
 21
152.4329575474
  0
LINE
  5
2A8
100
AcDbEntity
  8
0
100
AcDbLine
 62
7
  6
CONTINUOUS
 10
70.6742350589
 20
152.1868498565
 11
70.679582204
 21
152.3112315084
  0
LINE
  5
2A9
100
AcDbEntity
  8
0
100
AcDbLine
 62
7
  6
CONTINUOUS
 10
70.6734375
 20
152.1515361916
 11
70.6734375
 21
65.5512315819
  0
LINE
  5
2AA
100
AcDbEntity
  8
0
100
AcDbLine
 62
7
  6
CONTINUOUS
 10
72.1734375
 20
151.9513838867
 11
72.1734375
 21
65.7513838867
  0
LWPOLYLINE
  5
2AB
100
AcDbEntity
  8
0
100
AcDbPolyline
 62
7
  6
CONTINUOUS
 90
17
 70
0
 10
70.6905729324
 20
152.6613474181
 10
70.6915428753
 20
152.7140551525
 10
70.6922368889
 20
152.7645626324
 10
70.6926589225
 20
152.8126785857
 10
70.692801254
 20
152.8582159055
 10
70.6926589204
 20
152.9009969024
 10
70.6922368847
 20
152.9408544814
 10
70.6915428695
 20
152.9776333493
 10
70.690572926
 20
153.0111934443
 10
70.6893332188
 20
153.041399332
 10
70.6878472791
 20
153.0681246554
 10
70.6861137086
 20
153.0912596852
 10
70.684138544
 20
153.1107293825
 10
70.6819568373
 20
153.1264735913
 10
70.6795822092
 20
153.1384269508
 10
70.6770071024
 20
153.1465306034
 10
70.6742350589
 20
153.1507458396
  0
LWPOLYLINE
  5
2AC
100
AcDbEntity
  8
0
100
AcDbPolyline
 62
250
  6
CONTINUOUS
 90
3
 70
0
 10
74.6235857527
 20
135.1883891726
 10
74.6235430986
 20
135.1918057561
 10
74.6234867322
 20
135.1929477471
  0
LINE
  5
2AD
100
AcDbEntity
  8
0
100
AcDbLine
 62
250
  6
CONTINUOUS
 10
74.6236287312
 20
135.1748529338
 11
74.6235857527
 21
135.1883891726
  0
LINE
  5
2AE
100
AcDbEntity
  8
0
100
AcDbLine
 62
250
  6
CONTINUOUS
 10
74.6236287312
 20
82.5279148396
 11
74.6234867322
 21
82.597686505
  0
LINE
  5
2AF
100
AcDbEntity
  8
0
100
AcDbLine
 62
250
  6
CONTINUOUS
 10
74.8891382869
 20
134.2229539654
 11
74.8891382869
 21
134.2012640518
  0
LINE
  5
2B0
100
AcDbEntity
  8
0
100
AcDbLine
 62
250
  6
CONTINUOUS
 10
74.8891382869
 20
83.5015037216
 11
74.8891382869
 21
83.479813808
  0
LINE
  5
2B1
100
AcDbEntity
  8
0
100
AcDbLine
 62
250
  6
CONTINUOUS
 10
74.9839046912
 20
134.7313705544
 11
74.9839046912
 21
134.2324306058
  0
LINE
  5
2B2
100
AcDbEntity
  8
0
100
AcDbLine
 62
250
  6
CONTINUOUS
 10
74.9839046912
 20
83.4703371676
 11
74.9839046912
 21
82.9713972191
  0
LINE
  5
2B3
100
AcDbEntity
  8
0
100
AcDbLine
 62
7
  6
CONTINUOUS
 10
75.1734375
 20
135.0037450935
 11
75.1734375
 21
134.2037450935
  0
LINE
  5
2B4
100
AcDbEntity
  8
0
100
AcDbLine
 62
7
  6
CONTINUOUS
 10
75.1734375
 20
83.49902268
 11
75.1734375
 21
82.69902268
  0
LINE
  5
2B5
100
AcDbEntity
  8
0
100
AcDbLine
 62
250
  6
CONTINUOUS
 10
73.0992746857
 20
81.7012544481
 11
73.0992100837
 21
81.9237046428
  0
LINE
  5
2B6
100
AcDbEntity
  8
0
100
AcDbLine
 62
250
  6
CONTINUOUS
 10
73.0992100837
 20
135.7790631306
 11
73.0992746826
 21
136.0003696243
  0
LINE
  5
2B7
100
AcDbEntity
  8
0
100
AcDbLine
 62
250
  6
CONTINUOUS
 10
74.6234867322
 20
135.1050812684
 11
74.6236287312
 21
135.1748529338
  0
LWPOLYLINE
  5
2B8
100
AcDbEntity
  8
0
100
AcDbPolyline
 62
7
  6
CONTINUOUS
 90
7
 70
0
 10
75.1734375
 20
134.8977006799
 10
75.1726249675
 20
134.8885040187
 10
75.1702104152
 20
134.8783356835
 10
75.1662376686
 20
134.8671956745
 10
75.1607622444
 20
134.8550839916
 10
75.1538504767
 20
134.8420006348
 10
75.145578585
 20
134.8279456042
  0
LWPOLYLINE
  5
2B9
100
AcDbEntity
  8
0
100
AcDbPolyline
 62
250
  6
CONTINUOUS
 90
4
 70
0
 10
74.6234867322
 20
82.5098200264
 10
74.6235430986
 20
82.5109620174
 10
74.6235857527
 20
82.5143786008
 10
74.6236287312
 20
82.5279148396
  0
LWPOLYLINE
  5
2BA
100
AcDbEntity
  8
0
100
AcDbPolyline
 62
7
  6
CONTINUOUS
 90
10
 70
0
 43
0.3500000006
 10
57.4412937012
 20
163.1013863525
 10
57.5127203522
 20
162.9585239868
 10
57.5127203522
 20
162.8871018677
 10
57.3698625183
 20
162.744239502
 10
57.2984358673
 20
162.744239502
 10
57.2270046844
 20
162.8156616211
 10
57.2270046844
 20
162.8871018677
 10
57.2984358673
 20
163.0299642334
 10
57.3698625183
 20
163.1013863525
 10
57.4412937012
 20
163.1013863525
  0
LWPOLYLINE
  5
2BB
100
AcDbEntity
  8
0
100
AcDbPolyline
 62
7
  6
CONTINUOUS
 90
10
 70
0
 43
0.3500000006
 10
57.2452680817
 20
173.1013894043
 10
57.3166947327
 20
172.9585270386
 10
57.3166947327
 20
172.8871049194
 10
57.1738368988
 20
172.7442425537
 10
57.1024102478
 20
172.7442425537
 10
57.0309790649
 20
172.8156646729
 10
57.0309790649
 20
172.8871049194
 10
57.1024102478
 20
173.0299491577
 10
57.1738368988
 20
173.1013894043
 10
57.2452680817
 20
173.1013894043
  0
LINE
  5
2BC
100
AcDbEntity
  8
0
100
AcDbLine
 62
7
  6
CONTINUOUS
 10
72.4734375
 20
83.6513838867
 11
72.6234375
 21
83.8013838867
  0
LINE
  5
2BD
100
AcDbEntity
  8
0
100
AcDbLine
 62
7
  6
CONTINUOUS
 10
72.4734375
 20
134.0513838867
 11
72.6234375
 21
133.9013838867
  0
LWPOLYLINE
  5
2BE
100
AcDbEntity
  8
0
100
AcDbPolyline
 62
7
  6
CONTINUOUS
 90
18
 70
0
 10
70.6742350589
 20
64.5520219338
 10
70.6770077611
 20
64.5562387936
 10
70.6795832659
 20
64.5643452356
 10
70.6819580495
 20
64.5763015098
 10
70.684139686
 20
64.592048222
 10
70.6861145753
 20
64.611518729
 10
70.6878477135
 20
64.6346498262
 10
70.6893329397
 20
64.6613587182
 10
70.6905719111
 20
64.6915385148
 10
70.691541591
 20
64.7250805253
 10
70.692236001
 20
64.7618648836
 10
70.6926586346
 20
64.8017452093
 10
70.692801254
 20
64.844552803
 10
70.6926586241
 20
64.8901202787
 10
70.6922359799
 20
64.9382695762
 10
70.6915415621
 20
64.9887938652
 10
70.6905718785
 20
65.0414826385
 10
70.6878476854
 20
65.1525573887
  0
LINE
  5
2BF
100
AcDbEntity
  8
0
100
AcDbLine
 62
250
  6
CONTINUOUS
 10
73.0992100837
 20
81.9237046428
 11
74.1987289436
 21
82.5073488578
  0
LINE
  5
2C0
100
AcDbEntity
  8
0
100
AcDbLine
 62
250
  6
CONTINUOUS
 10
74.6234867322
 20
82.597686505
 11
75.145578585
 21
82.8748221693
  0
LINE
  5
2C1
100
AcDbEntity
  8
0
100
AcDbLine
 62
7
  6
CONTINUOUS
 10
73.2384494617
 20
81.7358933952
 11
75.1734375
 21
82.7630195463
  0
LWPOLYLINE
  5
2C2
100
AcDbEntity
  8
0
100
AcDbPolyline
 62
250
  6
CONTINUOUS
 90
10
 70
0
 10
74.7623986613
 20
82.544832802
 10
74.7537471438
 20
82.5411816161
 10
74.7443681158
 20
82.5390198477
 10
74.7343144033
 20
82.5383575842
 10
74.7236448347
 20
82.539196252
 10
74.7124170055
 20
82.5415290192
 10
74.7006857814
 20
82.5453440928
 10
74.6885125379
 20
82.5506229205
 10
74.6759671854
 20
82.5573365437
 10
74.6631201931
 20
82.5654479184
  0
LINE
  5
2C3
100
AcDbEntity
  8
0
100
AcDbLine
 62
7
  6
CONTINUOUS
 10
73.2230655979
 20
134.0563466965
 11
75.1734375
 21
134.2513838867
  0
LINE
  5
2C4
100
AcDbEntity
  8
0
100
AcDbLine
 62
7
  6
CONTINUOUS
 10
72.1734375
 20
134.6072037613
 11
74.9839046912
 21
134.7313705544
  0
LINE
  5
2C5
100
AcDbEntity
  8
0
100
AcDbLine
 62
7
  6
CONTINUOUS
 10
74.6515008457
 20
134.1991902213
 11
75.1734375
 21
134.2037450935
  0
LINE
  5
2C6
100
AcDbEntity
  8
0
100
AcDbLine
 62
7
  6
CONTINUOUS
 10
72.1734375
 20
133.9013838867
 11
72.3234375
 21
133.9013838867
  0
LINE
  5
2C7
100
AcDbEntity
  8
0
100
AcDbLine
 62
7
  6
CONTINUOUS
 10
72.6234375
 20
133.9013838867
 11
72.8234375
 21
133.9013838867
  0
LINE
  5
2C8
100
AcDbEntity
  8
0
100
AcDbLine
 62
7
  6
CONTINUOUS
 10
72.1734375
 20
134.0513838867
 11
73.1235618789
 21
134.0513838867
  0
LINE
  5
2C9
100
AcDbEntity
  8
0
100
AcDbLine
 62
7
  6
CONTINUOUS
 10
75.1734375
 20
135.0037450935
 11
75.0528747329
 21
135.0037450935
  0
LINE
  5
2CA
100
AcDbEntity
  8
0
100
AcDbLine
 62
250
  6
CONTINUOUS
 10
73.0992100837
 20
135.7790631306
 11
72.1734375
 21
135.7794813252
  0
LINE
  5
2CB
100
AcDbEntity
  8
0
100
AcDbLine
 62
7
  6
CONTINUOUS
 10
73.0992746978
 20
136.0015133254
 11
72.1734375
 21
136.0031292177
  0
LINE
  5
2CC
100
AcDbEntity
  8
0
100
AcDbLine
 62
250
  6
CONTINUOUS
 10
74.6234867322
 20
135.1050812684
 11
72.1734375
 21
135.1193352379
  0
LINE
  5
2CD
100
AcDbEntity
  8
0
100
AcDbLine
 62
7
  6
CONTINUOUS
 10
74.6234867322
 20
135.1929477471
 11
72.1734375
 21
135.2072017165
  0
LWPOLYLINE
  5
2CE
100
AcDbEntity
  8
0
100
AcDbPolyline
 62
250
  6
CONTINUOUS
 90
10
 70
0
 10
74.7623986613
 20
135.1579349714
 10
74.7537509802
 20
135.1615849205
 10
74.7443751668
 20
135.1637469008
 10
74.7343237327
 20
135.1644102685
 10
74.7236550395
 20
135.1635729991
 10
74.712426619
 20
135.1612413279
 10
74.700693772
 20
135.15742672
 10
74.6885171942
 20
135.1521471119
 10
74.6759673281
 20
135.1454313131
 10
74.6631172244
 20
135.1373178423
  0
LINE
  5
2CF
100
AcDbEntity
  8
0
100
AcDbLine
 62
250
  6
CONTINUOUS
 10
74.1987289436
 20
135.1954189156
 11
73.0992100837
 21
135.7790631306
  0
LINE
  5
2D0
100
AcDbEntity
  8
0
100
AcDbLine
 62
250
  6
CONTINUOUS
 10
75.145578585
 20
134.8279456042
 11
74.6234867322
 21
135.1050812684
  0
LINE
  5
2D1
100
AcDbEntity
  8
0
100
AcDbLine
 62
7
  6
CONTINUOUS
 10
75.1734375
 20
134.9397482271
 11
73.2384494617
 21
135.9668743783
  0
LINE
  5
2D2
100
AcDbEntity
  8
SMUSSO
100
AcDbLine
 62
7
  6
CONTINUOUS
 10
64.6234375
 20
64.8513838867
 11
64.1234375
 21
64.3513838867
  0
LINE
  5
2D3
100
AcDbEntity
  8
SMUSSO
100
AcDbLine
 62
7
  6
CONTINUOUS
 10
67.1234375
 20
63.8513838867
 11
67.6234375
 21
64.3513838867
  0
LINE
  5
2D4
100
AcDbEntity
  8
SMUSSO
100
AcDbLine
 62
7
  6
CONTINUOUS
 10
64.1234375
 20
153.3513838867
 11
64.6234375
 21
152.8513838867
  0
LINE
  5
2D5
100
AcDbEntity
  8
SMUSSO
100
AcDbLine
 62
7
  6
CONTINUOUS
 10
67.6234375
 20
153.3513838867
 11
67.1234375
 21
153.8513838867
  0
LINE
  5
2D6
100
AcDbEntity
  8
0
100
AcDbLine
 62
7
  6
CONTINUOUS
 10
70.6734375
 20
64.5513838867
 11
72.1734375
 21
65.7513838867
  0
LWPOLYLINE
  5
2D7
100
AcDbEntity
  8
0
100
AcDbPolyline
 62
7
  6
CONTINUOUS
 90
13
 70
0
 43
0.3500000006
 10
54.8698617554
 20
164.3156711426
 10
54.5841506195
 20
164.5299556274
 10
54.5841506195
 20
165.172809082
 10
54.8698617554
 20
165.6013780518
 10
55.5127197418
 20
165.6013780518
 10
55.7984354095
 20
165.172809082
 10
55.7984354095
 20
164.5299556274
 10
55.5127197418
 20
164.3156711426
 10
55.9412932434
 20
163.8871021729
 10
55.9412932434
 20
163.0299642334
 10
55.5127197418
 20
162.6013771362
 10
54.8698617554
 20
162.6013771362
 10
54.4412927856
 20
163.0299642334
  0
LINE
  5
2D8
100
AcDbEntity
  8
0
100
AcDbLine
 62
7
  6
CONTINUOUS
 10
70.6734375
 20
153.1513838867
 11
72.1734375
 21
151.9513838867
  0
LINE
  5
2D9
100
AcDbEntity
  8
RACCORDO
100
AcDbLine
 62
250
  6
CONTINUOUS
 10
67.6234375
 20
145.8513838867
 11
67.7734375
 21
145.8513838867
  0
LINE
  5
2DA
100
AcDbEntity
  8
RACCORDO
100
AcDbLine
 62
7
  6
CONTINUOUS
 10
67.6234375
 20
147.8513838867
 11
67.7734375
 21
147.8513838867
  0
LINE
  5
2DB
100
AcDbEntity
  8
SMUSSO
100
AcDbLine
 62
7
  6
CONTINUOUS
 10
64.6234375
 20
152.8513838867
 11
67.1234375
 21
152.8513838867
  0
LINE
  5
2DC
100
AcDbEntity
  8
SMUSSO
100
AcDbLine
 62
7
  6
CONTINUOUS
 10
64.6234375
 20
153.8513838867
 11
67.1234375
 21
153.8513838867
  0
LWPOLYLINE
  5
2DD
100
AcDbEntity
  8
0
100
AcDbPolyline
 62
7
  6
CONTINUOUS
 90
8
 70
0
 43
0.3500000006
 10
58.5127206573
 20
162.6013771362
 10
59.3698631287
 20
162.6013771362
 10
59.7984366302
 20
163.0299642334
 10
59.7984366302
 20
163.8871021729
 10
59.3698631287
 20
164.3156711426
 10
58.5127206573
 20
164.3156711426
 10
58.5127206573
 20
165.6013780518
 10
59.7984366302
 20
165.6013780518
  0
LWPOLYLINE
  5
2DE
100
AcDbEntity
  8
0
100
AcDbPolyline
 62
7
  6
CONTINUOUS
 90
8
 70
0
 43
0.3500000006
 10
60.6555791016
 20
162.6013771362
 10
61.5127215729
 20
162.6013771362
 10
61.9412905426
 20
163.0299642334
 10
61.9412905426
 20
163.8871021729
 10
61.5127215729
 20
164.3156711426
 10
60.6555791016
 20
164.3156711426
 10
60.6555791016
 20
165.6013780518
 10
61.9412905426
 20
165.6013780518
  0
LWPOLYLINE
  5
2DF
100
AcDbEntity
  8
0
100
AcDbPolyline
 62
7
  6
CONTINUOUS
 90
8
 70
0
 43
0.3500000006
 10
58.3166950378
 20
172.601380188
 10
59.1738375092
 20
172.601380188
 10
59.6024110107
 20
173.0299491577
 10
59.6024110107
 20
173.8871052246
 10
59.1738375092
 20
174.3156741943
 10
58.3166950378
 20
174.3156741943
 10
58.3166950378
 20
175.6013811035
 10
59.6024110107
 20
175.6013811035
  0
LWPOLYLINE
  5
2E0
100
AcDbEntity
  8
0
100
AcDbPolyline
 62
7
  6
CONTINUOUS
 90
8
 70
0
 43
0.3500000006
 10
60.4595534821
 20
172.601380188
 10
61.3166959534
 20
172.601380188
 10
61.7452649231
 20
173.0299491577
 10
61.7452649231
 20
173.8871052246
 10
61.3166959534
 20
174.3156741943
 10
60.4595534821
 20
174.3156741943
 10
60.4595534821
 20
175.6013811035
 10
61.7452649231
 20
175.6013811035
  0
LINE
  5
2E1
100
AcDbEntity
  8
0
100
AcDbLine
 62
250
  6
CONTINUOUS
 10
67.7734375
 20
152.2021558799
 11
70.6734375
 21
152.1515361916
  0
LINE
  5
2E2
100
AcDbEntity
  8
0
100
AcDbLine
 62
7
  6
CONTINUOUS
 10
67.7734375
 20
153.202003575
 11
70.6734375
 21
153.1513838867
  0
LINE
  5
2E3
100
AcDbEntity
  8
0
100
AcDbLine
 62
250
  6
CONTINUOUS
 10
70.6742350589
 20
152.1868498565
 11
72.1734375
 21
151.8897871143
  0
ARC
  5
2E4
100
AcDbEntity
  8
0
100
AcDbCircle
 62
7
  6
CONTINUOUS
 10
220.2114073486
 20
87.4513838867
 40
1.7
100
AcDbArc
 50
270.0
 51
360.0
  0
ARC
  5
2E5
100
AcDbEntity
  8
0
100
AcDbCircle
 62
7
  6
CONTINUOUS
 10
132.4114073486
 20
87.4513838867
 40
1.7
100
AcDbArc
 50
180.0
 51
270.0
  0
ARC
  5
2E6
100
AcDbEntity
  8
0
100
AcDbCircle
 62
7
  6
CONTINUOUS
 10
132.4114073486
 20
130.2513838867
 40
1.7
100
AcDbArc
 50
90.0
 51
180.0
  0
ARC
  5
2E7
100
AcDbEntity
  8
0
100
AcDbCircle
 62
7
  6
CONTINUOUS
 10
220.2114073486
 20
130.2513838867
 40
1.7
100
AcDbArc
 50
0.0
 51
90.0
  0
ARC
  5
2E8
100
AcDbEntity
  8
0
100
AcDbCircle
 62
7
  6
CONTINUOUS
 10
132.4114073486
 20
87.4513838867
 40
1.2
100
AcDbArc
 50
180.0
 51
270.0
  0
ARC
  5
2E9
100
AcDbEntity
  8
0
100
AcDbCircle
 62
7
  6
CONTINUOUS
 10
220.2114073486
 20
87.4513838867
 40
1.2
100
AcDbArc
 50
270.0
 51
360.0
  0
ARC
  5
2EA
100
AcDbEntity
  8
0
100
AcDbCircle
 62
7
  6
CONTINUOUS
 10
220.2114073486
 20
130.2513838867
 40
1.2
100
AcDbArc
 50
0.0
 51
90.0
  0
ARC
  5
2EB
100
AcDbEntity
  8
0
100
AcDbCircle
 62
7
  6
CONTINUOUS
 10
132.4114073486
 20
130.2513838867
 40
1.2
100
AcDbArc
 50
90.0
 51
180.0
  0
ARC
  5
2EC
100
AcDbEntity
  8
0
100
AcDbCircle
 62
7
  6
CONTINUOUS
 10
73.1235618789
 20
82.6513838867
 40
1.0
100
AcDbArc
 50
84.2894068625
 51
90.0
  0
ARC
  5
2ED
100
AcDbEntity
  8
0
100
AcDbCircle
 62
7
  6
CONTINUOUS
 10
73.1235618789
 20
135.0513838867
 40
1.0
100
AcDbArc
 50
270.0
 51
275.7105931375
  0
ARC
  5
2EE
100
AcDbEntity
  8
0
100
AcDbCircle
 62
7
  6
CONTINUOUS
 10
73.0987506849
 20
82.0013843164
 40
0.3
100
AcDbArc
 50
270.1000000226
 51
297.9490718564
  0
ARC
  5
2EF
100
AcDbEntity
  8
0
100
AcDbCircle
 62
7
  6
CONTINUOUS
 10
73.0987506849
 20
135.701383457
 40
0.3
100
AcDbArc
 50
62.0509281436
 51
89.8999999774
  0
ARC
  5
2F0
100
AcDbEntity
  8
0
100
AcDbCircle
 62
7
  6
CONTINUOUS
 10
74.6217414128
 20
82.8098149494
 40
0.3
100
AcDbArc
 50
270.3333333333
 51
297.9601595792
  0
ARC
  5
2F1
100
AcDbEntity
  8
0
100
AcDbCircle
 62
7
  6
CONTINUOUS
 10
74.6217414128
 20
134.892952824
 40
0.3
100
AcDbArc
 50
62.0398404207
 51
89.6666666667
  0
ELLIPSE
  5
2F2
100
AcDbEntity
  8
0
100
AcDbEllipse
 62
7
  6
CONTINUOUS
 10
74.9734375
 20
82.7715851917
 30
0.0
 11
0.1417119467
 21
0.1422961243
 31
0.0
 40
0.9918061237
 41
-0.2491986107
 42
0.7350951877
  0
ELLIPSE
  5
2F3
100
AcDbEntity
  8
0
100
AcDbEllipse
 62
7
  6
CONTINUOUS
 10
71.9515140464
 20
152.1289226496
 30
0.0
 11
1.2772653435
 21
-0.0582277698
 31
0.0
 40
0.7819142031
 41
-3.1412917057
 42
-3.1059619589
  0
ELLIPSE
  5
2F4
100
AcDbEntity
  8
0
100
AcDbEllipse
 62
7
  6
CONTINUOUS
 10
71.9515140464
 20
65.5738451239
 30
0.0
 11
1.2772653435
 21
0.0582277698
 31
0.0
 40
0.7819142031
 41
3.1059619589
 42
3.1412917057
  0
ELLIPSE
  5
2F5
100
AcDbEntity
  8
0
100
AcDbEllipse
 62
7
  6
CONTINUOUS
 10
74.9734375
 20
134.9311825817
 30
0.0
 11
-0.1417119467
 21
0.1422961243
 31
0.0
 40
0.9918061237
 41
-3.8766878413
 42
-2.8923940429
  0
ENDSEC
  0
SECTION
  2
OBJECTS
  0
DICTIONARY
  5
C
100
AcDbDictionary
280
0
281
1
  3
ACAD_GROUP
350
D
  3
ACAD_MLINESTYLE
350
17
  3
ACAD_LAYOUT
350
1A
  3
ACAD_PLOTSETTINGS
350
19
  3
ACAD_PLOTSTYLENAME
350
E
  0
DICTIONARY
  5
D
102
{ACAD_REACTORS
330
C
102
}
100
AcDbDictionary
280
0
281
1
  0
ACDBDICTIONARYWDFLT
  5
E
102
{ACAD_REACTORS
330
C
102
}
100
AcDbDictionary
281
1
  3
Normal
350
F
100
AcDbDictionaryWithDefault
340
F
  0
DICTIONARY
  5
17
102
{ACAD_REACTORS
330
C
102
}
100
AcDbDictionary
280
0
281
1
  3
Standard
350
18
  0
DICTIONARY
  5
19
102
{ACAD_REACTORS
330
C
102
}
100
AcDbDictionary
281
1
  0
DICTIONARY
  5
1A
102
{ACAD_REACTORS
330
C
102
}
100
AcDbDictionary
281
1
  3
Model
350
2F6
  3
Layout1
350
2F7
  0
ACDBPLACEHOLDER
  5
F
102
{ACAD_REACTORS
330
E
102
}
  0
MLINESTYLE
  5
18
102
{ACAD_REACTORS
330
17
102
}
100
AcDbMlineStyle
  2
STANDARD
 70
0
  3

 62
256
 51
90.0
 52
90.0
 71
2
 49
0.5
 62
256
  6
BYLAYER
 49
-0.5
 62
256
  6
BYLAYER
  0
LAYOUT
  5
2F6
102
{ACAD_REACTORS
330
1A
102
}
100
AcDbPlotSettings
  1

  2
none_device
  4
ISO_A4_(297.00_x_210.00_MM)
  6

 40
0.0
 41
0.0
 42
0.0
 43
0.0
 44
297.0
 45
210.0
 46
0.0
 47
0.0
 48
0.0
 49
0.0
140
0.0
141
0.0
142
1.0
143
1.0
 70
1024
 72
1
 73
0
 74
0
  7

 75
0
147
1.0
148
0.0
149
0.0
100
AcDbLayout
  1
Model
 70
0
 71
0
 10
0.0
 20
0.0
 11
297.0
 21
210.0
 12
0.0
 22
0.0
 32
0.0
 14
0.0
 24
0.0
 34
0.0
 15
0.0
 25
0.0
 35
0.0
146
0.0
 13
0.0
 23
0.0
 33
0.0
 16
1.0
 26
0.0
 36
0.0
 17
0.0
 27
1.0
 37
0.0
 76
0
330
21C
345
0
346
0
  0
LAYOUT
  5
2F7
102
{ACAD_REACTORS
330
1A
102
}
100
AcDbPlotSettings
  1

  2
none_device
  4
ISO_A4_(297.00_x_210.00_MM)
  6

 40
0.0
 41
0.0
 42
0.0
 43
0.0
 44
297.0
 45
210.0
 46
0.0
 47
0.0
 48
0.0
 49
0.0
140
0.0
141
0.0
142
1.0
143
1.0
 70
0
 72
1
 73
0
 74
0
  7

 75
0
147
1.0
148
0.0
149
0.0
100
AcDbLayout
  1
Layout1
 70
0
 71
1
 10
0.0
 20
0.0
 11
297.0
 21
210.0
 12
0.0
 22
0.0
 32
0.0
 14
0.0
 24
0.0
 34
0.0
 15
0.0
 25
0.0
 35
0.0
146
0.0
 13
0.0
 23
0.0
 33
0.0
 16
1.0
 26
0.0
 36
0.0
 17
0.0
 27
1.0
 37
0.0
 76
0
330
21D
345
0
346
0
  0
ENDSEC
  0
EOF
