  0
SECTION
  2
HEADER
  9
$ACADVER
  1
AC1024
  9
$DWGCODEPAGE
  3
ANSI_1252
  9
$EXTMAX
 10
297.0
 20
210.0
 30
0.0
  9
$EXTMIN
 10
0.0
 20
0.0
 30
0.0
  9
$LIMMIN
 10
0.0
 20
0.0
  9
$LIMMAX
 10
297.0
 20
210.0
  9
$VIEWCTR
 10
148.5
 20
105.0
  9
$VIEWSIZE
 40
210.0
  9
$CLAYER
  8
0
  9
$LTSCALE
 40
16.335
  9
$CELTYPE
  6
BYLAYER
  9
$DIMSCALE
 40
1.0
  9
$DIMASZ
 40
3.0
  9
$DIMEXO
 40
0.5
  9
$DIMDLI
 40
11.286
  9
$DIMEXE
 40
1.5
  9
$DIMCEN
 40
2.673
  9
$DIMLFAC
 40
1.0
  9
$DIMBLK
  1
_FILLED
  9
$DIMALT
 70
0
  9
$DIMALTF
 40
0.0393700787
  9
$DIMTXT
 40
3.0
  9
$DIMTOL
 70
1
  9
$DIMLIM
 70
0
  9
$DIMTFAC
 40
1.0
  9
$DIMTP
 40
0.01
  9
$DIMTM
 40
0.01
  9
$DIMGAP
 40
0.625
  9
$DIMDSEP
 70
44
  9
$AUNITS
 70
0
  9
$PDMODE
 70
3
  9
$PDSIZE
 40
3.0
  9
$HANDSEED
  5
491
  9
$TILEMODE
 70
1
  9
$MEASUREMENT
 70
1
  9
$INSUNITS
 70
4
  0
ENDSEC
  0
SECTION
  2
CLASSES
  0
CLASS
  1
ACDBDICTIONARYWDFLT
  2
AcDbDictionaryWithDefault
  3
AutoCAD 2000
 90
0
 91
1
280
0
281
0
  0
CLASS
  1
ACDBPLACEHOLDER
  2
AcDbPlaceHolder
  3
AutoCAD 2000
 90
0
 91
1
280
0
281
0
  0
CLASS
  1
LAYOUT
  2
AcDbLayout
  3
AutoCAD 2000
 90
0
 91
0
280
0
281
0
  0
ENDSEC
  0
SECTION
  2
TABLES
  0
TABLE
  2
VPORT
  5
8
100
AcDbSymbolTable
 70
2
  0
VPORT
  5
1F4
100
AcDbSymbolTableRecord
100
AcDbViewportTableRecord
  2
*ACTIVE
 70
0
 10
0.0
 20
0.0
 11
1.0
 21
1.0
 12
148.5
 22
105.0
 13
0.0
 23
0.0
 14
1.0
 24
1.0
 15
0.0
 25
0.0
 16
0.0
 26
0.0
 36
1.0
 17
0.0
 27
0.0
 37
0.0
 40
210.0
 41
1.4142857143
 42
50.0
 43
0.0
 44
0.0
 50
0.0
 51
0.0
 71
0
 72
100
 73
1
 74
1
 75
0
 76
0
 77
0
 78
0
  0
ENDTAB
  0
TABLE
  2
LTYPE
  5
5
100
AcDbSymbolTable
 70
6
  0
LTYPE
  5
14
100
AcDbSymbolTableRecord
100
AcDbLinetypeTableRecord
  2
BYBLOCK
 70
0
  3

 72
65
 73
0
 40
0.0
  0
LTYPE
  5
15
100
AcDbSymbolTableRecord
100
AcDbLinetypeTableRecord
  2
BYLAYER
 70
0
  3

 72
65
 73
0
 40
0.0
  0
LTYPE
  5
16
100
AcDbSymbolTableRecord
100
AcDbLinetypeTableRecord
  2
CONTINUOUS
 70
64
  3
Solid line
 72
65
 73
0
 40
0.0
  0
LTYPE
  5
1F5
100
AcDbSymbolTableRecord
100
AcDbLinetypeTableRecord
  2
CENTER
 70
64
  3
____ _ ____ _ ____ _ ____ _ ____ _ ____ _ ____
 72
65
 73
4
 40
0.6
 49
0.375
 74
0
 49
-0.075
 74
0
 49
0.075
 74
0
 49
-0.075
 74
0
  0
LTYPE
  5
1F6
100
AcDbSymbolTableRecord
100
AcDbLinetypeTableRecord
  2
HIDDEN
 70
64
  3
- - - - - - - - - - - - - - - - - - - -
 72
65
 73
2
 40
0.2
 49
0.1
 74
0
 49
-0.1
 74
0
  0
LTYPE
  5
1F7
100
AcDbSymbolTableRecord
100
AcDbLinetypeTableRecord
  2
PHANTOM
 70
64
  3
_____ _ _ _____ _ _ _____ _ _ _____
 72
65
 73
6
 40
0.8
 49
0.45
 74
0
 49
-0.05
 74
0
 49
0.1
 74
0
 49
-0.05
 74
0
 49
0.1
 74
0
 49
-0.05
 74
0
  0
LTYPE
  5
1F8
100
AcDbSymbolTableRecord
100
AcDbLinetypeTableRecord
  2
DOT
 70
64
  3
. . . . . . . . . . . . . . . . . . . .
 72
65
 73
2
 40
0.2
 49
0.1
 74
0
 49
-0.1
 74
0
  0
LTYPE
  5
1F9
100
AcDbSymbolTableRecord
100
AcDbLinetypeTableRecord
  2
DASHED
 70
64
  3
- - - - - - - - - - - - - - - - - - - -
 72
65
 73
2
 40
0.2
 49
0.1
 74
0
 49
-0.1
 74
0
  0
ENDTAB
  0
TABLE
  2
LAYER
  5
2
100
AcDbSymbolTable
 70
36
  0
LAYER
  5
10
100
AcDbSymbolTableRecord
100
AcDbLayerTableRecord
  2
0
 70
0
 62
7
  6
CONTINUOUS
370
-3
390
F
  0
LAYER
  5
1FA
100
AcDbSymbolTableRecord
100
AcDbLayerTableRecord
  2
DEFAULT_1
 70
0
 62
7
  6
CENTER
370
-3
390
F
  0
LAYER
  5
1FB
100
AcDbSymbolTableRecord
100
AcDbLayerTableRecord
  2
DEFAULT_2
 70
0
 62
7
  6
HIDDEN
370
-3
390
F
  0
LAYER
  5
1FC
100
AcDbSymbolTableRecord
100
AcDbLayerTableRecord
  2
DEFAULT_3
 70
0
 62
7
  6
PHANTOM
370
-3
390
F
  0
LAYER
  5
1FD
100
AcDbSymbolTableRecord
100
AcDbLayerTableRecord
  2
ASSI
 70
0
 62
7
  6
CONTINUOUS
370
-3
390
F
  0
LAYER
  5
1FE
100
AcDbSymbolTableRecord
100
AcDbLayerTableRecord
  2
COORDINATE
 70
0
 62
7
  6
CONTINUOUS
370
-3
390
F
  0
LAYER
  5
1FF
100
AcDbSymbolTableRecord
100
AcDbLayerTableRecord
  2
COORD_ORIGINE
 70
0
 62
7
  6
CONTINUOUS
370
-3
390
F
  0
LAYER
  5
200
100
AcDbSymbolTableRecord
100
AcDbLayerTableRecord
  2
COPY_PUBLISH
 70
0
 62
7
  6
CONTINUOUS
370
-3
390
F
  0
LAYER
  5
201
100
AcDbSymbolTableRecord
100
AcDbLayerTableRecord
  2
COSMETIC
 70
0
 62
7
  6
CONTINUOUS
370
-3
390
F
  0
LAYER
  5
202
100
AcDbSymbolTableRecord
100
AcDbLayerTableRecord
  2
COSMETICI
 70
0
 62
7
  6
CONTINUOUS
370
-3
390
F
  0
LAYER
  5
203
100
AcDbSymbolTableRecord
100
AcDbLayerTableRecord
  2
CURVE
 70
0
 62
7
  6
CONTINUOUS
370
-3
390
F
  0
LAYER
  5
204
100
AcDbSymbolTableRecord
100
AcDbLayerTableRecord
  2
CURVE_TASSELLI
 70
0
 62
7
  6
CONTINUOUS
370
-3
390
F
  0
LAYER
  5
205
100
AcDbSymbolTableRecord
100
AcDbLayerTableRecord
  2
DRAFT
 70
0
 62
7
  6
CONTINUOUS
370
-3
390
F
  0
LAYER
  5
206
100
AcDbSymbolTableRecord
100
AcDbLayerTableRecord
  2
IMPORT_IGES
 70
0
 62
7
  6
CONTINUOUS
370
-3
390
F
  0
LAYER
  5
207
100
AcDbSymbolTableRecord
100
AcDbLayerTableRecord
  2
INTFCLR_2
 70
0
 62
7
  6
CONTINUOUS
370
-3
390
F
  0
LAYER
  5
208
100
AcDbSymbolTableRecord
100
AcDbLayerTableRecord
  2
INTF_1
 70
0
 62
7
  6
CONTINUOUS
370
-3
390
F
  0
LAYER
  5
209
100
AcDbSymbolTableRecord
100
AcDbLayerTableRecord
  2
INTF_7
 70
0
 62
7
  6
CONTINUOUS
370
-3
390
F
  0
LAYER
  5
20A
100
AcDbSymbolTableRecord
100
AcDbLayerTableRecord
  2
NOTE
 70
0
 62
7
  6
CONTINUOUS
370
-3
390
F
  0
LAYER
  5
20B
100
AcDbSymbolTableRecord
100
AcDbLayerTableRecord
  2
PIANI
 70
0
 62
7
  6
CONTINUOUS
370
-3
390
F
  0
LAYER
  5
20C
100
AcDbSymbolTableRecord
100
AcDbLayerTableRecord
  2
PIANI_ORIGINE
 70
0
 62
7
  6
CONTINUOUS
370
-3
390
F
  0
LAYER
  5
20D
100
AcDbSymbolTableRecord
100
AcDbLayerTableRecord
  2
PIANI_RIFERIMENTO
 70
0
 62
7
  6
CONTINUOUS
370
-3
390
F
  0
LAYER
  5
20E
100
AcDbSymbolTableRecord
100
AcDbLayerTableRecord
  2
PUNTI
 70
0
 62
7
  6
CONTINUOUS
370
-3
390
F
  0
LAYER
  5
20F
100
AcDbSymbolTableRecord
100
AcDbLayerTableRecord
  2
RACCORDO
 70
0
 62
7
  6
CONTINUOUS
370
-3
390
F
  0
LAYER
  5
210
100
AcDbSymbolTableRecord
100
AcDbLayerTableRecord
  2
RGB__255__255__255__
 70
0
 62
7
  6
CONTINUOUS
370
-3
390
F
  0
LAYER
  5
211
100
AcDbSymbolTableRecord
100
AcDbLayerTableRecord
  2
RGB____0____0____0__
 70
0
 62
7
  6
CONTINUOUS
370
-3
390
F
  0
LAYER
  5
212
100
AcDbSymbolTableRecord
100
AcDbLayerTableRecord
  2
SIMBOLI
 70
0
 62
7
  6
CONTINUOUS
370
-3
390
F
  0
LAYER
  5
213
100
AcDbSymbolTableRecord
100
AcDbLayerTableRecord
  2
SMUSSO
 70
0
 62
7
  6
CONTINUOUS
370
-3
390
F
  0
LAYER
  5
214
100
AcDbSymbolTableRecord
100
AcDbLayerTableRecord
  2
SNAPLINE
 70
0
 62
7
  6
CONTINUOUS
370
-3
390
F
  0
LAYER
  5
215
100
AcDbSymbolTableRecord
100
AcDbLayerTableRecord
  2
SUPERFICI
 70
0
 62
7
  6
CONTINUOUS
370
-3
390
F
  0
LAYER
  5
216
100
AcDbSymbolTableRecord
100
AcDbLayerTableRecord
  2
TRASH
 70
0
 62
7
  6
CONTINUOUS
370
-3
390
F
  0
LAYER
  5
217
100
AcDbSymbolTableRecord
100
AcDbLayerTableRecord
  2
WHITE
 70
0
 62
7
  6
CONTINUOUS
370
-3
390
F
  0
LAYER
  5
218
100
AcDbSymbolTableRecord
100
AcDbLayerTableRecord
  2
XSEC_DATUMS
 70
0
 62
7
  6
CONTINUOUS
370
-3
390
F
  0
ENDTAB
  0
TABLE
  2
STYLE
  5
3
100
AcDbSymbolTable
 70
1
  0
STYLE
  5
11
100
AcDbSymbolTableRecord
100
AcDbTextStyleTableRecord
  2
STANDARD
 70
0
 40
0.0
 41
0.8
 50
0.0
 71
0
 42
0.2
  3
txt
  4

  0
STYLE
  5
219
100
AcDbSymbolTableRecord
100
AcDbTextStyleTableRecord
  2
TEXTSTYLE_1
 70
0
 40
0.0
 41
0.8
 50
0.0
 71
0
 42
0.2
  3
gdt
  4

  0
ENDTAB
  0
TABLE
  2
VIEW
  5
6
100
AcDbSymbolTable
 70
0
  0
ENDTAB
  0
TABLE
  2
UCS
  5
7
100
AcDbSymbolTable
 70
0
  0
ENDTAB
  0
TABLE
  2
APPID
  5
9
100
AcDbSymbolTable
 70
1
  0
APPID
  5
21A
100
AcDbSymbolTableRecord
100
AcDbRegAppTableRecord
  2
ACAD
 70
0
  0
ENDTAB
  0
TABLE
  2
BLOCK_RECORD
  5
1
100
AcDbSymbolTable
 70
0
  0
BLOCK_RECORD
  5
21B
100
AcDbSymbolTableRecord
100
AcDbBlockTableRecord
  2
*Model_Space
  0
BLOCK_RECORD
  5
21C
100
AcDbSymbolTableRecord
100
AcDbBlockTableRecord
  2
*Paper_Space
  0
BLOCK_RECORD
  5
21D
100
AcDbSymbolTableRecord
100
AcDbBlockTableRecord
  2
_FILLED
  0
BLOCK_RECORD
  5
21E
100
AcDbSymbolTableRecord
100
AcDbBlockTableRecord
  2
*D0
  0
BLOCK_RECORD
  5
21F
100
AcDbSymbolTableRecord
100
AcDbBlockTableRecord
  2
*D1
  0
BLOCK_RECORD
  5
220
100
AcDbSymbolTableRecord
100
AcDbBlockTableRecord
  2
*D2
  0
BLOCK_RECORD
  5
221
100
AcDbSymbolTableRecord
100
AcDbBlockTableRecord
  2
*D3
  0
ENDTAB
  0
TABLE
  2
DIMSTYLE
  5
A
100
AcDbSymbolTable
 70
1
100
AcDbDimStyleTable
 71
0
  0
DIMSTYLE
105
222
100
AcDbSymbolTableRecord
100
AcDbDimStyleTableRecord
  2
STANDARD
 70
0
  3

  4

 40
1.0
 41
3.0
 42
0.5
 43
0.38
 44
1.5
 45
0.0
 46
0.0
 47
0.01
 48
0.01
140
3.0
141
0.09
142
0.0
143
25.4
144
1.0
145
0.0
146
1.0
147
0.625
 71
1
 72
0
 73
0
 74
0
 75
0
 76
0
 77
1
 78
8
 79
2
170
0
171
1
172
0
173
0
174
0
175
0
176
0
177
0
178
0
270
2
179
2
271
2
272
2
273
2
274
2
275
0
280
0
281
0
282
0
283
1
284
8
285
0
286
0
287
3
288
0
340
11
278
44
341
21D
342
21D
343
21D
344
21D
  0
DIMSTYLE
105
223
100
AcDbSymbolTableRecord
100
AcDbDimStyleTableRecord
  2
DIMSTYLE_1
 70
0
  3

  4

 40
1.0
 41
3.0
 42
0.5
 43
0.38
 44
1.5
 45
0.0
 46
0.0
 47
0.0
 48
0.0
140
3.0
141
0.09
142
0.0
143
25.4
144
1.0
145
0.0
146
1.0
147
0.75
 71
0
 72
0
 73
0
 74
0
 75
0
 76
0
 77
1
 78
8
 79
2
170
0
171
1
172
0
173
0
174
0
175
0
176
0
177
0
178
0
270
2
179
2
271
2
272
2
273
2
274
2
275
0
280
0
281
0
282
0
283
1
284
8
285
0
286
0
287
3
288
0
340
11
278
44
341
21D
342
21D
343
21D
344
21D
  0
ENDTAB
  0
ENDSEC
  0
SECTION
  2
BLOCKS
  0
BLOCK
  5
20
100
AcDbEntity
  8
0
100
AcDbBlockBegin
  2
*Model_Space
 70
0
 10
0.0
 20
0.0
 30
0.0
  3
*Model_Space
  1

  0
ENDBLK
  5
21
100
AcDbEntity
  8
0
100
AcDbBlockEnd
  0
BLOCK
  5
1C
100
AcDbEntity
  8
0
100
AcDbBlockBegin
  2
*Paper_Space
 70
0
 10
0.0
 20
0.0
 30
0.0
  3
*Paper_Space
  1

  0
ENDBLK
  5
1D
100
AcDbEntity
  8
0
100
AcDbBlockEnd
  0
BLOCK
  5
224
100
AcDbEntity
  8
0
100
AcDbBlockBegin
  2
_FILLED
 70
64
 10
0.0
 20
0.0
  3
_FILLED
  1

  0
SOLID
  5
225
100
AcDbEntity
  8
0
  6
BYBLOCK
 62
0
100
AcDbTrace
 10
0.0
 20
0.0
 11
-1.0
 21
0.3166666667
 12
-1.0
 22
-0.3166666667
 13
-1.0
 23
-0.3166666667
  0
ENDBLK
  5
226
100
AcDbEntity
  8
0
  6
BYBLOCK
 62
0
100
AcDbBlockEnd
  0
BLOCK
  5
227
100
AcDbEntity
  8
0
100
AcDbBlockBegin
 62
7
  6
CONTINUOUS
  2
*D0
 70
65
 10
0.0
 20
0.0
  3
*D0
  1

  0
MTEXT
  5
228
100
AcDbEntity
  8
0
100
AcDbMText
 62
7
  6
CONTINUOUS
  7
STANDARD
 71
2
 72
1
 10
112.25
 20
0.0
 30
0.0
 11
0.0
 21
1.0
 31
0.0
 73
2
 44
0.9
  1
{\ftxt;\W0.0001;\H0.0001;\~}{\ftxt;\W1.5714285714;\H3.0; }{\ftxt;\W0.0001;\H0.0001;\~}
 40
3.0
 41
7.0714285714
  0
LINE
  5
229
100
AcDbEntity
  8
0
100
AcDbLine
 62
7
  6
CONTINUOUS
 10
105.4993911979
 20
45.0
 11
117.5
 21
45.0
  0
LINE
  5
22A
100
AcDbEntity
  8
0
100
AcDbLine
 62
7
  6
CONTINUOUS
 10
105.4993911979
 20
-45.0
 11
117.5
 21
-45.0
  0
LINE
  5
22B
100
AcDbEntity
  8
0
100
AcDbLine
 62
7
  6
CONTINUOUS
 10
116.0
 20
45.0
 11
116.0
 21
0.0
  0
LINE
  5
22C
100
AcDbEntity
  8
0
100
AcDbLine
 62
7
  6
CONTINUOUS
 10
116.0
 20
-45.0
 11
116.0
 21
0.0
  0
INSERT
  5
22D
100
AcDbEntity
  8
0
100
AcDbBlockReference
 62
7
  6
CONTINUOUS
  2
_FILLED
 10
116.0
 20
45.0
 41
3.0
 42
3.0
 43
3.0
 50
90.0
  0
INSERT
  5
22E
100
AcDbEntity
  8
0
100
AcDbBlockReference
 62
7
  6
CONTINUOUS
  2
_FILLED
 10
116.0
 20
-45.0
 41
3.0
 42
3.0
 43
3.0
 50
270.0
  0
ENDBLK
  5
22F
100
AcDbEntity
  8
0
  6
BYBLOCK
 62
0
100
AcDbBlockEnd
  0
BLOCK
  5
230
100
AcDbEntity
  8
0
100
AcDbBlockBegin
 62
7
  6
CONTINUOUS
  2
*D1
 70
65
 10
0.0
 20
0.0
  3
*D1
  1

  0
MTEXT
  5
231
100
AcDbEntity
  8
0
100
AcDbMText
 62
7
  6
CONTINUOUS
  7
STANDARD
 71
2
 72
1
 10
0.0
 20
58.75
 30
0.0
 11
1.0
 21
0.0
 31
0.0
 73
2
 44
0.9
  1
{\ftxt;\W0.0001;\H0.0001;\~}{\ftxt;\W2.1428571429;\H3.0; }{\ftxt;\W0.0001;\H0.0001;\~}
 40
3.0
 41
9.6428571429
  0
LINE
  5
232
100
AcDbEntity
  8
0
100
AcDbLine
 62
7
  6
CONTINUOUS
 10
106.0
 20
44.4993911979
 11
106.0
 21
56.5
  0
LINE
  5
233
100
AcDbEntity
  8
0
100
AcDbLine
 62
7
  6
CONTINUOUS
 10
-106.0
 20
44.4993911979
 11
-106.0
 21
56.5
  0
LINE
  5
234
100
AcDbEntity
  8
0
100
AcDbLine
 62
7
  6
CONTINUOUS
 10
106.0
 20
55.0
 11
0.0
 21
55.0
  0
LINE
  5
235
100
AcDbEntity
  8
0
100
AcDbLine
 62
7
  6
CONTINUOUS
 10
-106.0
 20
55.0
 11
0.0
 21
55.0
  0
INSERT
  5
236
100
AcDbEntity
  8
0
100
AcDbBlockReference
 62
7
  6
CONTINUOUS
  2
_FILLED
 10
106.0
 20
55.0
 41
3.0
 42
3.0
 43
3.0
  0
INSERT
  5
237
100
AcDbEntity
  8
0
100
AcDbBlockReference
 62
7
  6
CONTINUOUS
  2
_FILLED
 10
-106.0
 20
55.0
 41
3.0
 42
3.0
 43
3.0
 50
180.0
  0
ENDBLK
  5
238
100
AcDbEntity
  8
0
  6
BYBLOCK
 62
0
100
AcDbBlockEnd
  0
BLOCK
  5
239
100
AcDbEntity
  8
0
100
AcDbBlockBegin
 62
7
  6
CONTINUOUS
  2
*D2
 70
65
 10
0.0
 20
0.0
  3
*D2
  1

  0
MTEXT
  5
23A
100
AcDbEntity
  8
0
100
AcDbMText
 62
7
  6
CONTINUOUS
  7
STANDARD
 71
1
 72
1
 10
-125.4884453442
 20
68.75
 30
0.0
 11
1.0
 21
0.0
 31
0.0
 73
2
 44
0.9
  1
{\ftxt;\W0.0001;\H0.0001;\~}{\ftxt;\W3.2142857143;\H3.0; }{\ftxt;\W0.0001;\H0.0001;\~}
 40
3.0
 41
14.4642857143
  0
LINE
  5
23B
100
AcDbEntity
  8
0
100
AcDbLine
 62
7
  6
CONTINUOUS
 10
-137.2411572786
 20
43.8767374102
 11
-137.2411572786
 21
66.5
  0
LINE
  5
23C
100
AcDbEntity
  8
0
100
AcDbLine
 62
7
  6
CONTINUOUS
 10
-127.0911572786
 20
26.5463167932
 11
-127.0911572786
 21
66.5
  0
LINE
  5
23D
100
AcDbEntity
  8
0
100
AcDbLine
 62
7
  6
CONTINUOUS
 10
-137.2411572786
 20
65.0
 11
-132.1661572786
 21
65.0
  0
LINE
  5
23E
100
AcDbEntity
  8
0
100
AcDbLine
 62
7
  6
CONTINUOUS
 10
-127.0911572786
 20
65.0
 11
-132.1661572786
 21
65.0
  0
LINE
  5
23F
100
AcDbEntity
  8
0
100
AcDbLine
 62
7
  6
CONTINUOUS
 10
-132.1661572786
 20
65.0
 11
-115.8455882013
 21
65.0
  0
INSERT
  5
240
100
AcDbEntity
  8
0
100
AcDbBlockReference
 62
7
  6
CONTINUOUS
  2
_FILLED
 10
-137.2411572786
 20
65.0
 41
3.0
 42
3.0
 43
3.0
 50
180.0
  0
INSERT
  5
241
100
AcDbEntity
  8
0
100
AcDbBlockReference
 62
7
  6
CONTINUOUS
  2
_FILLED
 10
-127.0911572786
 20
65.0
 41
3.0
 42
3.0
 43
3.0
  0
ENDBLK
  5
242
100
AcDbEntity
  8
0
  6
BYBLOCK
 62
0
100
AcDbBlockEnd
  0
BLOCK
  5
243
100
AcDbEntity
  8
0
100
AcDbBlockBegin
 62
7
  6
CONTINUOUS
  2
*D3
 70
65
 10
0.0
 20
0.0
  3
*D3
  1

  0
MTEXT
  5
244
100
AcDbEntity
  8
0
100
AcDbMText
 62
7
  6
CONTINUOUS
  7
STANDARD
 71
1
 72
1
 10
-125.3507028871
 20
58.75
 30
0.0
 11
1.0
 21
0.0
 31
0.0
 73
2
 44
0.9
  1
{\ftxt;\W0.0001;\H0.0001;\~}{\ftxt;\W2.7857142857;\H3.0; }{\ftxt;\W0.0001;\H0.0001;\~}
 40
3.0
 41
12.5357142857
  0
LINE
  5
245
100
AcDbEntity
  8
0
100
AcDbLine
 62
7
  6
CONTINUOUS
 10
-130.6911572786
 20
44.4993911979
 11
-130.6911572786
 21
56.5
  0
LINE
  5
246
100
AcDbEntity
  8
0
100
AcDbLine
 62
7
  6
CONTINUOUS
 10
-137.2411572786
 20
43.8767374102
 11
-137.2411572786
 21
56.5
  0
LINE
  5
247
100
AcDbEntity
  8
0
100
AcDbLine
 62
7
  6
CONTINUOUS
 10
-130.6911572786
 20
55.0
 11
-133.9661572786
 21
55.0
  0
LINE
  5
248
100
AcDbEntity
  8
0
100
AcDbLine
 62
7
  6
CONTINUOUS
 10
-133.9661572786
 20
55.0
 11
-116.99356003
 21
55.0
  0
LINE
  5
249
100
AcDbEntity
  8
0
100
AcDbLine
 62
7
  6
CONTINUOUS
 10
-137.2411572786
 20
55.0
 11
-133.9661572786
 21
55.0
  0
INSERT
  5
24A
100
AcDbEntity
  8
0
100
AcDbBlockReference
 62
7
  6
CONTINUOUS
  2
_FILLED
 10
-130.6911572786
 20
55.0
 41
3.0
 42
3.0
 43
3.0
  0
INSERT
  5
24B
100
AcDbEntity
  8
0
100
AcDbBlockReference
 62
7
  6
CONTINUOUS
  2
_FILLED
 10
-137.2411572786
 20
55.0
 41
3.0
 42
3.0
 43
3.0
 50
180.0
  0
ENDBLK
  5
24C
100
AcDbEntity
  8
0
  6
BYBLOCK
 62
0
100
AcDbBlockEnd
  0
ENDSEC
  0
SECTION
  2
ENTITIES
  0
DIMENSION
  5
24D
100
AcDbEntity
  8
0
100
AcDbDimension
 62
7
  6
CONTINUOUS
  2
*D0
 10
116.0
 20
-45.0
 11
116.0
 21
-0.4285699812
 70
160
 71
2
 72
2
 41
0.9
 42
90.0
  1
{\ftxt;\W0.0001;\H0.0001;\~}{\ftxt;\W1.5714285714;\H3.0; }{\ftxt;\W0.0001;\H0.0001;\~}
  3
DIMSTYLE_1
100
AcDbAlignedDimension
 13
104.9993911979
 23
45.0
 14
104.9993911979
 24
-45.0
 50
270.0
100
AcDbRotatedDimension
  0
DIMENSION
  5
24E
100
AcDbEntity
  8
0
100
AcDbDimension
 62
7
  6
CONTINUOUS
  2
*D1
 10
-106.0
 20
55.0
 11
-0.4285714481
 21
55.0
 70
160
 71
2
 72
2
 41
0.9
 42
212.0
  1
{\ftxt;\W0.0001;\H0.0001;\~}{\ftxt;\W2.1428571429;\H3.0; }{\ftxt;\W0.0001;\H0.0001;\~}
  3
DIMSTYLE_1
100
AcDbAlignedDimension
 13
106.0
 23
43.9993911979
 14
-106.0
 24
43.9993911979
 50
180.0
100
AcDbRotatedDimension
  0
DIMENSION
  5
24F
100
AcDbEntity
  8
0
100
AcDbDimension
 62
7
  6
CONTINUOUS
  2
*D2
 10
-127.0911572786
 20
65.0
 11
-121.0955866699
 21
65.0
 70
160
 71
1
 72
2
 41
0.9
 42
10.15
  1
{\ftxt;\W0.0001;\H0.0001;\~}{\ftxt;\W3.2142857143;\H3.0; }{\ftxt;\W0.0001;\H0.0001;\~}
  3
DIMSTYLE_1
100
AcDbAlignedDimension
 13
-137.2411572786
 23
43.3767374102
 14
-127.0911572786
 24
26.0463167932
100
AcDbRotatedDimension
  0
DIMENSION
  5
250
100
AcDbEntity
  8
0
100
AcDbDimension
 62
7
  6
CONTINUOUS
  2
*D3
 10
-137.2411572786
 20
55.0
 11
-121.6007032928
 21
55.0
 70
160
 71
1
 72
2
 41
0.9
 42
6.55
  1
{\ftxt;\W0.0001;\H0.0001;\~}{\ftxt;\W2.7857142857;\H3.0; }{\ftxt;\W0.0001;\H0.0001;\~}
  3
DIMSTYLE_1
100
AcDbAlignedDimension
 13
-130.6911572786
 23
43.9993911979
 14
-137.2411572786
 24
43.3767374102
 50
180.0
100
AcDbRotatedDimension
  0
LINE
  5
251
100
AcDbEntity
  8
SMUSSO
100
AcDbLine
 62
7
  6
CONTINUOUS
 10
-104.8199854699
 20
44.7906993223
 11
-104.8055596544
 21
44.8061684565
  0
LINE
  5
252
100
AcDbEntity
  8
ASSI
100
AcDbLine
 62
7
  6
CONTINUOUS
 10
-104.8199854699
 20
44.7906993223
 11
-104.8055596544
 21
44.8061684565
  0
LINE
  5
253
100
AcDbEntity
  8
SMUSSO
100
AcDbLine
 62
7
  6
CONTINUOUS
 10
-104.8055596544
 20
-44.8061684565
 11
-104.8199854699
 21
-44.7906993223
  0
LINE
  5
254
100
AcDbEntity
  8
ASSI
100
AcDbLine
 62
7
  6
CONTINUOUS
 10
-104.8055596544
 20
-44.8061684565
 11
-104.8199854699
 21
-44.7906993223
  0
LINE
  5
255
100
AcDbEntity
  8
SMUSSO
100
AcDbLine
 62
7
  6
CONTINUOUS
 10
-106.0
 20
43.9993911979
 11
-106.0
 21
-43.9993911979
  0
LINE
  5
256
100
AcDbEntity
  8
ASSI
100
AcDbLine
 62
7
  6
CONTINUOUS
 10
-106.0
 20
43.9993911979
 11
-106.0
 21
-43.9993911979
  0
LINE
  5
257
100
AcDbEntity
  8
SMUSSO
100
AcDbLine
 62
7
  6
CONTINUOUS
 10
-105.8061684565
 20
43.8055596544
 11
-105.8061684565
 21
-43.8055596544
  0
LINE
  5
258
100
AcDbEntity
  8
ASSI
100
AcDbLine
 62
7
  6
CONTINUOUS
 10
-105.8061684565
 20
43.8055596544
 11
-105.8061684565
 21
-43.8055596544
  0
LINE
  5
259
100
AcDbEntity
  8
SMUSSO
100
AcDbLine
 62
7
  6
CONTINUOUS
 10
-104.7712689598
 20
43.3767374102
 11
-104.7712689598
 21
-43.3767374102
  0
LINE
  5
25A
100
AcDbEntity
  8
ASSI
100
AcDbLine
 62
7
  6
CONTINUOUS
 10
-104.7712689598
 20
43.3767374102
 11
-104.7712689598
 21
-43.3767374102
  0
LINE
  5
25B
100
AcDbEntity
  8
SMUSSO
100
AcDbLine
 62
7
  6
CONTINUOUS
 10
-106.0
 20
43.9993911979
 11
-104.9993911979
 21
45.0
  0
LINE
  5
25C
100
AcDbEntity
  8
ASSI
100
AcDbLine
 62
7
  6
CONTINUOUS
 10
-106.0
 20
43.9993911979
 11
-104.9993911979
 21
45.0
  0
LINE
  5
25D
100
AcDbEntity
  8
SMUSSO
100
AcDbLine
 62
7
  6
CONTINUOUS
 10
-104.8199854699
 20
44.7906993223
 11
-105.7906993223
 21
43.8199854699
  0
LINE
  5
25E
100
AcDbEntity
  8
ASSI
100
AcDbLine
 62
7
  6
CONTINUOUS
 10
-104.8199854699
 20
44.7906993223
 11
-105.7906993223
 21
43.8199854699
  0
LINE
  5
25F
100
AcDbEntity
  8
SMUSSO
100
AcDbLine
 62
7
  6
CONTINUOUS
 10
-104.3767374102
 20
43.7712689598
 11
-104.7712689598
 21
43.3767374102
  0
LINE
  5
260
100
AcDbEntity
  8
ASSI
100
AcDbLine
 62
7
  6
CONTINUOUS
 10
-104.3767374102
 20
43.7712689598
 11
-104.7712689598
 21
43.3767374102
  0
LINE
  5
261
100
AcDbEntity
  8
SMUSSO
100
AcDbLine
 62
7
  6
CONTINUOUS
 10
-105.8061684565
 20
43.8055596544
 11
-105.7906993223
 21
43.8199854699
  0
LINE
  5
262
100
AcDbEntity
  8
ASSI
100
AcDbLine
 62
7
  6
CONTINUOUS
 10
-105.8061684565
 20
43.8055596544
 11
-105.7906993223
 21
43.8199854699
  0
LINE
  5
263
100
AcDbEntity
  8
SMUSSO
100
AcDbLine
 62
7
  6
CONTINUOUS
 10
-105.7906993223
 20
-43.8199854699
 11
-105.8061684565
 21
-43.8055596544
  0
LINE
  5
264
100
AcDbEntity
  8
ASSI
100
AcDbLine
 62
7
  6
CONTINUOUS
 10
-105.7906993223
 20
-43.8199854699
 11
-105.8061684565
 21
-43.8055596544
  0
LINE
  5
265
100
AcDbEntity
  8
SMUSSO
100
AcDbLine
 62
7
  6
CONTINUOUS
 10
-104.9993911979
 20
-45.0
 11
-106.0
 21
-43.9993911979
  0
LINE
  5
266
100
AcDbEntity
  8
ASSI
100
AcDbLine
 62
7
  6
CONTINUOUS
 10
-104.9993911979
 20
-45.0
 11
-106.0
 21
-43.9993911979
  0
LINE
  5
267
100
AcDbEntity
  8
SMUSSO
100
AcDbLine
 62
7
  6
CONTINUOUS
 10
-105.7906993223
 20
-43.8199854699
 11
-104.8199854699
 21
-44.7906993223
  0
LINE
  5
268
100
AcDbEntity
  8
ASSI
100
AcDbLine
 62
7
  6
CONTINUOUS
 10
-105.7906993223
 20
-43.8199854699
 11
-104.8199854699
 21
-44.7906993223
  0
LINE
  5
269
100
AcDbEntity
  8
SMUSSO
100
AcDbLine
 62
7
  6
CONTINUOUS
 10
-104.7712689598
 20
-43.3767374102
 11
-104.3767374102
 21
-43.7712689598
  0
LINE
  5
26A
100
AcDbEntity
  8
ASSI
100
AcDbLine
 62
7
  6
CONTINUOUS
 10
-104.7712689598
 20
-43.3767374102
 11
-104.3767374102
 21
-43.7712689598
  0
LINE
  5
26B
100
AcDbEntity
  8
0
100
AcDbLine
 62
250
  6
CONTINUOUS
 10
-79.0990109861
 20
-22.1494374072
 11
-79.0990109861
 21
22.1494374072
  0
LINE
  5
26C
100
AcDbEntity
  8
ASSI
100
AcDbLine
 62
250
  6
CONTINUOUS
 10
-79.0990109861
 20
-22.1494374072
 11
-79.0990109861
 21
22.1494374072
  0
LINE
  5
26D
100
AcDbEntity
  8
0
100
AcDbLine
 62
250
  6
CONTINUOUS
 10
-78.8991328207
 20
-22.1494374072
 11
-78.8991328207
 21
22.1494374072
  0
LINE
  5
26E
100
AcDbEntity
  8
ASSI
100
AcDbLine
 62
250
  6
CONTINUOUS
 10
-78.8991328207
 20
-22.1494374072
 11
-78.8991328207
 21
22.1494374072
  0
LINE
  5
26F
100
AcDbEntity
  8
RACCORDO
100
AcDbLine
 62
7
  6
CONTINUOUS
 10
-78.85
 20
22.1003045865
 11
-78.85
 21
-22.1003045865
  0
LINE
  5
270
100
AcDbEntity
  8
ASSI
100
AcDbLine
 62
7
  6
CONTINUOUS
 10
-78.85
 20
22.1003045865
 11
-78.85
 21
-22.1003045865
  0
LINE
  5
271
100
AcDbEntity
  8
0
100
AcDbLine
 62
250
  6
CONTINUOUS
 10
-78.3994374072
 20
22.8490109861
 11
-78.3994374072
 21
22.6491328207
  0
LINE
  5
272
100
AcDbEntity
  8
ASSI
100
AcDbLine
 62
250
  6
CONTINUOUS
 10
-78.3994374072
 20
22.8490109861
 11
-78.3994374072
 21
22.6491328207
  0
LINE
  5
273
100
AcDbEntity
  8
0
100
AcDbLine
 62
250
  6
CONTINUOUS
 10
-78.3994374072
 20
-22.8490109861
 11
-78.3994374072
 21
-22.6491328207
  0
LINE
  5
274
100
AcDbEntity
  8
ASSI
100
AcDbLine
 62
250
  6
CONTINUOUS
 10
-78.3994374072
 20
-22.8490109861
 11
-78.3994374072
 21
-22.6491328207
  0
LINE
  5
275
100
AcDbEntity
  8
SMUSSO
100
AcDbLine
 62
7
  6
CONTINUOUS
 10
-104.3767374102
 20
-43.7712689598
 11
-104.8199854699
 21
-44.7906993223
  0
LINE
  5
276
100
AcDbEntity
  8
ASSI
100
AcDbLine
 62
7
  6
CONTINUOUS
 10
-104.3767374102
 20
-43.7712689598
 11
-104.8199854699
 21
-44.7906993223
  0
LINE
  5
277
100
AcDbEntity
  8
SMUSSO
100
AcDbLine
 62
7
  6
CONTINUOUS
 10
-104.3767374102
 20
43.7712689598
 11
-104.8199854699
 21
44.7906993223
  0
LINE
  5
278
100
AcDbEntity
  8
ASSI
100
AcDbLine
 62
7
  6
CONTINUOUS
 10
-104.3767374102
 20
43.7712689598
 11
-104.8199854699
 21
44.7906993223
  0
LINE
  5
279
100
AcDbEntity
  8
SMUSSO
100
AcDbLine
 62
7
  6
CONTINUOUS
 10
-105.8061684565
 20
-43.8055596544
 11
-106.0
 21
-43.9993911979
  0
LINE
  5
27A
100
AcDbEntity
  8
ASSI
100
AcDbLine
 62
7
  6
CONTINUOUS
 10
-105.8061684565
 20
-43.8055596544
 11
-106.0
 21
-43.9993911979
  0
LINE
  5
27B
100
AcDbEntity
  8
SMUSSO
100
AcDbLine
 62
7
  6
CONTINUOUS
 10
-104.8055596544
 20
-44.8061684565
 11
-104.9993911979
 21
-45.0
  0
LINE
  5
27C
100
AcDbEntity
  8
ASSI
100
AcDbLine
 62
7
  6
CONTINUOUS
 10
-104.8055596544
 20
-44.8061684565
 11
-104.9993911979
 21
-45.0
  0
LWPOLYLINE
  5
27D
100
AcDbEntity
  8
0
100
AcDbPolyline
 62
7
  6
CONTINUOUS
 90
3
 70
0
 43
0.3500000006
 10
-0.8571428254
 20
57.8928615417
 10
0.0
 20
58.7499994812
 10
0.0
 20
55.7499985657
  0
LINE
  5
27E
100
AcDbEntity
  8
0
100
AcDbLine
 62
250
  6
CONTINUOUS
 10
-78.8991328207
 20
-22.1494374072
 11
-78.85
 21
-22.1003045865
  0
LINE
  5
27F
100
AcDbEntity
  8
ASSI
100
AcDbLine
 62
250
  6
CONTINUOUS
 10
-78.8991328207
 20
-22.1494374072
 11
-78.85
 21
-22.1003045865
  0
LINE
  5
280
100
AcDbEntity
  8
0
100
AcDbLine
 62
250
  6
CONTINUOUS
 10
-78.3994374072
 20
-22.6491328207
 11
-78.3503045865
 21
-22.6
  0
LINE
  5
281
100
AcDbEntity
  8
ASSI
100
AcDbLine
 62
250
  6
CONTINUOUS
 10
-78.3994374072
 20
-22.6491328207
 11
-78.3503045865
 21
-22.6
  0
LINE
  5
282
100
AcDbEntity
  8
SMUSSO
100
AcDbLine
 62
7
  6
CONTINUOUS
 10
-104.9993911979
 20
-45.0
 11
104.9993911979
 21
-45.0
  0
LINE
  5
283
100
AcDbEntity
  8
ASSI
100
AcDbLine
 62
7
  6
CONTINUOUS
 10
-104.9993911979
 20
-45.0
 11
104.9993911979
 21
-45.0
  0
LINE
  5
284
100
AcDbEntity
  8
SMUSSO
100
AcDbLine
 62
7
  6
CONTINUOUS
 10
-104.8055596544
 20
-44.8061684565
 11
104.8055596544
 21
-44.8061684565
  0
LINE
  5
285
100
AcDbEntity
  8
ASSI
100
AcDbLine
 62
7
  6
CONTINUOUS
 10
-104.8055596544
 20
-44.8061684565
 11
104.8055596544
 21
-44.8061684565
  0
LINE
  5
286
100
AcDbEntity
  8
SMUSSO
100
AcDbLine
 62
7
  6
CONTINUOUS
 10
-104.3767374102
 20
-43.7712689598
 11
104.3767374102
 21
-43.7712689598
  0
LINE
  5
287
100
AcDbEntity
  8
ASSI
100
AcDbLine
 62
7
  6
CONTINUOUS
 10
-104.3767374102
 20
-43.7712689598
 11
104.3767374102
 21
-43.7712689598
  0
LINE
  5
288
100
AcDbEntity
  8
SMUSSO
100
AcDbLine
 62
7
  6
CONTINUOUS
 10
-105.8061684565
 20
43.8055596544
 11
-106.0
 21
43.9993911979
  0
LINE
  5
289
100
AcDbEntity
  8
ASSI
100
AcDbLine
 62
7
  6
CONTINUOUS
 10
-105.8061684565
 20
43.8055596544
 11
-106.0
 21
43.9993911979
  0
LINE
  5
28A
100
AcDbEntity
  8
SMUSSO
100
AcDbLine
 62
7
  6
CONTINUOUS
 10
-104.8055596544
 20
44.8061684565
 11
-104.9993911979
 21
45.0
  0
LINE
  5
28B
100
AcDbEntity
  8
ASSI
100
AcDbLine
 62
7
  6
CONTINUOUS
 10
-104.8055596544
 20
44.8061684565
 11
-104.9993911979
 21
45.0
  0
LINE
  5
28C
100
AcDbEntity
  8
0
100
AcDbLine
 62
250
  6
CONTINUOUS
 10
-78.8991328207
 20
22.1494374072
 11
-78.85
 21
22.1003045865
  0
LINE
  5
28D
100
AcDbEntity
  8
ASSI
100
AcDbLine
 62
250
  6
CONTINUOUS
 10
-78.8991328207
 20
22.1494374072
 11
-78.85
 21
22.1003045865
  0
LINE
  5
28E
100
AcDbEntity
  8
0
100
AcDbLine
 62
250
  6
CONTINUOUS
 10
-78.3994374072
 20
22.6491328207
 11
-78.3503045865
 21
22.6
  0
LINE
  5
28F
100
AcDbEntity
  8
ASSI
100
AcDbLine
 62
250
  6
CONTINUOUS
 10
-78.3994374072
 20
22.6491328207
 11
-78.3503045865
 21
22.6
  0
LINE
  5
290
100
AcDbEntity
  8
CURVE
100
AcDbLine
 62
250
  6
CONTINUOUS
 10
105.860131217
 20
-36.257398
 11
105.9473759453
 21
-36.257398
  0
LINE
  5
291
100
AcDbEntity
  8
CURVE
100
AcDbLine
 62
250
  6
CONTINUOUS
 10
105.9473759453
 20
-35.735605
 11
105.860131217
 21
-35.735605
  0
LINE
  5
292
100
AcDbEntity
  8
CURVE
100
AcDbLine
 62
250
  6
CONTINUOUS
 10
105.8611556794
 20
-30.6285551388
 11
105.9473759458
 21
-30.6285551388
  0
LINE
  5
293
100
AcDbEntity
  8
CURVE
100
AcDbLine
 62
250
  6
CONTINUOUS
 10
105.8989474951
 20
-30.126163664
 11
105.8749985478
 21
-30.126163664
  0
LINE
  5
294
100
AcDbEntity
  8
CURVE
100
AcDbLine
 62
250
  6
CONTINUOUS
 10
105.9473759458
 20
-30.1088617972
 11
105.9132352194
 21
-30.1088617972
  0
LINE
  5
295
100
AcDbEntity
  8
CURVE
100
AcDbLine
 62
250
  6
CONTINUOUS
 10
105.9066533149
 20
-29.2870512436
 11
105.9061378054
 21
-29.2870512436
  0
LINE
  5
296
100
AcDbEntity
  8
0
100
AcDbLine
 62
250
  6
CONTINUOUS
 10
78.3994374072
 20
-22.8490109861
 11
-78.3994374072
 21
-22.8490109861
  0
LINE
  5
297
100
AcDbEntity
  8
ASSI
100
AcDbLine
 62
250
  6
CONTINUOUS
 10
78.3994374072
 20
-22.8490109861
 11
-78.3994374072
 21
-22.8490109861
  0
LINE
  5
298
100
AcDbEntity
  8
0
100
AcDbLine
 62
250
  6
CONTINUOUS
 10
78.3994374072
 20
-22.6491328207
 11
-78.3994374072
 21
-22.6491328207
  0
LINE
  5
299
100
AcDbEntity
  8
ASSI
100
AcDbLine
 62
250
  6
CONTINUOUS
 10
78.3994374072
 20
-22.6491328207
 11
-78.3994374072
 21
-22.6491328207
  0
LINE
  5
29A
100
AcDbEntity
  8
RACCORDO
100
AcDbLine
 62
7
  6
CONTINUOUS
 10
-78.3503045865
 20
-22.6
 11
78.3503045865
 21
-22.6
  0
LINE
  5
29B
100
AcDbEntity
  8
ASSI
100
AcDbLine
 62
7
  6
CONTINUOUS
 10
-78.3503045865
 20
-22.6
 11
78.3503045865
 21
-22.6
  0
LINE
  5
29C
100
AcDbEntity
  8
0
100
AcDbLine
 62
250
  6
CONTINUOUS
 10
-79.0990109861
 20
-22.1494374072
 11
-78.8991328207
 21
-22.1494374072
  0
LINE
  5
29D
100
AcDbEntity
  8
ASSI
100
AcDbLine
 62
250
  6
CONTINUOUS
 10
-79.0990109861
 20
-22.1494374072
 11
-78.8991328207
 21
-22.1494374072
  0
LINE
  5
29E
100
AcDbEntity
  8
0
100
AcDbLine
 62
250
  6
CONTINUOUS
 10
79.0990109861
 20
-22.1494374072
 11
78.8991328207
 21
-22.1494374072
  0
LINE
  5
29F
100
AcDbEntity
  8
ASSI
100
AcDbLine
 62
250
  6
CONTINUOUS
 10
79.0990109861
 20
-22.1494374072
 11
78.8991328207
 21
-22.1494374072
  0
LINE
  5
2A0
100
AcDbEntity
  8
SMUSSO
100
AcDbLine
 62
7
  6
CONTINUOUS
 10
-104.7712689598
 20
-43.3767374102
 11
-105.7906993223
 21
-43.8199854699
  0
LINE
  5
2A1
100
AcDbEntity
  8
ASSI
100
AcDbLine
 62
7
  6
CONTINUOUS
 10
-104.7712689598
 20
-43.3767374102
 11
-105.7906993223
 21
-43.8199854699
  0
LWPOLYLINE
  5
2A2
100
AcDbEntity
  8
0
100
AcDbPolyline
 62
7
  6
CONTINUOUS
 90
13
 70
0
 43
0.3500000006
 10
114.3928564453
 20
-0.0000003204
 10
113.1071404724
 20
-0.0000003204
 10
112.6785715027
 20
0.2142864304
 10
112.250002533
 20
0.642857666
 10
112.250002533
 20
0.8571421509
 10
112.6785715027
 20
1.2857133865
 10
113.1071404724
 20
1.5000001373
 10
114.3928564453
 20
1.5000001373
 10
114.821425415
 20
1.2857133865
 10
115.2500034485
 20
0.8571421509
 10
115.2500034485
 20
0.642857666
 10
114.821425415
 20
0.2142864304
 10
114.3928564453
 20
-0.0000003204
  0
LINE
  5
2A3
100
AcDbEntity
  8
SMUSSO
100
AcDbLine
 62
7
  6
CONTINUOUS
 10
-104.7712689598
 20
43.3767374102
 11
-105.7906993223
 21
43.8199854699
  0
LINE
  5
2A4
100
AcDbEntity
  8
ASSI
100
AcDbLine
 62
7
  6
CONTINUOUS
 10
-104.7712689598
 20
43.3767374102
 11
-105.7906993223
 21
43.8199854699
  0
LINE
  5
2A5
100
AcDbEntity
  8
SMUSSO
100
AcDbLine
 62
7
  6
CONTINUOUS
 10
104.7712689598
 20
43.3767374102
 11
105.7906993223
 21
43.8199854699
  0
LINE
  5
2A6
100
AcDbEntity
  8
ASSI
100
AcDbLine
 62
7
  6
CONTINUOUS
 10
104.7712689598
 20
43.3767374102
 11
105.7906993223
 21
43.8199854699
  0
LINE
  5
2A7
100
AcDbEntity
  8
SMUSSO
100
AcDbLine
 62
7
  6
CONTINUOUS
 10
104.7712689598
 20
-43.3767374102
 11
105.7906993223
 21
-43.8199854699
  0
LINE
  5
2A8
100
AcDbEntity
  8
ASSI
100
AcDbLine
 62
7
  6
CONTINUOUS
 10
104.7712689598
 20
-43.3767374102
 11
105.7906993223
 21
-43.8199854699
  0
LINE
  5
2A9
100
AcDbEntity
  8
0
100
AcDbLine
 62
250
  6
CONTINUOUS
 10
-79.0990109861
 20
22.1494374072
 11
-78.8991328207
 21
22.1494374072
  0
LINE
  5
2AA
100
AcDbEntity
  8
ASSI
100
AcDbLine
 62
250
  6
CONTINUOUS
 10
-79.0990109861
 20
22.1494374072
 11
-78.8991328207
 21
22.1494374072
  0
LINE
  5
2AB
100
AcDbEntity
  8
0
100
AcDbLine
 62
250
  6
CONTINUOUS
 10
79.0990109861
 20
22.1494374072
 11
78.8991328207
 21
22.1494374072
  0
LINE
  5
2AC
100
AcDbEntity
  8
ASSI
100
AcDbLine
 62
250
  6
CONTINUOUS
 10
79.0990109861
 20
22.1494374072
 11
78.8991328207
 21
22.1494374072
  0
LINE
  5
2AD
100
AcDbEntity
  8
RACCORDO
100
AcDbLine
 62
7
  6
CONTINUOUS
 10
78.3503045865
 20
22.6
 11
-78.3503045865
 21
22.6
  0
LINE
  5
2AE
100
AcDbEntity
  8
ASSI
100
AcDbLine
 62
7
  6
CONTINUOUS
 10
78.3503045865
 20
22.6
 11
-78.3503045865
 21
22.6
  0
LINE
  5
2AF
100
AcDbEntity
  8
0
100
AcDbLine
 62
250
  6
CONTINUOUS
 10
-78.3994374072
 20
22.6491328207
 11
78.3994374072
 21
22.6491328207
  0
LINE
  5
2B0
100
AcDbEntity
  8
ASSI
100
AcDbLine
 62
250
  6
CONTINUOUS
 10
-78.3994374072
 20
22.6491328207
 11
78.3994374072
 21
22.6491328207
  0
LINE
  5
2B1
100
AcDbEntity
  8
0
100
AcDbLine
 62
250
  6
CONTINUOUS
 10
-78.3994374072
 20
22.8490109861
 11
78.3994374072
 21
22.8490109861
  0
LINE
  5
2B2
100
AcDbEntity
  8
ASSI
100
AcDbLine
 62
250
  6
CONTINUOUS
 10
-78.3994374072
 20
22.8490109861
 11
78.3994374072
 21
22.8490109861
  0
LINE
  5
2B3
100
AcDbEntity
  8
0
100
AcDbLine
 62
250
  6
CONTINUOUS
 10
78.3994374072
 20
22.6491328207
 11
78.3503045865
 21
22.6
  0
LINE
  5
2B4
100
AcDbEntity
  8
ASSI
100
AcDbLine
 62
250
  6
CONTINUOUS
 10
78.3994374072
 20
22.6491328207
 11
78.3503045865
 21
22.6
  0
LINE
  5
2B5
100
AcDbEntity
  8
0
100
AcDbLine
 62
250
  6
CONTINUOUS
 10
78.8991328207
 20
22.1494374072
 11
78.85
 21
22.1003045865
  0
LINE
  5
2B6
100
AcDbEntity
  8
ASSI
100
AcDbLine
 62
250
  6
CONTINUOUS
 10
78.8991328207
 20
22.1494374072
 11
78.85
 21
22.1003045865
  0
LINE
  5
2B7
100
AcDbEntity
  8
SMUSSO
100
AcDbLine
 62
7
  6
CONTINUOUS
 10
104.8055596544
 20
44.8061684565
 11
104.9993911979
 21
45.0
  0
LINE
  5
2B8
100
AcDbEntity
  8
ASSI
100
AcDbLine
 62
7
  6
CONTINUOUS
 10
104.8055596544
 20
44.8061684565
 11
104.9993911979
 21
45.0
  0
LINE
  5
2B9
100
AcDbEntity
  8
SMUSSO
100
AcDbLine
 62
7
  6
CONTINUOUS
 10
105.8061684565
 20
43.8055596544
 11
106.0
 21
43.9993911979
  0
LINE
  5
2BA
100
AcDbEntity
  8
ASSI
100
AcDbLine
 62
7
  6
CONTINUOUS
 10
105.8061684565
 20
43.8055596544
 11
106.0
 21
43.9993911979
  0
LINE
  5
2BB
100
AcDbEntity
  8
SMUSSO
100
AcDbLine
 62
7
  6
CONTINUOUS
 10
104.3767374102
 20
43.7712689598
 11
-104.3767374102
 21
43.7712689598
  0
LINE
  5
2BC
100
AcDbEntity
  8
ASSI
100
AcDbLine
 62
7
  6
CONTINUOUS
 10
104.3767374102
 20
43.7712689598
 11
-104.3767374102
 21
43.7712689598
  0
LINE
  5
2BD
100
AcDbEntity
  8
SMUSSO
100
AcDbLine
 62
7
  6
CONTINUOUS
 10
104.8055596544
 20
44.8061684565
 11
-104.8055596544
 21
44.8061684565
  0
LINE
  5
2BE
100
AcDbEntity
  8
ASSI
100
AcDbLine
 62
7
  6
CONTINUOUS
 10
104.8055596544
 20
44.8061684565
 11
-104.8055596544
 21
44.8061684565
  0
LINE
  5
2BF
100
AcDbEntity
  8
SMUSSO
100
AcDbLine
 62
7
  6
CONTINUOUS
 10
104.9993911979
 20
45.0
 11
-104.9993911979
 21
45.0
  0
LINE
  5
2C0
100
AcDbEntity
  8
ASSI
100
AcDbLine
 62
7
  6
CONTINUOUS
 10
104.9993911979
 20
45.0
 11
-104.9993911979
 21
45.0
  0
LINE
  5
2C1
100
AcDbEntity
  8
0
100
AcDbLine
 62
250
  6
CONTINUOUS
 10
78.3994374072
 20
-22.6491328207
 11
78.3503045865
 21
-22.6
  0
LINE
  5
2C2
100
AcDbEntity
  8
ASSI
100
AcDbLine
 62
250
  6
CONTINUOUS
 10
78.3994374072
 20
-22.6491328207
 11
78.3503045865
 21
-22.6
  0
LINE
  5
2C3
100
AcDbEntity
  8
0
100
AcDbLine
 62
250
  6
CONTINUOUS
 10
78.8991328207
 20
-22.1494374072
 11
78.85
 21
-22.1003045865
  0
LINE
  5
2C4
100
AcDbEntity
  8
ASSI
100
AcDbLine
 62
250
  6
CONTINUOUS
 10
78.8991328207
 20
-22.1494374072
 11
78.85
 21
-22.1003045865
  0
LINE
  5
2C5
100
AcDbEntity
  8
SMUSSO
100
AcDbLine
 62
7
  6
CONTINUOUS
 10
104.8055596544
 20
-44.8061684565
 11
104.9993911979
 21
-45.0
  0
LINE
  5
2C6
100
AcDbEntity
  8
ASSI
100
AcDbLine
 62
7
  6
CONTINUOUS
 10
104.8055596544
 20
-44.8061684565
 11
104.9993911979
 21
-45.0
  0
LINE
  5
2C7
100
AcDbEntity
  8
SMUSSO
100
AcDbLine
 62
7
  6
CONTINUOUS
 10
105.8061684565
 20
-43.8055596544
 11
106.0
 21
-43.9993911979
  0
LINE
  5
2C8
100
AcDbEntity
  8
ASSI
100
AcDbLine
 62
7
  6
CONTINUOUS
 10
105.8061684565
 20
-43.8055596544
 11
106.0
 21
-43.9993911979
  0
LWPOLYLINE
  5
2C9
100
AcDbEntity
  8
0
100
AcDbPolyline
 62
7
  6
CONTINUOUS
 90
7
 70
0
 43
0.3500000006
 10
2.3571427875
 20
55.7499985657
 10
0.8571428254
 20
55.7499985657
 10
2.3571427875
 20
57.8928615417
 10
2.3571427875
 20
58.3214305115
 10
1.9285714102
 20
58.7499994812
 10
1.2857142735
 20
58.7499994812
 10
0.8571428254
 20
58.1071460266
  0
LWPOLYLINE
  5
2CA
100
AcDbEntity
  8
0
100
AcDbPolyline
 62
7
  6
CONTINUOUS
 90
7
 70
0
 43
0.3500000006
 10
-1.7142856507
 20
55.7499985657
 10
-3.2142856836
 20
55.7499985657
 10
-1.7142856507
 20
57.8928615417
 10
-1.7142856507
 20
58.3214305115
 10
-2.1428571696
 20
58.7499994812
 10
-2.7857141647
 20
58.7499994812
 10
-3.2142856836
 20
58.1071460266
  0
LINE
  5
2CB
100
AcDbEntity
  8
0
100
AcDbLine
 62
250
  6
CONTINUOUS
 10
78.3994374072
 20
22.8490109861
 11
78.3994374072
 21
22.6491328207
  0
LINE
  5
2CC
100
AcDbEntity
  8
ASSI
100
AcDbLine
 62
250
  6
CONTINUOUS
 10
78.3994374072
 20
22.8490109861
 11
78.3994374072
 21
22.6491328207
  0
LINE
  5
2CD
100
AcDbEntity
  8
0
100
AcDbLine
 62
250
  6
CONTINUOUS
 10
78.3994374072
 20
-22.8490109861
 11
78.3994374072
 21
-22.6491328207
  0
LINE
  5
2CE
100
AcDbEntity
  8
ASSI
100
AcDbLine
 62
250
  6
CONTINUOUS
 10
78.3994374072
 20
-22.8490109861
 11
78.3994374072
 21
-22.6491328207
  0
LINE
  5
2CF
100
AcDbEntity
  8
RACCORDO
100
AcDbLine
 62
7
  6
CONTINUOUS
 10
78.85
 20
-22.1003045865
 11
78.85
 21
22.1003045865
  0
LINE
  5
2D0
100
AcDbEntity
  8
ASSI
100
AcDbLine
 62
7
  6
CONTINUOUS
 10
78.85
 20
-22.1003045865
 11
78.85
 21
22.1003045865
  0
LINE
  5
2D1
100
AcDbEntity
  8
0
100
AcDbLine
 62
250
  6
CONTINUOUS
 10
78.8991328207
 20
22.1494374072
 11
78.8991328207
 21
-22.1494374072
  0
LINE
  5
2D2
100
AcDbEntity
  8
ASSI
100
AcDbLine
 62
250
  6
CONTINUOUS
 10
78.8991328207
 20
22.1494374072
 11
78.8991328207
 21
-22.1494374072
  0
LINE
  5
2D3
100
AcDbEntity
  8
0
100
AcDbLine
 62
250
  6
CONTINUOUS
 10
79.0990109861
 20
22.1494374072
 11
79.0990109861
 21
-22.1494374072
  0
LINE
  5
2D4
100
AcDbEntity
  8
ASSI
100
AcDbLine
 62
250
  6
CONTINUOUS
 10
79.0990109861
 20
22.1494374072
 11
79.0990109861
 21
-22.1494374072
  0
LINE
  5
2D5
100
AcDbEntity
  8
SMUSSO
100
AcDbLine
 62
7
  6
CONTINUOUS
 10
104.3767374102
 20
43.7712689598
 11
104.8199854699
 21
44.7906993223
  0
LINE
  5
2D6
100
AcDbEntity
  8
ASSI
100
AcDbLine
 62
7
  6
CONTINUOUS
 10
104.3767374102
 20
43.7712689598
 11
104.8199854699
 21
44.7906993223
  0
LWPOLYLINE
  5
2D7
100
AcDbEntity
  8
0
100
AcDbPolyline
 62
7
  6
CONTINUOUS
 90
10
 70
0
 43
0.3500000006
 10
115.2500034485
 20
-1.9285708809
 10
114.3928564453
 20
-1.0714295425
 10
113.5357185059
 20
-0.8571427917
 10
112.6785715027
 20
-0.8571427917
 10
112.250002533
 20
-1.2857140274
 10
112.250002533
 20
-1.9285708809
 10
112.6785715027
 20
-2.3571432495
 10
113.5357185059
 20
-2.3571432495
 10
113.9642874756
 20
-1.9285708809
 10
113.9642874756
 20
-1.0000006256
  0
LINE
  5
2D8
100
AcDbEntity
  8
CURVE
100
AcDbLine
 62
250
  6
CONTINUOUS
 10
105.8904101948
 20
-34.842919
 11
105.9473759453
 21
-34.955522
  0
LINE
  5
2D9
100
AcDbEntity
  8
SMUSSO
100
AcDbLine
 62
7
  6
CONTINUOUS
 10
104.3767374102
 20
-43.7712689598
 11
104.8199854699
 21
-44.7906993223
  0
LINE
  5
2DA
100
AcDbEntity
  8
ASSI
100
AcDbLine
 62
7
  6
CONTINUOUS
 10
104.3767374102
 20
-43.7712689598
 11
104.8199854699
 21
-44.7906993223
  0
LINE
  5
2DB
100
AcDbEntity
  8
CURVE
100
AcDbLine
 62
250
  6
CONTINUOUS
 10
105.9473759453
 20
-35.454708
 11
105.860136417
 21
-35.228996
  0
LINE
  5
2DC
100
AcDbEntity
  8
CURVE
100
AcDbLine
 62
7
  6
CONTINUOUS
 10
105.9324975919
 20
-28.9197046926
 11
105.9473759458
 21
-28.9048263387
  0
LINE
  5
2DD
100
AcDbEntity
  8
CURVE
100
AcDbLine
 62
7
  6
CONTINUOUS
 10
105.8755531683
 20
-28.9766491162
 11
105.8917284604
 21
-28.9604738241
  0
LINE
  5
2DE
100
AcDbEntity
  8
CURVE
100
AcDbLine
 62
7
  6
CONTINUOUS
 10
105.9102747191
 20
-29.1519382794
 11
105.9473759458
 21
-29.1148370527
  0
LINE
  5
2DF
100
AcDbEntity
  8
CURVE
100
AcDbLine
 62
7
  6
CONTINUOUS
 10
105.8649492422
 20
-29.1972637563
 11
105.903111229
 21
-29.1591017695
  0
LINE
  5
2E0
100
AcDbEntity
  8
CURVE
100
AcDbLine
 62
7
  6
CONTINUOUS
 10
105.8613109348
 20
-29.4109127777
 11
105.9453325953
 21
-29.3268911172
  0
LINE
  5
2E1
100
AcDbEntity
  8
CURVE
100
AcDbLine
 62
7
  6
CONTINUOUS
 10
105.8597994348
 20
-29.6224349918
 11
105.8755681946
 21
-29.606666232
  0
LINE
  5
2E2
100
AcDbEntity
  8
CURVE
100
AcDbLine
 62
7
  6
CONTINUOUS
 10
105.8969435501
 20
-29.5852908764
 11
105.9190347261
 21
-29.5631997005
  0
LINE
  5
2E3
100
AcDbEntity
  8
CURVE
100
AcDbLine
 62
7
  6
CONTINUOUS
 10
105.8988937906
 20
-29.79335135
 11
105.9133811384
 21
-29.7788640022
  0
LINE
  5
2E4
100
AcDbEntity
  8
CURVE
100
AcDbLine
 62
7
  6
CONTINUOUS
 10
105.8592207145
 20
-29.833024426
 11
105.8742222539
 21
-29.8180228866
  0
LINE
  5
2E5
100
AcDbEntity
  8
CURVE
100
AcDbLine
 62
7
  6
CONTINUOUS
 10
105.8591757532
 20
-30.0430801013
 11
105.8744997271
 21
-30.0277561275
  0
LINE
  5
2E6
100
AcDbEntity
  8
CURVE
100
AcDbLine
 62
7
  6
CONTINUOUS
 10
105.8989474951
 20
-30.0033083595
 11
105.9132352194
 21
-29.9890206352
  0
LINE
  5
2E7
100
AcDbEntity
  8
CURVE
100
AcDbLine
 62
7
  6
CONTINUOUS
 10
105.8596096984
 20
-30.2526568702
 11
105.9473759458
 21
-30.1648906227
  0
LINE
  5
2E8
100
AcDbEntity
  8
CURVE
100
AcDbLine
 62
7
  6
CONTINUOUS
 10
105.8603663752
 20
-30.4619109074
 11
105.9473759458
 21
-30.3749013368
  0
LINE
  5
2E9
100
AcDbEntity
  8
CURVE
100
AcDbLine
 62
7
  6
CONTINUOUS
 10
105.9037328578
 20
-30.6285551388
 11
105.9473759458
 21
-30.5849120508
  0
LINE
  5
2EA
100
AcDbEntity
  8
CURVE
100
AcDbLine
 62
7
  6
CONTINUOUS
 10
105.9456890453
 20
-30.7966096654
 11
105.9473759453
 21
-30.7949227654
  0
LINE
  5
2EB
100
AcDbEntity
  8
CURVE
100
AcDbLine
 62
7
  6
CONTINUOUS
 10
105.9187358044
 20
-31.0335736202
 11
105.9473759453
 21
-31.0049334794
  0
LINE
  5
2EC
100
AcDbEntity
  8
CURVE
100
AcDbLine
 62
7
  6
CONTINUOUS
 10
105.8917825635
 20
-31.2705375751
 11
105.9473759453
 21
-31.2149441934
  0
LINE
  5
2ED
100
AcDbEntity
  8
CURVE
100
AcDbLine
 62
7
  6
CONTINUOUS
 10
105.8648293226
 20
-31.50750153
 11
105.9335875311
 21
-31.4387433215
  0
LINE
  5
2EE
100
AcDbEntity
  8
CURVE
100
AcDbLine
 62
7
  6
CONTINUOUS
 10
105.9164833296
 20
-31.6658582371
 11
105.92995984
 21
-31.6523817266
  0
LINE
  5
2EF
100
AcDbEntity
  8
CURVE
100
AcDbLine
 62
7
  6
CONTINUOUS
 10
105.860136417
 20
-31.7222051497
 11
105.9017033076
 21
-31.6806382591
  0
LINE
  5
2F0
100
AcDbEntity
  8
CURVE
100
AcDbLine
 62
7
  6
CONTINUOUS
 10
105.9164833296
 20
-31.8758689511
 11
105.92995984
 21
-31.8623924406
  0
LINE
  5
2F1
100
AcDbEntity
  8
CURVE
100
AcDbLine
 62
7
  6
CONTINUOUS
 10
105.860136417
 20
-31.9322158637
 11
105.8948884187
 21
-31.897463862
  0
LINE
  5
2F2
100
AcDbEntity
  8
CURVE
100
AcDbLine
 62
7
  6
CONTINUOUS
 10
105.869016866
 20
-32.1333461287
 11
105.92995984
 21
-32.0724031547
  0
LINE
  5
2F3
100
AcDbEntity
  8
CURVE
100
AcDbLine
 62
7
  6
CONTINUOUS
 10
105.8900439624
 20
-32.3223297463
 11
105.9412814361
 21
-32.2710922726
  0
LINE
  5
2F4
100
AcDbEntity
  8
CURVE
100
AcDbLine
 62
7
  6
CONTINUOUS
 10
105.9110710588
 20
-32.5113133639
 11
105.9473759453
 21
-32.4750084775
  0
LINE
  5
2F5
100
AcDbEntity
  8
CURVE
100
AcDbLine
 62
7
  6
CONTINUOUS
 10
105.9320981552
 20
-32.7002969815
 11
105.9473759453
 21
-32.6850191915
  0
LINE
  5
2F6
100
AcDbEntity
  8
CURVE
100
AcDbLine
 62
7
  6
CONTINUOUS
 10
105.860136417
 20
-33.1922801478
 11
105.9473759453
 21
-33.1050406195
  0
LINE
  5
2F7
100
AcDbEntity
  8
CURVE
100
AcDbLine
 62
7
  6
CONTINUOUS
 10
105.860136417
 20
-33.4022908618
 11
105.9473759453
 21
-33.3150513335
  0
LINE
  5
2F8
100
AcDbEntity
  8
CURVE
100
AcDbLine
 62
7
  6
CONTINUOUS
 10
105.860136417
 20
-33.6123015758
 11
105.8943832694
 21
-33.5780547234
  0
LINE
  5
2F9
100
AcDbEntity
  8
CURVE
100
AcDbLine
 62
7
  6
CONTINUOUS
 10
105.8731113113
 20
-33.8093373954
 11
105.9119772116
 21
-33.7704714952
  0
LINE
  5
2FA
100
AcDbEntity
  8
CURVE
100
AcDbLine
 62
7
  6
CONTINUOUS
 10
105.8909497793
 20
-34.0015096415
 11
105.9295711538
 21
-33.962888267
  0
LINE
  5
2FB
100
AcDbEntity
  8
CURVE
100
AcDbLine
 62
7
  6
CONTINUOUS
 10
105.9083085792
 20
-34.1941615557
 11
105.9471650959
 21
-34.1553050389
  0
LINE
  5
2FC
100
AcDbEntity
  8
CURVE
100
AcDbLine
 62
7
  6
CONTINUOUS
 10
105.8865663864
 20
-34.4259144624
 11
105.9335940176
 21
-34.3788868312
  0
LINE
  5
2FD
100
AcDbEntity
  8
CURVE
100
AcDbLine
 62
7
  6
CONTINUOUS
 10
105.8648241936
 20
-34.6576673692
 11
105.9120445318
 21
-34.610447031
  0
LINE
  5
2FE
100
AcDbEntity
  8
CURVE
100
AcDbLine
 62
7
  6
CONTINUOUS
 10
105.860136417
 20
-34.8723658599
 11
105.890495046
 21
-34.8420072309
  0
LINE
  5
2FF
100
AcDbEntity
  8
CURVE
100
AcDbLine
 62
7
  6
CONTINUOUS
 10
105.860136417
 20
-35.0823765739
 11
105.9473759453
 21
-34.9951370456
  0
LINE
  5
300
100
AcDbEntity
  8
CURVE
100
AcDbLine
 62
7
  6
CONTINUOUS
 10
105.8778076074
 20
-35.2747160975
 11
105.9473759453
 21
-35.2051477596
  0
LINE
  5
301
100
AcDbEntity
  8
CURVE
100
AcDbLine
 62
7
  6
CONTINUOUS
 10
105.9363509727
 20
-35.4261834462
 11
105.9473759453
 21
-35.4151584736
  0
LINE
  5
302
100
AcDbEntity
  8
CURVE
100
AcDbLine
 62
7
  6
CONTINUOUS
 10
105.860131217
 20
-35.92242463
 11
105.9473759453
 21
-35.8351799016
  0
LINE
  5
303
100
AcDbEntity
  8
CURVE
100
AcDbLine
 62
7
  6
CONTINUOUS
 10
105.860131217
 20
-36.132435344
 11
105.9473759453
 21
-36.0451906157
  0
LINE
  5
304
100
AcDbEntity
  8
CURVE
100
AcDbLine
 62
7
  6
CONTINUOUS
 10
105.9451792749
 20
-36.257398
 11
105.9473759453
 21
-36.2552013297
  0
LINE
  5
305
100
AcDbEntity
  8
CURVE
100
AcDbLine
 62
7
  6
CONTINUOUS
 10
105.860136417
 20
-36.552451572
 11
105.8700688497
 21
-36.5425191393
  0
LINE
  5
306
100
AcDbEntity
  8
CURVE
100
AcDbLine
 62
250
  6
CONTINUOUS
 10
105.9201860964
 20
-37.463524
 11
105.860136417
 21
-36.972473
  0
LINE
  5
307
100
AcDbEntity
  8
CURVE
100
AcDbLine
 62
250
  6
CONTINUOUS
 10
105.860136417
 20
-36.451037
 11
105.9473759453
 21
-37.254552
  0
LINE
  5
308
100
AcDbEntity
  8
CURVE
100
AcDbLine
 62
250
  6
CONTINUOUS
 10
105.9085720674
 20
-34.191353
 11
105.860136417
 21
-33.66956
  0
LINE
  5
309
100
AcDbEntity
  8
CURVE
100
AcDbLine
 62
250
  6
CONTINUOUS
 10
105.890647651
 20
-33.5372
 11
105.9473759453
 21
-34.157611
  0
LINE
  5
30A
100
AcDbEntity
  8
SMUSSO
100
AcDbLine
 62
7
  6
CONTINUOUS
 10
104.7712689598
 20
-43.3767374102
 11
104.7712689598
 21
43.3767374102
  0
LINE
  5
30B
100
AcDbEntity
  8
ASSI
100
AcDbLine
 62
7
  6
CONTINUOUS
 10
104.7712689598
 20
-43.3767374102
 11
104.7712689598
 21
43.3767374102
  0
LINE
  5
30C
100
AcDbEntity
  8
SMUSSO
100
AcDbLine
 62
7
  6
CONTINUOUS
 10
105.8061684565
 20
-43.8055596544
 11
105.8061684565
 21
43.8055596544
  0
LINE
  5
30D
100
AcDbEntity
  8
ASSI
100
AcDbLine
 62
7
  6
CONTINUOUS
 10
105.8061684565
 20
-43.8055596544
 11
105.8061684565
 21
43.8055596544
  0
LINE
  5
30E
100
AcDbEntity
  8
CURVE
100
AcDbLine
 62
250
  6
CONTINUOUS
 10
105.860136417
 20
-38.506847
 11
105.860136417
 21
-37.940019
  0
LINE
  5
30F
100
AcDbEntity
  8
CURVE
100
AcDbLine
 62
250
  6
CONTINUOUS
 10
105.860136417
 20
-36.972473
 11
105.860136417
 21
-36.451037
  0
LINE
  5
310
100
AcDbEntity
  8
CURVE
100
AcDbLine
 62
250
  6
CONTINUOUS
 10
105.860136417
 20
-35.228996
 11
105.860136417
 21
-34.707635
  0
LINE
  5
311
100
AcDbEntity
  8
CURVE
100
AcDbLine
 62
250
  6
CONTINUOUS
 10
105.860136417
 20
-33.66956
 11
105.860136417
 21
-33.153297
  0
LINE
  5
312
100
AcDbEntity
  8
CURVE
100
AcDbLine
 62
250
  6
CONTINUOUS
 10
105.860136417
 20
-32.053532
 11
105.860136417
 21
-31.54876
  0
LINE
  5
313
100
AcDbEntity
  8
CURVE
100
AcDbLine
 62
250
  6
CONTINUOUS
 10
105.860131217
 20
-35.735605
 11
105.860131217
 21
-36.257398
  0
LINE
  5
314
100
AcDbEntity
  8
CURVE
100
AcDbLine
 62
250
  6
CONTINUOUS
 10
105.8989474951
 20
-29.8279642095
 11
105.8989474951
 21
-30.126163664
  0
LINE
  5
315
100
AcDbEntity
  8
CURVE
100
AcDbLine
 62
250
  6
CONTINUOUS
 10
105.9132352194
 20
-30.1088617972
 11
105.9132352194
 21
-29.8290889245
  0
LINE
  5
316
100
AcDbEntity
  8
CURVE
100
AcDbLine
 62
250
  6
CONTINUOUS
 10
105.9164833296
 20
-32.070759
 11
105.9164833296
 21
-31.571179
  0
LINE
  5
317
100
AcDbEntity
  8
CURVE
100
AcDbLine
 62
250
  6
CONTINUOUS
 10
105.92995984
 20
-31.466899
 11
105.92995984
 21
-32.177494
  0
LINE
  5
318
100
AcDbEntity
  8
CURVE
100
AcDbLine
 62
250
  6
CONTINUOUS
 10
105.9473759453
 20
-36.257398
 11
105.9473759453
 21
-35.735605
  0
LINE
  5
319
100
AcDbEntity
  8
CURVE
100
AcDbLine
 62
250
  6
CONTINUOUS
 10
105.9473759458
 20
-30.6285551388
 11
105.9473759458
 21
-30.1088617972
  0
LINE
  5
31A
100
AcDbEntity
  8
CURVE
100
AcDbLine
 62
250
  6
CONTINUOUS
 10
105.9473759458
 20
-29.3098079785
 11
105.9473759458
 21
-28.8079038802
  0
LINE
  5
31B
100
AcDbEntity
  8
CURVE
100
AcDbLine
 62
250
  6
CONTINUOUS
 10
105.9473759453
 20
-30.781779
 11
105.9473759453
 21
-31.331727
  0
LINE
  5
31C
100
AcDbEntity
  8
CURVE
100
AcDbLine
 62
250
  6
CONTINUOUS
 10
105.9473759453
 20
-32.321477
 11
105.9473759453
 21
-32.837608
  0
LINE
  5
31D
100
AcDbEntity
  8
CURVE
100
AcDbLine
 62
250
  6
CONTINUOUS
 10
105.9473759453
 20
-32.919544
 11
105.9473759453
 21
-33.429996
  0
LINE
  5
31E
100
AcDbEntity
  8
CURVE
100
AcDbLine
 62
250
  6
CONTINUOUS
 10
105.9473759453
 20
-34.157611
 11
105.9473759453
 21
-34.230793
  0
LINE
  5
31F
100
AcDbEntity
  8
CURVE
100
AcDbLine
 62
250
  6
CONTINUOUS
 10
105.9473759453
 20
-34.955522
 11
105.9473759453
 21
-35.454708
  0
LINE
  5
320
100
AcDbEntity
  8
CURVE
100
AcDbLine
 62
250
  6
CONTINUOUS
 10
105.9473759453
 20
-37.254552
 11
105.9473759453
 21
-37.714382
  0
LINE
  5
321
100
AcDbEntity
  8
SMUSSO
100
AcDbLine
 62
7
  6
CONTINUOUS
 10
106.0
 20
-43.9993911979
 11
106.0
 21
43.9993911979
  0
LINE
  5
322
100
AcDbEntity
  8
ASSI
100
AcDbLine
 62
7
  6
CONTINUOUS
 10
106.0
 20
-43.9993911979
 11
106.0
 21
43.9993911979
  0
LINE
  5
323
100
AcDbEntity
  8
CURVE
100
AcDbLine
 62
250
  6
CONTINUOUS
 10
105.9473759453
 20
-34.230793
 11
105.8904101948
 21
-34.842919
  0
LINE
  5
324
100
AcDbEntity
  8
CURVE
100
AcDbLine
 62
250
  6
CONTINUOUS
 10
105.860136417
 20
-34.707635
 11
105.9085720674
 21
-34.191353
  0
LINE
  5
325
100
AcDbEntity
  8
CURVE
100
AcDbLine
 62
250
  6
CONTINUOUS
 10
105.9473759453
 20
-37.714382
 11
105.860136417
 21
-38.506847
  0
LINE
  5
326
100
AcDbEntity
  8
CURVE
100
AcDbLine
 62
250
  6
CONTINUOUS
 10
105.860136417
 20
-31.54876
 11
105.9473759453
 21
-30.781779
  0
LINE
  5
327
100
AcDbEntity
  8
CURVE
100
AcDbLine
 62
250
  6
CONTINUOUS
 10
105.860136417
 20
-37.940019
 11
105.9201860964
 21
-37.463524
  0
LINE
  5
328
100
AcDbEntity
  8
CURVE
100
AcDbLine
 62
250
  6
CONTINUOUS
 10
105.9473759453
 20
-31.331727
 11
105.92995984
 21
-31.466899
  0
LINE
  5
329
100
AcDbEntity
  8
CURVE
100
AcDbLine
 62
250
  6
CONTINUOUS
 10
105.9164833296
 20
-31.571179
 11
105.8841076249
 21
-31.81095
  0
LINE
  5
32A
100
AcDbEntity
  8
CURVE
100
AcDbLine
 62
250
  6
CONTINUOUS
 10
105.860136417
 20
-33.153297
 11
105.9473759453
 21
-32.919544
  0
LINE
  5
32B
100
AcDbEntity
  8
CURVE
100
AcDbLine
 62
250
  6
CONTINUOUS
 10
105.9473759453
 20
-33.429996
 11
105.890647651
 21
-33.5372
  0
LINE
  5
32C
100
AcDbEntity
  8
SMUSSO
100
AcDbLine
 62
7
  6
CONTINUOUS
 10
104.8199854699
 20
-44.7906993223
 11
104.8055596544
 21
-44.8061684565
  0
LINE
  5
32D
100
AcDbEntity
  8
ASSI
100
AcDbLine
 62
7
  6
CONTINUOUS
 10
104.8199854699
 20
-44.7906993223
 11
104.8055596544
 21
-44.8061684565
  0
LINE
  5
32E
100
AcDbEntity
  8
CURVE
100
AcDbLine
 62
7
  6
CONTINUOUS
 10
105.860136417
 20
-36.762462286
 11
105.8906370703
 21
-36.7319616327
  0
LINE
  5
32F
100
AcDbEntity
  8
CURVE
100
AcDbLine
 62
7
  6
CONTINUOUS
 10
105.860136417
 20
-36.972473
 11
105.9112052909
 21
-36.9214041261
  0
LINE
  5
330
100
AcDbEntity
  8
CURVE
100
AcDbLine
 62
7
  6
CONTINUOUS
 10
105.883019851
 20
-37.15960028
 11
105.9317735115
 21
-37.1108466195
  0
LINE
  5
331
100
AcDbEntity
  8
CURVE
100
AcDbLine
 62
7
  6
CONTINUOUS
 10
105.9059032851
 20
-37.3467275599
 11
105.9473759453
 21
-37.3052548997
  0
LINE
  5
332
100
AcDbEntity
  8
CURVE
100
AcDbLine
 62
7
  6
CONTINUOUS
 10
105.9088045085
 20
-37.5538370505
 11
105.9473759453
 21
-37.5152656137
  0
LINE
  5
333
100
AcDbEntity
  8
CURVE
100
AcDbLine
 62
7
  6
CONTINUOUS
 10
105.8785218389
 20
-37.7941304342
 11
105.9460282685
 21
-37.7266240046
  0
LINE
  5
334
100
AcDbEntity
  8
CURVE
100
AcDbLine
 62
7
  6
CONTINUOUS
 10
105.860136417
 20
-38.0225265701
 11
105.9200490088
 21
-37.9626139782
  0
LINE
  5
335
100
AcDbEntity
  8
CURVE
100
AcDbLine
 62
7
  6
CONTINUOUS
 10
105.860136417
 20
-38.2325372841
 11
105.8940697492
 21
-38.1986039519
  0
LINE
  5
336
100
AcDbEntity
  8
CURVE
100
AcDbLine
 62
7
  6
CONTINUOUS
 10
105.860136417
 20
-38.4425479981
 11
105.8680904896
 21
-38.4345939255
  0
LINE
  5
337
100
AcDbEntity
  8
SMUSSO
100
AcDbLine
 62
7
  6
CONTINUOUS
 10
104.3767374102
 20
-43.7712689598
 11
104.7712689598
 21
-43.3767374102
  0
LINE
  5
338
100
AcDbEntity
  8
ASSI
100
AcDbLine
 62
7
  6
CONTINUOUS
 10
104.3767374102
 20
-43.7712689598
 11
104.7712689598
 21
-43.3767374102
  0
LINE
  5
339
100
AcDbEntity
  8
SMUSSO
100
AcDbLine
 62
7
  6
CONTINUOUS
 10
104.8199854699
 20
-44.7906993223
 11
105.7906993223
 21
-43.8199854699
  0
LINE
  5
33A
100
AcDbEntity
  8
ASSI
100
AcDbLine
 62
7
  6
CONTINUOUS
 10
104.8199854699
 20
-44.7906993223
 11
105.7906993223
 21
-43.8199854699
  0
LINE
  5
33B
100
AcDbEntity
  8
SMUSSO
100
AcDbLine
 62
7
  6
CONTINUOUS
 10
106.0
 20
-43.9993911979
 11
104.9993911979
 21
-45.0
  0
LINE
  5
33C
100
AcDbEntity
  8
ASSI
100
AcDbLine
 62
7
  6
CONTINUOUS
 10
106.0
 20
-43.9993911979
 11
104.9993911979
 21
-45.0
  0
LINE
  5
33D
100
AcDbEntity
  8
SMUSSO
100
AcDbLine
 62
7
  6
CONTINUOUS
 10
105.8061684565
 20
-43.8055596544
 11
105.7906993223
 21
-43.8199854699
  0
LINE
  5
33E
100
AcDbEntity
  8
ASSI
100
AcDbLine
 62
7
  6
CONTINUOUS
 10
105.8061684565
 20
-43.8055596544
 11
105.7906993223
 21
-43.8199854699
  0
LINE
  5
33F
100
AcDbEntity
  8
SMUSSO
100
AcDbLine
 62
7
  6
CONTINUOUS
 10
105.7906993223
 20
43.8199854699
 11
105.8061684565
 21
43.8055596544
  0
LINE
  5
340
100
AcDbEntity
  8
ASSI
100
AcDbLine
 62
7
  6
CONTINUOUS
 10
105.7906993223
 20
43.8199854699
 11
105.8061684565
 21
43.8055596544
  0
LINE
  5
341
100
AcDbEntity
  8
SMUSSO
100
AcDbLine
 62
7
  6
CONTINUOUS
 10
104.7712689598
 20
43.3767374102
 11
104.3767374102
 21
43.7712689598
  0
LINE
  5
342
100
AcDbEntity
  8
ASSI
100
AcDbLine
 62
7
  6
CONTINUOUS
 10
104.7712689598
 20
43.3767374102
 11
104.3767374102
 21
43.7712689598
  0
LINE
  5
343
100
AcDbEntity
  8
SMUSSO
100
AcDbLine
 62
7
  6
CONTINUOUS
 10
105.7906993223
 20
43.8199854699
 11
104.8199854699
 21
44.7906993223
  0
LINE
  5
344
100
AcDbEntity
  8
ASSI
100
AcDbLine
 62
7
  6
CONTINUOUS
 10
105.7906993223
 20
43.8199854699
 11
104.8199854699
 21
44.7906993223
  0
LINE
  5
345
100
AcDbEntity
  8
SMUSSO
100
AcDbLine
 62
7
  6
CONTINUOUS
 10
104.9993911979
 20
45.0
 11
106.0
 21
43.9993911979
  0
LINE
  5
346
100
AcDbEntity
  8
ASSI
100
AcDbLine
 62
7
  6
CONTINUOUS
 10
104.9993911979
 20
45.0
 11
106.0
 21
43.9993911979
  0
LINE
  5
347
100
AcDbEntity
  8
SMUSSO
100
AcDbLine
 62
7
  6
CONTINUOUS
 10
104.8055596544
 20
44.8061684565
 11
104.8199854699
 21
44.7906993223
  0
LINE
  5
348
100
AcDbEntity
  8
ASSI
100
AcDbLine
 62
7
  6
CONTINUOUS
 10
104.8055596544
 20
44.8061684565
 11
104.8199854699
 21
44.7906993223
  0
LINE
  5
349
100
AcDbEntity
  8
CURVE
100
AcDbLine
 62
250
  6
CONTINUOUS
 10
105.8841076249
 20
-31.81095
 11
105.9164833296
 21
-32.070759
  0
LINE
  5
34A
100
AcDbEntity
  8
CURVE
100
AcDbLine
 62
250
  6
CONTINUOUS
 10
105.92995984
 20
-32.177494
 11
105.9473759453
 21
-32.321477
  0
LINE
  5
34B
100
AcDbEntity
  8
CURVE
100
AcDbLine
 62
250
  6
CONTINUOUS
 10
105.9473759453
 20
-32.837608
 11
105.860136417
 21
-32.053532
  0
LINE
  5
34C
100
AcDbEntity
  8
SMUSSO
100
AcDbLine
 62
7
  6
CONTINUOUS
 10
-136.2417664516
 20
-44.8061684565
 11
-130.6911572786
 21
-45.0
  0
LINE
  5
34D
100
AcDbEntity
  8
ASSI
100
AcDbLine
 62
7
  6
CONTINUOUS
 10
-136.2417664516
 20
-44.8061684565
 11
-130.6911572786
 21
-45.0
  0
LWPOLYLINE
  5
34E
100
AcDbEntity
  8
0
100
AcDbPolyline
 62
7
  6
CONTINUOUS
 90
3
 70
0
 43
0.3500000006
 10
-125.4884458008
 20
67.8928555298
 10
-124.6312987976
 20
68.750002533
 10
-124.6312987976
 20
65.7500016174
  0
LINE
  5
34F
100
AcDbEntity
  8
SMUSSO
100
AcDbLine
 62
7
  6
CONTINUOUS
 10
-136.2417664516
 20
-43.8055596544
 11
-130.6911572786
 21
-43.9993911979
  0
LINE
  5
350
100
AcDbEntity
  8
ASSI
100
AcDbLine
 62
7
  6
CONTINUOUS
 10
-136.2417664516
 20
-43.8055596544
 11
-130.6911572786
 21
-43.9993911979
  0
LINE
  5
351
100
AcDbEntity
  8
0
100
AcDbLine
 62
7
  6
CONTINUOUS
 10
-130.6911572786
 20
-42.7580439128
 11
-130.0911572786
 21
-42.8
  0
LWPOLYLINE
  5
352
100
AcDbEntity
  8
0
100
AcDbPolyline
 62
7
  6
CONTINUOUS
 90
3
 70
0
 43
0.3500000006
 10
-119.7027284546
 20
67.8928555298
 10
-118.8455905151
 20
68.750002533
 10
-118.8455905151
 20
65.7500016174
  0
LINE
  5
353
100
AcDbEntity
  8
SMUSSO
100
AcDbLine
 62
7
  6
CONTINUOUS
 10
-137.2411572786
 20
43.3767374102
 11
-136.2567048208
 21
43.8199854699
  0
LINE
  5
354
100
AcDbEntity
  8
ASSI
100
AcDbLine
 62
7
  6
CONTINUOUS
 10
-137.2411572786
 20
43.3767374102
 11
-136.2567048208
 21
43.8199854699
  0
LINE
  5
355
100
AcDbEntity
  8
0
100
AcDbLine
 62
250
  6
CONTINUOUS
 10
-130.6911572786
 20
-41.1619414324
 11
-130.0911572786
 21
-41.2038975196
  0
LINE
  5
356
100
AcDbEntity
  8
SMUSSO
100
AcDbLine
 62
7
  6
CONTINUOUS
 10
-137.2411572786
 20
-43.3767374102
 11
-136.2567048208
 21
-43.8199854699
  0
LINE
  5
357
100
AcDbEntity
  8
ASSI
100
AcDbLine
 62
7
  6
CONTINUOUS
 10
-137.2411572786
 20
-43.3767374102
 11
-136.2567048208
 21
-43.8199854699
  0
LWPOLYLINE
  5
358
100
AcDbEntity
  8
0
100
AcDbPolyline
 62
7
  6
CONTINUOUS
 90
10
 70
0
 43
0.3500000006
 10
-124.2792729492
 20
58.7499994812
 10
-124.9221354675
 20
58.1071460266
 10
-125.3507044373
 20
57.2499990234
 10
-125.3507044373
 20
56.1785675354
 10
-124.9221354675
 20
55.7499985657
 10
-124.2792729492
 20
55.7499985657
 10
-123.8507039795
 20
56.1785675354
 10
-123.8507039795
 20
57.0357145386
 10
-124.2792729492
 20
57.4642835083
 10
-125.2078420715
 20
57.4642835083
  0
LINE
  5
359
100
AcDbEntity
  8
CURVE
100
AcDbLine
 62
250
  6
CONTINUOUS
 10
-134.6963262671
 20
-37.940019
 11
-132.9767284382
 21
-37.463524
  0
LINE
  5
35A
100
AcDbEntity
  8
CURVE
100
AcDbLine
 62
250
  6
CONTINUOUS
 10
-134.6964751763
 20
-36.257398
 11
-132.1981130387
 21
-36.257398
  0
LINE
  5
35B
100
AcDbEntity
  8
CURVE
100
AcDbLine
 62
250
  6
CONTINUOUS
 10
-132.9767284382
 20
-37.463524
 11
-134.6963262671
 21
-36.972473
  0
LINE
  5
35C
100
AcDbEntity
  8
SMUSSO
100
AcDbLine
 62
7
  6
CONTINUOUS
 10
-136.2417664516
 20
44.8061684565
 11
-137.2411572786
 21
43.7712689598
  0
LINE
  5
35D
100
AcDbEntity
  8
ASSI
100
AcDbLine
 62
7
  6
CONTINUOUS
 10
-136.2417664516
 20
44.8061684565
 11
-137.2411572786
 21
43.7712689598
  0
LINE
  5
35E
100
AcDbEntity
  8
CURVE
100
AcDbLine
 62
250
  6
CONTINUOUS
 10
-132.1981130387
 20
-33.429996
 11
-133.8225988427
 21
-33.5372
  0
LINE
  5
35F
100
AcDbEntity
  8
CURVE
100
AcDbLine
 62
250
  6
CONTINUOUS
 10
-132.1981130387
 20
-35.735605
 11
-134.6964751763
 21
-35.735605
  0
LINE
  5
360
100
AcDbEntity
  8
CURVE
100
AcDbLine
 62
250
  6
CONTINUOUS
 10
-133.8293986979
 20
-34.842919
 11
-132.1981130387
 21
-34.955522
  0
LINE
  5
361
100
AcDbEntity
  8
CURVE
100
AcDbLine
 62
250
  6
CONTINUOUS
 10
-132.1981130387
 20
-35.454708
 11
-134.6963262671
 21
-35.228996
  0
LINE
  5
362
100
AcDbEntity
  8
CURVE
100
AcDbLine
 62
250
  6
CONTINUOUS
 10
-134.6963262671
 20
-36.451037
 11
-132.1981130387
 21
-37.254552
  0
LINE
  5
363
100
AcDbEntity
  8
SMUSSO
100
AcDbLine
 62
7
  6
CONTINUOUS
 10
-137.2411572786
 20
-43.7712689598
 11
-136.2417664516
 21
-44.8061684565
  0
LINE
  5
364
100
AcDbEntity
  8
ASSI
100
AcDbLine
 62
7
  6
CONTINUOUS
 10
-137.2411572786
 20
-43.7712689598
 11
-136.2417664516
 21
-44.8061684565
  0
LINE
  5
365
100
AcDbEntity
  8
CURVE
100
AcDbLine
 62
250
  6
CONTINUOUS
 10
-132.1981130387
 20
-31.331727
 11
-132.6968450395
 21
-31.466899
  0
LINE
  5
366
100
AcDbEntity
  8
CURVE
100
AcDbLine
 62
250
  6
CONTINUOUS
 10
-133.0827618061
 20
-31.571179
 11
-134.0098806861
 21
-31.81095
  0
LINE
  5
367
100
AcDbEntity
  8
CURVE
100
AcDbLine
 62
250
  6
CONTINUOUS
 10
-134.6963262671
 20
-33.153297
 11
-132.1981130387
 21
-32.919544
  0
LINE
  5
368
100
AcDbEntity
  8
CURVE
100
AcDbLine
 62
250
  6
CONTINUOUS
 10
-134.667138411
 20
-30.6285551388
 11
-132.1981130223
 21
-30.6285551388
  0
LINE
  5
369
100
AcDbEntity
  8
CURVE
100
AcDbLine
 62
250
  6
CONTINUOUS
 10
-133.5849224039
 20
-30.126163664
 11
-134.2707305258
 21
-30.126163664
  0
LINE
  5
36A
100
AcDbEntity
  8
CURVE
100
AcDbLine
 62
250
  6
CONTINUOUS
 10
-132.1981130223
 20
-30.1088617972
 11
-133.1757755129
 21
-30.1088617972
  0
LINE
  5
36B
100
AcDbEntity
  8
CURVE
100
AcDbLine
 62
250
  6
CONTINUOUS
 10
-134.0098806861
 20
-31.81095
 11
-133.0827618061
 21
-32.070759
  0
LINE
  5
36C
100
AcDbEntity
  8
CURVE
100
AcDbLine
 62
250
  6
CONTINUOUS
 10
-132.6968450395
 20
-32.177494
 11
-132.1981130387
 21
-32.321477
  0
LINE
  5
36D
100
AcDbEntity
  8
CURVE
100
AcDbLine
 62
250
  6
CONTINUOUS
 10
-132.1981130387
 20
-32.837608
 11
-134.6963262671
 21
-32.053532
  0
LINE
  5
36E
100
AcDbEntity
  8
CURVE
100
AcDbLine
 62
250
  6
CONTINUOUS
 10
-133.3093107145
 20
-34.191353
 11
-134.6963262671
 21
-33.66956
  0
LINE
  5
36F
100
AcDbEntity
  8
CURVE
100
AcDbLine
 62
250
  6
CONTINUOUS
 10
-133.8225988427
 20
-33.5372
 11
-132.1981130387
 21
-34.157611
  0
LINE
  5
370
100
AcDbEntity
  8
0
100
AcDbLine
 62
7
  6
CONTINUOUS
 10
-129.0911572786
 20
-27.15
 11
-130.0911572786
 21
-27.151745331
  0
LINE
  5
371
100
AcDbEntity
  8
0
100
AcDbLine
 62
250
  6
CONTINUOUS
 10
-129.1653846948
 20
-26.9276792439
 11
-130.0911572786
 21
-26.9280974384
  0
LINE
  5
372
100
AcDbEntity
  8
CURVE
100
AcDbLine
 62
250
  6
CONTINUOUS
 10
-133.3642565967
 20
-29.2870512436
 11
-133.3790188563
 21
-29.2870512436
  0
LINE
  5
373
100
AcDbEntity
  8
0
100
AcDbLine
 62
7
  6
CONTINUOUS
 10
-127.6411080464
 20
-26.3415638603
 11
-130.0911572786
 21
-26.3558178298
  0
LINE
  5
374
100
AcDbEntity
  8
0
100
AcDbLine
 62
250
  6
CONTINUOUS
 10
-127.6411080464
 20
-26.2536973817
 11
-130.0911572786
 21
-26.2679513512
  0
LINE
  5
375
100
AcDbEntity
  8
0
100
AcDbLine
 62
7
  6
CONTINUOUS
 10
-127.0911572786
 20
-26.1523612067
 11
-127.2117200456
 21
-26.1523612067
  0
LINE
  5
376
100
AcDbEntity
  8
0
100
AcDbLine
 62
7
  6
CONTINUOUS
 10
-129.1410328997
 20
-25.2
 11
-130.0911572786
 21
-25.2
  0
LINE
  5
377
100
AcDbEntity
  8
0
100
AcDbLine
 62
7
  6
CONTINUOUS
 10
-130.0911572786
 20
-25.05
 11
-129.9411572786
 21
-25.05
  0
LINE
  5
378
100
AcDbEntity
  8
0
100
AcDbLine
 62
7
  6
CONTINUOUS
 10
-129.6411572786
 20
-25.05
 11
-129.4411572786
 21
-25.05
  0
LINE
  5
379
100
AcDbEntity
  8
0
100
AcDbLine
 62
7
  6
CONTINUOUS
 10
-127.0911572786
 20
-25.3523612067
 11
-127.6130939329
 21
-25.3478063346
  0
LINE
  5
37A
100
AcDbEntity
  8
0
100
AcDbLine
 62
7
  6
CONTINUOUS
 10
-130.0911572786
 20
-25.7558198745
 11
-127.2806900873
 21
-25.8799866677
  0
LINE
  5
37B
100
AcDbEntity
  8
0
100
AcDbLine
 62
7
  6
CONTINUOUS
 10
-127.0911572786
 20
-25.4
 11
-129.0415291807
 21
-25.2049628098
  0
LINE
  5
37C
100
AcDbEntity
  8
0
100
AcDbLine
 62
7
  6
CONTINUOUS
 10
-129.9411572786
 20
25.05
 11
-129.7911572786
 21
25.2
  0
LINE
  5
37D
100
AcDbEntity
  8
0
100
AcDbLine
 62
7
  6
CONTINUOUS
 10
-129.4411572786
 20
25.05
 11
-129.2911572786
 21
25.2
  0
LINE
  5
37E
100
AcDbEntity
  8
0
100
AcDbLine
 62
7
  6
CONTINUOUS
 10
-129.9411572786
 20
-25.05
 11
-129.7911572786
 21
-25.2
  0
LINE
  5
37F
100
AcDbEntity
  8
0
100
AcDbLine
 62
7
  6
CONTINUOUS
 10
-129.4411572786
 20
-25.05
 11
-129.2911572786
 21
-25.2
  0
LWPOLYLINE
  5
380
100
AcDbEntity
  8
0
100
AcDbPolyline
 62
7
  6
CONTINUOUS
 90
3
 70
0
 43
0.3500000006
 10
-120.7027287598
 20
66.0357172852
 10
-120.7741599426
 20
65.8214328003
 10
-120.9170132446
 20
65.5357171326
  0
LWPOLYLINE
  5
381
100
AcDbEntity
  8
0
100
AcDbPolyline
 62
7
  6
CONTINUOUS
 90
3
 70
0
 43
0.3500000006
 10
-122.2792723389
 20
56.0357142334
 10
-122.3507035217
 20
55.8214297485
 10
-122.4935568237
 20
55.5357140808
  0
LINE
  5
382
100
AcDbEntity
  8
SMUSSO
100
AcDbLine
 62
7
  6
CONTINUOUS
 10
-137.2411572786
 20
-43.7712689598
 11
-137.2411572786
 21
43.7712689598
  0
LINE
  5
383
100
AcDbEntity
  8
ASSI
100
AcDbLine
 62
7
  6
CONTINUOUS
 10
-137.2411572786
 20
-43.7712689598
 11
-137.2411572786
 21
43.7712689598
  0
LINE
  5
384
100
AcDbEntity
  8
SMUSSO
100
AcDbLine
 62
7
  6
CONTINUOUS
 10
-136.2567048208
 20
-44.7906993223
 11
-136.2567048208
 21
-43.8199854699
  0
LINE
  5
385
100
AcDbEntity
  8
ASSI
100
AcDbLine
 62
7
  6
CONTINUOUS
 10
-136.2567048208
 20
-44.7906993223
 11
-136.2567048208
 21
-43.8199854699
  0
LINE
  5
386
100
AcDbEntity
  8
SMUSSO
100
AcDbLine
 62
7
  6
CONTINUOUS
 10
-136.2567048208
 20
43.8199854699
 11
-136.2567048208
 21
44.7906993223
  0
LINE
  5
387
100
AcDbEntity
  8
ASSI
100
AcDbLine
 62
7
  6
CONTINUOUS
 10
-136.2567048208
 20
43.8199854699
 11
-136.2567048208
 21
44.7906993223
  0
LINE
  5
388
100
AcDbEntity
  8
SMUSSO
100
AcDbLine
 62
7
  6
CONTINUOUS
 10
-136.2417664516
 20
-43.8055596544
 11
-136.2417664516
 21
43.8055596544
  0
LINE
  5
389
100
AcDbEntity
  8
ASSI
100
AcDbLine
 62
7
  6
CONTINUOUS
 10
-136.2417664516
 20
-43.8055596544
 11
-136.2417664516
 21
43.8055596544
  0
LINE
  5
38A
100
AcDbEntity
  8
CURVE
100
AcDbLine
 62
250
  6
CONTINUOUS
 10
-134.6964751763
 20
-35.735605
 11
-134.6964751763
 21
-36.257398
  0
LINE
  5
38B
100
AcDbEntity
  8
CURVE
100
AcDbLine
 62
250
  6
CONTINUOUS
 10
-134.6963262671
 20
-38.506847
 11
-134.6963262671
 21
-37.940019
  0
LINE
  5
38C
100
AcDbEntity
  8
CURVE
100
AcDbLine
 62
250
  6
CONTINUOUS
 10
-134.6963262671
 20
-36.972473
 11
-134.6963262671
 21
-36.451037
  0
LINE
  5
38D
100
AcDbEntity
  8
CURVE
100
AcDbLine
 62
250
  6
CONTINUOUS
 10
-134.6963262671
 20
-35.228996
 11
-134.6963262671
 21
-34.707635
  0
LINE
  5
38E
100
AcDbEntity
  8
CURVE
100
AcDbLine
 62
250
  6
CONTINUOUS
 10
-134.6963262671
 20
-33.66956
 11
-134.6963262671
 21
-33.153297
  0
LINE
  5
38F
100
AcDbEntity
  8
CURVE
100
AcDbLine
 62
250
  6
CONTINUOUS
 10
-134.6963262671
 20
-32.053532
 11
-134.6963262671
 21
-31.54876
  0
LINE
  5
390
100
AcDbEntity
  8
CURVE
100
AcDbLine
 62
250
  6
CONTINUOUS
 10
-133.5849224039
 20
-29.8279642095
 11
-133.5849224039
 21
-30.126163664
  0
LINE
  5
391
100
AcDbEntity
  8
CURVE
100
AcDbLine
 62
250
  6
CONTINUOUS
 10
-133.1757755129
 20
-30.1088617972
 11
-133.1757755129
 21
-29.8290889245
  0
LINE
  5
392
100
AcDbEntity
  8
CURVE
100
AcDbLine
 62
250
  6
CONTINUOUS
 10
-133.0827618061
 20
-32.070759
 11
-133.0827618061
 21
-31.571179
  0
LINE
  5
393
100
AcDbEntity
  8
CURVE
100
AcDbLine
 62
250
  6
CONTINUOUS
 10
-132.6968450395
 20
-31.466899
 11
-132.6968450395
 21
-32.177494
  0
LINE
  5
394
100
AcDbEntity
  8
CURVE
100
AcDbLine
 62
250
  6
CONTINUOUS
 10
-132.1981130387
 20
-36.257398
 11
-132.1981130387
 21
-35.735605
  0
LINE
  5
395
100
AcDbEntity
  8
CURVE
100
AcDbLine
 62
250
  6
CONTINUOUS
 10
-132.1981130387
 20
-30.781779
 11
-132.1981130387
 21
-31.331727
  0
LINE
  5
396
100
AcDbEntity
  8
CURVE
100
AcDbLine
 62
250
  6
CONTINUOUS
 10
-132.1981130387
 20
-32.321477
 11
-132.1981130387
 21
-32.837608
  0
LINE
  5
397
100
AcDbEntity
  8
CURVE
100
AcDbLine
 62
250
  6
CONTINUOUS
 10
-132.1981130387
 20
-32.919544
 11
-132.1981130387
 21
-33.429996
  0
LINE
  5
398
100
AcDbEntity
  8
CURVE
100
AcDbLine
 62
250
  6
CONTINUOUS
 10
-132.1981130387
 20
-34.157611
 11
-132.1981130387
 21
-34.230793
  0
LINE
  5
399
100
AcDbEntity
  8
CURVE
100
AcDbLine
 62
250
  6
CONTINUOUS
 10
-132.1981130387
 20
-34.955522
 11
-132.1981130387
 21
-35.454708
  0
LINE
  5
39A
100
AcDbEntity
  8
CURVE
100
AcDbLine
 62
250
  6
CONTINUOUS
 10
-132.1981130387
 20
-37.254552
 11
-132.1981130387
 21
-37.714382
  0
LINE
  5
39B
100
AcDbEntity
  8
CURVE
100
AcDbLine
 62
250
  6
CONTINUOUS
 10
-132.1981130223
 20
-30.6285551388
 11
-132.1981130223
 21
-30.1088617972
  0
LINE
  5
39C
100
AcDbEntity
  8
CURVE
100
AcDbLine
 62
250
  6
CONTINUOUS
 10
-132.1981130223
 20
-29.3098079785
 11
-132.1981130223
 21
-28.8079038802
  0
LINE
  5
39D
100
AcDbEntity
  8
0
100
AcDbLine
 62
250
  6
CONTINUOUS
 10
-129.1653201297
 20
-27.1501294387
 11
-129.1653846948
 21
-26.9276792439
  0
LINE
  5
39E
100
AcDbEntity
  8
SMUSSO
100
AcDbLine
 62
7
  6
CONTINUOUS
 10
-130.6911572786
 20
-45.0
 11
-130.6911572786
 21
45.0
  0
LINE
  5
39F
100
AcDbEntity
  8
ASSI
100
AcDbLine
 62
7
  6
CONTINUOUS
 10
-130.6911572786
 20
-45.0
 11
-130.6911572786
 21
45.0
  0
LINE
  5
3A0
100
AcDbEntity
  8
0
100
AcDbLine
 62
7
  6
CONTINUOUS
 10
-130.0911572786
 20
-42.8
 11
-130.0911572786
 21
42.8
  0
LINE
  5
3A1
100
AcDbEntity
  8
0
100
AcDbLine
 62
250
  6
CONTINUOUS
 10
-129.1653846948
 20
26.9276792439
 11
-129.1653201297
 21
27.1501294387
  0
LINE
  5
3A2
100
AcDbEntity
  8
0
100
AcDbLine
 62
250
  6
CONTINUOUS
 10
-127.3754564917
 20
25.3715700787
 11
-127.3754564917
 21
25.3498801651
  0
LINE
  5
3A3
100
AcDbEntity
  8
0
100
AcDbLine
 62
250
  6
CONTINUOUS
 10
-127.3754564917
 20
-25.3498801651
 11
-127.3754564917
 21
-25.3715700787
  0
LINE
  5
3A4
100
AcDbEntity
  8
0
100
AcDbLine
 62
250
  6
CONTINUOUS
 10
-127.2806900873
 20
25.8799866677
 11
-127.2806900873
 21
25.3810467191
  0
LINE
  5
3A5
100
AcDbEntity
  8
0
100
AcDbLine
 62
250
  6
CONTINUOUS
 10
-127.2806900873
 20
-25.3810467191
 11
-127.2806900873
 21
-25.8799866677
  0
LINE
  5
3A6
100
AcDbEntity
  8
0
100
AcDbLine
 62
7
  6
CONTINUOUS
 10
-127.0911572786
 20
26.1523612067
 11
-127.0911572786
 21
25.3523612067
  0
LINE
  5
3A7
100
AcDbEntity
  8
0
100
AcDbLine
 62
7
  6
CONTINUOUS
 10
-127.0911572786
 20
-25.3523612067
 11
-127.0911572786
 21
-26.1523612067
  0
LWPOLYLINE
  5
3A8
100
AcDbEntity
  8
0
100
AcDbPolyline
 62
7
  6
CONTINUOUS
 90
13
 70
0
 43
0.3500000006
 10
-123.7741608582
 20
66.6071395569
 10
-123.7741608582
 20
67.8928555298
 10
-123.5598763733
 20
68.3214244995
 10
-123.1312983398
 20
68.750002533
 10
-122.917013855
 20
68.750002533
 10
-122.4884448853
 20
68.3214244995
 10
-122.2741604004
 20
67.8928555298
 10
-122.2741604004
 20
66.6071395569
 10
-122.4884448853
 20
66.1785705872
 10
-122.917013855
 20
65.7500016174
 10
-123.1312983398
 20
65.7500016174
 10
-123.5598763733
 20
66.1785705872
 10
-123.7741608582
 20
66.6071395569
  0
LINE
  5
3A9
100
AcDbEntity
  8
CURVE
100
AcDbLine
 62
7
  6
CONTINUOUS
 10
-134.6479756912
 20
-29.3637367197
 11
-134.2645931317
 21
-28.9803541601
  0
LINE
  5
3AA
100
AcDbEntity
  8
CURVE
100
AcDbLine
 62
7
  6
CONTINUOUS
 10
-134.7070931264
 20
-29.6328648689
 11
-134.0085752519
 21
-28.9343469943
  0
LINE
  5
3AB
100
AcDbEntity
  8
CURVE
100
AcDbLine
 62
7
  6
CONTINUOUS
 10
-134.7240394441
 20
-29.8598219006
 11
-133.8174546307
 21
-28.9532370872
  0
LINE
  5
3AC
100
AcDbEntity
  8
CURVE
100
AcDbLine
 62
7
  6
CONTINUOUS
 10
-134.7226974543
 20
-30.0684906248
 11
-134.2478261198
 21
-29.5936192903
  0
LINE
  5
3AD
100
AcDbEntity
  8
CURVE
100
AcDbLine
 62
7
  6
CONTINUOUS
 10
-134.1112677058
 20
-29.4570608763
 11
-133.6630444259
 21
-29.0088375964
  0
LINE
  5
3AE
100
AcDbEntity
  8
0
100
AcDbLine
 62
7
  6
CONTINUOUS
 10
-129.7911572786
 20
-25.2
 11
-129.6411572786
 21
-25.05
  0
LINE
  5
3AF
100
AcDbEntity
  8
CURVE
100
AcDbLine
 62
7
  6
CONTINUOUS
 10
-134.7102886316
 20
-30.2660925161
 11
-134.2939093162
 21
-29.8497132007
  0
LINE
  5
3B0
100
AcDbEntity
  8
CURVE
100
AcDbLine
 62
7
  6
CONTINUOUS
 10
-133.8761220448
 20
-29.4319259293
 11
-133.5355419165
 21
-29.091345801
  0
LINE
  5
3B1
100
AcDbEntity
  8
CURVE
100
AcDbLine
 62
7
  6
CONTINUOUS
 10
-134.6903936624
 20
-30.4562082609
 11
-134.282397472
 21
-30.0482120705
  0
LINE
  5
3B2
100
AcDbEntity
  8
CURVE
100
AcDbLine
 62
7
  6
CONTINUOUS
 10
-133.7275940509
 20
-29.4934086494
 11
-133.4319922065
 21
-29.197806805
  0
LINE
  5
3B3
100
AcDbEntity
  8
CURVE
100
AcDbLine
 62
7
  6
CONTINUOUS
 10
-134.6527298263
 20
-30.6285551388
 11
-134.1503383515
 21
-30.126163664
  0
LINE
  5
3B4
100
AcDbEntity
  8
CURVE
100
AcDbLine
 62
7
  6
CONTINUOUS
 10
-133.6308808838
 20
-29.6067061963
 11
-133.0707603364
 21
-29.0465856489
  0
LINE
  5
3B5
100
AcDbEntity
  8
CURVE
100
AcDbLine
 62
7
  6
CONTINUOUS
 10
-134.4427191123
 20
-30.6285551388
 11
-133.9403276375
 21
-30.126163664
  0
LINE
  5
3B6
100
AcDbEntity
  8
CURVE
100
AcDbLine
 62
7
  6
CONTINUOUS
 10
-133.588163629
 20
-29.7739996556
 11
-132.7736647089
 21
-28.9595007355
  0
LINE
  5
3B7
100
AcDbEntity
  8
CURVE
100
AcDbLine
 62
7
  6
CONTINUOUS
 10
-134.2327083983
 20
-30.6285551388
 11
-133.7303169235
 21
-30.126163664
  0
LINE
  5
3B8
100
AcDbEntity
  8
CURVE
100
AcDbLine
 62
7
  6
CONTINUOUS
 10
-133.5849224039
 20
-29.9807691444
 11
-132.4883339146
 21
-28.8841806552
  0
LINE
  5
3B9
100
AcDbEntity
  8
CURVE
100
AcDbLine
 62
7
  6
CONTINUOUS
 10
-134.0226976842
 20
-30.6285551388
 11
-133.1712749593
 21
-29.7771324139
  0
LINE
  5
3BA
100
AcDbEntity
  8
CURVE
100
AcDbLine
 62
7
  6
CONTINUOUS
 10
-132.9194055315
 20
-29.525262986
 11
-132.203467124
 21
-28.8093245785
  0
LINE
  5
3BB
100
AcDbEntity
  8
CURVE
100
AcDbLine
 62
7
  6
CONTINUOUS
 10
-133.8126869702
 20
-30.6285551388
 11
-133.1757755129
 21
-29.9916436815
  0
LINE
  5
3BC
100
AcDbEntity
  8
CURVE
100
AcDbLine
 62
7
  6
CONTINUOUS
 10
-132.6147593842
 20
-29.4306275527
 11
-132.1981130223
 21
-29.0139811908
  0
LINE
  5
3BD
100
AcDbEntity
  8
CURVE
100
AcDbLine
 62
7
  6
CONTINUOUS
 10
-134.6963262671
 20
-31.7222051497
 11
-134.4460403954
 21
-31.471919278
  0
LINE
  5
3BE
100
AcDbEntity
  8
CURVE
100
AcDbLine
 62
7
  6
CONTINUOUS
 10
-133.6026762562
 20
-30.6285551388
 11
-133.0829829147
 21
-30.1088617972
  0
LINE
  5
3BF
100
AcDbEntity
  8
CURVE
100
AcDbLine
 62
7
  6
CONTINUOUS
 10
-132.3193136203
 20
-29.3451925029
 11
-132.1981130223
 21
-29.2239919048
  0
LINE
  5
3C0
100
AcDbEntity
  8
CURVE
100
AcDbLine
 62
7
  6
CONTINUOUS
 10
-134.6963262671
 20
-31.9322158637
 11
-134.1429894614
 21
-31.378879058
  0
LINE
  5
3C1
100
AcDbEntity
  8
CURVE
100
AcDbLine
 62
7
  6
CONTINUOUS
 10
-133.3926655422
 20
-30.6285551388
 11
-132.8729722006
 21
-30.1088617972
  0
LINE
  5
3C2
100
AcDbEntity
  8
CURVE
100
AcDbLine
 62
7
  6
CONTINUOUS
 10
-134.6288191244
 20
-32.074719435
 11
-133.8399385273
 21
-31.285838838
  0
LINE
  5
3C3
100
AcDbEntity
  8
CURVE
100
AcDbLine
 62
7
  6
CONTINUOUS
 10
-133.1826548282
 20
-30.6285551388
 11
-132.6629614866
 21
-30.1088617972
  0
LINE
  5
3C4
100
AcDbEntity
  8
CURVE
100
AcDbLine
 62
7
  6
CONTINUOUS
 10
-134.4689759456
 20
-32.1248869703
 11
-133.5368875933
 21
-31.1927986179
  0
LINE
  5
3C5
100
AcDbEntity
  8
CURVE
100
AcDbLine
 62
7
  6
CONTINUOUS
 10
-132.9726441142
 20
-30.6285551388
 11
-132.4529507726
 21
-30.1088617972
  0
LINE
  5
3C6
100
AcDbEntity
  8
CURVE
100
AcDbLine
 62
7
  6
CONTINUOUS
 10
-134.3091327669
 20
-32.1750545055
 11
-133.9592239374
 21
-31.825145676
  0
LINE
  5
3C7
100
AcDbEntity
  8
CURVE
100
AcDbLine
 62
7
  6
CONTINUOUS
 10
-133.9224054656
 20
-31.7883272042
 11
-133.2338366593
 21
-31.0997583979
  0
LINE
  5
3C8
100
AcDbEntity
  8
CURVE
100
AcDbLine
 62
7
  6
CONTINUOUS
 10
-132.7626334002
 20
-30.6285551388
 11
-132.2429400586
 21
-30.1088617972
  0
LINE
  5
3C9
100
AcDbEntity
  8
CURVE
100
AcDbLine
 62
7
  6
CONTINUOUS
 10
-134.1492895881
 20
-32.2252220408
 11
-133.7951828855
 21
-31.8711153381
  0
LINE
  5
3CA
100
AcDbEntity
  8
CURVE
100
AcDbLine
 62
7
  6
CONTINUOUS
 10
-133.6391356634
 20
-31.7150681161
 11
-132.9307857252
 21
-31.0067181779
  0
LINE
  5
3CB
100
AcDbEntity
  8
CURVE
100
AcDbLine
 62
7
  6
CONTINUOUS
 10
-132.5526226862
 20
-30.6285551388
 11
-132.1981130223
 21
-30.2740454749
  0
LINE
  5
3CC
100
AcDbEntity
  8
CURVE
100
AcDbLine
 62
7
  6
CONTINUOUS
 10
-133.9894464094
 20
-32.2753895761
 11
-133.6311418336
 21
-31.9170850002
  0
LINE
  5
3CD
100
AcDbEntity
  8
CURVE
100
AcDbLine
 62
7
  6
CONTINUOUS
 10
-133.3558658613
 20
-31.641809028
 11
-132.6277347912
 21
-30.9136779579
  0
LINE
  5
3CE
100
AcDbEntity
  8
CURVE
100
AcDbLine
 62
7
  6
CONTINUOUS
 10
-132.3426119721
 20
-30.6285551388
 11
-132.1981130223
 21
-30.4840561889
  0
LINE
  5
3CF
100
AcDbEntity
  8
0
100
AcDbLine
 62
7
  6
CONTINUOUS
 10
-129.7911572786
 20
25.2
 11
-129.6411572786
 21
25.05
  0
LINE
  5
3D0
100
AcDbEntity
  8
CURVE
100
AcDbLine
 62
7
  6
CONTINUOUS
 10
-134.6963262671
 20
-33.1922801478
 11
-134.6533190134
 21
-33.1492728941
  0
LINE
  5
3D1
100
AcDbEntity
  8
CURVE
100
AcDbLine
 62
7
  6
CONTINUOUS
 10
-133.8296032306
 20
-32.3255571113
 11
-133.4671007817
 21
-31.9630546623
  0
LINE
  5
3D2
100
AcDbEntity
  8
CURVE
100
AcDbLine
 62
7
  6
CONTINUOUS
 10
-133.0827618061
 20
-31.5787156868
 11
-132.3246838572
 21
-30.8206377378
  0
LINE
  5
3D3
100
AcDbEntity
  8
CURVE
100
AcDbLine
 62
7
  6
CONTINUOUS
 10
-134.6963262671
 20
-33.4022908618
 11
-134.4216295639
 21
-33.1275941586
  0
LINE
  5
3D4
100
AcDbEntity
  8
CURVE
100
AcDbLine
 62
7
  6
CONTINUOUS
 10
-133.6697600519
 20
-32.3757246466
 11
-133.3030597298
 21
-32.0090243245
  0
LINE
  5
3D5
100
AcDbEntity
  8
CURVE
100
AcDbLine
 62
7
  6
CONTINUOUS
 10
-133.0827618061
 20
-31.7887264008
 11
-132.1981130387
 21
-30.9040776334
  0
LINE
  5
3D6
100
AcDbEntity
  8
CURVE
100
AcDbLine
 62
7
  6
CONTINUOUS
 10
-134.6963262671
 20
-33.6123015758
 11
-134.1899401143
 21
-33.105915423
  0
LINE
  5
3D7
100
AcDbEntity
  8
CURVE
100
AcDbLine
 62
7
  6
CONTINUOUS
 10
-133.5099168731
 20
-32.4258921818
 11
-133.1390186779
 21
-32.0549939866
  0
LINE
  5
3D8
100
AcDbEntity
  8
CURVE
100
AcDbLine
 62
7
  6
CONTINUOUS
 10
-133.0827618061
 20
-31.9987371148
 11
-132.6968450395
 21
-31.6128203482
  0
LINE
  5
3D9
100
AcDbEntity
  8
CURVE
100
AcDbLine
 62
7
  6
CONTINUOUS
 10
-132.4966699768
 20
-31.4126452855
 11
-132.1981130387
 21
-31.1140883474
  0
LINE
  5
3DA
100
AcDbEntity
  8
CURVE
100
AcDbLine
 62
7
  6
CONTINUOUS
 10
-134.5853304308
 20
-33.7113164535
 11
-133.9582506648
 21
-33.0842366875
  0
LINE
  5
3DB
100
AcDbEntity
  8
CURVE
100
AcDbLine
 62
7
  6
CONTINUOUS
 10
-133.3500736944
 20
-32.4760597171
 11
-132.6968450395
 21
-31.8228310622
  0
LINE
  5
3DC
100
AcDbEntity
  8
CURVE
100
AcDbLine
 62
7
  6
CONTINUOUS
 10
-132.2085770531
 20
-31.3345630758
 11
-132.1981130387
 21
-31.3240990614
  0
LINE
  5
3DD
100
AcDbEntity
  8
CURVE
100
AcDbLine
 62
7
  6
CONTINUOUS
 10
-134.4327283659
 20
-33.7687251027
 11
-133.7265612152
 21
-33.0625579519
  0
LINE
  5
3DE
100
AcDbEntity
  8
CURVE
100
AcDbLine
 62
7
  6
CONTINUOUS
 10
-133.1902305156
 20
-32.5262272524
 11
-132.6968450395
 21
-32.0328417762
  0
LINE
  5
3DF
100
AcDbEntity
  8
CURVE
100
AcDbLine
 62
7
  6
CONTINUOUS
 10
-134.2801263011
 20
-33.8261337518
 11
-133.4948717657
 21
-33.0408792164
  0
LINE
  5
3E0
100
AcDbEntity
  8
CURVE
100
AcDbLine
 62
7
  6
CONTINUOUS
 10
-133.0303873369
 20
-32.5763947876
 11
-132.6461283602
 21
-32.1921358109
  0
LINE
  5
3E1
100
AcDbEntity
  8
CURVE
100
AcDbLine
 62
7
  6
CONTINUOUS
 10
-134.1275242362
 20
-33.883542401
 11
-133.7926280483
 21
-33.548646213
  0
LINE
  5
3E2
100
AcDbEntity
  8
CURVE
100
AcDbLine
 62
7
  6
CONTINUOUS
 10
-133.7782555042
 20
-33.5342736689
 11
-133.2631823161
 21
-33.0192004809
  0
LINE
  5
3E3
100
AcDbEntity
  8
CURVE
100
AcDbLine
 62
7
  6
CONTINUOUS
 10
-132.8705441581
 20
-32.6265623229
 11
-132.4831648951
 21
-32.2391830598
  0
LINE
  5
3E4
100
AcDbEntity
  8
CURVE
100
AcDbLine
 62
7
  6
CONTINUOUS
 10
-133.9749221714
 20
-33.9409510501
 11
-133.6406569541
 21
-33.6066858328
  0
LINE
  5
3E5
100
AcDbEntity
  8
CURVE
100
AcDbLine
 62
7
  6
CONTINUOUS
 10
-133.5534064203
 20
-33.5194352991
 11
-133.0314928666
 21
-32.9975217453
  0
LINE
  5
3E6
100
AcDbEntity
  8
CURVE
100
AcDbLine
 62
7
  6
CONTINUOUS
 10
-132.7107009794
 20
-32.6767298581
 11
-132.32020143
 21
-32.2862303088
  0
LINE
  5
3E7
100
AcDbEntity
  8
CURVE
100
AcDbLine
 62
7
  6
CONTINUOUS
 10
-134.6963262671
 20
-34.8723658599
 11
-134.4339219254
 21
-34.6099615182
  0
LINE
  5
3E8
100
AcDbEntity
  8
CURVE
100
AcDbLine
 62
7
  6
CONTINUOUS
 10
-133.8223201065
 20
-33.9983596993
 11
-133.4886858599
 21
-33.6647254527
  0
LINE
  5
3E9
100
AcDbEntity
  8
CURVE
100
AcDbLine
 62
7
  6
CONTINUOUS
 10
-133.3285573365
 20
-33.5045969292
 11
-132.799803417
 21
-32.9758430098
  0
LINE
  5
3EA
100
AcDbEntity
  8
CURVE
100
AcDbLine
 62
7
  6
CONTINUOUS
 10
-132.5508578006
 20
-32.7268973934
 11
-132.1981130387
 21
-32.3741526315
  0
LINE
  5
3EB
100
AcDbEntity
  8
CURVE
100
AcDbLine
 62
7
  6
CONTINUOUS
 10
-134.6963262671
 20
-35.0823765739
 11
-134.0993900521
 21
-34.4854403589
  0
LINE
  5
3EC
100
AcDbEntity
  8
CURVE
100
AcDbLine
 62
7
  6
CONTINUOUS
 10
-133.6697180416
 20
-34.0557683484
 11
-133.3367147658
 21
-33.7227650725
  0
LINE
  5
3ED
100
AcDbEntity
  8
CURVE
100
AcDbLine
 62
7
  6
CONTINUOUS
 10
-133.1037082526
 20
-33.4897585594
 11
-132.5681139675
 21
-32.9541642742
  0
LINE
  5
3EE
100
AcDbEntity
  8
CURVE
100
AcDbLine
 62
7
  6
CONTINUOUS
 10
-132.3910146219
 20
-32.7770649287
 11
-132.1981130387
 21
-32.5841633455
  0
LINE
  5
3EF
100
AcDbEntity
  8
CURVE
100
AcDbLine
 62
7
  6
CONTINUOUS
 10
-134.6381877572
 20
-35.2342487779
 11
-133.7648581787
 21
-34.3609191995
  0
LINE
  5
3F0
100
AcDbEntity
  8
CURVE
100
AcDbLine
 62
7
  6
CONTINUOUS
 10
-133.5171159768
 20
-34.1131769976
 11
-133.1847436716
 21
-33.7808046924
  0
LINE
  5
3F1
100
AcDbEntity
  8
CURVE
100
AcDbLine
 62
7
  6
CONTINUOUS
 10
-132.8788591687
 20
-33.4749201895
 11
-132.3364245179
 21
-32.9324855387
  0
LINE
  5
3F2
100
AcDbEntity
  8
CURVE
100
AcDbLine
 62
7
  6
CONTINUOUS
 10
-132.2311714431
 20
-32.8272324639
 11
-132.1981130387
 21
-32.7941740595
  0
LINE
  5
3F3
100
AcDbEntity
  8
CURVE
100
AcDbLine
 62
7
  6
CONTINUOUS
 10
-134.4455791134
 20
-35.2516508482
 11
-133.4303263053
 21
-34.2363980402
  0
LINE
  5
3F4
100
AcDbEntity
  8
CURVE
100
AcDbLine
 62
7
  6
CONTINUOUS
 10
-133.3645139119
 20
-34.1705856467
 11
-133.0327725774
 21
-33.8388443122
  0
LINE
  5
3F5
100
AcDbEntity
  8
CURVE
100
AcDbLine
 62
7
  6
CONTINUOUS
 10
-132.6540100848
 20
-33.4600818197
 11
-132.1981130387
 21
-33.0041847735
  0
LINE
  5
3F6
100
AcDbEntity
  8
CURVE
100
AcDbLine
 62
7
  6
CONTINUOUS
 10
-134.2529704697
 20
-35.2690529185
 11
-133.8270019891
 21
-34.843084438
  0
LINE
  5
3F7
100
AcDbEntity
  8
CURVE
100
AcDbLine
 62
7
  6
CONTINUOUS
 10
-133.8252976788
 20
-34.8413801277
 11
-132.8808014833
 21
-33.8968839321
  0
LINE
  5
3F8
100
AcDbEntity
  8
CURVE
100
AcDbLine
 62
7
  6
CONTINUOUS
 10
-132.429161001
 20
-33.4452434498
 11
-132.1981130387
 21
-33.2141954876
  0
LINE
  5
3F9
100
AcDbEntity
  8
CURVE
100
AcDbLine
 62
7
  6
CONTINUOUS
 10
-134.6964751763
 20
-35.9225683392
 11
-134.5095118372
 21
-35.735605
  0
LINE
  5
3FA
100
AcDbEntity
  8
CURVE
100
AcDbLine
 62
7
  6
CONTINUOUS
 10
-134.060361826
 20
-35.2864549888
 11
-133.6305516801
 21
-34.8566448429
  0
LINE
  5
3FB
100
AcDbEntity
  8
CURVE
100
AcDbLine
 62
7
  6
CONTINUOUS
 10
-133.4891506748
 20
-34.7152438377
 11
-132.7288303891
 21
-33.9549235519
  0
LINE
  5
3FC
100
AcDbEntity
  8
CURVE
100
AcDbLine
 62
7
  6
CONTINUOUS
 10
-132.2043119171
 20
-33.4304050799
 11
-132.1981130387
 21
-33.4242062016
  0
LINE
  5
3FD
100
AcDbEntity
  8
CURVE
100
AcDbLine
 62
7
  6
CONTINUOUS
 10
-134.6964751763
 20
-36.1325790532
 11
-134.2995011232
 21
-35.735605
  0
LINE
  5
3FE
100
AcDbEntity
  8
CURVE
100
AcDbLine
 62
7
  6
CONTINUOUS
 10
-133.8677531823
 20
-35.3038570591
 11
-133.4341013711
 21
-34.8702052479
  0
LINE
  5
3FF
100
AcDbEntity
  8
CURVE
100
AcDbLine
 62
7
  6
CONTINUOUS
 10
-133.1530036708
 20
-34.5891075477
 11
-132.5768592949
 21
-34.0129631718
  0
LINE
  5
400
100
AcDbEntity
  8
CURVE
100
AcDbLine
 62
7
  6
CONTINUOUS
 10
-134.6112834091
 20
-36.257398
 11
-134.0894904091
 21
-35.735605
  0
LINE
  5
401
100
AcDbEntity
  8
CURVE
100
AcDbLine
 62
7
  6
CONTINUOUS
 10
-133.6751445385
 20
-35.3212591294
 11
-133.237651062
 21
-34.8837656529
  0
LINE
  5
402
100
AcDbEntity
  8
CURVE
100
AcDbLine
 62
7
  6
CONTINUOUS
 10
-132.8168566668
 20
-34.4629712577
 11
-132.4248882007
 21
-34.0710027916
  0
LINE
  5
403
100
AcDbEntity
  8
CURVE
100
AcDbLine
 62
7
  6
CONTINUOUS
 10
-134.6963262671
 20
-36.552451572
 11
-134.6195921425
 21
-36.4757174474
  0
LINE
  5
404
100
AcDbEntity
  8
CURVE
100
AcDbLine
 62
7
  6
CONTINUOUS
 10
-134.4012726951
 20
-36.257398
 11
-133.8794796951
 21
-35.735605
  0
LINE
  5
405
100
AcDbEntity
  8
CURVE
100
AcDbLine
 62
7
  6
CONTINUOUS
 10
-133.4825358948
 20
-35.3386611997
 11
-133.041200753
 21
-34.8973260578
  0
LINE
  5
406
100
AcDbEntity
  8
CURVE
100
AcDbLine
 62
7
  6
CONTINUOUS
 10
-132.4807096628
 20
-34.3368349676
 11
-132.2729171066
 21
-34.1290424115
  0
LINE
  5
407
100
AcDbEntity
  8
CURVE
100
AcDbLine
 62
7
  6
CONTINUOUS
 10
-134.6963262671
 20
-36.762462286
 11
-134.4606900441
 21
-36.526826063
  0
LINE
  5
408
100
AcDbEntity
  8
CURVE
100
AcDbLine
 62
7
  6
CONTINUOUS
 10
-134.1912619811
 20
-36.257398
 11
-133.6694689811
 21
-35.735605
  0
LINE
  5
409
100
AcDbEntity
  8
CURVE
100
AcDbLine
 62
7
  6
CONTINUOUS
 10
-133.2899272511
 20
-35.35606327
 11
-132.8447504439
 21
-34.9108864628
  0
LINE
  5
40A
100
AcDbEntity
  8
CURVE
100
AcDbLine
 62
7
  6
CONTINUOUS
 10
-134.6963262671
 20
-36.972473
 11
-134.3017879457
 21
-36.5779346786
  0
LINE
  5
40B
100
AcDbEntity
  8
CURVE
100
AcDbLine
 62
7
  6
CONTINUOUS
 10
-133.9812512671
 20
-36.257398
 11
-133.4594582671
 21
-35.735605
  0
LINE
  5
40C
100
AcDbEntity
  8
CURVE
100
AcDbLine
 62
7
  6
CONTINUOUS
 10
-133.0973186074
 20
-35.3734653402
 11
-132.6483001349
 21
-34.9244468678
  0
LINE
  5
40D
100
AcDbEntity
  8
CURVE
100
AcDbLine
 62
7
  6
CONTINUOUS
 10
-134.5329651927
 20
-37.0191226396
 11
-134.1428858473
 21
-36.6290432942
  0
LINE
  5
40E
100
AcDbEntity
  8
CURVE
100
AcDbLine
 62
7
  6
CONTINUOUS
 10
-133.7712405531
 20
-36.257398
 11
-133.2494475531
 21
-35.735605
  0
LINE
  5
40F
100
AcDbEntity
  8
CURVE
100
AcDbLine
 62
7
  6
CONTINUOUS
 10
-132.9047099636
 20
-35.3908674105
 11
-132.4518498258
 21
-34.9380072727
  0
LINE
  5
410
100
AcDbEntity
  8
CURVE
100
AcDbLine
 62
7
  6
CONTINUOUS
 10
-134.3696041183
 20
-37.0657722792
 11
-133.9839837489
 21
-36.6801519098
  0
LINE
  5
411
100
AcDbEntity
  8
CURVE
100
AcDbLine
 62
7
  6
CONTINUOUS
 10
-133.5612298391
 20
-36.257398
 11
-133.0394368391
 21
-35.735605
  0
LINE
  5
412
100
AcDbEntity
  8
CURVE
100
AcDbLine
 62
7
  6
CONTINUOUS
 10
-132.7121013199
 20
-35.4082694808
 11
-132.2553995168
 21
-34.9515676777
  0
LINE
  5
413
100
AcDbEntity
  8
CURVE
100
AcDbLine
 62
7
  6
CONTINUOUS
 10
-134.2062430438
 20
-37.1124219188
 11
-133.8250816505
 21
-36.7312605254
  0
LINE
  5
414
100
AcDbEntity
  8
CURVE
100
AcDbLine
 62
7
  6
CONTINUOUS
 10
-133.3512191251
 20
-36.257398
 11
-132.8294261251
 21
-35.735605
  0
LINE
  5
415
100
AcDbEntity
  8
CURVE
100
AcDbLine
 62
7
  6
CONTINUOUS
 10
-132.5194926762
 20
-35.4256715511
 11
-132.1981130387
 21
-35.1042919137
  0
LINE
  5
416
100
AcDbEntity
  8
CURVE
100
AcDbLine
 62
7
  6
CONTINUOUS
 10
-134.0428819694
 20
-37.1590715584
 11
-133.6661795521
 21
-36.782369141
  0
LINE
  5
417
100
AcDbEntity
  8
CURVE
100
AcDbLine
 62
7
  6
CONTINUOUS
 10
-133.1412084111
 20
-36.257398
 11
-132.6194154111
 21
-35.735605
  0
LINE
  5
418
100
AcDbEntity
  8
CURVE
100
AcDbLine
 62
7
  6
CONTINUOUS
 10
-132.3268840324
 20
-35.4430736214
 11
-132.1981130387
 21
-35.3143026277
  0
LINE
  5
419
100
AcDbEntity
  8
CURVE
100
AcDbLine
 62
7
  6
CONTINUOUS
 10
-134.6963262671
 20
-38.0225265701
 11
-134.5821926371
 21
-37.90839294
  0
LINE
  5
41A
100
AcDbEntity
  8
CURVE
100
AcDbLine
 62
7
  6
CONTINUOUS
 10
-133.879520895
 20
-37.2057211979
 11
-133.5072774537
 21
-36.8334777566
  0
LINE
  5
41B
100
AcDbEntity
  8
CURVE
100
AcDbLine
 62
7
  6
CONTINUOUS
 10
-132.931197697
 20
-36.257398
 11
-132.409404697
 21
-35.735605
  0
LINE
  5
41C
100
AcDbEntity
  8
CURVE
100
AcDbLine
 62
7
  6
CONTINUOUS
 10
-134.6963262671
 20
-38.2325372841
 11
-134.2916825043
 21
-37.8278935213
  0
LINE
  5
41D
100
AcDbEntity
  8
CURVE
100
AcDbLine
 62
7
  6
CONTINUOUS
 10
-133.7161598206
 20
-37.2523708375
 11
-133.3483753553
 21
-36.8845863723
  0
LINE
  5
41E
100
AcDbEntity
  8
CURVE
100
AcDbLine
 62
7
  6
CONTINUOUS
 10
-132.721186983
 20
-36.257398
 11
-132.199393983
 21
-35.735605
  0
LINE
  5
41F
100
AcDbEntity
  8
CURVE
100
AcDbLine
 62
7
  6
CONTINUOUS
 10
-134.6963262671
 20
-38.4425479981
 11
-134.0011723716
 21
-37.7473941026
  0
LINE
  5
420
100
AcDbEntity
  8
CURVE
100
AcDbLine
 62
7
  6
CONTINUOUS
 10
-133.5527987461
 20
-37.2990204771
 11
-133.1894732569
 21
-36.9356949879
  0
LINE
  5
421
100
AcDbEntity
  8
CURVE
100
AcDbLine
 62
7
  6
CONTINUOUS
 10
-132.511176269
 20
-36.257398
 11
-132.1981130387
 21
-35.9443347697
  0
LINE
  5
422
100
AcDbEntity
  8
CURVE
100
AcDbLine
 62
7
  6
CONTINUOUS
 10
-134.4829190827
 20
-38.4391515277
 11
-133.7106622388
 21
-37.6668946838
  0
LINE
  5
423
100
AcDbEntity
  8
CURVE
100
AcDbLine
 62
7
  6
CONTINUOUS
 10
-133.3894376717
 20
-37.3456701167
 11
-133.0305711585
 21
-36.9868036035
  0
LINE
  5
424
100
AcDbEntity
  8
CURVE
100
AcDbLine
 62
7
  6
CONTINUOUS
 10
-132.301165555
 20
-36.257398
 11
-132.1981130387
 21
-36.1543454837
  0
LINE
  5
425
100
AcDbEntity
  8
CURVE
100
AcDbLine
 62
7
  6
CONTINUOUS
 10
-134.1753405461
 20
-38.3415837051
 11
-133.420152106
 21
-37.5863952651
  0
LINE
  5
426
100
AcDbEntity
  8
CURVE
100
AcDbLine
 62
7
  6
CONTINUOUS
 10
-133.2260765973
 20
-37.3923197563
 11
-132.8716690601
 21
-37.0379122191
  0
LINE
  5
427
100
AcDbEntity
  8
CURVE
100
AcDbLine
 62
7
  6
CONTINUOUS
 10
-133.8677620096
 20
-38.2440158826
 11
-133.1296419733
 21
-37.5058958463
  0
LINE
  5
428
100
AcDbEntity
  8
CURVE
100
AcDbLine
 62
7
  6
CONTINUOUS
 10
-133.0627155229
 20
-37.4389693959
 11
-132.7127669617
 21
-37.0890208347
  0
LINE
  5
429
100
AcDbEntity
  8
CURVE
100
AcDbLine
 62
7
  6
CONTINUOUS
 10
-133.560183473
 20
-38.14644806
 11
-132.5538648633
 21
-37.1401294503
  0
LINE
  5
42A
100
AcDbEntity
  8
CURVE
100
AcDbLine
 62
7
  6
CONTINUOUS
 10
-133.2526049364
 20
-38.0488802375
 11
-132.3949627649
 21
-37.1912380659
  0
LINE
  5
42B
100
AcDbEntity
  8
CURVE
100
AcDbLine
 62
7
  6
CONTINUOUS
 10
-132.9450263998
 20
-37.9513124149
 11
-132.2360606665
 21
-37.2423466815
  0
LINE
  5
42C
100
AcDbEntity
  8
CURVE
100
AcDbLine
 62
7
  6
CONTINUOUS
 10
-132.6374478633
 20
-37.8537445923
 11
-132.1981130387
 21
-37.4144097678
  0
LINE
  5
42D
100
AcDbEntity
  8
CURVE
100
AcDbLine
 62
7
  6
CONTINUOUS
 10
-132.3298693267
 20
-37.7561767698
 11
-132.1981130387
 21
-37.6244204818
  0
LINE
  5
42E
100
AcDbEntity
  8
0
100
AcDbLine
 62
250
  6
CONTINUOUS
 10
-129.1653846948
 20
-26.9276792439
 11
-128.065865835
 21
-26.3440350289
  0
LINE
  5
42F
100
AcDbEntity
  8
0
100
AcDbLine
 62
250
  6
CONTINUOUS
 10
-127.6411080464
 20
-26.2536973817
 11
-127.1190161936
 21
-25.9765617175
  0
LINE
  5
430
100
AcDbEntity
  8
0
100
AcDbLine
 62
7
  6
CONTINUOUS
 10
-127.0911572786
 20
-26.0883643404
 11
-129.0911572831
 21
-27.1500000024
  0
LINE
  5
431
100
AcDbEntity
  8
0
100
AcDbLine
 62
7
  6
CONTINUOUS
 10
-127.0911572786
 20
25.4
 11
-129.0415291807
 21
25.2049628098
  0
LINE
  5
432
100
AcDbEntity
  8
0
100
AcDbLine
 62
7
  6
CONTINUOUS
 10
-130.0911572786
 20
25.7558198745
 11
-127.2806900873
 21
25.8799866677
  0
LINE
  5
433
100
AcDbEntity
  8
0
100
AcDbLine
 62
7
  6
CONTINUOUS
 10
-127.0911572786
 20
25.3523612067
 11
-127.6130939329
 21
25.3478063346
  0
LINE
  5
434
100
AcDbEntity
  8
0
100
AcDbLine
 62
7
  6
CONTINUOUS
 10
-130.0911572786
 20
25.05
 11
-129.9411572786
 21
25.05
  0
LINE
  5
435
100
AcDbEntity
  8
0
100
AcDbLine
 62
7
  6
CONTINUOUS
 10
-129.6411572786
 20
25.05
 11
-129.4411572786
 21
25.05
  0
LINE
  5
436
100
AcDbEntity
  8
0
100
AcDbLine
 62
7
  6
CONTINUOUS
 10
-130.0911572786
 20
25.2
 11
-129.1410328997
 21
25.2
  0
LINE
  5
437
100
AcDbEntity
  8
0
100
AcDbLine
 62
7
  6
CONTINUOUS
 10
-127.0911572786
 20
26.1523612067
 11
-127.2117200456
 21
26.1523612067
  0
LINE
  5
438
100
AcDbEntity
  8
0
100
AcDbLine
 62
250
  6
CONTINUOUS
 10
-129.1653846948
 20
26.9276792439
 11
-130.0911572786
 21
26.9280974384
  0
LINE
  5
439
100
AcDbEntity
  8
0
100
AcDbLine
 62
7
  6
CONTINUOUS
 10
-129.0911572786
 20
27.15
 11
-130.0911572786
 21
27.151745331
  0
LINE
  5
43A
100
AcDbEntity
  8
0
100
AcDbLine
 62
250
  6
CONTINUOUS
 10
-127.6411080464
 20
26.2536973817
 11
-130.0911572786
 21
26.2679513512
  0
LINE
  5
43B
100
AcDbEntity
  8
0
100
AcDbLine
 62
7
  6
CONTINUOUS
 10
-127.6411080464
 20
26.3415638603
 11
-130.0911572786
 21
26.3558178298
  0
LINE
  5
43C
100
AcDbEntity
  8
0
100
AcDbLine
 62
250
  6
CONTINUOUS
 10
-128.065865835
 20
26.3440350289
 11
-129.1653846948
 21
26.9276792439
  0
LINE
  5
43D
100
AcDbEntity
  8
0
100
AcDbLine
 62
250
  6
CONTINUOUS
 10
-127.1190161936
 20
25.9765617175
 11
-127.6411080464
 21
26.2536973817
  0
LINE
  5
43E
100
AcDbEntity
  8
0
100
AcDbLine
 62
7
  6
CONTINUOUS
 10
-127.0911572786
 20
26.0883643404
 11
-129.0911572822
 21
27.1500000019
  0
LINE
  5
43F
100
AcDbEntity
  8
SMUSSO
100
AcDbLine
 62
7
  6
CONTINUOUS
 10
-136.2417664516
 20
-43.8055596544
 11
-136.2567048208
 21
-43.8199854699
  0
LINE
  5
440
100
AcDbEntity
  8
ASSI
100
AcDbLine
 62
7
  6
CONTINUOUS
 10
-136.2417664516
 20
-43.8055596544
 11
-136.2567048208
 21
-43.8199854699
  0
LINE
  5
441
100
AcDbEntity
  8
CURVE
100
AcDbLine
 62
250
  6
CONTINUOUS
 10
-134.6963262671
 20
-31.54876
 11
-132.1981130387
 21
-30.781779
  0
LINE
  5
442
100
AcDbEntity
  8
SMUSSO
100
AcDbLine
 62
7
  6
CONTINUOUS
 10
-136.2567048208
 20
43.8199854699
 11
-136.2417664516
 21
43.8055596544
  0
LINE
  5
443
100
AcDbEntity
  8
ASSI
100
AcDbLine
 62
7
  6
CONTINUOUS
 10
-136.2567048208
 20
43.8199854699
 11
-136.2417664516
 21
43.8055596544
  0
LINE
  5
444
100
AcDbEntity
  8
CURVE
100
AcDbLine
 62
250
  6
CONTINUOUS
 10
-132.1981130387
 20
-34.230793
 11
-133.8293986979
 21
-34.842919
  0
LINE
  5
445
100
AcDbEntity
  8
CURVE
100
AcDbLine
 62
250
  6
CONTINUOUS
 10
-134.6963262671
 20
-34.707635
 11
-133.3093107145
 21
-34.191353
  0
LINE
  5
446
100
AcDbEntity
  8
CURVE
100
AcDbLine
 62
250
  6
CONTINUOUS
 10
-132.1981130387
 20
-37.714382
 11
-134.6963262671
 21
-38.506847
  0
LWPOLYLINE
  5
447
100
AcDbEntity
  8
0
100
AcDbPolyline
 62
7
  6
CONTINUOUS
 90
10
 70
0
 43
0.3500000006
 10
-122.3507035217
 20
56.2499987183
 10
-122.2792723389
 20
56.1071454163
 10
-122.2792723389
 20
56.0357142334
 10
-122.4221347046
 20
55.8928609314
 10
-122.4935568237
 20
55.8928609314
 10
-122.5649880066
 20
55.9642830505
 10
-122.5649880066
 20
56.0357142334
 10
-122.4935568237
 20
56.1785675354
 10
-122.4221347046
 20
56.2499987183
 10
-122.3507035217
 20
56.2499987183
  0
LINE
  5
448
100
AcDbEntity
  8
0
100
AcDbLine
 62
250
  6
CONTINUOUS
 10
-130.6911572786
 20
41.1619414324
 11
-130.0911572786
 21
41.2038975196
  0
LINE
  5
449
100
AcDbEntity
  8
0
100
AcDbLine
 62
7
  6
CONTINUOUS
 10
-130.6911572786
 20
42.7580439128
 11
-130.0911572786
 21
42.8
  0
LINE
  5
44A
100
AcDbEntity
  8
SMUSSO
100
AcDbLine
 62
7
  6
CONTINUOUS
 10
-136.2417664516
 20
43.8055596544
 11
-130.6911572786
 21
43.9993911979
  0
LINE
  5
44B
100
AcDbEntity
  8
ASSI
100
AcDbLine
 62
7
  6
CONTINUOUS
 10
-136.2417664516
 20
43.8055596544
 11
-130.6911572786
 21
43.9993911979
  0
LINE
  5
44C
100
AcDbEntity
  8
SMUSSO
100
AcDbLine
 62
7
  6
CONTINUOUS
 10
-136.2417664516
 20
44.8061684565
 11
-130.6911572786
 21
45.0
  0
LINE
  5
44D
100
AcDbEntity
  8
ASSI
100
AcDbLine
 62
7
  6
CONTINUOUS
 10
-136.2417664516
 20
44.8061684565
 11
-130.6911572786
 21
45.0
  0
LWPOLYLINE
  5
44E
100
AcDbEntity
  8
0
100
AcDbPolyline
 62
7
  6
CONTINUOUS
 90
8
 70
0
 43
0.3500000006
 10
-121.2792720337
 20
55.7499985657
 10
-120.4221340942
 20
55.7499985657
 10
-119.9935560608
 20
56.1785675354
 10
-119.9935560608
 20
57.0357145386
 10
-120.4221340942
 20
57.4642835083
 10
-121.2792720337
 20
57.4642835083
 10
-121.2792720337
 20
58.7499994812
 10
-119.9935560608
 20
58.7499994812
  0
LWPOLYLINE
  5
44F
100
AcDbEntity
  8
0
100
AcDbPolyline
 62
7
  6
CONTINUOUS
 90
8
 70
0
 43
0.3500000006
 10
-119.1364181213
 20
55.7499985657
 10
-118.2792711182
 20
55.7499985657
 10
-117.8507021484
 20
56.1785675354
 10
-117.8507021484
 20
57.0357145386
 10
-118.2792711182
 20
57.4642835083
 10
-119.1364181213
 20
57.4642835083
 10
-119.1364181213
 20
58.7499994812
 10
-117.8507021484
 20
58.7499994812
  0
LWPOLYLINE
  5
450
100
AcDbEntity
  8
0
100
AcDbPolyline
 62
7
  6
CONTINUOUS
 90
8
 70
0
 43
0.3500000006
 10
-117.988443512
 20
65.7500016174
 10
-117.1313055725
 20
65.7500016174
 10
-116.7027275391
 20
66.1785705872
 10
-116.7027275391
 20
67.0357175903
 10
-117.1313055725
 20
67.4642865601
 10
-117.988443512
 20
67.4642865601
 10
-117.988443512
 20
68.750002533
 10
-116.7027275391
 20
68.750002533
  0
LWPOLYLINE
  5
451
100
AcDbEntity
  8
0
100
AcDbPolyline
 62
7
  6
CONTINUOUS
 90
10
 70
0
 43
0.3500000006
 10
-120.7741599426
 20
66.25000177
 10
-120.7027287598
 20
66.1071394043
 10
-120.7027287598
 20
66.0357172852
 10
-120.8455911255
 20
65.8928549194
 10
-120.9170132446
 20
65.8928549194
 10
-120.9884444275
 20
65.9642861023
 10
-120.9884444275
 20
66.0357172852
 10
-120.9170132446
 20
66.1785705872
 10
-120.8455911255
 20
66.25000177
 10
-120.7741599426
 20
66.25000177
  0
ARC
  5
452
100
AcDbEntity
  8
CURVE
100
AcDbCircle
 62
250
  6
CONTINUOUS
 10
145.7422937965
 20
-29.8716892664
 40
39.8681074002
100
AcDbArc
 50
179.7782450658
 51
180.3657160807
  0
ARC
  5
453
100
AcDbEntity
  8
0
100
AcDbCircle
 62
250
  6
CONTINUOUS
 10
78.3995944371
 20
22.1495944371
 40
0.6994148936
100
AcDbArc
 50
359.9871362053
 51
90.0128637931
  0
ARC
  5
454
100
AcDbEntity
  8
0
100
AcDbCircle
 62
250
  6
CONTINUOUS
 10
-78.3995944372
 20
22.1495944372
 40
0.6994148936
100
AcDbArc
 50
89.9871362027
 51
180.0128637957
  0
ARC
  5
455
100
AcDbEntity
  8
ASSI
100
AcDbCircle
 62
250
  6
CONTINUOUS
 10
78.3995944371
 20
22.1495944371
 40
0.6994148936
100
AcDbArc
 50
359.9871362053
 51
90.0128637931
  0
ARC
  5
456
100
AcDbEntity
  8
ASSI
100
AcDbCircle
 62
250
  6
CONTINUOUS
 10
-78.3995944372
 20
22.1495944372
 40
0.6994148936
100
AcDbArc
 50
89.9871362027
 51
180.0128637957
  0
ARC
  5
457
100
AcDbEntity
  8
0
100
AcDbCircle
 62
250
  6
CONTINUOUS
 10
-78.3996084788
 20
-22.1496084788
 40
0.6993976222
100
AcDbArc
 50
179.9859856397
 51
270.0140143599
  0
ARC
  5
458
100
AcDbEntity
  8
0
100
AcDbCircle
 62
250
  6
CONTINUOUS
 10
78.3996084788
 20
-22.1496084788
 40
0.6993976222
100
AcDbArc
 50
269.9859856397
 51
0.0140143599
  0
ARC
  5
459
100
AcDbEntity
  8
ASSI
100
AcDbCircle
 62
250
  6
CONTINUOUS
 10
-78.3996084788
 20
-22.1496084788
 40
0.6993976222
100
AcDbArc
 50
179.9859856397
 51
270.0140143599
  0
ARC
  5
45A
100
AcDbEntity
  8
ASSI
100
AcDbCircle
 62
250
  6
CONTINUOUS
 10
78.3996084788
 20
-22.1496084788
 40
0.6993976222
100
AcDbArc
 50
269.9859856397
 51
0.0140143599
  0
ARC
  5
45B
100
AcDbEntity
  8
0
100
AcDbCircle
 62
250
  6
CONTINUOUS
 10
78.3998821339
 20
22.1498821339
 40
0.4992487207
100
AcDbArc
 50
359.9489616054
 51
90.0510383917
  0
ARC
  5
45C
100
AcDbEntity
  8
0
100
AcDbCircle
 62
250
  6
CONTINUOUS
 10
-78.3998821339
 20
22.1498821339
 40
0.4992487207
100
AcDbArc
 50
89.9489616037
 51
180.0510383934
  0
ARC
  5
45D
100
AcDbEntity
  8
ASSI
100
AcDbCircle
 62
250
  6
CONTINUOUS
 10
78.3998821339
 20
22.1498821339
 40
0.4992487207
100
AcDbArc
 50
359.9489616054
 51
90.0510383917
  0
ARC
  5
45E
100
AcDbEntity
  8
ASSI
100
AcDbCircle
 62
250
  6
CONTINUOUS
 10
-78.3998821339
 20
22.1498821339
 40
0.4992487207
100
AcDbArc
 50
89.9489616037
 51
180.0510383934
  0
ARC
  5
45F
100
AcDbEntity
  8
0
100
AcDbCircle
 62
250
  6
CONTINUOUS
 10
-78.3998821339
 20
-22.1498821339
 40
0.4992487203
100
AcDbArc
 50
179.948961605
 51
270.0510383921
  0
ARC
  5
460
100
AcDbEntity
  8
0
100
AcDbCircle
 62
250
  6
CONTINUOUS
 10
78.399882134
 20
-22.1498821339
 40
0.4992487202
100
AcDbArc
 50
269.9489615963
 51
0.0510384007
  0
ARC
  5
461
100
AcDbEntity
  8
ASSI
100
AcDbCircle
 62
250
  6
CONTINUOUS
 10
-78.3998821339
 20
-22.1498821339
 40
0.4992487203
100
AcDbArc
 50
179.948961605
 51
270.0510383921
  0
ARC
  5
462
100
AcDbEntity
  8
ASSI
100
AcDbCircle
 62
250
  6
CONTINUOUS
 10
78.399882134
 20
-22.1498821339
 40
0.4992487202
100
AcDbArc
 50
269.9489615963
 51
0.0510384007
  0
ARC
  5
463
100
AcDbEntity
  8
0
100
AcDbCircle
 62
7
  6
CONTINUOUS
 10
-129.1410328997
 20
-26.2
 40
1.0
100
AcDbArc
 50
84.2894068625
 51
90.0
  0
ARC
  5
464
100
AcDbEntity
  8
0
100
AcDbCircle
 62
7
  6
CONTINUOUS
 10
-129.1410328997
 20
26.2
 40
1.0
100
AcDbArc
 50
270.0
 51
275.7105931375
  0
ARC
  5
465
100
AcDbEntity
  8
0
100
AcDbCircle
 62
7
  6
CONTINUOUS
 10
-129.1658439537
 20
26.849999496
 40
0.3
100
AcDbArc
 50
62.0510481061
 51
89.9000000064
  0
ARC
  5
466
100
AcDbEntity
  8
0
100
AcDbCircle
 62
7
  6
CONTINUOUS
 10
-129.1658439537
 20
-26.849999496
 40
0.3
100
AcDbArc
 50
270.0999999936
 51
297.9489518939
  0
ARC
  5
467
100
AcDbEntity
  8
0
100
AcDbCircle
 62
7
  6
CONTINUOUS
 10
-127.6428533658
 20
26.0415689373
 40
0.3
100
AcDbArc
 50
62.0398404207
 51
89.6666666667
  0
ARC
  5
468
100
AcDbEntity
  8
0
100
AcDbCircle
 62
7
  6
CONTINUOUS
 10
-127.6428533658
 20
-26.0415689373
 40
0.3
100
AcDbArc
 50
270.3333333333
 51
297.9601595792
  0
SPLINE
  5
469
100
AcDbEntity
  8
CURVE
100
AcDbSpline
 62
250
  6
CONTINUOUS
 70
0
 71
3
 72
9
 73
5
 74
0
 42
0.0000001
 43
0.0000001
 44
0.0000000001
 40
0.0
 40
0.0
 40
0.0
 40
0.0
 40
0.5206208722
 40
1.0
 40
1.0
 40
1.0
 40
1.0
 10
105.885390512
 20
-29.4226356449
 30
0.0
 10
105.8891619261
 20
-29.4209681689
 30
0.0
 10
105.8974005432
 20
-29.4973108459
 30
0.0
 10
105.8988699409
 20
-29.728472706
 30
0.0
 10
105.8989474951
 20
-29.8279642095
 30
0.0
  0
SPLINE
  5
46A
100
AcDbEntity
  8
CURVE
100
AcDbSpline
 62
250
  6
CONTINUOUS
 70
0
 71
3
 72
9
 73
5
 74
0
 42
0.0000001
 43
0.0000001
 44
0.0000000001
 40
0.0
 40
0.0
 40
0.0
 40
0.0
 40
0.5013510385
 40
1.0
 40
1.0
 40
1.0
 40
1.0
 10
105.8744850009
 20
-29.7173859732
 30
0.0
 10
105.874794863
 20
-29.6409112471
 30
0.0
 10
105.8771452432
 20
-29.4862321801
 30
0.0
 10
105.8827184632
 20
-29.423833145
 30
0.0
 10
105.885390512
 20
-29.4226356449
 30
0.0
  0
SPLINE
  5
46B
100
AcDbEntity
  8
CURVE
100
AcDbSpline
 62
250
  6
CONTINUOUS
 70
0
 71
3
 72
9
 73
5
 74
0
 42
0.0000001
 43
0.0000001
 44
0.0000000001
 40
0.0
 40
0.0
 40
0.0
 40
0.0
 40
0.2957417834
 40
1.0
 40
1.0
 40
1.0
 40
1.0
 10
105.8620741759
 20
-29.3408501143
 30
0.0
 10
105.8605585951
 20
-29.4610542637
 30
0.0
 10
105.8580881081
 20
-29.8931154132
 30
0.0
 10
105.8596096759
 20
-30.3274429247
 30
0.0
 10
105.8611556794
 20
-30.6285551388
 30
0.0
  0
SPLINE
  5
46C
100
AcDbEntity
  8
CURVE
100
AcDbSpline
 62
250
  6
CONTINUOUS
 70
0
 71
3
 72
17
 73
13
 74
0
 42
0.0000001
 43
0.0000001
 44
0.0000000001
 40
0.0
 40
0.0
 40
0.0
 40
0.0
 40
0.0559780952
 40
0.1687540387
 40
0.321006234
 40
0.4122750837
 40
0.516613223
 40
0.6013931059
 40
0.6776022439
 40
0.8103422694
 40
0.9200404832
 40
1.0
 40
1.0
 40
1.0
 40
1.0
 10
105.9061378054
 20
-29.2870512436
 30
0.0
 10
105.9060080221
 20
-29.2582307418
 30
0.0
 10
105.9039944413
 20
-29.184972753
 30
0.0
 10
105.9001559947
 20
-29.0634829078
 30
0.0
 10
105.894247302
 20
-28.9740276278
 30
0.0
 10
105.8880831982
 20
-28.9341773505
 30
0.0
 10
105.8829671207
 20
-28.9304334968
 30
0.0
 10
105.8781887457
 20
-28.9501640226
 30
0.0
 10
105.8731113496
 20
-28.9979840427
 30
0.0
 10
105.8681353908
 20
-29.0877998266
 30
0.0
 10
105.8642440602
 20
-29.2146127248
 30
0.0
 10
105.862565765
 20
-29.301804483
 30
0.0
 10
105.8620741759
 20
-29.3408501143
 30
0.0
  0
SPLINE
  5
46D
100
AcDbEntity
  8
CURVE
100
AcDbSpline
 62
250
  6
CONTINUOUS
 70
0
 71
3
 72
9
 73
5
 74
0
 42
0.0000001
 43
0.0000001
 44
0.0000000001
 40
0.0
 40
0.0
 40
0.0
 40
0.0
 40
0.2426586216
 40
1.0
 40
1.0
 40
1.0
 40
1.0
 10
105.9237639114
 20
-28.9862836897
 30
0.0
 10
105.9221786227
 20
-28.9986586641
 30
0.0
 10
105.9157768408
 20
-29.0459291565
 30
0.0
 10
105.9085526835
 20
-29.1505648409
 30
0.0
 10
105.9066533149
 20
-29.2870512436
 30
0.0
  0
LINE
  5
46E
100
AcDbEntity
  8
CURVE
100
AcDbLine
 62
250
  6
CONTINUOUS
 10
105.9473759458
 20
-28.8079038802
 11
105.9237639114
 21
-28.9862836897
  0
SPLINE
  5
46F
100
AcDbEntity
  8
CURVE
100
AcDbSpline
 62
250
  6
CONTINUOUS
 70
0
 71
3
 72
9
 73
5
 74
0
 42
0.0000001
 43
0.0000001
 44
0.0000000001
 40
0.0
 40
0.0
 40
0.0
 40
0.0
 40
0.5586214172
 40
1.0
 40
1.0
 40
1.0
 40
1.0
 10
105.9209220674
 20
-29.5379751749
 30
0.0
 10
105.9257378197
 20
-29.486134558
 30
0.0
 10
105.9346552336
 20
-29.4179595379
 30
0.0
 10
105.9434695024
 20
-29.3419894791
 30
0.0
 10
105.9473759458
 20
-29.3098079785
 30
0.0
  0
SPLINE
  5
470
100
AcDbEntity
  8
CURVE
100
AcDbSpline
 62
250
  6
CONTINUOUS
 70
0
 71
3
 72
9
 73
5
 74
0
 42
0.0000001
 43
0.0000001
 44
0.0000000001
 40
0.0
 40
0.0
 40
0.0
 40
0.0
 40
0.3559141631
 40
1.0
 40
1.0
 40
1.0
 40
1.0
 10
105.9132352194
 20
-29.8290889245
 30
0.0
 10
105.9132352194
 20
-29.7836184402
 30
0.0
 10
105.9141961358
 20
-29.6528120506
 30
0.0
 10
105.9182334149
 20
-29.5668873007
 30
0.0
 10
105.9209220674
 20
-29.5379751749
 30
0.0
  0
SPLINE
  5
471
100
AcDbEntity
  8
CURVE
100
AcDbSpline
 62
250
  6
CONTINUOUS
 70
0
 71
3
 72
9
 73
5
 74
0
 42
0.0000001
 43
0.0000001
 44
0.0000000001
 40
0.0
 40
0.0
 40
0.0
 40
0.0
 40
0.5206208722
 40
1.0
 40
1.0
 40
1.0
 40
1.0
 10
-133.9731436045
 20
-29.4226356449
 30
0.0
 10
-133.8651444348
 20
-29.4209681689
 30
0.0
 10
-133.6292213113
 20
-29.4973108459
 30
0.0
 10
-133.5871432654
 20
-29.728472706
 30
0.0
 10
-133.5849224039
 20
-29.8279642095
 30
0.0
  0
SPLINE
  5
472
100
AcDbEntity
  8
CURVE
100
AcDbSpline
 62
250
  6
CONTINUOUS
 70
0
 71
3
 72
9
 73
5
 74
0
 42
0.0000001
 43
0.0000001
 44
0.0000000001
 40
0.0
 40
0.0
 40
0.0
 40
0.0
 40
0.5013510385
 40
1.0
 40
1.0
 40
1.0
 40
1.0
 10
-134.2854365839
 20
-29.7173859732
 30
0.0
 10
-134.2765632942
 20
-29.6409112471
 30
0.0
 10
-134.2092572121
 20
-29.4862321801
 30
0.0
 10
-134.0496610718
 20
-29.423833145
 30
0.0
 10
-133.9731436045
 20
-29.4226356449
 30
0.0
  0
SPLINE
  5
473
100
AcDbEntity
  8
CURVE
100
AcDbSpline
 62
250
  6
CONTINUOUS
 70
0
 71
3
 72
9
 73
5
 74
0
 42
0.0000001
 43
0.0000001
 44
0.0000000001
 40
0.0
 40
0.0
 40
0.0
 40
0.0
 40
0.2703953699
 40
1.0
 40
1.0
 40
1.0
 40
1.0
 10
-134.2707305258
 20
-30.126163664
 30
0.0
 10
-134.2769410576
 20
-30.0897447717
 30
0.0
 10
-134.2973670015
 20
-29.9546358143
 30
0.0
 10
-134.2969235774
 20
-29.8164101388
 30
0.0
 10
-134.2854365839
 20
-29.7173859732
 30
0.0
  0
SPLINE
  5
474
100
AcDbEntity
  8
CURVE
100
AcDbSpline
 62
250
  6
CONTINUOUS
 70
0
 71
3
 72
9
 73
5
 74
0
 42
0.0000001
 43
0.0000001
 44
0.0000000001
 40
0.0
 40
0.0
 40
0.0
 40
0.0
 40
0.2957417834
 40
1.0
 40
1.0
 40
1.0
 40
1.0
 10
-134.6408361108
 20
-29.3408501143
 30
0.0
 10
-134.6842366665
 20
-29.4610542637
 30
0.0
 10
-134.754982159
 20
-29.8931154132
 30
0.0
 10
-134.7114101594
 20
-30.3274429247
 30
0.0
 10
-134.667138411
 20
-30.6285551388
 30
0.0
  0
SPLINE
  5
475
100
AcDbEntity
  8
CURVE
100
AcDbSpline
 62
250
  6
CONTINUOUS
 70
0
 71
3
 72
17
 73
13
 74
0
 42
0.0000001
 43
0.0000001
 44
0.0000000001
 40
0.0
 40
0.0
 40
0.0
 40
0.0
 40
0.0559780952
 40
0.1687540387
 40
0.321006234
 40
0.4122750837
 40
0.516613223
 40
0.6013931059
 40
0.6776022439
 40
0.8103422694
 40
0.9200404832
 40
1.0
 40
1.0
 40
1.0
 40
1.0
 10
-133.3790188563
 20
-29.2870512436
 30
0.0
 10
-133.3827353654
 20
-29.2582307418
 30
0.0
 10
-133.4403967736
 20
-29.184972753
 30
0.0
 10
-133.5503155036
 20
-29.0634829078
 30
0.0
 10
-133.7195183228
 20
-28.9740276278
 30
0.0
 10
-133.8960351621
 20
-28.9341773505
 30
0.0
 10
-134.0425404541
 20
-28.9304334968
 30
0.0
 10
-134.1793752083
 20
-28.9501640226
 30
0.0
 10
-134.3247728091
 20
-28.9979840427
 30
0.0
 10
-134.4672656277
 20
-29.0877998266
 30
0.0
 10
-134.578698755
 20
-29.2146127248
 30
0.0
 10
-134.6267588421
 20
-29.301804483
 30
0.0
 10
-134.6408361108
 20
-29.3408501143
 30
0.0
  0
SPLINE
  5
476
100
AcDbEntity
  8
CURVE
100
AcDbSpline
 62
250
  6
CONTINUOUS
 70
0
 71
3
 72
9
 73
5
 74
0
 42
0.0000001
 43
0.0000001
 44
0.0000000001
 40
0.0
 40
0.0
 40
0.0
 40
0.0
 40
0.2426586216
 40
1.0
 40
1.0
 40
1.0
 40
1.0
 10
-132.8742732207
 20
-28.9862836897
 30
0.0
 10
-132.9196699486
 20
-28.9986586641
 30
0.0
 10
-133.102992999
 20
-29.0459291565
 30
0.0
 10
-133.3098657972
 20
-29.1505648409
 30
0.0
 10
-133.3642565967
 20
-29.2870512436
 30
0.0
  0
SPLINE
  5
477
100
AcDbEntity
  8
CURVE
100
AcDbSpline
 62
250
  6
CONTINUOUS
 70
0
 71
3
 72
9
 73
5
 74
0
 42
0.0000001
 43
0.0000001
 44
0.0000000001
 40
0.0
 40
0.0
 40
0.0
 40
0.0
 40
0.1980141723
 40
1.0
 40
1.0
 40
1.0
 40
1.0
 10
-132.1981130223
 20
-28.8079038802
 30
0.0
 10
-132.2426543377
 20
-28.8200085492
 30
0.0
 10
-132.4680999817
 20
-28.8792554798
 30
0.0
 10
-132.6939132192
 20
-28.9371156095
 30
0.0
 10
-132.8742732207
 20
-28.9862836897
 30
0.0
  0
SPLINE
  5
478
100
AcDbEntity
  8
CURVE
100
AcDbSpline
 62
250
  6
CONTINUOUS
 70
0
 71
3
 72
9
 73
5
 74
0
 42
0.0000001
 43
0.0000001
 44
0.0000000001
 40
0.0
 40
0.0
 40
0.0
 40
0.0
 40
0.5586214172
 40
1.0
 40
1.0
 40
1.0
 40
1.0
 10
-132.9556529869
 20
-29.5379751749
 30
0.0
 10
-132.8177478836
 20
-29.486134558
 30
0.0
 10
-132.5623865592
 20
-29.4179595379
 30
0.0
 10
-132.3099789258
 20
-29.3419894791
 30
0.0
 10
-132.1981130223
 20
-29.3098079785
 30
0.0
  0
SPLINE
  5
479
100
AcDbEntity
  8
CURVE
100
AcDbSpline
 62
250
  6
CONTINUOUS
 70
0
 71
3
 72
9
 73
5
 74
0
 42
0.0000001
 43
0.0000001
 44
0.0000000001
 40
0.0
 40
0.0
 40
0.0
 40
0.0
 40
0.3559141631
 40
1.0
 40
1.0
 40
1.0
 40
1.0
 10
-133.1757755129
 20
-29.8290889245
 30
0.0
 10
-133.1757755129
 20
-29.7836184402
 30
0.0
 10
-133.148258465
 20
-29.6528120506
 30
0.0
 10
-133.0326459193
 20
-29.5668873007
 30
0.0
 10
-132.9556529869
 20
-29.5379751749
 30
0.0
  0
SPLINE
  5
47A
100
AcDbEntity
  8
0
100
AcDbSpline
 62
250
  6
CONTINUOUS
 70
0
 71
3
 72
17
 73
13
 74
0
 42
0.0000001
 43
0.0000001
 44
0.0000000001
 40
0.0
 40
0.0
 40
0.0
 40
0.0
 40
0.2246664094
 40
0.4244159606
 40
0.5968698275
 40
0.740116107
 40
0.852966033
 40
0.9343261697
 40
0.9629605269
 40
0.9834868471
 40
0.9958490574
 40
1.0
 40
1.0
 40
1.0
 40
1.0
 10
-127.6411080464
 20
26.2536973817
 30
0.0
 10
-127.6410856209
 20
26.2602777389
 30
0.0
 10
-127.6410463677
 20
26.2727082659
 30
0.0
 10
-127.6409994148
 20
26.2901918491
 30
0.0
 10
-127.640974945
 20
26.3052846155
 30
0.0
 10
-127.6409535731
 20
26.3178494928
 30
0.0
 10
-127.6409880122
 20
26.3277000543
 30
0.0
 10
-127.6409499462
 20
26.3342971317
 30
0.0
 10
-127.6410570692
 20
26.3380251079
 30
0.0
 10
-127.6409498468
 20
26.3399838662
 30
0.0
 10
-127.6412035893
 20
26.3407901078
 30
0.0
 10
-127.6409864689
 20
26.341563153
 30
0.0
 10
-127.6411080464
 20
26.3415638603
 30
0.0
  0
SPLINE
  5
47B
100
AcDbEntity
  8
0
100
AcDbSpline
 62
250
  6
CONTINUOUS
 70
0
 71
3
 72
17
 73
13
 74
0
 42
0.0000001
 43
0.0000001
 44
0.0000000001
 40
0.0
 40
0.0
 40
0.0
 40
0.0
 40
0.0041509426
 40
0.0165131528
 40
0.0370394731
 40
0.0656738303
 40
0.147033967
 40
0.259883893
 40
0.4031301725
 40
0.5755840394
 40
0.7753335906
 40
1.0
 40
1.0
 40
1.0
 40
1.0
 10
-127.6411080464
 20
-26.3415638603
 30
0.0
 10
-127.6409864689
 20
-26.341563153
 30
0.0
 10
-127.6412035893
 20
-26.3407901078
 30
0.0
 10
-127.6409498468
 20
-26.3399838662
 30
0.0
 10
-127.6410570692
 20
-26.3380251079
 30
0.0
 10
-127.6409499462
 20
-26.3342971317
 30
0.0
 10
-127.6409880122
 20
-26.3277000543
 30
0.0
 10
-127.6409535731
 20
-26.3178494928
 30
0.0
 10
-127.640974945
 20
-26.3052846155
 30
0.0
 10
-127.6409994148
 20
-26.2901918491
 30
0.0
 10
-127.6410463677
 20
-26.2727082659
 30
0.0
 10
-127.6410856209
 20
-26.2602777389
 30
0.0
 10
-127.6411080464
 20
-26.2536973817
 30
0.0
  0
SPLINE
  5
47C
100
AcDbEntity
  8
0
100
AcDbSpline
 62
250
  6
CONTINUOUS
 70
0
 71
3
 72
11
 73
7
 74
0
 42
0.0000001
 43
0.0000001
 44
0.0000000001
 40
0.0
 40
0.0
 40
0.0
 40
0.0
 40
0.2014321738
 40
0.4266359866
 40
0.6906756219
 40
1.0
 40
1.0
 40
1.0
 40
1.0
 10
-127.5021961173
 20
-26.3065510847
 30
0.0
 10
-127.5084822772
 20
-26.3098878905
 30
0.0
 10
-127.5234143363
 20
-26.3141424784
 30
0.0
 10
-127.5480984399
 20
-26.3120219326
 30
0.0
 10
-127.5748525171
 20
-26.3024012404
 30
0.0
 10
-127.5924018892
 20
-26.2920863493
 30
0.0
 10
-127.6014480874
 20
-26.2859539305
 30
0.0
  0
SPLINE
  5
47D
100
AcDbEntity
  8
0
100
AcDbSpline
 62
250
  6
CONTINUOUS
 70
0
 71
3
 72
9
 73
5
 74
0
 42
0.0000001
 43
0.0000001
 44
0.0000000001
 40
0.0
 40
0.0
 40
0.0
 40
0.0
 40
0.2353527687
 40
1.0
 40
1.0
 40
1.0
 40
1.0
 10
-127.6014480874
 20
-26.2859539305
 30
0.0
 10
-127.6047698105
 20
-26.2837021341
 30
0.0
 10
-127.6186491701
 20
-26.2737893314
 30
0.0
 10
-127.6316328318
 20
-26.262653526
 30
0.0
 10
-127.6411080464
 20
-26.2536973817
 30
0.0
  0
SPLINE
  5
47E
100
AcDbEntity
  8
0
100
AcDbSpline
 62
250
  6
CONTINUOUS
 70
0
 71
3
 72
11
 73
7
 74
0
 42
0.0000001
 43
0.0000001
 44
0.0000000001
 40
0.0
 40
0.0
 40
0.0
 40
0.0
 40
0.2014145836
 40
0.4266117871
 40
0.6906580235
 40
1.0
 40
1.0
 40
1.0
 40
1.0
 10
-127.5021961173
 20
26.3065510847
 30
0.0
 10
-127.5084843558
 20
26.3098889938
 30
0.0
 10
-127.5234223989
 20
26.3141440053
 30
0.0
 10
-127.5481159635
 20
26.3120186659
 30
0.0
 10
-127.5748800233
 20
26.3023887163
 30
0.0
 10
-127.5924355782
 20
26.2920658806
 30
0.0
 10
-127.6014849721
 20
26.2859289261
 30
0.0
  0
SPLINE
  5
47F
100
AcDbEntity
  8
0
100
AcDbSpline
 62
250
  6
CONTINUOUS
 70
0
 71
3
 72
9
 73
5
 74
0
 42
0.0000001
 43
0.0000001
 44
0.0000000001
 40
0.0
 40
0.0
 40
0.0
 40
0.0
 40
0.2353685722
 40
1.0
 40
1.0
 40
1.0
 40
1.0
 10
-127.6014849721
 20
26.2859289261
 30
0.0
 10
-127.6048036253
 20
26.2836783418
 30
0.0
 10
-127.6186694469
 20
26.2737721314
 30
0.0
 10
-127.6316412686
 20
26.2626455513
 30
0.0
 10
-127.6411080464
 20
26.2536973817
 30
0.0
  0
SPLINE
  5
480
100
AcDbEntity
  8
0
100
AcDbSpline
 62
250
  6
CONTINUOUS
 70
0
 71
3
 72
13
 73
9
 74
0
 42
0.0000001
 43
0.0000001
 44
0.0000000001
 40
0.0
 40
0.0
 40
0.0
 40
0.0
 40
0.3881240291
 40
0.7026016499
 40
0.8214414741
 40
0.9105805287
 40
0.9688041662
 40
1.0
 40
1.0
 40
1.0
 40
1.0
 10
-129.1653846948
 20
26.9276792439
 30
0.0
 10
-129.1501854272
 20
26.9543913677
 30
0.0
 10
-129.1216812077
 20
27.002160878
 30
0.0
 10
-129.085450999
 20
27.056344664
 30
0.0
 10
-129.0601729178
 20
27.0889864336
 30
0.0
 10
-129.0455384837
 20
27.1045162176
 30
0.0
 10
-129.0353494548
 20
27.1136575779
 30
0.0
 10
-129.0274308327
 20
27.1161779614
 30
0.0
 10
-129.0252510449
 20
27.1150157961
 30
0.0
  0
SPLINE
  5
481
100
AcDbEntity
  8
0
100
AcDbSpline
 62
7
  6
CONTINUOUS
 70
0
 71
3
 72
9
 73
5
 74
0
 42
0.0000001
 43
0.0000001
 44
0.0000000001
 40
0.0
 40
0.0
 40
0.0
 40
0.0
 40
0.4298695462
 40
1.0
 40
1.0
 40
1.0
 40
1.0
 10
-127.0911572786
 20
26.0463167932
 30
0.0
 10
-127.0911572786
 20
26.0354716026
 30
0.0
 10
-127.0990668103
 20
26.0106367596
 30
0.0
 10
-127.1116668553
 20
25.9889262632
 30
0.0
 10
-127.1190161936
 20
25.9765617175
 30
0.0
  0
SPLINE
  5
482
100
AcDbEntity
  8
0
100
AcDbSpline
 62
250
  6
CONTINUOUS
 70
0
 71
3
 72
9
 73
5
 74
0
 42
0.0000001
 43
0.0000001
 44
0.0000000001
 40
0.0
 40
0.0
 40
0.0
 40
0.0
 40
0.5657561746
 40
1.0
 40
1.0
 40
1.0
 40
1.0
 10
-129.1653846948
 20
-26.9276792439
 30
0.0
 10
-129.1483174258
 20
-26.9576876461
 30
0.0
 10
-129.1169007089
 20
-27.009998811
 30
0.0
 10
-129.0825337629
 20
-27.0605709104
 30
0.0
 10
-129.0659952556
 20
-27.0812734836
 30
0.0
  0
SPLINE
  5
483
100
AcDbEntity
  8
0
100
AcDbSpline
 62
250
  6
CONTINUOUS
 70
0
 71
3
 72
10
 73
6
 74
0
 42
0.0000001
 43
0.0000001
 44
0.0000000001
 40
0.0
 40
0.0
 40
0.0
 40
0.0
 40
0.6908173716
 40
0.8869402412
 40
1.0
 40
1.0
 40
1.0
 40
1.0
 10
-129.0659952556
 20
-27.0812734836
 30
0.0
 10
-129.0581568999
 20
-27.0910853808
 30
0.0
 10
-129.0474302881
 20
-27.1035273398
 30
0.0
 10
-129.0333599485
 20
-27.1146519514
 30
0.0
 10
-129.0270683928
 20
-27.1159757823
 30
0.0
 10
-129.0252510449
 20
-27.1150157961
 30
0.0
  0
SPLINE
  5
484
100
AcDbEntity
  8
0
100
AcDbSpline
 62
7
  6
CONTINUOUS
 70
0
 71
3
 72
9
 73
5
 74
0
 42
0.0000001
 43
0.0000001
 44
0.0000000001
 40
0.0
 40
0.0
 40
0.0
 40
0.0
 40
0.5701305514
 40
1.0
 40
1.0
 40
1.0
 40
1.0
 10
-127.1190161936
 20
-25.9765617175
 30
0.0
 10
-127.111666854
 20
-25.9889262653
 30
0.0
 10
-127.0990668084
 20
-26.0106367616
 30
0.0
 10
-127.0911572786
 20
-26.035471605
 30
0.0
 10
-127.0911572786
 20
-26.0463167932
 30
0.0
  0
ELLIPSE
  5
485
100
AcDbEntity
  8
RACCORDO
100
AcDbEllipse
 62
7
  6
CONTINUOUS
 10
-78.3496952279
 20
-22.0996952279
 30
0.0
 11
-0.3539842723
 21
-0.3539842723
 31
0.0
 40
0.998782766
 41
-0.7847891758
 42
0.7847891758
  0
ELLIPSE
  5
486
100
AcDbEntity
  8
RACCORDO
100
AcDbEllipse
 62
7
  6
CONTINUOUS
 10
78.3496952279
 20
-22.0996952279
 30
0.0
 11
0.3539842723
 21
-0.3539842723
 31
0.0
 40
0.998782766
 41
-0.7847891758
 42
0.7847891758
  0
ELLIPSE
  5
487
100
AcDbEntity
  8
RACCORDO
100
AcDbEllipse
 62
7
  6
CONTINUOUS
 10
78.3496952279
 20
22.0996952279
 30
0.0
 11
0.3539842723
 21
0.3539842723
 31
0.0
 40
0.998782766
 41
-0.7847891758
 42
0.7847891758
  0
ELLIPSE
  5
488
100
AcDbEntity
  8
RACCORDO
100
AcDbEllipse
 62
7
  6
CONTINUOUS
 10
-78.3496952279
 20
22.0996952279
 30
0.0
 11
-0.3539842723
 21
0.3539842723
 31
0.0
 40
0.998782766
 41
-0.7847891758
 42
0.7847891758
  0
ELLIPSE
  5
489
100
AcDbEntity
  8
ASSI
100
AcDbEllipse
 62
7
  6
CONTINUOUS
 10
-78.3496952279
 20
-22.0996952279
 30
0.0
 11
-0.3539842723
 21
-0.3539842723
 31
0.0
 40
0.998782766
 41
-0.7847891758
 42
0.7847891758
  0
ELLIPSE
  5
48A
100
AcDbEntity
  8
ASSI
100
AcDbEllipse
 62
7
  6
CONTINUOUS
 10
78.3496952279
 20
-22.0996952279
 30
0.0
 11
0.3539842723
 21
-0.3539842723
 31
0.0
 40
0.998782766
 41
-0.7847891758
 42
0.7847891758
  0
ELLIPSE
  5
48B
100
AcDbEntity
  8
ASSI
100
AcDbEllipse
 62
7
  6
CONTINUOUS
 10
78.3496952279
 20
22.0996952279
 30
0.0
 11
0.3539842723
 21
0.3539842723
 31
0.0
 40
0.998782766
 41
-0.7847891758
 42
0.7847891758
  0
ELLIPSE
  5
48C
100
AcDbEntity
  8
ASSI
100
AcDbEllipse
 62
7
  6
CONTINUOUS
 10
-78.3496952279
 20
22.0996952279
 30
0.0
 11
-0.3539842723
 21
0.3539842723
 31
0.0
 40
0.998782766
 41
-0.7847891758
 42
0.7847891758
  0
ELLIPSE
  5
48D
100
AcDbEntity
  8
0
100
AcDbEllipse
 62
7
  6
CONTINUOUS
 10
-127.2911572786
 20
26.079798695
 30
0.0
 11
-0.1417119467
 21
0.1422961243
 31
0.0
 40
0.9918061237
 41
-3.8766878413
 42
-2.8923940429
  0
ELLIPSE
  5
48E
100
AcDbEntity
  8
0
100
AcDbEllipse
 62
7
  6
CONTINUOUS
 10
-127.2911572786
 20
-26.079798695
 30
0.0
 11
0.1417119467
 21
0.1422961243
 31
0.0
 40
0.9918061237
 41
-0.2491986107
 42
0.7350951877
  0
ENDSEC
  0
SECTION
  2
OBJECTS
  0
DICTIONARY
  5
C
100
AcDbDictionary
280
0
281
1
  3
ACAD_GROUP
350
D
  3
ACAD_MLINESTYLE
350
17
  3
ACAD_LAYOUT
350
1A
  3
ACAD_PLOTSETTINGS
350
19
  3
ACAD_PLOTSTYLENAME
350
E
  0
DICTIONARY
  5
D
102
{ACAD_REACTORS
330
C
102
}
100
AcDbDictionary
280
0
281
1
  0
ACDBDICTIONARYWDFLT
  5
E
102
{ACAD_REACTORS
330
C
102
}
100
AcDbDictionary
281
1
  3
Normal
350
F
100
AcDbDictionaryWithDefault
340
F
  0
DICTIONARY
  5
17
102
{ACAD_REACTORS
330
C
102
}
100
AcDbDictionary
280
0
281
1
  3
Standard
350
18
  0
DICTIONARY
  5
19
102
{ACAD_REACTORS
330
C
102
}
100
AcDbDictionary
281
1
  0
DICTIONARY
  5
1A
102
{ACAD_REACTORS
330
C
102
}
100
AcDbDictionary
281
1
  3
Model
350
48F
  3
Layout1
350
490
  0
ACDBPLACEHOLDER
  5
F
102
{ACAD_REACTORS
330
E
102
}
  0
MLINESTYLE
  5
18
102
{ACAD_REACTORS
330
17
102
}
100
AcDbMlineStyle
  2
STANDARD
 70
0
  3

 62
256
 51
90.0
 52
90.0
 71
2
 49
0.5
 62
256
  6
BYLAYER
 49
-0.5
 62
256
  6
BYLAYER
  0
LAYOUT
  5
48F
102
{ACAD_REACTORS
330
1A
102
}
100
AcDbPlotSettings
  1

  2
none_device
  4
ISO_A4_(297.00_x_210.00_MM)
  6

 40
0.0
 41
0.0
 42
0.0
 43
0.0
 44
297.0
 45
210.0
 46
0.0
 47
0.0
 48
0.0
 49
0.0
140
0.0
141
0.0
142
1.0
143
1.0
 70
1024
 72
1
 73
0
 74
0
  7

 75
0
147
1.0
148
0.0
149
0.0
100
AcDbLayout
  1
Model
 70
0
 71
0
 10
0.0
 20
0.0
 11
297.0
 21
210.0
 12
0.0
 22
0.0
 32
0.0
 14
0.0
 24
0.0
 34
0.0
 15
0.0
 25
0.0
 35
0.0
146
0.0
 13
0.0
 23
0.0
 33
0.0
 16
1.0
 26
0.0
 36
0.0
 17
0.0
 27
1.0
 37
0.0
 76
0
330
21B
345
0
346
0
  0
LAYOUT
  5
490
102
{ACAD_REACTORS
330
1A
102
}
100
AcDbPlotSettings
  1

  2
none_device
  4
ISO_A4_(297.00_x_210.00_MM)
  6

 40
0.0
 41
0.0
 42
0.0
 43
0.0
 44
297.0
 45
210.0
 46
0.0
 47
0.0
 48
0.0
 49
0.0
140
0.0
141
0.0
142
1.0
143
1.0
 70
0
 72
1
 73
0
 74
0
  7

 75
0
147
1.0
148
0.0
149
0.0
100
AcDbLayout
  1
Layout1
 70
0
 71
1
 10
0.0
 20
0.0
 11
297.0
 21
210.0
 12
0.0
 22
0.0
 32
0.0
 14
0.0
 24
0.0
 34
0.0
 15
0.0
 25
0.0
 35
0.0
146
0.0
 13
0.0
 23
0.0
 33
0.0
 16
1.0
 26
0.0
 36
0.0
 17
0.0
 27
1.0
 37
0.0
 76
0
330
21C
345
0
346
0
  0
ENDSEC
  0
EOF
