  0
SECTION
  2
HEADER
  9
$ACADVER
  1
AC1024
  9
$DWGCODEPAGE
  3
ANSI_1252
  9
$EXTMAX
 10
297.0
 20
210.0
 30
0.0
  9
$EXTMIN
 10
0.0
 20
0.0
 30
0.0
  9
$LIMMIN
 10
0.0
 20
0.0
  9
$LIMMAX
 10
297.0
 20
210.0
  9
$VIEWCTR
 10
148.5
 20
105.0
  9
$VIEWSIZE
 40
210.0
  9
$CLAYER
  8
0
  9
$LTSCALE
 40
16.335
  9
$CELTYPE
  6
BYLAYER
  9
$DIMSCALE
 40
1.0
  9
$DIMASZ
 40
3.0
  9
$DIMEXO
 40
0.5
  9
$DIMDLI
 40
11.286
  9
$DIMEXE
 40
1.5
  9
$DIMCEN
 40
2.673
  9
$DIMLFAC
 40
1.0
  9
$DIMBLK
  1
_FILLED
  9
$DIMALT
 70
0
  9
$DIMALTF
 40
0.0393700787
  9
$DIMTXT
 40
3.0
  9
$DIMTOL
 70
1
  9
$DIMLIM
 70
0
  9
$DIMTFAC
 40
1.0
  9
$DIMTP
 40
0.01
  9
$DIMTM
 40
0.01
  9
$DIMGAP
 40
0.625
  9
$DIMDSEP
 70
44
  9
$AUNITS
 70
0
  9
$PDMODE
 70
3
  9
$PDSIZE
 40
3.0
  9
$HANDSEED
  5
365
  9
$TILEMODE
 70
1
  9
$MEASUREMENT
 70
1
  9
$INSUNITS
 70
4
  0
ENDSEC
  0
SECTION
  2
CLASSES
  0
CLASS
  1
ACDBDICTIONARYWDFLT
  2
AcDbDictionaryWithDefault
  3
AutoCAD 2000
 90
0
 91
1
280
0
281
0
  0
CLASS
  1
ACDBPLACEHOLDER
  2
AcDbPlaceHolder
  3
AutoCAD 2000
 90
0
 91
1
280
0
281
0
  0
CLASS
  1
LAYOUT
  2
AcDbLayout
  3
AutoCAD 2000
 90
0
 91
0
280
0
281
0
  0
ENDSEC
  0
SECTION
  2
TABLES
  0
TABLE
  2
VPORT
  5
8
100
AcDbSymbolTable
 70
2
  0
VPORT
  5
1F4
100
AcDbSymbolTableRecord
100
AcDbViewportTableRecord
  2
*ACTIVE
 70
0
 10
0.0
 20
0.0
 11
1.0
 21
1.0
 12
148.5
 22
105.0
 13
0.0
 23
0.0
 14
1.0
 24
1.0
 15
0.0
 25
0.0
 16
0.0
 26
0.0
 36
1.0
 17
0.0
 27
0.0
 37
0.0
 40
210.0
 41
1.4142857143
 42
50.0
 43
0.0
 44
0.0
 50
0.0
 51
0.0
 71
0
 72
100
 73
1
 74
1
 75
0
 76
0
 77
0
 78
0
  0
ENDTAB
  0
TABLE
  2
LTYPE
  5
5
100
AcDbSymbolTable
 70
6
  0
LTYPE
  5
14
100
AcDbSymbolTableRecord
100
AcDbLinetypeTableRecord
  2
BYBLOCK
 70
0
  3

 72
65
 73
0
 40
0.0
  0
LTYPE
  5
15
100
AcDbSymbolTableRecord
100
AcDbLinetypeTableRecord
  2
BYLAYER
 70
0
  3

 72
65
 73
0
 40
0.0
  0
LTYPE
  5
16
100
AcDbSymbolTableRecord
100
AcDbLinetypeTableRecord
  2
CONTINUOUS
 70
64
  3
Solid line
 72
65
 73
0
 40
0.0
  0
LTYPE
  5
1F5
100
AcDbSymbolTableRecord
100
AcDbLinetypeTableRecord
  2
CENTER
 70
64
  3
____ _ ____ _ ____ _ ____ _ ____ _ ____ _ ____
 72
65
 73
4
 40
0.6
 49
0.375
 74
0
 49
-0.075
 74
0
 49
0.075
 74
0
 49
-0.075
 74
0
  0
LTYPE
  5
1F6
100
AcDbSymbolTableRecord
100
AcDbLinetypeTableRecord
  2
HIDDEN
 70
64
  3
- - - - - - - - - - - - - - - - - - - -
 72
65
 73
2
 40
0.2
 49
0.1
 74
0
 49
-0.1
 74
0
  0
LTYPE
  5
1F7
100
AcDbSymbolTableRecord
100
AcDbLinetypeTableRecord
  2
PHANTOM
 70
64
  3
_____ _ _ _____ _ _ _____ _ _ _____
 72
65
 73
6
 40
0.8
 49
0.45
 74
0
 49
-0.05
 74
0
 49
0.1
 74
0
 49
-0.05
 74
0
 49
0.1
 74
0
 49
-0.05
 74
0
  0
LTYPE
  5
1F8
100
AcDbSymbolTableRecord
100
AcDbLinetypeTableRecord
  2
DOT
 70
64
  3
. . . . . . . . . . . . . . . . . . . .
 72
65
 73
2
 40
0.2
 49
0.1
 74
0
 49
-0.1
 74
0
  0
LTYPE
  5
1F9
100
AcDbSymbolTableRecord
100
AcDbLinetypeTableRecord
  2
DASHED
 70
64
  3
- - - - - - - - - - - - - - - - - - - -
 72
65
 73
2
 40
0.2
 49
0.1
 74
0
 49
-0.1
 74
0
  0
ENDTAB
  0
TABLE
  2
LAYER
  5
2
100
AcDbSymbolTable
 70
36
  0
LAYER
  5
10
100
AcDbSymbolTableRecord
100
AcDbLayerTableRecord
  2
0
 70
0
 62
7
  6
CONTINUOUS
370
-3
390
F
  0
LAYER
  5
1FA
100
AcDbSymbolTableRecord
100
AcDbLayerTableRecord
  2
DEFAULT_1
 70
0
 62
7
  6
CENTER
370
-3
390
F
  0
LAYER
  5
1FB
100
AcDbSymbolTableRecord
100
AcDbLayerTableRecord
  2
DEFAULT_2
 70
0
 62
7
  6
HIDDEN
370
-3
390
F
  0
LAYER
  5
1FC
100
AcDbSymbolTableRecord
100
AcDbLayerTableRecord
  2
DEFAULT_3
 70
0
 62
7
  6
PHANTOM
370
-3
390
F
  0
LAYER
  5
1FD
100
AcDbSymbolTableRecord
100
AcDbLayerTableRecord
  2
ASSI
 70
0
 62
7
  6
CONTINUOUS
370
-3
390
F
  0
LAYER
  5
1FE
100
AcDbSymbolTableRecord
100
AcDbLayerTableRecord
  2
COORDINATE
 70
0
 62
7
  6
CONTINUOUS
370
-3
390
F
  0
LAYER
  5
1FF
100
AcDbSymbolTableRecord
100
AcDbLayerTableRecord
  2
COORD_ORIGINE
 70
0
 62
7
  6
CONTINUOUS
370
-3
390
F
  0
LAYER
  5
200
100
AcDbSymbolTableRecord
100
AcDbLayerTableRecord
  2
COPY_PUBLISH
 70
0
 62
7
  6
CONTINUOUS
370
-3
390
F
  0
LAYER
  5
201
100
AcDbSymbolTableRecord
100
AcDbLayerTableRecord
  2
COSMETIC
 70
0
 62
7
  6
CONTINUOUS
370
-3
390
F
  0
LAYER
  5
202
100
AcDbSymbolTableRecord
100
AcDbLayerTableRecord
  2
COSMETICI
 70
0
 62
7
  6
CONTINUOUS
370
-3
390
F
  0
LAYER
  5
203
100
AcDbSymbolTableRecord
100
AcDbLayerTableRecord
  2
CURVE
 70
0
 62
7
  6
CONTINUOUS
370
-3
390
F
  0
LAYER
  5
204
100
AcDbSymbolTableRecord
100
AcDbLayerTableRecord
  2
CURVE_TASSELLI
 70
0
 62
7
  6
CONTINUOUS
370
-3
390
F
  0
LAYER
  5
205
100
AcDbSymbolTableRecord
100
AcDbLayerTableRecord
  2
DRAFT
 70
0
 62
7
  6
CONTINUOUS
370
-3
390
F
  0
LAYER
  5
206
100
AcDbSymbolTableRecord
100
AcDbLayerTableRecord
  2
IMPORT_IGES
 70
0
 62
7
  6
CONTINUOUS
370
-3
390
F
  0
LAYER
  5
207
100
AcDbSymbolTableRecord
100
AcDbLayerTableRecord
  2
INTFCLR_2
 70
0
 62
7
  6
CONTINUOUS
370
-3
390
F
  0
LAYER
  5
208
100
AcDbSymbolTableRecord
100
AcDbLayerTableRecord
  2
INTF_1
 70
0
 62
7
  6
CONTINUOUS
370
-3
390
F
  0
LAYER
  5
209
100
AcDbSymbolTableRecord
100
AcDbLayerTableRecord
  2
INTF_21
 70
0
 62
7
  6
CONTINUOUS
370
-3
390
F
  0
LAYER
  5
20A
100
AcDbSymbolTableRecord
100
AcDbLayerTableRecord
  2
INTF_7
 70
0
 62
7
  6
CONTINUOUS
370
-3
390
F
  0
LAYER
  5
20B
100
AcDbSymbolTableRecord
100
AcDbLayerTableRecord
  2
NOTE
 70
0
 62
7
  6
CONTINUOUS
370
-3
390
F
  0
LAYER
  5
20C
100
AcDbSymbolTableRecord
100
AcDbLayerTableRecord
  2
PIANI
 70
0
 62
7
  6
CONTINUOUS
370
-3
390
F
  0
LAYER
  5
20D
100
AcDbSymbolTableRecord
100
AcDbLayerTableRecord
  2
PIANI_ORIGINE
 70
0
 62
7
  6
CONTINUOUS
370
-3
390
F
  0
LAYER
  5
20E
100
AcDbSymbolTableRecord
100
AcDbLayerTableRecord
  2
PIANI_RIFERIMENTO
 70
0
 62
7
  6
CONTINUOUS
370
-3
390
F
  0
LAYER
  5
20F
100
AcDbSymbolTableRecord
100
AcDbLayerTableRecord
  2
PUNTI
 70
0
 62
7
  6
CONTINUOUS
370
-3
390
F
  0
LAYER
  5
210
100
AcDbSymbolTableRecord
100
AcDbLayerTableRecord
  2
RACCORDO
 70
0
 62
7
  6
CONTINUOUS
370
-3
390
F
  0
LAYER
  5
211
100
AcDbSymbolTableRecord
100
AcDbLayerTableRecord
  2
RGB__255__255__255__
 70
0
 62
7
  6
CONTINUOUS
370
-3
390
F
  0
LAYER
  5
212
100
AcDbSymbolTableRecord
100
AcDbLayerTableRecord
  2
RGB____0____0____0__
 70
0
 62
7
  6
CONTINUOUS
370
-3
390
F
  0
LAYER
  5
213
100
AcDbSymbolTableRecord
100
AcDbLayerTableRecord
  2
SIMBOLI
 70
0
 62
7
  6
CONTINUOUS
370
-3
390
F
  0
LAYER
  5
214
100
AcDbSymbolTableRecord
100
AcDbLayerTableRecord
  2
SMUSSO
 70
0
 62
7
  6
CONTINUOUS
370
-3
390
F
  0
LAYER
  5
215
100
AcDbSymbolTableRecord
100
AcDbLayerTableRecord
  2
SNAPLINE
 70
0
 62
7
  6
CONTINUOUS
370
-3
390
F
  0
LAYER
  5
216
100
AcDbSymbolTableRecord
100
AcDbLayerTableRecord
  2
SUPERFICI
 70
0
 62
7
  6
CONTINUOUS
370
-3
390
F
  0
LAYER
  5
217
100
AcDbSymbolTableRecord
100
AcDbLayerTableRecord
  2
TRASH
 70
0
 62
7
  6
CONTINUOUS
370
-3
390
F
  0
LAYER
  5
218
100
AcDbSymbolTableRecord
100
AcDbLayerTableRecord
  2
XSEC_DATUMS
 70
0
 62
7
  6
CONTINUOUS
370
-3
390
F
  0
ENDTAB
  0
TABLE
  2
STYLE
  5
3
100
AcDbSymbolTable
 70
1
  0
STYLE
  5
11
100
AcDbSymbolTableRecord
100
AcDbTextStyleTableRecord
  2
STANDARD
 70
0
 40
0.0
 41
0.8
 50
0.0
 71
0
 42
0.2
  3
txt
  4

  0
STYLE
  5
219
100
AcDbSymbolTableRecord
100
AcDbTextStyleTableRecord
  2
TEXTSTYLE_1
 70
0
 40
0.0
 41
0.8
 50
0.0
 71
0
 42
0.2
  3
gdt
  4

  0
ENDTAB
  0
TABLE
  2
VIEW
  5
6
100
AcDbSymbolTable
 70
0
  0
ENDTAB
  0
TABLE
  2
UCS
  5
7
100
AcDbSymbolTable
 70
0
  0
ENDTAB
  0
TABLE
  2
APPID
  5
9
100
AcDbSymbolTable
 70
1
  0
APPID
  5
21A
100
AcDbSymbolTableRecord
100
AcDbRegAppTableRecord
  2
ACAD
 70
0
  0
ENDTAB
  0
TABLE
  2
BLOCK_RECORD
  5
1
100
AcDbSymbolTable
 70
0
  0
BLOCK_RECORD
  5
21B
100
AcDbSymbolTableRecord
100
AcDbBlockTableRecord
  2
*Model_Space
  0
BLOCK_RECORD
  5
21C
100
AcDbSymbolTableRecord
100
AcDbBlockTableRecord
  2
*Paper_Space
  0
BLOCK_RECORD
  5
21D
100
AcDbSymbolTableRecord
100
AcDbBlockTableRecord
  2
_FILLED
  0
BLOCK_RECORD
  5
21E
100
AcDbSymbolTableRecord
100
AcDbBlockTableRecord
  2
*D0
  0
BLOCK_RECORD
  5
21F
100
AcDbSymbolTableRecord
100
AcDbBlockTableRecord
  2
*D1
  0
BLOCK_RECORD
  5
220
100
AcDbSymbolTableRecord
100
AcDbBlockTableRecord
  2
*D2
  0
BLOCK_RECORD
  5
221
100
AcDbSymbolTableRecord
100
AcDbBlockTableRecord
  2
*D3
  0
ENDTAB
  0
TABLE
  2
DIMSTYLE
  5
A
100
AcDbSymbolTable
 70
1
100
AcDbDimStyleTable
 71
0
  0
DIMSTYLE
105
222
100
AcDbSymbolTableRecord
100
AcDbDimStyleTableRecord
  2
STANDARD
 70
0
  3

  4

 40
1.0
 41
3.0
 42
0.5
 43
0.38
 44
1.5
 45
0.0
 46
0.0
 47
0.01
 48
0.01
140
3.0
141
0.09
142
0.0
143
25.4
144
1.0
145
0.0
146
1.0
147
0.625
 71
1
 72
0
 73
0
 74
0
 75
0
 76
0
 77
1
 78
8
 79
2
170
0
171
1
172
0
173
0
174
0
175
0
176
0
177
0
178
0
270
2
179
2
271
2
272
2
273
2
274
2
275
0
280
0
281
0
282
0
283
1
284
8
285
0
286
0
287
3
288
0
340
11
278
44
341
21D
342
21D
343
21D
344
21D
  0
DIMSTYLE
105
223
100
AcDbSymbolTableRecord
100
AcDbDimStyleTableRecord
  2
DIMSTYLE_1
 70
0
  3

  4

 40
1.0
 41
3.0
 42
0.5
 43
0.38
 44
1.5
 45
0.0
 46
0.0
 47
0.0
 48
0.0
140
3.0
141
0.09
142
0.0
143
25.4
144
1.0
145
0.0
146
1.0
147
0.75
 71
0
 72
0
 73
0
 74
0
 75
0
 76
0
 77
1
 78
8
 79
2
170
0
171
1
172
0
173
0
174
0
175
0
176
0
177
0
178
0
270
2
179
2
271
2
272
2
273
2
274
2
275
0
280
0
281
0
282
0
283
1
284
8
285
0
286
0
287
3
288
0
340
11
278
44
341
21D
342
21D
343
21D
344
21D
  0
ENDTAB
  0
ENDSEC
  0
SECTION
  2
BLOCKS
  0
BLOCK
  5
20
100
AcDbEntity
  8
0
100
AcDbBlockBegin
  2
*Model_Space
 70
0
 10
0.0
 20
0.0
 30
0.0
  3
*Model_Space
  1

  0
ENDBLK
  5
21
100
AcDbEntity
  8
0
100
AcDbBlockEnd
  0
BLOCK
  5
1C
100
AcDbEntity
  8
0
100
AcDbBlockBegin
  2
*Paper_Space
 70
0
 10
0.0
 20
0.0
 30
0.0
  3
*Paper_Space
  1

  0
ENDBLK
  5
1D
100
AcDbEntity
  8
0
100
AcDbBlockEnd
  0
BLOCK
  5
224
100
AcDbEntity
  8
0
100
AcDbBlockBegin
  2
_FILLED
 70
64
 10
0.0
 20
0.0
  3
_FILLED
  1

  0
SOLID
  5
225
100
AcDbEntity
  8
0
  6
BYBLOCK
 62
0
100
AcDbTrace
 10
0.0
 20
0.0
 11
-1.0
 21
0.3166666667
 12
-1.0
 22
-0.3166666667
 13
-1.0
 23
-0.3166666667
  0
ENDBLK
  5
226
100
AcDbEntity
  8
0
  6
BYBLOCK
 62
0
100
AcDbBlockEnd
  0
BLOCK
  5
227
100
AcDbEntity
  8
0
100
AcDbBlockBegin
 62
7
  6
CONTINUOUS
  2
*D0
 70
65
 10
0.0
 20
0.0
  3
*D0
  1

  0
MTEXT
  5
228
100
AcDbEntity
  8
0
100
AcDbMText
 62
7
  6
CONTINUOUS
  7
STANDARD
 71
1
 72
1
 10
-123.3526104105
 20
58.7499999999
 30
0.0
 11
1.0
 21
0.0
 31
0.0
 73
2
 44
0.9
  1
{\ftxt;\W0.0001;\H0.0001;\~}{\ftxt;\W2.7857142857;\H3.0; }{\ftxt;\W0.0001;\H0.0001;\~}
 40
3.0
 41
12.5357142857
  0
LINE
  5
229
100
AcDbEntity
  8
0
100
AcDbLine
 62
7
  6
CONTINUOUS
 10
-135.5585997993
 20
44.5
 11
-135.5585997993
 21
56.4999999999
  0
LINE
  5
22A
100
AcDbEntity
  8
0
100
AcDbLine
 62
7
  6
CONTINUOUS
 10
-128.0085997993
 20
43.5384032275
 11
-128.0085997993
 21
56.4999999999
  0
LINE
  5
22B
100
AcDbEntity
  8
0
100
AcDbLine
 62
7
  6
CONTINUOUS
 10
-135.5585997993
 20
54.9999999999
 11
-131.7835997993
 21
54.9999999999
  0
LINE
  5
22C
100
AcDbEntity
  8
0
100
AcDbLine
 62
7
  6
CONTINUOUS
 10
-128.0085997993
 20
54.9999999999
 11
-131.7835997993
 21
54.9999999999
  0
LINE
  5
22D
100
AcDbEntity
  8
0
100
AcDbLine
 62
7
  6
CONTINUOUS
 10
-131.7835997993
 20
54.9999999999
 11
-114.9954675533
 21
54.9999999999
  0
INSERT
  5
22E
100
AcDbEntity
  8
0
100
AcDbBlockReference
 62
7
  6
CONTINUOUS
  2
_FILLED
 10
-135.5585997993
 20
54.9999999999
 41
3.0
 42
3.0
 43
3.0
 50
180.0
  0
INSERT
  5
22F
100
AcDbEntity
  8
0
100
AcDbBlockReference
 62
7
  6
CONTINUOUS
  2
_FILLED
 10
-128.0085997993
 20
54.9999999999
 41
3.0
 42
3.0
 43
3.0
  0
ENDBLK
  5
230
100
AcDbEntity
  8
0
  6
BYBLOCK
 62
0
100
AcDbBlockEnd
  0
BLOCK
  5
231
100
AcDbEntity
  8
0
100
AcDbBlockBegin
 62
7
  6
CONTINUOUS
  2
*D1
 70
65
 10
0.0
 20
0.0
  3
*D1
  1

  0
MTEXT
  5
232
100
AcDbEntity
  8
0
100
AcDbMText
 62
7
  6
CONTINUOUS
  7
STANDARD
 71
1
 72
1
 10
-123.5151658002
 20
66.7499999999
 30
0.0
 11
1.0
 21
0.0
 31
0.0
 73
2
 44
0.9
  1
{\ftxt;\W0.0001;\H0.0001;\~}{\ftxt;\W3.3571428571;\H3.0; }{\ftxt;\W0.0001;\H0.0001;\~}
 40
3.0
 41
15.1071428571
  0
LINE
  5
233
100
AcDbEntity
  8
0
100
AcDbLine
 62
7
  6
CONTINUOUS
 10
-135.5585997993
 20
44.5
 11
-135.5585997993
 21
64.4999999999
  0
LINE
  5
234
100
AcDbEntity
  8
0
100
AcDbLine
 62
7
  6
CONTINUOUS
 10
-125.0085997993
 20
26.5463167932
 11
-125.0085997993
 21
64.4999999999
  0
LINE
  5
235
100
AcDbEntity
  8
0
100
AcDbLine
 62
7
  6
CONTINUOUS
 10
-135.5585997993
 20
62.9999999999
 11
-130.2835997993
 21
62.9999999999
  0
LINE
  5
236
100
AcDbEntity
  8
0
100
AcDbLine
 62
7
  6
CONTINUOUS
 10
-125.0085997993
 20
62.9999999999
 11
-130.2835997993
 21
62.9999999999
  0
LINE
  5
237
100
AcDbEntity
  8
0
100
AcDbLine
 62
7
  6
CONTINUOUS
 10
-130.2835997993
 20
62.9999999999
 11
-113.4437372287
 21
62.9999999999
  0
INSERT
  5
238
100
AcDbEntity
  8
0
100
AcDbBlockReference
 62
7
  6
CONTINUOUS
  2
_FILLED
 10
-135.5585997993
 20
62.9999999999
 41
3.0
 42
3.0
 43
3.0
 50
180.0
  0
INSERT
  5
239
100
AcDbEntity
  8
0
100
AcDbBlockReference
 62
7
  6
CONTINUOUS
  2
_FILLED
 10
-125.0085997993
 20
62.9999999999
 41
3.0
 42
3.0
 43
3.0
  0
ENDBLK
  5
23A
100
AcDbEntity
  8
0
  6
BYBLOCK
 62
0
100
AcDbBlockEnd
  0
BLOCK
  5
23B
100
AcDbEntity
  8
0
100
AcDbBlockBegin
 62
7
  6
CONTINUOUS
  2
*D2
 70
65
 10
0.0
 20
0.0
  3
*D2
  1

  0
MTEXT
  5
23C
100
AcDbEntity
  8
0
100
AcDbMText
 62
7
  6
CONTINUOUS
  7
STANDARD
 71
2
 72
1
 10
0.0
 20
58.7499999999
 30
0.0
 11
1.0
 21
0.0
 31
0.0
 73
2
 44
0.9
  1
{\ftxt;\W0.0001;\H0.0001;\~}{\ftxt;\W2.1428571429;\H3.0; }{\ftxt;\W0.0001;\H0.0001;\~}
 40
3.0
 41
9.6428571429
  0
LINE
  5
23D
100
AcDbEntity
  8
0
100
AcDbLine
 62
7
  6
CONTINUOUS
 10
-106.0
 20
44.5
 11
-106.0
 21
56.4999999999
  0
LINE
  5
23E
100
AcDbEntity
  8
0
100
AcDbLine
 62
7
  6
CONTINUOUS
 10
106.0
 20
44.5
 11
106.0
 21
56.4999999999
  0
LINE
  5
23F
100
AcDbEntity
  8
0
100
AcDbLine
 62
7
  6
CONTINUOUS
 10
-106.0
 20
54.9999999999
 11
0.0
 21
54.9999999999
  0
LINE
  5
240
100
AcDbEntity
  8
0
100
AcDbLine
 62
7
  6
CONTINUOUS
 10
106.0
 20
54.9999999999
 11
0.0
 21
54.9999999999
  0
INSERT
  5
241
100
AcDbEntity
  8
0
100
AcDbBlockReference
 62
7
  6
CONTINUOUS
  2
_FILLED
 10
-106.0
 20
54.9999999999
 41
3.0
 42
3.0
 43
3.0
 50
180.0
  0
INSERT
  5
242
100
AcDbEntity
  8
0
100
AcDbBlockReference
 62
7
  6
CONTINUOUS
  2
_FILLED
 10
106.0
 20
54.9999999999
 41
3.0
 42
3.0
 43
3.0
  0
ENDBLK
  5
243
100
AcDbEntity
  8
0
  6
BYBLOCK
 62
0
100
AcDbBlockEnd
  0
BLOCK
  5
244
100
AcDbEntity
  8
0
100
AcDbBlockBegin
 62
7
  6
CONTINUOUS
  2
*D3
 70
65
 10
0.0
 20
0.0
  3
*D3
  1

  0
MTEXT
  5
245
100
AcDbEntity
  8
0
100
AcDbMText
 62
7
  6
CONTINUOUS
  7
STANDARD
 71
2
 72
1
 10
112.2499999999
 20
0.0
 30
0.0
 11
0.0
 21
1.0
 31
0.0
 73
2
 44
0.9
  1
{\ftxt;\W0.0001;\H0.0001;\~}{\ftxt;\W1.5714285714;\H3.0; }{\ftxt;\W0.0001;\H0.0001;\~}
 40
3.0
 41
7.0714285714
  0
LINE
  5
246
100
AcDbEntity
  8
0
100
AcDbLine
 62
7
  6
CONTINUOUS
 10
105.5
 20
45.0
 11
117.4999999999
 21
45.0
  0
LINE
  5
247
100
AcDbEntity
  8
0
100
AcDbLine
 62
7
  6
CONTINUOUS
 10
105.5
 20
-45.0
 11
117.4999999999
 21
-45.0
  0
LINE
  5
248
100
AcDbEntity
  8
0
100
AcDbLine
 62
7
  6
CONTINUOUS
 10
115.9999999999
 20
45.0
 11
115.9999999999
 21
0.0
  0
LINE
  5
249
100
AcDbEntity
  8
0
100
AcDbLine
 62
7
  6
CONTINUOUS
 10
115.9999999999
 20
-45.0
 11
115.9999999999
 21
0.0
  0
INSERT
  5
24A
100
AcDbEntity
  8
0
100
AcDbBlockReference
 62
7
  6
CONTINUOUS
  2
_FILLED
 10
115.9999999999
 20
45.0
 41
3.0
 42
3.0
 43
3.0
 50
90.0
  0
INSERT
  5
24B
100
AcDbEntity
  8
0
100
AcDbBlockReference
 62
7
  6
CONTINUOUS
  2
_FILLED
 10
115.9999999999
 20
-45.0
 41
3.0
 42
3.0
 43
3.0
 50
270.0
  0
ENDBLK
  5
24C
100
AcDbEntity
  8
0
  6
BYBLOCK
 62
0
100
AcDbBlockEnd
  0
ENDSEC
  0
SECTION
  2
ENTITIES
  0
DIMENSION
  5
24D
100
AcDbEntity
  8
0
100
AcDbDimension
 62
7
  6
CONTINUOUS
  2
*D0
 10
-128.0085997993
 20
54.9999999999
 11
-119.6026105957
 21
54.9999999999
 70
160
 71
1
 72
2
 41
0.9
 42
7.55
  1
{\ftxt;\W0.0001;\H0.0001;\~}{\ftxt;\W2.7857142857;\H3.0; }{\ftxt;\W0.0001;\H0.0001;\~}
  3
DIMSTYLE_1
100
AcDbAlignedDimension
 13
-135.5585997993
 23
44.0
 14
-128.0085997993
 24
43.0384032275
100
AcDbRotatedDimension
  0
DIMENSION
  5
24E
100
AcDbEntity
  8
0
100
AcDbDimension
 62
7
  6
CONTINUOUS
  2
*D1
 10
-125.0085997993
 20
62.9999999999
 11
-118.9080214233
 21
62.9999999999
 70
160
 71
1
 72
2
 41
0.9
 42
10.55
  1
{\ftxt;\W0.0001;\H0.0001;\~}{\ftxt;\W3.3571428571;\H3.0; }{\ftxt;\W0.0001;\H0.0001;\~}
  3
DIMSTYLE_1
100
AcDbAlignedDimension
 13
-135.5585997993
 23
44.0
 14
-125.0085997993
 24
26.0463167932
100
AcDbRotatedDimension
  0
DIMENSION
  5
24F
100
AcDbEntity
  8
0
100
AcDbDimension
 62
7
  6
CONTINUOUS
  2
*D2
 10
106.0
 20
54.9999999999
 11
-0.4285714481
 21
54.9999999999
 70
160
 71
2
 72
2
 41
0.9
 42
212.0
  1
{\ftxt;\W0.0001;\H0.0001;\~}{\ftxt;\W2.1428571429;\H3.0; }{\ftxt;\W0.0001;\H0.0001;\~}
  3
DIMSTYLE_1
100
AcDbAlignedDimension
 13
-106.0
 23
44.0
 14
106.0
 24
44.0
100
AcDbRotatedDimension
  0
DIMENSION
  5
250
100
AcDbEntity
  8
0
100
AcDbDimension
 62
7
  6
CONTINUOUS
  2
*D3
 10
115.9999999999
 20
-45.0
 11
115.9999999999
 21
-0.4285699811
 70
160
 71
2
 72
2
 41
0.9
 42
90.0
  1
{\ftxt;\W0.0001;\H0.0001;\~}{\ftxt;\W1.5714285714;\H3.0; }{\ftxt;\W0.0001;\H0.0001;\~}
  3
DIMSTYLE_1
100
AcDbAlignedDimension
 13
105.0
 23
45.0
 14
105.0
 24
-45.0
 50
270.0
100
AcDbRotatedDimension
  0
LINE
  5
251
100
AcDbEntity
  8
SMUSSO
100
AcDbLine
 62
7
  6
CONTINUOUS
 10
-106.0
 20
44.0
 11
-106.0
 21
-44.0
  0
LINE
  5
252
100
AcDbEntity
  8
SMUSSO
100
AcDbLine
 62
7
  6
CONTINUOUS
 10
-105.0
 20
44.0
 11
-105.0
 21
-44.0
  0
LINE
  5
253
100
AcDbEntity
  8
SMUSSO
100
AcDbLine
 62
250
  6
CONTINUOUS
 10
-105.0
 20
-44.0
 11
-105.0
 21
-45.0
  0
LINE
  5
254
100
AcDbEntity
  8
SMUSSO
100
AcDbLine
 62
250
  6
CONTINUOUS
 10
-105.0
 20
44.0
 11
-105.0
 21
45.0
  0
LINE
  5
255
100
AcDbEntity
  8
RACCORDO
100
AcDbLine
 62
7
  6
CONTINUOUS
 10
-79.0
 20
21.55
 11
-79.0
 21
-21.55
  0
LWPOLYLINE
  5
256
100
AcDbEntity
  8
0
100
AcDbPolyline
 62
7
  6
CONTINUOUS
 90
3
 70
0
 43
0.3500000006
 10
-0.8571428254
 20
57.8928615417
 10
0.0
 20
58.7499994812
 10
0.0
 20
55.7499985657
  0
LINE
  5
257
100
AcDbEntity
  8
SMUSSO
100
AcDbLine
 62
7
  6
CONTINUOUS
 10
-105.0
 20
-45.0
 11
105.0
 21
-45.0
  0
LINE
  5
258
100
AcDbEntity
  8
SMUSSO
100
AcDbLine
 62
7
  6
CONTINUOUS
 10
-105.0
 20
-44.0
 11
105.0
 21
-44.0
  0
LINE
  5
259
100
AcDbEntity
  8
SMUSSO
100
AcDbLine
 62
250
  6
CONTINUOUS
 10
105.0
 20
-44.0
 11
106.0
 21
-44.0
  0
LINE
  5
25A
100
AcDbEntity
  8
SMUSSO
100
AcDbLine
 62
250
  6
CONTINUOUS
 10
-105.0
 20
-44.0
 11
-106.0
 21
-44.0
  0
LINE
  5
25B
100
AcDbEntity
  8
RACCORDO
100
AcDbLine
 62
7
  6
CONTINUOUS
 10
-77.8
 20
-22.75
 11
77.8
 21
-22.75
  0
LWPOLYLINE
  5
25C
100
AcDbEntity
  8
0
100
AcDbPolyline
 62
7
  6
CONTINUOUS
 90
13
 70
0
 43
0.3500000006
 10
114.3928564453
 20
-0.0000003204
 10
113.1071404724
 20
-0.0000003204
 10
112.6785715027
 20
0.2142864304
 10
112.250002533
 20
0.642857666
 10
112.250002533
 20
0.8571421509
 10
112.6785715027
 20
1.2857133865
 10
113.1071404724
 20
1.5000001373
 10
114.3928564453
 20
1.5000001373
 10
114.821425415
 20
1.2857133865
 10
115.2500034485
 20
0.8571421509
 10
115.2500034485
 20
0.642857666
 10
114.821425415
 20
0.2142864304
 10
114.3928564453
 20
-0.0000003204
  0
LINE
  5
25D
100
AcDbEntity
  8
RACCORDO
100
AcDbLine
 62
7
  6
CONTINUOUS
 10
77.8
 20
22.75
 11
-77.8
 21
22.75
  0
LINE
  5
25E
100
AcDbEntity
  8
SMUSSO
100
AcDbLine
 62
7
  6
CONTINUOUS
 10
105.0
 20
44.0
 11
-105.0
 21
44.0
  0
LINE
  5
25F
100
AcDbEntity
  8
SMUSSO
100
AcDbLine
 62
250
  6
CONTINUOUS
 10
105.0
 20
44.0
 11
106.0
 21
44.0
  0
LINE
  5
260
100
AcDbEntity
  8
SMUSSO
100
AcDbLine
 62
250
  6
CONTINUOUS
 10
-105.0
 20
44.0
 11
-106.0
 21
44.0
  0
LINE
  5
261
100
AcDbEntity
  8
SMUSSO
100
AcDbLine
 62
7
  6
CONTINUOUS
 10
105.0
 20
45.0
 11
-105.0
 21
45.0
  0
LWPOLYLINE
  5
262
100
AcDbEntity
  8
0
100
AcDbPolyline
 62
7
  6
CONTINUOUS
 90
7
 70
0
 43
0.3500000006
 10
2.3571427875
 20
55.7499985657
 10
0.8571428254
 20
55.7499985657
 10
2.3571427875
 20
57.8928615417
 10
2.3571427875
 20
58.3214305115
 10
1.9285714102
 20
58.7499994812
 10
1.2857142735
 20
58.7499994812
 10
0.8571428254
 20
58.1071460266
  0
LWPOLYLINE
  5
263
100
AcDbEntity
  8
0
100
AcDbPolyline
 62
7
  6
CONTINUOUS
 90
7
 70
0
 43
0.3500000006
 10
-1.7142856507
 20
55.7499985657
 10
-3.2142856836
 20
55.7499985657
 10
-1.7142856507
 20
57.8928615417
 10
-1.7142856507
 20
58.3214305115
 10
-2.1428571696
 20
58.7499994812
 10
-2.7857141647
 20
58.7499994812
 10
-3.2142856836
 20
58.1071460266
  0
LINE
  5
264
100
AcDbEntity
  8
RACCORDO
100
AcDbLine
 62
7
  6
CONTINUOUS
 10
79.0
 20
-21.55
 11
79.0
 21
21.55
  0
LWPOLYLINE
  5
265
100
AcDbEntity
  8
0
100
AcDbPolyline
 62
7
  6
CONTINUOUS
 90
10
 70
0
 43
0.3500000006
 10
115.2500034485
 20
-1.9285708809
 10
114.3928564453
 20
-1.0714295425
 10
113.5357185059
 20
-0.8571427917
 10
112.6785715027
 20
-0.8571427917
 10
112.250002533
 20
-1.2857140274
 10
112.250002533
 20
-1.9285708809
 10
112.6785715027
 20
-2.3571432495
 10
113.5357185059
 20
-2.3571432495
 10
113.9642874756
 20
-1.9285708809
 10
113.9642874756
 20
-1.0000006256
  0
LINE
  5
266
100
AcDbEntity
  8
SMUSSO
100
AcDbLine
 62
250
  6
CONTINUOUS
 10
105.0
 20
-44.0
 11
105.0
 21
-45.0
  0
LINE
  5
267
100
AcDbEntity
  8
SMUSSO
100
AcDbLine
 62
7
  6
CONTINUOUS
 10
105.0
 20
-44.0
 11
105.0
 21
44.0
  0
LINE
  5
268
100
AcDbEntity
  8
SMUSSO
100
AcDbLine
 62
250
  6
CONTINUOUS
 10
105.0
 20
44.0
 11
105.0
 21
45.0
  0
LINE
  5
269
100
AcDbEntity
  8
SMUSSO
100
AcDbLine
 62
7
  6
CONTINUOUS
 10
106.0
 20
-44.0
 11
106.0
 21
44.0
  0
LINE
  5
26A
100
AcDbEntity
  8
SMUSSO
100
AcDbLine
 62
7
  6
CONTINUOUS
 10
-134.5585997993
 20
-45.0
 11
-133.0585997993
 21
-45.0
  0
LINE
  5
26B
100
AcDbEntity
  8
0
100
AcDbLine
 62
250
  6
CONTINUOUS
 10
-129.5078022405
 20
-43.3354659698
 11
-128.0085997993
 21
-43.0384032275
  0
LINE
  5
26C
100
AcDbEntity
  8
ASSI
100
AcDbLine
 62
250
  6
CONTINUOUS
 10
-129.5078022405
 20
-43.3354659698
 11
-128.0085997993
 21
-43.0384032275
  0
LINE
  5
26D
100
AcDbEntity
  8
0
100
AcDbLine
 62
7
  6
CONTINUOUS
 10
-132.4085997993
 20
-44.3506196883
 11
-129.5085997993
 21
-44.3
  0
LINE
  5
26E
100
AcDbEntity
  8
ASSI
100
AcDbLine
 62
7
  6
CONTINUOUS
 10
-132.4085997993
 20
-44.3506196883
 11
-129.5085997993
 21
-44.3
  0
LINE
  5
26F
100
AcDbEntity
  8
0
100
AcDbLine
 62
250
  6
CONTINUOUS
 10
-132.4085997993
 20
-43.3507719931
 11
-129.5085997993
 21
-43.3001523048
  0
LINE
  5
270
100
AcDbEntity
  8
ASSI
100
AcDbLine
 62
250
  6
CONTINUOUS
 10
-132.4085997993
 20
-43.3507719931
 11
-129.5085997993
 21
-43.3001523048
  0
LINE
  5
271
100
AcDbEntity
  8
SMUSSO
100
AcDbLine
 62
250
  6
CONTINUOUS
 10
-132.5585997993
 20
-44.0
 11
-135.5585997993
 21
-44.0
  0
LWPOLYLINE
  5
272
100
AcDbEntity
  8
0
100
AcDbPolyline
 62
7
  6
CONTINUOUS
 90
3
 70
0
 43
0.3500000006
 10
-123.5151650391
 20
65.8928549194
 10
-122.6580270996
 20
66.7500019226
 10
-122.6580270996
 20
63.7500010071
  0
LINE
  5
273
100
AcDbEntity
  8
RACCORDO
100
AcDbLine
 62
7
  6
CONTINUOUS
 10
-132.5585997993
 20
-40.0
 11
-132.4085997993
 21
-40.0
  0
LINE
  5
274
100
AcDbEntity
  8
RACCORDO
100
AcDbLine
 62
7
  6
CONTINUOUS
 10
-132.5585997993
 20
-39.0
 11
-132.4085997993
 21
-39.0
  0
LINE
  5
275
100
AcDbEntity
  8
RACCORDO
100
AcDbLine
 62
250
  6
CONTINUOUS
 10
-132.5585997993
 20
-37.0
 11
-132.4085997993
 21
-37.0
  0
LINE
  5
276
100
AcDbEntity
  8
0
100
AcDbLine
 62
250
  6
CONTINUOUS
 10
-129.9901057993
 20
-36.161141
 11
-131.8900657993
 21
-36.161141
  0
LINE
  5
277
100
AcDbEntity
  8
SMUSSO
100
AcDbLine
 62
7
  6
CONTINUOUS
 10
-135.5585997993
 20
44.0
 11
-134.5585997993
 21
45.0
  0
LINE
  5
278
100
AcDbEntity
  8
0
100
AcDbLine
 62
250
  6
CONTINUOUS
 10
-130.5822287993
 20
-37.077819
 11
-131.8899517993
 21
-37.439964
  0
LINE
  5
279
100
AcDbEntity
  8
0
100
AcDbLine
 62
250
  6
CONTINUOUS
 10
-129.9901057993
 20
-33.624309
 11
-131.8899517993
 21
-33.801966
  0
LINE
  5
27A
100
AcDbEntity
  8
0
100
AcDbLine
 62
250
  6
CONTINUOUS
 10
-131.2254977993
 20
-34.093739
 11
-129.9901057993
 21
-34.012262
  0
LINE
  5
27B
100
AcDbEntity
  8
0
100
AcDbLine
 62
250
  6
CONTINUOUS
 10
-131.8900657993
 20
-35.764569
 11
-129.9901057993
 21
-35.764569
  0
LINE
  5
27C
100
AcDbEntity
  8
0
100
AcDbLine
 62
250
  6
CONTINUOUS
 10
-129.9901057993
 20
-35.171691
 11
-131.2306697993
 21
-35.08611
  0
LINE
  5
27D
100
AcDbEntity
  8
0
100
AcDbLine
 62
250
  6
CONTINUOUS
 10
-131.8899517993
 20
-35.379536
 11
-129.9901057993
 21
-35.551081
  0
LINE
  5
27E
100
AcDbEntity
  8
0
100
AcDbLine
 62
250
  6
CONTINUOUS
 10
-131.8899517993
 20
-36.704611
 11
-130.5822287993
 21
-37.077819
  0
LINE
  5
27F
100
AcDbEntity
  8
0
100
AcDbLine
 62
250
  6
CONTINUOUS
 10
-129.9901057993
 20
-36.918996
 11
-131.8899517993
 21
-36.30831
  0
LINE
  5
280
100
AcDbEntity
  8
SMUSSO
100
AcDbLine
 62
7
  6
CONTINUOUS
 10
-135.5585997993
 20
-44.0
 11
-134.5585997993
 21
-45.0
  0
LINE
  5
281
100
AcDbEntity
  8
0
100
AcDbLine
 62
250
  6
CONTINUOUS
 10
-130.3693827993
 20
-32.520272
 11
-129.9901057993
 21
-32.417539
  0
LINE
  5
282
100
AcDbEntity
  8
0
100
AcDbLine
 62
250
  6
CONTINUOUS
 10
-131.3679227993
 20
-32.781757
 11
-130.6628657993
 21
-32.599527
  0
LINE
  5
283
100
AcDbEntity
  8
0
100
AcDbLine
 62
250
  6
CONTINUOUS
 10
-129.9901060533
 20
-31.8831153973
 11
-131.8677552581
 21
-31.8831153973
  0
LINE
  5
284
100
AcDbEntity
  8
0
100
AcDbLine
 62
250
  6
CONTINUOUS
 10
-131.5662942226
 20
-31.5012884969
 11
-131.0447495351
 21
-31.5012884969
  0
LINE
  5
285
100
AcDbEntity
  8
0
100
AcDbLine
 62
250
  6
CONTINUOUS
 10
-130.7336007158
 20
-31.4881387551
 11
-129.9901060533
 21
-31.4881387551
  0
LINE
  5
286
100
AcDbEntity
  8
0
100
AcDbLine
 62
250
  6
CONTINUOUS
 10
-130.8881636069
 20
-30.8635473914
 11
-130.8769371751
 21
-30.8635473914
  0
LINE
  5
287
100
AcDbEntity
  8
0
100
AcDbLine
 62
250
  6
CONTINUOUS
 10
-130.6628657993
 20
-32.979217
 11
-131.3679227993
 21
-32.781757
  0
LINE
  5
288
100
AcDbEntity
  8
0
100
AcDbLine
 62
250
  6
CONTINUOUS
 10
-129.9901057993
 20
-33.169767
 11
-130.3693827993
 21
-33.060338
  0
LINE
  5
289
100
AcDbEntity
  8
0
100
AcDbLine
 62
250
  6
CONTINUOUS
 10
-131.8899517993
 20
-32.966124
 11
-129.9901057993
 21
-33.562037
  0
LINE
  5
28A
100
AcDbEntity
  8
0
100
AcDbLine
 62
250
  6
CONTINUOUS
 10
-131.8899517993
 20
-34.194336
 11
-130.8351517993
 21
-34.590908
  0
LINE
  5
28B
100
AcDbEntity
  8
0
100
AcDbLine
 62
250
  6
CONTINUOUS
 10
-129.9901057993
 20
-34.565264
 11
-131.2254977993
 21
-34.093739
  0
LINE
  5
28C
100
AcDbEntity
  8
0
100
AcDbLine
 62
7
  6
CONTINUOUS
 10
-127.0827626015
 20
-27.1501294386
 11
-128.0085997993
 21
-27.151745331
  0
LINE
  5
28D
100
AcDbEntity
  8
ASSI
100
AcDbLine
 62
7
  6
CONTINUOUS
 10
-127.0827626015
 20
-27.1501294386
 11
-128.0085997993
 21
-27.151745331
  0
LINE
  5
28E
100
AcDbEntity
  8
0
100
AcDbLine
 62
250
  6
CONTINUOUS
 10
-127.0828272156
 20
-26.9276792439
 11
-128.0085997993
 21
-26.9280974384
  0
LINE
  5
28F
100
AcDbEntity
  8
ASSI
100
AcDbLine
 62
250
  6
CONTINUOUS
 10
-127.0828272156
 20
-26.9276792439
 11
-128.0085997993
 21
-26.9280974384
  0
LINE
  5
290
100
AcDbEntity
  8
0
100
AcDbLine
 62
7
  6
CONTINUOUS
 10
-125.5585505671
 20
-26.3415638603
 11
-128.0085997993
 21
-26.3558178298
  0
LINE
  5
291
100
AcDbEntity
  8
ASSI
100
AcDbLine
 62
7
  6
CONTINUOUS
 10
-125.5585505671
 20
-26.3415638603
 11
-128.0085997993
 21
-26.3558178298
  0
LINE
  5
292
100
AcDbEntity
  8
0
100
AcDbLine
 62
250
  6
CONTINUOUS
 10
-125.5585505671
 20
-26.2536973817
 11
-128.0085997993
 21
-26.2679513512
  0
LINE
  5
293
100
AcDbEntity
  8
ASSI
100
AcDbLine
 62
250
  6
CONTINUOUS
 10
-125.5585505671
 20
-26.2536973817
 11
-128.0085997993
 21
-26.2679513512
  0
LINE
  5
294
100
AcDbEntity
  8
0
100
AcDbLine
 62
7
  6
CONTINUOUS
 10
-125.0085997993
 20
-26.1523612067
 11
-125.1291625664
 21
-26.1523612067
  0
LINE
  5
295
100
AcDbEntity
  8
ASSI
100
AcDbLine
 62
7
  6
CONTINUOUS
 10
-125.0085997993
 20
-26.1523612067
 11
-125.1291625664
 21
-26.1523612067
  0
LINE
  5
296
100
AcDbEntity
  8
0
100
AcDbLine
 62
7
  6
CONTINUOUS
 10
-127.0584754205
 20
-25.2
 11
-128.0085997993
 21
-25.2
  0
LINE
  5
297
100
AcDbEntity
  8
ASSI
100
AcDbLine
 62
7
  6
CONTINUOUS
 10
-127.0584754205
 20
-25.2
 11
-128.0085997993
 21
-25.2
  0
LINE
  5
298
100
AcDbEntity
  8
0
100
AcDbLine
 62
7
  6
CONTINUOUS
 10
-128.0085997993
 20
-25.05
 11
-127.8585997993
 21
-25.05
  0
LINE
  5
299
100
AcDbEntity
  8
ASSI
100
AcDbLine
 62
7
  6
CONTINUOUS
 10
-128.0085997993
 20
-25.05
 11
-127.8585997993
 21
-25.05
  0
LINE
  5
29A
100
AcDbEntity
  8
0
100
AcDbLine
 62
7
  6
CONTINUOUS
 10
-127.5585997993
 20
-25.05
 11
-127.3585997993
 21
-25.05
  0
LINE
  5
29B
100
AcDbEntity
  8
ASSI
100
AcDbLine
 62
7
  6
CONTINUOUS
 10
-127.5585997993
 20
-25.05
 11
-127.3585997993
 21
-25.05
  0
LINE
  5
29C
100
AcDbEntity
  8
0
100
AcDbLine
 62
7
  6
CONTINUOUS
 10
-125.0085997993
 20
-25.3523612067
 11
-125.5305364537
 21
-25.3478063346
  0
LINE
  5
29D
100
AcDbEntity
  8
ASSI
100
AcDbLine
 62
7
  6
CONTINUOUS
 10
-125.0085997993
 20
-25.3523612067
 11
-125.5305364537
 21
-25.3478063346
  0
LINE
  5
29E
100
AcDbEntity
  8
0
100
AcDbLine
 62
7
  6
CONTINUOUS
 10
-128.0085997993
 20
-25.7558198745
 11
-125.1981326081
 21
-25.8799866677
  0
LINE
  5
29F
100
AcDbEntity
  8
ASSI
100
AcDbLine
 62
7
  6
CONTINUOUS
 10
-128.0085997993
 20
-25.7558198745
 11
-125.1981326081
 21
-25.8799866677
  0
LINE
  5
2A0
100
AcDbEntity
  8
0
100
AcDbLine
 62
7
  6
CONTINUOUS
 10
-125.0085997993
 20
-25.4
 11
-126.9589717014
 21
-25.2049628098
  0
LINE
  5
2A1
100
AcDbEntity
  8
ASSI
100
AcDbLine
 62
7
  6
CONTINUOUS
 10
-125.0085997993
 20
-25.4
 11
-126.9589717014
 21
-25.2049628098
  0
LINE
  5
2A2
100
AcDbEntity
  8
0
100
AcDbLine
 62
7
  6
CONTINUOUS
 10
-127.8585997993
 20
25.05
 11
-127.7085997993
 21
25.2
  0
LINE
  5
2A3
100
AcDbEntity
  8
ASSI
100
AcDbLine
 62
7
  6
CONTINUOUS
 10
-127.8585997993
 20
25.05
 11
-127.7085997993
 21
25.2
  0
LINE
  5
2A4
100
AcDbEntity
  8
0
100
AcDbLine
 62
7
  6
CONTINUOUS
 10
-127.3585997993
 20
25.05
 11
-127.2085997993
 21
25.2
  0
LINE
  5
2A5
100
AcDbEntity
  8
ASSI
100
AcDbLine
 62
7
  6
CONTINUOUS
 10
-127.3585997993
 20
25.05
 11
-127.2085997993
 21
25.2
  0
LINE
  5
2A6
100
AcDbEntity
  8
0
100
AcDbLine
 62
7
  6
CONTINUOUS
 10
-127.8585997993
 20
-25.05
 11
-127.7085997993
 21
-25.2
  0
LINE
  5
2A7
100
AcDbEntity
  8
ASSI
100
AcDbLine
 62
7
  6
CONTINUOUS
 10
-127.8585997993
 20
-25.05
 11
-127.7085997993
 21
-25.2
  0
LINE
  5
2A8
100
AcDbEntity
  8
0
100
AcDbLine
 62
7
  6
CONTINUOUS
 10
-127.3585997993
 20
-25.05
 11
-127.2085997993
 21
-25.2
  0
LINE
  5
2A9
100
AcDbEntity
  8
ASSI
100
AcDbLine
 62
7
  6
CONTINUOUS
 10
-127.3585997993
 20
-25.05
 11
-127.2085997993
 21
-25.2
  0
LWPOLYLINE
  5
2AA
100
AcDbEntity
  8
0
100
AcDbPolyline
 62
7
  6
CONTINUOUS
 90
3
 70
0
 43
0.3500000006
 10
-118.729447998
 20
64.0357166748
 10
-118.8008791809
 20
63.8214321899
 10
-118.9437415466
 20
63.5357165222
  0
LWPOLYLINE
  5
2AB
100
AcDbEntity
  8
0
100
AcDbPolyline
 62
7
  6
CONTINUOUS
 90
3
 70
0
 43
0.3500000006
 10
-120.2811841736
 20
56.0357142334
 10
-120.3526062927
 20
55.8214297485
 10
-120.4954686584
 20
55.5357140808
  0
LINE
  5
2AC
100
AcDbEntity
  8
SMUSSO
100
AcDbLine
 62
7
  6
CONTINUOUS
 10
-135.5585997993
 20
-44.0
 11
-135.5585997993
 21
44.0
  0
LINE
  5
2AD
100
AcDbEntity
  8
SMUSSO
100
AcDbLine
 62
7
  6
CONTINUOUS
 10
-134.5585997993
 20
-45.0
 11
-134.5585997993
 21
45.0
  0
LINE
  5
2AE
100
AcDbEntity
  8
SMUSSO
100
AcDbLine
 62
7
  6
CONTINUOUS
 10
-133.0585997993
 20
45.0
 11
-133.0585997993
 21
-45.0
  0
LINE
  5
2AF
100
AcDbEntity
  8
SMUSSO
100
AcDbLine
 62
7
  6
CONTINUOUS
 10
-132.5585997993
 20
44.5
 11
-132.5585997993
 21
-44.5
  0
LINE
  5
2B0
100
AcDbEntity
  8
0
100
AcDbLine
 62
7
  6
CONTINUOUS
 10
-132.4085997993
 20
-44.3506196883
 11
-132.4085997993
 21
44.3506196883
  0
LINE
  5
2B1
100
AcDbEntity
  8
ASSI
100
AcDbLine
 62
7
  6
CONTINUOUS
 10
-132.4085997993
 20
-44.3506196883
 11
-132.4085997993
 21
44.3506196883
  0
LINE
  5
2B2
100
AcDbEntity
  8
0
100
AcDbLine
 62
250
  6
CONTINUOUS
 10
-131.8900657993
 20
-36.161141
 11
-131.8900657993
 21
-35.764569
  0
LINE
  5
2B3
100
AcDbEntity
  8
0
100
AcDbLine
 62
250
  6
CONTINUOUS
 10
-131.8899517993
 20
-32.582488
 11
-131.8899517993
 21
-32.966124
  0
LINE
  5
2B4
100
AcDbEntity
  8
0
100
AcDbLine
 62
250
  6
CONTINUOUS
 10
-131.8899517993
 20
-33.801966
 11
-131.8899517993
 21
-34.194336
  0
LINE
  5
2B5
100
AcDbEntity
  8
0
100
AcDbLine
 62
250
  6
CONTINUOUS
 10
-131.8899517993
 20
-34.983292
 11
-131.8899517993
 21
-35.379536
  0
LINE
  5
2B6
100
AcDbEntity
  8
0
100
AcDbLine
 62
250
  6
CONTINUOUS
 10
-131.8899517993
 20
-36.30831
 11
-131.8899517993
 21
-36.704611
  0
LINE
  5
2B7
100
AcDbEntity
  8
0
100
AcDbLine
 62
250
  6
CONTINUOUS
 10
-131.8899517993
 20
-37.439964
 11
-131.8899517993
 21
-37.870764
  0
LINE
  5
2B8
100
AcDbEntity
  8
0
100
AcDbLine
 62
250
  6
CONTINUOUS
 10
-131.0447495351
 20
-31.5012884969
 11
-131.0447495351
 21
-31.2746513441
  0
LINE
  5
2B9
100
AcDbEntity
  8
0
100
AcDbLine
 62
250
  6
CONTINUOUS
 10
-130.7336007158
 20
-31.2755061485
 11
-130.7336007158
 21
-31.4881387551
  0
LINE
  5
2BA
100
AcDbEntity
  8
0
100
AcDbLine
 62
250
  6
CONTINUOUS
 10
-130.6628657993
 20
-32.599527
 11
-130.6628657993
 21
-32.979217
  0
LINE
  5
2BB
100
AcDbEntity
  8
0
100
AcDbLine
 62
250
  6
CONTINUOUS
 10
-130.3693827993
 20
-33.060338
 11
-130.3693827993
 21
-32.520272
  0
LINE
  5
2BC
100
AcDbEntity
  8
0
100
AcDbLine
 62
250
  6
CONTINUOUS
 10
-129.9901060533
 20
-30.4993864496
 11
-129.9901060533
 21
-30.8808429347
  0
LINE
  5
2BD
100
AcDbEntity
  8
0
100
AcDbLine
 62
250
  6
CONTINUOUS
 10
-129.9901060533
 20
-31.4881387551
 11
-129.9901060533
 21
-31.8831153973
  0
LINE
  5
2BE
100
AcDbEntity
  8
0
100
AcDbLine
 62
250
  6
CONTINUOUS
 10
-129.9901057993
 20
-37.268476
 11
-129.9901057993
 21
-36.918996
  0
LINE
  5
2BF
100
AcDbEntity
  8
0
100
AcDbLine
 62
250
  6
CONTINUOUS
 10
-129.9901057993
 20
-35.551081
 11
-129.9901057993
 21
-35.171691
  0
LINE
  5
2C0
100
AcDbEntity
  8
0
100
AcDbLine
 62
250
  6
CONTINUOUS
 10
-129.9901057993
 20
-34.620883
 11
-129.9901057993
 21
-34.565264
  0
LINE
  5
2C1
100
AcDbEntity
  8
0
100
AcDbLine
 62
250
  6
CONTINUOUS
 10
-129.9901057993
 20
-34.012262
 11
-129.9901057993
 21
-33.624309
  0
LINE
  5
2C2
100
AcDbEntity
  8
0
100
AcDbLine
 62
250
  6
CONTINUOUS
 10
-129.9901057993
 20
-33.562037
 11
-129.9901057993
 21
-33.169767
  0
LINE
  5
2C3
100
AcDbEntity
  8
0
100
AcDbLine
 62
250
  6
CONTINUOUS
 10
-129.9901057993
 20
-32.417539
 11
-129.9901057993
 21
-31.999568
  0
LINE
  5
2C4
100
AcDbEntity
  8
0
100
AcDbLine
 62
250
  6
CONTINUOUS
 10
-129.9901057993
 20
-35.764569
 11
-129.9901057993
 21
-36.161141
  0
LINE
  5
2C5
100
AcDbEntity
  8
0
100
AcDbLine
 62
250
  6
CONTINUOUS
 10
-127.0827623843
 20
-27.1500547871
 11
-127.0828272156
 21
-26.9276792439
  0
LINE
  5
2C6
100
AcDbEntity
  8
ASSI
100
AcDbLine
 62
250
  6
CONTINUOUS
 10
-127.0827623843
 20
-27.1500547871
 11
-127.0828272156
 21
-26.9276792439
  0
LINE
  5
2C7
100
AcDbEntity
  8
0
100
AcDbLine
 62
7
  6
CONTINUOUS
 10
-129.5085997993
 20
43.3001523048
 11
-129.5085997993
 21
-43.3001523048
  0
LINE
  5
2C8
100
AcDbEntity
  8
ASSI
100
AcDbLine
 62
7
  6
CONTINUOUS
 10
-129.5085997993
 20
43.3001523048
 11
-129.5085997993
 21
-43.3001523048
  0
LINE
  5
2C9
100
AcDbEntity
  8
0
100
AcDbLine
 62
7
  6
CONTINUOUS
 10
-128.0085997993
 20
43.1
 11
-128.0085997993
 21
-43.0996232577
  0
LINE
  5
2CA
100
AcDbEntity
  8
ASSI
100
AcDbLine
 62
7
  6
CONTINUOUS
 10
-128.0085997993
 20
43.1
 11
-128.0085997993
 21
-43.0996232577
  0
LINE
  5
2CB
100
AcDbEntity
  8
0
100
AcDbLine
 62
250
  6
CONTINUOUS
 10
-127.0828272156
 20
26.9276792439
 11
-127.0827624485
 21
27.1500543946
  0
LINE
  5
2CC
100
AcDbEntity
  8
ASSI
100
AcDbLine
 62
250
  6
CONTINUOUS
 10
-127.0828272156
 20
26.9276792439
 11
-127.0827624485
 21
27.1500543946
  0
LINE
  5
2CD
100
AcDbEntity
  8
0
100
AcDbLine
 62
250
  6
CONTINUOUS
 10
-125.2928990125
 20
25.3715700787
 11
-125.2928990125
 21
25.3498801651
  0
LINE
  5
2CE
100
AcDbEntity
  8
ASSI
100
AcDbLine
 62
250
  6
CONTINUOUS
 10
-125.2928990125
 20
25.3715700787
 11
-125.2928990125
 21
25.3498801651
  0
LINE
  5
2CF
100
AcDbEntity
  8
0
100
AcDbLine
 62
250
  6
CONTINUOUS
 10
-125.2928990125
 20
-25.3498801651
 11
-125.2928990125
 21
-25.3715700787
  0
LINE
  5
2D0
100
AcDbEntity
  8
ASSI
100
AcDbLine
 62
250
  6
CONTINUOUS
 10
-125.2928990125
 20
-25.3498801651
 11
-125.2928990125
 21
-25.3715700787
  0
LINE
  5
2D1
100
AcDbEntity
  8
0
100
AcDbLine
 62
250
  6
CONTINUOUS
 10
-125.1981326081
 20
25.8799866677
 11
-125.1981326081
 21
25.3810467191
  0
LINE
  5
2D2
100
AcDbEntity
  8
ASSI
100
AcDbLine
 62
250
  6
CONTINUOUS
 10
-125.1981326081
 20
25.8799866677
 11
-125.1981326081
 21
25.3810467191
  0
LINE
  5
2D3
100
AcDbEntity
  8
0
100
AcDbLine
 62
250
  6
CONTINUOUS
 10
-125.1981326081
 20
-25.3810467191
 11
-125.1981326081
 21
-25.8799866677
  0
LINE
  5
2D4
100
AcDbEntity
  8
ASSI
100
AcDbLine
 62
250
  6
CONTINUOUS
 10
-125.1981326081
 20
-25.3810467191
 11
-125.1981326081
 21
-25.8799866677
  0
LINE
  5
2D5
100
AcDbEntity
  8
0
100
AcDbLine
 62
7
  6
CONTINUOUS
 10
-125.0085997993
 20
26.1523612067
 11
-125.0085997993
 21
25.3523612067
  0
LINE
  5
2D6
100
AcDbEntity
  8
ASSI
100
AcDbLine
 62
7
  6
CONTINUOUS
 10
-125.0085997993
 20
26.1523612067
 11
-125.0085997993
 21
25.3523612067
  0
LINE
  5
2D7
100
AcDbEntity
  8
0
100
AcDbLine
 62
7
  6
CONTINUOUS
 10
-125.0085997993
 20
-25.3523612067
 11
-125.0085997993
 21
-26.1523612067
  0
LINE
  5
2D8
100
AcDbEntity
  8
ASSI
100
AcDbLine
 62
7
  6
CONTINUOUS
 10
-125.0085997993
 20
-25.3523612067
 11
-125.0085997993
 21
-26.1523612067
  0
LWPOLYLINE
  5
2D9
100
AcDbEntity
  8
0
100
AcDbPolyline
 62
7
  6
CONTINUOUS
 90
4
 70
0
 43
0.3500000006
 10
-123.3526072083
 20
58.1071460266
 10
-123.3526072083
 20
58.7499994812
 10
-121.8526067505
 20
58.7499994812
 10
-122.7097537537
 20
55.7499985657
  0
LWPOLYLINE
  5
2DA
100
AcDbEntity
  8
0
100
AcDbPolyline
 62
7
  6
CONTINUOUS
 90
13
 70
0
 43
0.3500000006
 10
-121.8008800964
 20
64.6071389465
 10
-121.8008800964
 20
65.8928549194
 10
-121.5865956116
 20
66.3214329529
 10
-121.1580266418
 20
66.7500019226
 10
-120.9437330933
 20
66.7500019226
 10
-120.5151641235
 20
66.3214329529
 10
-120.3008796387
 20
65.8928549194
 10
-120.3008796387
 20
64.6071389465
 10
-120.5151641235
 20
64.1785699768
 10
-120.9437330933
 20
63.7500010071
 10
-121.1580266418
 20
63.7500010071
 10
-121.5865956116
 20
64.1785699768
 10
-121.8008800964
 20
64.6071389465
  0
LINE
  5
2DB
100
AcDbEntity
  8
0
100
AcDbLine
 62
7
  6
CONTINUOUS
 10
-127.7085997993
 20
-25.2
 11
-127.5585997993
 21
-25.05
  0
LINE
  5
2DC
100
AcDbEntity
  8
ASSI
100
AcDbLine
 62
7
  6
CONTINUOUS
 10
-127.7085997993
 20
-25.2
 11
-127.5585997993
 21
-25.05
  0
LINE
  5
2DD
100
AcDbEntity
  8
0
100
AcDbLine
 62
7
  6
CONTINUOUS
 10
-127.7085997993
 20
25.2
 11
-127.5585997993
 21
25.05
  0
LINE
  5
2DE
100
AcDbEntity
  8
ASSI
100
AcDbLine
 62
7
  6
CONTINUOUS
 10
-127.7085997993
 20
25.2
 11
-127.5585997993
 21
25.05
  0
LINE
  5
2DF
100
AcDbEntity
  8
0
100
AcDbLine
 62
250
  6
CONTINUOUS
 10
-127.0828272156
 20
-26.9276792439
 11
-125.9833083557
 21
-26.3440350289
  0
LINE
  5
2E0
100
AcDbEntity
  8
ASSI
100
AcDbLine
 62
250
  6
CONTINUOUS
 10
-127.0828272156
 20
-26.9276792439
 11
-125.9833083557
 21
-26.3440350289
  0
LINE
  5
2E1
100
AcDbEntity
  8
0
100
AcDbLine
 62
250
  6
CONTINUOUS
 10
-125.5585505671
 20
-26.2536973817
 11
-125.0364587144
 21
-25.9765617175
  0
LINE
  5
2E2
100
AcDbEntity
  8
ASSI
100
AcDbLine
 62
250
  6
CONTINUOUS
 10
-125.5585505671
 20
-26.2536973817
 11
-125.0364587144
 21
-25.9765617175
  0
LINE
  5
2E3
100
AcDbEntity
  8
0
100
AcDbLine
 62
7
  6
CONTINUOUS
 10
-125.0085997993
 20
-26.0883643404
 11
-126.9435878376
 21
-27.1154904916
  0
LINE
  5
2E4
100
AcDbEntity
  8
ASSI
100
AcDbLine
 62
7
  6
CONTINUOUS
 10
-125.0085997993
 20
-26.0883643404
 11
-126.9435878376
 21
-27.1154904916
  0
LINE
  5
2E5
100
AcDbEntity
  8
0
100
AcDbLine
 62
7
  6
CONTINUOUS
 10
-125.0085997993
 20
25.4
 11
-126.9589717014
 21
25.2049628098
  0
LINE
  5
2E6
100
AcDbEntity
  8
ASSI
100
AcDbLine
 62
7
  6
CONTINUOUS
 10
-125.0085997993
 20
25.4
 11
-126.9589717014
 21
25.2049628098
  0
LINE
  5
2E7
100
AcDbEntity
  8
0
100
AcDbLine
 62
7
  6
CONTINUOUS
 10
-128.0085997993
 20
25.7558198745
 11
-125.1981326081
 21
25.8799866677
  0
LINE
  5
2E8
100
AcDbEntity
  8
ASSI
100
AcDbLine
 62
7
  6
CONTINUOUS
 10
-128.0085997993
 20
25.7558198745
 11
-125.1981326081
 21
25.8799866677
  0
LINE
  5
2E9
100
AcDbEntity
  8
0
100
AcDbLine
 62
7
  6
CONTINUOUS
 10
-125.0085997993
 20
25.3523612067
 11
-125.5305364537
 21
25.3478063346
  0
LINE
  5
2EA
100
AcDbEntity
  8
ASSI
100
AcDbLine
 62
7
  6
CONTINUOUS
 10
-125.0085997993
 20
25.3523612067
 11
-125.5305364537
 21
25.3478063346
  0
LINE
  5
2EB
100
AcDbEntity
  8
0
100
AcDbLine
 62
7
  6
CONTINUOUS
 10
-128.0085997993
 20
25.05
 11
-127.8585997993
 21
25.05
  0
LINE
  5
2EC
100
AcDbEntity
  8
ASSI
100
AcDbLine
 62
7
  6
CONTINUOUS
 10
-128.0085997993
 20
25.05
 11
-127.8585997993
 21
25.05
  0
LINE
  5
2ED
100
AcDbEntity
  8
0
100
AcDbLine
 62
7
  6
CONTINUOUS
 10
-127.5585997993
 20
25.05
 11
-127.3585997993
 21
25.05
  0
LINE
  5
2EE
100
AcDbEntity
  8
ASSI
100
AcDbLine
 62
7
  6
CONTINUOUS
 10
-127.5585997993
 20
25.05
 11
-127.3585997993
 21
25.05
  0
LINE
  5
2EF
100
AcDbEntity
  8
0
100
AcDbLine
 62
7
  6
CONTINUOUS
 10
-128.0085997993
 20
25.2
 11
-127.0584754205
 21
25.2
  0
LINE
  5
2F0
100
AcDbEntity
  8
ASSI
100
AcDbLine
 62
7
  6
CONTINUOUS
 10
-128.0085997993
 20
25.2
 11
-127.0584754205
 21
25.2
  0
LINE
  5
2F1
100
AcDbEntity
  8
0
100
AcDbLine
 62
7
  6
CONTINUOUS
 10
-125.0085997993
 20
26.1523612067
 11
-125.1291625664
 21
26.1523612067
  0
LINE
  5
2F2
100
AcDbEntity
  8
ASSI
100
AcDbLine
 62
7
  6
CONTINUOUS
 10
-125.0085997993
 20
26.1523612067
 11
-125.1291625664
 21
26.1523612067
  0
LINE
  5
2F3
100
AcDbEntity
  8
0
100
AcDbLine
 62
250
  6
CONTINUOUS
 10
-127.0828272156
 20
26.9276792439
 11
-128.0085997993
 21
26.9280974384
  0
LINE
  5
2F4
100
AcDbEntity
  8
ASSI
100
AcDbLine
 62
250
  6
CONTINUOUS
 10
-127.0828272156
 20
26.9276792439
 11
-128.0085997993
 21
26.9280974384
  0
LINE
  5
2F5
100
AcDbEntity
  8
0
100
AcDbLine
 62
7
  6
CONTINUOUS
 10
-127.0827626015
 20
27.1501294386
 11
-128.0085997993
 21
27.151745331
  0
LINE
  5
2F6
100
AcDbEntity
  8
ASSI
100
AcDbLine
 62
7
  6
CONTINUOUS
 10
-127.0827626015
 20
27.1501294386
 11
-128.0085997993
 21
27.151745331
  0
LINE
  5
2F7
100
AcDbEntity
  8
0
100
AcDbLine
 62
250
  6
CONTINUOUS
 10
-125.5585505671
 20
26.2536973817
 11
-128.0085997993
 21
26.2679513512
  0
LINE
  5
2F8
100
AcDbEntity
  8
ASSI
100
AcDbLine
 62
250
  6
CONTINUOUS
 10
-125.5585505671
 20
26.2536973817
 11
-128.0085997993
 21
26.2679513512
  0
LINE
  5
2F9
100
AcDbEntity
  8
0
100
AcDbLine
 62
7
  6
CONTINUOUS
 10
-125.5585505671
 20
26.3415638603
 11
-128.0085997993
 21
26.3558178298
  0
LINE
  5
2FA
100
AcDbEntity
  8
ASSI
100
AcDbLine
 62
7
  6
CONTINUOUS
 10
-125.5585505671
 20
26.3415638603
 11
-128.0085997993
 21
26.3558178298
  0
LINE
  5
2FB
100
AcDbEntity
  8
0
100
AcDbLine
 62
250
  6
CONTINUOUS
 10
-125.9833083557
 20
26.3440350289
 11
-127.0828272156
 21
26.9276792439
  0
LINE
  5
2FC
100
AcDbEntity
  8
ASSI
100
AcDbLine
 62
250
  6
CONTINUOUS
 10
-125.9833083557
 20
26.3440350289
 11
-127.0828272156
 21
26.9276792439
  0
LINE
  5
2FD
100
AcDbEntity
  8
0
100
AcDbLine
 62
250
  6
CONTINUOUS
 10
-125.0364587144
 20
25.9765617175
 11
-125.5585505671
 21
26.2536973817
  0
LINE
  5
2FE
100
AcDbEntity
  8
ASSI
100
AcDbLine
 62
250
  6
CONTINUOUS
 10
-125.0364587144
 20
25.9765617175
 11
-125.5585505671
 21
26.2536973817
  0
LINE
  5
2FF
100
AcDbEntity
  8
0
100
AcDbLine
 62
7
  6
CONTINUOUS
 10
-125.0085997993
 20
26.0883643404
 11
-126.9435878376
 21
27.1154904916
  0
LINE
  5
300
100
AcDbEntity
  8
ASSI
100
AcDbLine
 62
7
  6
CONTINUOUS
 10
-125.0085997993
 20
26.0883643404
 11
-126.9435878376
 21
27.1154904916
  0
LINE
  5
301
100
AcDbEntity
  8
SMUSSO
100
AcDbLine
 62
7
  6
CONTINUOUS
 10
-132.5585997993
 20
-44.5
 11
-133.0585997993
 21
-45.0
  0
LINE
  5
302
100
AcDbEntity
  8
SMUSSO
100
AcDbLine
 62
7
  6
CONTINUOUS
 10
-132.5585997993
 20
44.5
 11
-133.0585997993
 21
45.0
  0
LINE
  5
303
100
AcDbEntity
  8
0
100
AcDbLine
 62
250
  6
CONTINUOUS
 10
-131.2306697993
 20
-35.08611
 11
-129.9901057993
 21
-34.620883
  0
LINE
  5
304
100
AcDbEntity
  8
0
100
AcDbLine
 62
250
  6
CONTINUOUS
 10
-130.8351517993
 20
-34.590908
 11
-131.8899517993
 21
-34.983292
  0
LINE
  5
305
100
AcDbEntity
  8
0
100
AcDbLine
 62
250
  6
CONTINUOUS
 10
-129.9901057993
 20
-31.999568
 11
-131.8899517993
 21
-32.582488
  0
LINE
  5
306
100
AcDbEntity
  8
0
100
AcDbLine
 62
7
  6
CONTINUOUS
 10
-129.5078022405
 20
-44.2993619529
 11
-128.0085997993
 21
-43.1
  0
LINE
  5
307
100
AcDbEntity
  8
ASSI
100
AcDbLine
 62
7
  6
CONTINUOUS
 10
-129.5078022405
 20
-44.2993619529
 11
-128.0085997993
 21
-43.1
  0
LINE
  5
308
100
AcDbEntity
  8
0
100
AcDbLine
 62
250
  6
CONTINUOUS
 10
-131.8899517993
 20
-37.870764
 11
-129.9901057993
 21
-37.268476
  0
LINE
  5
309
100
AcDbEntity
  8
0
100
AcDbLine
 62
7
  6
CONTINUOUS
 10
-129.5085997993
 20
44.3
 11
-128.0085997993
 21
43.1
  0
LINE
  5
30A
100
AcDbEntity
  8
ASSI
100
AcDbLine
 62
7
  6
CONTINUOUS
 10
-129.5085997993
 20
44.3
 11
-128.0085997993
 21
43.1
  0
LWPOLYLINE
  5
30B
100
AcDbEntity
  8
0
100
AcDbPolyline
 62
7
  6
CONTINUOUS
 90
10
 70
0
 43
0.3500000006
 10
-120.3526062927
 20
56.2499987183
 10
-120.2811841736
 20
56.1071454163
 10
-120.2811841736
 20
56.0357142334
 10
-120.4240374756
 20
55.8928609314
 10
-120.4954686584
 20
55.8928609314
 10
-120.5668998413
 20
55.9642830505
 10
-120.5668998413
 20
56.0357142334
 10
-120.4954686584
 20
56.1785675354
 10
-120.4240374756
 20
56.2499987183
 10
-120.3526062927
 20
56.2499987183
  0
LINE
  5
30C
100
AcDbEntity
  8
RACCORDO
100
AcDbLine
 62
250
  6
CONTINUOUS
 10
-132.5585997993
 20
37.0
 11
-132.4085997993
 21
37.0
  0
LINE
  5
30D
100
AcDbEntity
  8
RACCORDO
100
AcDbLine
 62
7
  6
CONTINUOUS
 10
-132.5585997993
 20
39.0
 11
-132.4085997993
 21
39.0
  0
LWPOLYLINE
  5
30E
100
AcDbEntity
  8
0
100
AcDbPolyline
 62
7
  6
CONTINUOUS
 90
10
 70
0
 43
0.3500000006
 10
-118.8008791809
 20
64.2500011597
 10
-118.729447998
 20
64.1071387939
 10
-118.729447998
 20
64.0357166748
 10
-118.8723103638
 20
63.8928543091
 10
-118.9437415466
 20
63.8928543091
 10
-119.0151636658
 20
63.9642854919
 10
-119.0151636658
 20
64.0357166748
 10
-118.9437415466
 20
64.1785699768
 10
-118.8723103638
 20
64.2500011597
 10
-118.8008791809
 20
64.2500011597
  0
LINE
  5
30F
100
AcDbEntity
  8
RACCORDO
100
AcDbLine
 62
7
  6
CONTINUOUS
 10
-132.5585997993
 20
40.0
 11
-132.4085997993
 21
40.0
  0
LINE
  5
310
100
AcDbEntity
  8
SMUSSO
100
AcDbLine
 62
250
  6
CONTINUOUS
 10
-132.5585997993
 20
44.0
 11
-135.5585997993
 21
44.0
  0
LINE
  5
311
100
AcDbEntity
  8
SMUSSO
100
AcDbLine
 62
7
  6
CONTINUOUS
 10
-134.5585997993
 20
45.0
 11
-133.0585997993
 21
45.0
  0
LWPOLYLINE
  5
312
100
AcDbEntity
  8
0
100
AcDbPolyline
 62
7
  6
CONTINUOUS
 90
8
 70
0
 43
0.3500000006
 10
-119.2811838684
 20
55.7499985657
 10
-118.4240368652
 20
55.7499985657
 10
-117.9954678955
 20
56.1785675354
 10
-117.9954678955
 20
57.0357145386
 10
-118.4240368652
 20
57.4642835083
 10
-119.2811838684
 20
57.4642835083
 10
-119.2811838684
 20
58.7499994812
 10
-117.9954678955
 20
58.7499994812
  0
LWPOLYLINE
  5
313
100
AcDbEntity
  8
0
100
AcDbPolyline
 62
7
  6
CONTINUOUS
 90
8
 70
0
 43
0.3500000006
 10
-117.1383208923
 20
55.7499985657
 10
-116.2811829529
 20
55.7499985657
 10
-115.8526139832
 20
56.1785675354
 10
-115.8526139832
 20
57.0357145386
 10
-116.2811829529
 20
57.4642835083
 10
-117.1383208923
 20
57.4642835083
 10
-117.1383208923
 20
58.7499994812
 10
-115.8526139832
 20
58.7499994812
  0
LWPOLYLINE
  5
314
100
AcDbEntity
  8
0
100
AcDbPolyline
 62
7
  6
CONTINUOUS
 90
8
 70
0
 43
0.3500000006
 10
-117.7294476929
 20
63.7500010071
 10
-116.8723097534
 20
63.7500010071
 10
-116.4437407837
 20
64.1785699768
 10
-116.4437407837
 20
65.03571698
 10
-116.8723097534
 20
65.4642859497
 10
-117.7294476929
 20
65.4642859497
 10
-117.7294476929
 20
66.7500019226
 10
-116.4437407837
 20
66.7500019226
  0
LWPOLYLINE
  5
315
100
AcDbEntity
  8
0
100
AcDbPolyline
 62
7
  6
CONTINUOUS
 90
8
 70
0
 43
0.3500000006
 10
-115.5865937805
 20
63.7500010071
 10
-114.7294558411
 20
63.7500010071
 10
-114.3008778076
 20
64.1785699768
 10
-114.3008778076
 20
65.03571698
 10
-114.7294558411
 20
65.4642859497
 10
-115.5865937805
 20
65.4642859497
 10
-115.5865937805
 20
66.7500019226
 10
-114.3008778076
 20
66.7500019226
  0
LINE
  5
316
100
AcDbEntity
  8
0
100
AcDbLine
 62
250
  6
CONTINUOUS
 10
-132.4085997993
 20
43.3507719931
 11
-129.5085997993
 21
43.3001523048
  0
LINE
  5
317
100
AcDbEntity
  8
ASSI
100
AcDbLine
 62
250
  6
CONTINUOUS
 10
-132.4085997993
 20
43.3507719931
 11
-129.5085997993
 21
43.3001523048
  0
LINE
  5
318
100
AcDbEntity
  8
0
100
AcDbLine
 62
7
  6
CONTINUOUS
 10
-132.4085997993
 20
44.3506196883
 11
-129.5085997993
 21
44.3
  0
LINE
  5
319
100
AcDbEntity
  8
ASSI
100
AcDbLine
 62
7
  6
CONTINUOUS
 10
-132.4085997993
 20
44.3506196883
 11
-129.5085997993
 21
44.3
  0
LINE
  5
31A
100
AcDbEntity
  8
0
100
AcDbLine
 62
250
  6
CONTINUOUS
 10
-129.5078022405
 20
43.3354659698
 11
-128.0085997993
 21
43.0384032275
  0
LINE
  5
31B
100
AcDbEntity
  8
ASSI
100
AcDbLine
 62
250
  6
CONTINUOUS
 10
-129.5078022405
 20
43.3354659698
 11
-128.0085997993
 21
43.0384032275
  0
ARC
  5
31C
100
AcDbEntity
  8
RACCORDO
100
AcDbCircle
 62
7
  6
CONTINUOUS
 10
-77.8
 20
-21.55
 40
1.2
100
AcDbArc
 50
180.0
 51
270.0
  0
ARC
  5
31D
100
AcDbEntity
  8
RACCORDO
100
AcDbCircle
 62
7
  6
CONTINUOUS
 10
77.8
 20
-21.55
 40
1.2
100
AcDbArc
 50
270.0
 51
360.0
  0
ARC
  5
31E
100
AcDbEntity
  8
RACCORDO
100
AcDbCircle
 62
7
  6
CONTINUOUS
 10
77.8
 20
21.55
 40
1.2
100
AcDbArc
 50
0.0
 51
90.0
  0
ARC
  5
31F
100
AcDbEntity
  8
RACCORDO
100
AcDbCircle
 62
7
  6
CONTINUOUS
 10
-77.8
 20
21.55
 40
1.2
100
AcDbArc
 50
90.0
 51
180.0
  0
ARC
  5
320
100
AcDbEntity
  8
SMUSSO
100
AcDbCircle
 62
7
  6
CONTINUOUS
 10
-105.0
 20
44.0
 40
1.0
100
AcDbArc
 50
90.0
 51
180.0
  0
ARC
  5
321
100
AcDbEntity
  8
SMUSSO
100
AcDbCircle
 62
7
  6
CONTINUOUS
 10
-105.0
 20
-44.0
 40
1.0
100
AcDbArc
 50
180.0
 51
270.0
  0
ARC
  5
322
100
AcDbEntity
  8
SMUSSO
100
AcDbCircle
 62
7
  6
CONTINUOUS
 10
105.0
 20
-44.0
 40
1.0
100
AcDbArc
 50
270.0
 51
360.0
  0
ARC
  5
323
100
AcDbEntity
  8
SMUSSO
100
AcDbCircle
 62
7
  6
CONTINUOUS
 10
105.0
 20
44.0
 40
1.0
100
AcDbArc
 50
0.0
 51
90.0
  0
ARC
  5
324
100
AcDbEntity
  8
0
100
AcDbCircle
 62
7
  6
CONTINUOUS
 10
-127.0584754205
 20
-26.2
 40
1.0
100
AcDbArc
 50
84.2894068625
 51
90.0
  0
ARC
  5
325
100
AcDbEntity
  8
ASSI
100
AcDbCircle
 62
7
  6
CONTINUOUS
 10
-127.0584754205
 20
-26.2
 40
1.0
100
AcDbArc
 50
84.2894068625
 51
90.0
  0
ARC
  5
326
100
AcDbEntity
  8
0
100
AcDbCircle
 62
7
  6
CONTINUOUS
 10
-127.0832866144
 20
-26.8499995703
 40
0.3
100
AcDbArc
 50
270.0999999936
 51
297.9490718565
  0
ARC
  5
327
100
AcDbEntity
  8
ASSI
100
AcDbCircle
 62
7
  6
CONTINUOUS
 10
-127.0832866144
 20
-26.8499995703
 40
0.3
100
AcDbArc
 50
270.0999999936
 51
297.9490718565
  0
ARC
  5
328
100
AcDbEntity
  8
0
100
AcDbCircle
 62
7
  6
CONTINUOUS
 10
-127.0584754205
 20
26.2
 40
1.0
100
AcDbArc
 50
270.0
 51
275.7105931375
  0
ARC
  5
329
100
AcDbEntity
  8
ASSI
100
AcDbCircle
 62
7
  6
CONTINUOUS
 10
-127.0584754205
 20
26.2
 40
1.0
100
AcDbArc
 50
270.0
 51
275.7105931375
  0
ARC
  5
32A
100
AcDbEntity
  8
0
100
AcDbCircle
 62
7
  6
CONTINUOUS
 10
-127.0832866144
 20
26.8499995703
 40
0.3
100
AcDbArc
 50
62.0509281435
 51
89.9000000064
  0
ARC
  5
32B
100
AcDbEntity
  8
ASSI
100
AcDbCircle
 62
7
  6
CONTINUOUS
 10
-127.0832866144
 20
26.8499995703
 40
0.3
100
AcDbArc
 50
62.0509281435
 51
89.9000000064
  0
ARC
  5
32C
100
AcDbEntity
  8
0
100
AcDbCircle
 62
7
  6
CONTINUOUS
 10
-125.5602958865
 20
-26.0415689373
 40
0.3
100
AcDbArc
 50
270.3333333333
 51
297.9601595792
  0
ARC
  5
32D
100
AcDbEntity
  8
ASSI
100
AcDbCircle
 62
7
  6
CONTINUOUS
 10
-125.5602958865
 20
-26.0415689373
 40
0.3
100
AcDbArc
 50
270.3333333333
 51
297.9601595792
  0
ARC
  5
32E
100
AcDbEntity
  8
0
100
AcDbCircle
 62
7
  6
CONTINUOUS
 10
-125.5602958865
 20
26.0415689373
 40
0.3
100
AcDbArc
 50
62.0398404207
 51
89.6666666667
  0
ARC
  5
32F
100
AcDbEntity
  8
ASSI
100
AcDbCircle
 62
7
  6
CONTINUOUS
 10
-125.5602958865
 20
26.0415689373
 40
0.3
100
AcDbArc
 50
62.0398404207
 51
89.6666666667
  0
SPLINE
  5
330
100
AcDbEntity
  8
0
100
AcDbSpline
 62
250
  6
CONTINUOUS
 70
0
 71
3
 72
9
 73
5
 74
0
 42
0.0000001
 43
0.0000001
 44
0.0000000001
 40
0.0
 40
0.0
 40
0.0
 40
0.0
 40
0.5656977216
 40
1.0
 40
1.0
 40
1.0
 40
1.0
 10
-127.0828272156
 20
-26.9276792439
 30
0.0
 10
-127.0657674488
 20
-26.9576744395
 30
0.0
 10
-127.0343618551
 20
-27.0099684098
 30
0.0
 10
-127.0000083859
 20
-27.0605244149
 30
0.0
 10
-126.9834762572
 20
-27.0812252284
 30
0.0
  0
SPLINE
  5
331
100
AcDbEntity
  8
0
100
AcDbSpline
 62
250
  6
CONTINUOUS
 70
0
 71
3
 72
10
 73
6
 74
0
 42
0.0000001
 43
0.0000001
 44
0.0000000001
 40
0.0
 40
0.0
 40
0.0
 40
0.0
 40
0.6908577837
 40
0.8869776647
 40
1.0
 40
1.0
 40
1.0
 40
1.0
 10
-126.9834762572
 20
-27.0812252284
 30
0.0
 10
-126.9756300635
 20
-27.0910498913
 30
0.0
 10
-126.9648923927
 20
-27.1035080987
 30
0.0
 10
-126.9508102199
 20
-27.1146486444
 30
0.0
 10
-126.9445123562
 20
-27.1159765442
 30
0.0
 10
-126.9426935657
 20
-27.1150157961
 30
0.0
  0
SPLINE
  5
332
100
AcDbEntity
  8
0
100
AcDbSpline
 62
7
  6
CONTINUOUS
 70
0
 71
3
 72
9
 73
5
 74
0
 42
0.0000001
 43
0.0000001
 44
0.0000000001
 40
0.0
 40
0.0
 40
0.0
 40
0.0
 40
0.2170585593
 40
1.0
 40
1.0
 40
1.0
 40
1.0
 10
-125.0085997993
 20
26.0463167932
 30
0.0
 10
-125.0085997993
 20
26.0430822133
 30
0.0
 10
-125.0100858508
 20
26.0281692389
 30
0.0
 10
-125.0161405658
 20
26.0141696719
 30
0.0
 10
-125.021355332
 20
26.0037326209
 30
0.0
  0
SPLINE
  5
333
100
AcDbEntity
  8
0
100
AcDbSpline
 62
7
  6
CONTINUOUS
 70
0
 71
3
 72
9
 73
5
 74
0
 42
0.0000001
 43
0.0000001
 44
0.0000000001
 40
0.0
 40
0.0
 40
0.0
 40
0.0
 40
0.2349622158
 40
1.0
 40
1.0
 40
1.0
 40
1.0
 10
-125.021355332
 20
26.0037326209
 30
0.0
 10
-125.0224436975
 20
26.0015543208
 30
0.0
 10
-125.0272142657
 20
25.992352453
 30
0.0
 10
-125.032407656
 20
25.9833772285
 30
0.0
 10
-125.0364587144
 20
25.9765617175
 30
0.0
  0
SPLINE
  5
334
100
AcDbEntity
  8
0
100
AcDbSpline
 62
7
  6
CONTINUOUS
 70
0
 71
3
 72
19
 73
15
 74
0
 42
0.0000001
 43
0.0000001
 44
0.0000000001
 40
0.0
 40
0.0
 40
0.0
 40
0.0
 40
0.009067172
 40
0.0265243027
 40
0.0526393229
 40
0.0872797261
 40
0.1302009289
 40
0.1810385852
 40
0.2393721648
 40
0.3046874706
 40
0.4539562498
 40
0.6236407389
 40
0.8078041463
 40
1.0
 40
1.0
 40
1.0
 40
1.0
 10
-129.5078022405
 20
-44.2993619529
 30
0.0
 10
-129.5055223955
 20
-44.2975380769
 30
0.0
 10
-129.5027499249
 20
-44.288733068
 30
0.0
 10
-129.4993302055
 20
-44.2725984437
 30
0.0
 10
-129.4964344671
 20
-44.2473235357
 30
0.0
 10
-129.4938428634
 20
-44.2141364971
 30
0.0
 10
-129.4918062498
 20
-44.1728007861
 30
0.0
 10
-129.4903094418
 20
-44.1238609789
 30
0.0
 10
-129.4894151956
 20
-44.0676776013
 30
0.0
 10
-129.4890223503
 20
-43.979799361
 30
0.0
 10
-129.4902638928
 20
-43.8560641236
 30
0.0
 10
-129.4940279774
 20
-43.6941017446
 30
0.0
 10
-129.4999354121
 20
-43.5183724018
 30
0.0
 10
-129.505007668
 20
-43.3972898381
 30
0.0
 10
-129.5078022405
 20
-43.3354659698
 30
0.0
  0
SPLINE
  5
335
100
AcDbEntity
  8
0
100
AcDbSpline
 62
7
  6
CONTINUOUS
 70
0
 71
3
 72
19
 73
15
 74
0
 42
0.0000001
 43
0.0000001
 44
0.0000000001
 40
0.0
 40
0.0
 40
0.0
 40
0.0
 40
0.1921958537
 40
0.3763592611
 40
0.5460437502
 40
0.6953125294
 40
0.7606278352
 40
0.8189614148
 40
0.8697990711
 40
0.9127202739
 40
0.9473606771
 40
0.9734756973
 40
0.990932828
 40
1.0
 40
1.0
 40
1.0
 40
1.0
 10
-129.5078022405
 20
43.3354659698
 30
0.0
 10
-129.505007668
 20
43.3972898381
 30
0.0
 10
-129.4999354121
 20
43.5183724018
 30
0.0
 10
-129.4940279774
 20
43.6941017446
 30
0.0
 10
-129.4902638928
 20
43.8560641236
 30
0.0
 10
-129.4890223503
 20
43.979799361
 30
0.0
 10
-129.4894151956
 20
44.0676776013
 30
0.0
 10
-129.4903094418
 20
44.1238609789
 30
0.0
 10
-129.4918062498
 20
44.1728007861
 30
0.0
 10
-129.4938428634
 20
44.2141364971
 30
0.0
 10
-129.4964344671
 20
44.2473235357
 30
0.0
 10
-129.4993302055
 20
44.2725984437
 30
0.0
 10
-129.5027499249
 20
44.2887330679
 30
0.0
 10
-129.5055223955
 20
44.2975380769
 30
0.0
 10
-129.5078022405
 20
44.2993619529
 30
0.0
  0
SPLINE
  5
336
100
AcDbEntity
  8
0
100
AcDbSpline
 62
250
  6
CONTINUOUS
 70
0
 71
3
 72
17
 73
13
 74
0
 42
0.0000001
 43
0.0000001
 44
0.0000000001
 40
0.0
 40
0.0
 40
0.0
 40
0.0
 40
0.2248700384
 40
0.4245846692
 40
0.5968514444
 40
0.7400810194
 40
0.852933894
 40
0.9343669001
 40
0.9630121649
 40
0.9835225262
 40
0.9958611074
 40
1.0
 40
1.0
 40
1.0
 40
1.0
 10
-125.5585505671
 20
26.2536973817
 30
0.0
 10
-125.5585281213
 20
26.2602837038
 30
0.0
 10
-125.5584888378
 20
26.2727191728
 30
0.0
 10
-125.5584418637
 20
26.2902022203
 30
0.0
 10
-125.5584174882
 20
26.3052879981
 30
0.0
 10
-125.5583961023
 20
26.3178469986
 30
0.0
 10
-125.5584305939
 20
26.3276992603
 30
0.0
 10
-125.5583923771
 20
26.3342989928
 30
0.0
 10
-125.5584994944
 20
26.3380288199
 30
0.0
 10
-125.5583924131
 20
26.3399867198
 30
0.0
 10
-125.5586456333
 20
26.3407918542
 30
0.0
 10
-125.5584293425
 20
26.3415631551
 30
0.0
 10
-125.5585505671
 20
26.3415638603
 30
0.0
  0
SPLINE
  5
337
100
AcDbEntity
  8
0
100
AcDbSpline
 62
250
  6
CONTINUOUS
 70
0
 71
3
 72
17
 73
13
 74
0
 42
0.0000001
 43
0.0000001
 44
0.0000000001
 40
0.0
 40
0.0
 40
0.0
 40
0.0
 40
0.0041388926
 40
0.0164774738
 40
0.0369878351
 40
0.0656330999
 40
0.147066106
 40
0.2599189806
 40
0.4031485556
 40
0.5754153308
 40
0.7751299616
 40
1.0
 40
1.0
 40
1.0
 40
1.0
 10
-125.5585505671
 20
-26.3415638603
 30
0.0
 10
-125.5584293425
 20
-26.3415631551
 30
0.0
 10
-125.5586456333
 20
-26.3407918542
 30
0.0
 10
-125.5583924131
 20
-26.3399867198
 30
0.0
 10
-125.5584994944
 20
-26.3380288199
 30
0.0
 10
-125.5583923771
 20
-26.3342989928
 30
0.0
 10
-125.5584305939
 20
-26.3276992603
 30
0.0
 10
-125.5583961023
 20
-26.3178469986
 30
0.0
 10
-125.5584174882
 20
-26.3052879981
 30
0.0
 10
-125.5584418637
 20
-26.2902022203
 30
0.0
 10
-125.5584888378
 20
-26.2727191728
 30
0.0
 10
-125.5585281213
 20
-26.2602837038
 30
0.0
 10
-125.5585505671
 20
-26.2536973817
 30
0.0
  0
SPLINE
  5
338
100
AcDbEntity
  8
0
100
AcDbSpline
 62
250
  6
CONTINUOUS
 70
0
 71
3
 72
9
 73
5
 74
0
 42
0.0000001
 43
0.0000001
 44
0.0000000001
 40
0.0
 40
0.0
 40
0.0
 40
0.0
 40
0.4669225629
 40
1.0
 40
1.0
 40
1.0
 40
1.0
 10
-125.4196386381
 20
-26.3065510847
 30
0.0
 10
-125.4266424576
 20
-26.310268837
 30
0.0
 10
-125.4436714744
 20
-26.3146621867
 30
0.0
 10
-125.4608151116
 20
-26.3122061656
 30
0.0
 10
-125.4695613138
 20
-26.3098699445
 30
0.0
  0
SPLINE
  5
339
100
AcDbEntity
  8
0
100
AcDbSpline
 62
250
  6
CONTINUOUS
 70
0
 71
3
 72
9
 73
5
 74
0
 42
0.0000001
 43
0.0000001
 44
0.0000000001
 40
0.0
 40
0.0
 40
0.0
 40
0.0
 40
0.2245692642
 40
1.0
 40
1.0
 40
1.0
 40
1.0
 10
-125.4695613138
 20
-26.3098699445
 30
0.0
 10
-125.4735371797
 20
-26.3088079405
 30
0.0
 10
-125.4909728266
 20
-26.3030669015
 30
0.0
 10
-125.5071321329
 20
-26.2939252867
 30
0.0
 10
-125.5188939873
 20
-26.2859516402
 30
0.0
  0
SPLINE
  5
33A
100
AcDbEntity
  8
0
100
AcDbSpline
 62
250
  6
CONTINUOUS
 70
0
 71
3
 72
9
 73
5
 74
0
 42
0.0000001
 43
0.0000001
 44
0.0000000001
 40
0.0
 40
0.0
 40
0.0
 40
0.0
 40
0.235354184
 40
1.0
 40
1.0
 40
1.0
 40
1.0
 10
-125.5188939873
 20
-26.2859516402
 30
0.0
 10
-125.5222154285
 20
-26.2836999546
 30
0.0
 10
-125.5360935471
 20
-26.2737877549
 30
0.0
 10
-125.549076125
 20
-26.2626527958
 30
0.0
 10
-125.5585505671
 20
-26.2536973817
 30
0.0
  0
SPLINE
  5
33B
100
AcDbEntity
  8
0
100
AcDbSpline
 62
250
  6
CONTINUOUS
 70
0
 71
3
 72
9
 73
5
 74
0
 42
0.0000001
 43
0.0000001
 44
0.0000000001
 40
0.0
 40
0.0
 40
0.0
 40
0.0
 40
0.4668689915
 40
1.0
 40
1.0
 40
1.0
 40
1.0
 10
-125.4196386381
 20
26.3065510847
 30
0.0
 10
-125.4266498846
 20
26.3102727794
 30
0.0
 10
-125.4437011846
 20
26.3146669724
 30
0.0
 10
-125.4608638974
 20
26.3121983838
 30
0.0
 10
-125.4696199475
 20
26.3098542781
 30
0.0
  0
SPLINE
  5
33C
100
AcDbEntity
  8
0
100
AcDbSpline
 62
250
  6
CONTINUOUS
 70
0
 71
3
 72
9
 73
5
 74
0
 42
0.0000001
 43
0.0000001
 44
0.0000000001
 40
0.0
 40
0.0
 40
0.0
 40
0.0
 40
0.2245882178
 40
1.0
 40
1.0
 40
1.0
 40
1.0
 10
-125.4696199475
 20
26.3098542781
 30
0.0
 10
-125.4735941157
 20
26.3087903429
 30
0.0
 10
-125.4910206091
 20
26.3030430342
 30
0.0
 10
-125.5071715337
 20
26.2939013746
 30
0.0
 10
-125.5189275468
 20
26.2859288896
 30
0.0
  0
SPLINE
  5
33D
100
AcDbEntity
  8
0
100
AcDbSpline
 62
250
  6
CONTINUOUS
 70
0
 71
3
 72
9
 73
5
 74
0
 42
0.0000001
 43
0.0000001
 44
0.0000000001
 40
0.0
 40
0.0
 40
0.0
 40
0.0
 40
0.2353685956
 40
1.0
 40
1.0
 40
1.0
 40
1.0
 10
-125.5189275468
 20
26.2859288896
 30
0.0
 10
-125.5222461956
 20
26.283678307
 30
0.0
 10
-125.5361119974
 20
26.2737721062
 30
0.0
 10
-125.5490838017
 20
26.2626455397
 30
0.0
 10
-125.5585505671
 20
26.2536973817
 30
0.0
  0
SPLINE
  5
33E
100
AcDbEntity
  8
0
100
AcDbSpline
 62
7
  6
CONTINUOUS
 70
0
 71
3
 72
9
 73
5
 74
0
 42
0.0000001
 43
0.0000001
 44
0.0000000001
 40
0.0
 40
0.0
 40
0.0
 40
0.0
 40
0.5701305404
 40
1.0
 40
1.0
 40
1.0
 40
1.0
 10
-125.0364587144
 20
-25.9765617175
 30
0.0
 10
-125.0291093749
 20
-25.988926265
 30
0.0
 10
-125.0165093294
 20
-26.0106367614
 30
0.0
 10
-125.0085997993
 20
-26.0354716048
 30
0.0
 10
-125.0085997993
 20
-26.0463167932
 30
0.0
  0
SPLINE
  5
33F
100
AcDbEntity
  8
0
100
AcDbSpline
 62
250
  6
CONTINUOUS
 70
0
 71
3
 72
9
 73
5
 74
0
 42
0.0000001
 43
0.0000001
 44
0.0000000001
 40
0.0
 40
0.0
 40
0.0
 40
0.0
 40
0.5613653494
 40
1.0
 40
1.0
 40
1.0
 40
1.0
 10
-127.0828272156
 20
26.9276792439
 30
0.0
 10
-127.0663358624
 20
26.9566621428
 30
0.0
 10
-127.0357710616
 20
27.0076033
 30
0.0
 10
-127.0024634359
 20
27.0569095757
 30
0.0
 10
-126.9864241138
 20
27.0774435741
 30
0.0
  0
SPLINE
  5
340
100
AcDbEntity
  8
0
100
AcDbSpline
 62
250
  6
CONTINUOUS
 70
0
 71
3
 72
10
 73
6
 74
0
 42
0.0000001
 43
0.0000001
 44
0.0000000001
 40
0.0
 40
0.0
 40
0.0
 40
0.0
 40
0.694015534
 40
0.8899562411
 40
1.0
 40
1.0
 40
1.0
 40
1.0
 10
-126.9864241138
 20
27.0774435741
 30
0.0
 10
-126.9779720471
 20
27.0882641514
 30
0.0
 10
-126.9663530925
 20
27.101981475
 30
0.0
 10
-126.9513995388
 20
27.114366651
 30
0.0
 10
-126.944614675
 20
27.1160400455
 30
0.0
 10
-126.9426935657
 20
27.1150157961
 30
0.0
  0
SPLINE
  5
341
100
AcDbEntity
  8
ASSI
100
AcDbSpline
 62
250
  6
CONTINUOUS
 70
0
 71
3
 72
9
 73
5
 74
0
 42
0.0000001
 43
0.0000001
 44
0.0000000001
 40
0.0
 40
0.0
 40
0.0
 40
0.0
 40
0.5656976981
 40
1.0
 40
1.0
 40
1.0
 40
1.0
 10
-127.0828272156
 20
-26.9276792439
 30
0.0
 10
-127.0657674518
 20
-26.9576744342
 30
0.0
 10
-127.0343618626
 20
-27.0099683976
 30
0.0
 10
-127.0000083988
 20
-27.0605243962
 30
0.0
 10
-126.9834762726
 20
-27.0812252091
 30
0.0
  0
SPLINE
  5
342
100
AcDbEntity
  8
ASSI
100
AcDbSpline
 62
250
  6
CONTINUOUS
 70
0
 71
3
 72
10
 73
6
 74
0
 42
0.0000001
 43
0.0000001
 44
0.0000000001
 40
0.0
 40
0.0
 40
0.0
 40
0.0
 40
0.6908577998
 40
0.8869776795
 40
1.0
 40
1.0
 40
1.0
 40
1.0
 10
-126.9834762726
 20
-27.0812252091
 30
0.0
 10
-126.9756300759
 20
-27.0910498771
 30
0.0
 10
-126.9648924006
 20
-27.103508091
 30
0.0
 10
-126.950810223
 20
-27.1146486431
 30
0.0
 10
-126.9445123568
 20
-27.1159765445
 30
0.0
 10
-126.9426935657
 20
-27.1150157961
 30
0.0
  0
SPLINE
  5
343
100
AcDbEntity
  8
ASSI
100
AcDbSpline
 62
7
  6
CONTINUOUS
 70
0
 71
3
 72
9
 73
5
 74
0
 42
0.0000001
 43
0.0000001
 44
0.0000000001
 40
0.0
 40
0.0
 40
0.0
 40
0.0
 40
0.2170585592
 40
1.0
 40
1.0
 40
1.0
 40
1.0
 10
-125.0085997993
 20
26.0463167932
 30
0.0
 10
-125.0085997993
 20
26.0430822133
 30
0.0
 10
-125.0100858509
 20
26.0281692389
 30
0.0
 10
-125.0161405658
 20
26.0141696718
 30
0.0
 10
-125.0213553321
 20
26.0037326208
 30
0.0
  0
SPLINE
  5
344
100
AcDbEntity
  8
ASSI
100
AcDbSpline
 62
7
  6
CONTINUOUS
 70
0
 71
3
 72
9
 73
5
 74
0
 42
0.0000001
 43
0.0000001
 44
0.0000000001
 40
0.0
 40
0.0
 40
0.0
 40
0.0
 40
0.2349622158
 40
1.0
 40
1.0
 40
1.0
 40
1.0
 10
-125.0213553321
 20
26.0037326208
 30
0.0
 10
-125.0224436975
 20
26.0015543207
 30
0.0
 10
-125.0272142657
 20
25.992352453
 30
0.0
 10
-125.032407656
 20
25.9833772285
 30
0.0
 10
-125.0364587144
 20
25.9765617175
 30
0.0
  0
SPLINE
  5
345
100
AcDbEntity
  8
ASSI
100
AcDbSpline
 62
7
  6
CONTINUOUS
 70
0
 71
3
 72
19
 73
15
 74
0
 42
0.0000001
 43
0.0000001
 44
0.0000000001
 40
0.0
 40
0.0
 40
0.0
 40
0.0
 40
0.009067172
 40
0.0265243027
 40
0.0526393229
 40
0.0872797261
 40
0.1302009289
 40
0.1810385852
 40
0.2393721648
 40
0.3046874706
 40
0.4539562498
 40
0.6236407389
 40
0.8078041463
 40
1.0
 40
1.0
 40
1.0
 40
1.0
 10
-129.5078022405
 20
-44.2993619529
 30
0.0
 10
-129.5055223955
 20
-44.2975380769
 30
0.0
 10
-129.5027499249
 20
-44.288733068
 30
0.0
 10
-129.4993302055
 20
-44.2725984437
 30
0.0
 10
-129.4964344671
 20
-44.2473235357
 30
0.0
 10
-129.4938428634
 20
-44.2141364971
 30
0.0
 10
-129.4918062498
 20
-44.1728007861
 30
0.0
 10
-129.4903094418
 20
-44.1238609789
 30
0.0
 10
-129.4894151956
 20
-44.0676776013
 30
0.0
 10
-129.4890223503
 20
-43.979799361
 30
0.0
 10
-129.4902638928
 20
-43.8560641236
 30
0.0
 10
-129.4940279774
 20
-43.6941017446
 30
0.0
 10
-129.4999354121
 20
-43.5183724018
 30
0.0
 10
-129.505007668
 20
-43.3972898381
 30
0.0
 10
-129.5078022405
 20
-43.3354659698
 30
0.0
  0
SPLINE
  5
346
100
AcDbEntity
  8
ASSI
100
AcDbSpline
 62
7
  6
CONTINUOUS
 70
0
 71
3
 72
19
 73
15
 74
0
 42
0.0000001
 43
0.0000001
 44
0.0000000001
 40
0.0
 40
0.0
 40
0.0
 40
0.0
 40
0.1921958537
 40
0.3763592611
 40
0.5460437502
 40
0.6953125294
 40
0.7606278352
 40
0.8189614148
 40
0.8697990711
 40
0.9127202739
 40
0.9473606771
 40
0.9734756973
 40
0.990932828
 40
1.0
 40
1.0
 40
1.0
 40
1.0
 10
-129.5078022405
 20
43.3354659698
 30
0.0
 10
-129.505007668
 20
43.3972898381
 30
0.0
 10
-129.4999354121
 20
43.5183724018
 30
0.0
 10
-129.4940279774
 20
43.6941017446
 30
0.0
 10
-129.4902638928
 20
43.8560641236
 30
0.0
 10
-129.4890223503
 20
43.979799361
 30
0.0
 10
-129.4894151956
 20
44.0676776013
 30
0.0
 10
-129.4903094418
 20
44.1238609789
 30
0.0
 10
-129.4918062498
 20
44.1728007861
 30
0.0
 10
-129.4938428634
 20
44.2141364971
 30
0.0
 10
-129.4964344671
 20
44.2473235357
 30
0.0
 10
-129.4993302055
 20
44.2725984437
 30
0.0
 10
-129.5027499249
 20
44.2887330679
 30
0.0
 10
-129.5055223955
 20
44.2975380769
 30
0.0
 10
-129.5078022405
 20
44.2993619529
 30
0.0
  0
SPLINE
  5
347
100
AcDbEntity
  8
ASSI
100
AcDbSpline
 62
7
  6
CONTINUOUS
 70
0
 71
3
 72
9
 73
5
 74
0
 42
0.0000001
 43
0.0000001
 44
0.0000000001
 40
0.0
 40
0.0
 40
0.0
 40
0.0
 40
0.5701305404
 40
1.0
 40
1.0
 40
1.0
 40
1.0
 10
-125.0364587144
 20
-25.9765617175
 30
0.0
 10
-125.0291093749
 20
-25.988926265
 30
0.0
 10
-125.0165093294
 20
-26.0106367614
 30
0.0
 10
-125.0085997993
 20
-26.0354716048
 30
0.0
 10
-125.0085997993
 20
-26.0463167932
 30
0.0
  0
SPLINE
  5
348
100
AcDbEntity
  8
ASSI
100
AcDbSpline
 62
250
  6
CONTINUOUS
 70
0
 71
3
 72
17
 73
13
 74
0
 42
0.0000001
 43
0.0000001
 44
0.0000000001
 40
0.0
 40
0.0
 40
0.0
 40
0.0
 40
0.2248700384
 40
0.4245846692
 40
0.5968514444
 40
0.7400810194
 40
0.852933894
 40
0.9343669001
 40
0.9630121649
 40
0.9835225262
 40
0.9958611074
 40
1.0
 40
1.0
 40
1.0
 40
1.0
 10
-125.5585505671
 20
26.2536973817
 30
0.0
 10
-125.5585281213
 20
26.2602837038
 30
0.0
 10
-125.5584888378
 20
26.2727191728
 30
0.0
 10
-125.5584418637
 20
26.2902022203
 30
0.0
 10
-125.5584174882
 20
26.3052879981
 30
0.0
 10
-125.5583961023
 20
26.3178469986
 30
0.0
 10
-125.5584305939
 20
26.3276992603
 30
0.0
 10
-125.5583923771
 20
26.3342989928
 30
0.0
 10
-125.5584994944
 20
26.3380288199
 30
0.0
 10
-125.5583924131
 20
26.3399867198
 30
0.0
 10
-125.5586456333
 20
26.3407918542
 30
0.0
 10
-125.5584293425
 20
26.3415631551
 30
0.0
 10
-125.5585505671
 20
26.3415638603
 30
0.0
  0
SPLINE
  5
349
100
AcDbEntity
  8
ASSI
100
AcDbSpline
 62
250
  6
CONTINUOUS
 70
0
 71
3
 72
17
 73
13
 74
0
 42
0.0000001
 43
0.0000001
 44
0.0000000001
 40
0.0
 40
0.0
 40
0.0
 40
0.0
 40
0.0041388926
 40
0.0164774738
 40
0.0369878351
 40
0.0656330999
 40
0.147066106
 40
0.2599189806
 40
0.4031485556
 40
0.5754153308
 40
0.7751299616
 40
1.0
 40
1.0
 40
1.0
 40
1.0
 10
-125.5585505671
 20
-26.3415638603
 30
0.0
 10
-125.5584293425
 20
-26.3415631551
 30
0.0
 10
-125.5586456333
 20
-26.3407918542
 30
0.0
 10
-125.5583924131
 20
-26.3399867198
 30
0.0
 10
-125.5584994944
 20
-26.3380288199
 30
0.0
 10
-125.5583923771
 20
-26.3342989928
 30
0.0
 10
-125.5584305939
 20
-26.3276992603
 30
0.0
 10
-125.5583961023
 20
-26.3178469986
 30
0.0
 10
-125.5584174882
 20
-26.3052879981
 30
0.0
 10
-125.5584418637
 20
-26.2902022203
 30
0.0
 10
-125.5584888378
 20
-26.2727191728
 30
0.0
 10
-125.5585281213
 20
-26.2602837038
 30
0.0
 10
-125.5585505671
 20
-26.2536973817
 30
0.0
  0
SPLINE
  5
34A
100
AcDbEntity
  8
ASSI
100
AcDbSpline
 62
250
  6
CONTINUOUS
 70
0
 71
3
 72
9
 73
5
 74
0
 42
0.0000001
 43
0.0000001
 44
0.0000000001
 40
0.0
 40
0.0
 40
0.0
 40
0.0
 40
0.4669225596
 40
1.0
 40
1.0
 40
1.0
 40
1.0
 10
-125.4196386381
 20
-26.3065510847
 30
0.0
 10
-125.4266424581
 20
-26.3102688372
 30
0.0
 10
-125.4436714761
 20
-26.314662187
 30
0.0
 10
-125.4608151145
 20
-26.3122061651
 30
0.0
 10
-125.4695613172
 20
-26.3098699436
 30
0.0
  0
SPLINE
  5
34B
100
AcDbEntity
  8
ASSI
100
AcDbSpline
 62
250
  6
CONTINUOUS
 70
0
 71
3
 72
9
 73
5
 74
0
 42
0.0000001
 43
0.0000001
 44
0.0000000001
 40
0.0
 40
0.0
 40
0.0
 40
0.0
 40
0.2245692656
 40
1.0
 40
1.0
 40
1.0
 40
1.0
 10
-125.4695613172
 20
-26.3098699436
 30
0.0
 10
-125.473537183
 20
-26.3088079395
 30
0.0
 10
-125.4909728291
 20
-26.3030669002
 30
0.0
 10
-125.5071321347
 20
-26.2939252856
 30
0.0
 10
-125.5188939886
 20
-26.2859516393
 30
0.0
  0
SPLINE
  5
34C
100
AcDbEntity
  8
ASSI
100
AcDbSpline
 62
250
  6
CONTINUOUS
 70
0
 71
3
 72
9
 73
5
 74
0
 42
0.0000001
 43
0.0000001
 44
0.0000000001
 40
0.0
 40
0.0
 40
0.0
 40
0.0
 40
0.2353541846
 40
1.0
 40
1.0
 40
1.0
 40
1.0
 10
-125.5188939886
 20
-26.2859516393
 30
0.0
 10
-125.5222154297
 20
-26.2836999538
 30
0.0
 10
-125.5360935478
 20
-26.2737877543
 30
0.0
 10
-125.5490761253
 20
-26.2626527955
 30
0.0
 10
-125.5585505671
 20
-26.2536973817
 30
0.0
  0
SPLINE
  5
34D
100
AcDbEntity
  8
ASSI
100
AcDbSpline
 62
250
  6
CONTINUOUS
 70
0
 71
3
 72
9
 73
5
 74
0
 42
0.0000001
 43
0.0000001
 44
0.0000000001
 40
0.0
 40
0.0
 40
0.0
 40
0.0
 40
0.4668689915
 40
1.0
 40
1.0
 40
1.0
 40
1.0
 10
-125.4196386381
 20
26.3065510847
 30
0.0
 10
-125.4266498846
 20
26.3102727794
 30
0.0
 10
-125.4437011846
 20
26.3146669724
 30
0.0
 10
-125.4608638974
 20
26.3121983838
 30
0.0
 10
-125.4696199475
 20
26.3098542781
 30
0.0
  0
SPLINE
  5
34E
100
AcDbEntity
  8
ASSI
100
AcDbSpline
 62
250
  6
CONTINUOUS
 70
0
 71
3
 72
9
 73
5
 74
0
 42
0.0000001
 43
0.0000001
 44
0.0000000001
 40
0.0
 40
0.0
 40
0.0
 40
0.0
 40
0.2245882178
 40
1.0
 40
1.0
 40
1.0
 40
1.0
 10
-125.4696199475
 20
26.3098542781
 30
0.0
 10
-125.4735941157
 20
26.3087903429
 30
0.0
 10
-125.4910206091
 20
26.3030430342
 30
0.0
 10
-125.5071715337
 20
26.2939013746
 30
0.0
 10
-125.5189275468
 20
26.2859288895
 30
0.0
  0
SPLINE
  5
34F
100
AcDbEntity
  8
ASSI
100
AcDbSpline
 62
250
  6
CONTINUOUS
 70
0
 71
3
 72
9
 73
5
 74
0
 42
0.0000001
 43
0.0000001
 44
0.0000000001
 40
0.0
 40
0.0
 40
0.0
 40
0.0
 40
0.2353685956
 40
1.0
 40
1.0
 40
1.0
 40
1.0
 10
-125.5189275468
 20
26.2859288895
 30
0.0
 10
-125.5222461956
 20
26.283678307
 30
0.0
 10
-125.5361119974
 20
26.2737721062
 30
0.0
 10
-125.5490838017
 20
26.2626455397
 30
0.0
 10
-125.5585505671
 20
26.2536973817
 30
0.0
  0
SPLINE
  5
350
100
AcDbEntity
  8
ASSI
100
AcDbSpline
 62
250
  6
CONTINUOUS
 70
0
 71
3
 72
9
 73
5
 74
0
 42
0.0000001
 43
0.0000001
 44
0.0000000001
 40
0.0
 40
0.0
 40
0.0
 40
0.0
 40
0.5613653474
 40
1.0
 40
1.0
 40
1.0
 40
1.0
 10
-127.0828272156
 20
26.9276792439
 30
0.0
 10
-127.0663358627
 20
26.9566621424
 30
0.0
 10
-127.0357710623
 20
27.0076032989
 30
0.0
 10
-127.002463437
 20
27.056909574
 30
0.0
 10
-126.9864241152
 20
27.0774435724
 30
0.0
  0
SPLINE
  5
351
100
AcDbEntity
  8
ASSI
100
AcDbSpline
 62
250
  6
CONTINUOUS
 70
0
 71
3
 72
10
 73
6
 74
0
 42
0.0000001
 43
0.0000001
 44
0.0000000001
 40
0.0
 40
0.0
 40
0.0
 40
0.0
 40
0.6940155355
 40
0.8899562425
 40
1.0
 40
1.0
 40
1.0
 40
1.0
 10
-126.9864241152
 20
27.0774435724
 30
0.0
 10
-126.9779720482
 20
27.0882641502
 30
0.0
 10
-126.9663530932
 20
27.1019814743
 30
0.0
 10
-126.9513995391
 20
27.1143666509
 30
0.0
 10
-126.944614675
 20
27.1160400455
 30
0.0
 10
-126.9426935657
 20
27.1150157961
 30
0.0
  0
SPLINE
  5
352
100
AcDbEntity
  8
0
100
AcDbSpline
 62
250
  6
CONTINUOUS
 70
0
 71
3
 72
30
 73
26
 74
0
 42
0.0000001
 43
0.0000001
 44
0.0000000001
 40
0.0
 40
0.0
 40
0.0
 40
0.0
 40
0.0526315789
 40
0.1052631579
 40
0.1578947368
 40
0.2105263158
 40
0.2631578947
 40
0.3157894737
 40
0.3684210526
 40
0.4210526316
 40
0.4736842105
 40
0.5263157895
 40
0.5789473684
 40
0.6315789474
 40
0.6842105263
 40
0.7368421053
 40
0.7894736842
 40
0.8157894737
 40
0.8421052632
 40
0.8684210526
 40
0.8947368421
 40
0.9210526316
 40
0.9473684211
 40
0.9736842105
 40
1.0
 40
1.0
 40
1.0
 40
1.0
 10
-131.847727363
 20
-30.9043649604
 30
0.0
 10
-131.8395343703
 20
-30.8816720979
 30
0.0
 10
-131.8165247198
 20
-30.8351179791
 30
0.0
 10
-131.7578485491
 20
-30.7572128405
 30
0.0
 10
-131.6793607977
 20
-30.6879677077
 30
0.0
 10
-131.5847533673
 20
-30.6352366997
 30
0.0
 10
-131.4879263521
 20
-30.605460041
 30
0.0
 10
-131.3947859081
 20
-30.5938717575
 30
0.0
 10
-131.3128347808
 20
-30.5945619027
 30
0.0
 10
-131.2411624005
 20
-30.6041766554
 30
0.0
 10
-131.1786218074
 20
-30.620333034
 30
0.0
 10
-131.1235565286
 20
-30.6414254646
 30
0.0
 10
-131.0764168168
 20
-30.665379305
 30
0.0
 10
-131.0361235641
 20
-30.6911361407
 30
0.0
 10
-131.0023040037
 20
-30.7177798575
 30
0.0
 10
-130.9739023535
 20
-30.7446326205
 30
0.0
 10
-130.9537259729
 20
-30.7662240142
 30
0.0
 10
-130.9392009217
 20
-30.7827378377
 30
0.0
 10
-130.9289841088
 20
-30.7947464077
 30
0.0
 10
-130.9194135271
 20
-30.8062738198
 30
0.0
 10
-130.9103682786
 20
-30.8174112028
 30
0.0
 10
-130.9020640034
 20
-30.8288354043
 30
0.0
 10
-130.895295118
 20
-30.8403129703
 30
0.0
 10
-130.8904641343
 20
-30.8518162634
 30
0.0
 10
-130.8886693853
 20
-30.8596276087
 30
0.0
 10
-130.8881636069
 20
-30.8635473914
 30
0.0
  0
SPLINE
  5
353
100
AcDbEntity
  8
0
100
AcDbSpline
 62
250
  6
CONTINUOUS
 70
0
 71
3
 72
10
 73
6
 74
0
 42
0.0000001
 43
0.0000001
 44
0.0000000001
 40
0.0
 40
0.0
 40
0.0
 40
0.0
 40
0.3333333333
 40
0.6666666667
 40
1.0
 40
1.0
 40
1.0
 40
1.0
 10
-130.5042730196
 20
-30.6349473604
 30
0.0
 10
-130.4450272656
 20
-30.6188063605
 30
0.0
 10
-130.3278172295
 20
-30.5877264371
 30
0.0
 10
-130.1563826761
 20
-30.5431744052
 30
0.0
 10
-130.0449306793
 20
-30.5142766627
 30
0.0
 10
-129.9901060533
 20
-30.4993864496
 30
0.0
  0
SPLINE
  5
354
100
AcDbEntity
  8
0
100
AcDbSpline
 62
250
  6
CONTINUOUS
 70
0
 71
3
 72
15
 73
11
 74
0
 42
0.0000001
 43
0.0000001
 44
0.0000000001
 40
0.0
 40
0.0
 40
0.0
 40
0.0
 40
0.125
 40
0.25
 40
0.375
 40
0.5
 40
0.625
 40
0.75
 40
0.875
 40
1.0
 40
1.0
 40
1.0
 40
1.0
 10
-131.8677552581
 20
-31.8831153973
 30
0.0
 10
-131.875093831
 20
-31.8332328441
 30
0.0
 10
-131.8886168136
 20
-31.7372553576
 30
0.0
 10
-131.9036634834
 20
-31.6060278599
 30
0.0
 10
-131.9132679231
 20
-31.4825889089
 30
0.0
 10
-131.9169497292
 20
-31.3642450874
 30
0.0
 10
-131.9138870874
 20
-31.2473469611
 30
0.0
 10
-131.9027180769
 20
-31.131155153
 30
0.0
 10
-131.8819400146
 20
-31.0162973426
 30
0.0
 10
-131.8610248735
 20
-30.9411495522
 30
0.0
 10
-131.8477018307
 20
-30.9042944055
 30
0.0
  0
SPLINE
  5
355
100
AcDbEntity
  8
0
100
AcDbSpline
 62
250
  6
CONTINUOUS
 70
0
 71
3
 72
12
 73
8
 74
0
 42
0.0000001
 43
0.0000001
 44
0.0000000001
 40
0.0
 40
0.0
 40
0.0
 40
0.0
 40
0.3333333333
 40
0.5
 40
0.6666666667
 40
0.8333333333
 40
1.0
 40
1.0
 40
1.0
 40
1.0
 10
-131.5774790829
 20
-31.1906198897
 30
0.0
 10
-131.5814292007
 20
-31.2246543285
 30
0.0
 10
-131.5847360195
 20
-31.2759348941
 30
0.0
 10
-131.5839928566
 20
-31.3443943593
 30
0.0
 10
-131.5808596267
 20
-31.3960306093
 30
0.0
 10
-131.5748864902
 20
-31.4484220226
 30
0.0
 10
-131.5693186132
 20
-31.4835641115
 30
0.0
 10
-131.5662942226
 20
-31.5012884969
 30
0.0
  0
SPLINE
  5
356
100
AcDbEntity
  8
0
100
AcDbSpline
 62
250
  6
CONTINUOUS
 70
0
 71
3
 72
15
 73
11
 74
0
 42
0.0000001
 43
0.0000001
 44
0.0000000001
 40
0.0
 40
0.0
 40
0.0
 40
0.0
 40
0.1666666667
 40
0.3333333333
 40
0.4166666667
 40
0.5
 40
0.5833333333
 40
0.6666666667
 40
0.8333333333
 40
1.0
 40
1.0
 40
1.0
 40
1.0
 10
-131.3399847448
 20
-30.9665940676
 30
0.0
 10
-131.3589198253
 20
-30.9668902215
 30
0.0
 10
-131.3959343769
 20
-30.9720857477
 30
0.0
 10
-131.4413284335
 20
-30.9893467585
 30
0.0
 10
-131.4748664886
 20
-31.0095843329
 30
0.0
 10
-131.4981224214
 20
-31.0279198053
 30
0.0
 10
-131.5189753611
 20
-31.0496130694
 30
0.0
 10
-131.5429694963
 20
-31.0822973782
 30
0.0
 10
-131.5653758936
 20
-31.1286353471
 30
0.0
 10
-131.5749955407
 20
-31.1692215484
 30
0.0
 10
-131.577479083
 20
-31.1906198896
 30
0.0
  0
SPLINE
  5
357
100
AcDbEntity
  8
0
100
AcDbSpline
 62
250
  6
CONTINUOUS
 70
0
 71
3
 72
17
 73
13
 74
0
 42
0.0000001
 43
0.0000001
 44
0.0000000001
 40
0.0
 40
0.0
 40
0.0
 40
0.0
 40
0.1428571429
 40
0.2857142857
 40
0.3571428571
 40
0.4285714286
 40
0.5
 40
0.5714285714
 40
0.6428571429
 40
0.7142857143
 40
0.8571428571
 40
1.0
 40
1.0
 40
1.0
 40
1.0
 10
-131.0447495351
 20
-31.2746513441
 30
0.0
 10
-131.0453654186
 20
-31.2470774277
 30
0.0
 10
-131.0501582073
 20
-31.1957810757
 30
0.0
 10
-131.0635844393
 20
-31.1429539347
 30
0.0
 10
-131.079731376
 20
-31.104431124
 30
0.0
 10
-131.0947619847
 20
-31.0779305274
 30
0.0
 10
-131.1138195767
 20
-31.0531828683
 30
0.0
 10
-131.1368657807
 20
-31.0314638653
 30
0.0
 10
-131.1634068766
 20
-31.0126131442
 30
0.0
 10
-131.2031572359
 20
-30.9913316354
 30
0.0
 10
-131.2596717853
 20
-30.9723401369
 30
0.0
 10
-131.3120194072
 20
-30.9661625539
 30
0.0
 10
-131.3399847448
 20
-30.9665940676
 30
0.0
  0
SPLINE
  5
358
100
AcDbEntity
  8
0
100
AcDbSpline
 62
250
  6
CONTINUOUS
 70
0
 71
3
 72
16
 73
12
 74
0
 42
0.0000001
 43
0.0000001
 44
0.0000000001
 40
0.0
 40
0.0
 40
0.0
 40
0.0
 40
0.0833333333
 40
0.1666666667
 40
0.25
 40
0.3333333333
 40
0.4166666667
 40
0.5
 40
0.6666666667
 40
0.8333333333
 40
1.0
 40
1.0
 40
1.0
 40
1.0
 10
-130.8769371751
 20
-30.8635473914
 30
0.0
 10
-130.8735490199
 20
-30.8550504503
 30
0.0
 10
-130.8655921892
 20
-30.8382869258
 30
0.0
 10
-130.8497772208
 20
-30.8136038378
 30
0.0
 10
-130.8295791561
 20
-30.7892801011
 30
0.0
 10
-130.8053751299
 20
-30.7661562717
 30
0.0
 10
-130.7779285338
 20
-30.7447704465
 30
0.0
 10
-130.7367342705
 20
-30.7181200859
 30
0.0
 10
-130.6775807927
 20
-30.6886621472
 30
0.0
 10
-130.5957862452
 20
-30.6592391793
 30
0.0
 10
-130.5355373113
 20
-30.64346505
 30
0.0
 10
-130.5042730195
 20
-30.6349473606
 30
0.0
  0
SPLINE
  5
359
100
AcDbEntity
  8
0
100
AcDbSpline
 62
250
  6
CONTINUOUS
 70
0
 71
3
 72
17
 73
13
 74
0
 42
0.0000001
 43
0.0000001
 44
0.0000000001
 40
0.0
 40
0.0
 40
0.0
 40
0.0
 40
0.1
 40
0.2
 40
0.3
 40
0.4
 40
0.5
 40
0.6
 40
0.7
 40
0.8
 40
0.9
 40
1.0
 40
1.0
 40
1.0
 40
1.0
 10
-130.5662413688
 20
-31.0542692251
 30
0.0
 10
-130.576314324
 20
-31.0580511076
 30
0.0
 10
-130.5954729591
 20
-31.066440571
 30
0.0
 10
-130.6227246681
 20
-31.0817906066
 30
0.0
 10
-130.6479645802
 20
-31.0997036501
 30
0.0
 10
-130.6706395221
 20
-31.1198877476
 30
0.0
 10
-130.6902587622
 20
-31.1420912325
 30
0.0
 10
-130.7065230793
 20
-31.1661805185
 30
0.0
 10
-130.7191316764
 20
-31.1926118885
 30
0.0
 10
-130.7277177471
 20
-31.220321832
 30
0.0
 10
-130.7325469545
 20
-31.2479369689
 30
0.0
 10
-130.7336007158
 20
-31.2661830347
 30
0.0
 10
-130.7336007158
 20
-31.2755061485
 30
0.0
  0
SPLINE
  5
35A
100
AcDbEntity
  8
0
100
AcDbSpline
 62
250
  6
CONTINUOUS
 70
0
 71
3
 72
12
 73
8
 74
0
 42
0.0000001
 43
0.0000001
 44
0.0000000001
 40
0.0
 40
0.0
 40
0.0
 40
0.0
 40
0.1666666667
 40
0.3333333333
 40
0.5
 40
0.6666666667
 40
1.0
 40
1.0
 40
1.0
 40
1.0
 10
-129.9901060533
 20
-30.8808429347
 30
0.0
 10
-130.0252288156
 20
-30.8909408699
 30
0.0
 10
-130.0943910874
 20
-30.9111935671
 30
0.0
 10
-130.1950627268
 20
-30.9408655992
 30
0.0
 10
-130.2930273311
 20
-30.9687727673
 30
0.0
 10
-130.4197396152
 20
-31.004528668
 30
0.0
 10
-130.5094862657
 20
-31.0329438925
 30
0.0
 10
-130.5662812167
 20
-31.0542842103
 30
0.0
  0
ELLIPSE
  5
35B
100
AcDbEntity
  8
0
100
AcDbEllipse
 62
7
  6
CONTINUOUS
 10
-128.2305232529
 20
43.2775387629
 30
0.0
 11
1.2772653435
 21
-0.0582277698
 31
0.0
 40
0.7819142031
 41
-3.1412917057
 42
-3.1059619589
  0
ELLIPSE
  5
35C
100
AcDbEntity
  8
0
100
AcDbEllipse
 62
7
  6
CONTINUOUS
 10
-128.2305232529
 20
-43.2775387629
 30
0.0
 11
1.2772653435
 21
0.0582277698
 31
0.0
 40
0.7819142031
 41
3.1059619589
 42
3.1412917057
  0
ELLIPSE
  5
35D
100
AcDbEntity
  8
0
100
AcDbEllipse
 62
7
  6
CONTINUOUS
 10
-125.2085997993
 20
26.079798695
 30
0.0
 11
-0.1417119467
 21
0.1422961243
 31
0.0
 40
0.9918061237
 41
-3.8766878413
 42
-2.8923940429
  0
ELLIPSE
  5
35E
100
AcDbEntity
  8
0
100
AcDbEllipse
 62
7
  6
CONTINUOUS
 10
-125.2085997993
 20
-26.079798695
 30
0.0
 11
0.1417119467
 21
0.1422961243
 31
0.0
 40
0.9918061237
 41
-0.2491986107
 42
0.7350951877
  0
ELLIPSE
  5
35F
100
AcDbEntity
  8
ASSI
100
AcDbEllipse
 62
7
  6
CONTINUOUS
 10
-128.2305232529
 20
43.2775387629
 30
0.0
 11
1.2772653435
 21
-0.0582277698
 31
0.0
 40
0.7819142031
 41
-3.1412917057
 42
-3.1059619589
  0
ELLIPSE
  5
360
100
AcDbEntity
  8
ASSI
100
AcDbEllipse
 62
7
  6
CONTINUOUS
 10
-128.2305232529
 20
-43.2775387629
 30
0.0
 11
1.2772653435
 21
0.0582277698
 31
0.0
 40
0.7819142031
 41
3.1059619589
 42
3.1412917057
  0
ELLIPSE
  5
361
100
AcDbEntity
  8
ASSI
100
AcDbEllipse
 62
7
  6
CONTINUOUS
 10
-125.2085997993
 20
26.079798695
 30
0.0
 11
-0.1417119467
 21
0.1422961243
 31
0.0
 40
0.9918061237
 41
-3.8766878413
 42
-2.8923940429
  0
ELLIPSE
  5
362
100
AcDbEntity
  8
ASSI
100
AcDbEllipse
 62
7
  6
CONTINUOUS
 10
-125.2085997993
 20
-26.079798695
 30
0.0
 11
0.1417119467
 21
0.1422961243
 31
0.0
 40
0.9918061237
 41
-0.2491986107
 42
0.7350951877
  0
ENDSEC
  0
SECTION
  2
OBJECTS
  0
DICTIONARY
  5
C
100
AcDbDictionary
280
0
281
1
  3
ACAD_GROUP
350
D
  3
ACAD_MLINESTYLE
350
17
  3
ACAD_LAYOUT
350
1A
  3
ACAD_PLOTSETTINGS
350
19
  3
ACAD_PLOTSTYLENAME
350
E
  0
DICTIONARY
  5
D
102
{ACAD_REACTORS
330
C
102
}
100
AcDbDictionary
280
0
281
1
  0
ACDBDICTIONARYWDFLT
  5
E
102
{ACAD_REACTORS
330
C
102
}
100
AcDbDictionary
281
1
  3
Normal
350
F
100
AcDbDictionaryWithDefault
340
F
  0
DICTIONARY
  5
17
102
{ACAD_REACTORS
330
C
102
}
100
AcDbDictionary
280
0
281
1
  3
Standard
350
18
  0
DICTIONARY
  5
19
102
{ACAD_REACTORS
330
C
102
}
100
AcDbDictionary
281
1
  0
DICTIONARY
  5
1A
102
{ACAD_REACTORS
330
C
102
}
100
AcDbDictionary
281
1
  3
Model
350
363
  3
Layout1
350
364
  0
ACDBPLACEHOLDER
  5
F
102
{ACAD_REACTORS
330
E
102
}
  0
MLINESTYLE
  5
18
102
{ACAD_REACTORS
330
17
102
}
100
AcDbMlineStyle
  2
STANDARD
 70
0
  3

 62
256
 51
90.0
 52
90.0
 71
2
 49
0.5
 62
256
  6
BYLAYER
 49
-0.5
 62
256
  6
BYLAYER
  0
LAYOUT
  5
363
102
{ACAD_REACTORS
330
1A
102
}
100
AcDbPlotSettings
  1

  2
none_device
  4
ISO_A4_(297.00_x_210.00_MM)
  6

 40
0.0
 41
0.0
 42
0.0
 43
0.0
 44
297.0
 45
210.0
 46
0.0
 47
0.0
 48
0.0
 49
0.0
140
0.0
141
0.0
142
1.0
143
1.0
 70
1024
 72
1
 73
0
 74
0
  7

 75
0
147
1.0
148
0.0
149
0.0
100
AcDbLayout
  1
Model
 70
0
 71
0
 10
0.0
 20
0.0
 11
297.0
 21
210.0
 12
0.0
 22
0.0
 32
0.0
 14
0.0
 24
0.0
 34
0.0
 15
0.0
 25
0.0
 35
0.0
146
0.0
 13
0.0
 23
0.0
 33
0.0
 16
1.0
 26
0.0
 36
0.0
 17
0.0
 27
1.0
 37
0.0
 76
0
330
21B
345
0
346
0
  0
LAYOUT
  5
364
102
{ACAD_REACTORS
330
1A
102
}
100
AcDbPlotSettings
  1

  2
none_device
  4
ISO_A4_(297.00_x_210.00_MM)
  6

 40
0.0
 41
0.0
 42
0.0
 43
0.0
 44
297.0
 45
210.0
 46
0.0
 47
0.0
 48
0.0
 49
0.0
140
0.0
141
0.0
142
1.0
143
1.0
 70
0
 72
1
 73
0
 74
0
  7

 75
0
147
1.0
148
0.0
149
0.0
100
AcDbLayout
  1
Layout1
 70
0
 71
1
 10
0.0
 20
0.0
 11
297.0
 21
210.0
 12
0.0
 22
0.0
 32
0.0
 14
0.0
 24
0.0
 34
0.0
 15
0.0
 25
0.0
 35
0.0
146
0.0
 13
0.0
 23
0.0
 33
0.0
 16
1.0
 26
0.0
 36
0.0
 17
0.0
 27
1.0
 37
0.0
 76
0
330
21C
345
0
346
0
  0
ENDSEC
  0
EOF
