  0
SECTION
  2
HEADER
  9
$ACADVER
  1
AC1021
  9
$DWGCODEPAGE
  3
ANSI_1252
  9
$EXTMAX
 10
297.0
 20
210.0
 30
0.0
  9
$EXTMIN
 10
0.0
 20
0.0
 30
0.0
  9
$LIMMIN
 10
0.0
 20
0.0
  9
$LIMMAX
 10
297.0
 20
210.0
  9
$VIEWCTR
 10
148.5
 20
105.0
  9
$VIEWSIZE
 40
210.0
  9
$CLAYER
  8
0
  9
$LTSCALE
 40
16.335
  9
$CELTYPE
  6
BYLAYER
  9
$DIMSCALE
 40
1.0
  9
$DIMASZ
 40
3.0
  9
$DIMEXO
 40
0.5
  9
$DIMDLI
 40
11.286
  9
$DIMEXE
 40
1.5
  9
$DIMCEN
 40
2.673
  9
$DIMLFAC
 40
1.0
  9
$DIMBLK
  1
_FILLED
  9
$DIMALT
 70
0
  9
$DIMALTF
 40
25.4
  9
$DIMTXT
 40
3.0
  9
$DIMTOL
 70
1
  9
$DIMLIM
 70
0
  9
$DIMTFAC
 40
1.0
  9
$DIMTP
 40
0.01
  9
$DIMTM
 40
0.01
  9
$DIMGAP
 40
0.625
  9
$DIMDSEP
 70
44
  9
$AUNITS
 70
0
  9
$PDMODE
 70
3
  9
$PDSIZE
 40
3.0
  9
$HANDSEED
  5
379
  9
$TILEMODE
 70
1
  9
$MEASUREMENT
 70
1
  9
$INSUNITS
 70
4
  0
ENDSEC
  0
SECTION
  2
CLASSES
  0
CLASS
  1
ACDBDICTIONARYWDFLT
  2
AcDbDictionaryWithDefault
  3
AutoCAD 2000
 90
0
 91
1
280
0
281
0
  0
CLASS
  1
ACDBPLACEHOLDER
  2
AcDbPlaceHolder
  3
AutoCAD 2000
 90
0
 91
1
280
0
281
0
  0
CLASS
  1
LAYOUT
  2
AcDbLayout
  3
AutoCAD 2000
 90
0
 91
0
280
0
281
0
  0
ENDSEC
  0
SECTION
  2
TABLES
  0
TABLE
  2
VPORT
  5
8
100
AcDbSymbolTable
 70
2
  0
VPORT
  5
1F4
100
AcDbSymbolTableRecord
100
AcDbViewportTableRecord
  2
*ACTIVE
 70
0
 10
0.0
 20
0.0
 11
1.0
 21
1.0
 12
148.5
 22
105.0
 13
0.0
 23
0.0
 14
1.0
 24
1.0
 15
0.0
 25
0.0
 16
0.0
 26
0.0
 36
1.0
 17
0.0
 27
0.0
 37
0.0
 40
210.0
 41
1.4142857143
 42
50.0
 43
0.0
 44
0.0
 50
0.0
 51
0.0
 71
0
 72
100
 73
1
 74
1
 75
0
 76
0
 77
0
 78
0
  0
ENDTAB
  0
TABLE
  2
LTYPE
  5
5
100
AcDbSymbolTable
 70
6
  0
LTYPE
  5
14
100
AcDbSymbolTableRecord
100
AcDbLinetypeTableRecord
  2
BYBLOCK
 70
0
  3

 72
65
 73
0
 40
0.0
  0
LTYPE
  5
15
100
AcDbSymbolTableRecord
100
AcDbLinetypeTableRecord
  2
BYLAYER
 70
0
  3

 72
65
 73
0
 40
0.0
  0
LTYPE
  5
16
100
AcDbSymbolTableRecord
100
AcDbLinetypeTableRecord
  2
CONTINUOUS
 70
64
  3
Solid line
 72
65
 73
0
 40
0.0
  0
LTYPE
  5
1F5
100
AcDbSymbolTableRecord
100
AcDbLinetypeTableRecord
  2
CENTER
 70
64
  3
____ _ ____ _ ____ _ ____ _ ____ _ ____ _ ____
 72
65
 73
4
 40
0.6
 49
0.375
 74
0
 49
-0.075
 74
0
 49
0.075
 74
0
 49
-0.075
 74
0
  0
LTYPE
  5
1F6
100
AcDbSymbolTableRecord
100
AcDbLinetypeTableRecord
  2
HIDDEN
 70
64
  3
- - - - - - - - - - - - - - - - - - - -
 72
65
 73
2
 40
0.2
 49
0.1
 74
0
 49
-0.1
 74
0
  0
LTYPE
  5
1F7
100
AcDbSymbolTableRecord
100
AcDbLinetypeTableRecord
  2
PHANTOM
 70
64
  3
_____ _ _ _____ _ _ _____ _ _ _____
 72
65
 73
6
 40
0.8
 49
0.45
 74
0
 49
-0.05
 74
0
 49
0.1
 74
0
 49
-0.05
 74
0
 49
0.1
 74
0
 49
-0.05
 74
0
  0
LTYPE
  5
1F8
100
AcDbSymbolTableRecord
100
AcDbLinetypeTableRecord
  2
DOT
 70
64
  3
. . . . . . . . . . . . . . . . . . . .
 72
65
 73
2
 40
0.2
 49
0.1
 74
0
 49
-0.1
 74
0
  0
LTYPE
  5
1F9
100
AcDbSymbolTableRecord
100
AcDbLinetypeTableRecord
  2
DASHED
 70
64
  3
- - - - - - - - - - - - - - - - - - - -
 72
65
 73
2
 40
0.2
 49
0.1
 74
0
 49
-0.1
 74
0
  0
ENDTAB
  0
TABLE
  2
LAYER
  5
2
100
AcDbSymbolTable
 70
36
  0
LAYER
  5
10
100
AcDbSymbolTableRecord
100
AcDbLayerTableRecord
  2
0
 70
0
 62
7
  6
CONTINUOUS
370
-3
390
F
  0
LAYER
  5
1FA
100
AcDbSymbolTableRecord
100
AcDbLayerTableRecord
  2
DEFAULT_1
 70
0
 62
7
  6
CENTER
370
-3
390
F
  0
LAYER
  5
1FB
100
AcDbSymbolTableRecord
100
AcDbLayerTableRecord
  2
DEFAULT_2
 70
0
 62
7
  6
HIDDEN
370
-3
390
F
  0
LAYER
  5
1FC
100
AcDbSymbolTableRecord
100
AcDbLayerTableRecord
  2
DEFAULT_3
 70
0
 62
7
  6
PHANTOM
370
-3
390
F
  0
LAYER
  5
1FD
100
AcDbSymbolTableRecord
100
AcDbLayerTableRecord
  2
ASSI
 70
0
 62
7
  6
CONTINUOUS
370
-3
390
F
  0
LAYER
  5
1FE
100
AcDbSymbolTableRecord
100
AcDbLayerTableRecord
  2
COORDINATE
 70
0
 62
7
  6
CONTINUOUS
370
-3
390
F
  0
LAYER
  5
1FF
100
AcDbSymbolTableRecord
100
AcDbLayerTableRecord
  2
COORD_ORIGINE
 70
0
 62
7
  6
CONTINUOUS
370
-3
390
F
  0
LAYER
  5
200
100
AcDbSymbolTableRecord
100
AcDbLayerTableRecord
  2
COPY_PUBLISH
 70
0
 62
7
  6
CONTINUOUS
370
-3
390
F
  0
LAYER
  5
201
100
AcDbSymbolTableRecord
100
AcDbLayerTableRecord
  2
COSMETIC
 70
0
 62
7
  6
CONTINUOUS
370
-3
390
F
  0
LAYER
  5
202
100
AcDbSymbolTableRecord
100
AcDbLayerTableRecord
  2
COSMETICI
 70
0
 62
7
  6
CONTINUOUS
370
-3
390
F
  0
LAYER
  5
203
100
AcDbSymbolTableRecord
100
AcDbLayerTableRecord
  2
CURVE
 70
0
 62
7
  6
CONTINUOUS
370
-3
390
F
  0
LAYER
  5
204
100
AcDbSymbolTableRecord
100
AcDbLayerTableRecord
  2
CURVE_TASSELLI
 70
0
 62
7
  6
CONTINUOUS
370
-3
390
F
  0
LAYER
  5
205
100
AcDbSymbolTableRecord
100
AcDbLayerTableRecord
  2
DRAFT
 70
0
 62
7
  6
CONTINUOUS
370
-3
390
F
  0
LAYER
  5
206
100
AcDbSymbolTableRecord
100
AcDbLayerTableRecord
  2
IMPORT_IGES
 70
0
 62
7
  6
CONTINUOUS
370
-3
390
F
  0
LAYER
  5
207
100
AcDbSymbolTableRecord
100
AcDbLayerTableRecord
  2
INTFCLR_2
 70
0
 62
7
  6
CONTINUOUS
370
-3
390
F
  0
LAYER
  5
208
100
AcDbSymbolTableRecord
100
AcDbLayerTableRecord
  2
INTF_1
 70
0
 62
7
  6
CONTINUOUS
370
-3
390
F
  0
LAYER
  5
209
100
AcDbSymbolTableRecord
100
AcDbLayerTableRecord
  2
INTF_7
 70
0
 62
7
  6
CONTINUOUS
370
-3
390
F
  0
LAYER
  5
20A
100
AcDbSymbolTableRecord
100
AcDbLayerTableRecord
  2
NOTE
 70
0
 62
7
  6
CONTINUOUS
370
-3
390
F
  0
LAYER
  5
20B
100
AcDbSymbolTableRecord
100
AcDbLayerTableRecord
  2
PIANI
 70
0
 62
7
  6
CONTINUOUS
370
-3
390
F
  0
LAYER
  5
20C
100
AcDbSymbolTableRecord
100
AcDbLayerTableRecord
  2
PIANI_ORIGINE
 70
0
 62
7
  6
CONTINUOUS
370
-3
390
F
  0
LAYER
  5
20D
100
AcDbSymbolTableRecord
100
AcDbLayerTableRecord
  2
PIANI_RIFERIMENTO
 70
0
 62
7
  6
CONTINUOUS
370
-3
390
F
  0
LAYER
  5
20E
100
AcDbSymbolTableRecord
100
AcDbLayerTableRecord
  2
PUNTI
 70
0
 62
7
  6
CONTINUOUS
370
-3
390
F
  0
LAYER
  5
20F
100
AcDbSymbolTableRecord
100
AcDbLayerTableRecord
  2
RACCORDO
 70
0
 62
7
  6
CONTINUOUS
370
-3
390
F
  0
LAYER
  5
210
100
AcDbSymbolTableRecord
100
AcDbLayerTableRecord
  2
RGB__255__255__255__
 70
0
 62
7
  6
CONTINUOUS
370
-3
390
F
  0
LAYER
  5
211
100
AcDbSymbolTableRecord
100
AcDbLayerTableRecord
  2
RGB____0____0____0__
 70
0
 62
7
  6
CONTINUOUS
370
-3
390
F
  0
LAYER
  5
212
100
AcDbSymbolTableRecord
100
AcDbLayerTableRecord
  2
SIMBOLI
 70
0
 62
7
  6
CONTINUOUS
370
-3
390
F
  0
LAYER
  5
213
100
AcDbSymbolTableRecord
100
AcDbLayerTableRecord
  2
SMUSSO
 70
0
 62
7
  6
CONTINUOUS
370
-3
390
F
  0
LAYER
  5
214
100
AcDbSymbolTableRecord
100
AcDbLayerTableRecord
  2
SNAPLINE
 70
0
 62
7
  6
CONTINUOUS
370
-3
390
F
  0
LAYER
  5
215
100
AcDbSymbolTableRecord
100
AcDbLayerTableRecord
  2
SUPERFICI
 70
0
 62
7
  6
CONTINUOUS
370
-3
390
F
  0
LAYER
  5
216
100
AcDbSymbolTableRecord
100
AcDbLayerTableRecord
  2
TRASH
 70
0
 62
7
  6
CONTINUOUS
370
-3
390
F
  0
LAYER
  5
217
100
AcDbSymbolTableRecord
100
AcDbLayerTableRecord
  2
WHITE
 70
0
 62
7
  6
CONTINUOUS
370
-3
390
F
  0
LAYER
  5
218
100
AcDbSymbolTableRecord
100
AcDbLayerTableRecord
  2
XSEC_DATUMS
 70
0
 62
7
  6
CONTINUOUS
370
-3
390
F
  0
ENDTAB
  0
TABLE
  2
STYLE
  5
3
100
AcDbSymbolTable
 70
1
  0
STYLE
  5
11
100
AcDbSymbolTableRecord
100
AcDbTextStyleTableRecord
  2
STANDARD
 70
0
 40
0.0
 41
0.8
 50
0.0
 71
0
 42
0.2
  3
txt
  4

  0
STYLE
  5
219
100
AcDbSymbolTableRecord
100
AcDbTextStyleTableRecord
  2
TEXTSTYLE_1
 70
0
 40
0.0
 41
0.8
 50
0.0
 71
0
 42
0.2
  3
gdt
  4

  0
ENDTAB
  0
TABLE
  2
VIEW
  5
6
100
AcDbSymbolTable
 70
0
  0
ENDTAB
  0
TABLE
  2
UCS
  5
7
100
AcDbSymbolTable
 70
0
  0
ENDTAB
  0
TABLE
  2
APPID
  5
9
100
AcDbSymbolTable
 70
1
  0
APPID
  5
21A
100
AcDbSymbolTableRecord
100
AcDbRegAppTableRecord
  2
ACAD
 70
0
  0
ENDTAB
  0
TABLE
  2
BLOCK_RECORD
  5
1
100
AcDbSymbolTable
 70
0
  0
BLOCK_RECORD
  5
21B
100
AcDbSymbolTableRecord
100
AcDbBlockTableRecord
  2
*Model_Space
  0
BLOCK_RECORD
  5
21C
100
AcDbSymbolTableRecord
100
AcDbBlockTableRecord
  2
*Paper_Space
  0
BLOCK_RECORD
  5
21D
100
AcDbSymbolTableRecord
100
AcDbBlockTableRecord
  2
_FILLED
  0
BLOCK_RECORD
  5
21E
100
AcDbSymbolTableRecord
100
AcDbBlockTableRecord
  2
*D0
  0
BLOCK_RECORD
  5
21F
100
AcDbSymbolTableRecord
100
AcDbBlockTableRecord
  2
*D1
  0
BLOCK_RECORD
  5
220
100
AcDbSymbolTableRecord
100
AcDbBlockTableRecord
  2
*D2
  0
BLOCK_RECORD
  5
221
100
AcDbSymbolTableRecord
100
AcDbBlockTableRecord
  2
*D3
  0
ENDTAB
  0
TABLE
  2
DIMSTYLE
  5
A
100
AcDbSymbolTable
 70
1
100
AcDbDimStyleTable
 71
0
  0
DIMSTYLE
105
222
100
AcDbSymbolTableRecord
100
AcDbDimStyleTableRecord
  2
STANDARD
 70
0
  3

  4

 40
1.0
 41
3.0
 42
0.5
 43
0.38
 44
1.5
 45
0.0
 46
0.0
 47
0.01
 48
0.01
140
3.0
141
0.09
142
0.0
143
25.4
144
1.0
145
0.0
146
1.0
147
0.625
 71
1.0
 72
0.0
 73
0
 74
0
 75
0
 76
0
 77
1
 78
8
 79
2
170
0
171
1
172
0
173
0
174
0
175
0
176
0
177
0
178
0
270
2
179
2
271
2
272
2
273
2
274
2
275
0
280
0
281
0
282
0
283
1
284
8
285
0
286
0
287
3
288
0
340
11
278
44
341
21D
342
21D
343
21D
344
21D
  0
DIMSTYLE
105
223
100
AcDbSymbolTableRecord
100
AcDbDimStyleTableRecord
  2
DIMSTYLE_1
 70
0
  3

  4

 40
1.0
 41
3.0
 42
0.5
 43
0.38
 44
1.5
 45
0.0
 46
0.0
 47
0.0
 48
0.0
140
3.0
141
0.09
142
0.0
143
25.4
144
1.0
145
0.0
146
1.0
147
0.75
 71
0.0
 72
0.0
 73
0
 74
0
 75
0
 76
0
 77
1
 78
8
 79
2
170
0
171
1
172
0
173
0
174
0
175
0
176
0
177
0
178
0
270
2
179
2
271
2
272
2
273
2
274
2
275
0
280
0
281
0
282
0
283
1
284
8
285
0
286
0
287
3
288
0
340
11
278
44
341
21D
342
21D
343
21D
344
21D
  0
ENDTAB
  0
ENDSEC
  0
SECTION
  2
BLOCKS
  0
BLOCK
  5
20
100
AcDbEntity
  8
0
100
AcDbBlockBegin
  2
*Model_Space
 70
0
 10
0.0
 20
0.0
 30
0.0
  3
*Model_Space
  1

  0
ENDBLK
  5
21
100
AcDbEntity
  8
0
100
AcDbBlockEnd
  0
BLOCK
  5
1C
100
AcDbEntity
  8
0
100
AcDbBlockBegin
  2
*Paper_Space
 70
0
 10
0.0
 20
0.0
 30
0.0
  3
*Paper_Space
  1

  0
ENDBLK
  5
1D
100
AcDbEntity
  8
0
100
AcDbBlockEnd
  0
BLOCK
  5
224
100
AcDbEntity
  8
0
100
AcDbBlockBegin
  2
_FILLED
 70
64
 10
0.0
 20
0.0
  3
_FILLED
  1

  0
SOLID
  5
225
100
AcDbEntity
  8
0
  6
BYBLOCK
 62
0
100
AcDbTrace
 10
0.0
 20
0.0
 11
-1.0
 21
0.3166666667
 12
-1.0
 22
-0.3166666667
 13
-1.0
 23
-0.3166666667
  0
ENDBLK
  5
226
100
AcDbEntity
  8
0
  6
BYBLOCK
 62
0
100
AcDbBlockEnd
  0
BLOCK
  5
227
100
AcDbEntity
  8
0
100
AcDbBlockBegin
 62
7
  6
CONTINUOUS
  2
*D0
 70
65
 10
0.0
 20
0.0
  3
*D0
  1

  0
LINE
  5
228
100
AcDbEntity
  8
0
100
AcDbLine
 62
7
  6
CONTINUOUS
 10
269.7985440299
 20
154.0525708008
 11
281.799152832
 21
154.0525708008
  0
LINE
  5
229
100
AcDbEntity
  8
0
100
AcDbLine
 62
7
  6
CONTINUOUS
 10
269.7985440299
 20
64.0525708008
 11
281.799152832
 21
64.0525708008
  0
LINE
  5
22A
100
AcDbEntity
  8
0
100
AcDbLine
 62
7
  6
CONTINUOUS
 10
280.299152832
 20
154.0525708008
 11
280.299152832
 21
109.0525708008
  0
LINE
  5
22B
100
AcDbEntity
  8
0
100
AcDbLine
 62
7
  6
CONTINUOUS
 10
280.299152832
 20
64.0525708008
 11
280.299152832
 21
109.0525708008
  0
INSERT
  5
22C
100
AcDbEntity
  8
0
100
AcDbBlockReference
 62
7
  6
CONTINUOUS
  2
_FILLED
 10
280.299152832
 20
154.0525708008
 41
3.0
 42
3.0
 43
3.0
 50
90.0
  0
INSERT
  5
22D
100
AcDbEntity
  8
0
100
AcDbBlockReference
 62
7
  6
CONTINUOUS
  2
_FILLED
 10
280.299152832
 20
64.0525708008
 41
3.0
 42
3.0
 43
3.0
 50
270.0
  0
ENDBLK
  5
22E
100
AcDbEntity
  8
0
  6
BYBLOCK
 62
0
100
AcDbBlockEnd
  0
BLOCK
  5
22F
100
AcDbEntity
  8
0
100
AcDbBlockBegin
 62
7
  6
CONTINUOUS
  2
*D1
 70
65
 10
0.0
 20
0.0
  3
*D1
  1

  0
LINE
  5
230
100
AcDbEntity
  8
0
100
AcDbLine
 62
7
  6
CONTINUOUS
 10
270.299152832
 20
153.5519619987
 11
270.299152832
 21
165.5525708008
  0
LINE
  5
231
100
AcDbEntity
  8
0
100
AcDbLine
 62
7
  6
CONTINUOUS
 10
58.299152832
 20
153.5519619987
 11
58.299152832
 21
165.5525708008
  0
LINE
  5
232
100
AcDbEntity
  8
0
100
AcDbLine
 62
7
  6
CONTINUOUS
 10
270.299152832
 20
164.0525708008
 11
164.299152832
 21
164.0525708008
  0
LINE
  5
233
100
AcDbEntity
  8
0
100
AcDbLine
 62
7
  6
CONTINUOUS
 10
58.299152832
 20
164.0525708008
 11
164.299152832
 21
164.0525708008
  0
INSERT
  5
234
100
AcDbEntity
  8
0
100
AcDbBlockReference
 62
7
  6
CONTINUOUS
  2
_FILLED
 10
270.299152832
 20
164.0525708008
 41
3.0
 42
3.0
 43
3.0
  0
INSERT
  5
235
100
AcDbEntity
  8
0
100
AcDbBlockReference
 62
7
  6
CONTINUOUS
  2
_FILLED
 10
58.299152832
 20
164.0525708008
 41
3.0
 42
3.0
 43
3.0
 50
180.0
  0
ENDBLK
  5
236
100
AcDbEntity
  8
0
  6
BYBLOCK
 62
0
100
AcDbBlockEnd
  0
BLOCK
  5
237
100
AcDbEntity
  8
0
100
AcDbBlockBegin
 62
7
  6
CONTINUOUS
  2
*D2
 70
65
 10
0.0
 20
0.0
  3
*D2
  1

  0
LINE
  5
238
100
AcDbEntity
  8
0
100
AcDbLine
 62
7
  6
CONTINUOUS
 10
27.3407189453
 20
152.929308211
 11
27.3407189453
 21
175.5525708008
  0
LINE
  5
239
100
AcDbEntity
  8
0
100
AcDbLine
 62
7
  6
CONTINUOUS
 10
36.8907189453
 20
135.598887594
 11
36.8907189453
 21
175.5525708008
  0
LINE
  5
23A
100
AcDbEntity
  8
0
100
AcDbLine
 62
7
  6
CONTINUOUS
 10
27.3407189453
 20
174.0525708008
 11
32.1157189453
 21
174.0525708008
  0
LINE
  5
23B
100
AcDbEntity
  8
0
100
AcDbLine
 62
7
  6
CONTINUOUS
 10
36.8907189453
 20
174.0525708008
 11
32.1157189453
 21
174.0525708008
  0
LINE
  5
23C
100
AcDbEntity
  8
0
100
AcDbLine
 62
7
  6
CONTINUOUS
 10
32.1157189453
 20
174.0525708008
 11
46.8505737368
 21
174.0525708008
  0
INSERT
  5
23D
100
AcDbEntity
  8
0
100
AcDbBlockReference
 62
7
  6
CONTINUOUS
  2
_FILLED
 10
27.3407189453
 20
174.0525708008
 41
3.0
 42
3.0
 43
3.0
 50
180.0
  0
INSERT
  5
23E
100
AcDbEntity
  8
0
100
AcDbBlockReference
 62
7
  6
CONTINUOUS
  2
_FILLED
 10
36.8907189453
 20
174.0525708008
 41
3.0
 42
3.0
 43
3.0
  0
ENDBLK
  5
23F
100
AcDbEntity
  8
0
  6
BYBLOCK
 62
0
100
AcDbBlockEnd
  0
BLOCK
  5
240
100
AcDbEntity
  8
0
100
AcDbBlockBegin
 62
7
  6
CONTINUOUS
  2
*D3
 70
65
 10
0.0
 20
0.0
  3
*D3
  1

  0
LINE
  5
241
100
AcDbEntity
  8
0
100
AcDbLine
 62
7
  6
CONTINUOUS
 10
33.8907189453
 20
153.5519619987
 11
33.8907189453
 21
165.5525708008
  0
LINE
  5
242
100
AcDbEntity
  8
0
100
AcDbLine
 62
7
  6
CONTINUOUS
 10
27.3407189453
 20
152.929308211
 11
27.3407189453
 21
165.5525708008
  0
LINE
  5
243
100
AcDbEntity
  8
0
100
AcDbLine
 62
7
  6
CONTINUOUS
 10
33.8907189453
 20
164.0525708008
 11
30.6157189453
 21
164.0525708008
  0
LINE
  5
244
100
AcDbEntity
  8
0
100
AcDbLine
 62
7
  6
CONTINUOUS
 10
30.6157189453
 20
164.0525708008
 11
47.5883161939
 21
164.0525708008
  0
LINE
  5
245
100
AcDbEntity
  8
0
100
AcDbLine
 62
7
  6
CONTINUOUS
 10
27.3407189453
 20
164.0525708008
 11
30.6157189453
 21
164.0525708008
  0
INSERT
  5
246
100
AcDbEntity
  8
0
100
AcDbBlockReference
 62
7
  6
CONTINUOUS
  2
_FILLED
 10
33.8907189453
 20
164.0525708008
 41
3.0
 42
3.0
 43
3.0
  0
INSERT
  5
247
100
AcDbEntity
  8
0
100
AcDbBlockReference
 62
7
  6
CONTINUOUS
  2
_FILLED
 10
27.3407189453
 20
164.0525708008
 41
3.0
 42
3.0
 43
3.0
 50
180.0
  0
ENDBLK
  5
248
100
AcDbEntity
  8
0
  6
BYBLOCK
 62
0
100
AcDbBlockEnd
  0
ENDSEC
  0
SECTION
  2
ENTITIES
  0
DIMENSION
  5
249
100
AcDbEntity
  8
0
100
AcDbDimension
 62
7
  6
CONTINUOUS
  2
*D0
 10
280.299152832
 20
64.0525708008
 11
280.299152832
 21
106.6954279436
 70
160
 71
2
 72
2
 41
0.9
 42
90.0
  3
DIMSTYLE_1
100
AcDbAlignedDimension
 13
269.2985440299
 23
154.0525708008
 14
269.2985440299
 24
64.0525708008
 50
270.0
100
AcDbRotatedDimension
  0
DIMENSION
  5
24A
100
AcDbEntity
  8
0
100
AcDbDimension
 62
7
  6
CONTINUOUS
  2
*D1
 10
58.299152832
 20
164.0525708008
 11
161.0848671177
 21
164.0525708008
 70
160
 71
2
 72
2
 41
0.9
 42
212.0
  3
DIMSTYLE_1
100
AcDbAlignedDimension
 13
270.299152832
 23
153.0519619987
 14
58.299152832
 24
153.0519619987
 50
180.0
100
AcDbRotatedDimension
  0
DIMENSION
  5
24B
100
AcDbEntity
  8
0
100
AcDbDimension
 62
7
  6
CONTINUOUS
  2
*D2
 10
36.8907189453
 20
174.0525708008
 11
38.4934308797
 21
174.0525708008
 70
160
 71
1
 72
2
 41
0.9
 42
9.55
  3
DIMSTYLE_1
100
AcDbAlignedDimension
 13
27.3407189453
 23
152.429308211
 14
36.8907189453
 24
135.098887594
100
AcDbRotatedDimension
  0
DIMENSION
  5
24C
100
AcDbEntity
  8
0
100
AcDbDimension
 62
7
  6
CONTINUOUS
  2
*D3
 10
27.3407189453
 20
164.0525708008
 11
39.2311733368
 21
164.0525708008
 70
160
 71
1
 72
2
 41
0.9
 42
6.55
  3
DIMSTYLE_1
100
AcDbAlignedDimension
 13
33.8907189453
 23
153.0519619987
 14
27.3407189453
 24
152.429308211
 50
180.0
100
AcDbRotatedDimension
  0
LINE
  5
24D
100
AcDbEntity
  8
ASSI
100
AcDbLine
 62
7
  6
CONTINUOUS
 10
59.4791673621
 20
153.8432701231
 11
59.4935931776
 21
153.8587392573
  0
LINE
  5
24E
100
AcDbEntity
  8
ASSI
100
AcDbLine
 62
7
  6
CONTINUOUS
 10
59.4935931776
 20
64.2464023442
 11
59.4791673621
 21
64.2618714784
  0
LINE
  5
24F
100
AcDbEntity
  8
ASSI
100
AcDbLine
 62
7
  6
CONTINUOUS
 10
58.299152832
 20
153.0519619987
 11
58.299152832
 21
65.0531796029
  0
LINE
  5
250
100
AcDbEntity
  8
ASSI
100
AcDbLine
 62
7
  6
CONTINUOUS
 10
58.4929843755
 20
152.8581304552
 11
58.4929843755
 21
65.2470111464
  0
LINE
  5
251
100
AcDbEntity
  8
ASSI
100
AcDbLine
 62
7
  6
CONTINUOUS
 10
59.5278838722
 20
152.429308211
 11
59.5278838722
 21
65.6758333906
  0
LINE
  5
252
100
AcDbEntity
  8
ASSI
100
AcDbLine
 62
7
  6
CONTINUOUS
 10
58.299152832
 20
153.0519619987
 11
59.2997616341
 21
154.0525708008
  0
LINE
  5
253
100
AcDbEntity
  8
ASSI
100
AcDbLine
 62
7
  6
CONTINUOUS
 10
59.4791673621
 20
153.8432701231
 11
58.5084535097
 21
152.8725562707
  0
LINE
  5
254
100
AcDbEntity
  8
ASSI
100
AcDbLine
 62
7
  6
CONTINUOUS
 10
59.9224154218
 20
152.8238397606
 11
59.5278838722
 21
152.429308211
  0
LINE
  5
255
100
AcDbEntity
  8
ASSI
100
AcDbLine
 62
7
  6
CONTINUOUS
 10
58.4929843755
 20
152.8581304552
 11
58.5084535097
 21
152.8725562707
  0
LINE
  5
256
100
AcDbEntity
  8
ASSI
100
AcDbLine
 62
7
  6
CONTINUOUS
 10
58.5084535097
 20
65.2325853309
 11
58.4929843755
 21
65.2470111464
  0
LINE
  5
257
100
AcDbEntity
  8
ASSI
100
AcDbLine
 62
7
  6
CONTINUOUS
 10
59.2997616341
 20
64.0525708008
 11
58.299152832
 21
65.0531796029
  0
LINE
  5
258
100
AcDbEntity
  8
ASSI
100
AcDbLine
 62
7
  6
CONTINUOUS
 10
58.5084535097
 20
65.2325853309
 11
59.4791673621
 21
64.2618714784
  0
LINE
  5
259
100
AcDbEntity
  8
ASSI
100
AcDbLine
 62
7
  6
CONTINUOUS
 10
59.5278838722
 20
65.6758333906
 11
59.9224154218
 21
65.281301841
  0
LINE
  5
25A
100
AcDbEntity
  8
ASSI
100
AcDbLine
 62
250
  6
CONTINUOUS
 10
85.2001418459
 20
86.9031333935
 11
85.2001418459
 21
131.202008208
  0
LINE
  5
25B
100
AcDbEntity
  8
ASSI
100
AcDbLine
 62
250
  6
CONTINUOUS
 10
85.4000200113
 20
86.9031333935
 11
85.4000200113
 21
131.202008208
  0
LINE
  5
25C
100
AcDbEntity
  8
ASSI
100
AcDbLine
 62
7
  6
CONTINUOUS
 10
85.449152832
 20
131.1528753873
 11
85.449152832
 21
86.9522662143
  0
LINE
  5
25D
100
AcDbEntity
  8
ASSI
100
AcDbLine
 62
250
  6
CONTINUOUS
 10
85.8997154248
 20
131.9015817869
 11
85.8997154248
 21
131.7017036215
  0
LINE
  5
25E
100
AcDbEntity
  8
ASSI
100
AcDbLine
 62
250
  6
CONTINUOUS
 10
85.8997154248
 20
86.2035598146
 11
85.8997154248
 21
86.40343798
  0
LWPOLYLINE
  5
25F
100
AcDbEntity
  8
ASSI
100
AcDbPolyline
 62
250
  6
CONTINUOUS
 90
25
 70
0
 10
85.4000200113
 20
131.202008208
 10
85.4010245689
 20
131.2339525916
 10
85.4040762527
 20
131.2658399321
 10
85.4091771764
 20
131.2975383547
 10
85.4163299601
 20
131.3289505818
 10
85.4255148877
 20
131.3599068884
 10
85.4366673174
 20
131.3901723601
 10
85.4497242804
 20
131.419600854
 10
85.4646337555
 20
131.4480967547
 10
85.4813099197
 20
131.4755159574
 10
85.499654172
 20
131.5017267253
 10
85.5195965667
 20
131.5266567975
 10
85.5410882485
 20
131.5502560146
 10
85.5639584151
 20
131.5723543312
 10
85.5881861187
 20
131.5929475289
 10
85.6139963266
 20
131.6121783681
 10
85.6414505988
 20
131.6299817675
 10
85.6703598211
 20
131.6461274553
 10
85.7005989735
 20
131.6604613951
 10
85.7321692522
 20
131.6728936467
 10
85.7648510518
 20
131.6832493618
 10
85.7981423201
 20
131.6913352054
 10
85.8317608706
 20
131.6971017161
 10
85.8656711296
 20
131.7005613715
 10
85.8997154248
 20
131.7017036215
  0
LWPOLYLINE
  5
260
100
AcDbEntity
  8
ASSI
100
AcDbPolyline
 62
250
  6
CONTINUOUS
 90
25
 70
0
 10
85.2001418459
 20
131.202008208
 10
85.2015845972
 20
131.2470182547
 10
85.2058775375
 20
131.2915793958
 10
85.2130206669
 20
131.3356916311
 10
85.2230752771
 20
131.3795827307
 10
85.2359800763
 20
131.4230249247
 10
85.2515511895
 20
131.4653349033
 10
85.2698319296
 20
131.5064566562
 10
85.2907789835
 20
131.5464461937
 10
85.3140785369
 20
131.5847882383
 10
85.3397300035
 20
131.621425834
 10
85.3677339694
 20
131.6564159368
 10
85.3977783791
 20
131.6894141362
 10
85.4297299622
 20
131.7203481958
 10
85.4637219891
 20
131.749290352
 10
85.4998422143
 20
131.7761129038
 10
85.5382627078
 20
131.8009687363
 10
85.5788113996
 20
131.8237049645
 10
85.6210598352
 20
131.8437352328
 10
85.6652234455
 20
131.8610247261
 10
85.7110867994
 20
131.8756082595
 10
85.7575751491
 20
131.8870039233
 10
85.8043302453
 20
131.8950510808
 10
85.8517103371
 20
131.8999103687
 10
85.8997154248
 20
131.9015817869
  0
LINE
  5
261
100
AcDbEntity
  8
ASSI
100
AcDbLine
 62
7
  6
CONTINUOUS
 10
59.9224154218
 20
65.281301841
 11
59.4791673621
 21
64.2618714784
  0
LINE
  5
262
100
AcDbEntity
  8
ASSI
100
AcDbLine
 62
7
  6
CONTINUOUS
 10
59.9224154218
 20
152.8238397606
 11
59.4791673621
 21
153.8432701231
  0
LINE
  5
263
100
AcDbEntity
  8
ASSI
100
AcDbLine
 62
7
  6
CONTINUOUS
 10
58.4929843755
 20
65.2470111464
 11
58.299152832
 21
65.0531796029
  0
LINE
  5
264
100
AcDbEntity
  8
ASSI
100
AcDbLine
 62
7
  6
CONTINUOUS
 10
59.4935931776
 20
64.2464023442
 11
59.2997616341
 21
64.0525708008
  0
LWPOLYLINE
  5
265
100
AcDbEntity
  8
0
100
AcDbPolyline
 62
7
  6
CONTINUOUS
 90
3
 70
0
 43
0.3500000006
 10
163.4420148926
 20
166.9454190674
 10
164.299152832
 20
167.8025751343
 10
164.299152832
 20
164.8025742188
  0
LINE
  5
266
100
AcDbEntity
  8
ASSI
100
AcDbLine
 62
250
  6
CONTINUOUS
 10
85.4000200113
 20
86.9031333935
 11
85.449152832
 21
86.9522662143
  0
LINE
  5
267
100
AcDbEntity
  8
ASSI
100
AcDbLine
 62
250
  6
CONTINUOUS
 10
85.8997154248
 20
86.40343798
 11
85.9488482455
 21
86.4525708008
  0
LINE
  5
268
100
AcDbEntity
  8
ASSI
100
AcDbLine
 62
7
  6
CONTINUOUS
 10
59.2997616341
 20
64.0525708008
 11
269.2985440299
 21
64.0525708008
  0
LINE
  5
269
100
AcDbEntity
  8
ASSI
100
AcDbLine
 62
7
  6
CONTINUOUS
 10
59.4935931776
 20
64.2464023442
 11
269.1047124864
 21
64.2464023442
  0
LINE
  5
26A
100
AcDbEntity
  8
ASSI
100
AcDbLine
 62
7
  6
CONTINUOUS
 10
59.9224154218
 20
65.281301841
 11
268.6758902422
 21
65.281301841
  0
LINE
  5
26B
100
AcDbEntity
  8
ASSI
100
AcDbLine
 62
7
  6
CONTINUOUS
 10
58.4929843755
 20
152.8581304552
 11
58.299152832
 21
153.0519619987
  0
LINE
  5
26C
100
AcDbEntity
  8
ASSI
100
AcDbLine
 62
7
  6
CONTINUOUS
 10
59.4935931776
 20
153.8587392573
 11
59.2997616341
 21
154.0525708008
  0
LINE
  5
26D
100
AcDbEntity
  8
ASSI
100
AcDbLine
 62
250
  6
CONTINUOUS
 10
85.4000200113
 20
131.202008208
 11
85.449152832
 21
131.1528753873
  0
LINE
  5
26E
100
AcDbEntity
  8
ASSI
100
AcDbLine
 62
250
  6
CONTINUOUS
 10
85.8997154248
 20
131.7017036215
 11
85.9488482455
 21
131.6525708008
  0
LWPOLYLINE
  5
26F
100
AcDbEntity
  8
CURVE
100
AcDbPolyline
 62
250
  6
CONTINUOUS
 90
73
 70
0
 10
168.104507965
 20
83.0289079098
 10
168.1097012388
 20
83.0299539379
 10
168.1147380335
 20
83.0316282348
 10
168.1196455367
 20
83.0337792134
 10
168.124450936
 20
83.0362552865
 10
168.1291814188
 20
83.0389048669
 10
168.143781579
 20
83.0475062999
 10
168.1579504268
 20
83.0564543029
 10
168.1717314382
 20
83.0658773919
 10
168.1856518942
 20
83.0762517277
 10
168.1992052752
 20
83.0871978492
 10
168.2123948334
 20
83.0986384258
 10
168.2252238208
 20
83.1104961267
 10
168.2404357889
 20
83.125485602
 10
168.2550989413
 20
83.1409771811
 10
168.2691996851
 20
83.1569639954
 10
168.2827244275
 20
83.1734391761
 10
168.2946944461
 20
83.189084137
 10
168.3061491192
 20
83.2051199017
 10
168.3170762407
 20
83.2215263801
 10
168.3274636046
 20
83.2382834824
 10
168.3372990048
 20
83.2553711187
 10
168.3477128788
 20
83.2750096741
 10
168.3574003765
 20
83.295015668
 10
168.3663523745
 20
83.3153618586
 10
168.3745597496
 20
83.3360210037
 10
168.3820133782
 20
83.3569658614
 10
168.3883205917
 20
83.3768700174
 10
168.3939598511
 20
83.3969759719
 10
168.3989359567
 20
83.417257585
 10
168.4032537088
 20
83.4376887171
 10
168.4069179076
 20
83.4582432285
 10
168.4099333533
 20
83.4788949792
 10
168.4125168059
 20
83.5017691766
 10
168.4143404009
 20
83.524709327
 10
168.4154285058
 20
83.547694796
 10
168.4158022955
 20
83.57241461
 10
168.4153646217
 20
83.5971354983
 10
168.4141247358
 20
83.621830047
 10
168.4125415881
 20
83.6417132194
 10
168.4104196818
 20
83.6615436678
 10
168.4077363169
 20
83.681303651
 10
168.4046685683
 20
83.6998816693
 10
168.4010722022
 20
83.71836656
 10
168.3969394554
 20
83.7367438428
 10
168.3917182956
 20
83.756988658
 10
168.3858244998
 20
83.7770542052
 10
168.3792552839
 20
83.7969115094
 10
168.3720078636
 20
83.8165315953
 10
168.3640794549
 20
83.8358854878
 10
168.356259371
 20
83.8532695192
 10
168.3478794655
 20
83.8703895662
 10
168.3389479398
 20
83.8872268466
 10
168.3294729956
 20
83.9037625782
 10
168.3194628342
 20
83.9199779787
 10
168.3073429793
 20
83.9381458042
 10
168.2945486276
 20
83.9558449431
 10
168.2810975941
 20
83.973052183
 10
168.2670076936
 20
83.989744312
 10
168.2525341338
 20
84.0056486386
 10
168.2374803003
 20
84.0210148227
 10
168.2218675423
 20
84.0358262039
 10
168.2057172093
 20
84.0500661217
 10
168.1890506505
 20
84.063717916
 10
168.1718892152
 20
84.0767649262
 10
168.1542542528
 20
84.089190492
 10
168.1411123827
 20
84.0978397336
 10
168.1277293389
 20
84.1061033842
 10
168.1141041905
 20
84.1139348789
 10
168.1002360066
 20
84.1212876527
 10
168.0861238564
 20
84.1281151408
 10
168.0717668089
 20
84.1343707783
 10
168.0571639332
 20
84.1400080003
  0
LWPOLYLINE
  5
270
100
AcDbEntity
  8
IMPORT_IGES
100
AcDbPolyline
 62
7
  6
CONTINUOUS
 90
73
 70
0
 10
168.104507965
 20
83.0289079098
 10
168.1097012388
 20
83.0299539379
 10
168.1147380335
 20
83.0316282348
 10
168.1196455367
 20
83.0337792134
 10
168.124450936
 20
83.0362552865
 10
168.1291814188
 20
83.0389048669
 10
168.143781579
 20
83.0475062999
 10
168.1579504268
 20
83.0564543029
 10
168.1717314382
 20
83.0658773919
 10
168.1856518942
 20
83.0762517277
 10
168.1992052752
 20
83.0871978492
 10
168.2123948334
 20
83.0986384258
 10
168.2252238208
 20
83.1104961267
 10
168.2404357889
 20
83.125485602
 10
168.2550989413
 20
83.1409771811
 10
168.2691996851
 20
83.1569639954
 10
168.2827244275
 20
83.1734391761
 10
168.2946944461
 20
83.189084137
 10
168.3061491192
 20
83.2051199017
 10
168.3170762407
 20
83.2215263801
 10
168.3274636046
 20
83.2382834824
 10
168.3372990048
 20
83.2553711187
 10
168.3477128788
 20
83.2750096741
 10
168.3574003765
 20
83.295015668
 10
168.3663523745
 20
83.3153618586
 10
168.3745597496
 20
83.3360210037
 10
168.3820133782
 20
83.3569658614
 10
168.3883205917
 20
83.3768700174
 10
168.3939598511
 20
83.3969759719
 10
168.3989359567
 20
83.417257585
 10
168.4032537088
 20
83.4376887171
 10
168.4069179076
 20
83.4582432285
 10
168.4099333533
 20
83.4788949792
 10
168.4125168059
 20
83.5017691766
 10
168.4143404009
 20
83.524709327
 10
168.4154285058
 20
83.547694796
 10
168.4158022955
 20
83.57241461
 10
168.4153646217
 20
83.5971354983
 10
168.4141247358
 20
83.621830047
 10
168.4125415881
 20
83.6417132194
 10
168.4104196818
 20
83.6615436678
 10
168.4077363169
 20
83.681303651
 10
168.4046685683
 20
83.6998816693
 10
168.4010722022
 20
83.71836656
 10
168.3969394554
 20
83.7367438428
 10
168.3917182956
 20
83.756988658
 10
168.3858244998
 20
83.7770542052
 10
168.3792552839
 20
83.7969115094
 10
168.3720078636
 20
83.8165315953
 10
168.3640794549
 20
83.8358854878
 10
168.356259371
 20
83.8532695192
 10
168.3478794655
 20
83.8703895662
 10
168.3389479398
 20
83.8872268466
 10
168.3294729956
 20
83.9037625782
 10
168.3194628342
 20
83.9199779787
 10
168.3073429793
 20
83.9381458042
 10
168.2945486276
 20
83.9558449431
 10
168.2810975941
 20
83.973052183
 10
168.2670076936
 20
83.989744312
 10
168.2525341338
 20
84.0056486386
 10
168.2374803003
 20
84.0210148227
 10
168.2218675423
 20
84.0358262039
 10
168.2057172093
 20
84.0500661217
 10
168.1890506505
 20
84.063717916
 10
168.1718892152
 20
84.0767649262
 10
168.1542542528
 20
84.089190492
 10
168.1411123827
 20
84.0978397336
 10
168.1277293389
 20
84.1061033842
 10
168.1141041905
 20
84.1139348789
 10
168.1002360066
 20
84.1212876527
 10
168.0861238564
 20
84.1281151408
 10
168.0717668089
 20
84.1343707783
 10
168.0571639332
 20
84.1400080003
  0
LWPOLYLINE
  5
271
100
AcDbEntity
  8
CURVE
100
AcDbPolyline
 62
250
  6
CONTINUOUS
 90
23
 70
0
 10
167.3660730389
 20
83.8141095015
 10
167.3827744712
 20
83.8168914298
 10
167.3995054997
 20
83.8195332878
 10
167.4162644205
 20
83.8220208372
 10
167.4330495293
 20
83.8243398401
 10
167.4498591221
 20
83.8264760581
 10
167.4666914949
 20
83.8284152534
 10
167.4835449436
 20
83.8301431877
 10
167.500417764
 20
83.831645623
 10
167.5173082522
 20
83.8329083211
 10
167.534214704
 20
83.833917044
 10
167.5511354153
 20
83.8346575536
 10
167.5670344431
 20
83.8350989175
 10
167.5829407753
 20
83.8352969057
 10
167.5988506466
 20
83.8352571673
 10
167.6147602919
 20
83.8349853514
 10
167.6306659459
 20
83.8344871073
 10
167.6465638433
 20
83.833768084
 10
167.6624502189
 20
83.8328339308
 10
167.6783213076
 20
83.8316902968
 10
167.6941733441
 20
83.8303428311
 10
167.7100025631
 20
83.8287971829
 10
167.7258051994
 20
83.8270590014
  0
LWPOLYLINE
  5
272
100
AcDbEntity
  8
IMPORT_IGES
100
AcDbPolyline
 62
7
  6
CONTINUOUS
 90
23
 70
0
 10
167.3660730389
 20
83.8141095015
 10
167.3827744712
 20
83.8168914298
 10
167.3995054997
 20
83.8195332878
 10
167.4162644205
 20
83.8220208372
 10
167.4330495293
 20
83.8243398401
 10
167.4498591221
 20
83.8264760581
 10
167.4666914949
 20
83.8284152534
 10
167.4835449436
 20
83.8301431877
 10
167.500417764
 20
83.831645623
 10
167.5173082522
 20
83.8329083211
 10
167.534214704
 20
83.833917044
 10
167.5511354153
 20
83.8346575536
 10
167.5670344431
 20
83.8350989175
 10
167.5829407753
 20
83.8352969057
 10
167.5988506466
 20
83.8352571673
 10
167.6147602919
 20
83.8349853514
 10
167.6306659459
 20
83.8344871073
 10
167.6465638433
 20
83.833768084
 10
167.6624502189
 20
83.8328339308
 10
167.6783213076
 20
83.8316902968
 10
167.6941733441
 20
83.8303428311
 10
167.7100025631
 20
83.8287971829
 10
167.7258051994
 20
83.8270590014
  0
LINE
  5
273
100
AcDbEntity
  8
CURVE
100
AcDbLine
 62
250
  6
CONTINUOUS
 10
166.7891190046
 20
81.9890552301
 11
166.3051546456
 21
81.9890552301
  0
LINE
  5
274
100
AcDbEntity
  8
IMPORT_IGES
100
AcDbLine
 62
7
  6
CONTINUOUS
 10
166.7891190046
 20
81.9890552301
 11
166.3051546456
 21
81.9890552301
  0
LINE
  5
275
100
AcDbEntity
  8
CURVE
100
AcDbLine
 62
250
  6
CONTINUOUS
 10
165.4341558281
 20
81.9890552301
 11
164.9799501344
 21
81.9890552301
  0
LINE
  5
276
100
AcDbEntity
  8
IMPORT_IGES
100
AcDbLine
 62
7
  6
CONTINUOUS
 10
165.4341558281
 20
81.9890552301
 11
164.9799501344
 21
81.9890552301
  0
LINE
  5
277
100
AcDbEntity
  8
CURVE
100
AcDbLine
 62
250
  6
CONTINUOUS
 10
164.9078456615
 20
81.9890552301
 11
164.4586381581
 21
81.9890552301
  0
LINE
  5
278
100
AcDbEntity
  8
IMPORT_IGES
100
AcDbLine
 62
7
  6
CONTINUOUS
 10
164.9078456615
 20
81.9890552301
 11
164.4586381581
 21
81.9890552301
  0
LINE
  5
279
100
AcDbEntity
  8
CURVE
100
AcDbLine
 62
250
  6
CONTINUOUS
 10
163.8183219015
 20
81.9890552301
 11
163.7539216187
 21
81.9890552301
  0
LINE
  5
27A
100
AcDbEntity
  8
IMPORT_IGES
100
AcDbLine
 62
7
  6
CONTINUOUS
 10
163.8183219015
 20
81.9890552301
 11
163.7539216187
 21
81.9890552301
  0
LINE
  5
27B
100
AcDbEntity
  8
CURVE
100
AcDbLine
 62
250
  6
CONTINUOUS
 10
163.1161458382
 20
81.9890552301
 11
162.676853001
 21
81.9890552301
  0
LINE
  5
27C
100
AcDbEntity
  8
IMPORT_IGES
100
AcDbLine
 62
7
  6
CONTINUOUS
 10
163.1161458382
 20
81.9890552301
 11
162.676853001
 21
81.9890552301
  0
LINE
  5
27D
100
AcDbEntity
  8
CURVE
100
AcDbLine
 62
250
  6
CONTINUOUS
 10
161.0929557397
 20
81.9890552301
 11
160.688296139
 21
81.9890552301
  0
LINE
  5
27E
100
AcDbEntity
  8
IMPORT_IGES
100
AcDbLine
 62
7
  6
CONTINUOUS
 10
161.0929557397
 20
81.9890552301
 11
160.688296139
 21
81.9890552301
  0
LINE
  5
27F
100
AcDbEntity
  8
CURVE
100
AcDbLine
 62
250
  6
CONTINUOUS
 10
161.9704696998
 20
81.9890552301
 11
162.4296578694
 21
81.9890552301
  0
LINE
  5
280
100
AcDbEntity
  8
IMPORT_IGES
100
AcDbLine
 62
7
  6
CONTINUOUS
 10
161.9704696998
 20
81.9890552301
 11
162.4296578694
 21
81.9890552301
  0
LINE
  5
281
100
AcDbEntity
  8
CURVE
100
AcDbLine
 62
250
  6
CONTINUOUS
 10
166.9239589638
 20
81.9890548134
 11
167.3812990114
 21
81.9890548134
  0
LINE
  5
282
100
AcDbEntity
  8
IMPORT_IGES
100
AcDbLine
 62
7
  6
CONTINUOUS
 10
166.9239589638
 20
81.9890548134
 11
167.3812990114
 21
81.9890548134
  0
LINE
  5
283
100
AcDbEntity
  8
CURVE
100
AcDbLine
 62
250
  6
CONTINUOUS
 10
168.0844816045
 20
81.9890548134
 11
168.526166779
 21
81.9890548134
  0
LINE
  5
284
100
AcDbEntity
  8
IMPORT_IGES
100
AcDbLine
 62
7
  6
CONTINUOUS
 10
168.0844816045
 20
81.9890548134
 11
168.526166779
 21
81.9890548134
  0
LINE
  5
285
100
AcDbEntity
  8
CURVE
100
AcDbLine
 62
250
  6
CONTINUOUS
 10
166.186200651
 20
82.4282160673
 11
165.5608632509
 21
82.4282160673
  0
LINE
  5
286
100
AcDbEntity
  8
IMPORT_IGES
100
AcDbLine
 62
7
  6
CONTINUOUS
 10
166.186200651
 20
82.4282160673
 11
165.5608632509
 21
82.4282160673
  0
LINE
  5
287
100
AcDbEntity
  8
CURVE
100
AcDbLine
 62
250
  6
CONTINUOUS
 10
165.6547927704
 20
82.7680374804
 11
166.0944323695
 21
82.7680374804
  0
LINE
  5
288
100
AcDbEntity
  8
IMPORT_IGES
100
AcDbLine
 62
7
  6
CONTINUOUS
 10
165.6547927704
 20
82.7680374804
 11
166.0944323695
 21
82.7680374804
  0
LINE
  5
289
100
AcDbEntity
  8
CURVE
100
AcDbLine
 62
250
  6
CONTINUOUS
 10
167.3812990114
 20
82.8499408712
 11
167.6275044728
 21
82.8499408712
  0
LINE
  5
28A
100
AcDbEntity
  8
IMPORT_IGES
100
AcDbLine
 62
7
  6
CONTINUOUS
 10
167.3812990114
 20
82.8499408712
 11
167.6275044728
 21
82.8499408712
  0
LINE
  5
28B
100
AcDbEntity
  8
CURVE
100
AcDbLine
 62
250
  6
CONTINUOUS
 10
167.6284942435
 20
83.2102174056
 11
167.3660730389
 21
83.2102174056
  0
LINE
  5
28C
100
AcDbEntity
  8
IMPORT_IGES
100
AcDbLine
 62
7
  6
CONTINUOUS
 10
167.6284942435
 20
83.2102174056
 11
167.3660730389
 21
83.2102174056
  0
LINE
  5
28D
100
AcDbEntity
  8
CURVE
100
AcDbLine
 62
250
  6
CONTINUOUS
 10
159.990911885
 20
84.1888697015
 11
160.4897314814
 21
84.1888697015
  0
LINE
  5
28E
100
AcDbEntity
  8
IMPORT_IGES
100
AcDbLine
 62
7
  6
CONTINUOUS
 10
159.990911885
 20
84.1888697015
 11
160.4897314814
 21
84.1888697015
  0
LINE
  5
28F
100
AcDbEntity
  8
CURVE
100
AcDbLine
 62
250
  6
CONTINUOUS
 10
161.3411901093
 20
84.1888697015
 11
161.8000650409
 21
84.1888697015
  0
LINE
  5
290
100
AcDbEntity
  8
IMPORT_IGES
100
AcDbLine
 62
7
  6
CONTINUOUS
 10
161.3411901093
 20
84.1888697015
 11
161.8000650409
 21
84.1888697015
  0
LINE
  5
291
100
AcDbEntity
  8
CURVE
100
AcDbLine
 62
250
  6
CONTINUOUS
 10
162.8754836586
 20
84.1888697015
 11
163.3342915426
 21
84.1888697015
  0
LINE
  5
292
100
AcDbEntity
  8
IMPORT_IGES
100
AcDbLine
 62
7
  6
CONTINUOUS
 10
162.8754836586
 20
84.1888697015
 11
163.3342915426
 21
84.1888697015
  0
LINE
  5
293
100
AcDbEntity
  8
CURVE
100
AcDbLine
 62
250
  6
CONTINUOUS
 10
164.2478174058
 20
84.1888697015
 11
164.7021383375
 21
84.1888697015
  0
LINE
  5
294
100
AcDbEntity
  8
IMPORT_IGES
100
AcDbLine
 62
7
  6
CONTINUOUS
 10
164.2478174058
 20
84.1888697015
 11
164.7021383375
 21
84.1888697015
  0
LINE
  5
295
100
AcDbEntity
  8
CURVE
100
AcDbLine
 62
250
  6
CONTINUOUS
 10
165.669952865
 20
84.1888697015
 11
166.1141611305
 21
84.1888697015
  0
LINE
  5
296
100
AcDbEntity
  8
IMPORT_IGES
100
AcDbLine
 62
7
  6
CONTINUOUS
 10
165.669952865
 20
84.1888697015
 11
166.1141611305
 21
84.1888697015
  0
LINE
  5
297
100
AcDbEntity
  8
CURVE
100
AcDbLine
 62
250
  6
CONTINUOUS
 10
162.4296578694
 20
84.1890017015
 11
161.9704696998
 21
84.1890017015
  0
LINE
  5
298
100
AcDbEntity
  8
IMPORT_IGES
100
AcDbLine
 62
7
  6
CONTINUOUS
 10
162.4296578694
 20
84.1890017015
 11
161.9704696998
 21
84.1890017015
  0
LINE
  5
299
100
AcDbEntity
  8
ASSI
100
AcDbLine
 62
250
  6
CONTINUOUS
 10
242.6985902393
 20
86.2035598146
 11
85.8997154248
 21
86.2035598146
  0
LINE
  5
29A
100
AcDbEntity
  8
ASSI
100
AcDbLine
 62
250
  6
CONTINUOUS
 10
242.6985902393
 20
86.40343798
 11
85.8997154248
 21
86.40343798
  0
LINE
  5
29B
100
AcDbEntity
  8
ASSI
100
AcDbLine
 62
7
  6
CONTINUOUS
 10
85.9488482455
 20
86.4525708008
 11
242.6494574185
 21
86.4525708008
  0
LINE
  5
29C
100
AcDbEntity
  8
ASSI
100
AcDbLine
 62
250
  6
CONTINUOUS
 10
243.3981638182
 20
86.9031333935
 11
243.1982856528
 21
86.9031333935
  0
LINE
  5
29D
100
AcDbEntity
  8
ASSI
100
AcDbLine
 62
250
  6
CONTINUOUS
 10
85.2001418459
 20
86.9031333935
 11
85.4000200113
 21
86.9031333935
  0
LWPOLYLINE
  5
29E
100
AcDbEntity
  8
CURVE
100
AcDbPolyline
 62
250
  6
CONTINUOUS
 90
46
 70
0
 10
167.6275044728
 20
82.8499408712
 10
167.6350159909
 20
82.8498350605
 10
167.6425394116
 20
82.849517642
 10
167.650066412
 20
82.8489886364
 10
167.657588669
 20
82.8482480643
 10
167.6650978595
 20
82.8472959464
 10
167.6725856607
 20
82.8461323032
 10
167.6800437494
 20
82.8447571553
 10
167.6874638026
 20
82.8431705234
 10
167.6948374974
 20
82.8413724282
 10
167.7021565108
 20
82.8393628902
 10
167.7094125196
 20
82.83714193
 10
167.716597201
 20
82.8347095683
 10
167.7237022318
 20
82.8320658257
 10
167.7307192891
 20
82.8292107228
 10
167.7376400498
 20
82.8261442802
 10
167.744456191
 20
82.8228665186
 10
167.7509901153
 20
82.8194702165
 10
167.757413485
 20
82.8158785131
 10
167.7637229838
 20
82.812096633
 10
167.7699152951
 20
82.8081298006
 10
167.7759871022
 20
82.8039832406
 10
167.7819350887
 20
82.7996621775
 10
167.787755938
 20
82.7951718358
 10
167.7934463335
 20
82.7905174401
 10
167.7990029587
 20
82.7857042149
 10
167.8044224971
 20
82.7807373847
 10
167.809701632
 20
82.7756221742
 10
167.814837047
 20
82.7703638078
 10
167.8198254255
 20
82.7649675102
 10
167.8250399308
 20
82.7589967089
 10
167.8300815189
 20
82.7528790893
 10
167.8349523017
 20
82.7466223197
 10
167.8396543912
 20
82.7402340685
 10
167.8441898992
 20
82.7337220041
 10
167.8485609377
 20
82.7270937948
 10
167.8527696185
 20
82.7203571091
 10
167.8568180538
 20
82.7135196152
 10
167.8607083552
 20
82.7065889816
 10
167.8644426348
 20
82.6995728766
 10
167.8680230046
 20
82.6924789685
 10
167.8714515763
 20
82.6853149259
 10
167.874730462
 20
82.6780884169
 10
167.8778617736
 20
82.67080711
 10
167.880847623
 20
82.6634786736
 10
167.8836901221
 20
82.656110776
  0
LWPOLYLINE
  5
29F
100
AcDbEntity
  8
IMPORT_IGES
100
AcDbPolyline
 62
7
  6
CONTINUOUS
 90
46
 70
0
 10
167.6275044728
 20
82.8499408712
 10
167.6350159909
 20
82.8498350605
 10
167.6425394116
 20
82.849517642
 10
167.650066412
 20
82.8489886364
 10
167.657588669
 20
82.8482480643
 10
167.6650978595
 20
82.8472959464
 10
167.6725856607
 20
82.8461323032
 10
167.6800437494
 20
82.8447571553
 10
167.6874638026
 20
82.8431705234
 10
167.6948374974
 20
82.8413724282
 10
167.7021565108
 20
82.8393628902
 10
167.7094125196
 20
82.83714193
 10
167.716597201
 20
82.8347095683
 10
167.7237022318
 20
82.8320658257
 10
167.7307192891
 20
82.8292107228
 10
167.7376400498
 20
82.8261442802
 10
167.744456191
 20
82.8228665186
 10
167.7509901153
 20
82.8194702165
 10
167.757413485
 20
82.8158785131
 10
167.7637229838
 20
82.812096633
 10
167.7699152951
 20
82.8081298006
 10
167.7759871022
 20
82.8039832406
 10
167.7819350887
 20
82.7996621775
 10
167.787755938
 20
82.7951718358
 10
167.7934463335
 20
82.7905174401
 10
167.7990029587
 20
82.7857042149
 10
167.8044224971
 20
82.7807373847
 10
167.809701632
 20
82.7756221742
 10
167.814837047
 20
82.7703638078
 10
167.8198254255
 20
82.7649675102
 10
167.8250399308
 20
82.7589967089
 10
167.8300815189
 20
82.7528790893
 10
167.8349523017
 20
82.7466223197
 10
167.8396543912
 20
82.7402340685
 10
167.8441898992
 20
82.7337220041
 10
167.8485609377
 20
82.7270937948
 10
167.8527696185
 20
82.7203571091
 10
167.8568180538
 20
82.7135196152
 10
167.8607083552
 20
82.7065889816
 10
167.8644426348
 20
82.6995728766
 10
167.8680230046
 20
82.6924789685
 10
167.8714515763
 20
82.6853149259
 10
167.874730462
 20
82.6780884169
 10
167.8778617736
 20
82.67080711
 10
167.880847623
 20
82.6634786736
 10
167.8836901221
 20
82.656110776
  0
LWPOLYLINE
  5
2A0
100
AcDbEntity
  8
ASSI
100
AcDbPolyline
 62
250
  6
CONTINUOUS
 90
25
 70
0
 10
85.8997154248
 20
86.40343798
 10
85.8677710412
 20
86.4044425377
 10
85.8358837007
 20
86.4074942214
 10
85.8041852781
 20
86.4125951451
 10
85.772773051
 20
86.4197479288
 10
85.7418167444
 20
86.4289328565
 10
85.7115512727
 20
86.4400852862
 10
85.6821227788
 20
86.4531422492
 10
85.6536268781
 20
86.4680517242
 10
85.6262076754
 20
86.4847278885
 10
85.5999969075
 20
86.5030721408
 10
85.5750668353
 20
86.5230145355
 10
85.5514676182
 20
86.5445062173
 10
85.5293693016
 20
86.5673763838
 10
85.5087761039
 20
86.5916040875
 10
85.4895452647
 20
86.6174142953
 10
85.4717418653
 20
86.6448685675
 10
85.4555961775
 20
86.6737777898
 10
85.4412622377
 20
86.7040169423
 10
85.4288299861
 20
86.7355872209
 10
85.418474271
 20
86.7682690206
 10
85.4103884274
 20
86.8015602888
 10
85.4046219167
 20
86.8351788393
 10
85.4011622613
 20
86.8690890983
 10
85.4000200113
 20
86.9031333935
  0
LWPOLYLINE
  5
2A1
100
AcDbEntity
  8
ASSI
100
AcDbPolyline
 62
250
  6
CONTINUOUS
 90
25
 70
0
 10
85.8997154248
 20
86.2035598146
 10
85.8547053781
 20
86.2050025659
 10
85.8101442371
 20
86.2092955062
 10
85.7660320017
 20
86.2164386356
 10
85.7221409021
 20
86.2264932458
 10
85.6786987081
 20
86.2393980451
 10
85.6363887295
 20
86.2549691582
 10
85.5952669767
 20
86.2732498983
 10
85.5552774391
 20
86.2941969523
 10
85.5169353946
 20
86.3174965057
 10
85.4802977988
 20
86.3431479722
 10
85.445307696
 20
86.3711519382
 10
85.4123094966
 20
86.4011963478
 10
85.381375437
 20
86.433147931
 10
85.3524332809
 20
86.4671399578
 10
85.325610729
 20
86.5032601831
 10
85.3007548965
 20
86.5416806765
 10
85.2780186683
 20
86.5822293684
 10
85.2579884
 20
86.6244778039
 10
85.2406989067
 20
86.6686414142
 10
85.2261153733
 20
86.7145047682
 10
85.2147197095
 20
86.7609931179
 10
85.206672552
 20
86.807748214
 10
85.2018132641
 20
86.8551283059
 10
85.2001418459
 20
86.9031333935
  0
LWPOLYLINE
  5
2A2
100
AcDbEntity
  8
CURVE
100
AcDbPolyline
 62
250
  6
CONTINUOUS
 90
49
 70
0
 10
167.7258051994
 20
83.8270590014
 10
167.7342209782
 20
83.8259683675
 10
167.7426373308
 20
83.8246502478
 10
167.7510449877
 20
83.823105282
 10
167.7594346794
 20
83.8213341096
 10
167.7677971364
 20
83.8193373701
 10
167.7761230894
 20
83.8171157029
 10
167.7844032688
 20
83.8146697477
 10
167.7926284051
 20
83.8120001439
 10
167.8007892288
 20
83.8091075311
 10
167.8088764706
 20
83.8059925487
 10
167.8168808609
 20
83.8026558363
 10
167.8247931303
 20
83.7990980334
 10
167.8326040092
 20
83.7953197796
 10
167.8403042283
 20
83.7913217142
 10
167.847884518
 20
83.7871044769
 10
167.8553356089
 20
83.7826687072
 10
167.8626482314
 20
83.7780150446
 10
167.8698131163
 20
83.7731441285
 10
167.8768209938
 20
83.7680565986
 10
167.8836625947
 20
83.7627530943
 10
167.8903286494
 20
83.7572342552
 10
167.8968098884
 20
83.7515007207
 10
167.9030970423
 20
83.7455531304
 10
167.9091808416
 20
83.7393921238
 10
167.9150220363
 20
83.7330548137
 10
167.9206502295
 20
83.7265169561
 10
167.9260627583
 20
83.7197884925
 10
167.9312569597
 20
83.712879365
 10
167.9362301704
 20
83.7057995151
 10
167.9409797276
 20
83.6985588848
 10
167.9455029681
 20
83.6911674157
 10
167.9497972289
 20
83.6836350498
 10
167.9538598469
 20
83.6759717287
 10
167.9576881591
 20
83.6681873942
 10
167.9612795024
 20
83.6602919882
 10
167.9646312138
 20
83.6522954524
 10
167.9677406302
 20
83.6442077286
 10
167.9706050885
 20
83.6360387586
 10
167.9732219258
 20
83.6277984841
 10
167.9755884788
 20
83.619496847
 10
167.9777020847
 20
83.6111437891
 10
167.9795600803
 20
83.602749252
 10
167.9811598026
 20
83.5943231777
 10
167.9824985885
 20
83.5858755078
 10
167.983573775
 20
83.5774161842
 10
167.984382699
 20
83.5689551487
 10
167.9849226974
 20
83.560502343
 10
167.9851911073
 20
83.5520677089
  0
LWPOLYLINE
  5
2A3
100
AcDbEntity
  8
IMPORT_IGES
100
AcDbPolyline
 62
7
  6
CONTINUOUS
 90
49
 70
0
 10
167.7258051994
 20
83.8270590014
 10
167.7342209782
 20
83.8259683675
 10
167.7426373308
 20
83.8246502478
 10
167.7510449877
 20
83.823105282
 10
167.7594346794
 20
83.8213341096
 10
167.7677971364
 20
83.8193373701
 10
167.7761230894
 20
83.8171157029
 10
167.7844032688
 20
83.8146697477
 10
167.7926284051
 20
83.8120001439
 10
167.8007892288
 20
83.8091075311
 10
167.8088764706
 20
83.8059925487
 10
167.8168808609
 20
83.8026558363
 10
167.8247931303
 20
83.7990980334
 10
167.8326040092
 20
83.7953197796
 10
167.8403042283
 20
83.7913217142
 10
167.847884518
 20
83.7871044769
 10
167.8553356089
 20
83.7826687072
 10
167.8626482314
 20
83.7780150446
 10
167.8698131163
 20
83.7731441285
 10
167.8768209938
 20
83.7680565986
 10
167.8836625947
 20
83.7627530943
 10
167.8903286494
 20
83.7572342552
 10
167.8968098884
 20
83.7515007207
 10
167.9030970423
 20
83.7455531304
 10
167.9091808416
 20
83.7393921238
 10
167.9150220363
 20
83.7330548137
 10
167.9206502295
 20
83.7265169561
 10
167.9260627583
 20
83.7197884925
 10
167.9312569597
 20
83.712879365
 10
167.9362301704
 20
83.7057995151
 10
167.9409797276
 20
83.6985588848
 10
167.9455029681
 20
83.6911674157
 10
167.9497972289
 20
83.6836350498
 10
167.9538598469
 20
83.6759717287
 10
167.9576881591
 20
83.6681873942
 10
167.9612795024
 20
83.6602919882
 10
167.9646312138
 20
83.6522954524
 10
167.9677406302
 20
83.6442077286
 10
167.9706050885
 20
83.6360387586
 10
167.9732219258
 20
83.6277984841
 10
167.9755884788
 20
83.619496847
 10
167.9777020847
 20
83.6111437891
 10
167.9795600803
 20
83.602749252
 10
167.9811598026
 20
83.5943231777
 10
167.9824985885
 20
83.5858755078
 10
167.983573775
 20
83.5774161842
 10
167.984382699
 20
83.5689551487
 10
167.9849226974
 20
83.560502343
 10
167.9851911073
 20
83.5520677089
  0
LWPOLYLINE
  5
2A4
100
AcDbEntity
  8
CURVE
100
AcDbPolyline
 62
250
  6
CONTINUOUS
 90
30
 70
0
 10
168.0571639332
 20
84.1400080003
 10
168.0305815463
 20
84.1491626915
 10
168.003741034
 20
84.1575415251
 10
167.976665912
 20
84.1651790887
 10
167.9493796959
 20
84.1721099698
 10
167.9219059014
 20
84.1783687561
 10
167.894268044
 20
84.1839900352
 10
167.8664896395
 20
84.1890083946
 10
167.8385942035
 20
84.1934584219
 10
167.8106052516
 20
84.1973747048
 10
167.7825462994
 20
84.2007918308
 10
167.7544408626
 20
84.2037443875
 10
167.7263124569
 20
84.2062669625
 10
167.6849685532
 20
84.2092564848
 10
167.6436275695
 20
84.2114412197
 10
167.602291245
 20
84.2128704016
 10
167.560961319
 20
84.2135932647
 10
167.5196395307
 20
84.2136590433
 10
167.4783276194
 20
84.2131169717
 10
167.4370273243
 20
84.212016284
 10
167.3957403845
 20
84.2104062145
 10
167.3431290018
 20
84.2076817953
 10
167.2905491333
 20
84.2042445768
 10
167.2380077614
 20
84.2001295945
 10
167.1855118682
 20
84.1953718835
 10
167.1330684361
 20
84.1900064792
 10
167.0806844473
 20
84.1840684169
 10
167.0283668842
 20
84.1775927318
 10
166.9761227289
 20
84.1706144593
 10
166.9239589638
 20
84.1631686346
  0
LWPOLYLINE
  5
2A5
100
AcDbEntity
  8
IMPORT_IGES
100
AcDbPolyline
 62
7
  6
CONTINUOUS
 90
30
 70
0
 10
168.0571639332
 20
84.1400080003
 10
168.0305815463
 20
84.1491626915
 10
168.003741034
 20
84.1575415251
 10
167.976665912
 20
84.1651790887
 10
167.9493796959
 20
84.1721099698
 10
167.9219059014
 20
84.1783687561
 10
167.894268044
 20
84.1839900352
 10
167.8664896395
 20
84.1890083946
 10
167.8385942035
 20
84.1934584219
 10
167.8106052516
 20
84.1973747048
 10
167.7825462994
 20
84.2007918308
 10
167.7544408626
 20
84.2037443875
 10
167.7263124569
 20
84.2062669625
 10
167.6849685532
 20
84.2092564848
 10
167.6436275695
 20
84.2114412197
 10
167.602291245
 20
84.2128704016
 10
167.560961319
 20
84.2135932647
 10
167.5196395307
 20
84.2136590433
 10
167.4783276194
 20
84.2131169717
 10
167.4370273243
 20
84.212016284
 10
167.3957403845
 20
84.2104062145
 10
167.3431290018
 20
84.2076817953
 10
167.2905491333
 20
84.2042445768
 10
167.2380077614
 20
84.2001295945
 10
167.1855118682
 20
84.1953718835
 10
167.1330684361
 20
84.1900064792
 10
167.0806844473
 20
84.1840684169
 10
167.0283668842
 20
84.1775927318
 10
166.9761227289
 20
84.1706144593
 10
166.9239589638
 20
84.1631686346
  0
LINE
  5
2A6
100
AcDbEntity
  8
CURVE
100
AcDbLine
 62
250
  6
CONTINUOUS
 10
163.7539216187
 20
81.9890552301
 11
163.2152390718
 21
83.4254927838
  0
LINE
  5
2A7
100
AcDbEntity
  8
IMPORT_IGES
100
AcDbLine
 62
7
  6
CONTINUOUS
 10
163.7539216187
 20
81.9890552301
 11
163.2152390718
 21
83.4254927838
  0
LINE
  5
2A8
100
AcDbEntity
  8
CURVE
100
AcDbLine
 62
250
  6
CONTINUOUS
 10
163.3342915426
 20
84.1888697015
 11
163.7886292362
 21
82.967526138
  0
LINE
  5
2A9
100
AcDbEntity
  8
IMPORT_IGES
100
AcDbLine
 62
7
  6
CONTINUOUS
 10
163.3342915426
 20
84.1888697015
 11
163.7886292362
 21
82.967526138
  0
LINE
  5
2AA
100
AcDbEntity
  8
CURVE
100
AcDbLine
 62
250
  6
CONTINUOUS
 10
160.688296139
 20
81.9890552301
 11
159.990911885
 21
84.1888697015
  0
LINE
  5
2AB
100
AcDbEntity
  8
IMPORT_IGES
100
AcDbLine
 62
7
  6
CONTINUOUS
 10
160.688296139
 20
81.9890552301
 11
159.990911885
 21
84.1888697015
  0
LINE
  5
2AC
100
AcDbEntity
  8
CURVE
100
AcDbLine
 62
250
  6
CONTINUOUS
 10
160.4897314814
 20
84.1888697015
 11
160.9090567004
 21
82.6746694846
  0
LINE
  5
2AD
100
AcDbEntity
  8
IMPORT_IGES
100
AcDbLine
 62
7
  6
CONTINUOUS
 10
160.4897314814
 20
84.1888697015
 11
160.9090567004
 21
82.6746694846
  0
LINE
  5
2AE
100
AcDbEntity
  8
CURVE
100
AcDbLine
 62
250
  6
CONTINUOUS
 10
164.7021383375
 20
84.1888697015
 11
164.9078456615
 21
81.9890552301
  0
LINE
  5
2AF
100
AcDbEntity
  8
IMPORT_IGES
100
AcDbLine
 62
7
  6
CONTINUOUS
 10
164.7021383375
 20
84.1888697015
 11
164.9078456615
 21
81.9890552301
  0
LINE
  5
2B0
100
AcDbEntity
  8
CURVE
100
AcDbLine
 62
250
  6
CONTINUOUS
 10
164.4586381581
 20
81.9890552301
 11
164.3642969243
 21
83.4195045936
  0
LINE
  5
2B1
100
AcDbEntity
  8
IMPORT_IGES
100
AcDbLine
 62
7
  6
CONTINUOUS
 10
164.4586381581
 20
81.9890552301
 11
164.3642969243
 21
83.4195045936
  0
LINE
  5
2B2
100
AcDbEntity
  8
CURVE
100
AcDbLine
 62
250
  6
CONTINUOUS
 10
161.9704696998
 20
84.1890017015
 11
161.9704696998
 21
81.9890552301
  0
LINE
  5
2B3
100
AcDbEntity
  8
IMPORT_IGES
100
AcDbLine
 62
7
  6
CONTINUOUS
 10
161.9704696998
 20
84.1890017015
 11
161.9704696998
 21
81.9890552301
  0
LINE
  5
2B4
100
AcDbEntity
  8
CURVE
100
AcDbLine
 62
250
  6
CONTINUOUS
 10
162.4296578694
 20
81.9890552301
 11
162.4296578694
 21
84.1890017015
  0
LINE
  5
2B5
100
AcDbEntity
  8
IMPORT_IGES
100
AcDbLine
 62
7
  6
CONTINUOUS
 10
162.4296578694
 20
81.9890552301
 11
162.4296578694
 21
84.1890017015
  0
LINE
  5
2B6
100
AcDbEntity
  8
CURVE
100
AcDbLine
 62
250
  6
CONTINUOUS
 10
163.2152390718
 20
83.4254927838
 11
163.1161458382
 21
81.9890552301
  0
LINE
  5
2B7
100
AcDbEntity
  8
IMPORT_IGES
100
AcDbLine
 62
7
  6
CONTINUOUS
 10
163.2152390718
 20
83.4254927838
 11
163.1161458382
 21
81.9890552301
  0
LINE
  5
2B8
100
AcDbEntity
  8
CURVE
100
AcDbLine
 62
250
  6
CONTINUOUS
 10
162.676853001
 20
81.9890552301
 11
162.8754836586
 21
84.1888697015
  0
LINE
  5
2B9
100
AcDbEntity
  8
IMPORT_IGES
100
AcDbLine
 62
7
  6
CONTINUOUS
 10
162.676853001
 20
81.9890552301
 11
162.8754836586
 21
84.1888697015
  0
LINE
  5
2BA
100
AcDbEntity
  8
ASSI
100
AcDbLine
 62
7
  6
CONTINUOUS
 10
59.5278838722
 20
65.6758333906
 11
58.5084535097
 21
65.2325853309
  0
LWPOLYLINE
  5
2BB
100
AcDbEntity
  8
0
100
AcDbPolyline
 62
7
  6
CONTINUOUS
 90
13
 70
0
 43
0.3500000006
 10
278.6920092773
 20
109.0525708008
 10
277.4063023682
 20
109.0525708008
 10
276.977715271
 20
109.2668552856
 10
276.5491463013
 20
109.6954242554
 10
276.5491463013
 20
109.909717804
 10
276.977715271
 20
110.3382867737
 10
277.4063023682
 20
110.5525712585
 10
278.6920092773
 20
110.5525712585
 10
279.1205782471
 20
110.3382867737
 10
279.5491472168
 20
109.909717804
 10
279.5491472168
 20
109.6954242554
 10
279.1205782471
 20
109.2668552856
 10
278.6920092773
 20
109.0525708008
  0
LINE
  5
2BC
100
AcDbEntity
  8
ASSI
100
AcDbLine
 62
7
  6
CONTINUOUS
 10
59.5278838722
 20
152.429308211
 11
58.5084535097
 21
152.8725562707
  0
LWPOLYLINE
  5
2BD
100
AcDbEntity
  8
CURVE
100
AcDbPolyline
 62
250
  6
CONTINUOUS
 90
6
 70
0
 10
167.8836901221
 20
82.656110776
 10
167.8912645647
 20
82.6353343566
 10
167.8984734369
 20
82.6144294168
 10
167.9053802786
 20
82.5934188224
 10
167.9120486299
 20
82.5723254397
 10
167.9185420308
 20
82.5511721346
  0
LWPOLYLINE
  5
2BE
100
AcDbEntity
  8
IMPORT_IGES
100
AcDbPolyline
 62
7
  6
CONTINUOUS
 90
6
 70
0
 10
167.8836901221
 20
82.656110776
 10
167.8912645647
 20
82.6353343566
 10
167.8984734369
 20
82.6144294168
 10
167.9053802786
 20
82.5934188224
 10
167.9120486299
 20
82.5723254397
 10
167.9185420308
 20
82.5511721346
  0
LINE
  5
2BF
100
AcDbEntity
  8
CURVE
100
AcDbLine
 62
250
  6
CONTINUOUS
 10
166.1141611305
 20
84.1888697015
 11
166.7891190046
 21
81.9890552301
  0
LINE
  5
2C0
100
AcDbEntity
  8
IMPORT_IGES
100
AcDbLine
 62
7
  6
CONTINUOUS
 10
166.1141611305
 20
84.1888697015
 11
166.7891190046
 21
81.9890552301
  0
LINE
  5
2C1
100
AcDbEntity
  8
CURVE
100
AcDbLine
 62
250
  6
CONTINUOUS
 10
167.9185420308
 20
82.5511721346
 11
167.9984808409
 21
82.2842662965
  0
LINE
  5
2C2
100
AcDbEntity
  8
IMPORT_IGES
100
AcDbLine
 62
7
  6
CONTINUOUS
 10
167.9185420308
 20
82.5511721346
 11
167.9984808409
 21
82.2842662965
  0
LWPOLYLINE
  5
2C3
100
AcDbEntity
  8
CURVE
100
AcDbPolyline
 62
250
  6
CONTINUOUS
 90
3
 70
0
 10
167.9984808409
 20
82.2842662965
 10
168.058506052
 20
82.0789136207
 10
168.0844816045
 20
81.9890548134
  0
LWPOLYLINE
  5
2C4
100
AcDbEntity
  8
IMPORT_IGES
100
AcDbPolyline
 62
7
  6
CONTINUOUS
 90
3
 70
0
 10
167.9984808409
 20
82.2842662965
 10
168.058506052
 20
82.0789136207
 10
168.0844816045
 20
81.9890548134
  0
LWPOLYLINE
  5
2C5
100
AcDbEntity
  8
CURVE
100
AcDbPolyline
 62
250
  6
CONTINUOUS
 90
38
 70
0
 10
168.3519995142
 20
82.6468994708
 10
168.3475447102
 20
82.6624862578
 10
168.3429806144
 20
82.678040988
 10
168.3382840599
 20
82.6935526803
 10
168.3334318803
 20
82.7090103534
 10
168.3284009086
 20
82.7244030263
 10
168.3231679782
 20
82.7397197179
 10
168.3177099224
 20
82.754949447
 10
168.3120035745
 20
82.7700812324
 10
168.3060257678
 20
82.7851040931
 10
168.2997533355
 20
82.8000070479
 10
168.2931631109
 20
82.8147791157
 10
168.2862319274
 20
82.8294093153
 10
168.2812692008
 20
82.8393531763
 10
168.2761256374
 20
82.8492119466
 10
168.2707916484
 20
82.8589724204
 10
168.2652576454
 20
82.8686213921
 10
168.2595140398
 20
82.8781456559
 10
168.2535512429
 20
82.8875320061
 10
168.2473596663
 20
82.8967672371
 10
168.2409297212
 20
82.905838143
 10
168.2342518192
 20
82.9147315183
 10
168.2273163716
 20
82.9234341572
 10
168.22011379
 20
82.9319328539
 10
168.2126344856
 20
82.9402144028
 10
168.205535622
 20
82.9475971485
 10
168.1982045187
 20
82.9547723411
 10
168.1906491244
 20
82.9617256727
 10
168.1828773884
 20
82.9684428354
 10
168.1748972594
 20
82.9749095217
 10
168.1667166867
 20
82.9811114235
 10
168.158343619
 20
82.9870342333
 10
168.1497860055
 20
82.9926636431
 10
168.1410517952
 20
82.9979853453
 10
168.1321489369
 20
83.0029850319
 10
168.1230853798
 20
83.0076483953
 10
168.1138690729
 20
83.0119611277
 10
168.104507965
 20
83.0159089213
  0
LWPOLYLINE
  5
2C6
100
AcDbEntity
  8
IMPORT_IGES
100
AcDbPolyline
 62
7
  6
CONTINUOUS
 90
38
 70
0
 10
168.3519995142
 20
82.6468994708
 10
168.3475447102
 20
82.6624862578
 10
168.3429806144
 20
82.678040988
 10
168.3382840599
 20
82.6935526803
 10
168.3334318803
 20
82.7090103534
 10
168.3284009086
 20
82.7244030263
 10
168.3231679782
 20
82.7397197179
 10
168.3177099224
 20
82.754949447
 10
168.3120035745
 20
82.7700812324
 10
168.3060257678
 20
82.7851040931
 10
168.2997533355
 20
82.8000070479
 10
168.2931631109
 20
82.8147791157
 10
168.2862319274
 20
82.8294093153
 10
168.2812692008
 20
82.8393531763
 10
168.2761256374
 20
82.8492119466
 10
168.2707916484
 20
82.8589724204
 10
168.2652576454
 20
82.8686213921
 10
168.2595140398
 20
82.8781456559
 10
168.2535512429
 20
82.8875320061
 10
168.2473596663
 20
82.8967672371
 10
168.2409297212
 20
82.905838143
 10
168.2342518192
 20
82.9147315183
 10
168.2273163716
 20
82.9234341572
 10
168.22011379
 20
82.9319328539
 10
168.2126344856
 20
82.9402144028
 10
168.205535622
 20
82.9475971485
 10
168.1982045187
 20
82.9547723411
 10
168.1906491244
 20
82.9617256727
 10
168.1828773884
 20
82.9684428354
 10
168.1748972594
 20
82.9749095217
 10
168.1667166867
 20
82.9811114235
 10
168.158343619
 20
82.9870342333
 10
168.1497860055
 20
82.9926636431
 10
168.1410517952
 20
82.9979853453
 10
168.1321489369
 20
83.0029850319
 10
168.1230853798
 20
83.0076483953
 10
168.1138690729
 20
83.0119611277
 10
168.104507965
 20
83.0159089213
  0
LINE
  5
2C7
100
AcDbEntity
  8
CURVE
100
AcDbLine
 62
250
  6
CONTINUOUS
 10
168.3606739136
 20
82.6156736509
 11
168.3519995142
 21
82.6468994708
  0
LINE
  5
2C8
100
AcDbEntity
  8
IMPORT_IGES
100
AcDbLine
 62
7
  6
CONTINUOUS
 10
168.3606739136
 20
82.6156736509
 11
168.3519995142
 21
82.6468994708
  0
LINE
  5
2C9
100
AcDbEntity
  8
CURVE
100
AcDbLine
 62
250
  6
CONTINUOUS
 10
166.3051546456
 20
81.9890552301
 11
166.186200651
 21
82.4282160673
  0
LINE
  5
2CA
100
AcDbEntity
  8
IMPORT_IGES
100
AcDbLine
 62
7
  6
CONTINUOUS
 10
166.3051546456
 20
81.9890552301
 11
166.186200651
 21
82.4282160673
  0
LINE
  5
2CB
100
AcDbEntity
  8
CURVE
100
AcDbLine
 62
250
  6
CONTINUOUS
 10
168.3906356928
 20
82.504992632
 11
168.3606739136
 21
82.6156736509
  0
LINE
  5
2CC
100
AcDbEntity
  8
IMPORT_IGES
100
AcDbLine
 62
7
  6
CONTINUOUS
 10
168.3906356928
 20
82.504992632
 11
168.3606739136
 21
82.6156736509
  0
LINE
  5
2CD
100
AcDbEntity
  8
CURVE
100
AcDbLine
 62
250
  6
CONTINUOUS
 10
168.526166779
 20
81.9890548134
 11
168.5052166254
 21
82.067592196
  0
LINE
  5
2CE
100
AcDbEntity
  8
IMPORT_IGES
100
AcDbLine
 62
7
  6
CONTINUOUS
 10
168.526166779
 20
81.9890548134
 11
168.5052166254
 21
82.067592196
  0
LINE
  5
2CF
100
AcDbEntity
  8
CURVE
100
AcDbLine
 62
250
  6
CONTINUOUS
 10
168.4326697113
 20
82.3458452065
 11
168.3906356928
 21
82.504992632
  0
LINE
  5
2D0
100
AcDbEntity
  8
IMPORT_IGES
100
AcDbLine
 62
7
  6
CONTINUOUS
 10
168.4326697113
 20
82.3458452065
 11
168.3906356928
 21
82.504992632
  0
LINE
  5
2D1
100
AcDbEntity
  8
CURVE
100
AcDbLine
 62
250
  6
CONTINUOUS
 10
168.5052166254
 20
82.067592196
 11
168.4326697113
 21
82.3458452065
  0
LINE
  5
2D2
100
AcDbEntity
  8
IMPORT_IGES
100
AcDbLine
 62
7
  6
CONTINUOUS
 10
168.5052166254
 20
82.067592196
 11
168.4326697113
 21
82.3458452065
  0
LINE
  5
2D3
100
AcDbEntity
  8
CURVE
100
AcDbLine
 62
250
  6
CONTINUOUS
 10
166.0944323695
 20
82.7680374804
 11
165.8834293314
 21
83.5844165861
  0
LINE
  5
2D4
100
AcDbEntity
  8
IMPORT_IGES
100
AcDbLine
 62
7
  6
CONTINUOUS
 10
166.0944323695
 20
82.7680374804
 11
165.8834293314
 21
83.5844165861
  0
LWPOLYLINE
  5
2D5
100
AcDbEntity
  8
IMPORT_IGES
100
AcDbPolyline
 62
7
  6
CONTINUOUS
 90
58
 70
0
 10
167.9851911073
 20
83.5520677089
 10
167.9852602842
 20
83.5418688112
 10
167.985146051
 20
83.5316404734
 10
167.9848370282
 20
83.5213936001
 10
167.9843218363
 20
83.5111390958
 10
167.9835890958
 20
83.5008878652
 10
167.9826274274
 20
83.490650813
 10
167.9814254515
 20
83.4804388437
 10
167.9799717887
 20
83.4702628619
 10
167.9782550596
 20
83.4601337722
 10
167.9762638846
 20
83.4500624794
 10
167.9739868844
 20
83.4400598879
 10
167.9714126794
 20
83.4301369024
 10
167.9685298902
 20
83.4203044275
 10
167.9653271374
 20
83.4105733678
 10
167.9617930414
 20
83.4009546279
 10
167.9579162229
 20
83.3914591125
 10
167.9540588798
 20
83.3828829545
 10
167.9499110085
 20
83.3744308816
 10
167.9454789307
 20
83.3661145367
 10
167.9407689678
 20
83.3579455623
 10
167.9357874415
 20
83.349935601
 10
167.9305406732
 20
83.3420962955
 10
167.9250349846
 20
83.3344392883
 10
167.9192766971
 20
83.3269762221
 10
167.9132721324
 20
83.3197187396
 10
167.9070276119
 20
83.3126784832
 10
167.9005494573
 20
83.3058670958
 10
167.89384399
 20
83.2992962198
 10
167.8869175316
 20
83.2929774979
 10
167.8797764038
 20
83.2869225728
 10
167.8721009736
 20
83.280893239
 10
167.8642094209
 20
83.2751581262
 10
167.8561126223
 20
83.2697113592
 10
167.8478214539
 20
83.264547063
 10
167.8393467923
 20
83.2596593623
 10
167.8306995138
 20
83.2550423822
 10
167.8218904947
 20
83.2506902474
 10
167.8129306116
 20
83.2465970829
 10
167.8038307407
 20
83.2427570135
 10
167.7946017585
 20
83.2391641642
 10
167.7852545413
 20
83.2358126598
 10
167.7757999655
 20
83.2326966252
 10
167.7662489076
 20
83.2298101852
 10
167.7566122439
 20
83.2271474649
 10
167.7469008507
 20
83.2247025891
 10
167.7371256045
 20
83.2224696826
 10
167.7272973817
 20
83.2204428703
 10
167.7174270587
 20
83.2186162771
 10
167.7075255117
 20
83.216984028
 10
167.6976036173
 20
83.2155402478
 10
167.6876722518
 20
83.2142790613
 10
167.6777422916
 20
83.2131945935
 10
167.6678246131
 20
83.2122809693
 10
167.6579300926
 20
83.2115323135
 10
167.6480696066
 20
83.210942751
 10
167.6382540314
 20
83.2105064068
 10
167.6284942435
 20
83.2102174056
  0
LWPOLYLINE
  5
2D6
100
AcDbEntity
  8
CURVE
100
AcDbPolyline
 62
250
  6
CONTINUOUS
 90
58
 70
0
 10
167.9851911073
 20
83.5520677089
 10
167.9852602842
 20
83.5418688112
 10
167.985146051
 20
83.5316404734
 10
167.9848370282
 20
83.5213936001
 10
167.9843218363
 20
83.5111390958
 10
167.9835890958
 20
83.5008878652
 10
167.9826274274
 20
83.490650813
 10
167.9814254515
 20
83.4804388437
 10
167.9799717887
 20
83.4702628619
 10
167.9782550596
 20
83.4601337722
 10
167.9762638846
 20
83.4500624794
 10
167.9739868844
 20
83.4400598879
 10
167.9714126794
 20
83.4301369024
 10
167.9685298902
 20
83.4203044275
 10
167.9653271374
 20
83.4105733678
 10
167.9617930414
 20
83.4009546279
 10
167.9579162229
 20
83.3914591125
 10
167.9540588798
 20
83.3828829545
 10
167.9499110085
 20
83.3744308816
 10
167.9454789307
 20
83.3661145367
 10
167.9407689678
 20
83.3579455623
 10
167.9357874415
 20
83.349935601
 10
167.9305406732
 20
83.3420962955
 10
167.9250349846
 20
83.3344392883
 10
167.9192766971
 20
83.3269762221
 10
167.9132721324
 20
83.3197187396
 10
167.9070276119
 20
83.3126784832
 10
167.9005494573
 20
83.3058670958
 10
167.89384399
 20
83.2992962198
 10
167.8869175316
 20
83.2929774979
 10
167.8797764038
 20
83.2869225728
 10
167.8721009736
 20
83.280893239
 10
167.8642094209
 20
83.2751581262
 10
167.8561126223
 20
83.2697113592
 10
167.8478214539
 20
83.264547063
 10
167.8393467923
 20
83.2596593623
 10
167.8306995138
 20
83.2550423822
 10
167.8218904947
 20
83.2506902474
 10
167.8129306116
 20
83.2465970829
 10
167.8038307407
 20
83.2427570135
 10
167.7946017585
 20
83.2391641642
 10
167.7852545413
 20
83.2358126598
 10
167.7757999655
 20
83.2326966252
 10
167.7662489076
 20
83.2298101852
 10
167.7566122439
 20
83.2271474649
 10
167.7469008507
 20
83.2247025891
 10
167.7371256045
 20
83.2224696826
 10
167.7272973817
 20
83.2204428703
 10
167.7174270587
 20
83.2186162771
 10
167.7075255117
 20
83.216984028
 10
167.6976036173
 20
83.2155402478
 10
167.6876722518
 20
83.2142790613
 10
167.6777422916
 20
83.2131945935
 10
167.6678246131
 20
83.2122809693
 10
167.6579300926
 20
83.2115323135
 10
167.6480696066
 20
83.210942751
 10
167.6382540314
 20
83.2105064068
 10
167.6284942435
 20
83.2102174056
  0
LINE
  5
2D7
100
AcDbEntity
  8
CURVE
100
AcDbLine
 62
250
  6
CONTINUOUS
 10
166.9239589638
 20
84.1631686346
 11
166.9239589638
 21
81.9890548134
  0
LINE
  5
2D8
100
AcDbEntity
  8
IMPORT_IGES
100
AcDbLine
 62
7
  6
CONTINUOUS
 10
166.9239589638
 20
84.1631686346
 11
166.9239589638
 21
81.9890548134
  0
LINE
  5
2D9
100
AcDbEntity
  8
CURVE
100
AcDbLine
 62
250
  6
CONTINUOUS
 10
167.3660730389
 20
83.2102174056
 11
167.3660730389
 21
83.8141095015
  0
LINE
  5
2DA
100
AcDbEntity
  8
IMPORT_IGES
100
AcDbLine
 62
7
  6
CONTINUOUS
 10
167.3660730389
 20
83.2102174056
 11
167.3660730389
 21
83.8141095015
  0
LINE
  5
2DB
100
AcDbEntity
  8
CURVE
100
AcDbLine
 62
250
  6
CONTINUOUS
 10
167.3812990114
 20
81.9890548134
 11
167.3812990114
 21
82.8499408712
  0
LINE
  5
2DC
100
AcDbEntity
  8
IMPORT_IGES
100
AcDbLine
 62
7
  6
CONTINUOUS
 10
167.3812990114
 20
81.9890548134
 11
167.3812990114
 21
82.8499408712
  0
LINE
  5
2DD
100
AcDbEntity
  8
CURVE
100
AcDbLine
 62
250
  6
CONTINUOUS
 10
168.104507965
 20
83.0159089213
 11
168.104507965
 21
83.0289079098
  0
LINE
  5
2DE
100
AcDbEntity
  8
IMPORT_IGES
100
AcDbLine
 62
7
  6
CONTINUOUS
 10
168.104507965
 20
83.0159089213
 11
168.104507965
 21
83.0289079098
  0
LINE
  5
2DF
100
AcDbEntity
  8
CURVE
100
AcDbLine
 62
250
  6
CONTINUOUS
 10
165.8834293314
 20
83.5844165861
 11
165.6547927704
 21
82.7680374804
  0
LINE
  5
2E0
100
AcDbEntity
  8
IMPORT_IGES
100
AcDbLine
 62
7
  6
CONTINUOUS
 10
165.8834293314
 20
83.5844165861
 11
165.6547927704
 21
82.7680374804
  0
LINE
  5
2E1
100
AcDbEntity
  8
CURVE
100
AcDbLine
 62
250
  6
CONTINUOUS
 10
160.9090567004
 20
82.6746694846
 11
161.3411901093
 21
84.1888697015
  0
LINE
  5
2E2
100
AcDbEntity
  8
IMPORT_IGES
100
AcDbLine
 62
7
  6
CONTINUOUS
 10
160.9090567004
 20
82.6746694846
 11
161.3411901093
 21
84.1888697015
  0
LINE
  5
2E3
100
AcDbEntity
  8
CURVE
100
AcDbLine
 62
250
  6
CONTINUOUS
 10
165.5608632509
 20
82.4282160673
 11
165.4341558281
 21
81.9890552301
  0
LINE
  5
2E4
100
AcDbEntity
  8
IMPORT_IGES
100
AcDbLine
 62
7
  6
CONTINUOUS
 10
165.5608632509
 20
82.4282160673
 11
165.4341558281
 21
81.9890552301
  0
LINE
  5
2E5
100
AcDbEntity
  8
CURVE
100
AcDbLine
 62
250
  6
CONTINUOUS
 10
161.8000650409
 20
84.1888697015
 11
161.0929557397
 21
81.9890552301
  0
LINE
  5
2E6
100
AcDbEntity
  8
IMPORT_IGES
100
AcDbLine
 62
7
  6
CONTINUOUS
 10
161.8000650409
 20
84.1888697015
 11
161.0929557397
 21
81.9890552301
  0
LINE
  5
2E7
100
AcDbEntity
  8
CURVE
100
AcDbLine
 62
250
  6
CONTINUOUS
 10
163.7886292362
 20
82.967526138
 11
164.2478174058
 21
84.1888697015
  0
LINE
  5
2E8
100
AcDbEntity
  8
IMPORT_IGES
100
AcDbLine
 62
7
  6
CONTINUOUS
 10
163.7886292362
 20
82.967526138
 11
164.2478174058
 21
84.1888697015
  0
LINE
  5
2E9
100
AcDbEntity
  8
ASSI
100
AcDbLine
 62
7
  6
CONTINUOUS
 10
269.0704217919
 20
152.429308211
 11
270.0898521544
 21
152.8725562707
  0
LINE
  5
2EA
100
AcDbEntity
  8
ASSI
100
AcDbLine
 62
7
  6
CONTINUOUS
 10
269.0704217919
 20
65.6758333906
 11
270.0898521544
 21
65.2325853309
  0
LINE
  5
2EB
100
AcDbEntity
  8
CURVE
100
AcDbLine
 62
250
  6
CONTINUOUS
 10
164.9799501344
 20
81.9890552301
 11
165.669952865
 21
84.1888697015
  0
LINE
  5
2EC
100
AcDbEntity
  8
IMPORT_IGES
100
AcDbLine
 62
7
  6
CONTINUOUS
 10
164.9799501344
 20
81.9890552301
 11
165.669952865
 21
84.1888697015
  0
LINE
  5
2ED
100
AcDbEntity
  8
CURVE
100
AcDbLine
 62
250
  6
CONTINUOUS
 10
164.3642969243
 20
83.4195045936
 11
163.8183219015
 21
81.9890552301
  0
LINE
  5
2EE
100
AcDbEntity
  8
IMPORT_IGES
100
AcDbLine
 62
7
  6
CONTINUOUS
 10
164.3642969243
 20
83.4195045936
 11
163.8183219015
 21
81.9890552301
  0
LINE
  5
2EF
100
AcDbEntity
  8
ASSI
100
AcDbLine
 62
250
  6
CONTINUOUS
 10
243.3981638182
 20
131.202008208
 11
243.1982856528
 21
131.202008208
  0
LINE
  5
2F0
100
AcDbEntity
  8
ASSI
100
AcDbLine
 62
250
  6
CONTINUOUS
 10
85.2001418459
 20
131.202008208
 11
85.4000200113
 21
131.202008208
  0
LINE
  5
2F1
100
AcDbEntity
  8
ASSI
100
AcDbLine
 62
7
  6
CONTINUOUS
 10
242.6494574185
 20
131.6525708008
 11
85.9488482455
 21
131.6525708008
  0
LINE
  5
2F2
100
AcDbEntity
  8
ASSI
100
AcDbLine
 62
250
  6
CONTINUOUS
 10
85.8997154248
 20
131.7017036215
 11
242.6985902393
 21
131.7017036215
  0
LINE
  5
2F3
100
AcDbEntity
  8
ASSI
100
AcDbLine
 62
250
  6
CONTINUOUS
 10
85.8997154248
 20
131.9015817869
 11
242.6985902393
 21
131.9015817869
  0
LWPOLYLINE
  5
2F4
100
AcDbEntity
  8
ASSI
100
AcDbPolyline
 62
250
  6
CONTINUOUS
 90
25
 70
0
 10
242.6985902393
 20
131.7017036215
 10
242.7305346229
 20
131.7006990639
 10
242.7624219634
 20
131.6976473801
 10
242.794120386
 20
131.6925464564
 10
242.8255326131
 20
131.6853936727
 10
242.8564889196
 20
131.6762087451
 10
242.8867543913
 20
131.6650563154
 10
242.9161828853
 20
131.6519993524
 10
242.9446787859
 20
131.6370898773
 10
242.9720979886
 20
131.6204137131
 10
242.9983087565
 20
131.6020694608
 10
243.0232388288
 20
131.5821270661
 10
243.0468380459
 20
131.5606353843
 10
243.0689363624
 20
131.5377652177
 10
243.0895295602
 20
131.5135375141
 10
243.1087603994
 20
131.4877273062
 10
243.1265637987
 20
131.460273034
 10
243.1427094866
 20
131.4313638117
 10
243.1570434264
 20
131.4011246593
 10
243.169475678
 20
131.3695543807
 10
243.1798313931
 20
131.336872581
 10
243.1879172367
 20
131.3035813127
 10
243.1936837473
 20
131.2699627622
 10
243.1971434028
 20
131.2360525032
 10
243.1982856528
 20
131.202008208
  0
LWPOLYLINE
  5
2F5
100
AcDbEntity
  8
ASSI
100
AcDbPolyline
 62
250
  6
CONTINUOUS
 90
25
 70
0
 10
242.6985902393
 20
131.9015817869
 10
242.743600286
 20
131.9001390357
 10
242.788161427
 20
131.8958460953
 10
242.8322736624
 20
131.8887029659
 10
242.876164762
 20
131.8786483557
 10
242.9196069559
 20
131.8657435565
 10
242.9619169346
 20
131.8501724433
 10
243.0030386874
 20
131.8318917032
 10
243.043028225
 20
131.8109446493
 10
243.0813702695
 20
131.7876450959
 10
243.1180078653
 20
131.7619936293
 10
243.1529979681
 20
131.7339896634
 10
243.1859961675
 20
131.7039452538
 10
243.216930227
 20
131.6719936706
 10
243.2458723832
 20
131.6380016437
 10
243.2726949351
 20
131.6018814185
 10
243.2975507675
 20
131.563460925
 10
243.3202869957
 20
131.5229122332
 10
243.3403172641
 20
131.4806637976
 10
243.3576067573
 20
131.4365001874
 10
243.3721902908
 20
131.3906368334
 10
243.3835859545
 20
131.3441484837
 10
243.3916331121
 20
131.2973933876
 10
243.3964924
 20
131.2500132957
 10
243.3981638182
 20
131.202008208
  0
LINE
  5
2F6
100
AcDbEntity
  8
ASSI
100
AcDbLine
 62
250
  6
CONTINUOUS
 10
242.6985902393
 20
131.7017036215
 11
242.6494574185
 21
131.6525708008
  0
LINE
  5
2F7
100
AcDbEntity
  8
ASSI
100
AcDbLine
 62
250
  6
CONTINUOUS
 10
243.1982856528
 20
131.202008208
 11
243.149152832
 21
131.1528753873
  0
LINE
  5
2F8
100
AcDbEntity
  8
ASSI
100
AcDbLine
 62
7
  6
CONTINUOUS
 10
269.1047124864
 20
153.8587392573
 11
269.2985440299
 21
154.0525708008
  0
LINE
  5
2F9
100
AcDbEntity
  8
ASSI
100
AcDbLine
 62
7
  6
CONTINUOUS
 10
270.1053212886
 20
152.8581304552
 11
270.299152832
 21
153.0519619987
  0
LINE
  5
2FA
100
AcDbEntity
  8
ASSI
100
AcDbLine
 62
7
  6
CONTINUOUS
 10
268.6758902422
 20
152.8238397606
 11
59.9224154218
 21
152.8238397606
  0
LINE
  5
2FB
100
AcDbEntity
  8
ASSI
100
AcDbLine
 62
7
  6
CONTINUOUS
 10
269.1047124864
 20
153.8587392573
 11
59.4935931776
 21
153.8587392573
  0
LINE
  5
2FC
100
AcDbEntity
  8
ASSI
100
AcDbLine
 62
7
  6
CONTINUOUS
 10
269.2985440299
 20
154.0525708008
 11
59.2997616341
 21
154.0525708008
  0
LINE
  5
2FD
100
AcDbEntity
  8
ASSI
100
AcDbLine
 62
250
  6
CONTINUOUS
 10
242.6985902393
 20
86.40343798
 11
242.6494574185
 21
86.4525708008
  0
LINE
  5
2FE
100
AcDbEntity
  8
ASSI
100
AcDbLine
 62
250
  6
CONTINUOUS
 10
243.1982856528
 20
86.9031333935
 11
243.149152832
 21
86.9522662143
  0
LINE
  5
2FF
100
AcDbEntity
  8
ASSI
100
AcDbLine
 62
7
  6
CONTINUOUS
 10
269.1047124864
 20
64.2464023442
 11
269.2985440299
 21
64.0525708008
  0
LINE
  5
300
100
AcDbEntity
  8
ASSI
100
AcDbLine
 62
7
  6
CONTINUOUS
 10
270.1053212886
 20
65.2470111464
 11
270.299152832
 21
65.0531796029
  0
LWPOLYLINE
  5
301
100
AcDbEntity
  8
0
100
AcDbPolyline
 62
7
  6
CONTINUOUS
 90
7
 70
0
 43
0.3500000006
 10
166.656300293
 20
164.8025742188
 10
165.1562907715
 20
164.8025742188
 10
166.656300293
 20
166.9454190674
 10
166.656300293
 20
167.3740061646
 10
166.2277313232
 20
167.8025751343
 10
165.5848597412
 20
167.8025751343
 10
165.1562907715
 20
167.1597216797
  0
LWPOLYLINE
  5
302
100
AcDbEntity
  8
0
100
AcDbPolyline
 62
7
  6
CONTINUOUS
 90
7
 70
0
 43
0.3500000006
 10
162.5848588257
 20
164.8025742188
 10
161.0848674316
 20
164.8025742188
 10
162.5848588257
 20
166.9454190674
 10
162.5848588257
 20
167.3740061646
 10
162.156289856
 20
167.8025751343
 10
161.5134364014
 20
167.8025751343
 10
161.0848674316
 20
167.1597216797
  0
LINE
  5
303
100
AcDbEntity
  8
ASSI
100
AcDbLine
 62
250
  6
CONTINUOUS
 10
242.6985902393
 20
131.9015817869
 11
242.6985902393
 21
131.7017036215
  0
LINE
  5
304
100
AcDbEntity
  8
ASSI
100
AcDbLine
 62
250
  6
CONTINUOUS
 10
242.6985902393
 20
86.2035598146
 11
242.6985902393
 21
86.40343798
  0
LINE
  5
305
100
AcDbEntity
  8
ASSI
100
AcDbLine
 62
7
  6
CONTINUOUS
 10
243.149152832
 20
86.9522662143
 11
243.149152832
 21
131.1528753873
  0
LINE
  5
306
100
AcDbEntity
  8
ASSI
100
AcDbLine
 62
250
  6
CONTINUOUS
 10
243.1982856528
 20
131.202008208
 11
243.1982856528
 21
86.9031333935
  0
LINE
  5
307
100
AcDbEntity
  8
ASSI
100
AcDbLine
 62
250
  6
CONTINUOUS
 10
243.3981638182
 20
131.202008208
 11
243.3981638182
 21
86.9031333935
  0
LWPOLYLINE
  5
308
100
AcDbEntity
  8
ASSI
100
AcDbPolyline
 62
250
  6
CONTINUOUS
 90
25
 70
0
 10
243.1982856528
 20
86.9031333935
 10
243.1972810951
 20
86.8711890099
 10
243.1942294114
 20
86.8393016694
 10
243.1891284877
 20
86.8076032468
 10
243.181975704
 20
86.7761910197
 10
243.1727907763
 20
86.7452347132
 10
243.1616383466
 20
86.7149692415
 10
243.1485813836
 20
86.6855407475
 10
243.1336719086
 20
86.6570448469
 10
243.1169957443
 20
86.6296256442
 10
243.098651492
 20
86.6034148763
 10
243.0787090973
 20
86.578484804
 10
243.0572174155
 20
86.554885587
 10
243.034347249
 20
86.5327872704
 10
243.0101195453
 20
86.5121940727
 10
242.9843093375
 20
86.4929632334
 10
242.9568550653
 20
86.4751598341
 10
242.927945843
 20
86.4590141462
 10
242.8977066905
 20
86.4446802065
 10
242.8661364119
 20
86.4322479548
 10
242.8334546122
 20
86.4218922398
 10
242.800163344
 20
86.4138063961
 10
242.7665447935
 20
86.4080398855
 10
242.7326345345
 20
86.40458023
 10
242.6985902393
 20
86.40343798
  0
LWPOLYLINE
  5
309
100
AcDbEntity
  8
ASSI
100
AcDbPolyline
 62
250
  6
CONTINUOUS
 90
25
 70
0
 10
243.3981638182
 20
86.9031333935
 10
243.3967210669
 20
86.8581233468
 10
243.3924281266
 20
86.8135622058
 10
243.3852849972
 20
86.7694499704
 10
243.375230387
 20
86.7255588708
 10
243.3623255877
 20
86.6821166769
 10
243.3467544746
 20
86.6398066982
 10
243.3284737345
 20
86.5986849454
 10
243.3075266805
 20
86.5586954079
 10
243.2842271271
 20
86.5203533633
 10
243.2585756606
 20
86.4837157675
 10
243.2305716946
 20
86.4487256647
 10
243.200527285
 20
86.4157274653
 10
243.1685757018
 20
86.3847934058
 10
243.134583675
 20
86.3558512496
 10
243.0984634497
 20
86.3290286977
 10
243.0600429563
 20
86.3041728653
 10
243.0194942644
 20
86.2814366371
 10
242.9772458289
 20
86.2614063688
 10
242.9330822186
 20
86.2441168755
 10
242.8872188647
 20
86.2295333421
 10
242.840730515
 20
86.2181376783
 10
242.7939754188
 20
86.2100905207
 10
242.7465953269
 20
86.2052312329
 10
242.6985902393
 20
86.2035598146
  0
LINE
  5
30A
100
AcDbEntity
  8
ASSI
100
AcDbLine
 62
7
  6
CONTINUOUS
 10
268.6758902422
 20
152.8238397606
 11
269.1191383019
 21
153.8432701231
  0
LWPOLYLINE
  5
30B
100
AcDbEntity
  8
0
100
AcDbPolyline
 62
7
  6
CONTINUOUS
 90
10
 70
0
 43
0.3500000006
 10
279.5491472168
 20
107.1240013733
 10
278.6920092773
 20
107.9811393127
 10
277.8348713379
 20
108.1954237976
 10
276.977715271
 20
108.1954237976
 10
276.5491463013
 20
107.7668548279
 10
276.5491463013
 20
107.1240013733
 10
276.977715271
 20
106.6954324036
 10
277.8348713379
 20
106.6954324036
 10
278.2634403076
 20
107.1240013733
 10
278.2634403076
 20
108.0525704956
  0
LINE
  5
30C
100
AcDbEntity
  8
ASSI
100
AcDbLine
 62
7
  6
CONTINUOUS
 10
268.6758902422
 20
65.281301841
 11
269.1191383019
 21
64.2618714784
  0
LINE
  5
30D
100
AcDbEntity
  8
ASSI
100
AcDbLine
 62
7
  6
CONTINUOUS
 10
269.0704217919
 20
65.6758333906
 11
269.0704217919
 21
152.429308211
  0
LINE
  5
30E
100
AcDbEntity
  8
ASSI
100
AcDbLine
 62
7
  6
CONTINUOUS
 10
270.1053212886
 20
65.2470111464
 11
270.1053212886
 21
152.8581304552
  0
LINE
  5
30F
100
AcDbEntity
  8
ASSI
100
AcDbLine
 62
7
  6
CONTINUOUS
 10
270.299152832
 20
65.0531796029
 11
270.299152832
 21
153.0519619987
  0
LINE
  5
310
100
AcDbEntity
  8
ASSI
100
AcDbLine
 62
7
  6
CONTINUOUS
 10
269.1191383019
 20
64.2618714784
 11
269.1047124864
 21
64.2464023442
  0
LINE
  5
311
100
AcDbEntity
  8
ASSI
100
AcDbLine
 62
7
  6
CONTINUOUS
 10
268.6758902422
 20
65.281301841
 11
269.0704217919
 21
65.6758333906
  0
LINE
  5
312
100
AcDbEntity
  8
ASSI
100
AcDbLine
 62
7
  6
CONTINUOUS
 10
269.1191383019
 20
64.2618714784
 11
270.0898521544
 21
65.2325853309
  0
LINE
  5
313
100
AcDbEntity
  8
ASSI
100
AcDbLine
 62
7
  6
CONTINUOUS
 10
270.299152832
 20
65.0531796029
 11
269.2985440299
 21
64.0525708008
  0
LINE
  5
314
100
AcDbEntity
  8
ASSI
100
AcDbLine
 62
7
  6
CONTINUOUS
 10
270.1053212886
 20
65.2470111464
 11
270.0898521544
 21
65.2325853309
  0
LINE
  5
315
100
AcDbEntity
  8
ASSI
100
AcDbLine
 62
7
  6
CONTINUOUS
 10
270.0898521544
 20
152.8725562707
 11
270.1053212886
 21
152.8581304552
  0
LINE
  5
316
100
AcDbEntity
  8
ASSI
100
AcDbLine
 62
7
  6
CONTINUOUS
 10
269.0704217919
 20
152.429308211
 11
268.6758902422
 21
152.8238397606
  0
LINE
  5
317
100
AcDbEntity
  8
ASSI
100
AcDbLine
 62
7
  6
CONTINUOUS
 10
270.0898521544
 20
152.8725562707
 11
269.1191383019
 21
153.8432701231
  0
LINE
  5
318
100
AcDbEntity
  8
ASSI
100
AcDbLine
 62
7
  6
CONTINUOUS
 10
269.2985440299
 20
154.0525708008
 11
270.299152832
 21
153.0519619987
  0
LINE
  5
319
100
AcDbEntity
  8
ASSI
100
AcDbLine
 62
7
  6
CONTINUOUS
 10
269.1047124864
 20
153.8587392573
 11
269.1191383019
 21
153.8432701231
  0
LINE
  5
31A
100
AcDbEntity
  8
ASSI
100
AcDbLine
 62
7
  6
CONTINUOUS
 10
28.3401097723
 20
64.2464023442
 11
33.8907189453
 21
64.0525708008
  0
LINE
  5
31B
100
AcDbEntity
  8
ASSI
100
AcDbLine
 62
7
  6
CONTINUOUS
 10
28.3401097723
 20
65.2470111464
 11
33.8907189453
 21
65.0531796029
  0
LWPOLYLINE
  5
31C
100
AcDbEntity
  8
0
100
AcDbPolyline
 62
7
  6
CONTINUOUS
 90
10
 70
0
 43
0.3500000006
 10
38.9220004578
 20
174.8025772705
 10
39.7791429291
 20
175.65971521
 10
39.9934319458
 20
176.5168531494
 10
39.9934319458
 20
177.3739910889
 10
39.5648584442
 20
177.802578186
 10
38.9220004578
 20
177.802578186
 10
38.493431488
 20
177.3739910889
 10
38.493431488
 20
176.5168531494
 10
38.9220004578
 20
176.0882841797
 10
39.8505741119
 20
176.0882841797
  0
LINE
  5
31D
100
AcDbEntity
  8
ASSI
100
AcDbLine
 62
7
  6
CONTINUOUS
 10
27.3407189453
 20
152.429308211
 11
28.3251714031
 21
152.8725562707
  0
LINE
  5
31E
100
AcDbEntity
  8
ASSI
100
AcDbLine
 62
7
  6
CONTINUOUS
 10
27.3407189453
 20
65.6758333906
 11
28.3251714031
 21
65.2325853309
  0
LINE
  5
31F
100
AcDbEntity
  8
ASSI
100
AcDbLine
 62
7
  6
CONTINUOUS
 10
27.3407189453
 20
152.8238397606
 11
28.3401097723
 21
153.8587392573
  0
LWPOLYLINE
  5
320
100
AcDbEntity
  8
0
100
AcDbPolyline
 62
7
  6
CONTINUOUS
 90
10
 70
0
 43
0.3500000006
 10
40.3025999908
 20
167.8025751343
 10
39.6597465363
 20
167.1597216797
 10
39.2311730347
 20
166.3025656128
 10
39.2311730347
 20
165.2311431885
 10
39.6597465363
 20
164.8025742188
 10
40.3025999908
 20
164.8025742188
 10
40.7311734924
 20
165.2311431885
 10
40.7311734924
 20
166.0882811279
 10
40.3025999908
 20
166.5168500977
 10
39.3740308685
 20
166.5168500977
  0
LINE
  5
321
100
AcDbEntity
  8
ASSI
100
AcDbLine
 62
7
  6
CONTINUOUS
 10
27.3407189453
 20
65.281301841
 11
28.3401097723
 21
64.2464023442
  0
LINE
  5
322
100
AcDbEntity
  8
0
100
AcDbLine
 62
7
  6
CONTINUOUS
 10
34.8907189453
 20
81.9025708008
 11
33.8907189453
 21
81.9008254698
  0
LINE
  5
323
100
AcDbEntity
  8
0
100
AcDbLine
 62
250
  6
CONTINUOUS
 10
34.8164915291
 20
82.1248915569
 11
33.8907189453
 21
82.1244733623
  0
LINE
  5
324
100
AcDbEntity
  8
0
100
AcDbLine
 62
7
  6
CONTINUOUS
 10
36.3407681775
 20
82.7110069404
 11
33.8907189453
 21
82.696752971
  0
LINE
  5
325
100
AcDbEntity
  8
0
100
AcDbLine
 62
250
  6
CONTINUOUS
 10
36.3407681775
 20
82.7988734191
 11
33.8907189453
 21
82.7846194496
  0
LINE
  5
326
100
AcDbEntity
  8
0
100
AcDbLine
 62
7
  6
CONTINUOUS
 10
36.8907189453
 20
82.900209594
 11
36.7701561783
 21
82.900209594
  0
LINE
  5
327
100
AcDbEntity
  8
0
100
AcDbLine
 62
7
  6
CONTINUOUS
 10
34.8408433242
 20
83.8525708008
 11
33.8907189453
 21
83.8525708008
  0
LINE
  5
328
100
AcDbEntity
  8
0
100
AcDbLine
 62
7
  6
CONTINUOUS
 10
33.8907189453
 20
84.0025708008
 11
34.0407189453
 21
84.0025708008
  0
LINE
  5
329
100
AcDbEntity
  8
0
100
AcDbLine
 62
7
  6
CONTINUOUS
 10
34.3407189453
 20
84.0025708008
 11
34.5407189453
 21
84.0025708008
  0
LINE
  5
32A
100
AcDbEntity
  8
0
100
AcDbLine
 62
7
  6
CONTINUOUS
 10
36.368782291
 20
83.7047644662
 11
36.8907189453
 21
83.700209594
  0
LINE
  5
32B
100
AcDbEntity
  8
0
100
AcDbLine
 62
7
  6
CONTINUOUS
 10
33.8907189453
 20
83.2967509262
 11
36.7011861366
 21
83.1725841331
  0
LINE
  5
32C
100
AcDbEntity
  8
0
100
AcDbLine
 62
7
  6
CONTINUOUS
 10
34.9403470432
 20
83.847607991
 11
36.8907189453
 21
83.6525708008
  0
LWPOLYLINE
  5
32D
100
AcDbEntity
  8
0
100
AcDbPolyline
 62
250
  6
CONTINUOUS
 90
4
 70
0
 10
36.3803912518
 20
135.3384997269
 10
36.3673158746
 20
135.3290357516
 10
36.3540837823
 20
135.3182720709
 10
36.3407681775
 20
135.3062681825
  0
LWPOLYLINE
  5
32E
100
AcDbEntity
  8
0
100
AcDbPolyline
 62
250
  6
CONTINUOUS
 90
4
 70
0
 10
36.3804281365
 20
82.7666168702
 10
36.3673413886
 20
82.7760862346
 10
36.3540969374
 20
82.7868582493
 10
36.3407681775
 20
82.7988734191
  0
LINE
  5
32F
100
AcDbEntity
  8
0
100
AcDbLine
 62
7
  6
CONTINUOUS
 10
34.0407189453
 20
134.1025708008
 11
34.1907189453
 21
134.2525708008
  0
LINE
  5
330
100
AcDbEntity
  8
0
100
AcDbLine
 62
7
  6
CONTINUOUS
 10
34.5407189453
 20
134.1025708008
 11
34.6907189453
 21
134.2525708008
  0
LINE
  5
331
100
AcDbEntity
  8
0
100
AcDbLine
 62
7
  6
CONTINUOUS
 10
34.0407189453
 20
84.0025708008
 11
34.1907189453
 21
83.8525708008
  0
LINE
  5
332
100
AcDbEntity
  8
0
100
AcDbLine
 62
7
  6
CONTINUOUS
 10
34.5407189453
 20
84.0025708008
 11
34.6907189453
 21
83.8525708008
  0
LWPOLYLINE
  5
333
100
AcDbEntity
  8
0
100
AcDbPolyline
 62
250
  6
CONTINUOUS
 90
9
 70
0
 10
34.9158819786
 20
81.9712965479
 10
34.9222782611
 20
81.9635032197
 10
34.9284972464
 20
81.9563937155
 10
34.9344792136
 20
81.9501059628
 10
34.9400985811
 20
81.9448464206
 10
34.9452160528
 20
81.9408147414
 10
34.9497306292
 20
81.9381635149
 10
34.9535648444
 20
81.9370290905
 10
34.956625179
 20
81.9375550047
  0
LWPOLYLINE
  5
334
100
AcDbEntity
  8
0
100
AcDbPolyline
 62
7
  6
CONTINUOUS
 90
3
 70
0
 43
0.3500000006
 10
41.5648590546
 20
175.0882838745
 10
41.4934324036
 20
174.8739993896
 10
41.3505745697
 20
174.5882927856
  0
LWPOLYLINE
  5
335
100
AcDbEntity
  8
0
100
AcDbPolyline
 62
250
  6
CONTINUOUS
 90
22
 70
0
 10
34.8164915291
 20
135.9802500447
 10
34.8237448227
 20
135.9928456539
 10
34.8310391092
 20
136.0053339523
 10
34.8383550067
 20
136.0176761513
 10
34.8456293234
 20
136.0297667632
 10
34.8528846532
 20
136.0416342735
 10
34.8602244818
 20
136.0534214908
 10
34.867617626
 20
136.0650566435
 10
34.8750340732
 20
136.0764800881
 10
34.8825612318
 20
136.0878012886
 10
34.8901760788
 20
136.098950159
 10
34.8977927675
 20
136.1097629613
 10
34.9053817249
 20
136.1201559457
 10
34.912900042
 20
136.1300192674
 10
34.920227148
 20
136.1391386997
 10
34.9272142249
 20
136.1472776073
 10
34.9338013651
 20
136.154309662
 10
34.9398737565
 20
136.1600569584
 10
34.9452457272
 20
136.1643129499
 10
34.9498403367
 20
136.1670061579
 10
34.9536476536
 20
136.1681120152
 10
34.956625179
 20
136.1675865969
  0
LWPOLYLINE
  5
336
100
AcDbEntity
  8
0
100
AcDbPolyline
 62
7
  6
CONTINUOUS
 90
7
 70
0
 10
36.8628600303
 20
83.0760090833
 10
36.8710963669
 20
83.0620068644
 10
36.8779974919
 20
83.0489551947
 10
36.8834796495
 20
83.0368540742
 10
36.8874682456
 20
83.0257035028
 10
36.8898989809
 20
83.0155034806
 10
36.8907189453
 20
83.0062540076
  0
LWPOLYLINE
  5
337
100
AcDbEntity
  8
0
100
AcDbPolyline
 62
250
  6
CONTINUOUS
 90
17
 70
0
 10
34.8164915291
 20
82.1248915569
 10
34.8221831041
 20
82.1149759845
 10
34.8279306402
 20
82.1050747892
 10
34.8337245257
 20
82.0952089927
 10
34.8395142294
 20
82.0854652082
 10
34.8453297221
 20
82.0757989787
 10
34.8512784998
 20
82.0660484886
 10
34.857361617
 20
82.0562282859
 10
34.863543506
 20
82.0464073103
 10
34.8698680317
 20
82.0365327818
 10
34.8763222097
 20
82.0266460809
 10
34.8828617681
 20
82.0168373567
 10
34.8894738976
 20
82.0071500103
 10
34.8961095208
 20
81.9976823182
 10
34.9027346457
 20
81.9885109746
 10
34.9093452492
 20
81.9796757337
 10
34.9158819786
 20
81.9712965479
  0
LWPOLYLINE
  5
338
100
AcDbEntity
  8
0
100
AcDbPolyline
 62
7
  6
CONTINUOUS
 90
3
 70
0
 43
0.3500000006
 10
42.3026006012
 20
165.0882808228
 10
42.2311739502
 20
164.8739963379
 10
42.0883161163
 20
164.5882897339
  0
LINE
  5
339
100
AcDbEntity
  8
ASSI
100
AcDbLine
 62
7
  6
CONTINUOUS
 10
27.3407189453
 20
65.281301841
 11
27.3407189453
 21
152.8238397606
  0
LINE
  5
33A
100
AcDbEntity
  8
ASSI
100
AcDbLine
 62
7
  6
CONTINUOUS
 10
28.3251714031
 20
64.2618714784
 11
28.3251714031
 21
65.2325853309
  0
LINE
  5
33B
100
AcDbEntity
  8
ASSI
100
AcDbLine
 62
7
  6
CONTINUOUS
 10
28.3251714031
 20
152.8725562707
 11
28.3251714031
 21
153.8432701231
  0
LINE
  5
33C
100
AcDbEntity
  8
ASSI
100
AcDbLine
 62
7
  6
CONTINUOUS
 10
28.3401097723
 20
65.2470111464
 11
28.3401097723
 21
152.8581304552
  0
LINE
  5
33D
100
AcDbEntity
  8
ASSI
100
AcDbLine
 62
7
  6
CONTINUOUS
 10
33.8907189453
 20
64.0525708008
 11
33.8907189453
 21
154.0525708008
  0
LINE
  5
33E
100
AcDbEntity
  8
0
100
AcDbLine
 62
250
  6
CONTINUOUS
 10
34.8165560942
 20
81.9024413621
 11
34.8164915291
 21
82.1248915569
  0
LINE
  5
33F
100
AcDbEntity
  8
0
100
AcDbLine
 62
250
  6
CONTINUOUS
 10
34.8164915291
 20
135.9802500447
 11
34.8165560844
 21
136.2015560664
  0
LWPOLYLINE
  5
340
100
AcDbEntity
  8
0
100
AcDbPolyline
 62
7
  6
CONTINUOUS
 90
7
 70
0
 10
36.8907189453
 20
135.098887594
 10
36.8898988503
 20
135.0896371947
 10
36.8874678309
 20
135.0794366168
 10
36.8834789567
 20
135.0682858602
 10
36.8779966813
 20
135.0561849249
 10
36.8710957433
 20
135.0431338109
 10
36.8628600303
 20
135.0291325182
  0
LWPOLYLINE
  5
341
100
AcDbEntity
  8
0
100
AcDbPolyline
 62
250
  6
CONTINUOUS
 90
3
 70
0
 10
36.340867198
 20
135.3895760866
 10
36.3408245439
 20
135.3929926701
 10
36.3407681775
 20
135.3941346611
  0
LINE
  5
342
100
AcDbEntity
  8
0
100
AcDbLine
 62
250
  6
CONTINUOUS
 10
36.3409101765
 20
135.3760398479
 11
36.340867198
 21
135.3895760866
  0
LINE
  5
343
100
AcDbEntity
  8
0
100
AcDbLine
 62
250
  6
CONTINUOUS
 10
36.3409101765
 20
82.7291017537
 11
36.3407681775
 21
82.7988734191
  0
LINE
  5
344
100
AcDbEntity
  8
0
100
AcDbLine
 62
250
  6
CONTINUOUS
 10
36.6064197322
 20
134.4241408795
 11
36.6064197322
 21
134.4024509659
  0
LINE
  5
345
100
AcDbEntity
  8
0
100
AcDbLine
 62
250
  6
CONTINUOUS
 10
36.6064197322
 20
83.7026906357
 11
36.6064197322
 21
83.6810007221
  0
LINE
  5
346
100
AcDbEntity
  8
0
100
AcDbLine
 62
250
  6
CONTINUOUS
 10
36.7011861366
 20
134.9325574684
 11
36.7011861366
 21
134.4336175199
  0
LINE
  5
347
100
AcDbEntity
  8
0
100
AcDbLine
 62
250
  6
CONTINUOUS
 10
36.7011861366
 20
83.6715240817
 11
36.7011861366
 21
83.1725841331
  0
LINE
  5
348
100
AcDbEntity
  8
0
100
AcDbLine
 62
7
  6
CONTINUOUS
 10
36.8907189453
 20
135.2049320075
 11
36.8907189453
 21
134.4049320075
  0
LINE
  5
349
100
AcDbEntity
  8
0
100
AcDbLine
 62
7
  6
CONTINUOUS
 10
36.8907189453
 20
83.700209594
 11
36.8907189453
 21
82.900209594
  0
LINE
  5
34A
100
AcDbEntity
  8
0
100
AcDbLine
 62
250
  6
CONTINUOUS
 10
36.3407681775
 20
135.3062681825
 11
36.3409101765
 21
135.3760398479
  0
LWPOLYLINE
  5
34B
100
AcDbEntity
  8
0
100
AcDbPolyline
 62
250
  6
CONTINUOUS
 90
4
 70
0
 10
36.3407681775
 20
82.7110069404
 10
36.3408245439
 20
82.7121489314
 10
36.340867198
 20
82.7155655149
 10
36.3409101765
 20
82.7291017537
  0
LINE
  5
34C
100
AcDbEntity
  8
0
100
AcDbLine
 62
7
  6
CONTINUOUS
 10
34.1907189453
 20
83.8525708008
 11
34.3407189453
 21
84.0025708008
  0
LINE
  5
34D
100
AcDbEntity
  8
0
100
AcDbLine
 62
7
  6
CONTINUOUS
 10
34.1907189453
 20
134.2525708008
 11
34.3407189453
 21
134.1025708008
  0
LINE
  5
34E
100
AcDbEntity
  8
0
100
AcDbLine
 62
250
  6
CONTINUOUS
 10
34.8164915291
 20
82.1248915569
 11
35.9160103889
 21
82.7085357719
  0
LINE
  5
34F
100
AcDbEntity
  8
0
100
AcDbLine
 62
250
  6
CONTINUOUS
 10
36.3407681775
 20
82.7988734191
 11
36.8628600303
 21
83.0760090833
  0
LINE
  5
350
100
AcDbEntity
  8
0
100
AcDbLine
 62
7
  6
CONTINUOUS
 10
34.8907189408
 20
81.9025707984
 11
36.8907189453
 21
82.9642064604
  0
LWPOLYLINE
  5
351
100
AcDbEntity
  8
0
100
AcDbPolyline
 62
250
  6
CONTINUOUS
 90
10
 70
0
 10
36.4796801066
 20
82.7460197161
 10
36.4710587652
 20
82.7423782672
 10
36.4617046921
 20
82.7402147974
 10
36.4516681781
 20
82.7395439156
 10
36.4410022762
 20
82.7403721914
 10
36.4297658902
 20
82.7426978989
 10
36.4180240348
 20
82.7465094116
 10
36.4058416905
 20
82.7517866988
 10
36.3932856425
 20
82.7585018543
 10
36.3804281365
 20
82.7666168702
  0
LINE
  5
352
100
AcDbEntity
  8
0
100
AcDbLine
 62
7
  6
CONTINUOUS
 10
34.9403470432
 20
134.2575336106
 11
36.8907189453
 21
134.4525708008
  0
LINE
  5
353
100
AcDbEntity
  8
0
100
AcDbLine
 62
7
  6
CONTINUOUS
 10
33.8907189453
 20
134.8083906753
 11
36.7011861366
 21
134.9325574684
  0
LINE
  5
354
100
AcDbEntity
  8
0
100
AcDbLine
 62
7
  6
CONTINUOUS
 10
36.368782291
 20
134.4003771353
 11
36.8907189453
 21
134.4049320075
  0
LINE
  5
355
100
AcDbEntity
  8
0
100
AcDbLine
 62
7
  6
CONTINUOUS
 10
33.8907189453
 20
134.1025708008
 11
34.0407189453
 21
134.1025708008
  0
LINE
  5
356
100
AcDbEntity
  8
0
100
AcDbLine
 62
7
  6
CONTINUOUS
 10
34.3407189453
 20
134.1025708008
 11
34.5407189453
 21
134.1025708008
  0
LINE
  5
357
100
AcDbEntity
  8
0
100
AcDbLine
 62
7
  6
CONTINUOUS
 10
33.8907189453
 20
134.2525708008
 11
34.8408433242
 21
134.2525708008
  0
LINE
  5
358
100
AcDbEntity
  8
0
100
AcDbLine
 62
7
  6
CONTINUOUS
 10
36.8907189453
 20
135.2049320075
 11
36.7701561783
 21
135.2049320075
  0
LINE
  5
359
100
AcDbEntity
  8
0
100
AcDbLine
 62
250
  6
CONTINUOUS
 10
34.8164915291
 20
135.9802500447
 11
33.8907189453
 21
135.9806682392
  0
LINE
  5
35A
100
AcDbEntity
  8
0
100
AcDbLine
 62
7
  6
CONTINUOUS
 10
34.8907189453
 20
136.2025708008
 11
33.8907189453
 21
136.2043161318
  0
LINE
  5
35B
100
AcDbEntity
  8
0
100
AcDbLine
 62
250
  6
CONTINUOUS
 10
36.3407681775
 20
135.3062681825
 11
33.8907189453
 21
135.320522152
  0
LINE
  5
35C
100
AcDbEntity
  8
0
100
AcDbLine
 62
7
  6
CONTINUOUS
 10
36.3407681775
 20
135.3941346611
 11
33.8907189453
 21
135.4083886306
  0
LWPOLYLINE
  5
35D
100
AcDbEntity
  8
0
100
AcDbPolyline
 62
250
  6
CONTINUOUS
 90
10
 70
0
 10
36.4796801066
 20
135.3591218855
 10
36.4710356342
 20
135.3627707999
 10
36.4616613527
 20
135.3649331254
 10
36.4516092785
 20
135.365597217
 10
36.4409356066
 20
135.364759786
 10
36.4296990999
 20
135.3624258421
 10
36.4179605415
 20
135.3586080515
 10
36.4057841196
 20
135.3533269814
 10
36.3932377419
 20
135.3466117861
 10
36.3803912518
 20
135.3384997269
  0
LINE
  5
35E
100
AcDbEntity
  8
0
100
AcDbLine
 62
250
  6
CONTINUOUS
 10
35.9160103889
 20
135.3966058297
 11
34.8164915291
 21
135.9802500447
  0
LINE
  5
35F
100
AcDbEntity
  8
0
100
AcDbLine
 62
250
  6
CONTINUOUS
 10
36.8628600303
 20
135.0291325182
 11
36.3407681775
 21
135.3062681825
  0
LINE
  5
360
100
AcDbEntity
  8
0
100
AcDbLine
 62
7
  6
CONTINUOUS
 10
36.8907189453
 20
135.1409351412
 11
34.8907189417
 21
136.2025708027
  0
LINE
  5
361
100
AcDbEntity
  8
ASSI
100
AcDbLine
 62
7
  6
CONTINUOUS
 10
28.3401097723
 20
65.2470111464
 11
28.3251714031
 21
65.2325853309
  0
LINE
  5
362
100
AcDbEntity
  8
ASSI
100
AcDbLine
 62
7
  6
CONTINUOUS
 10
28.3251714031
 20
152.8725562707
 11
28.3401097723
 21
152.8581304552
  0
LWPOLYLINE
  5
363
100
AcDbEntity
  8
0
100
AcDbPolyline
 62
7
  6
CONTINUOUS
 90
10
 70
0
 43
0.3500000006
 10
42.2311739502
 20
165.3025653076
 10
42.3026006012
 20
165.1597210693
 10
42.3026006012
 20
165.0882808228
 10
42.1597427673
 20
164.9454365845
 10
42.0883161163
 20
164.9454365845
 10
42.0168894653
 20
165.0168587036
 10
42.0168894653
 20
165.0882808228
 10
42.0883161163
 20
165.2311431885
 10
42.1597427673
 20
165.3025653076
 10
42.2311739502
 20
165.3025653076
  0
LWPOLYLINE
  5
364
100
AcDbEntity
  8
0
100
AcDbPolyline
 62
7
  6
CONTINUOUS
 90
10
 70
0
 43
0.3500000006
 10
41.4934324036
 20
175.3025683594
 10
41.5648590546
 20
175.1597059937
 10
41.5648590546
 20
175.0882838745
 10
41.4220012207
 20
174.9454215088
 10
41.3505745697
 20
174.9454215088
 10
41.2791433868
 20
175.0168617554
 10
41.2791433868
 20
175.0882838745
 10
41.3505745697
 20
175.2311462402
 10
41.4220012207
 20
175.3025683594
 10
41.4934324036
 20
175.3025683594
  0
LINE
  5
365
100
AcDbEntity
  8
ASSI
100
AcDbLine
 62
7
  6
CONTINUOUS
 10
28.3401097723
 20
152.8581304552
 11
33.8907189453
 21
153.0519619987
  0
LINE
  5
366
100
AcDbEntity
  8
ASSI
100
AcDbLine
 62
7
  6
CONTINUOUS
 10
28.3401097723
 20
153.8587392573
 11
33.8907189453
 21
154.0525708008
  0
LWPOLYLINE
  5
367
100
AcDbEntity
  8
0
100
AcDbPolyline
 62
7
  6
CONTINUOUS
 90
8
 70
0
 43
0.3500000006
 10
43.3026009064
 20
164.8025742188
 10
44.1597433777
 20
164.8025742188
 10
44.5883168793
 20
165.2311431885
 10
44.5883168793
 20
166.0882811279
 10
44.1597433777
 20
166.5168500977
 10
43.3026009064
 20
166.5168500977
 10
43.3026009064
 20
167.8025751343
 10
44.5883168793
 20
167.8025751343
  0
LWPOLYLINE
  5
368
100
AcDbEntity
  8
0
100
AcDbPolyline
 62
7
  6
CONTINUOUS
 90
8
 70
0
 43
0.3500000006
 10
45.4454593506
 20
164.8025742188
 10
46.3026018219
 20
164.8025742188
 10
46.7311753235
 20
165.2311431885
 10
46.7311753235
 20
166.0882811279
 10
46.3026018219
 20
166.5168500977
 10
45.4454593506
 20
166.5168500977
 10
45.4454593506
 20
167.8025751343
 10
46.7311753235
 20
167.8025751343
  0
LWPOLYLINE
  5
369
100
AcDbEntity
  8
0
100
AcDbPolyline
 62
7
  6
CONTINUOUS
 90
8
 70
0
 43
0.3500000006
 10
42.5648593597
 20
174.8025772705
 10
43.4220018311
 20
174.8025772705
 10
43.8505753326
 20
175.2311462402
 10
43.8505753326
 20
176.0882841797
 10
43.4220018311
 20
176.5168531494
 10
42.5648593597
 20
176.5168531494
 10
42.5648593597
 20
177.802578186
 10
43.8505753326
 20
177.802578186
  0
LWPOLYLINE
  5
36A
100
AcDbEntity
  8
0
100
AcDbPolyline
 62
7
  6
CONTINUOUS
 90
8
 70
0
 43
0.3500000006
 10
44.707717804
 20
174.8025772705
 10
45.5648602753
 20
174.8025772705
 10
45.993429245
 20
175.2311462402
 10
45.993429245
 20
176.0882841797
 10
45.5648602753
 20
176.5168531494
 10
44.707717804
 20
176.5168531494
 10
44.707717804
 20
177.802578186
 10
45.993429245
 20
177.802578186
  0
ARC
  5
36B
100
AcDbEntity
  8
0
100
AcDbCircle
 62
7
  6
CONTINUOUS
 10
34.8408433242
 20
82.8525708008
 40
1.0
100
AcDbArc
 50
84.2894068625
 51
90.0
  0
ARC
  5
36C
100
AcDbEntity
  8
0
100
AcDbCircle
 62
7
  6
CONTINUOUS
 10
34.8408433242
 20
135.2525708008
 40
1.0
100
AcDbArc
 50
270.0
 51
275.7105931375
  0
ARC
  5
36D
100
AcDbEntity
  8
0
100
AcDbCircle
 62
7
  6
CONTINUOUS
 10
34.8160322702
 20
135.9025702968
 40
0.3
100
AcDbArc
 50
62.0510481061
 51
89.8999998573
  0
ARC
  5
36E
100
AcDbEntity
  8
0
100
AcDbCircle
 62
7
  6
CONTINUOUS
 10
34.8160322702
 20
82.2025713048
 40
0.3
100
AcDbArc
 50
270.1000001427
 51
297.9489518939
  0
ARC
  5
36F
100
AcDbEntity
  8
0
100
AcDbCircle
 62
7
  6
CONTINUOUS
 10
36.3390228581
 20
135.0941397381
 40
0.3
100
AcDbArc
 50
62.0398404207
 51
89.6666666667
  0
ARC
  5
370
100
AcDbEntity
  8
0
100
AcDbCircle
 62
7
  6
CONTINUOUS
 10
36.3390228581
 20
83.0110018635
 40
0.3
100
AcDbArc
 50
270.3333333333
 51
297.9601595792
  0
ELLIPSE
  5
371
100
AcDbEntity
  8
ASSI
100
AcDbEllipse
 62
7
  6
CONTINUOUS
 10
85.9494576042
 20
86.9528755729
 30
0.0
 11
-0.3539842723
 21
-0.3539842723
 31
0.0
 40
0.998782766
 41
-0.7847891758
 42
0.7847891758
  0
ELLIPSE
  5
372
100
AcDbEntity
  8
ASSI
100
AcDbEllipse
 62
7
  6
CONTINUOUS
 10
242.6488480599
 20
86.9528755729
 30
0.0
 11
0.3539842723
 21
-0.3539842723
 31
0.0
 40
0.998782766
 41
-0.7847891758
 42
0.7847891758
  0
ELLIPSE
  5
373
100
AcDbEntity
  8
ASSI
100
AcDbEllipse
 62
7
  6
CONTINUOUS
 10
242.6488480599
 20
131.1522660286
 30
0.0
 11
0.3539842723
 21
0.3539842723
 31
0.0
 40
0.998782766
 41
-0.7847891758
 42
0.7847891758
  0
ELLIPSE
  5
374
100
AcDbEntity
  8
ASSI
100
AcDbEllipse
 62
7
  6
CONTINUOUS
 10
85.9494576042
 20
131.1522660286
 30
0.0
 11
-0.3539842723
 21
0.3539842723
 31
0.0
 40
0.998782766
 41
-0.7847891758
 42
0.7847891758
  0
ELLIPSE
  5
375
100
AcDbEntity
  8
0
100
AcDbEllipse
 62
7
  6
CONTINUOUS
 10
36.6907189453
 20
135.1323694958
 30
0.0
 11
-0.1417119467
 21
0.1422961243
 31
0.0
 40
0.9918061237
 41
-3.8766878413
 42
-2.8923940429
  0
ELLIPSE
  5
376
100
AcDbEntity
  8
0
100
AcDbEllipse
 62
7
  6
CONTINUOUS
 10
36.6907189453
 20
82.9727721058
 30
0.0
 11
0.1417119467
 21
0.1422961243
 31
0.0
 40
0.9918061237
 41
-0.2491986107
 42
0.7350951877
  0
ENDSEC
  0
SECTION
  2
OBJECTS
  0
DICTIONARY
  5
C
100
AcDbDictionary
280
0
281
1
  3
ACAD_GROUP
350
D
  3
ACAD_MLINESTYLE
350
17
  3
ACAD_LAYOUT
350
1A
  3
ACAD_PLOTSETTINGS
350
19
  3
ACAD_PLOTSTYLENAME
350
E
  0
DICTIONARY
  5
D
102
{ACAD_REACTORS
330
C
102
}
100
AcDbDictionary
280
0
281
1
  0
ACDBDICTIONARYWDFLT
  5
E
102
{ACAD_REACTORS
330
C
102
}
100
AcDbDictionary
281
1
  3
Normal
350
F
100
AcDbDictionaryWithDefault
340
F
  0
DICTIONARY
  5
17
102
{ACAD_REACTORS
330
C
102
}
100
AcDbDictionary
280
0
281
1
  3
Standard
350
18
  0
DICTIONARY
  5
19
102
{ACAD_REACTORS
330
C
102
}
100
AcDbDictionary
281
1
  0
DICTIONARY
  5
1A
102
{ACAD_REACTORS
330
C
102
}
100
AcDbDictionary
281
1
  3
Model
350
377
  3
Layout1
350
378
  0
ACDBPLACEHOLDER
  5
F
102
{ACAD_REACTORS
330
E
102
}
  0
MLINESTYLE
  5
18
102
{ACAD_REACTORS
330
17
102
}
100
AcDbMlineStyle
  2
STANDARD
 70
0
  3

 62
256
 51
90.0
 52
90.0
 71
2
 49
0.5
 62
256
  6
BYLAYER
 49
-0.5
 62
256
  6
BYLAYER
  0
LAYOUT
  5
377
102
{ACAD_REACTORS
330
1A
102
}
100
AcDbPlotSettings
  1

  2
none_device
  4
ISO_A4_(297.00_x_210.00_MM)
  6

 40
0.0
 41
0.0
 42
0.0
 43
0.0
 44
297.0
 45
210.0
 46
0.0
 47
0.0
 48
0.0
 49
0.0
140
0.0
141
0.0
142
1.0
143
1.0
 70
1024
 72
1
 73
0
 74
0
  7

 75
0
147
1.0
148
0.0
149
0.0
100
AcDbLayout
  1
Model
 70
0
 71
0
 10
0.0
 20
0.0
 11
297.0
 21
210.0
 12
0.0
 22
0.0
 32
0.0
 14
0.0
 24
0.0
 34
0.0
 15
0.0
 25
0.0
 35
0.0
146
0.0
 13
0.0
 23
0.0
 33
0.0
 16
1.0
 26
0.0
 36
0.0
 17
0.0
 27
1.0
 37
0.0
 76
0
330
21B
345
0
346
0
  0
LAYOUT
  5
378
102
{ACAD_REACTORS
330
1A
102
}
100
AcDbPlotSettings
  1

  2
none_device
  4
ISO_A4_(297.00_x_210.00_MM)
  6

 40
0.0
 41
0.0
 42
0.0
 43
0.0
 44
297.0
 45
210.0
 46
0.0
 47
0.0
 48
0.0
 49
0.0
140
0.0
141
0.0
142
1.0
143
1.0
 70
0
 72
1
 73
0
 74
0
  7

 75
0
147
1.0
148
0.0
149
0.0
100
AcDbLayout
  1
Layout1
 70
0
 71
1
 10
0.0
 20
0.0
 11
297.0
 21
210.0
 12
0.0
 22
0.0
 32
0.0
 14
0.0
 24
0.0
 34
0.0
 15
0.0
 25
0.0
 35
0.0
146
0.0
 13
0.0
 23
0.0
 33
0.0
 16
1.0
 26
0.0
 36
0.0
 17
0.0
 27
1.0
 37
0.0
 76
0
330
21C
345
0
346
0
  0
ENDSEC
  0
EOF
