  0
SECTION
  2
HEADER
  9
$ACADVER
  1
AC1021
  9
$DWGCODEPAGE
  3
ANSI_1252
  9
$EXTMAX
 10
297.0
 20
210.0
 30
0.0
  9
$EXTMIN
 10
0.0
 20
0.0
 30
0.0
  9
$LIMMIN
 10
0.0
 20
0.0
  9
$LIMMAX
 10
297.0
 20
210.0
  9
$VIEWCTR
 10
148.5
 20
105.0
  9
$VIEWSIZE
 40
210.0
  9
$CLAYER
  8
0
  9
$LTSCALE
 40
16.335
  9
$CELTYPE
  6
BYLAYER
  9
$DIMSCALE
 40
1.0
  9
$DIMASZ
 40
3.0
  9
$DIMEXO
 40
0.5
  9
$DIMDLI
 40
11.286
  9
$DIMEXE
 40
1.5
  9
$DIMCEN
 40
2.673
  9
$DIMLFAC
 40
1.0
  9
$DIMBLK
  1
_FILLED
  9
$DIMALT
 70
0
  9
$DIMALTF
 40
25.4
  9
$DIMTXT
 40
3.0
  9
$DIMTOL
 70
1
  9
$DIMLIM
 70
0
  9
$DIMTFAC
 40
1.0
  9
$DIMTP
 40
0.01
  9
$DIMTM
 40
0.01
  9
$DIMGAP
 40
0.625
  9
$DIMDSEP
 70
44
  9
$AUNITS
 70
0
  9
$PDMODE
 70
3
  9
$PDSIZE
 40
3.0
  9
$HANDSEED
  5
37F
  9
$TILEMODE
 70
1
  9
$MEASUREMENT
 70
1
  9
$INSUNITS
 70
4
  0
ENDSEC
  0
SECTION
  2
CLASSES
  0
CLASS
  1
ACDBDICTIONARYWDFLT
  2
AcDbDictionaryWithDefault
  3
AutoCAD 2000
 90
0
 91
1
280
0
281
0
  0
CLASS
  1
ACDBPLACEHOLDER
  2
AcDbPlaceHolder
  3
AutoCAD 2000
 90
0
 91
1
280
0
281
0
  0
CLASS
  1
LAYOUT
  2
AcDbLayout
  3
AutoCAD 2000
 90
0
 91
0
280
0
281
0
  0
ENDSEC
  0
SECTION
  2
TABLES
  0
TABLE
  2
VPORT
  5
8
100
AcDbSymbolTable
 70
2
  0
VPORT
  5
1F4
100
AcDbSymbolTableRecord
100
AcDbViewportTableRecord
  2
*ACTIVE
 70
0
 10
0.0
 20
0.0
 11
1.0
 21
1.0
 12
148.5
 22
105.0
 13
0.0
 23
0.0
 14
1.0
 24
1.0
 15
0.0
 25
0.0
 16
0.0
 26
0.0
 36
1.0
 17
0.0
 27
0.0
 37
0.0
 40
210.0
 41
1.4142857143
 42
50.0
 43
0.0
 44
0.0
 50
0.0
 51
0.0
 71
0
 72
100
 73
1
 74
1
 75
0
 76
0
 77
0
 78
0
  0
ENDTAB
  0
TABLE
  2
LTYPE
  5
5
100
AcDbSymbolTable
 70
6
  0
LTYPE
  5
14
100
AcDbSymbolTableRecord
100
AcDbLinetypeTableRecord
  2
BYBLOCK
 70
0
  3

 72
65
 73
0
 40
0.0
  0
LTYPE
  5
15
100
AcDbSymbolTableRecord
100
AcDbLinetypeTableRecord
  2
BYLAYER
 70
0
  3

 72
65
 73
0
 40
0.0
  0
LTYPE
  5
16
100
AcDbSymbolTableRecord
100
AcDbLinetypeTableRecord
  2
CONTINUOUS
 70
64
  3
Solid line
 72
65
 73
0
 40
0.0
  0
LTYPE
  5
1F5
100
AcDbSymbolTableRecord
100
AcDbLinetypeTableRecord
  2
CENTER
 70
64
  3
____ _ ____ _ ____ _ ____ _ ____ _ ____ _ ____
 72
65
 73
4
 40
0.6
 49
0.375
 74
0
 49
-0.075
 74
0
 49
0.075
 74
0
 49
-0.075
 74
0
  0
LTYPE
  5
1F6
100
AcDbSymbolTableRecord
100
AcDbLinetypeTableRecord
  2
HIDDEN
 70
64
  3
- - - - - - - - - - - - - - - - - - - -
 72
65
 73
2
 40
0.2
 49
0.1
 74
0
 49
-0.1
 74
0
  0
LTYPE
  5
1F7
100
AcDbSymbolTableRecord
100
AcDbLinetypeTableRecord
  2
PHANTOM
 70
64
  3
_____ _ _ _____ _ _ _____ _ _ _____
 72
65
 73
6
 40
0.8
 49
0.45
 74
0
 49
-0.05
 74
0
 49
0.1
 74
0
 49
-0.05
 74
0
 49
0.1
 74
0
 49
-0.05
 74
0
  0
LTYPE
  5
1F8
100
AcDbSymbolTableRecord
100
AcDbLinetypeTableRecord
  2
DOT
 70
64
  3
. . . . . . . . . . . . . . . . . . . .
 72
65
 73
2
 40
0.2
 49
0.1
 74
0
 49
-0.1
 74
0
  0
LTYPE
  5
1F9
100
AcDbSymbolTableRecord
100
AcDbLinetypeTableRecord
  2
DASHED
 70
64
  3
- - - - - - - - - - - - - - - - - - - -
 72
65
 73
2
 40
0.2
 49
0.1
 74
0
 49
-0.1
 74
0
  0
ENDTAB
  0
TABLE
  2
LAYER
  5
2
100
AcDbSymbolTable
 70
36
  0
LAYER
  5
10
100
AcDbSymbolTableRecord
100
AcDbLayerTableRecord
  2
0
 70
0
 62
7
  6
CONTINUOUS
370
-3
390
F
  0
LAYER
  5
1FA
100
AcDbSymbolTableRecord
100
AcDbLayerTableRecord
  2
DEFAULT_1
 70
0
 62
7
  6
CENTER
370
-3
390
F
  0
LAYER
  5
1FB
100
AcDbSymbolTableRecord
100
AcDbLayerTableRecord
  2
DEFAULT_2
 70
0
 62
7
  6
HIDDEN
370
-3
390
F
  0
LAYER
  5
1FC
100
AcDbSymbolTableRecord
100
AcDbLayerTableRecord
  2
DEFAULT_3
 70
0
 62
7
  6
PHANTOM
370
-3
390
F
  0
LAYER
  5
1FD
100
AcDbSymbolTableRecord
100
AcDbLayerTableRecord
  2
ASSI
 70
0
 62
7
  6
CONTINUOUS
370
-3
390
F
  0
LAYER
  5
1FE
100
AcDbSymbolTableRecord
100
AcDbLayerTableRecord
  2
COORDINATE
 70
0
 62
7
  6
CONTINUOUS
370
-3
390
F
  0
LAYER
  5
1FF
100
AcDbSymbolTableRecord
100
AcDbLayerTableRecord
  2
COORD_ORIGINE
 70
0
 62
7
  6
CONTINUOUS
370
-3
390
F
  0
LAYER
  5
200
100
AcDbSymbolTableRecord
100
AcDbLayerTableRecord
  2
COPY_PUBLISH
 70
0
 62
7
  6
CONTINUOUS
370
-3
390
F
  0
LAYER
  5
201
100
AcDbSymbolTableRecord
100
AcDbLayerTableRecord
  2
COSMETIC
 70
0
 62
7
  6
CONTINUOUS
370
-3
390
F
  0
LAYER
  5
202
100
AcDbSymbolTableRecord
100
AcDbLayerTableRecord
  2
COSMETICI
 70
0
 62
7
  6
CONTINUOUS
370
-3
390
F
  0
LAYER
  5
203
100
AcDbSymbolTableRecord
100
AcDbLayerTableRecord
  2
CURVE
 70
0
 62
7
  6
CONTINUOUS
370
-3
390
F
  0
LAYER
  5
204
100
AcDbSymbolTableRecord
100
AcDbLayerTableRecord
  2
CURVE_TASSELLI
 70
0
 62
7
  6
CONTINUOUS
370
-3
390
F
  0
LAYER
  5
205
100
AcDbSymbolTableRecord
100
AcDbLayerTableRecord
  2
DRAFT
 70
0
 62
7
  6
CONTINUOUS
370
-3
390
F
  0
LAYER
  5
206
100
AcDbSymbolTableRecord
100
AcDbLayerTableRecord
  2
IMPORT_IGES
 70
0
 62
7
  6
CONTINUOUS
370
-3
390
F
  0
LAYER
  5
207
100
AcDbSymbolTableRecord
100
AcDbLayerTableRecord
  2
INTFCLR_2
 70
0
 62
7
  6
CONTINUOUS
370
-3
390
F
  0
LAYER
  5
208
100
AcDbSymbolTableRecord
100
AcDbLayerTableRecord
  2
INTF_1
 70
0
 62
7
  6
CONTINUOUS
370
-3
390
F
  0
LAYER
  5
209
100
AcDbSymbolTableRecord
100
AcDbLayerTableRecord
  2
INTF_21
 70
0
 62
7
  6
CONTINUOUS
370
-3
390
F
  0
LAYER
  5
20A
100
AcDbSymbolTableRecord
100
AcDbLayerTableRecord
  2
INTF_7
 70
0
 62
7
  6
CONTINUOUS
370
-3
390
F
  0
LAYER
  5
20B
100
AcDbSymbolTableRecord
100
AcDbLayerTableRecord
  2
NOTE
 70
0
 62
7
  6
CONTINUOUS
370
-3
390
F
  0
LAYER
  5
20C
100
AcDbSymbolTableRecord
100
AcDbLayerTableRecord
  2
PIANI
 70
0
 62
7
  6
CONTINUOUS
370
-3
390
F
  0
LAYER
  5
20D
100
AcDbSymbolTableRecord
100
AcDbLayerTableRecord
  2
PIANI_ORIGINE
 70
0
 62
7
  6
CONTINUOUS
370
-3
390
F
  0
LAYER
  5
20E
100
AcDbSymbolTableRecord
100
AcDbLayerTableRecord
  2
PIANI_RIFERIMENTO
 70
0
 62
7
  6
CONTINUOUS
370
-3
390
F
  0
LAYER
  5
20F
100
AcDbSymbolTableRecord
100
AcDbLayerTableRecord
  2
PUNTI
 70
0
 62
7
  6
CONTINUOUS
370
-3
390
F
  0
LAYER
  5
210
100
AcDbSymbolTableRecord
100
AcDbLayerTableRecord
  2
RACCORDO
 70
0
 62
7
  6
CONTINUOUS
370
-3
390
F
  0
LAYER
  5
211
100
AcDbSymbolTableRecord
100
AcDbLayerTableRecord
  2
RGB__255__255__255__
 70
0
 62
7
  6
CONTINUOUS
370
-3
390
F
  0
LAYER
  5
212
100
AcDbSymbolTableRecord
100
AcDbLayerTableRecord
  2
RGB____0____0____0__
 70
0
 62
7
  6
CONTINUOUS
370
-3
390
F
  0
LAYER
  5
213
100
AcDbSymbolTableRecord
100
AcDbLayerTableRecord
  2
SIMBOLI
 70
0
 62
7
  6
CONTINUOUS
370
-3
390
F
  0
LAYER
  5
214
100
AcDbSymbolTableRecord
100
AcDbLayerTableRecord
  2
SMUSSO
 70
0
 62
7
  6
CONTINUOUS
370
-3
390
F
  0
LAYER
  5
215
100
AcDbSymbolTableRecord
100
AcDbLayerTableRecord
  2
SNAPLINE
 70
0
 62
7
  6
CONTINUOUS
370
-3
390
F
  0
LAYER
  5
216
100
AcDbSymbolTableRecord
100
AcDbLayerTableRecord
  2
SUPERFICI
 70
0
 62
7
  6
CONTINUOUS
370
-3
390
F
  0
LAYER
  5
217
100
AcDbSymbolTableRecord
100
AcDbLayerTableRecord
  2
TRASH
 70
0
 62
7
  6
CONTINUOUS
370
-3
390
F
  0
LAYER
  5
218
100
AcDbSymbolTableRecord
100
AcDbLayerTableRecord
  2
XSEC_DATUMS
 70
0
 62
7
  6
CONTINUOUS
370
-3
390
F
  0
ENDTAB
  0
TABLE
  2
STYLE
  5
3
100
AcDbSymbolTable
 70
1
  0
STYLE
  5
11
100
AcDbSymbolTableRecord
100
AcDbTextStyleTableRecord
  2
STANDARD
 70
0
 40
0.0
 41
0.8
 50
0.0
 71
0
 42
0.2
  3
txt
  4

  0
STYLE
  5
219
100
AcDbSymbolTableRecord
100
AcDbTextStyleTableRecord
  2
TEXTSTYLE_1
 70
0
 40
0.0
 41
0.8
 50
0.0
 71
0
 42
0.2
  3
gdt
  4

  0
ENDTAB
  0
TABLE
  2
VIEW
  5
6
100
AcDbSymbolTable
 70
0
  0
ENDTAB
  0
TABLE
  2
UCS
  5
7
100
AcDbSymbolTable
 70
0
  0
ENDTAB
  0
TABLE
  2
APPID
  5
9
100
AcDbSymbolTable
 70
1
  0
APPID
  5
21A
100
AcDbSymbolTableRecord
100
AcDbRegAppTableRecord
  2
ACAD
 70
0
  0
ENDTAB
  0
TABLE
  2
BLOCK_RECORD
  5
1
100
AcDbSymbolTable
 70
0
  0
BLOCK_RECORD
  5
21B
100
AcDbSymbolTableRecord
100
AcDbBlockTableRecord
  2
*Model_Space
  0
BLOCK_RECORD
  5
21C
100
AcDbSymbolTableRecord
100
AcDbBlockTableRecord
  2
*Paper_Space
  0
BLOCK_RECORD
  5
21D
100
AcDbSymbolTableRecord
100
AcDbBlockTableRecord
  2
_FILLED
  0
BLOCK_RECORD
  5
21E
100
AcDbSymbolTableRecord
100
AcDbBlockTableRecord
  2
*D0
  0
BLOCK_RECORD
  5
21F
100
AcDbSymbolTableRecord
100
AcDbBlockTableRecord
  2
*D1
  0
BLOCK_RECORD
  5
220
100
AcDbSymbolTableRecord
100
AcDbBlockTableRecord
  2
*D2
  0
BLOCK_RECORD
  5
221
100
AcDbSymbolTableRecord
100
AcDbBlockTableRecord
  2
*D3
  0
ENDTAB
  0
TABLE
  2
DIMSTYLE
  5
A
100
AcDbSymbolTable
 70
1
100
AcDbDimStyleTable
 71
0
  0
DIMSTYLE
105
222
100
AcDbSymbolTableRecord
100
AcDbDimStyleTableRecord
  2
STANDARD
 70
0
  3

  4

 40
1.0
 41
3.0
 42
0.5
 43
0.38
 44
1.5
 45
0.0
 46
0.0
 47
0.01
 48
0.01
140
3.0
141
0.09
142
0.0
143
25.4
144
1.0
145
0.0
146
1.0
147
0.625
 71
1.0
 72
0.0
 73
0
 74
0
 75
0
 76
0
 77
1
 78
8
 79
2
170
0
171
1
172
0
173
0
174
0
175
0
176
0
177
0
178
0
270
2
179
2
271
2
272
2
273
2
274
2
275
0
280
0
281
0
282
0
283
1
284
8
285
0
286
0
287
3
288
0
340
11
278
44
341
21D
342
21D
343
21D
344
21D
  0
DIMSTYLE
105
223
100
AcDbSymbolTableRecord
100
AcDbDimStyleTableRecord
  2
DIMSTYLE_1
 70
0
  3

  4

 40
1.0
 41
3.0
 42
0.5
 43
0.38
 44
1.5
 45
0.0
 46
0.0
 47
0.0
 48
0.0
140
3.0
141
0.09
142
0.0
143
25.4
144
1.0
145
0.0
146
1.0
147
0.75
 71
0.0
 72
0.0
 73
0
 74
0
 75
0
 76
0
 77
1
 78
8
 79
2
170
0
171
1
172
0
173
0
174
0
175
0
176
0
177
0
178
0
270
2
179
2
271
2
272
2
273
2
274
2
275
0
280
0
281
0
282
0
283
1
284
8
285
0
286
0
287
3
288
0
340
11
278
44
341
21D
342
21D
343
21D
344
21D
  0
ENDTAB
  0
ENDSEC
  0
SECTION
  2
BLOCKS
  0
BLOCK
  5
20
100
AcDbEntity
  8
0
100
AcDbBlockBegin
  2
*Model_Space
 70
0
 10
0.0
 20
0.0
 30
0.0
  3
*Model_Space
  1

  0
ENDBLK
  5
21
100
AcDbEntity
  8
0
100
AcDbBlockEnd
  0
BLOCK
  5
1C
100
AcDbEntity
  8
0
100
AcDbBlockBegin
  2
*Paper_Space
 70
0
 10
0.0
 20
0.0
 30
0.0
  3
*Paper_Space
  1

  0
ENDBLK
  5
1D
100
AcDbEntity
  8
0
100
AcDbBlockEnd
  0
BLOCK
  5
224
100
AcDbEntity
  8
0
100
AcDbBlockBegin
  2
_FILLED
 70
64
 10
0.0
 20
0.0
  3
_FILLED
  1

  0
SOLID
  5
225
100
AcDbEntity
  8
0
  6
BYBLOCK
 62
0
100
AcDbTrace
 10
0.0
 20
0.0
 11
-1.0
 21
0.3166666667
 12
-1.0
 22
-0.3166666667
 13
-1.0
 23
-0.3166666667
  0
ENDBLK
  5
226
100
AcDbEntity
  8
0
  6
BYBLOCK
 62
0
100
AcDbBlockEnd
  0
BLOCK
  5
227
100
AcDbEntity
  8
0
100
AcDbBlockBegin
 62
7
  6
CONTINUOUS
  2
*D0
 70
65
 10
0.0
 20
0.0
  3
*D0
  1

  0
LINE
  5
228
100
AcDbEntity
  8
0
100
AcDbLine
 62
7
  6
CONTINUOUS
 10
27.4909106445
 20
148.5861791992
 11
27.4909106445
 21
160.5861791991
  0
LINE
  5
229
100
AcDbEntity
  8
0
100
AcDbLine
 62
7
  6
CONTINUOUS
 10
35.0409106445
 20
147.6245824268
 11
35.0409106445
 21
160.5861791991
  0
LINE
  5
22A
100
AcDbEntity
  8
0
100
AcDbLine
 62
7
  6
CONTINUOUS
 10
27.4909106445
 20
159.0861791991
 11
31.2659106445
 21
159.0861791991
  0
LINE
  5
22B
100
AcDbEntity
  8
0
100
AcDbLine
 62
7
  6
CONTINUOUS
 10
35.0409106445
 20
159.0861791991
 11
31.2659106445
 21
159.0861791991
  0
LINE
  5
22C
100
AcDbEntity
  8
0
100
AcDbLine
 62
7
  6
CONTINUOUS
 10
31.2659106445
 20
159.0861791991
 11
48.0540428905
 21
159.0861791991
  0
INSERT
  5
22D
100
AcDbEntity
  8
0
100
AcDbBlockReference
 62
7
  6
CONTINUOUS
  2
_FILLED
 10
27.4909106445
 20
159.0861791991
 41
3.0
 42
3.0
 43
3.0
 50
180.0
  0
INSERT
  5
22E
100
AcDbEntity
  8
0
100
AcDbBlockReference
 62
7
  6
CONTINUOUS
  2
_FILLED
 10
35.0409106445
 20
159.0861791991
 41
3.0
 42
3.0
 43
3.0
  0
ENDBLK
  5
22F
100
AcDbEntity
  8
0
  6
BYBLOCK
 62
0
100
AcDbBlockEnd
  0
BLOCK
  5
230
100
AcDbEntity
  8
0
100
AcDbBlockBegin
 62
7
  6
CONTINUOUS
  2
*D1
 70
65
 10
0.0
 20
0.0
  3
*D1
  1

  0
LINE
  5
231
100
AcDbEntity
  8
0
100
AcDbLine
 62
7
  6
CONTINUOUS
 10
27.4909106445
 20
148.5861791992
 11
27.4909106445
 21
168.5861791991
  0
LINE
  5
232
100
AcDbEntity
  8
0
100
AcDbLine
 62
7
  6
CONTINUOUS
 10
38.0409106445
 20
130.6324959924
 11
38.0409106445
 21
168.5861791991
  0
LINE
  5
233
100
AcDbEntity
  8
0
100
AcDbLine
 62
7
  6
CONTINUOUS
 10
27.4909106445
 20
167.0861791991
 11
32.7659106445
 21
167.0861791991
  0
LINE
  5
234
100
AcDbEntity
  8
0
100
AcDbLine
 62
7
  6
CONTINUOUS
 10
38.0409106445
 20
167.0861791991
 11
32.7659106445
 21
167.0861791991
  0
LINE
  5
235
100
AcDbEntity
  8
0
100
AcDbLine
 62
7
  6
CONTINUOUS
 10
32.7659106445
 20
167.0861791991
 11
49.6057732151
 21
167.0861791991
  0
INSERT
  5
236
100
AcDbEntity
  8
0
100
AcDbBlockReference
 62
7
  6
CONTINUOUS
  2
_FILLED
 10
27.4909106445
 20
167.0861791991
 41
3.0
 42
3.0
 43
3.0
 50
180.0
  0
INSERT
  5
237
100
AcDbEntity
  8
0
100
AcDbBlockReference
 62
7
  6
CONTINUOUS
  2
_FILLED
 10
38.0409106445
 20
167.0861791991
 41
3.0
 42
3.0
 43
3.0
  0
ENDBLK
  5
238
100
AcDbEntity
  8
0
  6
BYBLOCK
 62
0
100
AcDbBlockEnd
  0
BLOCK
  5
239
100
AcDbEntity
  8
0
100
AcDbBlockBegin
 62
7
  6
CONTINUOUS
  2
*D2
 70
65
 10
0.0
 20
0.0
  3
*D2
  1

  0
LINE
  5
23A
100
AcDbEntity
  8
0
100
AcDbLine
 62
7
  6
CONTINUOUS
 10
63.6610522461
 20
148.5861791992
 11
63.6610522461
 21
160.5861791991
  0
LINE
  5
23B
100
AcDbEntity
  8
0
100
AcDbLine
 62
7
  6
CONTINUOUS
 10
275.6610522461
 20
148.5861791992
 11
275.6610522461
 21
160.5861791991
  0
LINE
  5
23C
100
AcDbEntity
  8
0
100
AcDbLine
 62
7
  6
CONTINUOUS
 10
63.6610522461
 20
159.0861791991
 11
169.6610522461
 21
159.0861791991
  0
LINE
  5
23D
100
AcDbEntity
  8
0
100
AcDbLine
 62
7
  6
CONTINUOUS
 10
275.6610522461
 20
159.0861791991
 11
169.6610522461
 21
159.0861791991
  0
INSERT
  5
23E
100
AcDbEntity
  8
0
100
AcDbBlockReference
 62
7
  6
CONTINUOUS
  2
_FILLED
 10
63.6610522461
 20
159.0861791991
 41
3.0
 42
3.0
 43
3.0
 50
180.0
  0
INSERT
  5
23F
100
AcDbEntity
  8
0
100
AcDbBlockReference
 62
7
  6
CONTINUOUS
  2
_FILLED
 10
275.6610522461
 20
159.0861791991
 41
3.0
 42
3.0
 43
3.0
  0
ENDBLK
  5
240
100
AcDbEntity
  8
0
  6
BYBLOCK
 62
0
100
AcDbBlockEnd
  0
BLOCK
  5
241
100
AcDbEntity
  8
0
100
AcDbBlockBegin
 62
7
  6
CONTINUOUS
  2
*D3
 70
65
 10
0.0
 20
0.0
  3
*D3
  1

  0
LINE
  5
242
100
AcDbEntity
  8
0
100
AcDbLine
 62
7
  6
CONTINUOUS
 10
275.1610522461
 20
149.0861791992
 11
287.161052246
 21
149.0861791992
  0
LINE
  5
243
100
AcDbEntity
  8
0
100
AcDbLine
 62
7
  6
CONTINUOUS
 10
275.1610522461
 20
59.0861791992
 11
287.161052246
 21
59.0861791992
  0
LINE
  5
244
100
AcDbEntity
  8
0
100
AcDbLine
 62
7
  6
CONTINUOUS
 10
285.661052246
 20
149.0861791992
 11
285.661052246
 21
104.0861791992
  0
LINE
  5
245
100
AcDbEntity
  8
0
100
AcDbLine
 62
7
  6
CONTINUOUS
 10
285.661052246
 20
59.0861791992
 11
285.661052246
 21
104.0861791992
  0
INSERT
  5
246
100
AcDbEntity
  8
0
100
AcDbBlockReference
 62
7
  6
CONTINUOUS
  2
_FILLED
 10
285.661052246
 20
149.0861791992
 41
3.0
 42
3.0
 43
3.0
 50
90.0
  0
INSERT
  5
247
100
AcDbEntity
  8
0
100
AcDbBlockReference
 62
7
  6
CONTINUOUS
  2
_FILLED
 10
285.661052246
 20
59.0861791992
 41
3.0
 42
3.0
 43
3.0
 50
270.0
  0
ENDBLK
  5
248
100
AcDbEntity
  8
0
  6
BYBLOCK
 62
0
100
AcDbBlockEnd
  0
ENDSEC
  0
SECTION
  2
ENTITIES
  0
DIMENSION
  5
249
100
AcDbEntity
  8
0
100
AcDbDimension
 62
7
  6
CONTINUOUS
  2
*D0
 10
35.0409106445
 20
159.0861791991
 11
39.6969000334
 21
159.0861791991
 70
160
 71
1
 72
2
 41
0.9
 42
7.55
  3
DIMSTYLE_1
100
AcDbAlignedDimension
 13
27.4909106445
 23
148.0861791992
 14
35.0409106445
 24
147.1245824268
100
AcDbRotatedDimension
  0
DIMENSION
  5
24A
100
AcDbEntity
  8
0
100
AcDbDimension
 62
7
  6
CONTINUOUS
  2
*D1
 10
38.0409106445
 20
167.0861791991
 11
39.5343446437
 21
167.0861791991
 70
160
 71
1
 72
2
 41
0.9
 42
10.55
  3
DIMSTYLE_1
100
AcDbAlignedDimension
 13
27.4909106445
 23
148.0861791992
 14
38.0409106445
 24
130.1324959924
100
AcDbRotatedDimension
  0
DIMENSION
  5
24B
100
AcDbEntity
  8
0
100
AcDbDimension
 62
7
  6
CONTINUOUS
  2
*D2
 10
275.6610522461
 20
159.0861791991
 11
166.4467665318
 21
159.0861791991
 70
160
 71
2
 72
2
 41
0.9
 42
212.0
  3
DIMSTYLE_1
100
AcDbAlignedDimension
 13
63.6610522461
 23
148.0861791992
 14
275.6610522461
 24
148.0861791992
100
AcDbRotatedDimension
  0
DIMENSION
  5
24C
100
AcDbEntity
  8
0
100
AcDbDimension
 62
7
  6
CONTINUOUS
  2
*D3
 10
285.661052246
 20
59.0861791992
 11
285.661052246
 21
101.7290363421
 70
160
 71
2
 72
2
 41
0.9
 42
90.0
  3
DIMSTYLE_1
100
AcDbAlignedDimension
 13
274.6610522461
 23
149.0861791992
 14
274.6610522461
 24
59.0861791992
 50
270.0
100
AcDbRotatedDimension
  0
LINE
  5
24D
100
AcDbEntity
  8
SMUSSO
100
AcDbLine
 62
7
  6
CONTINUOUS
 10
63.6610522461
 20
148.0861791992
 11
63.6610522461
 21
60.0861791992
  0
LINE
  5
24E
100
AcDbEntity
  8
SMUSSO
100
AcDbLine
 62
7
  6
CONTINUOUS
 10
64.6610522461
 20
148.0861791992
 11
64.6610522461
 21
60.0861791992
  0
LINE
  5
24F
100
AcDbEntity
  8
SMUSSO
100
AcDbLine
 62
250
  6
CONTINUOUS
 10
64.6610522461
 20
60.0861791992
 11
64.6610522461
 21
59.0861791992
  0
LINE
  5
250
100
AcDbEntity
  8
SMUSSO
100
AcDbLine
 62
250
  6
CONTINUOUS
 10
64.6610522461
 20
148.0861791992
 11
64.6610522461
 21
149.0861791992
  0
LINE
  5
251
100
AcDbEntity
  8
RACCORDO
100
AcDbLine
 62
7
  6
CONTINUOUS
 10
90.8110522461
 20
125.4861791992
 11
90.8110522461
 21
82.6861791992
  0
LWPOLYLINE
  5
252
100
AcDbEntity
  8
0
100
AcDbPolyline
 62
7
  6
CONTINUOUS
 90
3
 70
0
 43
0.3500000006
 10
168.8039126587
 20
161.9790439453
 10
169.6610505981
 20
162.8361818848
 10
169.6610505981
 20
159.8361809692
  0
LINE
  5
253
100
AcDbEntity
  8
SMUSSO
100
AcDbLine
 62
7
  6
CONTINUOUS
 10
64.6610522461
 20
59.0861791992
 11
274.6610522461
 21
59.0861791992
  0
LINE
  5
254
100
AcDbEntity
  8
SMUSSO
100
AcDbLine
 62
250
  6
CONTINUOUS
 10
64.6610522461
 20
60.0861791992
 11
63.6610522461
 21
60.0861791992
  0
LINE
  5
255
100
AcDbEntity
  8
SMUSSO
100
AcDbLine
 62
7
  6
CONTINUOUS
 10
64.6610522461
 20
60.0861791992
 11
274.6610522461
 21
60.0861791992
  0
LINE
  5
256
100
AcDbEntity
  8
SMUSSO
100
AcDbLine
 62
250
  6
CONTINUOUS
 10
274.6610522461
 20
60.0861791992
 11
275.6610522461
 21
60.0861791992
  0
LINE
  5
257
100
AcDbEntity
  8
RACCORDO
100
AcDbLine
 62
7
  6
CONTINUOUS
 10
92.0110522461
 20
81.4861791992
 11
247.3110522461
 21
81.4861791992
  0
LWPOLYLINE
  5
258
100
AcDbEntity
  8
0
100
AcDbPolyline
 62
7
  6
CONTINUOUS
 90
13
 70
0
 43
0.3500000006
 10
284.0539070435
 20
104.0861775513
 10
282.7682001343
 20
104.0861775513
 10
282.3396311646
 20
104.3004620361
 10
281.9110440674
 20
104.7290400696
 10
281.9110440674
 20
104.9433245544
 10
282.3396311646
 20
105.3718935242
 10
282.7682001343
 20
105.586178009
 10
284.0539070435
 20
105.586178009
 10
284.4824760132
 20
105.3718935242
 10
284.9110449829
 20
104.9433245544
 10
284.9110449829
 20
104.7290400696
 10
284.4824760132
 20
104.3004620361
 10
284.0539070435
 20
104.0861775513
  0
LINE
  5
259
100
AcDbEntity
  8
RACCORDO
100
AcDbLine
 62
7
  6
CONTINUOUS
 10
247.3110522461
 20
126.6861791992
 11
92.0110522461
 21
126.6861791992
  0
LINE
  5
25A
100
AcDbEntity
  8
SMUSSO
100
AcDbLine
 62
7
  6
CONTINUOUS
 10
274.6610522461
 20
148.0861791992
 11
64.6610522461
 21
148.0861791992
  0
LINE
  5
25B
100
AcDbEntity
  8
SMUSSO
100
AcDbLine
 62
250
  6
CONTINUOUS
 10
64.6610522461
 20
148.0861791992
 11
63.6610522461
 21
148.0861791992
  0
LINE
  5
25C
100
AcDbEntity
  8
SMUSSO
100
AcDbLine
 62
250
  6
CONTINUOUS
 10
274.6610522461
 20
148.0861791992
 11
275.6610522461
 21
148.0861791992
  0
LINE
  5
25D
100
AcDbEntity
  8
SMUSSO
100
AcDbLine
 62
7
  6
CONTINUOUS
 10
274.6610522461
 20
149.0861791992
 11
64.6610522461
 21
149.0861791992
  0
LWPOLYLINE
  5
25E
100
AcDbEntity
  8
0
100
AcDbPolyline
 62
7
  6
CONTINUOUS
 90
7
 70
0
 43
0.3500000006
 10
172.0181980591
 20
159.8361809692
 10
170.5181885376
 20
159.8361809692
 10
172.0181980591
 20
161.9790439453
 10
172.0181980591
 20
162.407612915
 10
171.5896290894
 20
162.8361818848
 10
170.9467575073
 20
162.8361818848
 10
170.5181885376
 20
162.1933284302
  0
LWPOLYLINE
  5
25F
100
AcDbEntity
  8
0
100
AcDbPolyline
 62
7
  6
CONTINUOUS
 90
7
 70
0
 43
0.3500000006
 10
167.9467747192
 20
159.8361809692
 10
166.4467651978
 20
159.8361809692
 10
167.9467747192
 20
161.9790439453
 10
167.9467747192
 20
162.407612915
 10
167.5181876221
 20
162.8361818848
 10
166.8753341675
 20
162.8361818848
 10
166.4467651978
 20
162.1933284302
  0
LINE
  5
260
100
AcDbEntity
  8
RACCORDO
100
AcDbLine
 62
7
  6
CONTINUOUS
 10
248.5110522461
 20
82.6861791992
 11
248.5110522461
 21
125.4861791992
  0
LWPOLYLINE
  5
261
100
AcDbEntity
  8
0
100
AcDbPolyline
 62
7
  6
CONTINUOUS
 90
10
 70
0
 43
0.3500000006
 10
284.9110449829
 20
102.1576081238
 10
284.0539070435
 20
103.014755127
 10
283.196769104
 20
103.2290396118
 10
282.3396311646
 20
103.2290396118
 10
281.9110440674
 20
102.8004615784
 10
281.9110440674
 20
102.1576081238
 10
282.3396311646
 20
101.7290391541
 10
283.196769104
 20
101.7290391541
 10
283.6253380737
 20
102.1576081238
 10
283.6253380737
 20
103.0861772461
  0
LINE
  5
262
100
AcDbEntity
  8
SMUSSO
100
AcDbLine
 62
250
  6
CONTINUOUS
 10
274.6610522461
 20
60.0861791992
 11
274.6610522461
 21
59.0861791992
  0
LINE
  5
263
100
AcDbEntity
  8
SMUSSO
100
AcDbLine
 62
7
  6
CONTINUOUS
 10
274.6610522461
 20
60.0861791992
 11
274.6610522461
 21
148.0861791992
  0
LINE
  5
264
100
AcDbEntity
  8
SMUSSO
100
AcDbLine
 62
250
  6
CONTINUOUS
 10
274.6610522461
 20
148.0861791992
 11
274.6610522461
 21
149.0861791992
  0
LINE
  5
265
100
AcDbEntity
  8
SMUSSO
100
AcDbLine
 62
7
  6
CONTINUOUS
 10
275.6610522461
 20
60.0861791992
 11
275.6610522461
 21
148.0861791992
  0
LINE
  5
266
100
AcDbEntity
  8
SMUSSO
100
AcDbLine
 62
7
  6
CONTINUOUS
 10
28.4909106445
 20
59.0861791992
 11
29.9909106445
 21
59.0861791992
  0
LINE
  5
267
100
AcDbEntity
  8
0
100
AcDbLine
 62
250
  6
CONTINUOUS
 10
33.5417082034
 20
60.7507132294
 11
35.0409106445
 21
61.0477759717
  0
LINE
  5
268
100
AcDbEntity
  8
ASSI
100
AcDbLine
 62
250
  6
CONTINUOUS
 10
33.5417082034
 20
60.7507132294
 11
35.0409106445
 21
61.0477759717
  0
LINE
  5
269
100
AcDbEntity
  8
0
100
AcDbLine
 62
7
  6
CONTINUOUS
 10
30.6409106445
 20
59.7355595109
 11
33.5409106445
 21
59.7861791992
  0
LINE
  5
26A
100
AcDbEntity
  8
ASSI
100
AcDbLine
 62
7
  6
CONTINUOUS
 10
30.6409106445
 20
59.7355595109
 11
33.5409106445
 21
59.7861791992
  0
LINE
  5
26B
100
AcDbEntity
  8
0
100
AcDbLine
 62
250
  6
CONTINUOUS
 10
30.6409106445
 20
60.7354072061
 11
33.5409106445
 21
60.7860268944
  0
LINE
  5
26C
100
AcDbEntity
  8
ASSI
100
AcDbLine
 62
250
  6
CONTINUOUS
 10
30.6409106445
 20
60.7354072061
 11
33.5409106445
 21
60.7860268944
  0
LINE
  5
26D
100
AcDbEntity
  8
SMUSSO
100
AcDbLine
 62
250
  6
CONTINUOUS
 10
27.4909106445
 20
60.0861791992
 11
30.4909106445
 21
60.0861791992
  0
LWPOLYLINE
  5
26E
100
AcDbEntity
  8
0
100
AcDbPolyline
 62
7
  6
CONTINUOUS
 90
3
 70
0
 43
0.3500000006
 10
39.5343454285
 20
169.9790282593
 10
40.3914878998
 20
170.8361843262
 10
40.3914878998
 20
167.8361834106
  0
LINE
  5
26F
100
AcDbEntity
  8
RACCORDO
100
AcDbLine
 62
7
  6
CONTINUOUS
 10
30.4909106445
 20
64.0861791992
 11
30.6409106445
 21
64.0861791992
  0
LINE
  5
270
100
AcDbEntity
  8
RACCORDO
100
AcDbLine
 62
7
  6
CONTINUOUS
 10
30.4909106445
 20
65.0861791992
 11
30.6409106445
 21
65.0861791992
  0
LINE
  5
271
100
AcDbEntity
  8
RACCORDO
100
AcDbLine
 62
250
  6
CONTINUOUS
 10
30.4909106445
 20
67.0861791992
 11
30.6409106445
 21
67.0861791992
  0
LINE
  5
272
100
AcDbEntity
  8
0
100
AcDbLine
 62
250
  6
CONTINUOUS
 10
33.0594046445
 20
67.9250381992
 11
31.1594446445
 21
67.9250381992
  0
LINE
  5
273
100
AcDbEntity
  8
SMUSSO
100
AcDbLine
 62
7
  6
CONTINUOUS
 10
27.4909106445
 20
148.0861791992
 11
28.4909106445
 21
149.0861791992
  0
LINE
  5
274
100
AcDbEntity
  8
0
100
AcDbLine
 62
250
  6
CONTINUOUS
 10
32.4672816445
 20
67.0083601992
 11
31.1595586445
 21
66.6462151992
  0
LINE
  5
275
100
AcDbEntity
  8
0
100
AcDbLine
 62
250
  6
CONTINUOUS
 10
33.0594046445
 20
70.4618701992
 11
31.1595586445
 21
70.2842131992
  0
LINE
  5
276
100
AcDbEntity
  8
0
100
AcDbLine
 62
250
  6
CONTINUOUS
 10
31.8240126445
 20
69.9924401992
 11
33.0594046445
 21
70.0739171992
  0
LINE
  5
277
100
AcDbEntity
  8
0
100
AcDbLine
 62
250
  6
CONTINUOUS
 10
31.1594446445
 20
68.3216101992
 11
33.0594046445
 21
68.3216101992
  0
LINE
  5
278
100
AcDbEntity
  8
0
100
AcDbLine
 62
250
  6
CONTINUOUS
 10
33.0594046445
 20
68.9144881992
 11
31.8188406445
 21
69.0000691992
  0
LINE
  5
279
100
AcDbEntity
  8
0
100
AcDbLine
 62
250
  6
CONTINUOUS
 10
31.1595586445
 20
68.7066431992
 11
33.0594046445
 21
68.5350981992
  0
LINE
  5
27A
100
AcDbEntity
  8
0
100
AcDbLine
 62
250
  6
CONTINUOUS
 10
31.1595586445
 20
67.3815681992
 11
32.4672816445
 21
67.0083601992
  0
LINE
  5
27B
100
AcDbEntity
  8
0
100
AcDbLine
 62
250
  6
CONTINUOUS
 10
33.0594046445
 20
67.1671831992
 11
31.1595586445
 21
67.7778691992
  0
LINE
  5
27C
100
AcDbEntity
  8
SMUSSO
100
AcDbLine
 62
7
  6
CONTINUOUS
 10
27.4909106445
 20
60.0861791992
 11
28.4909106445
 21
59.0861791992
  0
LINE
  5
27D
100
AcDbEntity
  8
0
100
AcDbLine
 62
250
  6
CONTINUOUS
 10
32.6801276445
 20
71.5659071992
 11
33.0594046445
 21
71.6686401992
  0
LINE
  5
27E
100
AcDbEntity
  8
0
100
AcDbLine
 62
250
  6
CONTINUOUS
 10
31.6815876445
 20
71.3044221992
 11
32.3866446445
 21
71.4866521992
  0
LWPOLYLINE
  5
27F
100
AcDbEntity
  8
0
100
AcDbPolyline
 62
250
  6
CONTINUOUS
 90
49
 70
0
 10
31.709525699
 20
73.1195851316
 10
31.7024446031
 20
73.1193664756
 10
31.6954006493
 20
73.1189337815
 10
31.688390873
 20
73.118288787
 10
31.6814123096
 20
73.1174332299
 10
31.6744619945
 20
73.116368848
 10
31.6675369633
 20
73.1150973791
 10
31.6606342511
 20
73.1136205608
 10
31.6537508936
 20
73.1119401309
 10
31.6468858867
 20
73.1100575579
 10
31.6400460695
 20
73.107973233
 10
31.6332402416
 20
73.105687278
 10
31.6264772026
 20
73.1031998147
 10
31.6197657522
 20
73.1005109651
 10
31.6131146901
 20
73.097620851
 10
31.6065328158
 20
73.0945295942
 10
31.6000289291
 20
73.0912373166
 10
31.5936116886
 20
73.0877442685
 10
31.5872891885
 20
73.0840512135
 10
31.5810693823
 20
73.0801590436
 10
31.5749602234
 20
73.076068651
 10
31.5689696555
 20
73.0717802569
 10
31.5631055847
 20
73.0672913992
 10
31.5573759078
 20
73.0625989451
 10
31.5517885213
 20
73.0576997619
 10
31.546351189
 20
73.0525926395
 10
31.5410711429
 20
73.0472840585
 10
31.5359554821
 20
73.0417824226
 10
31.5310113058
 20
73.0360961352
 10
31.5262449914
 20
73.0302338319
 10
31.5216600289
 20
73.0242050765
 10
31.5172591866
 20
73.0180196648
 10
31.5130452328
 20
73.0116873927
 10
31.5090205787
 20
73.0052175621
 10
31.5051862067
 20
72.9986174998
 10
31.5015427421
 20
72.9918940385
 10
31.4980908103
 20
72.9850540111
 10
31.4948310367
 20
72.9781042503
 10
31.4917640466
 20
72.9710515889
 10
31.4888904652
 20
72.9639028597
 10
31.486210918
 20
72.9566648955
 10
31.4837264141
 20
72.9493429485
 10
31.4814394984
 20
72.9419359474
 10
31.4793530995
 20
72.9344412407
 10
31.4774701461
 20
72.9268561765
 10
31.4757935669
 20
72.919178103
 10
31.4743262905
 20
72.9114043686
 10
31.4730712456
 20
72.9035323214
 10
31.4720313609
 20
72.8955593096
  0
LINE
  5
280
100
AcDbEntity
  8
0
100
AcDbLine
 62
250
  6
CONTINUOUS
 10
33.0594043905
 20
72.203063802
 11
31.1817551858
 21
72.203063802
  0
LINE
  5
281
100
AcDbEntity
  8
0
100
AcDbLine
 62
250
  6
CONTINUOUS
 10
31.4832162213
 20
72.5848907023
 11
32.0047609088
 21
72.5848907023
  0
LINE
  5
282
100
AcDbEntity
  8
0
100
AcDbLine
 62
250
  6
CONTINUOUS
 10
32.315909728
 20
72.5980404441
 11
33.0594043905
 21
72.5980404441
  0
LINE
  5
283
100
AcDbEntity
  8
0
100
AcDbLine
 62
250
  6
CONTINUOUS
 10
32.161346837
 20
73.2226318079
 11
32.1725732688
 21
73.2226318079
  0
LINE
  5
284
100
AcDbEntity
  8
0
100
AcDbLine
 62
250
  6
CONTINUOUS
 10
32.3866446445
 20
71.1069621992
 11
31.6815876445
 21
71.3044221992
  0
LINE
  5
285
100
AcDbEntity
  8
0
100
AcDbLine
 62
250
  6
CONTINUOUS
 10
33.0594046445
 20
70.9164121992
 11
32.6801276445
 21
71.0258411992
  0
LINE
  5
286
100
AcDbEntity
  8
0
100
AcDbLine
 62
250
  6
CONTINUOUS
 10
31.1595586445
 20
71.1200551992
 11
33.0594046445
 21
70.5241421992
  0
LINE
  5
287
100
AcDbEntity
  8
0
100
AcDbLine
 62
250
  6
CONTINUOUS
 10
31.1595586445
 20
69.8918431992
 11
32.2143586445
 21
69.4952711992
  0
LINE
  5
288
100
AcDbEntity
  8
0
100
AcDbLine
 62
250
  6
CONTINUOUS
 10
33.0594046445
 20
69.5209151992
 11
31.8240126445
 21
69.9924401992
  0
LWPOLYLINE
  5
289
100
AcDbEntity
  8
0
100
AcDbPolyline
 62
250
  6
CONTINUOUS
 90
3
 70
0
 10
32.7892994017
 20
73.1267735546
 10
32.724971512
 20
73.1085147185
 10
32.6620364067
 20
73.0904119176
  0
LINE
  5
28A
100
AcDbEntity
  8
0
100
AcDbLine
 62
250
  6
CONTINUOUS
 10
32.4992321033
 20
73.438729408
 11
32.6336143349
 21
73.4750246095
  0
LINE
  5
28B
100
AcDbEntity
  8
0
100
AcDbLine
 62
250
  6
CONTINUOUS
 10
32.9765154155
 20
73.5647081557
 11
33.0594043905
 21
73.5867927496
  0
LINE
  5
28C
100
AcDbEntity
  8
0
100
AcDbLine
 62
250
  6
CONTINUOUS
 10
32.6336143349
 20
73.4750246095
 11
32.8072305524
 21
73.5206605849
  0
LINE
  5
28D
100
AcDbEntity
  8
0
100
AcDbLine
 62
250
  6
CONTINUOUS
 10
32.8072305524
 20
73.5206605849
 11
32.9765154155
 21
73.5647081557
  0
LINE
  5
28E
100
AcDbEntity
  8
0
100
AcDbLine
 62
7
  6
CONTINUOUS
 10
35.9667478424
 20
76.9360497606
 11
35.0409106445
 21
76.9344338682
  0
LINE
  5
28F
100
AcDbEntity
  8
ASSI
100
AcDbLine
 62
7
  6
CONTINUOUS
 10
35.9667478424
 20
76.9360497606
 11
35.0409106445
 21
76.9344338682
  0
LINE
  5
290
100
AcDbEntity
  8
0
100
AcDbLine
 62
250
  6
CONTINUOUS
 10
35.9666832283
 20
77.1584999553
 11
35.0409106445
 21
77.1580817608
  0
LINE
  5
291
100
AcDbEntity
  8
ASSI
100
AcDbLine
 62
250
  6
CONTINUOUS
 10
35.9666832283
 20
77.1584999553
 11
35.0409106445
 21
77.1580817608
  0
LINE
  5
292
100
AcDbEntity
  8
0
100
AcDbLine
 62
7
  6
CONTINUOUS
 10
37.4909598767
 20
77.7446153389
 11
35.0409106445
 21
77.7303613694
  0
LINE
  5
293
100
AcDbEntity
  8
ASSI
100
AcDbLine
 62
7
  6
CONTINUOUS
 10
37.4909598767
 20
77.7446153389
 11
35.0409106445
 21
77.7303613694
  0
LINE
  5
294
100
AcDbEntity
  8
0
100
AcDbLine
 62
250
  6
CONTINUOUS
 10
37.4909598767
 20
77.8324818175
 11
35.0409106445
 21
77.818227848
  0
LINE
  5
295
100
AcDbEntity
  8
ASSI
100
AcDbLine
 62
250
  6
CONTINUOUS
 10
37.4909598767
 20
77.8324818175
 11
35.0409106445
 21
77.818227848
  0
LINE
  5
296
100
AcDbEntity
  8
0
100
AcDbLine
 62
7
  6
CONTINUOUS
 10
38.0409106445
 20
77.9338179925
 11
37.9203478775
 21
77.9338179925
  0
LINE
  5
297
100
AcDbEntity
  8
ASSI
100
AcDbLine
 62
7
  6
CONTINUOUS
 10
38.0409106445
 20
77.9338179925
 11
37.9203478775
 21
77.9338179925
  0
LINE
  5
298
100
AcDbEntity
  8
0
100
AcDbLine
 62
7
  6
CONTINUOUS
 10
35.9910350234
 20
78.8861791992
 11
35.0409106445
 21
78.8861791992
  0
LINE
  5
299
100
AcDbEntity
  8
ASSI
100
AcDbLine
 62
7
  6
CONTINUOUS
 10
35.9910350234
 20
78.8861791992
 11
35.0409106445
 21
78.8861791992
  0
LINE
  5
29A
100
AcDbEntity
  8
0
100
AcDbLine
 62
7
  6
CONTINUOUS
 10
35.0409106445
 20
79.0361791992
 11
35.1909106445
 21
79.0361791992
  0
LINE
  5
29B
100
AcDbEntity
  8
ASSI
100
AcDbLine
 62
7
  6
CONTINUOUS
 10
35.0409106445
 20
79.0361791992
 11
35.1909106445
 21
79.0361791992
  0
LINE
  5
29C
100
AcDbEntity
  8
0
100
AcDbLine
 62
7
  6
CONTINUOUS
 10
35.4909106445
 20
79.0361791992
 11
35.6909106445
 21
79.0361791992
  0
LINE
  5
29D
100
AcDbEntity
  8
ASSI
100
AcDbLine
 62
7
  6
CONTINUOUS
 10
35.4909106445
 20
79.0361791992
 11
35.6909106445
 21
79.0361791992
  0
LINE
  5
29E
100
AcDbEntity
  8
0
100
AcDbLine
 62
7
  6
CONTINUOUS
 10
37.5189739902
 20
78.7383728647
 11
38.0409106445
 21
78.7338179925
  0
LINE
  5
29F
100
AcDbEntity
  8
ASSI
100
AcDbLine
 62
7
  6
CONTINUOUS
 10
37.5189739902
 20
78.7383728647
 11
38.0409106445
 21
78.7338179925
  0
LINE
  5
2A0
100
AcDbEntity
  8
0
100
AcDbLine
 62
7
  6
CONTINUOUS
 10
35.0409106445
 20
78.3303593247
 11
37.8513778358
 21
78.2061925316
  0
LINE
  5
2A1
100
AcDbEntity
  8
ASSI
100
AcDbLine
 62
7
  6
CONTINUOUS
 10
35.0409106445
 20
78.3303593247
 11
37.8513778358
 21
78.2061925316
  0
LINE
  5
2A2
100
AcDbEntity
  8
0
100
AcDbLine
 62
7
  6
CONTINUOUS
 10
36.0905387424
 20
78.8812163894
 11
38.0409106445
 21
78.6861791992
  0
LINE
  5
2A3
100
AcDbEntity
  8
ASSI
100
AcDbLine
 62
7
  6
CONTINUOUS
 10
36.0905387424
 20
78.8812163894
 11
38.0409106445
 21
78.6861791992
  0
LWPOLYLINE
  5
2A4
100
AcDbEntity
  8
0
100
AcDbPolyline
 62
250
  6
CONTINUOUS
 90
5
 70
0
 10
37.5798907499
 20
130.3960342273
 10
37.5681521827
 20
130.3922164278
 10
37.5559757573
 20
130.3869353499
 10
37.5434293806
 20
130.3802201492
 10
37.5305828971
 20
130.3721080888
  0
LWPOLYLINE
  5
2A5
100
AcDbEntity
  8
ASSI
100
AcDbPolyline
 62
250
  6
CONTINUOUS
 90
5
 70
0
 10
37.5798907499
 20
130.3960342273
 10
37.5681521827
 20
130.3922164278
 10
37.5559757573
 20
130.3869353499
 10
37.5434293806
 20
130.3802201492
 10
37.5305828971
 20
130.3721080888
  0
LWPOLYLINE
  5
2A6
100
AcDbEntity
  8
0
100
AcDbPolyline
 62
250
  6
CONTINUOUS
 90
5
 70
0
 10
37.5799493895
 20
77.7763084876
 10
37.5682062725
 20
77.7801214047
 10
37.5560250313
 20
77.7853991493
 10
37.5434715845
 20
77.7921136125
 10
37.5306164566
 20
77.800227559
  0
LWPOLYLINE
  5
2A7
100
AcDbEntity
  8
ASSI
100
AcDbPolyline
 62
250
  6
CONTINUOUS
 90
5
 70
0
 10
37.5799493895
 20
77.7763084876
 10
37.5682062725
 20
77.7801214047
 10
37.5560250313
 20
77.7853991493
 10
37.5434715845
 20
77.7921136125
 10
37.5306164566
 20
77.800227559
  0
LWPOLYLINE
  5
2A8
100
AcDbEntity
  8
0
100
AcDbPolyline
 62
250
  6
CONTINUOUS
 90
4
 70
0
 10
37.5305828971
 20
130.3721080888
 10
37.5175075322
 20
130.3626441181
 10
37.5042754579
 20
130.3518804492
 10
37.4909598767
 20
130.3398765809
  0
LWPOLYLINE
  5
2A9
100
AcDbEntity
  8
ASSI
100
AcDbPolyline
 62
250
  6
CONTINUOUS
 90
4
 70
0
 10
37.5305828971
 20
130.3721080888
 10
37.5175075322
 20
130.3626441181
 10
37.5042754579
 20
130.3518804492
 10
37.4909598767
 20
130.3398765809
  0
LWPOLYLINE
  5
2AA
100
AcDbEntity
  8
0
100
AcDbPolyline
 62
250
  6
CONTINUOUS
 90
4
 70
0
 10
37.5306164566
 20
77.800227559
 10
37.5175311959
 20
77.8096960874
 10
37.504287881
 20
77.8204672957
 10
37.4909598767
 20
77.8324818175
  0
LWPOLYLINE
  5
2AB
100
AcDbEntity
  8
ASSI
100
AcDbPolyline
 62
250
  6
CONTINUOUS
 90
4
 70
0
 10
37.5306164566
 20
77.800227559
 10
37.5175311959
 20
77.8096960874
 10
37.504287881
 20
77.8204672957
 10
37.4909598767
 20
77.8324818175
  0
LINE
  5
2AC
100
AcDbEntity
  8
0
100
AcDbLine
 62
7
  6
CONTINUOUS
 10
35.1909106445
 20
129.1361791992
 11
35.3409106445
 21
129.2861791992
  0
LINE
  5
2AD
100
AcDbEntity
  8
ASSI
100
AcDbLine
 62
7
  6
CONTINUOUS
 10
35.1909106445
 20
129.1361791992
 11
35.3409106445
 21
129.2861791992
  0
LINE
  5
2AE
100
AcDbEntity
  8
0
100
AcDbLine
 62
7
  6
CONTINUOUS
 10
35.6909106445
 20
129.1361791992
 11
35.8409106445
 21
129.2861791992
  0
LINE
  5
2AF
100
AcDbEntity
  8
ASSI
100
AcDbLine
 62
7
  6
CONTINUOUS
 10
35.6909106445
 20
129.1361791992
 11
35.8409106445
 21
129.2861791992
  0
LINE
  5
2B0
100
AcDbEntity
  8
0
100
AcDbLine
 62
7
  6
CONTINUOUS
 10
35.1909106445
 20
79.0361791992
 11
35.3409106445
 21
78.8861791992
  0
LINE
  5
2B1
100
AcDbEntity
  8
ASSI
100
AcDbLine
 62
7
  6
CONTINUOUS
 10
35.1909106445
 20
79.0361791992
 11
35.3409106445
 21
78.8861791992
  0
LINE
  5
2B2
100
AcDbEntity
  8
0
100
AcDbLine
 62
7
  6
CONTINUOUS
 10
35.6909106445
 20
79.0361791992
 11
35.8409106445
 21
78.8861791992
  0
LINE
  5
2B3
100
AcDbEntity
  8
ASSI
100
AcDbLine
 62
7
  6
CONTINUOUS
 10
35.6909106445
 20
79.0361791992
 11
35.8409106445
 21
78.8861791992
  0
LWPOLYLINE
  5
2B4
100
AcDbEntity
  8
0
100
AcDbPolyline
 62
250
  6
CONTINUOUS
 90
9
 70
0
 10
36.0630884449
 20
131.1636233633
 10
36.0704203957
 20
131.1727488868
 10
36.0774108297
 20
131.1808914207
 10
36.0839998046
 20
131.1879248048
 10
36.0900728514
 20
131.1936717534
 10
36.0954439907
 20
131.1979258539
 10
36.1000366293
 20
131.2006165837
 10
36.1038415677
 20
131.2017205842
 10
36.1068168782
 20
131.2011949953
  0
LWPOLYLINE
  5
2B5
100
AcDbEntity
  8
ASSI
100
AcDbPolyline
 62
250
  6
CONTINUOUS
 90
9
 70
0
 10
36.0630884449
 20
131.1636233633
 10
36.0704203957
 20
131.1727488868
 10
36.0774108297
 20
131.1808914207
 10
36.0839998046
 20
131.1879248048
 10
36.0900728514
 20
131.1936717534
 10
36.0954439907
 20
131.1979258539
 10
36.1000366293
 20
131.2006165837
 10
36.1038415677
 20
131.2017205842
 10
36.1068168782
 20
131.2011949953
  0
LWPOLYLINE
  5
2B6
100
AcDbEntity
  8
0
100
AcDbPolyline
 62
250
  6
CONTINUOUS
 90
9
 70
0
 10
36.0660351975
 20
77.004953202
 10
36.0724371754
 20
76.9971504863
 10
36.0786628793
 20
76.9900308751
 10
36.0846531948
 20
76.9837321185
 10
36.0902808649
 20
76.9784630558
 10
36.0954039366
 20
76.9744258479
 10
36.0999212093
 20
76.9717724574
 10
36.1037565095
 20
76.9706375045
 10
36.1068168782
 20
76.9711634031
  0
LWPOLYLINE
  5
2B7
100
AcDbEntity
  8
ASSI
100
AcDbPolyline
 62
250
  6
CONTINUOUS
 90
9
 70
0
 10
36.0660351975
 20
77.004953202
 10
36.0724371754
 20
76.9971504863
 10
36.0786628793
 20
76.9900308751
 10
36.0846531948
 20
76.9837321185
 10
36.0902808649
 20
76.9784630558
 10
36.0954039366
 20
76.9744258479
 10
36.0999212093
 20
76.9717724574
 10
36.1037565095
 20
76.9706375045
 10
36.1068168782
 20
76.9711634031
  0
LWPOLYLINE
  5
2B8
100
AcDbEntity
  8
0
100
AcDbPolyline
 62
7
  6
CONTINUOUS
 90
3
 70
0
 43
0.3500000006
 10
44.3200579376
 20
168.1218900146
 10
44.2486312866
 20
167.9076055298
 10
44.1057734528
 20
167.6218989258
  0
LWPOLYLINE
  5
2B9
100
AcDbEntity
  8
0
100
AcDbPolyline
 62
250
  6
CONTINUOUS
 90
14
 70
0
 10
35.9666832283
 20
131.0138584431
 10
35.9739346864
 20
131.0264508268
 10
35.9812267112
 20
131.0389352847
 10
35.988539944
 20
131.0512731049
 10
35.9958108384
 20
131.0633582557
 10
36.00306242
 20
131.0752199927
 10
36.0103993513
 20
131.0870030344
 10
36.0177905016
 20
131.098635629
 10
36.0252057905
 20
131.1100579633
 10
36.0327335049
 20
131.1213807492
 10
36.0403510759
 20
131.1325343699
 10
36.0479718596
 20
131.1433536759
 10
36.0555652587
 20
131.1537532989
 10
36.0630884449
 20
131.1636233633
  0
LWPOLYLINE
  5
2BA
100
AcDbEntity
  8
ASSI
100
AcDbPolyline
 62
250
  6
CONTINUOUS
 90
14
 70
0
 10
35.9666832283
 20
131.0138584431
 10
35.9739346864
 20
131.0264508268
 10
35.9812267112
 20
131.0389352847
 10
35.988539944
 20
131.0512731049
 10
35.9958108384
 20
131.0633582557
 10
36.00306242
 20
131.0752199927
 10
36.0103993513
 20
131.0870030344
 10
36.0177905016
 20
131.098635629
 10
36.0252057905
 20
131.1100579633
 10
36.0327335049
 20
131.1213807492
 10
36.0403510759
 20
131.1325343699
 10
36.0479718596
 20
131.1433536759
 10
36.0555652587
 20
131.1537532989
 10
36.0630884449
 20
131.1636233633
  0
LWPOLYLINE
  5
2BB
100
AcDbEntity
  8
0
100
AcDbPolyline
 62
250
  6
CONTINUOUS
 90
17
 70
0
 10
35.9666832283
 20
77.1584999553
 10
35.9723686024
 20
77.1485952079
 10
35.9781100131
 20
77.1387044316
 10
35.9838978785
 20
77.1288485954
 10
35.9896815822
 20
77.1191144526
 10
35.995491243
 20
77.1094572949
 10
36.0014347352
 20
77.0997146845
 10
36.0075131189
 20
77.0899011774
 10
36.0136908779
 20
77.0800856455
 10
36.020012307
 20
77.0702146492
 10
36.0264645095
 20
77.0603294883
 10
36.0330031169
 20
77.0505205294
 10
36.0396154355
 20
77.0408310712
 10
36.0462522359
 20
77.031359703
 10
36.0528795683
 20
77.0221831528
 10
36.0594937303
 20
77.0133408603
 10
36.0660351975
 20
77.004953202
  0
LWPOLYLINE
  5
2BC
100
AcDbEntity
  8
ASSI
100
AcDbPolyline
 62
250
  6
CONTINUOUS
 90
17
 70
0
 10
35.9666832283
 20
77.1584999553
 10
35.9723686024
 20
77.1485952079
 10
35.9781100131
 20
77.1387044316
 10
35.9838978785
 20
77.1288485954
 10
35.9896815822
 20
77.1191144526
 10
35.995491243
 20
77.1094572949
 10
36.0014347352
 20
77.0997146845
 10
36.0075131189
 20
77.0899011774
 10
36.0136908779
 20
77.0800856455
 10
36.020012307
 20
77.0702146492
 10
36.0264645095
 20
77.0603294883
 10
36.0330031169
 20
77.0505205294
 10
36.0396154355
 20
77.0408310712
 10
36.0462522359
 20
77.031359703
 10
36.0528795683
 20
77.0221831528
 10
36.0594937303
 20
77.0133408603
 10
36.0660351975
 20
77.004953202
  0
LWPOLYLINE
  5
2BD
100
AcDbEntity
  8
0
100
AcDbPolyline
 62
7
  6
CONTINUOUS
 90
3
 70
0
 43
0.3500000006
 10
42.7683308258
 20
160.1218875732
 10
42.6968996429
 20
159.9076030884
 10
42.5540418091
 20
159.6218964844
  0
LWPOLYLINE
  5
2BE
100
AcDbEntity
  8
0
100
AcDbPolyline
 62
7
  6
CONTINUOUS
 90
3
 70
0
 10
38.0281883004
 20
130.089793177
 10
38.0212873809
 20
130.0767421179
 10
38.0130517295
 20
130.0627409167
  0
LWPOLYLINE
  5
2BF
100
AcDbEntity
  8
ASSI
100
AcDbPolyline
 62
7
  6
CONTINUOUS
 90
3
 70
0
 10
38.0281883004
 20
130.089793177
 10
38.0212873809
 20
130.0767421179
 10
38.0130517295
 20
130.0627409167
  0
LWPOLYLINE
  5
2C0
100
AcDbEntity
  8
0
100
AcDbPolyline
 62
7
  6
CONTINUOUS
 90
7
 70
0
 10
38.0130517295
 20
78.1096174818
 10
38.0212879959
 20
78.0956153671
 10
38.0281890999
 20
78.08256376
 10
38.0336712707
 20
78.0704626603
 10
38.0376598982
 20
78.059312068
 10
38.0400906655
 20
78.0491119833
 10
38.0409106445
 20
78.039862406
  0
LWPOLYLINE
  5
2C1
100
AcDbEntity
  8
ASSI
100
AcDbPolyline
 62
7
  6
CONTINUOUS
 90
7
 70
0
 10
38.0130517295
 20
78.1096174818
 10
38.0212879959
 20
78.0956153671
 10
38.0281890999
 20
78.08256376
 10
38.0336712707
 20
78.0704626603
 10
38.0376598982
 20
78.059312068
 10
38.0400906655
 20
78.0491119833
 10
38.0409106445
 20
78.039862406
  0
LINE
  5
2C2
100
AcDbEntity
  8
0
100
AcDbLine
 62
250
  6
CONTINUOUS
 10
31.1817551858
 20
72.203063802
 11
31.1732448341
 21
72.261999161
  0
LWPOLYLINE
  5
2C3
100
AcDbEntity
  8
0
100
AcDbPolyline
 62
250
  6
CONTINUOUS
 90
33
 70
0
 10
31.1732448341
 20
72.261999161
 10
31.165402101
 20
72.3190284067
 10
31.1617665976
 20
72.3468007196
 10
31.1583385119
 20
72.374071918
 10
31.1551215738
 20
72.4008731685
 10
31.1521174186
 20
72.4272440728
 10
31.1493276818
 20
72.4532242322
 10
31.1467539988
 20
72.4788532482
 10
31.1438439309
 20
72.5104501763
 10
31.1412815086
 20
72.5416024049
 10
31.1390742384
 20
72.5723520186
 10
31.1372296264
 20
72.6027411021
 10
31.1357560681
 20
72.6328142296
 10
31.1346655153
 20
72.6626259339
 10
31.1339708087
 20
72.6922332374
 10
31.1336847893
 20
72.7216931626
 10
31.1338217045
 20
72.7510551536
 10
31.1344014276
 20
72.7803383413
 10
31.1354452388
 20
72.8095542787
 10
31.1369744179
 20
72.8387145184
 10
31.1390106117
 20
72.8678270532
 10
31.141576933
 20
72.8968856355
 10
31.1446968611
 20
72.9258804581
 10
31.1483938756
 20
72.9548017132
 10
31.1526901092
 20
72.9836391392
 10
31.1576023086
 20
73.0123806572
 10
31.1631458735
 20
73.0410137338
 10
31.1693362042
 20
73.0695258358
 10
31.1747719721
 20
73.0922381611
 10
31.1806843116
 20
73.1148476305
 10
31.1871260079
 20
73.137336833
 10
31.1941498466
 20
73.1596883577
 10
31.2018086132
 20
73.1818847937
  0
LINE
  5
2C4
100
AcDbEntity
  8
SMUSSO
100
AcDbLine
 62
7
  6
CONTINUOUS
 10
27.4909106445
 20
60.0861791992
 11
27.4909106445
 21
148.0861791992
  0
LINE
  5
2C5
100
AcDbEntity
  8
SMUSSO
100
AcDbLine
 62
7
  6
CONTINUOUS
 10
28.4909106445
 20
59.0861791992
 11
28.4909106445
 21
149.0861791992
  0
LINE
  5
2C6
100
AcDbEntity
  8
SMUSSO
100
AcDbLine
 62
7
  6
CONTINUOUS
 10
29.9909106445
 20
149.0861791992
 11
29.9909106445
 21
59.0861791992
  0
LINE
  5
2C7
100
AcDbEntity
  8
0
100
AcDbLine
 62
7
  6
CONTINUOUS
 10
33.54705147
 20
60.626433922
 11
33.5417082034
 21
60.7507132294
  0
LINE
  5
2C8
100
AcDbEntity
  8
ASSI
100
AcDbLine
 62
7
  6
CONTINUOUS
 10
33.54705147
 20
60.626433922
 11
33.5417082034
 21
60.7507132294
  0
LINE
  5
2C9
100
AcDbEntity
  8
0
100
AcDbLine
 62
7
  6
CONTINUOUS
 10
33.5516094966
 20
60.5046607067
 11
33.54705147
 21
60.626433922
  0
LINE
  5
2CA
100
AcDbEntity
  8
ASSI
100
AcDbLine
 62
7
  6
CONTINUOUS
 10
33.5516094966
 20
60.5046607067
 11
33.54705147
 21
60.626433922
  0
LWPOLYLINE
  5
2CB
100
AcDbEntity
  8
0
100
AcDbPolyline
 62
250
  6
CONTINUOUS
 90
56
 70
0
 10
32.0047609088
 20
72.8115278551
 10
32.0043888034
 20
72.8232263748
 10
32.0038038097
 20
72.8346832658
 10
32.0030110612
 20
72.8458927046
 10
32.0020156913
 20
72.8568488674
 10
32.0008228333
 20
72.8675459307
 10
31.9994376209
 20
72.8779780707
 10
31.9978651873
 20
72.8881394637
 10
31.9961088924
 20
72.8980282083
 10
31.9941650007
 20
72.9076580912
 10
31.9920280032
 20
72.9170468213
 10
31.9896923909
 20
72.9262121075
 10
31.9871526548
 20
72.9351716587
 10
31.9844032856
 20
72.943943184
 10
31.9814387745
 20
72.952544392
 10
31.9786640616
 20
72.9599413205
 10
31.9757170154
 20
72.9672132511
 10
31.9725942385
 20
72.9743520267
 10
31.9692923335
 20
72.98134949
 10
31.9658055877
 20
72.9882005063
 10
31.9621190262
 20
72.9949120308
 10
31.9582153588
 20
73.0014940413
 10
31.9540772953
 20
73.0079565155
 10
31.9496905269
 20
73.014304446
 10
31.9450526716
 20
73.0205228848
 10
31.9401643289
 20
73.0265918988
 10
31.9350260985
 20
73.0324915549
 10
31.9296397656
 20
73.0382056598
 10
31.9240118588
 20
73.0437329795
 10
31.9181500926
 20
73.04907602
 10
31.9120621812
 20
73.0542372869
 10
31.9057551346
 20
73.0592188131
 10
31.8992331451
 20
73.0640207388
 10
31.8924997004
 20
73.068642731
 10
31.8855582883
 20
73.0730844567
 10
31.8784132243
 20
73.0773452361
 10
31.8710721343
 20
73.0814230011
 10
31.863543472
 20
73.0853153366
 10
31.8558356911
 20
73.0890198274
 10
31.8479559073
 20
73.0925340227
 10
31.8399058855
 20
73.0958553278
 10
31.8316860526
 20
73.0989811123
 10
31.8232968354
 20
73.1019087456
 10
31.8147386609
 20
73.1046355974
 10
31.8060119561
 20
73.1071590371
 10
31.7971171478
 20
73.1094764342
 10
31.788054663
 20
73.1115851583
 10
31.7798586403
 20
73.1132808417
 10
31.7715304078
 20
73.1147991462
 10
31.7630699035
 20
73.1161296487
 10
31.7544770654
 20
73.1172619262
 10
31.7457518316
 20
73.1181855557
 10
31.73689414
 20
73.118890114
 10
31.7279039287
 20
73.1193651781
 10
31.7187811357
 20
73.119600325
 10
31.709525699
 20
73.1195851316
  0
LINE
  5
2CC
100
AcDbEntity
  8
0
100
AcDbLine
 62
7
  6
CONTINUOUS
 10
33.5553225376
 20
60.3872921696
 11
33.5516094966
 21
60.5046607067
  0
LINE
  5
2CD
100
AcDbEntity
  8
ASSI
100
AcDbLine
 62
7
  6
CONTINUOUS
 10
33.5553225376
 20
60.3872921696
 11
33.5516094966
 21
60.5046607067
  0
LINE
  5
2CE
100
AcDbEntity
  8
SMUSSO
100
AcDbLine
 62
7
  6
CONTINUOUS
 10
30.4909106445
 20
148.5861791992
 11
30.4909106445
 21
59.5861791992
  0
LINE
  5
2CF
100
AcDbEntity
  8
0
100
AcDbLine
 62
7
  6
CONTINUOUS
 10
30.6409106445
 20
59.7355595109
 11
30.6409106445
 21
148.4367988875
  0
LINE
  5
2D0
100
AcDbEntity
  8
ASSI
100
AcDbLine
 62
7
  6
CONTINUOUS
 10
30.6409106445
 20
59.7355595109
 11
30.6409106445
 21
148.4367988875
  0
LINE
  5
2D1
100
AcDbEntity
  8
0
100
AcDbLine
 62
250
  6
CONTINUOUS
 10
31.1594446445
 20
67.9250381992
 11
31.1594446445
 21
68.3216101992
  0
LINE
  5
2D2
100
AcDbEntity
  8
0
100
AcDbLine
 62
250
  6
CONTINUOUS
 10
31.1595586445
 20
71.5036911992
 11
31.1595586445
 21
71.1200551992
  0
LINE
  5
2D3
100
AcDbEntity
  8
0
100
AcDbLine
 62
250
  6
CONTINUOUS
 10
31.1595586445
 20
70.2842131992
 11
31.1595586445
 21
69.8918431992
  0
LINE
  5
2D4
100
AcDbEntity
  8
0
100
AcDbLine
 62
250
  6
CONTINUOUS
 10
31.1595586445
 20
69.1028871992
 11
31.1595586445
 21
68.7066431992
  0
LINE
  5
2D5
100
AcDbEntity
  8
0
100
AcDbLine
 62
250
  6
CONTINUOUS
 10
31.1595586445
 20
67.7778691992
 11
31.1595586445
 21
67.3815681992
  0
LINE
  5
2D6
100
AcDbEntity
  8
0
100
AcDbLine
 62
250
  6
CONTINUOUS
 10
31.1595586445
 20
66.6462151992
 11
31.1595586445
 21
66.2154151992
  0
LINE
  5
2D7
100
AcDbEntity
  8
0
100
AcDbLine
 62
250
  6
CONTINUOUS
 10
32.0047609088
 20
72.5848907023
 11
32.0047609088
 21
72.8115278551
  0
LINE
  5
2D8
100
AcDbEntity
  8
0
100
AcDbLine
 62
250
  6
CONTINUOUS
 10
32.315909728
 20
72.8106730507
 11
32.315909728
 21
72.5980404441
  0
LINE
  5
2D9
100
AcDbEntity
  8
0
100
AcDbLine
 62
250
  6
CONTINUOUS
 10
32.3866446445
 20
71.4866521992
 11
32.3866446445
 21
71.1069621992
  0
LINE
  5
2DA
100
AcDbEntity
  8
0
100
AcDbLine
 62
250
  6
CONTINUOUS
 10
32.6801276445
 20
71.0258411992
 11
32.6801276445
 21
71.5659071992
  0
LINE
  5
2DB
100
AcDbEntity
  8
0
100
AcDbLine
 62
250
  6
CONTINUOUS
 10
33.0594043905
 20
73.5867927496
 11
33.0594043905
 21
73.2053362645
  0
LINE
  5
2DC
100
AcDbEntity
  8
0
100
AcDbLine
 62
250
  6
CONTINUOUS
 10
33.0594043905
 20
72.5980404441
 11
33.0594043905
 21
72.203063802
  0
LINE
  5
2DD
100
AcDbEntity
  8
0
100
AcDbLine
 62
250
  6
CONTINUOUS
 10
33.0594046445
 20
68.3216101992
 11
33.0594046445
 21
67.9250381992
  0
LINE
  5
2DE
100
AcDbEntity
  8
0
100
AcDbLine
 62
250
  6
CONTINUOUS
 10
33.0594046445
 20
66.8177031992
 11
33.0594046445
 21
67.1671831992
  0
LINE
  5
2DF
100
AcDbEntity
  8
0
100
AcDbLine
 62
250
  6
CONTINUOUS
 10
33.0594046445
 20
68.5350981992
 11
33.0594046445
 21
68.9144881992
  0
LINE
  5
2E0
100
AcDbEntity
  8
0
100
AcDbLine
 62
250
  6
CONTINUOUS
 10
33.0594046445
 20
69.4652961992
 11
33.0594046445
 21
69.5209151992
  0
LINE
  5
2E1
100
AcDbEntity
  8
0
100
AcDbLine
 62
250
  6
CONTINUOUS
 10
33.0594046445
 20
70.0739171992
 11
33.0594046445
 21
70.4618701992
  0
LINE
  5
2E2
100
AcDbEntity
  8
0
100
AcDbLine
 62
250
  6
CONTINUOUS
 10
33.0594046445
 20
70.5241421992
 11
33.0594046445
 21
70.9164121992
  0
LINE
  5
2E3
100
AcDbEntity
  8
0
100
AcDbLine
 62
250
  6
CONTINUOUS
 10
33.0594046445
 20
71.6686401992
 11
33.0594046445
 21
72.0866111992
  0
LWPOLYLINE
  5
2E4
100
AcDbEntity
  8
0
100
AcDbPolyline
 62
7
  6
CONTINUOUS
 90
16
 70
0
 10
33.5590166978
 20
147.9488924263
 10
33.5597103694
 20
147.9993858016
 10
33.5601321582
 20
148.0474870433
 10
33.5602743986
 20
148.0930110645
 10
33.5601321582
 20
148.1357803226
 10
33.5597103695
 20
148.1756278701
 10
33.5590166978
 20
148.2123998213
 10
33.5580474041
 20
148.245952501
 10
33.55680844
 20
148.2761542766
 10
33.5553225377
 20
148.3028873121
 10
33.5535873062
 20
148.3260467218
 10
33.5516094967
 20
148.3455409482
 10
33.5494260686
 20
148.3612925513
 10
33.5470514701
 20
148.373238925
 10
33.5444776297
 20
148.3813326399
 10
33.5417082034
 20
148.3855411521
  0
LWPOLYLINE
  5
2E5
100
AcDbEntity
  8
ASSI
100
AcDbPolyline
 62
7
  6
CONTINUOUS
 90
16
 70
0
 10
33.5590166978
 20
147.9488924263
 10
33.5597103694
 20
147.9993858016
 10
33.5601321582
 20
148.0474870433
 10
33.5602743986
 20
148.0930110645
 10
33.5601321582
 20
148.1357803226
 10
33.5597103695
 20
148.1756278701
 10
33.5590166978
 20
148.2123998213
 10
33.5580474041
 20
148.245952501
 10
33.55680844
 20
148.2761542766
 10
33.5553225377
 20
148.3028873121
 10
33.5535873062
 20
148.3260467218
 10
33.5516094967
 20
148.3455409482
 10
33.5494260686
 20
148.3612925513
 10
33.5470514701
 20
148.373238925
 10
33.5444776297
 20
148.3813326399
 10
33.5417082034
 20
148.3855411521
  0
LINE
  5
2E6
100
AcDbEntity
  8
0
100
AcDbLine
 62
7
  6
CONTINUOUS
 10
33.55680844
 20
147.8415244418
 11
33.5590166978
 21
147.9488924263
  0
LINE
  5
2E7
100
AcDbEntity
  8
ASSI
100
AcDbLine
 62
7
  6
CONTINUOUS
 10
33.55680844
 20
147.8415244418
 11
33.5590166978
 21
147.9488924263
  0
LINE
  5
2E8
100
AcDbEntity
  8
0
100
AcDbLine
 62
7
  6
CONTINUOUS
 10
33.5535873061
 20
147.7270484305
 11
33.55680844
 21
147.8415244418
  0
LINE
  5
2E9
100
AcDbEntity
  8
ASSI
100
AcDbLine
 62
7
  6
CONTINUOUS
 10
33.5535873061
 20
147.7270484305
 11
33.55680844
 21
147.8415244418
  0
LINE
  5
2EA
100
AcDbEntity
  8
0
100
AcDbLine
 62
7
  6
CONTINUOUS
 10
33.5494260685
 20
147.6072445131
 11
33.5535873061
 21
147.7270484305
  0
LINE
  5
2EB
100
AcDbEntity
  8
ASSI
100
AcDbLine
 62
7
  6
CONTINUOUS
 10
33.5494260685
 20
147.6072445131
 11
33.5535873061
 21
147.7270484305
  0
LWPOLYLINE
  5
2EC
100
AcDbEntity
  8
0
100
AcDbPolyline
 62
7
  6
CONTINUOUS
 90
3
 70
0
 10
33.5417082034
 20
147.421645169
 10
33.5444776296
 20
147.4839773624
 10
33.5494260685
 20
147.6072445131
  0
LWPOLYLINE
  5
2ED
100
AcDbEntity
  8
ASSI
100
AcDbPolyline
 62
7
  6
CONTINUOUS
 90
3
 70
0
 10
33.5417082034
 20
147.421645169
 10
33.5444776296
 20
147.4839773624
 10
33.5494260685
 20
147.6072445131
  0
LINE
  5
2EE
100
AcDbEntity
  8
0
100
AcDbLine
 62
7
  6
CONTINUOUS
 10
33.5409106445
 20
147.3863315041
 11
33.5409106445
 21
60.7860268944
  0
LINE
  5
2EF
100
AcDbEntity
  8
ASSI
100
AcDbLine
 62
7
  6
CONTINUOUS
 10
33.5409106445
 20
147.3863315041
 11
33.5409106445
 21
60.7860268944
  0
LINE
  5
2F0
100
AcDbEntity
  8
0
100
AcDbLine
 62
7
  6
CONTINUOUS
 10
35.0409106445
 20
147.1861791992
 11
35.0409106445
 21
60.9865559415
  0
LINE
  5
2F1
100
AcDbEntity
  8
ASSI
100
AcDbLine
 62
7
  6
CONTINUOUS
 10
35.0409106445
 20
147.1861791992
 11
35.0409106445
 21
60.9865559415
  0
LINE
  5
2F2
100
AcDbEntity
  8
0
100
AcDbLine
 62
250
  6
CONTINUOUS
 10
35.9667479955
 20
76.936284971
 11
35.9666832283
 21
77.1584999553
  0
LINE
  5
2F3
100
AcDbEntity
  8
ASSI
100
AcDbLine
 62
250
  6
CONTINUOUS
 10
35.9667479955
 20
76.936284971
 11
35.9666832283
 21
77.1584999553
  0
LINE
  5
2F4
100
AcDbEntity
  8
0
100
AcDbLine
 62
250
  6
CONTINUOUS
 10
35.9666832283
 20
131.0138584431
 11
35.9667478788
 21
131.2360716312
  0
LINE
  5
2F5
100
AcDbEntity
  8
ASSI
100
AcDbLine
 62
250
  6
CONTINUOUS
 10
35.9666832283
 20
131.0138584431
 11
35.9667478788
 21
131.2360716312
  0
LWPOLYLINE
  5
2F6
100
AcDbEntity
  8
0
100
AcDbPolyline
 62
7
  6
CONTINUOUS
 90
5
 70
0
 10
38.0409106445
 20
130.1324959924
 10
38.0400905367
 20
130.1232455017
 10
38.0376594891
 20
130.1130448689
 10
38.0336705875
 20
130.101894094
 10
38.0281883004
 20
130.089793177
  0
LWPOLYLINE
  5
2F7
100
AcDbEntity
  8
ASSI
100
AcDbPolyline
 62
7
  6
CONTINUOUS
 90
5
 70
0
 10
38.0409106445
 20
130.1324959924
 10
38.0400905367
 20
130.1232455017
 10
38.0376594891
 20
130.1130448689
 10
38.0336705875
 20
130.101894094
 10
38.0281883004
 20
130.089793177
  0
LWPOLYLINE
  5
2F8
100
AcDbEntity
  8
0
100
AcDbPolyline
 62
250
  6
CONTINUOUS
 90
24
 70
0
 10
31.472031361
 20
72.8955593096
 10
31.470445243
 20
72.8809641403
 10
31.4690723761
 20
72.8663524563
 10
31.4679122677
 20
72.8517264293
 10
31.4669644253
 20
72.837088231
 10
31.4662283565
 20
72.8224400329
 10
31.4657035688
 20
72.8077840067
 10
31.4653895696
 20
72.793122324
 10
31.4652874001
 20
72.7802895281
 10
31.4653462342
 20
72.767450174
 10
31.4655660679
 20
72.7546003718
 10
31.4659468969
 20
72.7417362314
 10
31.4664894053
 20
72.7288533041
 10
31.4671970306
 20
72.7159449063
 10
31.4680738986
 20
72.7030037955
 10
31.4691241349
 20
72.6900227294
 10
31.4703499767
 20
72.6769968013
 10
31.4717461059
 20
72.6639304482
 10
31.473305316
 20
72.6508304424
 10
31.4750204002
 20
72.6377035566
 10
31.4768829155
 20
72.6245538764
 10
31.4788794738
 20
72.6113747398
 10
31.4809954505
 20
72.5981567981
 10
31.4832162213
 20
72.5848907023
  0
LWPOLYLINE
  5
2F9
100
AcDbEntity
  8
0
100
AcDbPolyline
 62
250
  6
CONTINUOUS
 90
3
 70
0
 10
37.4910393065
 20
130.4251759201
 10
37.4910034219
 20
130.4271004492
 10
37.4909598767
 20
130.4277430596
  0
LWPOLYLINE
  5
2FA
100
AcDbEntity
  8
ASSI
100
AcDbPolyline
 62
250
  6
CONTINUOUS
 90
3
 70
0
 10
37.4910393065
 20
130.4251759201
 10
37.4910034219
 20
130.4271004492
 10
37.4909598767
 20
130.4277430596
  0
LINE
  5
2FB
100
AcDbEntity
  8
0
100
AcDbLine
 62
250
  6
CONTINUOUS
 10
37.4910875133
 20
130.4175195038
 11
37.4910393065
 21
130.4251759201
  0
LINE
  5
2FC
100
AcDbEntity
  8
ASSI
100
AcDbLine
 62
250
  6
CONTINUOUS
 10
37.4910875133
 20
130.4175195038
 11
37.4910393065
 21
130.4251759201
  0
LINE
  5
2FD
100
AcDbEntity
  8
0
100
AcDbLine
 62
250
  6
CONTINUOUS
 10
37.7566114314
 20
129.4577492779
 11
37.7566114314
 21
129.4360593643
  0
LINE
  5
2FE
100
AcDbEntity
  8
ASSI
100
AcDbLine
 62
250
  6
CONTINUOUS
 10
37.7566114314
 20
129.4577492779
 11
37.7566114314
 21
129.4360593643
  0
LINE
  5
2FF
100
AcDbEntity
  8
0
100
AcDbLine
 62
250
  6
CONTINUOUS
 10
37.7566114314
 20
78.7362990341
 11
37.7566114314
 21
78.7146091205
  0
LINE
  5
300
100
AcDbEntity
  8
ASSI
100
AcDbLine
 62
250
  6
CONTINUOUS
 10
37.7566114314
 20
78.7362990341
 11
37.7566114314
 21
78.7146091205
  0
LINE
  5
301
100
AcDbEntity
  8
0
100
AcDbLine
 62
250
  6
CONTINUOUS
 10
37.8513778358
 20
129.9661658669
 11
37.8513778358
 21
129.4672259183
  0
LINE
  5
302
100
AcDbEntity
  8
ASSI
100
AcDbLine
 62
250
  6
CONTINUOUS
 10
37.8513778358
 20
129.9661658669
 11
37.8513778358
 21
129.4672259183
  0
LINE
  5
303
100
AcDbEntity
  8
0
100
AcDbLine
 62
250
  6
CONTINUOUS
 10
37.8513778358
 20
78.7051324801
 11
37.8513778358
 21
78.2061925316
  0
LINE
  5
304
100
AcDbEntity
  8
ASSI
100
AcDbLine
 62
250
  6
CONTINUOUS
 10
37.8513778358
 20
78.7051324801
 11
37.8513778358
 21
78.2061925316
  0
LINE
  5
305
100
AcDbEntity
  8
0
100
AcDbLine
 62
7
  6
CONTINUOUS
 10
38.0409106445
 20
130.238540406
 11
38.0409106445
 21
129.438540406
  0
LINE
  5
306
100
AcDbEntity
  8
ASSI
100
AcDbLine
 62
7
  6
CONTINUOUS
 10
38.0409106445
 20
130.238540406
 11
38.0409106445
 21
129.438540406
  0
LINE
  5
307
100
AcDbEntity
  8
0
100
AcDbLine
 62
7
  6
CONTINUOUS
 10
38.0409106445
 20
78.7338179925
 11
38.0409106445
 21
77.9338179925
  0
LINE
  5
308
100
AcDbEntity
  8
ASSI
100
AcDbLine
 62
7
  6
CONTINUOUS
 10
38.0409106445
 20
78.7338179925
 11
38.0409106445
 21
77.9338179925
  0
LINE
  5
309
100
AcDbEntity
  8
0
100
AcDbLine
 62
250
  6
CONTINUOUS
 10
37.4910996289
 20
77.7605380052
 11
37.4909598767
 21
77.8324818175
  0
LINE
  5
30A
100
AcDbEntity
  8
ASSI
100
AcDbLine
 62
250
  6
CONTINUOUS
 10
37.4910996289
 20
77.7605380052
 11
37.4909598767
 21
77.8324818175
  0
LINE
  5
30B
100
AcDbEntity
  8
0
100
AcDbLine
 62
250
  6
CONTINUOUS
 10
37.4910673694
 20
130.3771819517
 11
37.4910875133
 21
130.4175195038
  0
LINE
  5
30C
100
AcDbEntity
  8
ASSI
100
AcDbLine
 62
250
  6
CONTINUOUS
 10
37.4910673694
 20
130.3771819517
 11
37.4910875133
 21
130.4175195038
  0
LINE
  5
30D
100
AcDbEntity
  8
0
100
AcDbLine
 62
250
  6
CONTINUOUS
 10
37.4909598767
 20
130.3398765809
 11
37.4910673694
 21
130.3771819517
  0
LINE
  5
30E
100
AcDbEntity
  8
ASSI
100
AcDbLine
 62
250
  6
CONTINUOUS
 10
37.4909598767
 20
130.3398765809
 11
37.4910673694
 21
130.3771819517
  0
LWPOLYLINE
  5
30F
100
AcDbEntity
  8
0
100
AcDbPolyline
 62
7
  6
CONTINUOUS
 90
4
 70
0
 43
0.3500000006
 10
39.6968987274
 20
162.1933284302
 10
39.6968987274
 20
162.8361818848
 10
41.1968991852
 20
162.8361818848
 10
40.3397567139
 20
159.8361809692
  0
LWPOLYLINE
  5
310
100
AcDbEntity
  8
0
100
AcDbPolyline
 62
7
  6
CONTINUOUS
 90
13
 70
0
 43
0.3500000006
 10
41.2486303711
 20
168.6933213501
 10
41.2486303711
 20
169.9790282593
 10
41.462914856
 20
170.4076153564
 10
41.8914883575
 20
170.8361843262
 10
42.1057728424
 20
170.8361843262
 10
42.534346344
 20
170.4076153564
 10
42.7486308289
 20
169.9790282593
 10
42.7486308289
 20
168.6933213501
 10
42.534346344
 20
168.2647523804
 10
42.1057728424
 20
167.8361834106
 10
41.8914883575
 20
167.8361834106
 10
41.462914856
 20
168.2647523804
 10
41.2486303711
 20
168.6933213501
  0
LWPOLYLINE
  5
311
100
AcDbEntity
  8
0
100
AcDbPolyline
 62
250
  6
CONTINUOUS
 90
5
 70
0
 10
37.4909598767
 20
77.7446153389
 10
37.4910034219
 20
77.7452579492
 10
37.4910393065
 20
77.7471824784
 10
37.491067377
 20
77.7503806848
 10
37.4910996289
 20
77.7605380052
  0
LWPOLYLINE
  5
312
100
AcDbEntity
  8
ASSI
100
AcDbPolyline
 62
250
  6
CONTINUOUS
 90
5
 70
0
 10
37.4909598767
 20
77.7446153389
 10
37.4910034219
 20
77.7452579492
 10
37.4910393065
 20
77.7471824784
 10
37.491067377
 20
77.7503806848
 10
37.4910996289
 20
77.7605380052
  0
LWPOLYLINE
  5
313
100
AcDbEntity
  8
0
100
AcDbPolyline
 62
250
  6
CONTINUOUS
 90
83
 70
0
 10
31.2017830809
 20
73.1818142388
 10
31.206158874
 20
73.1932128784
 10
31.2111065035
 20
73.204730036
 10
31.2166458339
 20
73.2163868632
 10
31.2227967294
 20
73.2282045118
 10
31.2295790544
 20
73.2402041335
 10
31.2370126732
 20
73.2524068802
 10
31.2451107829
 20
73.2648174662
 10
31.2538599115
 20
73.2773748569
 10
31.2632399193
 20
73.2900015801
 10
31.2732306671
 20
73.3026201638
 10
31.2838120155
 20
73.3151531359
 10
31.2949638249
 20
73.3275230244
 10
31.3066664639
 20
73.3396592089
 10
31.3189023324
 20
73.351518476
 10
31.3316543384
 20
73.363064464
 10
31.3449053896
 20
73.3742608114
 10
31.358638394
 20
73.3850711564
 10
31.3728362593
 20
73.3954591373
 10
31.3874740169
 20
73.4053894836
 10
31.402495191
 20
73.4148312883
 10
31.4178354294
 20
73.4237547356
 10
31.4334303798
 20
73.4321300097
 10
31.4492156899
 20
73.4399272946
 10
31.4651270074
 20
73.4471167746
 10
31.4811061482
 20
73.4536772806
 10
31.4971196008
 20
73.4596222304
 10
31.513140022
 20
73.4649736888
 10
31.5291400683
 20
73.4697537204
 10
31.5450923965
 20
73.4739843901
 10
31.5609696632
 20
73.4776877624
 10
31.5798826741
 20
73.481468369
 10
31.5985882001
 20
73.4845687202
 10
31.6170262193
 20
73.4870360956
 10
31.6351367099
 20
73.4889177746
 10
31.6528596497
 20
73.490261037
 10
31.6701462346
 20
73.491109754
 10
31.6869925313
 20
73.4914941644
 10
31.7034058245
 20
73.4914410988
 10
31.7193933988
 20
73.4909773878
 10
31.7349625386
 20
73.4901298619
 10
31.7501208437
 20
73.4889240573
 10
31.7648771746
 20
73.4873803322
 10
31.7792407069
 20
73.4855177505
 10
31.7932206165
 20
73.4833553761
 10
31.8068260788
 20
73.4809122728
 10
31.8233216459
 20
73.4774906368
 10
31.8392723586
 20
73.4736852362
 10
31.8547040995
 20
73.4695211582
 10
31.8696427508
 20
73.4650234899
 10
31.8841087086
 20
73.4602185398
 10
31.8981004242
 20
73.4551375028
 10
31.9116108622
 20
73.4498127951
 10
31.9246329874
 20
73.444276833
 10
31.9371637475
 20
73.4385593863
 10
31.9492160206
 20
73.4326796393
 10
31.9608066679
 20
73.4266541296
 10
31.9719525505
 20
73.420499395
 10
31.9861466534
 20
73.4121197709
 10
31.9995938449
 20
73.4035737442
 10
32.012307931
 20
73.394895245
 10
32.0243069341
 20
73.3861167326
 10
32.0356257412
 20
73.3772647828
 10
32.0463034551
 20
73.3683645007
 10
32.0563802416
 20
73.359443919
 10
32.0659005165
 20
73.3505427817
 10
32.0749097581
 20
73.3417037605
 10
32.0834517781
 20
73.3329659676
 10
32.0915637205
 20
73.3243542771
 10
32.0992810627
 20
73.3158900034
 10
32.1048316904
 20
73.3096498046
 10
32.1101966929
 20
73.3035041611
 10
32.1204186299
 20
73.2915129845
 10
32.1300093612
 20
73.2799703843
 10
32.1390186697
 20
73.2687201933
 10
32.1432468786
 20
73.2630488085
 10
32.1471905422
 20
73.2573349009
 10
32.1507585229
 20
73.2516033642
 10
32.1538923422
 20
73.2458619411
 10
32.1565458852
 20
73.2401095938
 10
32.1586898329
 20
73.234327315
 10
32.1602988622
 20
73.2284982105
 10
32.161346837
 20
73.2226318079
  0
LWPOLYLINE
  5
314
100
AcDbEntity
  8
0
100
AcDbPolyline
 62
250
  6
CONTINUOUS
 90
41
 70
0
 10
32.1725732688
 20
73.2226318079
 10
32.1752259396
 20
73.2289835137
 10
32.1781052417
 20
73.2352956036
 10
32.181216459
 20
73.2415716537
 10
32.1845648751
 20
73.2478152403
 10
32.1881562041
 20
73.2540296112
 10
32.1919978809
 20
73.2602167018
 10
32.1960977709
 20
73.2663781189
 10
32.2004637391
 20
73.2725154695
 10
32.2051013579
 20
73.278627904
 10
32.2100070275
 20
73.2847047452
 10
32.2151748551
 20
73.2907328597
 10
32.220598948
 20
73.2966991136
 10
32.2262724077
 20
73.302591161
 10
32.232184312
 20
73.3083998063
 10
32.2383227328
 20
73.314116642
 10
32.2446757423
 20
73.3197332601
 10
32.2512339382
 20
73.3252435396
 10
32.2579980219
 20
73.3306505055
 10
32.2649712202
 20
73.3359594696
 10
32.2721567603
 20
73.3411757436
 10
32.2795563293
 20
73.346303379
 10
32.2871654539
 20
73.3513413867
 10
32.294978121
 20
73.3562875176
 10
32.3029883175
 20
73.3611395224
 10
32.3123777798
 20
73.3665672059
 10
32.3220131681
 20
73.3718697154
 10
32.3318902647
 20
73.3770477549
 10
32.3420048519
 20
73.3821020284
 10
32.3523527119
 20
73.3870332398
 10
32.3629296273
 20
73.3918420931
 10
32.3737313802
 20
73.3965292922
 10
32.3866113625
 20
73.4018448139
 10
32.3997813018
 20
73.4069964719
 10
32.4132308671
 20
73.411985029
 10
32.4269497273
 20
73.4168112482
 10
32.4409275511
 20
73.4214758923
 10
32.4551540075
 20
73.4259797242
 10
32.4696191448
 20
73.4303307451
 10
32.4843145284
 20
73.434565909
 10
32.4992321033
 20
73.438729408
  0
LINE
  5
315
100
AcDbEntity
  8
0
100
AcDbLine
 62
7
  6
CONTINUOUS
 10
35.3409106445
 20
78.8861791992
 11
35.4909106445
 21
79.0361791992
  0
LINE
  5
316
100
AcDbEntity
  8
ASSI
100
AcDbLine
 62
7
  6
CONTINUOUS
 10
35.3409106445
 20
78.8861791992
 11
35.4909106445
 21
79.0361791992
  0
LINE
  5
317
100
AcDbEntity
  8
0
100
AcDbLine
 62
7
  6
CONTINUOUS
 10
35.3409106445
 20
129.2861791992
 11
35.4909106445
 21
129.1361791992
  0
LINE
  5
318
100
AcDbEntity
  8
ASSI
100
AcDbLine
 62
7
  6
CONTINUOUS
 10
35.3409106445
 20
129.2861791992
 11
35.4909106445
 21
129.1361791992
  0
LWPOLYLINE
  5
319
100
AcDbEntity
  8
0
100
AcDbPolyline
 62
7
  6
CONTINUOUS
 90
18
 70
0
 10
33.5417082034
 20
59.7868172463
 10
33.5444776296
 20
59.7910257582
 10
33.5470514699
 20
59.7991194726
 10
33.5494260683
 20
59.8110658457
 10
33.5516094965
 20
59.8268174485
 10
33.553587306
 20
59.8463116748
 10
33.5553225375
 20
59.8694710846
 10
33.5568084399
 20
59.8962041203
 10
33.558047404
 20
59.9264058959
 10
33.5590166978
 20
59.9599585759
 10
33.5597103694
 20
59.9967305273
 10
33.5601321582
 20
60.0365780751
 10
33.5602743986
 20
60.0793473334
 10
33.5601321582
 20
60.1248713549
 10
33.5597103694
 20
60.1729725969
 10
33.5590166978
 20
60.2234659723
 10
33.558047404
 20
60.2761549296
 10
33.5553225376
 20
60.3872921696
  0
LWPOLYLINE
  5
31A
100
AcDbEntity
  8
ASSI
100
AcDbPolyline
 62
7
  6
CONTINUOUS
 90
18
 70
0
 10
33.5417082034
 20
59.7868172463
 10
33.5444776296
 20
59.7910257582
 10
33.5470514699
 20
59.7991194726
 10
33.5494260683
 20
59.8110658457
 10
33.5516094965
 20
59.8268174485
 10
33.553587306
 20
59.8463116748
 10
33.5553225375
 20
59.8694710846
 10
33.5568084399
 20
59.8962041203
 10
33.558047404
 20
59.9264058959
 10
33.5590166978
 20
59.9599585759
 10
33.5597103694
 20
59.9967305273
 10
33.5601321582
 20
60.0365780751
 10
33.5602743986
 20
60.0793473334
 10
33.5601321582
 20
60.1248713549
 10
33.5597103694
 20
60.1729725969
 10
33.5590166978
 20
60.2234659723
 10
33.558047404
 20
60.2761549296
 10
33.5553225376
 20
60.3872921696
  0
LINE
  5
31B
100
AcDbEntity
  8
0
100
AcDbLine
 62
250
  6
CONTINUOUS
 10
35.9666832283
 20
77.1584999553
 11
37.0662020881
 21
77.7421441703
  0
LINE
  5
31C
100
AcDbEntity
  8
ASSI
100
AcDbLine
 62
250
  6
CONTINUOUS
 10
35.9666832283
 20
77.1584999553
 11
37.0662020881
 21
77.7421441703
  0
LINE
  5
31D
100
AcDbEntity
  8
0
100
AcDbLine
 62
250
  6
CONTINUOUS
 10
37.4909598767
 20
77.8324818175
 11
38.0130517295
 21
78.1096174818
  0
LINE
  5
31E
100
AcDbEntity
  8
ASSI
100
AcDbLine
 62
250
  6
CONTINUOUS
 10
37.4909598767
 20
77.8324818175
 11
38.0130517295
 21
78.1096174818
  0
LINE
  5
31F
100
AcDbEntity
  8
0
100
AcDbLine
 62
7
  6
CONTINUOUS
 10
36.1059226063
 20
76.9706887077
 11
38.0409106445
 21
77.9978148588
  0
LINE
  5
320
100
AcDbEntity
  8
ASSI
100
AcDbLine
 62
7
  6
CONTINUOUS
 10
36.1059226063
 20
76.9706887077
 11
38.0409106445
 21
77.9978148588
  0
LWPOLYLINE
  5
321
100
AcDbEntity
  8
0
100
AcDbPolyline
 62
250
  6
CONTINUOUS
 90
6
 70
0
 10
37.6298718058
 20
77.7796281145
 10
37.6212494897
 20
77.7759863508
 10
37.6118941977
 20
77.7738228751
 10
37.6018562195
 20
77.7731523418
 10
37.5911881839
 20
77.7739814238
 10
37.5799493895
 20
77.7763084876
  0
LWPOLYLINE
  5
322
100
AcDbEntity
  8
ASSI
100
AcDbPolyline
 62
250
  6
CONTINUOUS
 90
6
 70
0
 10
37.6298718058
 20
77.7796281145
 10
37.6212494897
 20
77.7759863508
 10
37.6118941977
 20
77.7738228751
 10
37.6018562195
 20
77.7731523418
 10
37.5911881839
 20
77.7739814238
 10
37.5799493895
 20
77.7763084876
  0
LINE
  5
323
100
AcDbEntity
  8
0
100
AcDbLine
 62
7
  6
CONTINUOUS
 10
36.0905387424
 20
129.291142009
 11
38.0409106445
 21
129.4861791992
  0
LINE
  5
324
100
AcDbEntity
  8
ASSI
100
AcDbLine
 62
7
  6
CONTINUOUS
 10
36.0905387424
 20
129.291142009
 11
38.0409106445
 21
129.4861791992
  0
LINE
  5
325
100
AcDbEntity
  8
0
100
AcDbLine
 62
7
  6
CONTINUOUS
 10
35.0409106445
 20
129.8419990738
 11
37.8513778358
 21
129.9661658669
  0
LINE
  5
326
100
AcDbEntity
  8
ASSI
100
AcDbLine
 62
7
  6
CONTINUOUS
 10
35.0409106445
 20
129.8419990738
 11
37.8513778358
 21
129.9661658669
  0
LINE
  5
327
100
AcDbEntity
  8
0
100
AcDbLine
 62
7
  6
CONTINUOUS
 10
37.5189739902
 20
129.4339855338
 11
38.0409106445
 21
129.438540406
  0
LINE
  5
328
100
AcDbEntity
  8
ASSI
100
AcDbLine
 62
7
  6
CONTINUOUS
 10
37.5189739902
 20
129.4339855338
 11
38.0409106445
 21
129.438540406
  0
LINE
  5
329
100
AcDbEntity
  8
0
100
AcDbLine
 62
7
  6
CONTINUOUS
 10
35.0409106445
 20
129.1361791992
 11
35.1909106445
 21
129.1361791992
  0
LINE
  5
32A
100
AcDbEntity
  8
ASSI
100
AcDbLine
 62
7
  6
CONTINUOUS
 10
35.0409106445
 20
129.1361791992
 11
35.1909106445
 21
129.1361791992
  0
LINE
  5
32B
100
AcDbEntity
  8
0
100
AcDbLine
 62
7
  6
CONTINUOUS
 10
35.4909106445
 20
129.1361791992
 11
35.6909106445
 21
129.1361791992
  0
LINE
  5
32C
100
AcDbEntity
  8
ASSI
100
AcDbLine
 62
7
  6
CONTINUOUS
 10
35.4909106445
 20
129.1361791992
 11
35.6909106445
 21
129.1361791992
  0
LINE
  5
32D
100
AcDbEntity
  8
0
100
AcDbLine
 62
7
  6
CONTINUOUS
 10
35.0409106445
 20
129.2861791992
 11
35.9910350234
 21
129.2861791992
  0
LINE
  5
32E
100
AcDbEntity
  8
ASSI
100
AcDbLine
 62
7
  6
CONTINUOUS
 10
35.0409106445
 20
129.2861791992
 11
35.9910350234
 21
129.2861791992
  0
LINE
  5
32F
100
AcDbEntity
  8
0
100
AcDbLine
 62
7
  6
CONTINUOUS
 10
38.0409106445
 20
130.238540406
 11
37.9203478775
 21
130.238540406
  0
LINE
  5
330
100
AcDbEntity
  8
ASSI
100
AcDbLine
 62
7
  6
CONTINUOUS
 10
38.0409106445
 20
130.238540406
 11
37.9203478775
 21
130.238540406
  0
LINE
  5
331
100
AcDbEntity
  8
0
100
AcDbLine
 62
250
  6
CONTINUOUS
 10
35.9666832283
 20
131.0138584431
 11
35.0409106445
 21
131.0142766377
  0
LINE
  5
332
100
AcDbEntity
  8
ASSI
100
AcDbLine
 62
250
  6
CONTINUOUS
 10
35.9666832283
 20
131.0138584431
 11
35.0409106445
 21
131.0142766377
  0
LINE
  5
333
100
AcDbEntity
  8
0
100
AcDbLine
 62
7
  6
CONTINUOUS
 10
35.9667478424
 20
131.2363086379
 11
35.0409106445
 21
131.2379245302
  0
LINE
  5
334
100
AcDbEntity
  8
ASSI
100
AcDbLine
 62
7
  6
CONTINUOUS
 10
35.9667478424
 20
131.2363086379
 11
35.0409106445
 21
131.2379245302
  0
LINE
  5
335
100
AcDbEntity
  8
0
100
AcDbLine
 62
250
  6
CONTINUOUS
 10
37.4909598767
 20
130.3398765809
 11
35.0409106445
 21
130.3541305504
  0
LINE
  5
336
100
AcDbEntity
  8
ASSI
100
AcDbLine
 62
250
  6
CONTINUOUS
 10
37.4909598767
 20
130.3398765809
 11
35.0409106445
 21
130.3541305504
  0
LINE
  5
337
100
AcDbEntity
  8
0
100
AcDbLine
 62
7
  6
CONTINUOUS
 10
37.4909598767
 20
130.4277430596
 11
35.0409106445
 21
130.441997029
  0
LINE
  5
338
100
AcDbEntity
  8
ASSI
100
AcDbLine
 62
7
  6
CONTINUOUS
 10
37.4909598767
 20
130.4277430596
 11
35.0409106445
 21
130.441997029
  0
LWPOLYLINE
  5
339
100
AcDbEntity
  8
0
100
AcDbPolyline
 62
250
  6
CONTINUOUS
 90
6
 70
0
 10
37.6298718058
 20
130.3927302839
 10
37.621227326
 20
130.3963792007
 10
37.611853036
 20
130.3985415262
 10
37.6018009523
 20
130.3992056152
 10
37.5911272689
 20
130.3983681791
 10
37.5798907499
 20
130.3960342273
  0
LWPOLYLINE
  5
33A
100
AcDbEntity
  8
ASSI
100
AcDbPolyline
 62
250
  6
CONTINUOUS
 90
6
 70
0
 10
37.6298718058
 20
130.3927302839
 10
37.621227326
 20
130.3963792007
 10
37.611853036
 20
130.3985415262
 10
37.6018009523
 20
130.3992056152
 10
37.5911272689
 20
130.3983681791
 10
37.5798907499
 20
130.3960342273
  0
LINE
  5
33B
100
AcDbEntity
  8
0
100
AcDbLine
 62
250
  6
CONTINUOUS
 10
37.0662020881
 20
130.4302142281
 11
35.9666832283
 21
131.0138584431
  0
LINE
  5
33C
100
AcDbEntity
  8
ASSI
100
AcDbLine
 62
250
  6
CONTINUOUS
 10
37.0662020881
 20
130.4302142281
 11
35.9666832283
 21
131.0138584431
  0
LINE
  5
33D
100
AcDbEntity
  8
0
100
AcDbLine
 62
250
  6
CONTINUOUS
 10
38.0130517295
 20
130.0627409167
 11
37.4909598767
 21
130.3398765809
  0
LINE
  5
33E
100
AcDbEntity
  8
ASSI
100
AcDbLine
 62
250
  6
CONTINUOUS
 10
38.0130517295
 20
130.0627409167
 11
37.4909598767
 21
130.3398765809
  0
LINE
  5
33F
100
AcDbEntity
  8
0
100
AcDbLine
 62
7
  6
CONTINUOUS
 10
38.0409106445
 20
130.1745435396
 11
36.1059226063
 21
131.2016696908
  0
LINE
  5
340
100
AcDbEntity
  8
ASSI
100
AcDbLine
 62
7
  6
CONTINUOUS
 10
38.0409106445
 20
130.1745435396
 11
36.1059226063
 21
131.2016696908
  0
LINE
  5
341
100
AcDbEntity
  8
SMUSSO
100
AcDbLine
 62
7
  6
CONTINUOUS
 10
30.4909106445
 20
59.5861791992
 11
29.9909106445
 21
59.0861791992
  0
LWPOLYLINE
  5
342
100
AcDbEntity
  8
0
100
AcDbPolyline
 62
250
  6
CONTINUOUS
 90
48
 70
0
 10
32.483269075
 20
73.0319099742
 10
32.477282571
 20
73.0295909177
 10
32.4714027353
 20
73.0271704676
 10
32.4656177634
 20
73.0246463136
 10
32.4599158505
 20
73.022016146
 10
32.454285192
 20
73.0192776548
 10
32.4473342981
 20
73.0156999716
 10
32.4404845061
 20
73.0119525927
 10
32.4337440279
 20
73.0080386873
 10
32.4271210753
 20
73.0039614246
 10
32.4206239318
 20
72.999724206
 10
32.414261169
 20
72.9953313612
 10
32.4080414302
 20
72.990787452
 10
32.4019733587
 20
72.9860970401
 10
32.397233827
 20
72.9822422405
 10
32.39260082
 20
72.978298612
 10
32.3880782635
 20
72.9742681681
 10
32.3836700833
 20
72.970152922
 10
32.3793802054
 20
72.965954887
 10
32.3752123002
 20
72.9616759192
 10
32.3711690168
 20
72.9573172445
 10
32.3672527491
 20
72.9528799317
 10
32.3634658907
 20
72.9483650495
 10
32.3598108355
 20
72.9437736665
 10
32.3562899793
 20
72.9391060651
 10
32.3529057264
 20
72.9343593813
 10
32.3496604831
 20
72.9295299649
 10
32.346556656
 20
72.9246141657
 10
32.3435966512
 20
72.9196083334
 10
32.3407829633
 20
72.9145108441
 10
32.3381184386
 20
72.9093281796
 10
32.3356060116
 20
72.9040688478
 10
32.3332486168
 20
72.898741357
 10
32.3310491885
 20
72.8933542152
 10
32.3290098181
 20
72.8879163435
 10
32.3271292233
 20
72.882438316
 10
32.3254052791
 20
72.8769311196
 10
32.3238358599
 20
72.8714057413
 10
32.3224188406
 20
72.8658731683
 10
32.3211517724
 20
72.8603427581
 10
32.3200309122
 20
72.8548173499
 10
32.3190521939
 20
72.8492981537
 10
32.3182115509
 20
72.8437863794
 10
32.3175049169
 20
72.8382832367
 10
32.3168049761
 20
72.831414129
 10
32.3163067069
 20
72.8245377967
 10
32.3160087454
 20
72.8176316379
 10
32.315909728
 20
72.8106730507
  0
LWPOLYLINE
  5
343
100
AcDbEntity
  8
0
100
AcDbPolyline
 62
250
  6
CONTINUOUS
 90
8
 70
0
 10
32.6620364067
 20
73.0904119176
 10
32.6355332313
 20
73.082549312
 10
32.6093298167
 20
73.074570223
 10
32.5834381647
 20
73.0664451495
 10
32.5578702777
 20
73.0581445904
 10
32.5326381577
 20
73.0496390447
 10
32.5077538068
 20
73.0408990113
 10
32.4832292271
 20
73.0318949889
  0
LINE
  5
344
100
AcDbEntity
  8
0
100
AcDbLine
 62
250
  6
CONTINUOUS
 10
33.0244610717
 20
73.1952342748
 11
32.8548988896
 21
73.145607744
  0
LINE
  5
345
100
AcDbEntity
  8
0
100
AcDbLine
 62
250
  6
CONTINUOUS
 10
33.0594043905
 20
73.2053362645
 11
33.0244610717
 21
73.1952342748
  0
LINE
  5
346
100
AcDbEntity
  8
0
100
AcDbLine
 62
250
  6
CONTINUOUS
 10
32.8548988896
 20
73.145607744
 11
32.7892994017
 21
73.1267735546
  0
LINE
  5
347
100
AcDbEntity
  8
SMUSSO
100
AcDbLine
 62
7
  6
CONTINUOUS
 10
30.4909106445
 20
148.5861791992
 11
29.9909106445
 21
149.0861791992
  0
LINE
  5
348
100
AcDbEntity
  8
0
100
AcDbLine
 62
250
  6
CONTINUOUS
 10
31.8188406445
 20
69.0000691992
 11
33.0594046445
 21
69.4652961992
  0
LINE
  5
349
100
AcDbEntity
  8
0
100
AcDbLine
 62
250
  6
CONTINUOUS
 10
32.2143586445
 20
69.4952711992
 11
31.1595586445
 21
69.1028871992
  0
LINE
  5
34A
100
AcDbEntity
  8
0
100
AcDbLine
 62
250
  6
CONTINUOUS
 10
33.0594046445
 20
72.0866111992
 11
31.1595586445
 21
71.5036911992
  0
LINE
  5
34B
100
AcDbEntity
  8
0
100
AcDbLine
 62
7
  6
CONTINUOUS
 10
33.5414643203
 20
59.7866221398
 11
35.0409106445
 21
60.9861791992
  0
LINE
  5
34C
100
AcDbEntity
  8
ASSI
100
AcDbLine
 62
7
  6
CONTINUOUS
 10
33.5414643203
 20
59.7866221398
 11
35.0409106445
 21
60.9861791992
  0
LINE
  5
34D
100
AcDbEntity
  8
0
100
AcDbLine
 62
250
  6
CONTINUOUS
 10
31.1595586445
 20
66.2154151992
 11
33.0594046445
 21
66.8177031992
  0
LINE
  5
34E
100
AcDbEntity
  8
0
100
AcDbLine
 62
7
  6
CONTINUOUS
 10
33.5409106445
 20
148.3861791992
 11
35.0409106445
 21
147.1861791992
  0
LINE
  5
34F
100
AcDbEntity
  8
ASSI
100
AcDbLine
 62
7
  6
CONTINUOUS
 10
33.5409106445
 20
148.3861791992
 11
35.0409106445
 21
147.1861791992
  0
LWPOLYLINE
  5
350
100
AcDbEntity
  8
0
100
AcDbPolyline
 62
7
  6
CONTINUOUS
 90
10
 70
0
 43
0.3500000006
 10
42.6968996429
 20
160.3361720581
 10
42.7683308258
 20
160.1933278198
 10
42.7683308258
 20
160.1218875732
 10
42.6254729919
 20
159.979043335
 10
42.5540418091
 20
159.979043335
 10
42.4826151581
 20
160.0504654541
 10
42.4826151581
 20
160.1218875732
 10
42.5540418091
 20
160.264749939
 10
42.6254729919
 20
160.3361720581
 10
42.6968996429
 20
160.3361720581
  0
LINE
  5
351
100
AcDbEntity
  8
RACCORDO
100
AcDbLine
 62
250
  6
CONTINUOUS
 10
30.4909106445
 20
141.0861791992
 11
30.6409106445
 21
141.0861791992
  0
LINE
  5
352
100
AcDbEntity
  8
RACCORDO
100
AcDbLine
 62
7
  6
CONTINUOUS
 10
30.4909106445
 20
143.0861791992
 11
30.6409106445
 21
143.0861791992
  0
LWPOLYLINE
  5
353
100
AcDbEntity
  8
0
100
AcDbPolyline
 62
7
  6
CONTINUOUS
 90
10
 70
0
 43
0.3500000006
 10
44.2486312866
 20
168.3361744995
 10
44.3200579376
 20
168.1933302612
 10
44.3200579376
 20
168.1218900146
 10
44.1772001038
 20
167.9790276489
 10
44.1057734528
 20
167.9790276489
 10
44.0343468018
 20
168.0504678955
 10
44.0343468018
 20
168.1218900146
 10
44.1057734528
 20
168.2647523804
 10
44.1772001038
 20
168.3361744995
 10
44.2486312866
 20
168.3361744995
  0
LINE
  5
354
100
AcDbEntity
  8
RACCORDO
100
AcDbLine
 62
7
  6
CONTINUOUS
 10
30.4909106445
 20
144.0861791992
 11
30.6409106445
 21
144.0861791992
  0
LINE
  5
355
100
AcDbEntity
  8
SMUSSO
100
AcDbLine
 62
250
  6
CONTINUOUS
 10
27.4909106445
 20
148.0861791992
 11
30.4909106445
 21
148.0861791992
  0
LINE
  5
356
100
AcDbEntity
  8
SMUSSO
100
AcDbLine
 62
7
  6
CONTINUOUS
 10
28.4909106445
 20
149.0861791992
 11
29.9909106445
 21
149.0861791992
  0
LWPOLYLINE
  5
357
100
AcDbEntity
  8
0
100
AcDbPolyline
 62
7
  6
CONTINUOUS
 90
8
 70
0
 43
0.3500000006
 10
43.7683265991
 20
159.8361809692
 10
44.6254736023
 20
159.8361809692
 10
45.054042572
 20
160.264749939
 10
45.054042572
 20
161.1218878784
 10
44.6254736023
 20
161.5504568481
 10
43.7683265991
 20
161.5504568481
 10
43.7683265991
 20
162.8361818848
 10
45.054042572
 20
162.8361818848
  0
LWPOLYLINE
  5
358
100
AcDbEntity
  8
0
100
AcDbPolyline
 62
7
  6
CONTINUOUS
 90
8
 70
0
 43
0.3500000006
 10
45.9111850433
 20
159.8361809692
 10
46.7683275146
 20
159.8361809692
 10
47.1969010162
 20
160.264749939
 10
47.1969010162
 20
161.1218878784
 10
46.7683275146
 20
161.5504568481
 10
45.9111850433
 20
161.5504568481
 10
45.9111850433
 20
162.8361818848
 10
47.1969010162
 20
162.8361818848
  0
LWPOLYLINE
  5
359
100
AcDbEntity
  8
0
100
AcDbPolyline
 62
7
  6
CONTINUOUS
 90
8
 70
0
 43
0.3500000006
 10
45.3200582428
 20
167.8361834106
 10
46.1772007141
 20
167.8361834106
 10
46.6057742157
 20
168.2647523804
 10
46.6057742157
 20
169.1218903198
 10
46.1772007141
 20
169.5504592896
 10
45.3200582428
 20
169.5504592896
 10
45.3200582428
 20
170.8361843262
 10
46.6057742157
 20
170.8361843262
  0
LWPOLYLINE
  5
35A
100
AcDbEntity
  8
0
100
AcDbPolyline
 62
7
  6
CONTINUOUS
 90
8
 70
0
 43
0.3500000006
 10
47.462916687
 20
167.8361834106
 10
48.3200591583
 20
167.8361834106
 10
48.7486281281
 20
168.2647523804
 10
48.7486281281
 20
169.1218903198
 10
48.3200591583
 20
169.5504592896
 10
47.462916687
 20
169.5504592896
 10
47.462916687
 20
170.8361843262
 10
48.7486281281
 20
170.8361843262
  0
LINE
  5
35B
100
AcDbEntity
  8
0
100
AcDbLine
 62
250
  6
CONTINUOUS
 10
30.6409106445
 20
147.4369511924
 11
33.5409106445
 21
147.3863315041
  0
LINE
  5
35C
100
AcDbEntity
  8
ASSI
100
AcDbLine
 62
250
  6
CONTINUOUS
 10
30.6409106445
 20
147.4369511924
 11
33.5409106445
 21
147.3863315041
  0
LINE
  5
35D
100
AcDbEntity
  8
0
100
AcDbLine
 62
7
  6
CONTINUOUS
 10
30.6409106445
 20
148.4367988875
 11
33.5409106445
 21
148.3861791992
  0
LINE
  5
35E
100
AcDbEntity
  8
ASSI
100
AcDbLine
 62
7
  6
CONTINUOUS
 10
30.6409106445
 20
148.4367988875
 11
33.5409106445
 21
148.3861791992
  0
LINE
  5
35F
100
AcDbEntity
  8
0
100
AcDbLine
 62
250
  6
CONTINUOUS
 10
33.5417082034
 20
147.421645169
 11
35.0409106445
 21
147.1245824268
  0
LINE
  5
360
100
AcDbEntity
  8
ASSI
100
AcDbLine
 62
250
  6
CONTINUOUS
 10
33.5417082034
 20
147.421645169
 11
35.0409106445
 21
147.1245824268
  0
ARC
  5
361
100
AcDbEntity
  8
RACCORDO
100
AcDbCircle
 62
7
  6
CONTINUOUS
 10
92.0110522461
 20
82.6861791992
 40
1.2
100
AcDbArc
 50
180.0
 51
270.0
  0
ARC
  5
362
100
AcDbEntity
  8
RACCORDO
100
AcDbCircle
 62
7
  6
CONTINUOUS
 10
247.3110522461
 20
82.6861791992
 40
1.2
100
AcDbArc
 50
270.0
 51
360.0
  0
ARC
  5
363
100
AcDbEntity
  8
RACCORDO
100
AcDbCircle
 62
7
  6
CONTINUOUS
 10
247.3110522461
 20
125.4861791992
 40
1.2
100
AcDbArc
 50
0.0
 51
90.0
  0
ARC
  5
364
100
AcDbEntity
  8
RACCORDO
100
AcDbCircle
 62
7
  6
CONTINUOUS
 10
92.0110522461
 20
125.4861791992
 40
1.2
100
AcDbArc
 50
90.0
 51
180.0
  0
ARC
  5
365
100
AcDbEntity
  8
SMUSSO
100
AcDbCircle
 62
7
  6
CONTINUOUS
 10
64.6610522461
 20
148.0861791992
 40
1.0
100
AcDbArc
 50
90.0
 51
180.0
  0
ARC
  5
366
100
AcDbEntity
  8
SMUSSO
100
AcDbCircle
 62
7
  6
CONTINUOUS
 10
64.6610522461
 20
60.0861791992
 40
1.0
100
AcDbArc
 50
180.0
 51
270.0
  0
ARC
  5
367
100
AcDbEntity
  8
SMUSSO
100
AcDbCircle
 62
7
  6
CONTINUOUS
 10
274.6610522461
 20
60.0861791992
 40
1.0
100
AcDbArc
 50
270.0
 51
360.0
  0
ARC
  5
368
100
AcDbEntity
  8
SMUSSO
100
AcDbCircle
 62
7
  6
CONTINUOUS
 10
274.6610522461
 20
148.0861791992
 40
1.0
100
AcDbArc
 50
0.0
 51
90.0
  0
ARC
  5
369
100
AcDbEntity
  8
0
100
AcDbCircle
 62
7
  6
CONTINUOUS
 10
35.9910350234
 20
77.8861791992
 40
1.0
100
AcDbArc
 50
84.2894068625
 51
90.0
  0
ARC
  5
36A
100
AcDbEntity
  8
ASSI
100
AcDbCircle
 62
7
  6
CONTINUOUS
 10
35.9910350234
 20
77.8861791992
 40
1.0
100
AcDbArc
 50
84.2894068625
 51
90.0
  0
ARC
  5
36B
100
AcDbEntity
  8
0
100
AcDbCircle
 62
7
  6
CONTINUOUS
 10
35.9662238295
 20
77.2361796289
 40
0.3
100
AcDbArc
 50
270.1000000226
 51
297.9490718565
  0
ARC
  5
36C
100
AcDbEntity
  8
ASSI
100
AcDbCircle
 62
7
  6
CONTINUOUS
 10
35.9662238295
 20
77.2361796289
 40
0.3
100
AcDbArc
 50
270.1000000226
 51
297.9490718565
  0
ARC
  5
36D
100
AcDbEntity
  8
0
100
AcDbCircle
 62
7
  6
CONTINUOUS
 10
35.9910350234
 20
130.2861791992
 40
1.0
100
AcDbArc
 50
270.0
 51
275.7105931375
  0
ARC
  5
36E
100
AcDbEntity
  8
ASSI
100
AcDbCircle
 62
7
  6
CONTINUOUS
 10
35.9910350234
 20
130.2861791992
 40
1.0
100
AcDbArc
 50
270.0
 51
275.7105931375
  0
ARC
  5
36F
100
AcDbEntity
  8
0
100
AcDbCircle
 62
7
  6
CONTINUOUS
 10
35.9662238295
 20
130.9361787695
 40
0.3
100
AcDbArc
 50
62.0509281435
 51
89.8999999774
  0
ARC
  5
370
100
AcDbEntity
  8
ASSI
100
AcDbCircle
 62
7
  6
CONTINUOUS
 10
35.9662238295
 20
130.9361787695
 40
0.3
100
AcDbArc
 50
62.0509281435
 51
89.8999999774
  0
ARC
  5
371
100
AcDbEntity
  8
0
100
AcDbCircle
 62
7
  6
CONTINUOUS
 10
37.4892145573
 20
78.0446102619
 40
0.3
100
AcDbArc
 50
270.3333333333
 51
297.9601595792
  0
ARC
  5
372
100
AcDbEntity
  8
ASSI
100
AcDbCircle
 62
7
  6
CONTINUOUS
 10
37.4892145573
 20
78.0446102619
 40
0.3
100
AcDbArc
 50
270.3333333333
 51
297.9601595792
  0
ARC
  5
373
100
AcDbEntity
  8
0
100
AcDbCircle
 62
7
  6
CONTINUOUS
 10
37.4892145573
 20
130.1277481365
 40
0.3
100
AcDbArc
 50
62.0398404207
 51
89.6666666667
  0
ARC
  5
374
100
AcDbEntity
  8
ASSI
100
AcDbCircle
 62
7
  6
CONTINUOUS
 10
37.4892145573
 20
130.1277481365
 40
0.3
100
AcDbArc
 50
62.0398404207
 51
89.6666666667
  0
ELLIPSE
  5
375
100
AcDbEntity
  8
0
100
AcDbEllipse
 62
7
  6
CONTINUOUS
 10
34.818987191
 20
147.3637179621
 30
0.0
 11
1.2772653435
 21
-0.0582277698
 31
0.0
 40
0.7819142031
 41
-3.1412917057
 42
-3.1059619589
  0
ELLIPSE
  5
376
100
AcDbEntity
  8
0
100
AcDbEllipse
 62
7
  6
CONTINUOUS
 10
34.818987191
 20
60.8086404364
 30
0.0
 11
1.2772653435
 21
0.0582277698
 31
0.0
 40
0.7819142031
 41
3.1059619589
 42
3.1412917057
  0
ELLIPSE
  5
377
100
AcDbEntity
  8
0
100
AcDbEllipse
 62
7
  6
CONTINUOUS
 10
37.8409106445
 20
130.1659778942
 30
0.0
 11
-0.1417119467
 21
0.1422961243
 31
0.0
 40
0.9918061237
 41
-3.8766878413
 42
-2.8923940429
  0
ELLIPSE
  5
378
100
AcDbEntity
  8
0
100
AcDbEllipse
 62
7
  6
CONTINUOUS
 10
37.8409106445
 20
78.0063805042
 30
0.0
 11
0.1417119467
 21
0.1422961243
 31
0.0
 40
0.9918061237
 41
-0.2491986107
 42
0.7350951877
  0
ELLIPSE
  5
379
100
AcDbEntity
  8
ASSI
100
AcDbEllipse
 62
7
  6
CONTINUOUS
 10
34.818987191
 20
147.3637179621
 30
0.0
 11
1.2772653435
 21
-0.0582277698
 31
0.0
 40
0.7819142031
 41
-3.1412917057
 42
-3.1059619589
  0
ELLIPSE
  5
37A
100
AcDbEntity
  8
ASSI
100
AcDbEllipse
 62
7
  6
CONTINUOUS
 10
34.818987191
 20
60.8086404364
 30
0.0
 11
1.2772653435
 21
0.0582277698
 31
0.0
 40
0.7819142031
 41
3.1059619589
 42
3.1412917057
  0
ELLIPSE
  5
37B
100
AcDbEntity
  8
ASSI
100
AcDbEllipse
 62
7
  6
CONTINUOUS
 10
37.8409106445
 20
130.1659778942
 30
0.0
 11
-0.1417119467
 21
0.1422961243
 31
0.0
 40
0.9918061237
 41
-3.8766878413
 42
-2.8923940429
  0
ELLIPSE
  5
37C
100
AcDbEntity
  8
ASSI
100
AcDbEllipse
 62
7
  6
CONTINUOUS
 10
37.8409106445
 20
78.0063805042
 30
0.0
 11
0.1417119467
 21
0.1422961243
 31
0.0
 40
0.9918061237
 41
-0.2491986107
 42
0.7350951877
  0
ENDSEC
  0
SECTION
  2
OBJECTS
  0
DICTIONARY
  5
C
100
AcDbDictionary
280
0
281
1
  3
ACAD_GROUP
350
D
  3
ACAD_MLINESTYLE
350
17
  3
ACAD_LAYOUT
350
1A
  3
ACAD_PLOTSETTINGS
350
19
  3
ACAD_PLOTSTYLENAME
350
E
  0
DICTIONARY
  5
D
102
{ACAD_REACTORS
330
C
102
}
100
AcDbDictionary
280
0
281
1
  0
ACDBDICTIONARYWDFLT
  5
E
102
{ACAD_REACTORS
330
C
102
}
100
AcDbDictionary
281
1
  3
Normal
350
F
100
AcDbDictionaryWithDefault
340
F
  0
DICTIONARY
  5
17
102
{ACAD_REACTORS
330
C
102
}
100
AcDbDictionary
280
0
281
1
  3
Standard
350
18
  0
DICTIONARY
  5
19
102
{ACAD_REACTORS
330
C
102
}
100
AcDbDictionary
281
1
  0
DICTIONARY
  5
1A
102
{ACAD_REACTORS
330
C
102
}
100
AcDbDictionary
281
1
  3
Model
350
37D
  3
Layout1
350
37E
  0
ACDBPLACEHOLDER
  5
F
102
{ACAD_REACTORS
330
E
102
}
  0
MLINESTYLE
  5
18
102
{ACAD_REACTORS
330
17
102
}
100
AcDbMlineStyle
  2
STANDARD
 70
0
  3

 62
256
 51
90.0
 52
90.0
 71
2
 49
0.5
 62
256
  6
BYLAYER
 49
-0.5
 62
256
  6
BYLAYER
  0
LAYOUT
  5
37D
102
{ACAD_REACTORS
330
1A
102
}
100
AcDbPlotSettings
  1

  2
none_device
  4
ISO_A4_(297.00_x_210.00_MM)
  6

 40
0.0
 41
0.0
 42
0.0
 43
0.0
 44
297.0
 45
210.0
 46
0.0
 47
0.0
 48
0.0
 49
0.0
140
0.0
141
0.0
142
1.0
143
1.0
 70
1024
 72
1
 73
0
 74
0
  7

 75
0
147
1.0
148
0.0
149
0.0
100
AcDbLayout
  1
Model
 70
0
 71
0
 10
0.0
 20
0.0
 11
297.0
 21
210.0
 12
0.0
 22
0.0
 32
0.0
 14
0.0
 24
0.0
 34
0.0
 15
0.0
 25
0.0
 35
0.0
146
0.0
 13
0.0
 23
0.0
 33
0.0
 16
1.0
 26
0.0
 36
0.0
 17
0.0
 27
1.0
 37
0.0
 76
0
330
21B
345
0
346
0
  0
LAYOUT
  5
37E
102
{ACAD_REACTORS
330
1A
102
}
100
AcDbPlotSettings
  1

  2
none_device
  4
ISO_A4_(297.00_x_210.00_MM)
  6

 40
0.0
 41
0.0
 42
0.0
 43
0.0
 44
297.0
 45
210.0
 46
0.0
 47
0.0
 48
0.0
 49
0.0
140
0.0
141
0.0
142
1.0
143
1.0
 70
0
 72
1
 73
0
 74
0
  7

 75
0
147
1.0
148
0.0
149
0.0
100
AcDbLayout
  1
Layout1
 70
0
 71
1
 10
0.0
 20
0.0
 11
297.0
 21
210.0
 12
0.0
 22
0.0
 32
0.0
 14
0.0
 24
0.0
 34
0.0
 15
0.0
 25
0.0
 35
0.0
146
0.0
 13
0.0
 23
0.0
 33
0.0
 16
1.0
 26
0.0
 36
0.0
 17
0.0
 27
1.0
 37
0.0
 76
0
330
21C
345
0
346
0
  0
ENDSEC
  0
EOF
