  0
SECTION
  2
HEADER
  9
$ACADVER
  1
AC1021
  9
$DWGCODEPAGE
  3
ANSI_1252
  9
$EXTMAX
 10
297.0
 20
210.0
 30
0.0
  9
$EXTMIN
 10
0.0
 20
0.0
 30
0.0
  9
$LIMMIN
 10
0.0
 20
0.0
  9
$LIMMAX
 10
297.0
 20
210.0
  9
$VIEWCTR
 10
148.5
 20
105.0
  9
$VIEWSIZE
 40
210.0
  9
$CLAYER
  8
0
  9
$LTSCALE
 40
16.335
  9
$CELTYPE
  6
BYLAYER
  9
$DIMSCALE
 40
1.0
  9
$DIMASZ
 40
3.0
  9
$DIMEXO
 40
0.5
  9
$DIMDLI
 40
11.286
  9
$DIMEXE
 40
1.5
  9
$DIMCEN
 40
2.673
  9
$DIMLFAC
 40
1.0
  9
$DIMBLK
  1
_FILLED
  9
$DIMALT
 70
0
  9
$DIMALTF
 40
25.4
  9
$DIMTXT
 40
3.0
  9
$DIMTOL
 70
1
  9
$DIMLIM
 70
0
  9
$DIMTFAC
 40
1.0
  9
$DIMTP
 40
0.01
  9
$DIMTM
 40
0.01
  9
$DIMGAP
 40
0.625
  9
$DIMDSEP
 70
44
  9
$AUNITS
 70
0
  9
$PDMODE
 70
3
  9
$PDSIZE
 40
3.0
  9
$HANDSEED
  5
32C
  9
$TILEMODE
 70
1
  9
$MEASUREMENT
 70
1
  9
$INSUNITS
 70
4
  0
ENDSEC
  0
SECTION
  2
CLASSES
  0
CLASS
  1
ACDBDICTIONARYWDFLT
  2
AcDbDictionaryWithDefault
  3
AutoCAD 2000
 90
0
 91
1
280
0
281
0
  0
CLASS
  1
ACDBPLACEHOLDER
  2
AcDbPlaceHolder
  3
AutoCAD 2000
 90
0
 91
1
280
0
281
0
  0
CLASS
  1
LAYOUT
  2
AcDbLayout
  3
AutoCAD 2000
 90
0
 91
0
280
0
281
0
  0
ENDSEC
  0
SECTION
  2
TABLES
  0
TABLE
  2
VPORT
  5
8
100
AcDbSymbolTable
 70
2
  0
VPORT
  5
1F4
100
AcDbSymbolTableRecord
100
AcDbViewportTableRecord
  2
*ACTIVE
 70
0
 10
0.0
 20
0.0
 11
1.0
 21
1.0
 12
148.5
 22
105.0
 13
0.0
 23
0.0
 14
1.0
 24
1.0
 15
0.0
 25
0.0
 16
0.0
 26
0.0
 36
1.0
 17
0.0
 27
0.0
 37
0.0
 40
210.0
 41
1.4142857143
 42
50.0
 43
0.0
 44
0.0
 50
0.0
 51
0.0
 71
0
 72
100
 73
1
 74
1
 75
0
 76
0
 77
0
 78
0
  0
ENDTAB
  0
TABLE
  2
LTYPE
  5
5
100
AcDbSymbolTable
 70
6
  0
LTYPE
  5
14
100
AcDbSymbolTableRecord
100
AcDbLinetypeTableRecord
  2
BYBLOCK
 70
0
  3

 72
65
 73
0
 40
0.0
  0
LTYPE
  5
15
100
AcDbSymbolTableRecord
100
AcDbLinetypeTableRecord
  2
BYLAYER
 70
0
  3

 72
65
 73
0
 40
0.0
  0
LTYPE
  5
16
100
AcDbSymbolTableRecord
100
AcDbLinetypeTableRecord
  2
CONTINUOUS
 70
64
  3
Solid line
 72
65
 73
0
 40
0.0
  0
LTYPE
  5
1F5
100
AcDbSymbolTableRecord
100
AcDbLinetypeTableRecord
  2
CENTER
 70
64
  3
____ _ ____ _ ____ _ ____ _ ____ _ ____ _ ____
 72
65
 73
4
 40
0.6
 49
0.375
 74
0
 49
-0.075
 74
0
 49
0.075
 74
0
 49
-0.075
 74
0
  0
LTYPE
  5
1F6
100
AcDbSymbolTableRecord
100
AcDbLinetypeTableRecord
  2
HIDDEN
 70
64
  3
- - - - - - - - - - - - - - - - - - - -
 72
65
 73
2
 40
0.2
 49
0.1
 74
0
 49
-0.1
 74
0
  0
LTYPE
  5
1F7
100
AcDbSymbolTableRecord
100
AcDbLinetypeTableRecord
  2
PHANTOM
 70
64
  3
_____ _ _ _____ _ _ _____ _ _ _____
 72
65
 73
6
 40
0.8
 49
0.45
 74
0
 49
-0.05
 74
0
 49
0.1
 74
0
 49
-0.05
 74
0
 49
0.1
 74
0
 49
-0.05
 74
0
  0
LTYPE
  5
1F8
100
AcDbSymbolTableRecord
100
AcDbLinetypeTableRecord
  2
DOT
 70
64
  3
. . . . . . . . . . . . . . . . . . . .
 72
65
 73
2
 40
0.2
 49
0.1
 74
0
 49
-0.1
 74
0
  0
LTYPE
  5
1F9
100
AcDbSymbolTableRecord
100
AcDbLinetypeTableRecord
  2
DASHED
 70
64
  3
- - - - - - - - - - - - - - - - - - - -
 72
65
 73
2
 40
0.2
 49
0.1
 74
0
 49
-0.1
 74
0
  0
ENDTAB
  0
TABLE
  2
LAYER
  5
2
100
AcDbSymbolTable
 70
36
  0
LAYER
  5
10
100
AcDbSymbolTableRecord
100
AcDbLayerTableRecord
  2
0
 70
0
 62
7
  6
CONTINUOUS
370
-3
390
F
  0
LAYER
  5
1FA
100
AcDbSymbolTableRecord
100
AcDbLayerTableRecord
  2
DEFAULT_1
 70
0
 62
7
  6
CENTER
370
-3
390
F
  0
LAYER
  5
1FB
100
AcDbSymbolTableRecord
100
AcDbLayerTableRecord
  2
DEFAULT_2
 70
0
 62
7
  6
HIDDEN
370
-3
390
F
  0
LAYER
  5
1FC
100
AcDbSymbolTableRecord
100
AcDbLayerTableRecord
  2
DEFAULT_3
 70
0
 62
7
  6
PHANTOM
370
-3
390
F
  0
LAYER
  5
1FD
100
AcDbSymbolTableRecord
100
AcDbLayerTableRecord
  2
ASSI
 70
0
 62
7
  6
CONTINUOUS
370
-3
390
F
  0
LAYER
  5
1FE
100
AcDbSymbolTableRecord
100
AcDbLayerTableRecord
  2
COORDINATE
 70
0
 62
7
  6
CONTINUOUS
370
-3
390
F
  0
LAYER
  5
1FF
100
AcDbSymbolTableRecord
100
AcDbLayerTableRecord
  2
COORD_ORIGINE
 70
0
 62
7
  6
CONTINUOUS
370
-3
390
F
  0
LAYER
  5
200
100
AcDbSymbolTableRecord
100
AcDbLayerTableRecord
  2
COPY_PUBLISH
 70
0
 62
7
  6
CONTINUOUS
370
-3
390
F
  0
LAYER
  5
201
100
AcDbSymbolTableRecord
100
AcDbLayerTableRecord
  2
COSMETIC
 70
0
 62
7
  6
CONTINUOUS
370
-3
390
F
  0
LAYER
  5
202
100
AcDbSymbolTableRecord
100
AcDbLayerTableRecord
  2
COSMETICI
 70
0
 62
7
  6
CONTINUOUS
370
-3
390
F
  0
LAYER
  5
203
100
AcDbSymbolTableRecord
100
AcDbLayerTableRecord
  2
CURVE
 70
0
 62
7
  6
CONTINUOUS
370
-3
390
F
  0
LAYER
  5
204
100
AcDbSymbolTableRecord
100
AcDbLayerTableRecord
  2
CURVE_TASSELLI
 70
0
 62
7
  6
CONTINUOUS
370
-3
390
F
  0
LAYER
  5
205
100
AcDbSymbolTableRecord
100
AcDbLayerTableRecord
  2
DRAFT
 70
0
 62
7
  6
CONTINUOUS
370
-3
390
F
  0
LAYER
  5
206
100
AcDbSymbolTableRecord
100
AcDbLayerTableRecord
  2
IMPORT_IGES
 70
0
 62
7
  6
CONTINUOUS
370
-3
390
F
  0
LAYER
  5
207
100
AcDbSymbolTableRecord
100
AcDbLayerTableRecord
  2
INTFCLR_2
 70
0
 62
7
  6
CONTINUOUS
370
-3
390
F
  0
LAYER
  5
208
100
AcDbSymbolTableRecord
100
AcDbLayerTableRecord
  2
INTF_1
 70
0
 62
7
  6
CONTINUOUS
370
-3
390
F
  0
LAYER
  5
209
100
AcDbSymbolTableRecord
100
AcDbLayerTableRecord
  2
INTF_21
 70
0
 62
7
  6
CONTINUOUS
370
-3
390
F
  0
LAYER
  5
20A
100
AcDbSymbolTableRecord
100
AcDbLayerTableRecord
  2
INTF_7
 70
0
 62
7
  6
CONTINUOUS
370
-3
390
F
  0
LAYER
  5
20B
100
AcDbSymbolTableRecord
100
AcDbLayerTableRecord
  2
NOTE
 70
0
 62
7
  6
CONTINUOUS
370
-3
390
F
  0
LAYER
  5
20C
100
AcDbSymbolTableRecord
100
AcDbLayerTableRecord
  2
PIANI
 70
0
 62
7
  6
CONTINUOUS
370
-3
390
F
  0
LAYER
  5
20D
100
AcDbSymbolTableRecord
100
AcDbLayerTableRecord
  2
PIANI_ORIGINE
 70
0
 62
7
  6
CONTINUOUS
370
-3
390
F
  0
LAYER
  5
20E
100
AcDbSymbolTableRecord
100
AcDbLayerTableRecord
  2
PIANI_RIFERIMENTO
 70
0
 62
7
  6
CONTINUOUS
370
-3
390
F
  0
LAYER
  5
20F
100
AcDbSymbolTableRecord
100
AcDbLayerTableRecord
  2
PUNTI
 70
0
 62
7
  6
CONTINUOUS
370
-3
390
F
  0
LAYER
  5
210
100
AcDbSymbolTableRecord
100
AcDbLayerTableRecord
  2
RACCORDO
 70
0
 62
7
  6
CONTINUOUS
370
-3
390
F
  0
LAYER
  5
211
100
AcDbSymbolTableRecord
100
AcDbLayerTableRecord
  2
RGB__255__255__255__
 70
0
 62
7
  6
CONTINUOUS
370
-3
390
F
  0
LAYER
  5
212
100
AcDbSymbolTableRecord
100
AcDbLayerTableRecord
  2
RGB____0____0____0__
 70
0
 62
7
  6
CONTINUOUS
370
-3
390
F
  0
LAYER
  5
213
100
AcDbSymbolTableRecord
100
AcDbLayerTableRecord
  2
SIMBOLI
 70
0
 62
7
  6
CONTINUOUS
370
-3
390
F
  0
LAYER
  5
214
100
AcDbSymbolTableRecord
100
AcDbLayerTableRecord
  2
SMUSSO
 70
0
 62
7
  6
CONTINUOUS
370
-3
390
F
  0
LAYER
  5
215
100
AcDbSymbolTableRecord
100
AcDbLayerTableRecord
  2
SNAPLINE
 70
0
 62
7
  6
CONTINUOUS
370
-3
390
F
  0
LAYER
  5
216
100
AcDbSymbolTableRecord
100
AcDbLayerTableRecord
  2
SUPERFICI
 70
0
 62
7
  6
CONTINUOUS
370
-3
390
F
  0
LAYER
  5
217
100
AcDbSymbolTableRecord
100
AcDbLayerTableRecord
  2
TRASH
 70
0
 62
7
  6
CONTINUOUS
370
-3
390
F
  0
LAYER
  5
218
100
AcDbSymbolTableRecord
100
AcDbLayerTableRecord
  2
XSEC_DATUMS
 70
0
 62
7
  6
CONTINUOUS
370
-3
390
F
  0
ENDTAB
  0
TABLE
  2
STYLE
  5
3
100
AcDbSymbolTable
 70
1
  0
STYLE
  5
11
100
AcDbSymbolTableRecord
100
AcDbTextStyleTableRecord
  2
STANDARD
 70
0
 40
0.0
 41
0.8
 50
0.0
 71
0
 42
0.2
  3
txt
  4

  0
STYLE
  5
219
100
AcDbSymbolTableRecord
100
AcDbTextStyleTableRecord
  2
TEXTSTYLE_1
 70
0
 40
0.0
 41
0.8
 50
0.0
 71
0
 42
0.2
  3
gdt
  4

  0
ENDTAB
  0
TABLE
  2
VIEW
  5
6
100
AcDbSymbolTable
 70
0
  0
ENDTAB
  0
TABLE
  2
UCS
  5
7
100
AcDbSymbolTable
 70
0
  0
ENDTAB
  0
TABLE
  2
APPID
  5
9
100
AcDbSymbolTable
 70
1
  0
APPID
  5
21A
100
AcDbSymbolTableRecord
100
AcDbRegAppTableRecord
  2
ACAD
 70
0
  0
ENDTAB
  0
TABLE
  2
BLOCK_RECORD
  5
1
100
AcDbSymbolTable
 70
0
  0
BLOCK_RECORD
  5
21B
100
AcDbSymbolTableRecord
100
AcDbBlockTableRecord
  2
*Model_Space
  0
BLOCK_RECORD
  5
21C
100
AcDbSymbolTableRecord
100
AcDbBlockTableRecord
  2
*Paper_Space
  0
BLOCK_RECORD
  5
21D
100
AcDbSymbolTableRecord
100
AcDbBlockTableRecord
  2
_FILLED
  0
BLOCK_RECORD
  5
21E
100
AcDbSymbolTableRecord
100
AcDbBlockTableRecord
  2
*D0
  0
BLOCK_RECORD
  5
21F
100
AcDbSymbolTableRecord
100
AcDbBlockTableRecord
  2
*D1
  0
BLOCK_RECORD
  5
220
100
AcDbSymbolTableRecord
100
AcDbBlockTableRecord
  2
*D2
  0
BLOCK_RECORD
  5
221
100
AcDbSymbolTableRecord
100
AcDbBlockTableRecord
  2
*D3
  0
ENDTAB
  0
TABLE
  2
DIMSTYLE
  5
A
100
AcDbSymbolTable
 70
1
100
AcDbDimStyleTable
 71
0
  0
DIMSTYLE
105
222
100
AcDbSymbolTableRecord
100
AcDbDimStyleTableRecord
  2
STANDARD
 70
0
  3

  4

 40
1.0
 41
3.0
 42
0.5
 43
0.38
 44
1.5
 45
0.0
 46
0.0
 47
0.01
 48
0.01
140
3.0
141
0.09
142
0.0
143
25.4
144
1.0
145
0.0
146
1.0
147
0.625
 71
1.0
 72
0.0
 73
0
 74
0
 75
0
 76
0
 77
1
 78
8
 79
2
170
0
171
1
172
0
173
0
174
0
175
0
176
0
177
0
178
0
270
2
179
2
271
2
272
2
273
2
274
2
275
0
280
0
281
0
282
0
283
1
284
8
285
0
286
0
287
3
288
0
340
11
278
44
341
21D
342
21D
343
21D
344
21D
  0
DIMSTYLE
105
223
100
AcDbSymbolTableRecord
100
AcDbDimStyleTableRecord
  2
DIMSTYLE_1
 70
0
  3

  4

 40
1.0
 41
3.0
 42
0.5
 43
0.38
 44
1.5
 45
0.0
 46
0.0
 47
0.0
 48
0.0
140
3.0
141
0.09
142
0.0
143
25.4
144
1.0
145
0.0
146
1.0
147
0.75
 71
0.0
 72
0.0
 73
0
 74
0
 75
0
 76
0
 77
1
 78
8
 79
2
170
0
171
1
172
0
173
0
174
0
175
0
176
0
177
0
178
0
270
2
179
2
271
2
272
2
273
2
274
2
275
0
280
0
281
0
282
0
283
1
284
8
285
0
286
0
287
3
288
0
340
11
278
44
341
21D
342
21D
343
21D
344
21D
  0
ENDTAB
  0
ENDSEC
  0
SECTION
  2
BLOCKS
  0
BLOCK
  5
20
100
AcDbEntity
  8
0
100
AcDbBlockBegin
  2
*Model_Space
 70
0
 10
0.0
 20
0.0
 30
0.0
  3
*Model_Space
  1

  0
ENDBLK
  5
21
100
AcDbEntity
  8
0
100
AcDbBlockEnd
  0
BLOCK
  5
1C
100
AcDbEntity
  8
0
100
AcDbBlockBegin
  2
*Paper_Space
 70
0
 10
0.0
 20
0.0
 30
0.0
  3
*Paper_Space
  1

  0
ENDBLK
  5
1D
100
AcDbEntity
  8
0
100
AcDbBlockEnd
  0
BLOCK
  5
224
100
AcDbEntity
  8
0
100
AcDbBlockBegin
  2
_FILLED
 70
64
 10
0.0
 20
0.0
  3
_FILLED
  1

  0
SOLID
  5
225
100
AcDbEntity
  8
0
  6
BYBLOCK
 62
0
100
AcDbTrace
 10
0.0
 20
0.0
 11
-1.0
 21
0.3166666667
 12
-1.0
 22
-0.3166666667
 13
-1.0
 23
-0.3166666667
  0
ENDBLK
  5
226
100
AcDbEntity
  8
0
  6
BYBLOCK
 62
0
100
AcDbBlockEnd
  0
BLOCK
  5
227
100
AcDbEntity
  8
0
100
AcDbBlockBegin
 62
7
  6
CONTINUOUS
  2
*D0
 70
65
 10
0.0
 20
0.0
  3
*D0
  1

  0
LINE
  5
228
100
AcDbEntity
  8
0
100
AcDbLine
 62
7
  6
CONTINUOUS
 10
20.2491312171
 20
150.765625
 11
20.2491312171
 21
162.765625
  0
LINE
  5
229
100
AcDbEntity
  8
0
100
AcDbLine
 62
7
  6
CONTINUOUS
 10
27.7991312171
 20
149.8040282275
 11
27.7991312171
 21
162.765625
  0
LINE
  5
22A
100
AcDbEntity
  8
0
100
AcDbLine
 62
7
  6
CONTINUOUS
 10
20.2491312171
 20
161.265625
 11
24.0241312171
 21
161.265625
  0
LINE
  5
22B
100
AcDbEntity
  8
0
100
AcDbLine
 62
7
  6
CONTINUOUS
 10
27.7991312171
 20
161.265625
 11
24.0241312171
 21
161.265625
  0
LINE
  5
22C
100
AcDbEntity
  8
0
100
AcDbLine
 62
7
  6
CONTINUOUS
 10
24.0241312171
 20
161.265625
 11
40.6151282193
 21
161.265625
  0
INSERT
  5
22D
100
AcDbEntity
  8
0
100
AcDbBlockReference
 62
7
  6
CONTINUOUS
  2
_FILLED
 10
20.2491312171
 20
161.265625
 41
3.0
 42
3.0
 43
3.0
 50
180.0
  0
INSERT
  5
22E
100
AcDbEntity
  8
0
100
AcDbBlockReference
 62
7
  6
CONTINUOUS
  2
_FILLED
 10
27.7991312171
 20
161.265625
 41
3.0
 42
3.0
 43
3.0
  0
ENDBLK
  5
22F
100
AcDbEntity
  8
0
  6
BYBLOCK
 62
0
100
AcDbBlockEnd
  0
BLOCK
  5
230
100
AcDbEntity
  8
0
100
AcDbBlockBegin
 62
7
  6
CONTINUOUS
  2
*D1
 70
65
 10
0.0
 20
0.0
  3
*D1
  1

  0
LINE
  5
231
100
AcDbEntity
  8
0
100
AcDbLine
 62
7
  6
CONTINUOUS
 10
20.2491312171
 20
150.765625
 11
20.2491312171
 21
170.765625
  0
LINE
  5
232
100
AcDbEntity
  8
0
100
AcDbLine
 62
7
  6
CONTINUOUS
 10
30.7991312171
 20
132.8119417932
 11
30.7991312171
 21
170.765625
  0
LINE
  5
233
100
AcDbEntity
  8
0
100
AcDbLine
 62
7
  6
CONTINUOUS
 10
20.2491312171
 20
169.265625
 11
25.5241312171
 21
169.265625
  0
LINE
  5
234
100
AcDbEntity
  8
0
100
AcDbLine
 62
7
  6
CONTINUOUS
 10
30.7991312171
 20
169.265625
 11
25.5241312171
 21
169.265625
  0
LINE
  5
235
100
AcDbEntity
  8
0
100
AcDbLine
 62
7
  6
CONTINUOUS
 10
25.5241312171
 20
169.265625
 11
42.3705894885
 21
169.265625
  0
INSERT
  5
236
100
AcDbEntity
  8
0
100
AcDbBlockReference
 62
7
  6
CONTINUOUS
  2
_FILLED
 10
20.2491312171
 20
169.265625
 41
3.0
 42
3.0
 43
3.0
 50
180.0
  0
INSERT
  5
237
100
AcDbEntity
  8
0
100
AcDbBlockReference
 62
7
  6
CONTINUOUS
  2
_FILLED
 10
30.7991312171
 20
169.265625
 41
3.0
 42
3.0
 43
3.0
  0
ENDBLK
  5
238
100
AcDbEntity
  8
0
  6
BYBLOCK
 62
0
100
AcDbBlockEnd
  0
BLOCK
  5
239
100
AcDbEntity
  8
0
100
AcDbBlockBegin
 62
7
  6
CONTINUOUS
  2
*D2
 70
65
 10
0.0
 20
0.0
  3
*D2
  1

  0
LINE
  5
23A
100
AcDbEntity
  8
0
100
AcDbLine
 62
7
  6
CONTINUOUS
 10
55.757421875
 20
150.765625
 11
55.757421875
 21
162.765625
  0
LINE
  5
23B
100
AcDbEntity
  8
0
100
AcDbLine
 62
7
  6
CONTINUOUS
 10
267.757421875
 20
150.765625
 11
267.757421875
 21
162.765625
  0
LINE
  5
23C
100
AcDbEntity
  8
0
100
AcDbLine
 62
7
  6
CONTINUOUS
 10
55.757421875
 20
161.265625
 11
161.757421875
 21
161.265625
  0
LINE
  5
23D
100
AcDbEntity
  8
0
100
AcDbLine
 62
7
  6
CONTINUOUS
 10
267.757421875
 20
161.265625
 11
161.757421875
 21
161.265625
  0
INSERT
  5
23E
100
AcDbEntity
  8
0
100
AcDbBlockReference
 62
7
  6
CONTINUOUS
  2
_FILLED
 10
55.757421875
 20
161.265625
 41
3.0
 42
3.0
 43
3.0
 50
180.0
  0
INSERT
  5
23F
100
AcDbEntity
  8
0
100
AcDbBlockReference
 62
7
  6
CONTINUOUS
  2
_FILLED
 10
267.757421875
 20
161.265625
 41
3.0
 42
3.0
 43
3.0
  0
ENDBLK
  5
240
100
AcDbEntity
  8
0
  6
BYBLOCK
 62
0
100
AcDbBlockEnd
  0
BLOCK
  5
241
100
AcDbEntity
  8
0
100
AcDbBlockBegin
 62
7
  6
CONTINUOUS
  2
*D3
 70
65
 10
0.0
 20
0.0
  3
*D3
  1

  0
LINE
  5
242
100
AcDbEntity
  8
0
100
AcDbLine
 62
7
  6
CONTINUOUS
 10
267.257421875
 20
151.265625
 11
279.257421875
 21
151.265625
  0
LINE
  5
243
100
AcDbEntity
  8
0
100
AcDbLine
 62
7
  6
CONTINUOUS
 10
267.257421875
 20
61.265625
 11
279.257421875
 21
61.265625
  0
LINE
  5
244
100
AcDbEntity
  8
0
100
AcDbLine
 62
7
  6
CONTINUOUS
 10
277.757421875
 20
151.265625
 11
277.757421875
 21
106.265625
  0
LINE
  5
245
100
AcDbEntity
  8
0
100
AcDbLine
 62
7
  6
CONTINUOUS
 10
277.757421875
 20
61.265625
 11
277.757421875
 21
106.265625
  0
INSERT
  5
246
100
AcDbEntity
  8
0
100
AcDbBlockReference
 62
7
  6
CONTINUOUS
  2
_FILLED
 10
277.757421875
 20
151.265625
 41
3.0
 42
3.0
 43
3.0
 50
90.0
  0
INSERT
  5
247
100
AcDbEntity
  8
0
100
AcDbBlockReference
 62
7
  6
CONTINUOUS
  2
_FILLED
 10
277.757421875
 20
61.265625
 41
3.0
 42
3.0
 43
3.0
 50
270.0
  0
ENDBLK
  5
248
100
AcDbEntity
  8
0
  6
BYBLOCK
 62
0
100
AcDbBlockEnd
  0
ENDSEC
  0
SECTION
  2
ENTITIES
  0
DIMENSION
  5
249
100
AcDbEntity
  8
0
100
AcDbDimension
 62
7
  6
CONTINUOUS
  2
*D0
 10
27.7991312171
 20
161.265625
 11
32.2579853621
 21
161.265625
 70
160
 71
1
 72
2
 41
0.9
 42
7.55
  3
DIMSTYLE_1
100
AcDbAlignedDimension
 13
20.2491312171
 23
150.265625
 14
27.7991312171
 24
149.3040282275
100
AcDbRotatedDimension
  0
DIMENSION
  5
24A
100
AcDbEntity
  8
0
100
AcDbDimension
 62
7
  6
CONTINUOUS
  2
*D1
 10
30.7991312171
 20
169.265625
 11
32.2991609171
 21
169.265625
 70
160
 71
1
 72
2
 41
0.9
 42
10.55
  3
DIMSTYLE_1
100
AcDbAlignedDimension
 13
20.2491312171
 23
150.265625
 14
30.7991312171
 24
132.3119417932
100
AcDbRotatedDimension
  0
DIMENSION
  5
24B
100
AcDbEntity
  8
0
100
AcDbDimension
 62
7
  6
CONTINUOUS
  2
*D2
 10
267.757421875
 20
161.265625
 11
158.5431361607
 21
161.265625
 70
160
 71
2
 72
2
 41
0.9
 42
212.0
  3
DIMSTYLE_1
100
AcDbAlignedDimension
 13
55.757421875
 23
150.265625
 14
267.757421875
 24
150.265625
100
AcDbRotatedDimension
  0
DIMENSION
  5
24C
100
AcDbEntity
  8
0
100
AcDbDimension
 62
7
  6
CONTINUOUS
  2
*D3
 10
277.757421875
 20
61.265625
 11
277.757421875
 21
103.9084821429
 70
160
 71
2
 72
2
 41
0.9
 42
90.0
  3
DIMSTYLE_1
100
AcDbAlignedDimension
 13
266.757421875
 23
151.265625
 14
266.757421875
 24
61.265625
 50
270.0
100
AcDbRotatedDimension
  0
LINE
  5
24D
100
AcDbEntity
  8
SMUSSO
100
AcDbLine
 62
7
  6
CONTINUOUS
 10
55.757421875
 20
150.265625
 11
55.757421875
 21
62.265625
  0
LINE
  5
24E
100
AcDbEntity
  8
SMUSSO
100
AcDbLine
 62
7
  6
CONTINUOUS
 10
56.757421875
 20
150.265625
 11
56.757421875
 21
62.265625
  0
LINE
  5
24F
100
AcDbEntity
  8
SMUSSO
100
AcDbLine
 62
7
  6
CONTINUOUS
 10
55.757421875
 20
150.265625
 11
56.757421875
 21
151.265625
  0
LINE
  5
250
100
AcDbEntity
  8
SMUSSO
100
AcDbLine
 62
7
  6
CONTINUOUS
 10
56.757421875
 20
61.265625
 11
55.757421875
 21
62.265625
  0
LINE
  5
251
100
AcDbEntity
  8
RACCORDO
100
AcDbLine
 62
7
  6
CONTINUOUS
 10
82.907421875
 20
127.665625
 11
82.907421875
 21
84.865625
  0
LINE
  5
252
100
AcDbEntity
  8
SMUSSO
100
AcDbLine
 62
7
  6
CONTINUOUS
 10
56.757421875
 20
62.265625
 11
56.257421875
 21
61.765625
  0
LWPOLYLINE
  5
253
100
AcDbEntity
  8
0
100
AcDbPolyline
 62
7
  6
CONTINUOUS
 90
3
 70
0
 43
0.3500000006
 10
160.9002756958
 20
164.1584880981
 10
161.7574136353
 20
165.0156260376
 10
161.7574136353
 20
162.0156251221
  0
LINE
  5
254
100
AcDbEntity
  8
SMUSSO
100
AcDbLine
 62
7
  6
CONTINUOUS
 10
56.757421875
 20
61.265625
 11
266.757421875
 21
61.265625
  0
LINE
  5
255
100
AcDbEntity
  8
SMUSSO
100
AcDbLine
 62
7
  6
CONTINUOUS
 10
56.757421875
 20
62.265625
 11
266.757421875
 21
62.265625
  0
LINE
  5
256
100
AcDbEntity
  8
SMUSSO
100
AcDbLine
 62
7
  6
CONTINUOUS
 10
56.257421875
 20
150.765625
 11
56.757421875
 21
150.265625
  0
LWPOLYLINE
  5
257
100
AcDbEntity
  8
0
100
AcDbPolyline
 62
7
  6
CONTINUOUS
 90
7
 70
0
 10
165.562777008
 20
80.241962109
 10
165.5675834979
 20
80.2430896089
 10
165.5724523479
 20
80.2446288107
 10
165.5773835582
 20
80.2465797146
 10
165.5823621619
 20
80.2490261738
 10
165.5874031258
 20
80.2518843349
 10
165.597820599
 20
80.257993044
  0
LWPOLYLINE
  5
258
100
AcDbEntity
  8
0
100
AcDbPolyline
 62
7
  6
CONTINUOUS
 90
10
 70
0
 10
164.8243420818
 20
81.0271637007
 10
164.8665343256
 20
81.0340715422
 10
164.9078709415
 20
81.0396194077
 10
164.9483519296
 20
81.0438072974
 10
164.987577532
 20
81.0466448649
 10
165.0259475065
 20
81.0481224565
 10
165.0646611266
 20
81.0482111109
 10
165.1041181503
 20
81.0469011744
 10
165.1439188197
 20
81.0442023007
 10
165.1840631348
 20
81.0401144899
  0
LINE
  5
259
100
AcDbEntity
  8
0
100
AcDbLine
 62
7
  6
CONTINUOUS
 10
158.146565182
 20
79.2021094293
 11
158.5512247826
 21
79.2021094293
  0
LINE
  5
25A
100
AcDbEntity
  8
0
100
AcDbLine
 62
7
  6
CONTINUOUS
 10
159.4287387428
 20
79.2021094293
 11
159.8879269124
 21
79.2021094293
  0
LINE
  5
25B
100
AcDbEntity
  8
0
100
AcDbLine
 62
7
  6
CONTINUOUS
 10
160.135122044
 20
79.2021094293
 11
160.5744148812
 21
79.2021094293
  0
LINE
  5
25C
100
AcDbEntity
  8
0
100
AcDbLine
 62
7
  6
CONTINUOUS
 10
161.2121906617
 20
79.2021094293
 11
161.2765909445
 21
79.2021094293
  0
LINE
  5
25D
100
AcDbEntity
  8
0
100
AcDbLine
 62
7
  6
CONTINUOUS
 10
161.9169072011
 20
79.2021094293
 11
162.3661147045
 21
79.2021094293
  0
LINE
  5
25E
100
AcDbEntity
  8
0
100
AcDbLine
 62
7
  6
CONTINUOUS
 10
162.4382191774
 20
79.2021094293
 11
162.892424871
 21
79.2021094293
  0
LINE
  5
25F
100
AcDbEntity
  8
0
100
AcDbLine
 62
7
  6
CONTINUOUS
 10
163.7634236886
 20
79.2021094293
 11
164.2473880475
 21
79.2021094293
  0
LINE
  5
260
100
AcDbEntity
  8
0
100
AcDbLine
 62
7
  6
CONTINUOUS
 10
164.3822280068
 20
79.2021090126
 11
164.8395680544
 21
79.2021090126
  0
LINE
  5
261
100
AcDbEntity
  8
0
100
AcDbLine
 62
7
  6
CONTINUOUS
 10
165.5427506475
 20
79.2021090126
 11
165.9844358219
 21
79.2021090126
  0
LINE
  5
262
100
AcDbEntity
  8
0
100
AcDbLine
 62
7
  6
CONTINUOUS
 10
163.0191322938
 20
79.6412702665
 11
163.644469694
 21
79.6412702665
  0
LINE
  5
263
100
AcDbEntity
  8
RACCORDO
100
AcDbLine
 62
7
  6
CONTINUOUS
 10
165.8360260621
 20
79.765625
 11
165.3756945856
 21
79.765625
  0
LINE
  5
264
100
AcDbEntity
  8
RACCORDO
100
AcDbLine
 62
7
  6
CONTINUOUS
 10
164.8395680544
 20
79.765625
 11
164.3822280068
 21
79.765625
  0
LINE
  5
265
100
AcDbEntity
  8
RACCORDO
100
AcDbLine
 62
7
  6
CONTINUOUS
 10
164.0744874341
 20
79.765625
 11
162.6149737572
 21
79.765625
  0
LINE
  5
266
100
AcDbEntity
  8
RACCORDO
100
AcDbLine
 62
7
  6
CONTINUOUS
 10
162.3134196788
 20
79.765625
 11
161.8797421286
 21
79.765625
  0
LINE
  5
267
100
AcDbEntity
  8
RACCORDO
100
AcDbLine
 62
7
  6
CONTINUOUS
 10
161.4916740047
 20
79.765625
 11
161.0008650791
 21
79.765625
  0
LINE
  5
268
100
AcDbEntity
  8
RACCORDO
100
AcDbLine
 62
7
  6
CONTINUOUS
 10
160.6132892338
 20
79.765625
 11
160.1860042751
 21
79.765625
  0
LINE
  5
269
100
AcDbEntity
  8
RACCORDO
100
AcDbLine
 62
7
  6
CONTINUOUS
 10
159.8879269124
 20
79.765625
 11
159.4287387428
 21
79.765625
  0
LINE
  5
26A
100
AcDbEntity
  8
RACCORDO
100
AcDbLine
 62
7
  6
CONTINUOUS
 10
158.7323614678
 20
79.765625
 11
157.9679197139
 21
79.765625
  0
LINE
  5
26B
100
AcDbEntity
  8
0
100
AcDbLine
 62
7
  6
CONTINUOUS
 10
163.5527014124
 20
79.9810916796
 11
163.1130618134
 21
79.9810916796
  0
LINE
  5
26C
100
AcDbEntity
  8
0
100
AcDbLine
 62
7
  6
CONTINUOUS
 10
164.8395680544
 20
80.0629950704
 11
165.0857735158
 21
80.0629950704
  0
LINE
  5
26D
100
AcDbEntity
  8
0
100
AcDbLine
 62
7
  6
CONTINUOUS
 10
165.0867632865
 20
80.4232716049
 11
164.8243420818
 21
80.4232716049
  0
LINE
  5
26E
100
AcDbEntity
  8
0
100
AcDbLine
 62
7
  6
CONTINUOUS
 10
164.8243420818
 20
80.9769699281
 11
164.3822280068
 21
80.9769699281
  0
LINE
  5
26F
100
AcDbEntity
  8
0
100
AcDbLine
 62
7
  6
CONTINUOUS
 10
163.7028166372
 20
80.9769699281
 11
162.9949291211
 21
80.9769699281
  0
LINE
  5
270
100
AcDbEntity
  8
0
100
AcDbLine
 62
7
  6
CONTINUOUS
 10
162.2001453428
 20
80.9769699281
 11
161.5463166324
 21
80.9769699281
  0
LINE
  5
271
100
AcDbEntity
  8
0
100
AcDbLine
 62
7
  6
CONTINUOUS
 10
160.9506427285
 20
80.9769699281
 11
160.2953817898
 21
80.9769699281
  0
LINE
  5
272
100
AcDbEntity
  8
0
100
AcDbLine
 62
7
  6
CONTINUOUS
 10
159.8879269124
 20
80.9769699281
 11
159.4287387428
 21
80.9769699281
  0
LINE
  5
273
100
AcDbEntity
  8
0
100
AcDbLine
 62
7
  6
CONTINUOUS
 10
159.1217366978
 20
80.9769699281
 11
158.6781827142
 21
80.9769699281
  0
LINE
  5
274
100
AcDbEntity
  8
0
100
AcDbLine
 62
7
  6
CONTINUOUS
 10
163.5724301735
 20
81.4019239007
 11
163.1282219079
 21
81.4019239007
  0
LINE
  5
275
100
AcDbEntity
  8
0
100
AcDbLine
 62
7
  6
CONTINUOUS
 10
162.1604073805
 20
81.4019239007
 11
161.7060864488
 21
81.4019239007
  0
LINE
  5
276
100
AcDbEntity
  8
0
100
AcDbLine
 62
7
  6
CONTINUOUS
 10
160.7925605855
 20
81.4019239007
 11
160.3337527016
 21
81.4019239007
  0
LINE
  5
277
100
AcDbEntity
  8
0
100
AcDbLine
 62
7
  6
CONTINUOUS
 10
159.2583340838
 20
81.4019239007
 11
158.7994591523
 21
81.4019239007
  0
LINE
  5
278
100
AcDbEntity
  8
0
100
AcDbLine
 62
7
  6
CONTINUOUS
 10
157.9480005243
 20
81.4019239007
 11
157.449180928
 21
81.4019239007
  0
LINE
  5
279
100
AcDbEntity
  8
0
100
AcDbLine
 62
7
  6
CONTINUOUS
 10
159.8879269124
 20
81.4020559007
 11
159.4287387428
 21
81.4020559007
  0
LINE
  5
27A
100
AcDbEntity
  8
RACCORDO
100
AcDbLine
 62
7
  6
CONTINUOUS
 10
84.107421875
 20
83.665625
 11
239.407421875
 21
83.665625
  0
LWPOLYLINE
  5
27B
100
AcDbEntity
  8
0
100
AcDbPolyline
 62
7
  6
CONTINUOUS
 90
16
 70
0
 10
165.0857735158
 20
80.0629950704
 10
165.1083641911
 20
80.0619660691
 10
165.1302860673
 20
80.0592435864
 10
165.1515391443
 20
80.0548276225
 10
165.1721999346
 20
80.0486892221
 10
165.1921919257
 20
80.0408573403
 10
165.2112855807
 20
80.0314188426
 10
165.2293869925
 20
80.0204519055
 10
165.2465900681
 20
80.0078783524
 10
165.2629469919
 20
79.9935505183
 10
165.2785327129
 20
79.9774578987
 10
165.2932722821
 20
79.9596109982
 10
165.3069930373
 20
79.9398936648
 10
165.3196374245
 20
79.9182671813
 10
165.3312629978
 20
79.894770265
 10
165.3418697572
 20
79.8694029159
  0
LWPOLYLINE
  5
27C
100
AcDbEntity
  8
0
100
AcDbPolyline
 62
7
  6
CONTINUOUS
 90
19
 70
0
 10
165.1840631348
 20
81.0401144899
 10
165.209300554
 20
81.0360128515
 10
165.2335186976
 20
81.0303136005
 10
165.2567175655
 20
81.0230167369
 10
165.2790234298
 20
81.0140165065
 10
165.3003100184
 20
81.0034186635
 10
165.3201985154
 20
80.9915404711
 10
165.3385646867
 20
80.9784766887
 10
165.3555327663
 20
80.9641325569
 10
165.371096641
 20
80.9485410603
 10
165.3852814179
 20
80.9316307268
 10
165.3980619897
 20
80.9134730287
 10
165.409356922
 20
80.8943153666
 10
165.4192243882
 20
80.8740120147
 10
165.4276062149
 20
80.8527086989
 10
165.4342464473
 20
80.8310899983
 10
165.4390597671
 20
80.8093841061
 10
165.4421314927
 20
80.7873628291
 10
165.4434616241
 20
80.7650261674
  0
LWPOLYLINE
  5
27D
100
AcDbEntity
  8
0
100
AcDbPolyline
 62
7
  6
CONTINUOUS
 90
16
 70
0
 10
165.5154329762
 20
81.3530621995
 10
165.4601545335
 20
81.3710280605
 10
165.4017957428
 20
81.3864472608
 10
165.3403566042
 20
81.3993198003
 10
165.2757154798
 20
81.4095546697
 10
165.2079940075
 20
81.4172428784
 10
165.1375571008
 20
81.4226574545
 10
165.0645238554
 20
81.4258191015
 10
164.9887751756
 20
81.426707116
 10
164.9103186877
 20
81.4255324154
 10
164.8291755647
 20
81.4223418312
 10
164.7453246337
 20
81.4170885318
 10
164.6587100017
 20
81.4098429401
 10
164.5693130377
 20
81.4006285304
 10
164.4771523727
 20
81.3894218283
 10
164.3822280068
 20
81.3762228339
  0
LINE
  5
27E
100
AcDbEntity
  8
0
100
AcDbLine
 62
7
  6
CONTINUOUS
 10
160.6735081147
 20
80.638546983
 11
161.2121906617
 21
79.2021094293
  0
LINE
  5
27F
100
AcDbEntity
  8
0
100
AcDbLine
 62
7
  6
CONTINUOUS
 10
161.2468982792
 20
80.1805803372
 11
160.7925605855
 21
81.4019239007
  0
LINE
  5
280
100
AcDbEntity
  8
0
100
AcDbLine
 62
7
  6
CONTINUOUS
 10
157.449180928
 20
81.4019239007
 11
158.146565182
 21
79.2021094293
  0
LINE
  5
281
100
AcDbEntity
  8
0
100
AcDbLine
 62
7
  6
CONTINUOUS
 10
158.3673257434
 20
79.8877236838
 11
157.9480005243
 21
81.4019239007
  0
LINE
  5
282
100
AcDbEntity
  8
0
100
AcDbLine
 62
7
  6
CONTINUOUS
 10
162.3661147045
 20
79.2021094293
 11
162.1604073805
 21
81.4019239007
  0
LINE
  5
283
100
AcDbEntity
  8
0
100
AcDbLine
 62
7
  6
CONTINUOUS
 10
161.8225659673
 20
80.6325587928
 11
161.9169072011
 21
79.2021094293
  0
LINE
  5
284
100
AcDbEntity
  8
0
100
AcDbLine
 62
7
  6
CONTINUOUS
 10
159.4287387428
 20
81.4020559007
 11
159.4287387428
 21
79.2021094293
  0
LINE
  5
285
100
AcDbEntity
  8
0
100
AcDbLine
 62
7
  6
CONTINUOUS
 10
159.8879269124
 20
79.2021094293
 11
159.8879269124
 21
81.4020559007
  0
LINE
  5
286
100
AcDbEntity
  8
0
100
AcDbLine
 62
7
  6
CONTINUOUS
 10
160.5744148812
 20
79.2021094293
 11
160.6735081147
 21
80.638546983
  0
LINE
  5
287
100
AcDbEntity
  8
0
100
AcDbLine
 62
7
  6
CONTINUOUS
 10
160.3337527016
 20
81.4019239007
 11
160.135122044
 21
79.2021094293
  0
LWPOLYLINE
  5
288
100
AcDbEntity
  8
0
100
AcDbPolyline
 62
7
  6
CONTINUOUS
 90
13
 70
0
 43
0.3500000006
 10
276.1502700806
 20
106.2656217041
 10
274.8645631714
 20
106.2656217041
 10
274.4359942017
 20
106.479906189
 10
274.0074252319
 20
106.9084842224
 10
274.0074252319
 20
107.1227687073
 10
274.4359942017
 20
107.551337677
 10
274.8645631714
 20
107.7656221619
 10
276.1502700806
 20
107.7656221619
 10
276.5788571777
 20
107.551337677
 10
277.0074261475
 20
107.1227687073
 10
277.0074261475
 20
106.9084842224
 10
276.5788571777
 20
106.479906189
 10
276.1502700806
 20
106.2656217041
  0
LWPOLYLINE
  5
289
100
AcDbEntity
  8
0
100
AcDbPolyline
 62
7
  6
CONTINUOUS
 90
5
 70
0
 10
165.3418697572
 20
79.8694029159
 10
165.3581421738
 20
79.8201733889
 10
165.3743814764
 20
79.7697993065
 10
165.390587665
 20
79.7182806685
 10
165.4066645813
 20
79.6656201507
  0
LINE
  5
28A
100
AcDbEntity
  8
0
100
AcDbLine
 62
7
  6
CONTINUOUS
 10
164.2473880475
 20
79.2021094293
 11
163.5724301735
 21
81.4019239007
  0
LINE
  5
28B
100
AcDbEntity
  8
0
100
AcDbLine
 62
7
  6
CONTINUOUS
 10
165.4066645813
 20
79.6656201507
 11
165.4897256756
 21
79.3850609321
  0
LINE
  5
28C
100
AcDbEntity
  8
0
100
AcDbLine
 62
7
  6
CONTINUOUS
 10
165.4897256756
 20
79.3850609321
 11
165.5427506475
 21
79.2021090126
  0
LINE
  5
28D
100
AcDbEntity
  8
0
100
AcDbLine
 62
7
  6
CONTINUOUS
 10
163.644469694
 20
79.6412702665
 11
163.7634236886
 21
79.2021094293
  0
LINE
  5
28E
100
AcDbEntity
  8
0
100
AcDbLine
 62
7
  6
CONTINUOUS
 10
165.8815893915
 20
79.5945941489
 11
165.8274908204
 21
79.7973858015
  0
LWPOLYLINE
  5
28F
100
AcDbEntity
  8
0
100
AcDbPolyline
 62
7
  6
CONTINUOUS
 90
19
 70
0
 10
165.8274908204
 20
79.7973858015
 10
165.8178874946
 20
79.833972746
 10
165.8078765557
 20
79.8693972361
 10
165.7974580039
 20
79.9036592718
 10
165.7867468615
 20
79.9368598625
 10
165.7756281061
 20
79.9688979988
 10
165.7637566703
 20
79.9994706521
 10
165.7510548602
 20
80.0285787622
 10
165.7376003697
 20
80.0562213893
 10
165.7232812135
 20
80.0820926851
 10
165.7080246342
 20
80.1061546443
 10
165.6919033891
 20
80.1284452722
 10
165.675023765
 20
80.1487727366
 10
165.657245473
 20
80.1670791789
 10
165.6387088018
 20
80.1834224578
 10
165.6199409045
 20
80.197784317
 10
165.6011174986
 20
80.2101586712
 10
165.5820628664
 20
80.2205516057
 10
165.562777008
 20
80.2289631205
  0
LINE
  5
290
100
AcDbEntity
  8
0
100
AcDbLine
 62
7
  6
CONTINUOUS
 10
165.9844358219
 20
79.2021090126
 11
165.8815893915
 21
79.5945941489
  0
LINE
  5
291
100
AcDbEntity
  8
0
100
AcDbLine
 62
7
  6
CONTINUOUS
 10
163.3416983744
 20
80.7974707853
 11
163.5527014124
 21
79.9810916796
  0
LINE
  5
292
100
AcDbEntity
  8
0
100
AcDbLine
 62
7
  6
CONTINUOUS
 10
164.3822280068
 20
81.3762228339
 11
164.3822280068
 21
79.2021090126
  0
LINE
  5
293
100
AcDbEntity
  8
0
100
AcDbLine
 62
7
  6
CONTINUOUS
 10
164.8243420818
 20
80.4232716049
 11
164.8243420818
 21
81.0271637007
  0
LINE
  5
294
100
AcDbEntity
  8
0
100
AcDbLine
 62
7
  6
CONTINUOUS
 10
164.8395680544
 20
79.2021090126
 11
164.8395680544
 21
80.0629950704
  0
LINE
  5
295
100
AcDbEntity
  8
0
100
AcDbLine
 62
7
  6
CONTINUOUS
 10
165.007421875
 20
81.0474090519
 11
165.007421875
 21
81.3155793016
  0
LINE
  5
296
100
AcDbEntity
  8
0
100
AcDbLine
 62
7
  6
CONTINUOUS
 10
165.562777008
 20
80.2289631205
 11
165.562777008
 21
80.241962109
  0
LWPOLYLINE
  5
297
100
AcDbEntity
  8
0
100
AcDbPolyline
 62
7
  6
CONTINUOUS
 90
22
 70
0
 10
165.4434616241
 20
80.7650261674
 10
165.4431128395
 20
80.7337288175
 10
165.4409484058
 20
80.703939151
 10
165.436968323
 20
80.675657168
 10
165.4311435896
 20
80.648876554
 10
165.4235032071
 20
80.6236036235
 10
165.4141341802
 20
80.5998573196
 10
165.4029791266
 20
80.5776478087
 10
165.3900954286
 20
80.5569649244
 10
165.3757422381
 20
80.5377971108
 10
165.3600180283
 20
80.5201416041
 10
165.3428243259
 20
80.5040011682
 10
165.3241248632
 20
80.4893725387
 10
165.3039430781
 20
80.4762928814
 10
165.2822555327
 20
80.4647250306
 10
165.2589556456
 20
80.4545542251
 10
165.2339456931
 20
80.4457187381
 10
165.207323399
 20
80.4382802964
 10
165.1792753524
 20
80.4323093202
 10
165.1498637496
 20
80.4278292829
 10
165.1190263943
 20
80.4248167112
 10
165.0867632865
 20
80.4232716049
  0
LINE
  5
298
100
AcDbEntity
  8
0
100
AcDbLine
 62
7
  6
CONTINUOUS
 10
163.1130618134
 20
79.9810916796
 11
163.3416983744
 21
80.7974707853
  0
LINE
  5
299
100
AcDbEntity
  8
0
100
AcDbLine
 62
7
  6
CONTINUOUS
 10
158.7994591523
 20
81.4019239007
 11
158.3673257434
 21
79.8877236838
  0
LINE
  5
29A
100
AcDbEntity
  8
0
100
AcDbLine
 62
7
  6
CONTINUOUS
 10
162.892424871
 20
79.2021094293
 11
163.0191322938
 21
79.6412702665
  0
LINE
  5
29B
100
AcDbEntity
  8
0
100
AcDbLine
 62
7
  6
CONTINUOUS
 10
158.5512247826
 20
79.2021094293
 11
159.2583340838
 21
81.4019239007
  0
LINE
  5
29C
100
AcDbEntity
  8
0
100
AcDbLine
 62
7
  6
CONTINUOUS
 10
161.7060864488
 20
81.4019239007
 11
161.2468982792
 21
80.1805803372
  0
LINE
  5
29D
100
AcDbEntity
  8
0
100
AcDbLine
 62
7
  6
CONTINUOUS
 10
163.1282219079
 20
81.4019239007
 11
162.4382191774
 21
79.2021094293
  0
LINE
  5
29E
100
AcDbEntity
  8
0
100
AcDbLine
 62
7
  6
CONTINUOUS
 10
161.2765909445
 20
79.2021094293
 11
161.8225659673
 21
80.6325587928
  0
LINE
  5
29F
100
AcDbEntity
  8
RACCORDO
100
AcDbLine
 62
7
  6
CONTINUOUS
 10
239.407421875
 20
128.865625
 11
84.107421875
 21
128.865625
  0
LWPOLYLINE
  5
2A0
100
AcDbEntity
  8
0
100
AcDbPolyline
 62
7
  6
CONTINUOUS
 90
69
 70
0
 10
165.597820599
 20
80.257993044
 10
165.6031971083
 20
80.2612435919
 10
165.6086844849
 20
80.2646668416
 10
165.6142840078
 20
80.2682497879
 10
165.619994398
 20
80.272005436
 10
165.6258154252
 20
80.2759853608
 10
165.6317523814
 20
80.2801991996
 10
165.6377999748
 20
80.2846373151
 10
165.6439420995
 20
80.2893223709
 10
165.6501742737
 20
80.2942561498
 10
165.6565009794
 20
80.2994368689
 10
165.6629195565
 20
80.3048818435
 10
165.6694332813
 20
80.3105937664
 10
165.6760388775
 20
80.3165699448
 10
165.6827238555
 20
80.3228196155
 10
165.6894902421
 20
80.3293363791
 10
165.6963360105
 20
80.3361266349
 10
165.7032425899
 20
80.3432188177
 10
165.7102087312
 20
80.350605226
 10
165.7172356835
 20
80.3582935613
 10
165.7243086236
 20
80.3663353624
 10
165.731429332
 20
80.3747265431
 10
165.7385960281
 20
80.3834711897
 10
165.7457885476
 20
80.3926331002
 10
165.753010585
 20
80.4022091001
 10
165.7602584458
 20
80.412202364
 10
165.7675008816
 20
80.4226862136
 10
165.7747458312
 20
80.4336599061
 10
165.7819853559
 20
80.4451241844
 10
165.7891643899
 20
80.4571545988
 10
165.7962914179
 20
80.4697515539
 10
165.8033579553
 20
80.4829146452
 10
165.8102834833
 20
80.4967182096
 10
165.8170777014
 20
80.5111631508
 10
165.8237309101
 20
80.5262485652
 10
165.8301334925
 20
80.5420460793
 10
165.8362935612
 20
80.5585586548
 10
165.8422030037
 20
80.57578333
 10
165.8477278649
 20
80.5937828462
 10
165.8528756046
 20
80.6125674038
 10
165.8576387632
 20
80.6321268024
 10
165.8618610069
 20
80.6524931813
 10
165.865545422
 20
80.6736591385
 10
165.8686889223
 20
80.6956320761
 10
165.8711259164
 20
80.7184663401
 10
165.8728739262
 20
80.7421236706
 10
165.8739154298
 20
80.7666423273
 10
165.8740322698
 20
80.7921914357
 10
165.873314649
 20
80.8187984553
 10
165.8716723647
 20
80.8464359264
 10
165.8686166511
 20
80.8751905949
 10
165.8641947578
 20
80.9052320221
 10
165.8583594354
 20
80.9363906466
 10
165.8504801697
 20
80.968244531
 10
165.8404687629
 20
81.0009541112
 10
165.8284134129
 20
81.0343589513
 10
165.8139481998
 20
81.0675558057
 10
165.7968277112
 20
81.1006429552
 10
165.7772973594
 20
81.1335221192
 10
165.755727461
 20
81.1649952095
 10
165.7318560524
 20
81.1949597059
 10
165.7059450973
 20
81.2235181287
 10
165.6791508029
 20
81.2497799514
 10
165.6513665107
 20
81.2736068145
 10
165.6226988793
 20
81.2951370774
 10
165.5946240918
 20
81.3138952921
 10
165.5676342094
 20
81.329722976
 10
165.5412371708
 20
81.3427786118
 10
165.5154329762
 20
81.3530621995
  0
LINE
  5
2A1
100
AcDbEntity
  8
SMUSSO
100
AcDbLine
 62
7
  6
CONTINUOUS
 10
267.257421875
 20
150.765625
 11
266.757421875
 21
150.265625
  0
LINE
  5
2A2
100
AcDbEntity
  8
SMUSSO
100
AcDbLine
 62
7
  6
CONTINUOUS
 10
266.757421875
 20
150.265625
 11
56.757421875
 21
150.265625
  0
LINE
  5
2A3
100
AcDbEntity
  8
SMUSSO
100
AcDbLine
 62
7
  6
CONTINUOUS
 10
266.757421875
 20
151.265625
 11
56.757421875
 21
151.265625
  0
LINE
  5
2A4
100
AcDbEntity
  8
SMUSSO
100
AcDbLine
 62
7
  6
CONTINUOUS
 10
267.257421875
 20
61.765625
 11
266.757421875
 21
62.265625
  0
LWPOLYLINE
  5
2A5
100
AcDbEntity
  8
0
100
AcDbPolyline
 62
7
  6
CONTINUOUS
 90
7
 70
0
 43
0.3500000006
 10
164.1145610962
 20
162.0156251221
 10
162.6145697021
 20
162.0156251221
 10
164.1145610962
 20
164.1584880981
 10
164.1145610962
 20
164.5870570679
 10
163.6859921265
 20
165.0156260376
 10
163.0431386719
 20
165.0156260376
 10
162.6145697021
 20
164.372772583
  0
LWPOLYLINE
  5
2A6
100
AcDbEntity
  8
0
100
AcDbPolyline
 62
7
  6
CONTINUOUS
 90
7
 70
0
 43
0.3500000006
 10
160.0431377563
 20
162.0156251221
 10
158.5431282349
 20
162.0156251221
 10
160.0431377563
 20
164.1584880981
 10
160.0431377563
 20
164.5870570679
 10
159.6145687866
 20
165.0156260376
 10
158.971715332
 20
165.0156260376
 10
158.5431282349
 20
164.372772583
  0
LINE
  5
2A7
100
AcDbEntity
  8
RACCORDO
100
AcDbLine
 62
7
  6
CONTINUOUS
 10
240.607421875
 20
84.865625
 11
240.607421875
 21
127.665625
  0
LWPOLYLINE
  5
2A8
100
AcDbEntity
  8
0
100
AcDbPolyline
 62
7
  6
CONTINUOUS
 90
10
 70
0
 43
0.3500000006
 10
277.0074261475
 20
104.3370522766
 10
276.1502700806
 20
105.1941992798
 10
275.2931321411
 20
105.4084837646
 10
274.4359942017
 20
105.4084837646
 10
274.0074252319
 20
104.9799147949
 10
274.0074252319
 20
104.3370522766
 10
274.4359942017
 20
103.9084833069
 10
275.2931321411
 20
103.9084833069
 10
275.7217011108
 20
104.3370522766
 10
275.7217011108
 20
105.2656213989
  0
LINE
  5
2A9
100
AcDbEntity
  8
SMUSSO
100
AcDbLine
 62
7
  6
CONTINUOUS
 10
266.757421875
 20
62.265625
 11
266.757421875
 21
150.265625
  0
LINE
  5
2AA
100
AcDbEntity
  8
SMUSSO
100
AcDbLine
 62
7
  6
CONTINUOUS
 10
267.757421875
 20
62.265625
 11
267.757421875
 21
150.265625
  0
LINE
  5
2AB
100
AcDbEntity
  8
SMUSSO
100
AcDbLine
 62
7
  6
CONTINUOUS
 10
267.757421875
 20
62.265625
 11
266.757421875
 21
61.265625
  0
LINE
  5
2AC
100
AcDbEntity
  8
SMUSSO
100
AcDbLine
 62
7
  6
CONTINUOUS
 10
266.757421875
 20
151.265625
 11
267.757421875
 21
150.265625
  0
LINE
  5
2AD
100
AcDbEntity
  8
SMUSSO
100
AcDbLine
 62
7
  6
CONTINUOUS
 10
21.2491312171
 20
61.265625
 11
22.7491312171
 21
61.265625
  0
LINE
  5
2AE
100
AcDbEntity
  8
0
100
AcDbLine
 62
250
  6
CONTINUOUS
 10
26.2999287759
 20
62.9301590302
 11
27.7991312171
 21
63.2272217725
  0
LINE
  5
2AF
100
AcDbEntity
  8
0
100
AcDbLine
 62
7
  6
CONTINUOUS
 10
23.3991312171
 20
61.9150053117
 11
26.2991312171
 21
61.965625
  0
LINE
  5
2B0
100
AcDbEntity
  8
0
100
AcDbLine
 62
250
  6
CONTINUOUS
 10
23.3991312171
 20
62.9148530069
 11
26.2991312171
 21
62.9654726952
  0
LINE
  5
2B1
100
AcDbEntity
  8
SMUSSO
100
AcDbLine
 62
7
  6
CONTINUOUS
 10
21.2491312171
 20
62.265625
 11
22.7491312171
 21
62.265625
  0
LWPOLYLINE
  5
2B2
100
AcDbEntity
  8
0
100
AcDbPolyline
 62
7
  6
CONTINUOUS
 90
3
 70
0
 43
0.3500000006
 10
32.2991601334
 20
172.1584905396
 10
33.1563048706
 20
173.015628479
 10
33.1563048706
 20
170.0156275635
  0
LINE
  5
2B3
100
AcDbEntity
  8
RACCORDO
100
AcDbLine
 62
7
  6
CONTINUOUS
 10
23.2491312171
 20
66.265625
 11
23.3991312171
 21
66.265625
  0
LINE
  5
2B4
100
AcDbEntity
  8
RACCORDO
100
AcDbLine
 62
7
  6
CONTINUOUS
 10
23.2491312171
 20
67.265625
 11
23.3991312171
 21
67.265625
  0
LINE
  5
2B5
100
AcDbEntity
  8
RACCORDO
100
AcDbLine
 62
250
  6
CONTINUOUS
 10
23.2491312171
 20
69.265625
 11
23.3991312171
 21
69.265625
  0
LINE
  5
2B6
100
AcDbEntity
  8
SMUSSO
100
AcDbLine
 62
7
  6
CONTINUOUS
 10
21.2491312171
 20
151.265625
 11
20.2491312171
 21
150.265625
  0
LINE
  5
2B7
100
AcDbEntity
  8
SMUSSO
100
AcDbLine
 62
7
  6
CONTINUOUS
 10
22.7491312171
 20
150.265625
 11
23.2491312171
 21
150.765625
  0
LINE
  5
2B8
100
AcDbEntity
  8
SMUSSO
100
AcDbLine
 62
7
  6
CONTINUOUS
 10
21.2491312171
 20
61.265625
 11
20.2491312171
 21
62.265625
  0
LINE
  5
2B9
100
AcDbEntity
  8
SMUSSO
100
AcDbLine
 62
7
  6
CONTINUOUS
 10
23.2491312171
 20
61.765625
 11
22.7491312171
 21
62.265625
  0
LINE
  5
2BA
100
AcDbEntity
  8
0
100
AcDbLine
 62
7
  6
CONTINUOUS
 10
28.7249684149
 20
79.1154955614
 11
27.7991312171
 21
79.113879669
  0
LINE
  5
2BB
100
AcDbEntity
  8
0
100
AcDbLine
 62
250
  6
CONTINUOUS
 10
28.7249038008
 20
79.3379457561
 11
27.7991312171
 21
79.3375275616
  0
LINE
  5
2BC
100
AcDbEntity
  8
0
100
AcDbLine
 62
7
  6
CONTINUOUS
 10
30.2491804493
 20
79.9240611397
 11
27.7991312171
 21
79.9098071702
  0
LINE
  5
2BD
100
AcDbEntity
  8
0
100
AcDbLine
 62
250
  6
CONTINUOUS
 10
30.2491804493
 20
80.0119276183
 11
27.7991312171
 21
79.9976736488
  0
LINE
  5
2BE
100
AcDbEntity
  8
0
100
AcDbLine
 62
7
  6
CONTINUOUS
 10
30.7991312171
 20
80.1132637933
 11
30.67856845
 21
80.1132637933
  0
LINE
  5
2BF
100
AcDbEntity
  8
0
100
AcDbLine
 62
7
  6
CONTINUOUS
 10
28.7492555959
 20
81.065625
 11
27.7991312171
 21
81.065625
  0
LINE
  5
2C0
100
AcDbEntity
  8
0
100
AcDbLine
 62
7
  6
CONTINUOUS
 10
27.7991312171
 20
81.215625
 11
27.9491312171
 21
81.215625
  0
LINE
  5
2C1
100
AcDbEntity
  8
0
100
AcDbLine
 62
7
  6
CONTINUOUS
 10
28.2491312171
 20
81.215625
 11
28.4491312171
 21
81.215625
  0
LINE
  5
2C2
100
AcDbEntity
  8
0
100
AcDbLine
 62
7
  6
CONTINUOUS
 10
30.2771945627
 20
80.9178186654
 11
30.7991312171
 21
80.9132637933
  0
LINE
  5
2C3
100
AcDbEntity
  8
0
100
AcDbLine
 62
7
  6
CONTINUOUS
 10
27.7991312171
 20
80.5098051255
 11
30.6095984083
 21
80.3856383323
  0
LINE
  5
2C4
100
AcDbEntity
  8
0
100
AcDbLine
 62
7
  6
CONTINUOUS
 10
28.848759315
 20
81.0606621902
 11
30.7991312171
 21
80.865625
  0
LWPOLYLINE
  5
2C5
100
AcDbEntity
  8
0
100
AcDbPolyline
 62
250
  6
CONTINUOUS
 90
4
 70
0
 10
30.2888034696
 20
132.5515538896
 10
30.2757281047
 20
132.5420899189
 10
30.2624960305
 20
132.5313262499
 10
30.2491804493
 20
132.5193223817
  0
LWPOLYLINE
  5
2C6
100
AcDbEntity
  8
0
100
AcDbPolyline
 62
250
  6
CONTINUOUS
 90
4
 70
0
 10
30.2888370291
 20
79.9796733598
 10
30.2757517684
 20
79.9891418882
 10
30.2625084535
 20
79.9999130964
 10
30.2491804493
 20
80.0119276183
  0
LINE
  5
2C7
100
AcDbEntity
  8
0
100
AcDbLine
 62
7
  6
CONTINUOUS
 10
27.9491312171
 20
131.315625
 11
28.0991312171
 21
131.465625
  0
LINE
  5
2C8
100
AcDbEntity
  8
0
100
AcDbLine
 62
7
  6
CONTINUOUS
 10
28.4491312171
 20
131.315625
 11
28.5991312171
 21
131.465625
  0
LINE
  5
2C9
100
AcDbEntity
  8
0
100
AcDbLine
 62
7
  6
CONTINUOUS
 10
27.9491312171
 20
81.215625
 11
28.0991312171
 21
81.065625
  0
LINE
  5
2CA
100
AcDbEntity
  8
0
100
AcDbLine
 62
7
  6
CONTINUOUS
 10
28.4491312171
 20
81.215625
 11
28.5991312171
 21
81.065625
  0
LWPOLYLINE
  5
2CB
100
AcDbEntity
  8
0
100
AcDbPolyline
 62
250
  6
CONTINUOUS
 90
9
 70
0
 10
28.82425577
 20
79.1843990027
 10
28.8306577479
 20
79.1765962871
 10
28.8368834519
 20
79.1694766759
 10
28.8428737673
 20
79.1631779192
 10
28.8485014375
 20
79.1579088566
 10
28.8536245091
 20
79.1538716487
 10
28.8581417818
 20
79.1512182582
 10
28.8619770821
 20
79.1500833053
 10
28.8650374507
 20
79.1506092039
  0
LWPOLYLINE
  5
2CC
100
AcDbEntity
  8
0
100
AcDbPolyline
 62
7
  6
CONTINUOUS
 90
3
 70
0
 43
0.3500000006
 10
37.0848749084
 20
170.3013341675
 10
37.0134459915
 20
170.0870496826
 10
36.8705904236
 20
169.8013430786
  0
LWPOLYLINE
  5
2CD
100
AcDbEntity
  8
0
100
AcDbPolyline
 62
250
  6
CONTINUOUS
 90
22
 70
0
 10
28.7249038008
 20
133.1933042439
 10
28.732155259
 20
133.2058966276
 10
28.7394472838
 20
133.2183810855
 10
28.7467605166
 20
133.2307189057
 10
28.7540314109
 20
133.2428040564
 10
28.7612829925
 20
133.2546657934
 10
28.7686199239
 20
133.2664488352
 10
28.7760110742
 20
133.2780814297
 10
28.783426363
 20
133.2895037641
 10
28.7909540774
 20
133.30082655
 10
28.7985716485
 20
133.3119801707
 10
28.8061924322
 20
133.3227994767
 10
28.8137858312
 20
133.3331990997
 10
28.8213090174
 20
133.343069164
 10
28.8286409683
 20
133.3521946876
 10
28.8356314023
 20
133.3603372215
 10
28.8422203771
 20
133.3673706056
 10
28.848293424
 20
133.3731175541
 10
28.8536645632
 20
133.3773716547
 10
28.8582572018
 20
133.3800623844
 10
28.8620621403
 20
133.381166385
 10
28.8650374507
 20
133.3806407961
  0
LWPOLYLINE
  5
2CE
100
AcDbEntity
  8
0
100
AcDbPolyline
 62
250
  6
CONTINUOUS
 90
17
 70
0
 10
28.7249038008
 20
79.3379457561
 10
28.730589175
 20
79.3280410087
 10
28.7363305856
 20
79.3181502324
 10
28.742118451
 20
79.3082943962
 10
28.7479021548
 20
79.2985602533
 10
28.7537118155
 20
79.2889030956
 10
28.7596553078
 20
79.2791604853
 10
28.7657336914
 20
79.2693469782
 10
28.7719114504
 20
79.2595314462
 10
28.7782328796
 20
79.2496604499
 10
28.7846850821
 20
79.2397752891
 10
28.7912236895
 20
79.2299663302
 10
28.797836008
 20
79.220276872
 10
28.8044728084
 20
79.2108055038
 10
28.8111001409
 20
79.2016289536
 10
28.8177143028
 20
79.1927866611
 10
28.82425577
 20
79.1843990027
  0
LWPOLYLINE
  5
2CF
100
AcDbEntity
  8
0
100
AcDbPolyline
 62
7
  6
CONTINUOUS
 90
3
 70
0
 43
0.3500000006
 10
35.3294134827
 20
162.3013317261
 10
35.2579845657
 20
162.0870472412
 10
35.1151289978
 20
161.8013406372
  0
LWPOLYLINE
  5
2D0
100
AcDbEntity
  8
0
100
AcDbPolyline
 62
7
  6
CONTINUOUS
 90
7
 70
0
 10
30.771272302
 20
80.2890632825
 10
30.7795085685
 20
80.2750611679
 10
30.7864096724
 20
80.2620095607
 10
30.7918918433
 20
80.249908461
 10
30.7958804707
 20
80.2387578688
 10
30.798311238
 20
80.2285577841
 10
30.7991312171
 20
80.2193082068
  0
LINE
  5
2D1
100
AcDbEntity
  8
SMUSSO
100
AcDbLine
 62
7
  6
CONTINUOUS
 10
20.2491312171
 20
62.265625
 11
20.2491312171
 21
150.265625
  0
LINE
  5
2D2
100
AcDbEntity
  8
SMUSSO
100
AcDbLine
 62
7
  6
CONTINUOUS
 10
21.2491312171
 20
62.265625
 11
21.2491312171
 21
150.265625
  0
LINE
  5
2D3
100
AcDbEntity
  8
SMUSSO
100
AcDbLine
 62
7
  6
CONTINUOUS
 10
22.7491312171
 20
150.265625
 11
22.7491312171
 21
62.265625
  0
LINE
  5
2D4
100
AcDbEntity
  8
0
100
AcDbLine
 62
7
  6
CONTINUOUS
 10
26.3052720425
 20
62.8058797228
 11
26.2999287759
 21
62.9301590302
  0
LINE
  5
2D5
100
AcDbEntity
  8
0
100
AcDbLine
 62
7
  6
CONTINUOUS
 10
26.3098300692
 20
62.6841065075
 11
26.3052720425
 21
62.8058797228
  0
LINE
  5
2D6
100
AcDbEntity
  8
0
100
AcDbLine
 62
7
  6
CONTINUOUS
 10
26.3135431101
 20
62.5667379704
 11
26.3098300692
 21
62.6841065075
  0
LINE
  5
2D7
100
AcDbEntity
  8
SMUSSO
100
AcDbLine
 62
7
  6
CONTINUOUS
 10
23.2491312171
 20
150.765625
 11
23.2491312171
 21
61.765625
  0
LINE
  5
2D8
100
AcDbEntity
  8
0
100
AcDbLine
 62
7
  6
CONTINUOUS
 10
23.3991312171
 20
61.9150053117
 11
23.3991312171
 21
150.6162446883
  0
LWPOLYLINE
  5
2D9
100
AcDbEntity
  8
0
100
AcDbPolyline
 62
7
  6
CONTINUOUS
 90
16
 70
0
 10
26.3172372704
 20
150.1283382271
 10
26.317930942
 20
150.1788316023
 10
26.3183527308
 20
150.226932844
 10
26.3184949711
 20
150.2724568653
 10
26.3183527308
 20
150.3152261234
 10
26.317930942
 20
150.3550736708
 10
26.3172372704
 20
150.391845622
 10
26.3162679766
 20
150.4253983018
 10
26.3150290125
 20
150.4556000773
 10
26.3135431102
 20
150.4823331129
 10
26.3118078787
 20
150.5054925226
 10
26.3098300693
 20
150.524986749
 10
26.3076466411
 20
150.5407383521
 10
26.3052720426
 20
150.5526847257
 10
26.3026982022
 20
150.5607784407
 10
26.2999287759
 20
150.5649869529
  0
LINE
  5
2DA
100
AcDbEntity
  8
0
100
AcDbLine
 62
7
  6
CONTINUOUS
 10
26.3150290125
 20
150.0209702425
 11
26.3172372704
 21
150.1283382271
  0
LINE
  5
2DB
100
AcDbEntity
  8
0
100
AcDbLine
 62
7
  6
CONTINUOUS
 10
26.3118078786
 20
149.9064942313
 11
26.3150290125
 21
150.0209702425
  0
LINE
  5
2DC
100
AcDbEntity
  8
0
100
AcDbLine
 62
7
  6
CONTINUOUS
 10
26.307646641
 20
149.7866903138
 11
26.3118078786
 21
149.9064942313
  0
LWPOLYLINE
  5
2DD
100
AcDbEntity
  8
0
100
AcDbPolyline
 62
7
  6
CONTINUOUS
 90
3
 70
0
 10
26.2999287759
 20
149.6010909698
 10
26.3026982022
 20
149.6634231631
 10
26.307646641
 20
149.7866903138
  0
LINE
  5
2DE
100
AcDbEntity
  8
0
100
AcDbLine
 62
7
  6
CONTINUOUS
 10
26.2991312171
 20
149.5657773048
 11
26.2991312171
 21
62.9654726952
  0
LINE
  5
2DF
100
AcDbEntity
  8
0
100
AcDbLine
 62
7
  6
CONTINUOUS
 10
27.7991312171
 20
149.365625
 11
27.7991312171
 21
63.165625
  0
LINE
  5
2E0
100
AcDbEntity
  8
0
100
AcDbLine
 62
250
  6
CONTINUOUS
 10
28.724968568
 20
79.1157307718
 11
28.7249038008
 21
79.3379457561
  0
LINE
  5
2E1
100
AcDbEntity
  8
0
100
AcDbLine
 62
250
  6
CONTINUOUS
 10
28.7249038008
 20
133.1933042439
 11
28.7249684514
 21
133.4155174319
  0
LWPOLYLINE
  5
2E2
100
AcDbEntity
  8
0
100
AcDbPolyline
 62
7
  6
CONTINUOUS
 90
7
 70
0
 10
30.7991312171
 20
132.3119417932
 10
30.7983111092
 20
132.3026913025
 10
30.7958800617
 20
132.2924906697
 10
30.79189116
 20
132.2813398947
 10
30.786408873
 20
132.2692389777
 10
30.7795079535
 20
132.2561879186
 10
30.771272302
 20
132.2421867175
  0
LWPOLYLINE
  5
2E3
100
AcDbEntity
  8
0
100
AcDbPolyline
 62
250
  6
CONTINUOUS
 90
3
 70
0
 10
30.2492598791
 20
132.6046217208
 10
30.2492239944
 20
132.60654625
 10
30.2491804493
 20
132.6071888603
  0
LINE
  5
2E4
100
AcDbEntity
  8
0
100
AcDbLine
 62
250
  6
CONTINUOUS
 10
30.2493080858
 20
132.5969653046
 11
30.2492598791
 21
132.6046217208
  0
LINE
  5
2E5
100
AcDbEntity
  8
0
100
AcDbLine
 62
250
  6
CONTINUOUS
 10
30.5148320039
 20
131.6371950787
 11
30.5148320039
 21
131.6155051651
  0
LINE
  5
2E6
100
AcDbEntity
  8
0
100
AcDbLine
 62
250
  6
CONTINUOUS
 10
30.5148320039
 20
80.9157448349
 11
30.5148320039
 21
80.8940549213
  0
LINE
  5
2E7
100
AcDbEntity
  8
0
100
AcDbLine
 62
250
  6
CONTINUOUS
 10
30.6095984083
 20
132.1456116677
 11
30.6095984083
 21
131.6466717191
  0
LINE
  5
2E8
100
AcDbEntity
  8
0
100
AcDbLine
 62
250
  6
CONTINUOUS
 10
30.6095984083
 20
80.8845782809
 11
30.6095984083
 21
80.3856383323
  0
LINE
  5
2E9
100
AcDbEntity
  8
0
100
AcDbLine
 62
7
  6
CONTINUOUS
 10
30.7991312171
 20
132.4179862067
 11
30.7991312171
 21
131.6179862067
  0
LINE
  5
2EA
100
AcDbEntity
  8
0
100
AcDbLine
 62
7
  6
CONTINUOUS
 10
30.7991312171
 20
80.9132637933
 11
30.7991312171
 21
80.1132637933
  0
LINE
  5
2EB
100
AcDbEntity
  8
0
100
AcDbLine
 62
250
  6
CONTINUOUS
 10
30.2493202014
 20
79.939983806
 11
30.2491804493
 21
80.0119276183
  0
LINE
  5
2EC
100
AcDbEntity
  8
0
100
AcDbLine
 62
250
  6
CONTINUOUS
 10
30.249287942
 20
132.5566277525
 11
30.2493080858
 21
132.5969653046
  0
LINE
  5
2ED
100
AcDbEntity
  8
0
100
AcDbLine
 62
250
  6
CONTINUOUS
 10
30.2491804493
 20
132.5193223817
 11
30.249287942
 21
132.5566277525
  0
LWPOLYLINE
  5
2EE
100
AcDbEntity
  8
0
100
AcDbPolyline
 62
7
  6
CONTINUOUS
 90
4
 70
0
 43
0.3500000006
 10
32.2579859161
 20
164.372772583
 10
32.2579859161
 20
165.0156260376
 10
33.7579863739
 20
165.0156260376
 10
32.9008416367
 20
162.0156251221
  0
LWPOLYLINE
  5
2EF
100
AcDbEntity
  8
0
100
AcDbPolyline
 62
7
  6
CONTINUOUS
 90
13
 70
0
 43
0.3500000006
 10
34.0134473419
 20
170.8727655029
 10
34.0134473419
 20
172.1584905396
 10
34.2277318268
 20
172.5870595093
 10
34.6563030624
 20
173.015628479
 10
34.8705898132
 20
173.015628479
 10
35.2991610489
 20
172.5870595093
 10
35.5134455338
 20
172.1584905396
 10
35.5134455338
 20
170.8727655029
 10
35.2991610489
 20
170.4441965332
 10
34.8705898132
 20
170.0156275635
 10
34.6563030624
 20
170.0156275635
 10
34.2277318268
 20
170.4441965332
 10
34.0134473419
 20
170.8727655029
  0
LWPOLYLINE
  5
2F0
100
AcDbEntity
  8
0
100
AcDbPolyline
 62
250
  6
CONTINUOUS
 90
5
 70
0
 10
30.2491804493
 20
79.9240611397
 10
30.2492239944
 20
79.92470375
 10
30.2492598791
 20
79.9266282792
 10
30.2492879496
 20
79.9298264856
 10
30.2493202014
 20
79.939983806
  0
LINE
  5
2F1
100
AcDbEntity
  8
0
100
AcDbLine
 62
7
  6
CONTINUOUS
 10
28.0991312171
 20
81.065625
 11
28.2491312171
 21
81.215625
  0
LINE
  5
2F2
100
AcDbEntity
  8
0
100
AcDbLine
 62
7
  6
CONTINUOUS
 10
28.0991312171
 20
131.465625
 11
28.2491312171
 21
131.315625
  0
LWPOLYLINE
  5
2F3
100
AcDbEntity
  8
0
100
AcDbPolyline
 62
7
  6
CONTINUOUS
 90
18
 70
0
 10
26.2999287759
 20
61.9662630471
 10
26.3026982021
 20
61.970471559
 10
26.3052720424
 20
61.9785652734
 10
26.3076466409
 20
61.9905116465
 10
26.3098300691
 20
62.0062632492
 10
26.3118078785
 20
62.0257574756
 10
26.3135431101
 20
62.0489168854
 10
26.3150290124
 20
62.0756499211
 10
26.3162679766
 20
62.1058516967
 10
26.3172372704
 20
62.1394043767
 10
26.317930942
 20
62.1761763281
 10
26.3183527308
 20
62.2160238759
 10
26.3184949711
 20
62.2587931342
 10
26.3183527308
 20
62.3043171557
 10
26.317930942
 20
62.3524183976
 10
26.3172372704
 20
62.4029117731
 10
26.3162679766
 20
62.4556007304
 10
26.3135431101
 20
62.5667379704
  0
LINE
  5
2F4
100
AcDbEntity
  8
0
100
AcDbLine
 62
250
  6
CONTINUOUS
 10
28.7249038008
 20
79.3379457561
 11
29.8244226607
 21
79.9215899711
  0
LINE
  5
2F5
100
AcDbEntity
  8
0
100
AcDbLine
 62
250
  6
CONTINUOUS
 10
30.2491804493
 20
80.0119276183
 11
30.771272302
 21
80.2890632825
  0
LINE
  5
2F6
100
AcDbEntity
  8
0
100
AcDbLine
 62
7
  6
CONTINUOUS
 10
28.8641431788
 20
79.1501345084
 11
30.7991312171
 21
80.1772606596
  0
LWPOLYLINE
  5
2F7
100
AcDbEntity
  8
0
100
AcDbPolyline
 62
250
  6
CONTINUOUS
 90
10
 70
0
 10
30.3880923783
 20
79.9590739153
 10
30.3794700622
 20
79.9554321516
 10
30.3701147702
 20
79.9532686759
 10
30.360076792
 20
79.9525981426
 10
30.3494087565
 20
79.9534272245
 10
30.338169962
 20
79.9557542884
 10
30.326426845
 20
79.9595672055
 10
30.3142456039
 20
79.9648449501
 10
30.301692157
 20
79.9715594133
 10
30.2888370291
 20
79.9796733598
  0
LINE
  5
2F8
100
AcDbEntity
  8
0
100
AcDbLine
 62
7
  6
CONTINUOUS
 10
28.848759315
 20
131.4705878098
 11
30.7991312171
 21
131.665625
  0
LINE
  5
2F9
100
AcDbEntity
  8
0
100
AcDbLine
 62
7
  6
CONTINUOUS
 10
27.7991312171
 20
132.0214448745
 11
30.6095984083
 21
132.1456116677
  0
LINE
  5
2FA
100
AcDbEntity
  8
0
100
AcDbLine
 62
7
  6
CONTINUOUS
 10
30.2771945627
 20
131.6134313346
 11
30.7991312171
 21
131.6179862067
  0
LINE
  5
2FB
100
AcDbEntity
  8
0
100
AcDbLine
 62
7
  6
CONTINUOUS
 10
27.7991312171
 20
131.315625
 11
27.9491312171
 21
131.315625
  0
LINE
  5
2FC
100
AcDbEntity
  8
0
100
AcDbLine
 62
7
  6
CONTINUOUS
 10
28.2491312171
 20
131.315625
 11
28.4491312171
 21
131.315625
  0
LINE
  5
2FD
100
AcDbEntity
  8
0
100
AcDbLine
 62
7
  6
CONTINUOUS
 10
27.7991312171
 20
131.465625
 11
28.7492555959
 21
131.465625
  0
LINE
  5
2FE
100
AcDbEntity
  8
0
100
AcDbLine
 62
7
  6
CONTINUOUS
 10
30.7991312171
 20
132.4179862067
 11
30.67856845
 21
132.4179862067
  0
LINE
  5
2FF
100
AcDbEntity
  8
0
100
AcDbLine
 62
250
  6
CONTINUOUS
 10
28.7249038008
 20
133.1933042439
 11
27.7991312171
 21
133.1937224384
  0
LINE
  5
300
100
AcDbEntity
  8
0
100
AcDbLine
 62
7
  6
CONTINUOUS
 10
28.7249684149
 20
133.4157544386
 11
27.7991312171
 21
133.417370331
  0
LINE
  5
301
100
AcDbEntity
  8
0
100
AcDbLine
 62
250
  6
CONTINUOUS
 10
30.2491804493
 20
132.5193223817
 11
27.7991312171
 21
132.5335763512
  0
LINE
  5
302
100
AcDbEntity
  8
0
100
AcDbLine
 62
7
  6
CONTINUOUS
 10
30.2491804493
 20
132.6071888603
 11
27.7991312171
 21
132.6214428298
  0
LWPOLYLINE
  5
303
100
AcDbEntity
  8
0
100
AcDbPolyline
 62
250
  6
CONTINUOUS
 90
10
 70
0
 10
30.3880923783
 20
132.5721760847
 10
30.3794478985
 20
132.5758250015
 10
30.3700736085
 20
132.5779873269
 10
30.3600215248
 20
132.578651416
 10
30.3493478415
 20
132.5778139799
 10
30.3381113224
 20
132.5754800281
 10
30.3263727552
 20
132.5716622286
 10
30.3141963298
 20
132.5663811507
 10
30.3016499531
 20
132.55966595
 10
30.2888034696
 20
132.5515538896
  0
LINE
  5
304
100
AcDbEntity
  8
0
100
AcDbLine
 62
250
  6
CONTINUOUS
 10
29.8244226607
 20
132.6096600289
 11
28.7249038008
 21
133.1933042439
  0
LINE
  5
305
100
AcDbEntity
  8
0
100
AcDbLine
 62
250
  6
CONTINUOUS
 10
30.771272302
 20
132.2421867175
 11
30.2491804493
 21
132.5193223817
  0
LINE
  5
306
100
AcDbEntity
  8
0
100
AcDbLine
 62
7
  6
CONTINUOUS
 10
30.7991312171
 20
132.3539893404
 11
28.8641431788
 21
133.3811154916
  0
LINE
  5
307
100
AcDbEntity
  8
SMUSSO
100
AcDbLine
 62
7
  6
CONTINUOUS
 10
21.2491312171
 20
62.265625
 11
20.7491312171
 21
61.765625
  0
LINE
  5
308
100
AcDbEntity
  8
SMUSSO
100
AcDbLine
 62
7
  6
CONTINUOUS
 10
22.7491312171
 20
61.265625
 11
23.2491312171
 21
61.765625
  0
LINE
  5
309
100
AcDbEntity
  8
SMUSSO
100
AcDbLine
 62
7
  6
CONTINUOUS
 10
20.7491312171
 20
150.765625
 11
21.2491312171
 21
150.265625
  0
LINE
  5
30A
100
AcDbEntity
  8
SMUSSO
100
AcDbLine
 62
7
  6
CONTINUOUS
 10
23.2491312171
 20
150.765625
 11
22.7491312171
 21
151.265625
  0
LINE
  5
30B
100
AcDbEntity
  8
0
100
AcDbLine
 62
7
  6
CONTINUOUS
 10
26.2991312171
 20
61.965625
 11
27.7991312171
 21
63.165625
  0
LINE
  5
30C
100
AcDbEntity
  8
0
100
AcDbLine
 62
7
  6
CONTINUOUS
 10
26.2991312171
 20
150.565625
 11
27.7991312171
 21
149.365625
  0
LWPOLYLINE
  5
30D
100
AcDbEntity
  8
0
100
AcDbPolyline
 62
7
  6
CONTINUOUS
 90
10
 70
0
 43
0.3500000006
 10
35.2579845657
 20
162.5156162109
 10
35.3294134827
 20
162.3727719727
 10
35.3294134827
 20
162.3013317261
 10
35.1865579147
 20
162.1584874878
 10
35.1151289978
 20
162.1584874878
 10
35.0437000809
 20
162.2299096069
 10
35.0437000809
 20
162.3013317261
 10
35.1151289978
 20
162.4441940918
 10
35.1865579147
 20
162.5156162109
 10
35.2579845657
 20
162.5156162109
  0
LINE
  5
30E
100
AcDbEntity
  8
RACCORDO
100
AcDbLine
 62
250
  6
CONTINUOUS
 10
23.2491312171
 20
143.265625
 11
23.3991312171
 21
143.265625
  0
LINE
  5
30F
100
AcDbEntity
  8
RACCORDO
100
AcDbLine
 62
7
  6
CONTINUOUS
 10
23.2491312171
 20
145.265625
 11
23.3991312171
 21
145.265625
  0
LWPOLYLINE
  5
310
100
AcDbEntity
  8
0
100
AcDbPolyline
 62
7
  6
CONTINUOUS
 90
10
 70
0
 43
0.3500000006
 10
37.0134459915
 20
170.5156186523
 10
37.0848749084
 20
170.3727744141
 10
37.0848749084
 20
170.3013341675
 10
36.9420170746
 20
170.1584899292
 10
36.8705904236
 20
170.1584899292
 10
36.7991615067
 20
170.2299120483
 10
36.7991615067
 20
170.3013341675
 10
36.8705904236
 20
170.4441965332
 10
36.9420170746
 20
170.5156186523
 10
37.0134459915
 20
170.5156186523
  0
LINE
  5
311
100
AcDbEntity
  8
RACCORDO
100
AcDbLine
 62
7
  6
CONTINUOUS
 10
23.2491312171
 20
146.265625
 11
23.3991312171
 21
146.265625
  0
LINE
  5
312
100
AcDbEntity
  8
SMUSSO
100
AcDbLine
 62
7
  6
CONTINUOUS
 10
21.2491312171
 20
150.265625
 11
22.7491312171
 21
150.265625
  0
LINE
  5
313
100
AcDbEntity
  8
SMUSSO
100
AcDbLine
 62
7
  6
CONTINUOUS
 10
21.2491312171
 20
151.265625
 11
22.7491312171
 21
151.265625
  0
LWPOLYLINE
  5
314
100
AcDbEntity
  8
0
100
AcDbPolyline
 62
7
  6
CONTINUOUS
 90
8
 70
0
 43
0.3500000006
 10
36.3294137878
 20
162.0156251221
 10
37.1865562592
 20
162.0156251221
 10
37.6151274948
 20
162.4441940918
 10
37.6151274948
 20
163.3013320313
 10
37.1865562592
 20
163.7299191284
 10
36.3294137878
 20
163.7299191284
 10
36.3294137878
 20
165.0156260376
 10
37.6151274948
 20
165.0156260376
  0
LWPOLYLINE
  5
315
100
AcDbEntity
  8
0
100
AcDbPolyline
 62
7
  6
CONTINUOUS
 90
8
 70
0
 43
0.3500000006
 10
38.4722722321
 20
162.0156251221
 10
39.3294147034
 20
162.0156251221
 10
39.7579836731
 20
162.4441940918
 10
39.7579836731
 20
163.3013320313
 10
39.3294147034
 20
163.7299191284
 10
38.4722722321
 20
163.7299191284
 10
38.4722722321
 20
165.0156260376
 10
39.7579836731
 20
165.0156260376
  0
LWPOLYLINE
  5
316
100
AcDbEntity
  8
0
100
AcDbPolyline
 62
7
  6
CONTINUOUS
 90
8
 70
0
 43
0.3500000006
 10
38.0848752136
 20
170.0156275635
 10
38.9420176849
 20
170.0156275635
 10
39.3705911865
 20
170.4441965332
 10
39.3705911865
 20
171.3013344727
 10
38.9420176849
 20
171.7299034424
 10
38.0848752136
 20
171.7299034424
 10
38.0848752136
 20
173.015628479
 10
39.3705911865
 20
173.015628479
  0
LWPOLYLINE
  5
317
100
AcDbEntity
  8
0
100
AcDbPolyline
 62
7
  6
CONTINUOUS
 90
8
 70
0
 43
0.3500000006
 10
40.2277336578
 20
170.0156275635
 10
41.0848761292
 20
170.0156275635
 10
41.5134450989
 20
170.4441965332
 10
41.5134450989
 20
171.3013344727
 10
41.0848761292
 20
171.7299034424
 10
40.2277336578
 20
171.7299034424
 10
40.2277336578
 20
173.015628479
 10
41.5134450989
 20
173.015628479
  0
LINE
  5
318
100
AcDbEntity
  8
0
100
AcDbLine
 62
250
  6
CONTINUOUS
 10
23.3991312171
 20
149.6163969931
 11
26.2991312171
 21
149.5657773048
  0
LINE
  5
319
100
AcDbEntity
  8
0
100
AcDbLine
 62
7
  6
CONTINUOUS
 10
23.3991312171
 20
150.6162446883
 11
26.2991312171
 21
150.565625
  0
LINE
  5
31A
100
AcDbEntity
  8
0
100
AcDbLine
 62
250
  6
CONTINUOUS
 10
26.2999287759
 20
149.6010909698
 11
27.7991312171
 21
149.3040282275
  0
ARC
  5
31B
100
AcDbEntity
  8
RACCORDO
100
AcDbCircle
 62
7
  6
CONTINUOUS
 10
84.107421875
 20
84.865625
 40
1.2
100
AcDbArc
 50
180.0
 51
270.0
  0
ARC
  5
31C
100
AcDbEntity
  8
RACCORDO
100
AcDbCircle
 62
7
  6
CONTINUOUS
 10
239.407421875
 20
84.865625
 40
1.2
100
AcDbArc
 50
270.0
 51
360.0
  0
ARC
  5
31D
100
AcDbEntity
  8
RACCORDO
100
AcDbCircle
 62
7
  6
CONTINUOUS
 10
239.407421875
 20
127.665625
 40
1.2
100
AcDbArc
 50
0.0
 51
90.0
  0
ARC
  5
31E
100
AcDbEntity
  8
RACCORDO
100
AcDbCircle
 62
7
  6
CONTINUOUS
 10
84.107421875
 20
127.665625
 40
1.2
100
AcDbArc
 50
90.0
 51
180.0
  0
ARC
  5
31F
100
AcDbEntity
  8
0
100
AcDbCircle
 62
7
  6
CONTINUOUS
 10
28.7492555959
 20
80.065625
 40
1.0
100
AcDbArc
 50
84.2894068625
 51
90.0
  0
ARC
  5
320
100
AcDbEntity
  8
0
100
AcDbCircle
 62
7
  6
CONTINUOUS
 10
28.7492555959
 20
132.465625
 40
1.0
100
AcDbArc
 50
270.0
 51
275.7105931375
  0
ARC
  5
321
100
AcDbEntity
  8
0
100
AcDbCircle
 62
7
  6
CONTINUOUS
 10
28.724444402
 20
79.4156254297
 40
0.3
100
AcDbArc
 50
270.1000000226
 51
297.9490718565
  0
ARC
  5
322
100
AcDbEntity
  8
0
100
AcDbCircle
 62
7
  6
CONTINUOUS
 10
28.724444402
 20
133.1156245703
 40
0.3
100
AcDbArc
 50
62.0509281435
 51
89.8999999774
  0
ARC
  5
323
100
AcDbEntity
  8
0
100
AcDbCircle
 62
7
  6
CONTINUOUS
 10
30.2474351299
 20
132.3071939373
 40
0.3
100
AcDbArc
 50
62.0398404207
 51
89.6666666667
  0
ARC
  5
324
100
AcDbEntity
  8
0
100
AcDbCircle
 62
7
  6
CONTINUOUS
 10
30.2474351299
 20
80.2240560627
 40
0.3
100
AcDbArc
 50
270.3333333333
 51
297.9601595792
  0
ELLIPSE
  5
325
100
AcDbEntity
  8
0
100
AcDbEllipse
 62
7
  6
CONTINUOUS
 10
165.307421875
 20
81.3155793016
 30
0.0
 11
0.0
 21
0.3000456984
 31
0.0
 40
0.9998476952
 41
1.192701262
 42
1.5707963268
  0
ELLIPSE
  5
326
100
AcDbEntity
  8
0
100
AcDbEllipse
 62
7
  6
CONTINUOUS
 10
27.5772077635
 20
149.5431637629
 30
0.0
 11
1.2772653435
 21
-0.0582277698
 31
0.0
 40
0.7819142031
 41
-3.1412917057
 42
-3.1059619589
  0
ELLIPSE
  5
327
100
AcDbEntity
  8
0
100
AcDbEllipse
 62
7
  6
CONTINUOUS
 10
27.5772077635
 20
62.9880862371
 30
0.0
 11
1.2772653435
 21
0.0582277698
 31
0.0
 40
0.7819142031
 41
3.1059619589
 42
3.1412917057
  0
ELLIPSE
  5
328
100
AcDbEntity
  8
0
100
AcDbEllipse
 62
7
  6
CONTINUOUS
 10
30.5991312171
 20
132.345423695
 30
0.0
 11
-0.1417119467
 21
0.1422961243
 31
0.0
 40
0.9918061237
 41
-3.8766878413
 42
-2.8923940429
  0
ELLIPSE
  5
329
100
AcDbEntity
  8
0
100
AcDbEllipse
 62
7
  6
CONTINUOUS
 10
30.5991312171
 20
80.185826305
 30
0.0
 11
0.1417119467
 21
0.1422961243
 31
0.0
 40
0.9918061237
 41
-0.2491986107
 42
0.7350951877
  0
ENDSEC
  0
SECTION
  2
OBJECTS
  0
DICTIONARY
  5
C
100
AcDbDictionary
280
0
281
1
  3
ACAD_GROUP
350
D
  3
ACAD_MLINESTYLE
350
17
  3
ACAD_LAYOUT
350
1A
  3
ACAD_PLOTSETTINGS
350
19
  3
ACAD_PLOTSTYLENAME
350
E
  0
DICTIONARY
  5
D
102
{ACAD_REACTORS
330
C
102
}
100
AcDbDictionary
280
0
281
1
  0
ACDBDICTIONARYWDFLT
  5
E
102
{ACAD_REACTORS
330
C
102
}
100
AcDbDictionary
281
1
  3
Normal
350
F
100
AcDbDictionaryWithDefault
340
F
  0
DICTIONARY
  5
17
102
{ACAD_REACTORS
330
C
102
}
100
AcDbDictionary
280
0
281
1
  3
Standard
350
18
  0
DICTIONARY
  5
19
102
{ACAD_REACTORS
330
C
102
}
100
AcDbDictionary
281
1
  0
DICTIONARY
  5
1A
102
{ACAD_REACTORS
330
C
102
}
100
AcDbDictionary
281
1
  3
Model
350
32A
  3
Layout1
350
32B
  0
ACDBPLACEHOLDER
  5
F
102
{ACAD_REACTORS
330
E
102
}
  0
MLINESTYLE
  5
18
102
{ACAD_REACTORS
330
17
102
}
100
AcDbMlineStyle
  2
STANDARD
 70
0
  3

 62
256
 51
90.0
 52
90.0
 71
2
 49
0.5
 62
256
  6
BYLAYER
 49
-0.5
 62
256
  6
BYLAYER
  0
LAYOUT
  5
32A
102
{ACAD_REACTORS
330
1A
102
}
100
AcDbPlotSettings
  1

  2
none_device
  4
ISO_A4_(297.00_x_210.00_MM)
  6

 40
0.0
 41
0.0
 42
0.0
 43
0.0
 44
297.0
 45
210.0
 46
0.0
 47
0.0
 48
0.0
 49
0.0
140
0.0
141
0.0
142
1.0
143
1.0
 70
1024
 72
1
 73
0
 74
0
  7

 75
0
147
1.0
148
0.0
149
0.0
100
AcDbLayout
  1
Model
 70
0
 71
0
 10
0.0
 20
0.0
 11
297.0
 21
210.0
 12
0.0
 22
0.0
 32
0.0
 14
0.0
 24
0.0
 34
0.0
 15
0.0
 25
0.0
 35
0.0
146
0.0
 13
0.0
 23
0.0
 33
0.0
 16
1.0
 26
0.0
 36
0.0
 17
0.0
 27
1.0
 37
0.0
 76
0
330
21B
345
0
346
0
  0
LAYOUT
  5
32B
102
{ACAD_REACTORS
330
1A
102
}
100
AcDbPlotSettings
  1

  2
none_device
  4
ISO_A4_(297.00_x_210.00_MM)
  6

 40
0.0
 41
0.0
 42
0.0
 43
0.0
 44
297.0
 45
210.0
 46
0.0
 47
0.0
 48
0.0
 49
0.0
140
0.0
141
0.0
142
1.0
143
1.0
 70
0
 72
1
 73
0
 74
0
  7

 75
0
147
1.0
148
0.0
149
0.0
100
AcDbLayout
  1
Layout1
 70
0
 71
1
 10
0.0
 20
0.0
 11
297.0
 21
210.0
 12
0.0
 22
0.0
 32
0.0
 14
0.0
 24
0.0
 34
0.0
 15
0.0
 25
0.0
 35
0.0
146
0.0
 13
0.0
 23
0.0
 33
0.0
 16
1.0
 26
0.0
 36
0.0
 17
0.0
 27
1.0
 37
0.0
 76
0
330
21C
345
0
346
0
  0
ENDSEC
  0
EOF
