  0
SECTION
  2
HEADER
  9
$ACADVER
  1
AC1021
  9
$DWGCODEPAGE
  3
ANSI_1252
  9
$EXTMAX
 10
297.0
 20
210.0
 30
0.0
  9
$EXTMIN
 10
0.0
 20
0.0
 30
0.0
  9
$LIMMIN
 10
0.0
 20
0.0
  9
$LIMMAX
 10
297.0
 20
210.0
  9
$VIEWCTR
 10
148.5
 20
105.0
  9
$VIEWSIZE
 40
210.0
  9
$CLAYER
  8
0
  9
$LTSCALE
 40
16.335
  9
$CELTYPE
  6
BYLAYER
  9
$DIMSCALE
 40
1.0
  9
$DIMASZ
 40
3.0
  9
$DIMEXO
 40
0.5
  9
$DIMDLI
 40
11.286
  9
$DIMEXE
 40
1.5
  9
$DIMCEN
 40
2.673
  9
$DIMLFAC
 40
1.0
  9
$DIMBLK
  1
_FILLED
  9
$DIMALT
 70
0
  9
$DIMALTF
 40
25.4
  9
$DIMTXT
 40
3.0
  9
$DIMTOL
 70
1
  9
$DIMLIM
 70
0
  9
$DIMTFAC
 40
1.0
  9
$DIMTP
 40
0.01
  9
$DIMTM
 40
0.01
  9
$DIMGAP
 40
0.625
  9
$DIMDSEP
 70
44
  9
$AUNITS
 70
0
  9
$PDMODE
 70
3
  9
$PDSIZE
 40
3.0
  9
$HANDSEED
  5
37F
  9
$TILEMODE
 70
1
  9
$MEASUREMENT
 70
1
  9
$INSUNITS
 70
4
  0
ENDSEC
  0
SECTION
  2
CLASSES
  0
CLASS
  1
ACDBDICTIONARYWDFLT
  2
AcDbDictionaryWithDefault
  3
AutoCAD 2000
 90
0
 91
1
280
0
281
0
  0
CLASS
  1
ACDBPLACEHOLDER
  2
AcDbPlaceHolder
  3
AutoCAD 2000
 90
0
 91
1
280
0
281
0
  0
CLASS
  1
LAYOUT
  2
AcDbLayout
  3
AutoCAD 2000
 90
0
 91
0
280
0
281
0
  0
ENDSEC
  0
SECTION
  2
TABLES
  0
TABLE
  2
VPORT
  5
8
100
AcDbSymbolTable
 70
2
  0
VPORT
  5
1F4
100
AcDbSymbolTableRecord
100
AcDbViewportTableRecord
  2
*ACTIVE
 70
0
 10
0.0
 20
0.0
 11
1.0
 21
1.0
 12
148.5
 22
105.0
 13
0.0
 23
0.0
 14
1.0
 24
1.0
 15
0.0
 25
0.0
 16
0.0
 26
0.0
 36
1.0
 17
0.0
 27
0.0
 37
0.0
 40
210.0
 41
1.4142857143
 42
50.0
 43
0.0
 44
0.0
 50
0.0
 51
0.0
 71
0
 72
100
 73
1
 74
1
 75
0
 76
0
 77
0
 78
0
  0
ENDTAB
  0
TABLE
  2
LTYPE
  5
5
100
AcDbSymbolTable
 70
6
  0
LTYPE
  5
14
100
AcDbSymbolTableRecord
100
AcDbLinetypeTableRecord
  2
BYBLOCK
 70
0
  3

 72
65
 73
0
 40
0.0
  0
LTYPE
  5
15
100
AcDbSymbolTableRecord
100
AcDbLinetypeTableRecord
  2
BYLAYER
 70
0
  3

 72
65
 73
0
 40
0.0
  0
LTYPE
  5
16
100
AcDbSymbolTableRecord
100
AcDbLinetypeTableRecord
  2
CONTINUOUS
 70
64
  3
Solid line
 72
65
 73
0
 40
0.0
  0
LTYPE
  5
1F5
100
AcDbSymbolTableRecord
100
AcDbLinetypeTableRecord
  2
CENTER
 70
64
  3
____ _ ____ _ ____ _ ____ _ ____ _ ____ _ ____
 72
65
 73
4
 40
0.6
 49
0.375
 74
0
 49
-0.075
 74
0
 49
0.075
 74
0
 49
-0.075
 74
0
  0
LTYPE
  5
1F6
100
AcDbSymbolTableRecord
100
AcDbLinetypeTableRecord
  2
HIDDEN
 70
64
  3
- - - - - - - - - - - - - - - - - - - -
 72
65
 73
2
 40
0.2
 49
0.1
 74
0
 49
-0.1
 74
0
  0
LTYPE
  5
1F7
100
AcDbSymbolTableRecord
100
AcDbLinetypeTableRecord
  2
PHANTOM
 70
64
  3
_____ _ _ _____ _ _ _____ _ _ _____
 72
65
 73
6
 40
0.8
 49
0.45
 74
0
 49
-0.05
 74
0
 49
0.1
 74
0
 49
-0.05
 74
0
 49
0.1
 74
0
 49
-0.05
 74
0
  0
LTYPE
  5
1F8
100
AcDbSymbolTableRecord
100
AcDbLinetypeTableRecord
  2
DOT
 70
64
  3
. . . . . . . . . . . . . . . . . . . .
 72
65
 73
2
 40
0.2
 49
0.1
 74
0
 49
-0.1
 74
0
  0
LTYPE
  5
1F9
100
AcDbSymbolTableRecord
100
AcDbLinetypeTableRecord
  2
DASHED
 70
64
  3
- - - - - - - - - - - - - - - - - - - -
 72
65
 73
2
 40
0.2
 49
0.1
 74
0
 49
-0.1
 74
0
  0
ENDTAB
  0
TABLE
  2
LAYER
  5
2
100
AcDbSymbolTable
 70
36
  0
LAYER
  5
10
100
AcDbSymbolTableRecord
100
AcDbLayerTableRecord
  2
0
 70
0
 62
7
  6
CONTINUOUS
370
-3
390
F
  0
LAYER
  5
1FA
100
AcDbSymbolTableRecord
100
AcDbLayerTableRecord
  2
DEFAULT_1
 70
0
 62
7
  6
CENTER
370
-3
390
F
  0
LAYER
  5
1FB
100
AcDbSymbolTableRecord
100
AcDbLayerTableRecord
  2
DEFAULT_2
 70
0
 62
7
  6
HIDDEN
370
-3
390
F
  0
LAYER
  5
1FC
100
AcDbSymbolTableRecord
100
AcDbLayerTableRecord
  2
DEFAULT_3
 70
0
 62
7
  6
PHANTOM
370
-3
390
F
  0
LAYER
  5
1FD
100
AcDbSymbolTableRecord
100
AcDbLayerTableRecord
  2
ASSI
 70
0
 62
7
  6
CONTINUOUS
370
-3
390
F
  0
LAYER
  5
1FE
100
AcDbSymbolTableRecord
100
AcDbLayerTableRecord
  2
COORDINATE
 70
0
 62
7
  6
CONTINUOUS
370
-3
390
F
  0
LAYER
  5
1FF
100
AcDbSymbolTableRecord
100
AcDbLayerTableRecord
  2
COORD_ORIGINE
 70
0
 62
7
  6
CONTINUOUS
370
-3
390
F
  0
LAYER
  5
200
100
AcDbSymbolTableRecord
100
AcDbLayerTableRecord
  2
COPY_PUBLISH
 70
0
 62
7
  6
CONTINUOUS
370
-3
390
F
  0
LAYER
  5
201
100
AcDbSymbolTableRecord
100
AcDbLayerTableRecord
  2
COSMETIC
 70
0
 62
7
  6
CONTINUOUS
370
-3
390
F
  0
LAYER
  5
202
100
AcDbSymbolTableRecord
100
AcDbLayerTableRecord
  2
COSMETICI
 70
0
 62
7
  6
CONTINUOUS
370
-3
390
F
  0
LAYER
  5
203
100
AcDbSymbolTableRecord
100
AcDbLayerTableRecord
  2
CURVE
 70
0
 62
7
  6
CONTINUOUS
370
-3
390
F
  0
LAYER
  5
204
100
AcDbSymbolTableRecord
100
AcDbLayerTableRecord
  2
CURVE_TASSELLI
 70
0
 62
7
  6
CONTINUOUS
370
-3
390
F
  0
LAYER
  5
205
100
AcDbSymbolTableRecord
100
AcDbLayerTableRecord
  2
DRAFT
 70
0
 62
7
  6
CONTINUOUS
370
-3
390
F
  0
LAYER
  5
206
100
AcDbSymbolTableRecord
100
AcDbLayerTableRecord
  2
IGES
 70
0
 62
7
  6
CONTINUOUS
370
-3
390
F
  0
LAYER
  5
207
100
AcDbSymbolTableRecord
100
AcDbLayerTableRecord
  2
IMPORT_IGES
 70
0
 62
7
  6
CONTINUOUS
370
-3
390
F
  0
LAYER
  5
208
100
AcDbSymbolTableRecord
100
AcDbLayerTableRecord
  2
INTFCLR_2
 70
0
 62
7
  6
CONTINUOUS
370
-3
390
F
  0
LAYER
  5
209
100
AcDbSymbolTableRecord
100
AcDbLayerTableRecord
  2
INTF_1
 70
0
 62
7
  6
CONTINUOUS
370
-3
390
F
  0
LAYER
  5
20A
100
AcDbSymbolTableRecord
100
AcDbLayerTableRecord
  2
INTF_11
 70
0
 62
7
  6
CONTINUOUS
370
-3
390
F
  0
LAYER
  5
20B
100
AcDbSymbolTableRecord
100
AcDbLayerTableRecord
  2
INTF_21
 70
0
 62
7
  6
CONTINUOUS
370
-3
390
F
  0
LAYER
  5
20C
100
AcDbSymbolTableRecord
100
AcDbLayerTableRecord
  2
INTF_7
 70
0
 62
7
  6
CONTINUOUS
370
-3
390
F
  0
LAYER
  5
20D
100
AcDbSymbolTableRecord
100
AcDbLayerTableRecord
  2
NOTE
 70
0
 62
7
  6
CONTINUOUS
370
-3
390
F
  0
LAYER
  5
20E
100
AcDbSymbolTableRecord
100
AcDbLayerTableRecord
  2
PIANI
 70
0
 62
7
  6
CONTINUOUS
370
-3
390
F
  0
LAYER
  5
20F
100
AcDbSymbolTableRecord
100
AcDbLayerTableRecord
  2
PIANI_ORIGINE
 70
0
 62
7
  6
CONTINUOUS
370
-3
390
F
  0
LAYER
  5
210
100
AcDbSymbolTableRecord
100
AcDbLayerTableRecord
  2
PUNTI
 70
0
 62
7
  6
CONTINUOUS
370
-3
390
F
  0
LAYER
  5
211
100
AcDbSymbolTableRecord
100
AcDbLayerTableRecord
  2
RACCORDO
 70
0
 62
7
  6
CONTINUOUS
370
-3
390
F
  0
LAYER
  5
212
100
AcDbSymbolTableRecord
100
AcDbLayerTableRecord
  2
RGB__255__255__255__
 70
0
 62
7
  6
CONTINUOUS
370
-3
390
F
  0
LAYER
  5
213
100
AcDbSymbolTableRecord
100
AcDbLayerTableRecord
  2
RGB____0____0____0__
 70
0
 62
7
  6
CONTINUOUS
370
-3
390
F
  0
LAYER
  5
214
100
AcDbSymbolTableRecord
100
AcDbLayerTableRecord
  2
SIMBOLI
 70
0
 62
7
  6
CONTINUOUS
370
-3
390
F
  0
LAYER
  5
215
100
AcDbSymbolTableRecord
100
AcDbLayerTableRecord
  2
SMUSSO
 70
0
 62
7
  6
CONTINUOUS
370
-3
390
F
  0
LAYER
  5
216
100
AcDbSymbolTableRecord
100
AcDbLayerTableRecord
  2
SNAPLINE
 70
0
 62
7
  6
CONTINUOUS
370
-3
390
F
  0
LAYER
  5
217
100
AcDbSymbolTableRecord
100
AcDbLayerTableRecord
  2
SUPERFICI
 70
0
 62
7
  6
CONTINUOUS
370
-3
390
F
  0
LAYER
  5
218
100
AcDbSymbolTableRecord
100
AcDbLayerTableRecord
  2
TRASH
 70
0
 62
7
  6
CONTINUOUS
370
-3
390
F
  0
LAYER
  5
219
100
AcDbSymbolTableRecord
100
AcDbLayerTableRecord
  2
XSEC_DATUMS
 70
0
 62
7
  6
CONTINUOUS
370
-3
390
F
  0
ENDTAB
  0
TABLE
  2
STYLE
  5
3
100
AcDbSymbolTable
 70
1
  0
STYLE
  5
11
100
AcDbSymbolTableRecord
100
AcDbTextStyleTableRecord
  2
STANDARD
 70
0
 40
0.0
 41
0.8
 50
0.0
 71
0
 42
0.2
  3
txt
  4

  0
STYLE
  5
21A
100
AcDbSymbolTableRecord
100
AcDbTextStyleTableRecord
  2
TEXTSTYLE_1
 70
0
 40
0.0
 41
0.8
 50
0.0
 71
0
 42
0.2
  3
gdt
  4

  0
ENDTAB
  0
TABLE
  2
VIEW
  5
6
100
AcDbSymbolTable
 70
0
  0
ENDTAB
  0
TABLE
  2
UCS
  5
7
100
AcDbSymbolTable
 70
0
  0
ENDTAB
  0
TABLE
  2
APPID
  5
9
100
AcDbSymbolTable
 70
1
  0
APPID
  5
21B
100
AcDbSymbolTableRecord
100
AcDbRegAppTableRecord
  2
ACAD
 70
0
  0
ENDTAB
  0
TABLE
  2
BLOCK_RECORD
  5
1
100
AcDbSymbolTable
 70
0
  0
BLOCK_RECORD
  5
21C
100
AcDbSymbolTableRecord
100
AcDbBlockTableRecord
  2
*Model_Space
  0
BLOCK_RECORD
  5
21D
100
AcDbSymbolTableRecord
100
AcDbBlockTableRecord
  2
*Paper_Space
  0
BLOCK_RECORD
  5
21E
100
AcDbSymbolTableRecord
100
AcDbBlockTableRecord
  2
_FILLED
  0
BLOCK_RECORD
  5
21F
100
AcDbSymbolTableRecord
100
AcDbBlockTableRecord
  2
*D0
  0
BLOCK_RECORD
  5
220
100
AcDbSymbolTableRecord
100
AcDbBlockTableRecord
  2
*D1
  0
BLOCK_RECORD
  5
221
100
AcDbSymbolTableRecord
100
AcDbBlockTableRecord
  2
*D2
  0
BLOCK_RECORD
  5
222
100
AcDbSymbolTableRecord
100
AcDbBlockTableRecord
  2
*D3
  0
ENDTAB
  0
TABLE
  2
DIMSTYLE
  5
A
100
AcDbSymbolTable
 70
1
100
AcDbDimStyleTable
 71
0
  0
DIMSTYLE
105
223
100
AcDbSymbolTableRecord
100
AcDbDimStyleTableRecord
  2
STANDARD
 70
0
  3

  4

 40
1.0
 41
3.0
 42
0.5
 43
0.38
 44
1.5
 45
0.0
 46
0.0
 47
0.01
 48
0.01
140
3.0
141
0.09
142
0.0
143
25.4
144
1.0
145
0.0
146
1.0
147
0.625
 71
1.0
 72
0.0
 73
0
 74
0
 75
0
 76
0
 77
1
 78
8
 79
2
170
0
171
1
172
0
173
0
174
0
175
0
176
0
177
0
178
0
270
2
179
2
271
2
272
2
273
2
274
2
275
0
280
0
281
0
282
0
283
1
284
8
285
0
286
0
287
3
288
0
340
11
278
44
341
21E
342
21E
343
21E
344
21E
  0
DIMSTYLE
105
224
100
AcDbSymbolTableRecord
100
AcDbDimStyleTableRecord
  2
DIMSTYLE_1
 70
0
  3

  4

 40
1.0
 41
3.0
 42
0.5
 43
0.38
 44
1.5
 45
0.0
 46
0.0
 47
0.0
 48
0.0
140
3.0
141
0.09
142
0.0
143
25.4
144
1.0
145
0.0
146
1.0
147
0.75
 71
0.0
 72
0.0
 73
0
 74
0
 75
0
 76
0
 77
1
 78
8
 79
2
170
0
171
1
172
0
173
0
174
0
175
0
176
0
177
0
178
0
270
2
179
2
271
2
272
2
273
2
274
2
275
0
280
0
281
0
282
0
283
1
284
8
285
0
286
0
287
3
288
0
340
11
278
44
341
21E
342
21E
343
21E
344
21E
  0
ENDTAB
  0
ENDSEC
  0
SECTION
  2
BLOCKS
  0
BLOCK
  5
20
100
AcDbEntity
  8
0
100
AcDbBlockBegin
  2
*Model_Space
 70
0
 10
0.0
 20
0.0
 30
0.0
  3
*Model_Space
  1

  0
ENDBLK
  5
21
100
AcDbEntity
  8
0
100
AcDbBlockEnd
  0
BLOCK
  5
1C
100
AcDbEntity
  8
0
100
AcDbBlockBegin
  2
*Paper_Space
 70
0
 10
0.0
 20
0.0
 30
0.0
  3
*Paper_Space
  1

  0
ENDBLK
  5
1D
100
AcDbEntity
  8
0
100
AcDbBlockEnd
  0
BLOCK
  5
225
100
AcDbEntity
  8
0
100
AcDbBlockBegin
  2
_FILLED
 70
64
 10
0.0
 20
0.0
  3
_FILLED
  1

  0
SOLID
  5
226
100
AcDbEntity
  8
0
  6
BYBLOCK
 62
0
100
AcDbTrace
 10
0.0
 20
0.0
 11
-1.0
 21
0.3166666667
 12
-1.0
 22
-0.3166666667
 13
-1.0
 23
-0.3166666667
  0
ENDBLK
  5
227
100
AcDbEntity
  8
0
  6
BYBLOCK
 62
0
100
AcDbBlockEnd
  0
BLOCK
  5
228
100
AcDbEntity
  8
0
100
AcDbBlockBegin
 62
7
  6
CONTINUOUS
  2
*D0
 70
65
 10
0.0
 20
0.0
  3
*D0
  1

  0
LINE
  5
229
100
AcDbEntity
  8
0
100
AcDbLine
 62
7
  6
CONTINUOUS
 10
257.7691177604
 20
23.7859375
 11
269.7697265625
 21
23.7859375
  0
LINE
  5
22A
100
AcDbEntity
  8
0
100
AcDbLine
 62
7
  6
CONTINUOUS
 10
257.7691177604
 20
179.8859375
 11
269.7697265625
 21
179.8859375
  0
LINE
  5
22B
100
AcDbEntity
  8
0
100
AcDbLine
 62
7
  6
CONTINUOUS
 10
268.2697265625
 20
23.7859375
 11
268.2697265625
 21
101.8359375
  0
LINE
  5
22C
100
AcDbEntity
  8
0
100
AcDbLine
 62
7
  6
CONTINUOUS
 10
268.2697265625
 20
179.8859375
 11
268.2697265625
 21
101.8359375
  0
INSERT
  5
22D
100
AcDbEntity
  8
0
100
AcDbBlockReference
 62
7
  6
CONTINUOUS
  2
_FILLED
 10
268.2697265625
 20
23.7859375
 41
3.0
 42
3.0
 43
3.0
 50
270.0
  0
INSERT
  5
22E
100
AcDbEntity
  8
0
100
AcDbBlockReference
 62
7
  6
CONTINUOUS
  2
_FILLED
 10
268.2697265625
 20
179.8859375
 41
3.0
 42
3.0
 43
3.0
 50
90.0
  0
ENDBLK
  5
22F
100
AcDbEntity
  8
0
  6
BYBLOCK
 62
0
100
AcDbBlockEnd
  0
BLOCK
  5
230
100
AcDbEntity
  8
0
100
AcDbBlockBegin
 62
7
  6
CONTINUOUS
  2
*D1
 70
65
 10
0.0
 20
0.0
  3
*D1
  1

  0
LINE
  5
231
100
AcDbEntity
  8
0
100
AcDbLine
 62
7
  6
CONTINUOUS
 10
258.2697265625
 20
179.3853286979
 11
258.2697265625
 21
191.3859375
  0
LINE
  5
232
100
AcDbEntity
  8
0
100
AcDbLine
 62
7
  6
CONTINUOUS
 10
102.1697265625
 20
179.3853286979
 11
102.1697265625
 21
191.3859375
  0
LINE
  5
233
100
AcDbEntity
  8
0
100
AcDbLine
 62
7
  6
CONTINUOUS
 10
258.2697265625
 20
189.8859375
 11
180.2197265625
 21
189.8859375
  0
LINE
  5
234
100
AcDbEntity
  8
0
100
AcDbLine
 62
7
  6
CONTINUOUS
 10
102.1697265625
 20
189.8859375
 11
180.2197265625
 21
189.8859375
  0
INSERT
  5
235
100
AcDbEntity
  8
0
100
AcDbBlockReference
 62
7
  6
CONTINUOUS
  2
_FILLED
 10
258.2697265625
 20
189.8859375
 41
3.0
 42
3.0
 43
3.0
 50
0.0
  0
INSERT
  5
236
100
AcDbEntity
  8
0
100
AcDbBlockReference
 62
7
  6
CONTINUOUS
  2
_FILLED
 10
102.1697265625
 20
189.8859375
 41
3.0
 42
3.0
 43
3.0
 50
180.0
  0
ENDBLK
  5
237
100
AcDbEntity
  8
0
  6
BYBLOCK
 62
0
100
AcDbBlockEnd
  0
BLOCK
  5
238
100
AcDbEntity
  8
0
100
AcDbBlockBegin
 62
7
  6
CONTINUOUS
  2
*D2
 70
65
 10
0.0
 20
0.0
  3
*D2
  1

  0
LINE
  5
239
100
AcDbEntity
  8
0
100
AcDbLine
 62
7
  6
CONTINUOUS
 10
64.0954353333
 20
176.5398350196
 11
64.0954353333
 21
199.3859375
  0
LINE
  5
23A
100
AcDbEntity
  8
0
100
AcDbLine
 62
7
  6
CONTINUOUS
 10
55.6954353333
 20
178.7190239483
 11
55.6954353333
 21
199.3859375
  0
LINE
  5
23B
100
AcDbEntity
  8
0
100
AcDbLine
 62
7
  6
CONTINUOUS
 10
64.0954353333
 20
197.8859375
 11
59.8954353333
 21
197.8859375
  0
LINE
  5
23C
100
AcDbEntity
  8
0
100
AcDbLine
 62
7
  6
CONTINUOUS
 10
59.8954353333
 20
197.8859375
 11
71.5764858431
 21
197.8859375
  0
LINE
  5
23D
100
AcDbEntity
  8
0
100
AcDbLine
 62
7
  6
CONTINUOUS
 10
55.6954353333
 20
197.8859375
 11
59.8954353333
 21
197.8859375
  0
INSERT
  5
23E
100
AcDbEntity
  8
0
100
AcDbBlockReference
 62
7
  6
CONTINUOUS
  2
_FILLED
 10
64.0954353333
 20
197.8859375
 41
3.0
 42
3.0
 43
3.0
  0
INSERT
  5
23F
100
AcDbEntity
  8
0
100
AcDbBlockReference
 62
7
  6
CONTINUOUS
  2
_FILLED
 10
55.6954353333
 20
197.8859375
 41
3.0
 42
3.0
 43
3.0
 50
180.0
  0
ENDBLK
  5
240
100
AcDbEntity
  8
0
  6
BYBLOCK
 62
0
100
AcDbBlockEnd
  0
BLOCK
  5
241
100
AcDbEntity
  8
0
100
AcDbBlockBegin
 62
7
  6
CONTINUOUS
  2
*D3
 70
65
 10
0.0
 20
0.0
  3
*D3
  1

  0
LINE
  5
242
100
AcDbEntity
  8
0
100
AcDbLine
 62
7
  6
CONTINUOUS
 10
63.4954353333
 20
179.3853286979
 11
63.4954353333
 21
191.3859375
  0
LINE
  5
243
100
AcDbEntity
  8
0
100
AcDbLine
 62
7
  6
CONTINUOUS
 10
55.6954353333
 20
178.7190239483
 11
55.6954353333
 21
191.3859375
  0
LINE
  5
244
100
AcDbEntity
  8
0
100
AcDbLine
 62
7
  6
CONTINUOUS
 10
63.4954353333
 20
189.8859375
 11
59.5954353333
 21
189.8859375
  0
LINE
  5
245
100
AcDbEntity
  8
0
100
AcDbLine
 62
7
  6
CONTINUOUS
 10
59.5954353333
 20
189.8859375
 11
71.610180146
 21
189.8859375
  0
LINE
  5
246
100
AcDbEntity
  8
0
100
AcDbLine
 62
7
  6
CONTINUOUS
 10
55.6954353333
 20
189.8859375
 11
59.5954353333
 21
189.8859375
  0
INSERT
  5
247
100
AcDbEntity
  8
0
100
AcDbBlockReference
 62
7
  6
CONTINUOUS
  2
_FILLED
 10
63.4954353333
 20
189.8859375
 41
3.0
 42
3.0
 43
3.0
  0
INSERT
  5
248
100
AcDbEntity
  8
0
100
AcDbBlockReference
 62
7
  6
CONTINUOUS
  2
_FILLED
 10
55.6954353333
 20
189.8859375
 41
3.0
 42
3.0
 43
3.0
 50
180.0
  0
ENDBLK
  5
249
100
AcDbEntity
  8
0
  6
BYBLOCK
 62
0
100
AcDbBlockEnd
  0
ENDSEC
  0
SECTION
  2
ENTITIES
  0
DIMENSION
  5
24A
100
AcDbEntity
  8
0
100
AcDbDimension
 62
7
  6
CONTINUOUS
  2
*D0
 10
268.2697265625
 20
179.8859375
 11
268.2697265625
 21
97.0145089286
 70
160
 71
2
 72
2
 41
0.9
 42
156.1
  3
DIMSTYLE_1
100
AcDbAlignedDimension
 13
257.2691177604
 23
23.7859375
 14
257.2691177604
 24
179.8859375
 50
90.0
100
AcDbRotatedDimension
  0
DIMENSION
  5
24B
100
AcDbEntity
  8
0
100
AcDbDimension
 62
7
  6
CONTINUOUS
  2
*D1
 10
102.1697265625
 20
189.8859375
 11
175.3982979911
 21
189.8859375
 70
160
 71
2
 72
2
 41
0.9
 42
156.1
  3
DIMSTYLE_1
100
AcDbAlignedDimension
 13
258.2697265625
 23
178.8853286979
 14
102.1697265625
 24
178.8853286979
 50
180.0
100
AcDbRotatedDimension
  0
DIMENSION
  5
24C
100
AcDbEntity
  8
0
100
AcDbDimension
 62
7
  6
CONTINUOUS
  2
*D2
 10
55.6954353333
 20
197.8859375
 11
65.1479144146
 21
197.8859375
 70
160
 71
1
 72
2
 41
0.9
 42
8.4
  3
DIMSTYLE_1
100
AcDbAlignedDimension
 13
64.0954353333
 23
176.0398350196
 14
55.6954353333
 24
178.2190239483
 50
180.0
100
AcDbRotatedDimension
  0
DIMENSION
  5
24D
100
AcDbEntity
  8
0
100
AcDbDimension
 62
7
  6
CONTINUOUS
  2
*D3
 10
55.6954353333
 20
189.8859375
 11
65.1816087174
 21
189.8859375
 70
160
 71
1
 72
2
 41
0.9
 42
7.8
  3
DIMSTYLE_1
100
AcDbAlignedDimension
 13
63.4954353333
 23
178.8853286979
 14
55.6954353333
 24
178.2190239483
 50
180.0
100
AcDbRotatedDimension
  0
LINE
  5
24E
100
AcDbEntity
  8
ASSI
100
AcDbLine
 62
7
  6
CONTINUOUS
 10
102.1697265625
 20
178.8853286979
 11
103.1703353646
 21
179.8859375
  0
LINE
  5
24F
100
AcDbEntity
  8
ASSI
100
AcDbLine
 62
7
  6
CONTINUOUS
 10
103.1703353646
 20
23.7859375
 11
102.1697265625
 21
24.7865463021
  0
LINE
  5
250
100
AcDbEntity
  8
ASSI
100
AcDbLine
 62
7
  6
CONTINUOUS
 10
103.3933920544
 20
179.6329858605
 11
103.4078178699
 21
179.6484549947
  0
LINE
  5
251
100
AcDbEntity
  8
ASSI
100
AcDbLine
 62
7
  6
CONTINUOUS
 10
103.3933920544
 20
179.6329858605
 11
102.422678202
 21
178.6622720081
  0
LINE
  5
252
100
AcDbEntity
  8
ASSI
100
AcDbLine
 62
7
  6
CONTINUOUS
 10
103.8366401142
 20
178.613555498
 11
103.4421085645
 21
178.2190239483
  0
LINE
  5
253
100
AcDbEntity
  8
ASSI
100
AcDbLine
 62
7
  6
CONTINUOUS
 10
102.4072090678
 20
178.6478461926
 11
102.422678202
 21
178.6622720081
  0
LINE
  5
254
100
AcDbEntity
  8
ASSI
100
AcDbLine
 62
7
  6
CONTINUOUS
 10
102.422678202
 20
25.0096029919
 11
102.4072090678
 21
25.0240288074
  0
LINE
  5
255
100
AcDbEntity
  8
ASSI
100
AcDbLine
 62
7
  6
CONTINUOUS
 10
102.422678202
 20
25.0096029919
 11
103.3933920544
 21
24.0388891395
  0
LINE
  5
256
100
AcDbEntity
  8
ASSI
100
AcDbLine
 62
7
  6
CONTINUOUS
 10
103.4421085645
 20
25.4528510517
 11
103.8366401142
 21
25.058319502
  0
LINE
  5
257
100
AcDbEntity
  8
ASSI
100
AcDbLine
 62
7
  6
CONTINUOUS
 10
103.4078178699
 20
24.0234200053
 11
103.3933920544
 21
24.0388891395
  0
LINE
  5
258
100
AcDbEntity
  8
ASSI
100
AcDbLine
 62
7
  6
CONTINUOUS
 10
102.1697265625
 20
178.8853286979
 11
102.1697265625
 21
24.7865463021
  0
LINE
  5
259
100
AcDbEntity
  8
ASSI
100
AcDbLine
 62
7
  6
CONTINUOUS
 10
102.4072090678
 20
178.6478461926
 11
102.4072090678
 21
25.0240288074
  0
LINE
  5
25A
100
AcDbEntity
  8
ASSI
100
AcDbLine
 62
7
  6
CONTINUOUS
 10
103.4421085645
 20
178.2190239483
 11
103.4421085645
 21
25.4528510517
  0
LINE
  5
25B
100
AcDbEntity
  8
ASSI
100
AcDbLine
 62
7
  6
CONTINUOUS
 10
103.1703353646
 20
23.7859375
 11
257.2691177604
 21
23.7859375
  0
LINE
  5
25C
100
AcDbEntity
  8
ASSI
100
AcDbLine
 62
7
  6
CONTINUOUS
 10
103.4078178699
 20
24.0234200053
 11
257.0316352551
 21
24.0234200053
  0
LINE
  5
25D
100
AcDbEntity
  8
ASSI
100
AcDbLine
 62
7
  6
CONTINUOUS
 10
103.8366401142
 20
25.058319502
 11
256.6028130108
 21
25.058319502
  0
LWPOLYLINE
  5
25E
100
AcDbEntity
  8
0
100
AcDbPolyline
 62
7
  6
CONTINUOUS
 90
3
 70
0
 43
0.3500000006
 10
175.398295166
 20
192.7787995605
 10
176.2554331055
 20
193.6359375
 10
176.2554331055
 20
190.6359365845
  0
LWPOLYLINE
  5
25F
100
AcDbEntity
  8
0
100
AcDbPolyline
 62
7
  6
CONTINUOUS
 90
10
 70
0
 43
0.3500000006
 10
180.3268745728
 20
193.6359375
 10
179.6840211182
 20
192.9930840454
 10
179.255434021
 20
192.135946106
 10
179.255434021
 20
191.0645055542
 10
179.6840211182
 20
190.6359365845
 10
180.3268745728
 20
190.6359365845
 10
180.7554435425
 20
191.0645055542
 10
180.7554435425
 20
191.9216434937
 10
180.3268745728
 20
192.3502305908
 10
179.3982963867
 20
192.3502305908
  0
LWPOLYLINE
  5
260
100
AcDbEntity
  8
0
100
AcDbPolyline
 62
7
  6
CONTINUOUS
 90
3
 70
0
 43
0.3500000006
 10
183.3268754883
 20
192.7787995605
 10
184.1840134277
 20
193.6359375
 10
184.1840134277
 20
190.6359365845
  0
LWPOLYLINE
  5
261
100
AcDbEntity
  8
CURVE
100
AcDbPolyline
 62
250
  6
CONTINUOUS
 90
73
 70
0
 10
184.0250816955
 20
40.312274609
 10
184.0302749693
 20
40.3133206371
 10
184.035311764
 20
40.314994934
 10
184.0402192672
 20
40.3171459126
 10
184.0450246665
 20
40.3196219857
 10
184.0497551493
 20
40.3222715662
 10
184.0643553094
 20
40.3308729991
 10
184.0785241573
 20
40.3398210021
 10
184.0923051686
 20
40.3492440911
 10
184.1062256247
 20
40.3596184269
 10
184.1197790057
 20
40.3705645484
 10
184.1329685638
 20
40.382005125
 10
184.1457975513
 20
40.3938628259
 10
184.1610095194
 20
40.4088523012
 10
184.1756726718
 20
40.4243438803
 10
184.1897734156
 20
40.4403306946
 10
184.2032981579
 20
40.4568058753
 10
184.2152681765
 20
40.4724508363
 10
184.2267228496
 20
40.4884866009
 10
184.2376499712
 20
40.5048930793
 10
184.2480373351
 20
40.5216501816
 10
184.2578727353
 20
40.5387378179
 10
184.2682866093
 20
40.5583763733
 10
184.277974107
 20
40.5783823672
 10
184.286926105
 20
40.5987285578
 10
184.29513348
 20
40.6193877029
 10
184.3025871087
 20
40.6403325607
 10
184.3088943221
 20
40.6602367166
 10
184.3145335815
 20
40.6803426711
 10
184.3195096872
 20
40.7006242842
 10
184.3238274392
 20
40.7210554164
 10
184.327491638
 20
40.7416099277
 10
184.3305070838
 20
40.7622616785
 10
184.3330905363
 20
40.7851358759
 10
184.3349141314
 20
40.8080760262
 10
184.3360022363
 20
40.8310614952
 10
184.3363760259
 20
40.8557813092
 10
184.3359383522
 20
40.8805021976
 10
184.3346984663
 20
40.9051967462
 10
184.3331153185
 20
40.9250799186
 10
184.3309934123
 20
40.944910367
 10
184.3283100474
 20
40.9646703502
 10
184.3252422988
 20
40.9832483685
 10
184.3216459326
 20
41.0017332592
 10
184.3175131859
 20
41.020110542
 10
184.3122920261
 20
41.0403553572
 10
184.3063982303
 20
41.0604209045
 10
184.2998290143
 20
41.0802782086
 10
184.2925815941
 20
41.0998982945
 10
184.2846531853
 20
41.1192521871
 10
184.2768331015
 20
41.1366362185
 10
184.268453196
 20
41.1537562654
 10
184.2595216703
 20
41.1705935458
 10
184.250046726
 20
41.1871292774
 10
184.2400365647
 20
41.2033446779
 10
184.2279167098
 20
41.2215125035
 10
184.2151223581
 20
41.2392116423
 10
184.2016713246
 20
41.2564188823
 10
184.187581424
 20
41.2731110112
 10
184.1731078643
 20
41.2890153378
 10
184.1580540307
 20
41.3043815219
 10
184.1424412728
 20
41.3191929031
 10
184.1262909398
 20
41.333432821
 10
184.1096243809
 20
41.3470846152
 10
184.0924629456
 20
41.3601316254
 10
184.0748279832
 20
41.3725571912
 10
184.0616861132
 20
41.3812064328
 10
184.0483030694
 20
41.3894700834
 10
184.034677921
 20
41.3973015781
 10
184.0208097371
 20
41.4046543519
 10
184.0066975868
 20
41.41148184
 10
183.9923405393
 20
41.4177374775
 10
183.9777376637
 20
41.4233746995
  0
LWPOLYLINE
  5
262
100
AcDbEntity
  8
IMPORT_IGES
100
AcDbPolyline
 62
7
  6
CONTINUOUS
 90
73
 70
0
 10
184.0250816955
 20
40.312274609
 10
184.0302749693
 20
40.3133206371
 10
184.035311764
 20
40.314994934
 10
184.0402192672
 20
40.3171459126
 10
184.0450246665
 20
40.3196219857
 10
184.0497551493
 20
40.3222715662
 10
184.0643553094
 20
40.3308729991
 10
184.0785241573
 20
40.3398210021
 10
184.0923051686
 20
40.3492440911
 10
184.1062256247
 20
40.3596184269
 10
184.1197790057
 20
40.3705645484
 10
184.1329685638
 20
40.382005125
 10
184.1457975513
 20
40.3938628259
 10
184.1610095194
 20
40.4088523012
 10
184.1756726718
 20
40.4243438803
 10
184.1897734156
 20
40.4403306946
 10
184.2032981579
 20
40.4568058753
 10
184.2152681765
 20
40.4724508363
 10
184.2267228496
 20
40.4884866009
 10
184.2376499712
 20
40.5048930793
 10
184.2480373351
 20
40.5216501816
 10
184.2578727353
 20
40.5387378179
 10
184.2682866093
 20
40.5583763733
 10
184.277974107
 20
40.5783823672
 10
184.286926105
 20
40.5987285578
 10
184.29513348
 20
40.6193877029
 10
184.3025871087
 20
40.6403325607
 10
184.3088943221
 20
40.6602367166
 10
184.3145335815
 20
40.6803426711
 10
184.3195096872
 20
40.7006242842
 10
184.3238274392
 20
40.7210554164
 10
184.327491638
 20
40.7416099277
 10
184.3305070838
 20
40.7622616785
 10
184.3330905363
 20
40.7851358759
 10
184.3349141314
 20
40.8080760262
 10
184.3360022363
 20
40.8310614952
 10
184.3363760259
 20
40.8557813092
 10
184.3359383522
 20
40.8805021976
 10
184.3346984663
 20
40.9051967462
 10
184.3331153185
 20
40.9250799186
 10
184.3309934123
 20
40.944910367
 10
184.3283100474
 20
40.9646703502
 10
184.3252422988
 20
40.9832483685
 10
184.3216459326
 20
41.0017332592
 10
184.3175131859
 20
41.020110542
 10
184.3122920261
 20
41.0403553572
 10
184.3063982303
 20
41.0604209045
 10
184.2998290143
 20
41.0802782086
 10
184.2925815941
 20
41.0998982945
 10
184.2846531853
 20
41.1192521871
 10
184.2768331015
 20
41.1366362185
 10
184.268453196
 20
41.1537562654
 10
184.2595216703
 20
41.1705935458
 10
184.250046726
 20
41.1871292774
 10
184.2400365647
 20
41.2033446779
 10
184.2279167098
 20
41.2215125035
 10
184.2151223581
 20
41.2392116423
 10
184.2016713246
 20
41.2564188823
 10
184.187581424
 20
41.2731110112
 10
184.1731078643
 20
41.2890153378
 10
184.1580540307
 20
41.3043815219
 10
184.1424412728
 20
41.3191929031
 10
184.1262909398
 20
41.333432821
 10
184.1096243809
 20
41.3470846152
 10
184.0924629456
 20
41.3601316254
 10
184.0748279832
 20
41.3725571912
 10
184.0616861132
 20
41.3812064328
 10
184.0483030694
 20
41.3894700834
 10
184.034677921
 20
41.3973015781
 10
184.0208097371
 20
41.4046543519
 10
184.0066975868
 20
41.41148184
 10
183.9923405393
 20
41.4177374775
 10
183.9777376637
 20
41.4233746995
  0
LWPOLYLINE
  5
263
100
AcDbEntity
  8
CURVE
100
AcDbPolyline
 62
250
  6
CONTINUOUS
 90
23
 70
0
 10
183.2866467693
 20
41.0974762007
 10
183.3033482016
 20
41.1002581291
 10
183.3200792302
 20
41.102899987
 10
183.3368381509
 20
41.1053875365
 10
183.3536232598
 20
41.1077065393
 10
183.3704328526
 20
41.1098427573
 10
183.3872652254
 20
41.1117819526
 10
183.4041186741
 20
41.1135098869
 10
183.4209914945
 20
41.1150123222
 10
183.4378819827
 20
41.1162750203
 10
183.4547884344
 20
41.1172837432
 10
183.4717091458
 20
41.1180242528
 10
183.4876081736
 20
41.1184656167
 10
183.5035145058
 20
41.1186636049
 10
183.5194243771
 20
41.1186238665
 10
183.5353340224
 20
41.1183520506
 10
183.5512396763
 20
41.1178538065
 10
183.5671375738
 20
41.1171347832
 10
183.5830239494
 20
41.11620063
 10
183.5988950381
 20
41.115056996
 10
183.6147470745
 20
41.1137095303
 10
183.6305762935
 20
41.1121638822
 10
183.6463789299
 20
41.1104257007
  0
LWPOLYLINE
  5
264
100
AcDbEntity
  8
IMPORT_IGES
100
AcDbPolyline
 62
7
  6
CONTINUOUS
 90
23
 70
0
 10
183.2866467693
 20
41.0974762007
 10
183.3033482016
 20
41.1002581291
 10
183.3200792302
 20
41.102899987
 10
183.3368381509
 20
41.1053875365
 10
183.3536232598
 20
41.1077065393
 10
183.3704328526
 20
41.1098427573
 10
183.3872652254
 20
41.1117819526
 10
183.4041186741
 20
41.1135098869
 10
183.4209914945
 20
41.1150123222
 10
183.4378819827
 20
41.1162750203
 10
183.4547884344
 20
41.1172837432
 10
183.4717091458
 20
41.1180242528
 10
183.4876081736
 20
41.1184656167
 10
183.5035145058
 20
41.1186636049
 10
183.5194243771
 20
41.1186238665
 10
183.5353340224
 20
41.1183520506
 10
183.5512396763
 20
41.1178538065
 10
183.5671375738
 20
41.1171347832
 10
183.5830239494
 20
41.11620063
 10
183.5988950381
 20
41.115056996
 10
183.6147470745
 20
41.1137095303
 10
183.6305762935
 20
41.1121638822
 10
183.6463789299
 20
41.1104257007
  0
LINE
  5
265
100
AcDbEntity
  8
CURVE
100
AcDbLine
 62
250
  6
CONTINUOUS
 10
182.709692735
 20
39.2724219293
 11
182.2257283761
 21
39.2724219293
  0
LINE
  5
266
100
AcDbEntity
  8
IMPORT_IGES
100
AcDbLine
 62
7
  6
CONTINUOUS
 10
182.709692735
 20
39.2724219293
 11
182.2257283761
 21
39.2724219293
  0
LINE
  5
267
100
AcDbEntity
  8
CURVE
100
AcDbLine
 62
250
  6
CONTINUOUS
 10
181.3547295585
 20
39.2724219293
 11
180.9005238649
 21
39.2724219293
  0
LINE
  5
268
100
AcDbEntity
  8
IMPORT_IGES
100
AcDbLine
 62
7
  6
CONTINUOUS
 10
181.3547295585
 20
39.2724219293
 11
180.9005238649
 21
39.2724219293
  0
LINE
  5
269
100
AcDbEntity
  8
CURVE
100
AcDbLine
 62
250
  6
CONTINUOUS
 10
180.828419392
 20
39.2724219293
 11
180.3792118886
 21
39.2724219293
  0
LINE
  5
26A
100
AcDbEntity
  8
IMPORT_IGES
100
AcDbLine
 62
7
  6
CONTINUOUS
 10
180.828419392
 20
39.2724219293
 11
180.3792118886
 21
39.2724219293
  0
LINE
  5
26B
100
AcDbEntity
  8
CURVE
100
AcDbLine
 62
250
  6
CONTINUOUS
 10
179.738895632
 20
39.2724219293
 11
179.6744953492
 21
39.2724219293
  0
LINE
  5
26C
100
AcDbEntity
  8
IMPORT_IGES
100
AcDbLine
 62
7
  6
CONTINUOUS
 10
179.738895632
 20
39.2724219293
 11
179.6744953492
 21
39.2724219293
  0
LINE
  5
26D
100
AcDbEntity
  8
CURVE
100
AcDbLine
 62
250
  6
CONTINUOUS
 10
179.0367195687
 20
39.2724219293
 11
178.5974267315
 21
39.2724219293
  0
LINE
  5
26E
100
AcDbEntity
  8
IMPORT_IGES
100
AcDbLine
 62
7
  6
CONTINUOUS
 10
179.0367195687
 20
39.2724219293
 11
178.5974267315
 21
39.2724219293
  0
LINE
  5
26F
100
AcDbEntity
  8
CURVE
100
AcDbLine
 62
250
  6
CONTINUOUS
 10
177.0135294701
 20
39.2724219293
 11
176.6088698695
 21
39.2724219293
  0
LINE
  5
270
100
AcDbEntity
  8
IMPORT_IGES
100
AcDbLine
 62
7
  6
CONTINUOUS
 10
177.0135294701
 20
39.2724219293
 11
176.6088698695
 21
39.2724219293
  0
LINE
  5
271
100
AcDbEntity
  8
CURVE
100
AcDbLine
 62
250
  6
CONTINUOUS
 10
177.8910434303
 20
39.2724219293
 11
178.3502315999
 21
39.2724219293
  0
LINE
  5
272
100
AcDbEntity
  8
IMPORT_IGES
100
AcDbLine
 62
7
  6
CONTINUOUS
 10
177.8910434303
 20
39.2724219293
 11
178.3502315999
 21
39.2724219293
  0
LINE
  5
273
100
AcDbEntity
  8
CURVE
100
AcDbLine
 62
250
  6
CONTINUOUS
 10
182.8445326943
 20
39.2724215126
 11
183.3018727419
 21
39.2724215126
  0
LINE
  5
274
100
AcDbEntity
  8
IMPORT_IGES
100
AcDbLine
 62
7
  6
CONTINUOUS
 10
182.8445326943
 20
39.2724215126
 11
183.3018727419
 21
39.2724215126
  0
LINE
  5
275
100
AcDbEntity
  8
CURVE
100
AcDbLine
 62
250
  6
CONTINUOUS
 10
184.005055335
 20
39.2724215126
 11
184.4467405094
 21
39.2724215126
  0
LINE
  5
276
100
AcDbEntity
  8
IMPORT_IGES
100
AcDbLine
 62
7
  6
CONTINUOUS
 10
184.005055335
 20
39.2724215126
 11
184.4467405094
 21
39.2724215126
  0
LINE
  5
277
100
AcDbEntity
  8
CURVE
100
AcDbLine
 62
250
  6
CONTINUOUS
 10
182.1067743815
 20
39.7115827665
 11
181.4814369813
 21
39.7115827665
  0
LINE
  5
278
100
AcDbEntity
  8
IMPORT_IGES
100
AcDbLine
 62
7
  6
CONTINUOUS
 10
182.1067743815
 20
39.7115827665
 11
181.4814369813
 21
39.7115827665
  0
LINE
  5
279
100
AcDbEntity
  8
CURVE
100
AcDbLine
 62
250
  6
CONTINUOUS
 10
181.5753665009
 20
40.0514041796
 11
182.0150060999
 21
40.0514041796
  0
LINE
  5
27A
100
AcDbEntity
  8
IMPORT_IGES
100
AcDbLine
 62
7
  6
CONTINUOUS
 10
181.5753665009
 20
40.0514041796
 11
182.0150060999
 21
40.0514041796
  0
LINE
  5
27B
100
AcDbEntity
  8
CURVE
100
AcDbLine
 62
250
  6
CONTINUOUS
 10
183.3018727419
 20
40.1333075704
 11
183.5480782033
 21
40.1333075704
  0
LINE
  5
27C
100
AcDbEntity
  8
IMPORT_IGES
100
AcDbLine
 62
7
  6
CONTINUOUS
 10
183.3018727419
 20
40.1333075704
 11
183.5480782033
 21
40.1333075704
  0
LINE
  5
27D
100
AcDbEntity
  8
CURVE
100
AcDbLine
 62
250
  6
CONTINUOUS
 10
183.549067974
 20
40.4935841049
 11
183.2866467693
 21
40.4935841049
  0
LINE
  5
27E
100
AcDbEntity
  8
IMPORT_IGES
100
AcDbLine
 62
7
  6
CONTINUOUS
 10
183.549067974
 20
40.4935841049
 11
183.2866467693
 21
40.4935841049
  0
LINE
  5
27F
100
AcDbEntity
  8
CURVE
100
AcDbLine
 62
250
  6
CONTINUOUS
 10
175.9114856155
 20
41.4722364007
 11
176.4103052118
 21
41.4722364007
  0
LINE
  5
280
100
AcDbEntity
  8
IMPORT_IGES
100
AcDbLine
 62
7
  6
CONTINUOUS
 10
175.9114856155
 20
41.4722364007
 11
176.4103052118
 21
41.4722364007
  0
LINE
  5
281
100
AcDbEntity
  8
CURVE
100
AcDbLine
 62
250
  6
CONTINUOUS
 10
177.2617638398
 20
41.4722364007
 11
177.7206387713
 21
41.4722364007
  0
LINE
  5
282
100
AcDbEntity
  8
IMPORT_IGES
100
AcDbLine
 62
7
  6
CONTINUOUS
 10
177.2617638398
 20
41.4722364007
 11
177.7206387713
 21
41.4722364007
  0
LINE
  5
283
100
AcDbEntity
  8
CURVE
100
AcDbLine
 62
250
  6
CONTINUOUS
 10
178.7960573891
 20
41.4722364007
 11
179.254865273
 21
41.4722364007
  0
LINE
  5
284
100
AcDbEntity
  8
IMPORT_IGES
100
AcDbLine
 62
7
  6
CONTINUOUS
 10
178.7960573891
 20
41.4722364007
 11
179.254865273
 21
41.4722364007
  0
LINE
  5
285
100
AcDbEntity
  8
CURVE
100
AcDbLine
 62
250
  6
CONTINUOUS
 10
180.1683911363
 20
41.4722364007
 11
180.622712068
 21
41.4722364007
  0
LINE
  5
286
100
AcDbEntity
  8
IMPORT_IGES
100
AcDbLine
 62
7
  6
CONTINUOUS
 10
180.1683911363
 20
41.4722364007
 11
180.622712068
 21
41.4722364007
  0
LINE
  5
287
100
AcDbEntity
  8
CURVE
100
AcDbLine
 62
250
  6
CONTINUOUS
 10
181.5905265954
 20
41.4722364007
 11
182.034734861
 21
41.4722364007
  0
LINE
  5
288
100
AcDbEntity
  8
IMPORT_IGES
100
AcDbLine
 62
7
  6
CONTINUOUS
 10
181.5905265954
 20
41.4722364007
 11
182.034734861
 21
41.4722364007
  0
LINE
  5
289
100
AcDbEntity
  8
CURVE
100
AcDbLine
 62
250
  6
CONTINUOUS
 10
178.3502315999
 20
41.4723684007
 11
177.8910434303
 21
41.4723684007
  0
LINE
  5
28A
100
AcDbEntity
  8
IMPORT_IGES
100
AcDbLine
 62
7
  6
CONTINUOUS
 10
178.3502315999
 20
41.4723684007
 11
177.8910434303
 21
41.4723684007
  0
LINE
  5
28B
100
AcDbEntity
  8
ASSI
100
AcDbLine
 62
250
  6
CONTINUOUS
 10
224.9198176437
 20
43.4375515837
 11
135.5196354813
 21
43.4375515837
  0
LINE
  5
28C
100
AcDbEntity
  8
ASSI
100
AcDbLine
 62
250
  6
CONTINUOUS
 10
224.9198176437
 20
43.6370643937
 11
135.5196354813
 21
43.6370643937
  0
LINE
  5
28D
100
AcDbEntity
  8
ASSI
100
AcDbLine
 62
7
  6
CONTINUOUS
 10
135.6185085876
 20
43.7359375
 11
224.8209445374
 21
43.7359375
  0
LWPOLYLINE
  5
28E
100
AcDbEntity
  8
CURVE
100
AcDbPolyline
 62
250
  6
CONTINUOUS
 90
46
 70
0
 10
183.5480782033
 20
40.1333075704
 10
183.5555897214
 20
40.1332017597
 10
183.5631131421
 20
40.1328843412
 10
183.5706401425
 20
40.1323553356
 10
183.5781623994
 20
40.1316147635
 10
183.58567159
 20
40.1306626456
 10
183.5931593911
 20
40.1294990024
 10
183.6006174799
 20
40.1281238545
 10
183.6080375331
 20
40.1265372227
 10
183.6154112279
 20
40.1247391274
 10
183.6227302412
 20
40.1227295894
 10
183.6299862501
 20
40.1205086292
 10
183.6371709314
 20
40.1180762675
 10
183.6442759622
 20
40.1154325249
 10
183.6512930195
 20
40.112577422
 10
183.6582137803
 20
40.1095109794
 10
183.6650299215
 20
40.1062332178
 10
183.6715638457
 20
40.1028369157
 10
183.6779872155
 20
40.0992452123
 10
183.6842967143
 20
40.0954633322
 10
183.6904890255
 20
40.0914964999
 10
183.6965608327
 20
40.0873499398
 10
183.7025088192
 20
40.0830288767
 10
183.7083296684
 20
40.078538535
 10
183.714020064
 20
40.0738841393
 10
183.7195766892
 20
40.0690709141
 10
183.7249962275
 20
40.0641040839
 10
183.7302753625
 20
40.0589888734
 10
183.7354107775
 20
40.0537305071
 10
183.7403991559
 20
40.0483342094
 10
183.7456136613
 20
40.0423634081
 10
183.7506552494
 20
40.0362457885
 10
183.7555260322
 20
40.0299890189
 10
183.7602281217
 20
40.0236007677
 10
183.7647636297
 20
40.0170887033
 10
183.7691346681
 20
40.0104604941
 10
183.773343349
 20
40.0037238083
 10
183.7773917842
 20
39.9968863144
 10
183.7812820857
 20
39.9899556808
 10
183.7850163653
 20
39.9829395758
 10
183.788596735
 20
39.9758456678
 10
183.7920253068
 20
39.9686816251
 10
183.7953041925
 20
39.9614551161
 10
183.7984355041
 20
39.9541738092
 10
183.8014213534
 20
39.9468453728
 10
183.8042638525
 20
39.9394774752
  0
LWPOLYLINE
  5
28F
100
AcDbEntity
  8
IMPORT_IGES
100
AcDbPolyline
 62
7
  6
CONTINUOUS
 90
46
 70
0
 10
183.5480782033
 20
40.1333075704
 10
183.5555897214
 20
40.1332017597
 10
183.5631131421
 20
40.1328843412
 10
183.5706401425
 20
40.1323553356
 10
183.5781623994
 20
40.1316147635
 10
183.58567159
 20
40.1306626456
 10
183.5931593911
 20
40.1294990024
 10
183.6006174799
 20
40.1281238545
 10
183.6080375331
 20
40.1265372227
 10
183.6154112279
 20
40.1247391274
 10
183.6227302412
 20
40.1227295894
 10
183.6299862501
 20
40.1205086292
 10
183.6371709314
 20
40.1180762675
 10
183.6442759622
 20
40.1154325249
 10
183.6512930195
 20
40.112577422
 10
183.6582137803
 20
40.1095109794
 10
183.6650299215
 20
40.1062332178
 10
183.6715638457
 20
40.1028369157
 10
183.6779872155
 20
40.0992452123
 10
183.6842967143
 20
40.0954633322
 10
183.6904890255
 20
40.0914964999
 10
183.6965608327
 20
40.0873499398
 10
183.7025088192
 20
40.0830288767
 10
183.7083296684
 20
40.078538535
 10
183.714020064
 20
40.0738841393
 10
183.7195766892
 20
40.0690709141
 10
183.7249962275
 20
40.0641040839
 10
183.7302753625
 20
40.0589888734
 10
183.7354107775
 20
40.0537305071
 10
183.7403991559
 20
40.0483342094
 10
183.7456136613
 20
40.0423634081
 10
183.7506552494
 20
40.0362457885
 10
183.7555260322
 20
40.0299890189
 10
183.7602281217
 20
40.0236007677
 10
183.7647636297
 20
40.0170887033
 10
183.7691346681
 20
40.0104604941
 10
183.773343349
 20
40.0037238083
 10
183.7773917842
 20
39.9968863144
 10
183.7812820857
 20
39.9899556808
 10
183.7850163653
 20
39.9829395758
 10
183.788596735
 20
39.9758456678
 10
183.7920253068
 20
39.9686816251
 10
183.7953041925
 20
39.9614551161
 10
183.7984355041
 20
39.9541738092
 10
183.8014213534
 20
39.9468453728
 10
183.8042638525
 20
39.9394774752
  0
LWPOLYLINE
  5
290
100
AcDbEntity
  8
ASSI
100
AcDbPolyline
 62
250
  6
CONTINUOUS
 90
25
 70
0
 10
135.5196354813
 20
43.6370643937
 10
135.4877529876
 20
43.638014793
 10
135.4559400012
 20
43.6409993881
 10
135.4243261021
 20
43.6460194903
 10
135.3930055789
 20
43.653076611
 10
135.3621463837
 20
43.6621511044
 10
135.3319829528
 20
43.6731797007
 10
135.3026604295
 20
43.6860994103
 10
135.2742707077
 20
43.7008585986
 10
135.2469537476
 20
43.717374423
 10
135.2208376444
 20
43.7355513428
 10
135.195995025
 20
43.7553194115
 10
135.1724778283
 20
43.7766282325
 10
135.1504652202
 20
43.7992957677
 10
135.1299468562
 20
43.8233133919
 10
135.1107515561
 20
43.848944686
 10
135.0929448007
 20
43.8762634616
 10
135.0767675452
 20
43.9050811543
 10
135.0623720523
 20
43.9353004801
 10
135.0498550045
 20
43.9669447755
 10
135.0394113417
 20
43.999783852
 10
135.0312533155
 20
44.0332925887
 10
135.0254405717
 20
44.0671799934
 10
135.0219674485
 20
44.1014178932
 10
135.0208534562
 20
44.1358464188
  0
LWPOLYLINE
  5
291
100
AcDbEntity
  8
ASSI
100
AcDbPolyline
 62
250
  6
CONTINUOUS
 90
25
 70
0
 10
135.5196354813
 20
43.4375515837
 10
135.4747804665
 20
43.438982851
 10
135.430380511
 20
43.4432396622
 10
135.3864356149
 20
43.4503220173
 10
135.342720659
 20
43.460290927
 10
135.2994607626
 20
43.4730853806
 10
135.2573312832
 20
43.4885223456
 10
135.2163895011
 20
43.5066433699
 10
135.176578136
 20
43.5274069056
 10
135.1384007053
 20
43.5505052767
 10
135.1019111822
 20
43.5759394632
 10
135.0670555933
 20
43.6037084852
 10
135.0341755364
 20
43.6335017273
 10
135.0033540744
 20
43.6651651658
 10
134.9745081442
 20
43.6988528246
 10
134.9477301549
 20
43.7347161594
 10
134.9228481081
 20
43.7729304071
 10
134.9000340021
 20
43.8133203309
 10
134.8798962403
 20
43.8555116764
 10
134.8624579595
 20
43.8997461617
 10
134.8476960229
 20
43.9457820686
 10
134.836149424
 20
43.9925199887
 10
134.8279978271
 20
44.0395934523
 10
134.8230615678
 20
44.087368929
 10
134.8213406462
 20
44.1358464188
  0
LWPOLYLINE
  5
292
100
AcDbEntity
  8
CURVE
100
AcDbPolyline
 62
250
  6
CONTINUOUS
 90
49
 70
0
 10
183.6463789299
 20
41.1104257007
 10
183.6547947087
 20
41.1093350667
 10
183.6632110613
 20
41.108016947
 10
183.6716187181
 20
41.1064719812
 10
183.6800084099
 20
41.1047008088
 10
183.6883708669
 20
41.1027040693
 10
183.6966968199
 20
41.1004824021
 10
183.7049769992
 20
41.0980364469
 10
183.7132021355
 20
41.0953668431
 10
183.7213629593
 20
41.0924742303
 10
183.7294502011
 20
41.0893592479
 10
183.7374545914
 20
41.0860225355
 10
183.7453668607
 20
41.0824647327
 10
183.7531777397
 20
41.0786864788
 10
183.7608779587
 20
41.0746884135
 10
183.7684582485
 20
41.0704711762
 10
183.7759093393
 20
41.0660354064
 10
183.7832219619
 20
41.0613817438
 10
183.7903868467
 20
41.0565108278
 10
183.7973947243
 20
41.0514232978
 10
183.8042363252
 20
41.0461197935
 10
183.8109023798
 20
41.0406009544
 10
183.8173836189
 20
41.0348674199
 10
183.8236707728
 20
41.0289198296
 10
183.8297545721
 20
41.022758823
 10
183.8355957667
 20
41.016421513
 10
183.84122396
 20
41.0098836553
 10
183.8466364888
 20
41.0031551918
 10
183.8518306901
 20
40.9962460642
 10
183.8568039009
 20
40.9891662143
 10
183.8615534581
 20
40.981925584
 10
183.8660766986
 20
40.974534115
 10
183.8703709594
 20
40.967001749
 10
183.8744335774
 20
40.9593384279
 10
183.8782618896
 20
40.9515540935
 10
183.8818532329
 20
40.9436586874
 10
183.8852049443
 20
40.9356621516
 10
183.8883143606
 20
40.9275744278
 10
183.891178819
 20
40.9194054578
 10
183.8937956562
 20
40.9111651834
 10
183.8961622093
 20
40.9028635463
 10
183.8982758152
 20
40.8945104883
 10
183.9001338108
 20
40.8861159512
 10
183.9017335331
 20
40.8776898769
 10
183.903072319
 20
40.869242207
 10
183.9041475054
 20
40.8607828834
 10
183.9049564294
 20
40.8523218479
 10
183.9054964279
 20
40.8438690422
 10
183.9057648377
 20
40.8354344081
  0
LWPOLYLINE
  5
293
100
AcDbEntity
  8
IMPORT_IGES
100
AcDbPolyline
 62
7
  6
CONTINUOUS
 90
49
 70
0
 10
183.6463789299
 20
41.1104257007
 10
183.6547947087
 20
41.1093350667
 10
183.6632110613
 20
41.108016947
 10
183.6716187181
 20
41.1064719812
 10
183.6800084099
 20
41.1047008088
 10
183.6883708669
 20
41.1027040693
 10
183.6966968199
 20
41.1004824021
 10
183.7049769992
 20
41.0980364469
 10
183.7132021355
 20
41.0953668431
 10
183.7213629593
 20
41.0924742303
 10
183.7294502011
 20
41.0893592479
 10
183.7374545914
 20
41.0860225355
 10
183.7453668607
 20
41.0824647327
 10
183.7531777397
 20
41.0786864788
 10
183.7608779587
 20
41.0746884135
 10
183.7684582485
 20
41.0704711762
 10
183.7759093393
 20
41.0660354064
 10
183.7832219619
 20
41.0613817438
 10
183.7903868467
 20
41.0565108278
 10
183.7973947243
 20
41.0514232978
 10
183.8042363252
 20
41.0461197935
 10
183.8109023798
 20
41.0406009544
 10
183.8173836189
 20
41.0348674199
 10
183.8236707728
 20
41.0289198296
 10
183.8297545721
 20
41.022758823
 10
183.8355957667
 20
41.016421513
 10
183.84122396
 20
41.0098836553
 10
183.8466364888
 20
41.0031551918
 10
183.8518306901
 20
40.9962460642
 10
183.8568039009
 20
40.9891662143
 10
183.8615534581
 20
40.981925584
 10
183.8660766986
 20
40.974534115
 10
183.8703709594
 20
40.967001749
 10
183.8744335774
 20
40.9593384279
 10
183.8782618896
 20
40.9515540935
 10
183.8818532329
 20
40.9436586874
 10
183.8852049443
 20
40.9356621516
 10
183.8883143606
 20
40.9275744278
 10
183.891178819
 20
40.9194054578
 10
183.8937956562
 20
40.9111651834
 10
183.8961622093
 20
40.9028635463
 10
183.8982758152
 20
40.8945104883
 10
183.9001338108
 20
40.8861159512
 10
183.9017335331
 20
40.8776898769
 10
183.903072319
 20
40.869242207
 10
183.9041475054
 20
40.8607828834
 10
183.9049564294
 20
40.8523218479
 10
183.9054964279
 20
40.8438690422
 10
183.9057648377
 20
40.8354344081
  0
LINE
  5
294
100
AcDbEntity
  8
ASSI
100
AcDbLine
 62
250
  6
CONTINUOUS
 10
225.6181124788
 20
44.1358464188
 11
225.4185996688
 21
44.1358464188
  0
LINE
  5
295
100
AcDbEntity
  8
ASSI
100
AcDbLine
 62
250
  6
CONTINUOUS
 10
134.8213406462
 20
44.1358464188
 11
135.0208534562
 21
44.1358464188
  0
LWPOLYLINE
  5
296
100
AcDbEntity
  8
CURVE
100
AcDbPolyline
 62
250
  6
CONTINUOUS
 90
30
 70
0
 10
183.9777376637
 20
41.4233746995
 10
183.9511552768
 20
41.4325293907
 10
183.9243147645
 20
41.4409082243
 10
183.8972396425
 20
41.4485457879
 10
183.8699534264
 20
41.455476669
 10
183.8424796318
 20
41.4617354553
 10
183.8148417745
 20
41.4673567344
 10
183.78706337
 20
41.4723750938
 10
183.759167934
 20
41.4768251212
 10
183.7311789821
 20
41.480741404
 10
183.7031200299
 20
41.48415853
 10
183.6750145931
 20
41.4871110867
 10
183.6468861874
 20
41.4896336617
 10
183.6055422837
 20
41.492623184
 10
183.5642013
 20
41.4948079189
 10
183.5228649755
 20
41.4962371008
 10
183.4815350495
 20
41.496959964
 10
183.4402132612
 20
41.4970257426
 10
183.3989013499
 20
41.4964836709
 10
183.3576010547
 20
41.4953829832
 10
183.316314115
 20
41.4937729137
 10
183.2637027323
 20
41.4910484945
 10
183.2111228638
 20
41.4876112761
 10
183.1585814918
 20
41.4834962937
 10
183.1060855987
 20
41.4787385827
 10
183.0536421666
 20
41.4733731784
 10
183.0012581778
 20
41.4674351161
 10
182.9489406146
 20
41.460959431
 10
182.8966964594
 20
41.4539811585
 10
182.8445326943
 20
41.4465353339
  0
LWPOLYLINE
  5
297
100
AcDbEntity
  8
IMPORT_IGES
100
AcDbPolyline
 62
7
  6
CONTINUOUS
 90
30
 70
0
 10
183.9777376637
 20
41.4233746995
 10
183.9511552768
 20
41.4325293907
 10
183.9243147645
 20
41.4409082243
 10
183.8972396425
 20
41.4485457879
 10
183.8699534264
 20
41.455476669
 10
183.8424796318
 20
41.4617354553
 10
183.8148417745
 20
41.4673567344
 10
183.78706337
 20
41.4723750938
 10
183.759167934
 20
41.4768251212
 10
183.7311789821
 20
41.480741404
 10
183.7031200299
 20
41.48415853
 10
183.6750145931
 20
41.4871110867
 10
183.6468861874
 20
41.4896336617
 10
183.6055422837
 20
41.492623184
 10
183.5642013
 20
41.4948079189
 10
183.5228649755
 20
41.4962371008
 10
183.4815350495
 20
41.496959964
 10
183.4402132612
 20
41.4970257426
 10
183.3989013499
 20
41.4964836709
 10
183.3576010547
 20
41.4953829832
 10
183.316314115
 20
41.4937729137
 10
183.2637027323
 20
41.4910484945
 10
183.2111228638
 20
41.4876112761
 10
183.1585814918
 20
41.4834962937
 10
183.1060855987
 20
41.4787385827
 10
183.0536421666
 20
41.4733731784
 10
183.0012581778
 20
41.4674351161
 10
182.9489406146
 20
41.460959431
 10
182.8966964594
 20
41.4539811585
 10
182.8445326943
 20
41.4465353339
  0
LINE
  5
298
100
AcDbEntity
  8
ASSI
100
AcDbLine
 62
250
  6
CONTINUOUS
 10
134.8213406462
 20
44.1358464188
 11
134.8213406462
 21
159.5360285812
  0
LINE
  5
299
100
AcDbEntity
  8
ASSI
100
AcDbLine
 62
250
  6
CONTINUOUS
 10
135.0208534562
 20
44.1358464188
 11
135.0208534562
 21
159.5360285812
  0
LINE
  5
29A
100
AcDbEntity
  8
ASSI
100
AcDbLine
 62
7
  6
CONTINUOUS
 10
135.1197265625
 20
159.4371554749
 11
135.1197265625
 21
44.2347195251
  0
LINE
  5
29B
100
AcDbEntity
  8
ASSI
100
AcDbLine
 62
250
  6
CONTINUOUS
 10
135.5196354813
 20
160.2343234163
 11
135.5196354813
 21
160.0348106063
  0
LINE
  5
29C
100
AcDbEntity
  8
ASSI
100
AcDbLine
 62
250
  6
CONTINUOUS
 10
135.5196354813
 20
43.4375515837
 11
135.5196354813
 21
43.6370643937
  0
LWPOLYLINE
  5
29D
100
AcDbEntity
  8
ASSI
100
AcDbPolyline
 62
250
  6
CONTINUOUS
 90
25
 70
0
 10
135.0208534562
 20
159.5360285812
 10
135.0218038555
 20
159.5679110749
 10
135.0247884506
 20
159.5997240613
 10
135.0298085528
 20
159.6313379604
 10
135.0368656735
 20
159.6626584836
 10
135.0459401669
 20
159.6935176788
 10
135.0569687632
 20
159.7236811097
 10
135.0698884728
 20
159.753003633
 10
135.0846476611
 20
159.7813933548
 10
135.1011634855
 20
159.8087103149
 10
135.1193404053
 20
159.8348264181
 10
135.139108474
 20
159.8596690375
 10
135.160417295
 20
159.8831862342
 10
135.1830848302
 20
159.9051988423
 10
135.2071024544
 20
159.9257172063
 10
135.2327337485
 20
159.9449125064
 10
135.2600525241
 20
159.9627192618
 10
135.2888702168
 20
159.9788965173
 10
135.3190895426
 20
159.9932920102
 10
135.350733838
 20
160.005809058
 10
135.3835729145
 20
160.0162527208
 10
135.4170816512
 20
160.024410747
 10
135.4509690559
 20
160.0302234908
 10
135.4852069557
 20
160.033696614
 10
135.5196354813
 20
160.0348106063
  0
LWPOLYLINE
  5
29E
100
AcDbEntity
  8
ASSI
100
AcDbPolyline
 62
250
  6
CONTINUOUS
 90
25
 70
0
 10
134.8213406462
 20
159.5360285812
 10
134.8227719135
 20
159.580883596
 10
134.8270287247
 20
159.6252835515
 10
134.8341110798
 20
159.6692284476
 10
134.8440799895
 20
159.7129434035
 10
134.8568744431
 20
159.7562032999
 10
134.8723114081
 20
159.7983327793
 10
134.8904324324
 20
159.8392745614
 10
134.9111959681
 20
159.8790859265
 10
134.9342943392
 20
159.9172633572
 10
134.9597285257
 20
159.9537528803
 10
134.9874975477
 20
159.9886084692
 10
135.0172907898
 20
160.0214885261
 10
135.0489542283
 20
160.0523099881
 10
135.0826418871
 20
160.0811559183
 10
135.1185052219
 20
160.1079339076
 10
135.1567194696
 20
160.1328159544
 10
135.1971093934
 20
160.1556300604
 10
135.2393007389
 20
160.1757678222
 10
135.2835352242
 20
160.193206103
 10
135.3295711311
 20
160.2079680396
 10
135.3763090512
 20
160.2195146385
 10
135.4233825148
 20
160.2276662354
 10
135.4711579915
 20
160.2326024947
 10
135.5196354813
 20
160.2343234163
  0
LINE
  5
29F
100
AcDbEntity
  8
ASSI
100
AcDbLine
 62
7
  6
CONTINUOUS
 10
103.8366401142
 20
25.058319502
 11
103.3933920544
 21
24.0388891395
  0
LINE
  5
2A0
100
AcDbEntity
  8
ASSI
100
AcDbLine
 62
7
  6
CONTINUOUS
 10
256.9973445605
 20
178.2190239483
 11
258.016774923
 21
178.6622720081
  0
LINE
  5
2A1
100
AcDbEntity
  8
ASSI
100
AcDbLine
 62
7
  6
CONTINUOUS
 10
256.9973445605
 20
25.4528510517
 11
258.016774923
 21
25.0096029919
  0
LINE
  5
2A2
100
AcDbEntity
  8
ASSI
100
AcDbLine
 62
7
  6
CONTINUOUS
 10
103.8366401142
 20
178.613555498
 11
103.3933920544
 21
179.6329858605
  0
LWPOLYLINE
  5
2A3
100
AcDbEntity
  8
0
100
AcDbPolyline
 62
7
  6
CONTINUOUS
 90
3
 70
0
 43
0.3500000006
 10
182.3268751831
 20
190.9216431885
 10
182.2554349365
 20
190.7073587036
 10
182.1125906982
 20
190.4216520996
  0
LINE
  5
2A4
100
AcDbEntity
  8
CURVE
100
AcDbLine
 62
250
  6
CONTINUOUS
 10
179.6744953492
 20
39.2724219293
 11
179.1358128022
 21
40.708859483
  0
LINE
  5
2A5
100
AcDbEntity
  8
IMPORT_IGES
100
AcDbLine
 62
7
  6
CONTINUOUS
 10
179.6744953492
 20
39.2724219293
 11
179.1358128022
 21
40.708859483
  0
LINE
  5
2A6
100
AcDbEntity
  8
CURVE
100
AcDbLine
 62
250
  6
CONTINUOUS
 10
179.254865273
 20
41.4722364007
 11
179.7092029667
 21
40.2508928372
  0
LINE
  5
2A7
100
AcDbEntity
  8
IMPORT_IGES
100
AcDbLine
 62
7
  6
CONTINUOUS
 10
179.254865273
 20
41.4722364007
 11
179.7092029667
 21
40.2508928372
  0
LINE
  5
2A8
100
AcDbEntity
  8
CURVE
100
AcDbLine
 62
250
  6
CONTINUOUS
 10
176.6088698695
 20
39.2724219293
 11
175.9114856155
 21
41.4722364007
  0
LINE
  5
2A9
100
AcDbEntity
  8
IMPORT_IGES
100
AcDbLine
 62
7
  6
CONTINUOUS
 10
176.6088698695
 20
39.2724219293
 11
175.9114856155
 21
41.4722364007
  0
LWPOLYLINE
  5
2AA
100
AcDbEntity
  8
CURVE
100
AcDbPolyline
 62
250
  6
CONTINUOUS
 90
6
 70
0
 10
183.8042638525
 20
39.9394774752
 10
183.8118382951
 20
39.9187010558
 10
183.8190471673
 20
39.897796116
 10
183.8259540091
 20
39.8767855216
 10
183.8326223604
 20
39.8556921389
 10
183.8391157613
 20
39.8345388338
  0
LWPOLYLINE
  5
2AB
100
AcDbEntity
  8
IMPORT_IGES
100
AcDbPolyline
 62
7
  6
CONTINUOUS
 90
6
 70
0
 10
183.8042638525
 20
39.9394774752
 10
183.8118382951
 20
39.9187010558
 10
183.8190471673
 20
39.897796116
 10
183.8259540091
 20
39.8767855216
 10
183.8326223604
 20
39.8556921389
 10
183.8391157613
 20
39.8345388338
  0
LINE
  5
2AC
100
AcDbEntity
  8
CURVE
100
AcDbLine
 62
250
  6
CONTINUOUS
 10
182.034734861
 20
41.4722364007
 11
182.709692735
 21
39.2724219293
  0
LINE
  5
2AD
100
AcDbEntity
  8
IMPORT_IGES
100
AcDbLine
 62
7
  6
CONTINUOUS
 10
182.034734861
 20
41.4722364007
 11
182.709692735
 21
39.2724219293
  0
LINE
  5
2AE
100
AcDbEntity
  8
CURVE
100
AcDbLine
 62
250
  6
CONTINUOUS
 10
183.8391157613
 20
39.8345388338
 11
183.9190545714
 21
39.5676329957
  0
LINE
  5
2AF
100
AcDbEntity
  8
IMPORT_IGES
100
AcDbLine
 62
7
  6
CONTINUOUS
 10
183.8391157613
 20
39.8345388338
 11
183.9190545714
 21
39.5676329957
  0
LWPOLYLINE
  5
2B0
100
AcDbEntity
  8
CURVE
100
AcDbPolyline
 62
250
  6
CONTINUOUS
 90
3
 70
0
 10
183.9190545714
 20
39.5676329957
 10
183.9790797825
 20
39.36228032
 10
184.005055335
 20
39.2724215126
  0
LWPOLYLINE
  5
2B1
100
AcDbEntity
  8
IMPORT_IGES
100
AcDbPolyline
 62
7
  6
CONTINUOUS
 90
3
 70
0
 10
183.9190545714
 20
39.5676329957
 10
183.9790797825
 20
39.36228032
 10
184.005055335
 20
39.2724215126
  0
LINE
  5
2B2
100
AcDbEntity
  8
CURVE
100
AcDbLine
 62
250
  6
CONTINUOUS
 10
176.4103052118
 20
41.4722364007
 11
176.8296304309
 21
39.9580361838
  0
LINE
  5
2B3
100
AcDbEntity
  8
IMPORT_IGES
100
AcDbLine
 62
7
  6
CONTINUOUS
 10
176.4103052118
 20
41.4722364007
 11
176.8296304309
 21
39.9580361838
  0
LINE
  5
2B4
100
AcDbEntity
  8
CURVE
100
AcDbLine
 62
250
  6
CONTINUOUS
 10
182.2257283761
 20
39.2724219293
 11
182.1067743815
 21
39.7115827665
  0
LINE
  5
2B5
100
AcDbEntity
  8
IMPORT_IGES
100
AcDbLine
 62
7
  6
CONTINUOUS
 10
182.2257283761
 20
39.2724219293
 11
182.1067743815
 21
39.7115827665
  0
LINE
  5
2B6
100
AcDbEntity
  8
ASSI
100
AcDbLine
 62
250
  6
CONTINUOUS
 10
224.9198176437
 20
160.0348106063
 11
224.8209445374
 21
159.9359375
  0
LINE
  5
2B7
100
AcDbEntity
  8
ASSI
100
AcDbLine
 62
250
  6
CONTINUOUS
 10
225.4185996688
 20
159.5360285812
 11
225.3197265625
 21
159.4371554749
  0
LINE
  5
2B8
100
AcDbEntity
  8
ASSI
100
AcDbLine
 62
250
  6
CONTINUOUS
 10
224.9198176437
 20
43.6370643937
 11
224.8209445374
 21
43.7359375
  0
LINE
  5
2B9
100
AcDbEntity
  8
ASSI
100
AcDbLine
 62
250
  6
CONTINUOUS
 10
225.4185996688
 20
44.1358464188
 11
225.3197265625
 21
44.2347195251
  0
LWPOLYLINE
  5
2BA
100
AcDbEntity
  8
CURVE
100
AcDbPolyline
 62
250
  6
CONTINUOUS
 90
38
 70
0
 10
184.2725732447
 20
39.9302661701
 10
184.2681184407
 20
39.9458529571
 10
184.2635543448
 20
39.9614076872
 10
184.2588577904
 20
39.9769193795
 10
184.2540056107
 20
39.9923770526
 10
184.248974639
 20
40.0077697256
 10
184.2437417087
 20
40.0230864171
 10
184.2382836529
 20
40.0383161462
 10
184.232577305
 20
40.0534479317
 10
184.2265994982
 20
40.0684707924
 10
184.2203270659
 20
40.0833737471
 10
184.2137368414
 20
40.0981458149
 10
184.2068056578
 20
40.1127760145
 10
184.2018429313
 20
40.1227198755
 10
184.1966993678
 20
40.1325786458
 10
184.1913653789
 20
40.1423391196
 10
184.1858313759
 20
40.1519880913
 10
184.1800877703
 20
40.1615123551
 10
184.1741249734
 20
40.1708987053
 10
184.1679333967
 20
40.1801339363
 10
184.1615034517
 20
40.1892048423
 10
184.1548255497
 20
40.1980982175
 10
184.1478901021
 20
40.2068008564
 10
184.1406875204
 20
40.2152995531
 10
184.133208216
 20
40.223581102
 10
184.1261093525
 20
40.2309638478
 10
184.1187782491
 20
40.2381390403
 10
184.1112228549
 20
40.2450923719
 10
184.1034511188
 20
40.2518095347
 10
184.0954709899
 20
40.2582762209
 10
184.0872904171
 20
40.2644781227
 10
184.0789173495
 20
40.2704009325
 10
184.070359736
 20
40.2760303423
 10
184.0616255256
 20
40.2813520445
 10
184.0527226674
 20
40.2863517311
 10
184.0436591103
 20
40.2910150946
 10
184.0344428033
 20
40.2953278269
 10
184.0250816955
 20
40.2992756205
  0
LWPOLYLINE
  5
2BB
100
AcDbEntity
  8
IMPORT_IGES
100
AcDbPolyline
 62
7
  6
CONTINUOUS
 90
38
 70
0
 10
184.2725732447
 20
39.9302661701
 10
184.2681184407
 20
39.9458529571
 10
184.2635543448
 20
39.9614076872
 10
184.2588577904
 20
39.9769193795
 10
184.2540056107
 20
39.9923770526
 10
184.248974639
 20
40.0077697256
 10
184.2437417087
 20
40.0230864171
 10
184.2382836529
 20
40.0383161462
 10
184.232577305
 20
40.0534479317
 10
184.2265994982
 20
40.0684707924
 10
184.2203270659
 20
40.0833737471
 10
184.2137368414
 20
40.0981458149
 10
184.2068056578
 20
40.1127760145
 10
184.2018429313
 20
40.1227198755
 10
184.1966993678
 20
40.1325786458
 10
184.1913653789
 20
40.1423391196
 10
184.1858313759
 20
40.1519880913
 10
184.1800877703
 20
40.1615123551
 10
184.1741249734
 20
40.1708987053
 10
184.1679333967
 20
40.1801339363
 10
184.1615034517
 20
40.1892048423
 10
184.1548255497
 20
40.1980982175
 10
184.1478901021
 20
40.2068008564
 10
184.1406875204
 20
40.2152995531
 10
184.133208216
 20
40.223581102
 10
184.1261093525
 20
40.2309638478
 10
184.1187782491
 20
40.2381390403
 10
184.1112228549
 20
40.2450923719
 10
184.1034511188
 20
40.2518095347
 10
184.0954709899
 20
40.2582762209
 10
184.0872904171
 20
40.2644781227
 10
184.0789173495
 20
40.2704009325
 10
184.070359736
 20
40.2760303423
 10
184.0616255256
 20
40.2813520445
 10
184.0527226674
 20
40.2863517311
 10
184.0436591103
 20
40.2910150946
 10
184.0344428033
 20
40.2953278269
 10
184.0250816955
 20
40.2992756205
  0
LINE
  5
2BC
100
AcDbEntity
  8
CURVE
100
AcDbLine
 62
250
  6
CONTINUOUS
 10
184.2812476441
 20
39.8990403502
 11
184.2725732447
 21
39.9302661701
  0
LINE
  5
2BD
100
AcDbEntity
  8
IMPORT_IGES
100
AcDbLine
 62
7
  6
CONTINUOUS
 10
184.2812476441
 20
39.8990403502
 11
184.2725732447
 21
39.9302661701
  0
LINE
  5
2BE
100
AcDbEntity
  8
CURVE
100
AcDbLine
 62
250
  6
CONTINUOUS
 10
184.3112094232
 20
39.7883593312
 11
184.2812476441
 21
39.8990403502
  0
LINE
  5
2BF
100
AcDbEntity
  8
IMPORT_IGES
100
AcDbLine
 62
7
  6
CONTINUOUS
 10
184.3112094232
 20
39.7883593312
 11
184.2812476441
 21
39.8990403502
  0
LINE
  5
2C0
100
AcDbEntity
  8
CURVE
100
AcDbLine
 62
250
  6
CONTINUOUS
 10
184.4467405094
 20
39.2724215126
 11
184.4257903558
 21
39.3509588952
  0
LINE
  5
2C1
100
AcDbEntity
  8
IMPORT_IGES
100
AcDbLine
 62
7
  6
CONTINUOUS
 10
184.4467405094
 20
39.2724215126
 11
184.4257903558
 21
39.3509588952
  0
LINE
  5
2C2
100
AcDbEntity
  8
CURVE
100
AcDbLine
 62
250
  6
CONTINUOUS
 10
184.3532434417
 20
39.6292119057
 11
184.3112094232
 21
39.7883593312
  0
LINE
  5
2C3
100
AcDbEntity
  8
IMPORT_IGES
100
AcDbLine
 62
7
  6
CONTINUOUS
 10
184.3532434417
 20
39.6292119057
 11
184.3112094232
 21
39.7883593312
  0
LINE
  5
2C4
100
AcDbEntity
  8
CURVE
100
AcDbLine
 62
250
  6
CONTINUOUS
 10
184.4257903558
 20
39.3509588952
 11
184.3532434417
 21
39.6292119057
  0
LINE
  5
2C5
100
AcDbEntity
  8
IMPORT_IGES
100
AcDbLine
 62
7
  6
CONTINUOUS
 10
184.4257903558
 20
39.3509588952
 11
184.3532434417
 21
39.6292119057
  0
LINE
  5
2C6
100
AcDbEntity
  8
CURVE
100
AcDbLine
 62
250
  6
CONTINUOUS
 10
182.0150060999
 20
40.0514041796
 11
181.8040030619
 21
40.8677832853
  0
LINE
  5
2C7
100
AcDbEntity
  8
IMPORT_IGES
100
AcDbLine
 62
7
  6
CONTINUOUS
 10
182.0150060999
 20
40.0514041796
 11
181.8040030619
 21
40.8677832853
  0
LINE
  5
2C8
100
AcDbEntity
  8
CURVE
100
AcDbLine
 62
250
  6
CONTINUOUS
 10
180.622712068
 20
41.4722364007
 11
180.828419392
 21
39.2724219293
  0
LINE
  5
2C9
100
AcDbEntity
  8
IMPORT_IGES
100
AcDbLine
 62
7
  6
CONTINUOUS
 10
180.622712068
 20
41.4722364007
 11
180.828419392
 21
39.2724219293
  0
LINE
  5
2CA
100
AcDbEntity
  8
CURVE
100
AcDbLine
 62
250
  6
CONTINUOUS
 10
180.3792118886
 20
39.2724219293
 11
180.2848706548
 21
40.7028712928
  0
LINE
  5
2CB
100
AcDbEntity
  8
IMPORT_IGES
100
AcDbLine
 62
7
  6
CONTINUOUS
 10
180.3792118886
 20
39.2724219293
 11
180.2848706548
 21
40.7028712928
  0
LINE
  5
2CC
100
AcDbEntity
  8
CURVE
100
AcDbLine
 62
250
  6
CONTINUOUS
 10
177.8910434303
 20
41.4723684007
 11
177.8910434303
 21
39.2724219293
  0
LINE
  5
2CD
100
AcDbEntity
  8
IMPORT_IGES
100
AcDbLine
 62
7
  6
CONTINUOUS
 10
177.8910434303
 20
41.4723684007
 11
177.8910434303
 21
39.2724219293
  0
LINE
  5
2CE
100
AcDbEntity
  8
CURVE
100
AcDbLine
 62
250
  6
CONTINUOUS
 10
178.3502315999
 20
39.2724219293
 11
178.3502315999
 21
41.4723684007
  0
LINE
  5
2CF
100
AcDbEntity
  8
IMPORT_IGES
100
AcDbLine
 62
7
  6
CONTINUOUS
 10
178.3502315999
 20
39.2724219293
 11
178.3502315999
 21
41.4723684007
  0
LINE
  5
2D0
100
AcDbEntity
  8
ASSI
100
AcDbLine
 62
7
  6
CONTINUOUS
 10
102.4072090678
 20
25.0240288074
 11
102.1697265625
 21
24.7865463021
  0
LINE
  5
2D1
100
AcDbEntity
  8
ASSI
100
AcDbLine
 62
7
  6
CONTINUOUS
 10
257.0316352551
 20
179.6484549947
 11
257.2691177604
 21
179.8859375
  0
LINE
  5
2D2
100
AcDbEntity
  8
ASSI
100
AcDbLine
 62
7
  6
CONTINUOUS
 10
103.4078178699
 20
24.0234200053
 11
103.1703353646
 21
23.7859375
  0
LINE
  5
2D3
100
AcDbEntity
  8
ASSI
100
AcDbLine
 62
7
  6
CONTINUOUS
 10
258.0322440572
 20
178.6478461926
 11
258.2697265625
 21
178.8853286979
  0
LINE
  5
2D4
100
AcDbEntity
  8
ASSI
100
AcDbLine
 62
7
  6
CONTINUOUS
 10
102.4072090678
 20
178.6478461926
 11
102.1697265625
 21
178.8853286979
  0
LINE
  5
2D5
100
AcDbEntity
  8
ASSI
100
AcDbLine
 62
7
  6
CONTINUOUS
 10
257.0316352551
 20
24.0234200053
 11
257.2691177604
 21
23.7859375
  0
LINE
  5
2D6
100
AcDbEntity
  8
ASSI
100
AcDbLine
 62
7
  6
CONTINUOUS
 10
103.4078178699
 20
179.6484549947
 11
103.1703353646
 21
179.8859375
  0
LINE
  5
2D7
100
AcDbEntity
  8
ASSI
100
AcDbLine
 62
7
  6
CONTINUOUS
 10
258.0322440572
 20
25.0240288074
 11
258.2697265625
 21
24.7865463021
  0
LWPOLYLINE
  5
2D8
100
AcDbEntity
  8
CURVE
100
AcDbPolyline
 62
250
  6
CONTINUOUS
 90
58
 70
0
 10
183.9057648377
 20
40.8354344081
 10
183.9058340147
 20
40.8252355104
 10
183.9057197815
 20
40.8150071726
 10
183.9054107586
 20
40.8047602993
 10
183.9048955667
 20
40.794505795
 10
183.9041628263
 20
40.7842545645
 10
183.9032011579
 20
40.7740175122
 10
183.901999182
 20
40.7638055429
 10
183.9005455192
 20
40.7536295611
 10
183.8988287901
 20
40.7435004714
 10
183.8968376151
 20
40.7334291786
 10
183.8945606148
 20
40.7234265871
 10
183.8919864098
 20
40.7135036016
 10
183.8891036207
 20
40.7036711267
 10
183.8859008678
 20
40.693940067
 10
183.8823667719
 20
40.6843213272
 10
183.8784899534
 20
40.6748258118
 10
183.8746326103
 20
40.6662496537
 10
183.870484739
 20
40.6577975809
 10
183.8660526612
 20
40.6494812359
 10
183.8613426983
 20
40.6413122615
 10
183.856361172
 20
40.6333023002
 10
183.8511144037
 20
40.6254629947
 10
183.8456087151
 20
40.6178059875
 10
183.8398504276
 20
40.6103429213
 10
183.8338458629
 20
40.6030854388
 10
183.8276013424
 20
40.5960451825
 10
183.8211231877
 20
40.589233795
 10
183.8144177205
 20
40.582662919
 10
183.8074912621
 20
40.5763441972
 10
183.8003501342
 20
40.570289272
 10
183.792674704
 20
40.5642599383
 10
183.7847831514
 20
40.5585248254
 10
183.7766863527
 20
40.5530780585
 10
183.7683951844
 20
40.5479137622
 10
183.7599205228
 20
40.5430260616
 10
183.7512732442
 20
40.5384090814
 10
183.7424642252
 20
40.5340569466
 10
183.7335043421
 20
40.5299637821
 10
183.7244044712
 20
40.5261237127
 10
183.715175489
 20
40.5225308634
 10
183.7058282718
 20
40.519179359
 10
183.696373696
 20
40.5160633244
 10
183.6868226381
 20
40.5131768845
 10
183.6771859743
 20
40.5105141641
 10
183.6674745812
 20
40.5080692883
 10
183.657699335
 20
40.5058363818
 10
183.6478711122
 20
40.5038095695
 10
183.6380007891
 20
40.5019829764
 10
183.6280992422
 20
40.5003507272
 10
183.6181773478
 20
40.498906947
 10
183.6082459823
 20
40.4976457605
 10
183.5983160221
 20
40.4965612927
 10
183.5883983435
 20
40.4956476685
 10
183.5785038231
 20
40.4948990127
 10
183.5686433371
 20
40.4943094503
 10
183.5588277619
 20
40.493873106
 10
183.549067974
 20
40.4935841049
  0
LWPOLYLINE
  5
2D9
100
AcDbEntity
  8
IMPORT_IGES
100
AcDbPolyline
 62
7
  6
CONTINUOUS
 90
58
 70
0
 10
183.9057648377
 20
40.8354344081
 10
183.9058340147
 20
40.8252355104
 10
183.9057197815
 20
40.8150071726
 10
183.9054107586
 20
40.8047602993
 10
183.9048955667
 20
40.794505795
 10
183.9041628263
 20
40.7842545645
 10
183.9032011579
 20
40.7740175122
 10
183.901999182
 20
40.7638055429
 10
183.9005455192
 20
40.7536295611
 10
183.8988287901
 20
40.7435004714
 10
183.8968376151
 20
40.7334291786
 10
183.8945606148
 20
40.7234265871
 10
183.8919864098
 20
40.7135036016
 10
183.8891036207
 20
40.7036711267
 10
183.8859008678
 20
40.693940067
 10
183.8823667719
 20
40.6843213272
 10
183.8784899534
 20
40.6748258118
 10
183.8746326103
 20
40.6662496537
 10
183.870484739
 20
40.6577975809
 10
183.8660526612
 20
40.6494812359
 10
183.8613426983
 20
40.6413122615
 10
183.856361172
 20
40.6333023002
 10
183.8511144037
 20
40.6254629947
 10
183.8456087151
 20
40.6178059875
 10
183.8398504276
 20
40.6103429213
 10
183.8338458629
 20
40.6030854388
 10
183.8276013424
 20
40.5960451825
 10
183.8211231877
 20
40.589233795
 10
183.8144177205
 20
40.582662919
 10
183.8074912621
 20
40.5763441972
 10
183.8003501342
 20
40.570289272
 10
183.792674704
 20
40.5642599383
 10
183.7847831514
 20
40.5585248254
 10
183.7766863527
 20
40.5530780585
 10
183.7683951844
 20
40.5479137622
 10
183.7599205228
 20
40.5430260616
 10
183.7512732442
 20
40.5384090814
 10
183.7424642252
 20
40.5340569466
 10
183.7335043421
 20
40.5299637821
 10
183.7244044712
 20
40.5261237127
 10
183.715175489
 20
40.5225308634
 10
183.7058282718
 20
40.519179359
 10
183.696373696
 20
40.5160633244
 10
183.6868226381
 20
40.5131768845
 10
183.6771859743
 20
40.5105141641
 10
183.6674745812
 20
40.5080692883
 10
183.657699335
 20
40.5058363818
 10
183.6478711122
 20
40.5038095695
 10
183.6380007891
 20
40.5019829764
 10
183.6280992422
 20
40.5003507272
 10
183.6181773478
 20
40.498906947
 10
183.6082459823
 20
40.4976457605
 10
183.5983160221
 20
40.4965612927
 10
183.5883983435
 20
40.4956476685
 10
183.5785038231
 20
40.4948990127
 10
183.5686433371
 20
40.4943094503
 10
183.5588277619
 20
40.493873106
 10
183.549067974
 20
40.4935841049
  0
LINE
  5
2DA
100
AcDbEntity
  8
CURVE
100
AcDbLine
 62
250
  6
CONTINUOUS
 10
182.8445326943
 20
41.4465353339
 11
182.8445326943
 21
39.2724215126
  0
LINE
  5
2DB
100
AcDbEntity
  8
IMPORT_IGES
100
AcDbLine
 62
7
  6
CONTINUOUS
 10
182.8445326943
 20
41.4465353339
 11
182.8445326943
 21
39.2724215126
  0
LINE
  5
2DC
100
AcDbEntity
  8
CURVE
100
AcDbLine
 62
250
  6
CONTINUOUS
 10
183.2866467693
 20
40.4935841049
 11
183.2866467693
 21
41.0974762007
  0
LINE
  5
2DD
100
AcDbEntity
  8
IMPORT_IGES
100
AcDbLine
 62
7
  6
CONTINUOUS
 10
183.2866467693
 20
40.4935841049
 11
183.2866467693
 21
41.0974762007
  0
LINE
  5
2DE
100
AcDbEntity
  8
CURVE
100
AcDbLine
 62
250
  6
CONTINUOUS
 10
183.3018727419
 20
39.2724215126
 11
183.3018727419
 21
40.1333075704
  0
LINE
  5
2DF
100
AcDbEntity
  8
IMPORT_IGES
100
AcDbLine
 62
7
  6
CONTINUOUS
 10
183.3018727419
 20
39.2724215126
 11
183.3018727419
 21
40.1333075704
  0
LINE
  5
2E0
100
AcDbEntity
  8
CURVE
100
AcDbLine
 62
250
  6
CONTINUOUS
 10
184.0250816955
 20
40.2992756205
 11
184.0250816955
 21
40.312274609
  0
LINE
  5
2E1
100
AcDbEntity
  8
IMPORT_IGES
100
AcDbLine
 62
7
  6
CONTINUOUS
 10
184.0250816955
 20
40.2992756205
 11
184.0250816955
 21
40.312274609
  0
LINE
  5
2E2
100
AcDbEntity
  8
CURVE
100
AcDbLine
 62
250
  6
CONTINUOUS
 10
179.1358128022
 20
40.708859483
 11
179.0367195687
 21
39.2724219293
  0
LINE
  5
2E3
100
AcDbEntity
  8
IMPORT_IGES
100
AcDbLine
 62
7
  6
CONTINUOUS
 10
179.1358128022
 20
40.708859483
 11
179.0367195687
 21
39.2724219293
  0
LINE
  5
2E4
100
AcDbEntity
  8
CURVE
100
AcDbLine
 62
250
  6
CONTINUOUS
 10
178.5974267315
 20
39.2724219293
 11
178.7960573891
 21
41.4722364007
  0
LINE
  5
2E5
100
AcDbEntity
  8
IMPORT_IGES
100
AcDbLine
 62
7
  6
CONTINUOUS
 10
178.5974267315
 20
39.2724219293
 11
178.7960573891
 21
41.4722364007
  0
LINE
  5
2E6
100
AcDbEntity
  8
CURVE
100
AcDbLine
 62
250
  6
CONTINUOUS
 10
176.8296304309
 20
39.9580361838
 11
177.2617638398
 21
41.4722364007
  0
LINE
  5
2E7
100
AcDbEntity
  8
IMPORT_IGES
100
AcDbLine
 62
7
  6
CONTINUOUS
 10
176.8296304309
 20
39.9580361838
 11
177.2617638398
 21
41.4722364007
  0
LINE
  5
2E8
100
AcDbEntity
  8
ASSI
100
AcDbLine
 62
250
  6
CONTINUOUS
 10
135.0208534562
 20
44.1358464188
 11
135.1197265625
 21
44.2347195251
  0
LINE
  5
2E9
100
AcDbEntity
  8
ASSI
100
AcDbLine
 62
250
  6
CONTINUOUS
 10
135.5196354813
 20
43.6370643937
 11
135.6185085876
 21
43.7359375
  0
LINE
  5
2EA
100
AcDbEntity
  8
ASSI
100
AcDbLine
 62
250
  6
CONTINUOUS
 10
135.0208534562
 20
159.5360285812
 11
135.1197265625
 21
159.4371554749
  0
LINE
  5
2EB
100
AcDbEntity
  8
ASSI
100
AcDbLine
 62
250
  6
CONTINUOUS
 10
135.5196354813
 20
160.0348106063
 11
135.6185085876
 21
159.9359375
  0
LINE
  5
2EC
100
AcDbEntity
  8
CURVE
100
AcDbLine
 62
250
  6
CONTINUOUS
 10
181.8040030619
 20
40.8677832853
 11
181.5753665009
 21
40.0514041796
  0
LINE
  5
2ED
100
AcDbEntity
  8
IMPORT_IGES
100
AcDbLine
 62
7
  6
CONTINUOUS
 10
181.8040030619
 20
40.8677832853
 11
181.5753665009
 21
40.0514041796
  0
LINE
  5
2EE
100
AcDbEntity
  8
CURVE
100
AcDbLine
 62
250
  6
CONTINUOUS
 10
181.4814369813
 20
39.7115827665
 11
181.3547295585
 21
39.2724219293
  0
LINE
  5
2EF
100
AcDbEntity
  8
IMPORT_IGES
100
AcDbLine
 62
7
  6
CONTINUOUS
 10
181.4814369813
 20
39.7115827665
 11
181.3547295585
 21
39.2724219293
  0
LINE
  5
2F0
100
AcDbEntity
  8
CURVE
100
AcDbLine
 62
250
  6
CONTINUOUS
 10
180.9005238649
 20
39.2724219293
 11
181.5905265954
 21
41.4722364007
  0
LINE
  5
2F1
100
AcDbEntity
  8
IMPORT_IGES
100
AcDbLine
 62
7
  6
CONTINUOUS
 10
180.9005238649
 20
39.2724219293
 11
181.5905265954
 21
41.4722364007
  0
LINE
  5
2F2
100
AcDbEntity
  8
CURVE
100
AcDbLine
 62
250
  6
CONTINUOUS
 10
177.7206387713
 20
41.4722364007
 11
177.0135294701
 21
39.2724219293
  0
LINE
  5
2F3
100
AcDbEntity
  8
IMPORT_IGES
100
AcDbLine
 62
7
  6
CONTINUOUS
 10
177.7206387713
 20
41.4722364007
 11
177.0135294701
 21
39.2724219293
  0
LINE
  5
2F4
100
AcDbEntity
  8
CURVE
100
AcDbLine
 62
250
  6
CONTINUOUS
 10
179.7092029667
 20
40.2508928372
 11
180.1683911363
 21
41.4722364007
  0
LINE
  5
2F5
100
AcDbEntity
  8
IMPORT_IGES
100
AcDbLine
 62
7
  6
CONTINUOUS
 10
179.7092029667
 20
40.2508928372
 11
180.1683911363
 21
41.4722364007
  0
LINE
  5
2F6
100
AcDbEntity
  8
CURVE
100
AcDbLine
 62
250
  6
CONTINUOUS
 10
180.2848706548
 20
40.7028712928
 11
179.738895632
 21
39.2724219293
  0
LINE
  5
2F7
100
AcDbEntity
  8
IMPORT_IGES
100
AcDbLine
 62
7
  6
CONTINUOUS
 10
180.2848706548
 20
40.7028712928
 11
179.738895632
 21
39.2724219293
  0
LWPOLYLINE
  5
2F8
100
AcDbEntity
  8
0
100
AcDbPolyline
 62
7
  6
CONTINUOUS
 90
3
 70
0
 43
0.3500000006
 10
267.2340161133
 20
103.9430795288
 10
267.4483005981
 20
103.8716483459
 10
267.7340072021
 20
103.7287950439
  0
LWPOLYLINE
  5
2F9
100
AcDbEntity
  8
0
100
AcDbPolyline
 62
7
  6
CONTINUOUS
 90
10
 70
0
 43
0.3500000006
 10
267.0197316284
 20
103.8716483459
 10
267.1625758667
 20
103.9430795288
 10
267.2340161133
 20
103.9430795288
 10
267.376878479
 20
103.8002262268
 10
267.376878479
 20
103.7287950439
 10
267.3054382324
 20
103.6573638611
 10
267.2340161133
 20
103.6573638611
 10
267.0911537476
 20
103.7287950439
 10
267.0197316284
 20
103.8002262268
 10
267.0197316284
 20
103.8716483459
  0
LINE
  5
2FA
100
AcDbEntity
  8
ASSI
100
AcDbLine
 62
250
  6
CONTINUOUS
 10
224.9198176437
 20
160.2343234163
 11
224.9198176437
 21
160.0348106063
  0
LINE
  5
2FB
100
AcDbEntity
  8
ASSI
100
AcDbLine
 62
250
  6
CONTINUOUS
 10
224.9198176437
 20
43.4375515837
 11
224.9198176437
 21
43.6370643937
  0
LINE
  5
2FC
100
AcDbEntity
  8
ASSI
100
AcDbLine
 62
7
  6
CONTINUOUS
 10
225.3197265625
 20
44.2347195251
 11
225.3197265625
 21
159.4371554749
  0
LINE
  5
2FD
100
AcDbEntity
  8
ASSI
100
AcDbLine
 62
7
  6
CONTINUOUS
 10
256.6028130108
 20
178.613555498
 11
257.0460610706
 21
179.6329858605
  0
LINE
  5
2FE
100
AcDbEntity
  8
CURVE
100
AcDbLine
 62
7
  6
CONTINUOUS
 10
176.012588908
 20
41.1533182652
 11
176.3315070435
 21
41.4722364007
  0
LINE
  5
2FF
100
AcDbEntity
  8
CURVE
100
AcDbLine
 62
7
  6
CONTINUOUS
 10
176.1136922005
 20
40.8344001297
 11
176.4843065751
 21
41.2050145043
  0
LINE
  5
300
100
AcDbEntity
  8
CURVE
100
AcDbLine
 62
7
  6
CONTINUOUS
 10
176.2147954931
 20
40.5154819942
 11
176.5753969606
 21
40.8760834617
  0
LINE
  5
301
100
AcDbEntity
  8
CURVE
100
AcDbLine
 62
7
  6
CONTINUOUS
 10
176.3158987856
 20
40.1965638587
 11
176.6664873461
 21
40.5471524192
  0
LINE
  5
302
100
AcDbEntity
  8
CURVE
100
AcDbLine
 62
7
  6
CONTINUOUS
 10
177.1300521627
 20
41.0107172359
 11
177.5915713276
 21
41.4722364007
  0
LINE
  5
303
100
AcDbEntity
  8
CURVE
100
AcDbLine
 62
7
  6
CONTINUOUS
 10
176.4170020781
 20
39.8776457233
 11
176.7575777315
 21
40.2182213767
  0
LINE
  5
304
100
AcDbEntity
  8
CURVE
100
AcDbLine
 62
7
  6
CONTINUOUS
 10
176.9623127125
 20
40.4229563576
 11
177.5828109721
 21
41.0434546173
  0
LINE
  5
305
100
AcDbEntity
  8
CURVE
100
AcDbLine
 62
7
  6
CONTINUOUS
 10
177.8910434303
 20
41.3516870754
 11
178.0117247556
 21
41.4723684007
  0
LINE
  5
306
100
AcDbEntity
  8
CURVE
100
AcDbLine
 62
7
  6
CONTINUOUS
 10
176.5181053706
 20
39.5587275878
 11
177.3838426397
 21
40.4244648569
  0
LINE
  5
307
100
AcDbEntity
  8
CURVE
100
AcDbLine
 62
7
  6
CONTINUOUS
 10
177.8910434303
 20
40.9316656474
 11
178.3502315999
 21
41.390853817
  0
LINE
  5
308
100
AcDbEntity
  8
CURVE
100
AcDbLine
 62
7
  6
CONTINUOUS
 10
176.6518211402
 20
39.2724219293
 11
177.1848743074
 21
39.8054750964
  0
LINE
  5
309
100
AcDbEntity
  8
CURVE
100
AcDbLine
 62
7
  6
CONTINUOUS
 10
177.8910434303
 20
40.5116442193
 11
178.3502315999
 21
40.9708323889
  0
LINE
  5
30A
100
AcDbEntity
  8
CURVE
100
AcDbLine
 62
7
  6
CONTINUOUS
 10
178.7905408849
 20
41.411141674
 11
178.8516356116
 21
41.4722364007
  0
LINE
  5
30B
100
AcDbEntity
  8
CURVE
100
AcDbLine
 62
7
  6
CONTINUOUS
 10
177.8910434303
 20
40.0916227913
 11
178.3502315999
 21
40.5508109609
  0
LINE
  5
30C
100
AcDbEntity
  8
CURVE
100
AcDbLine
 62
7
  6
CONTINUOUS
 10
178.7488509952
 20
40.9494303563
 11
179.2594181273
 21
41.4599974883
  0
LINE
  5
30D
100
AcDbEntity
  8
CURVE
100
AcDbLine
 62
7
  6
CONTINUOUS
 10
177.8910434303
 20
39.6716013633
 11
178.3502315999
 21
40.1307895329
  0
LINE
  5
30E
100
AcDbEntity
  8
CURVE
100
AcDbLine
 62
7
  6
CONTINUOUS
 10
178.7071611055
 20
40.4877190386
 11
179.3733011024
 21
41.1538590354
  0
LINE
  5
30F
100
AcDbEntity
  8
CURVE
100
AcDbLine
 62
7
  6
CONTINUOUS
 10
177.9118854243
 20
39.2724219293
 11
178.3502315999
 21
39.7107681049
  0
LINE
  5
310
100
AcDbEntity
  8
CURVE
100
AcDbLine
 62
7
  6
CONTINUOUS
 10
178.6654712158
 20
40.0260077208
 11
179.1200664307
 21
40.4806029358
  0
LINE
  5
311
100
AcDbEntity
  8
CURVE
100
AcDbLine
 62
7
  6
CONTINUOUS
 10
179.1937715677
 20
40.5543080728
 11
179.4871840775
 21
40.8477205825
  0
LINE
  5
312
100
AcDbEntity
  8
CURVE
100
AcDbLine
 62
7
  6
CONTINUOUS
 10
178.3319068523
 20
39.2724219293
 11
178.3502315999
 21
39.2907466768
  0
LINE
  5
313
100
AcDbEntity
  8
CURVE
100
AcDbLine
 62
7
  6
CONTINUOUS
 10
178.6237813261
 20
39.5642964031
 11
179.0889440931
 21
40.0294591701
  0
LINE
  5
314
100
AcDbEntity
  8
CURVE
100
AcDbLine
 62
7
  6
CONTINUOUS
 10
179.308325722
 20
40.2488407989
 11
179.6010670526
 21
40.5415821296
  0
LINE
  5
315
100
AcDbEntity
  8
CURVE
100
AcDbLine
 62
7
  6
CONTINUOUS
 10
179.9494896825
 20
40.8900047594
 11
180.5317213237
 21
41.4722364007
  0
LINE
  5
316
100
AcDbEntity
  8
CURVE
100
AcDbLine
 62
7
  6
CONTINUOUS
 10
178.7519282803
 20
39.2724219293
 11
179.0578217555
 21
39.5783154044
  0
LINE
  5
317
100
AcDbEntity
  8
CURVE
100
AcDbLine
 62
7
  6
CONTINUOUS
 10
179.4228798762
 20
39.9433735251
 11
180.6508490076
 21
41.1713426566
  0
LINE
  5
318
100
AcDbEntity
  8
CURVE
100
AcDbLine
 62
7
  6
CONTINUOUS
 10
179.5374340304
 20
39.6379062513
 11
180.0888643075
 21
40.1893365284
  0
LINE
  5
319
100
AcDbEntity
  8
CURVE
100
AcDbLine
 62
7
  6
CONTINUOUS
 10
180.304516646
 20
40.4049888669
 11
180.6867669877
 21
40.7872392086
  0
LINE
  5
31A
100
AcDbEntity
  8
CURVE
100
AcDbLine
 62
7
  6
CONTINUOUS
 10
179.6519881846
 20
39.3324389775
 11
179.8295902979
 21
39.5100410908
  0
LINE
  5
31B
100
AcDbEntity
  8
CURVE
100
AcDbLine
 62
7
  6
CONTINUOUS
 10
180.3305040437
 20
40.0109548366
 11
180.7226849678
 21
40.4031357607
  0
LINE
  5
31C
100
AcDbEntity
  8
CURVE
100
AcDbLine
 62
7
  6
CONTINUOUS
 10
181.4985487254
 20
41.1789995183
 11
181.7917856078
 21
41.4722364007
  0
LINE
  5
31D
100
AcDbEntity
  8
CURVE
100
AcDbLine
 62
7
  6
CONTINUOUS
 10
180.3564914415
 20
39.6169208064
 11
180.7586029479
 21
40.0190323128
  0
LINE
  5
31E
100
AcDbEntity
  8
CURVE
100
AcDbLine
 62
7
  6
CONTINUOUS
 10
181.3065937125
 20
40.5670230774
 11
182.0763090256
 21
41.3367383905
  0
LINE
  5
31F
100
AcDbEntity
  8
CURVE
100
AcDbLine
 62
7
  6
CONTINUOUS
 10
180.4320139924
 20
39.2724219293
 11
180.794520928
 21
39.6349288648
  0
LINE
  5
320
100
AcDbEntity
  8
CURVE
100
AcDbLine
 62
7
  6
CONTINUOUS
 10
181.1146386996
 20
39.9550466364
 11
181.717109452
 21
40.5575173888
  0
LINE
  5
321
100
AcDbEntity
  8
CURVE
100
AcDbLine
 62
7
  6
CONTINUOUS
 10
181.8498791085
 20
40.6902870454
 11
182.1749244066
 21
41.0153323434
  0
LINE
  5
322
100
AcDbEntity
  8
CURVE
100
AcDbLine
 62
7
  6
CONTINUOUS
 10
180.9226836866
 20
39.3430701955
 11
181.6310176708
 21
40.0514041796
  0
LINE
  5
323
100
AcDbEntity
  8
CURVE
100
AcDbLine
 62
7
  6
CONTINUOUS
 10
181.9361428205
 20
40.3565293293
 11
182.2735397876
 21
40.6939262964
  0
LINE
  5
324
100
AcDbEntity
  8
CURVE
100
AcDbLine
 62
7
  6
CONTINUOUS
 10
182.8445326943
 20
41.2649192031
 11
183.052254873
 21
41.4726413818
  0
LINE
  5
325
100
AcDbEntity
  8
CURVE
100
AcDbLine
 62
7
  6
CONTINUOUS
 10
181.2720568485
 20
39.2724219293
 11
181.3882553436
 21
39.3886204245
  0
LINE
  5
326
100
AcDbEntity
  8
CURVE
100
AcDbLine
 62
7
  6
CONTINUOUS
 10
181.7112176857
 20
39.7115827665
 11
182.3721551686
 21
40.3725202494
  0
LINE
  5
327
100
AcDbEntity
  8
CURVE
100
AcDbLine
 62
7
  6
CONTINUOUS
 10
182.8445326943
 20
40.8448977751
 11
183.495871865
 21
41.4962369458
  0
LINE
  5
328
100
AcDbEntity
  8
ASSI
100
AcDbLine
 62
7
  6
CONTINUOUS
 10
103.4421085645
 20
25.4528510517
 11
102.422678202
 21
25.0096029919
  0
LINE
  5
329
100
AcDbEntity
  8
ASSI
100
AcDbLine
 62
7
  6
CONTINUOUS
 10
103.4421085645
 20
178.2190239483
 11
102.422678202
 21
178.6622720081
  0
LWPOLYLINE
  5
32A
100
AcDbEntity
  8
0
100
AcDbPolyline
 62
7
  6
CONTINUOUS
 90
10
 70
0
 43
0.3500000006
 10
182.2554349365
 20
191.1359458008
 10
182.3268751831
 20
190.9930834351
 10
182.3268751831
 20
190.9216431885
 10
182.1840128174
 20
190.7787989502
 10
182.1125906982
 20
190.7787989502
 10
182.0411504517
 20
190.8502210693
 10
182.0411504517
 20
190.9216431885
 10
182.1125906982
 20
191.0645055542
 10
182.1840128174
 20
191.1359458008
 10
182.2554349365
 20
191.1359458008
  0
LINE
  5
32B
100
AcDbEntity
  8
ASSI
100
AcDbLine
 62
7
  6
CONTINUOUS
 10
256.6028130108
 20
25.058319502
 11
257.0460610706
 21
24.0388891395
  0
LINE
  5
32C
100
AcDbEntity
  8
ASSI
100
AcDbLine
 62
250
  6
CONTINUOUS
 10
225.4185996688
 20
159.5360285812
 11
225.4185996688
 21
44.1358464188
  0
LINE
  5
32D
100
AcDbEntity
  8
ASSI
100
AcDbLine
 62
250
  6
CONTINUOUS
 10
225.6181124788
 20
159.5360285812
 11
225.6181124788
 21
44.1358464188
  0
LWPOLYLINE
  5
32E
100
AcDbEntity
  8
ASSI
100
AcDbPolyline
 62
250
  6
CONTINUOUS
 90
25
 70
0
 10
225.4185996688
 20
44.1358464188
 10
225.4176492695
 20
44.1039639251
 10
225.4146646744
 20
44.0721509387
 10
225.4096445722
 20
44.0405370396
 10
225.4025874515
 20
44.0092165164
 10
225.3935129581
 20
43.9783573212
 10
225.3824843618
 20
43.9481938903
 10
225.3695646522
 20
43.918871367
 10
225.3548054639
 20
43.8904816452
 10
225.3382896395
 20
43.8631646851
 10
225.3201127197
 20
43.8370485819
 10
225.300344651
 20
43.8122059625
 10
225.27903583
 20
43.7886887658
 10
225.2563682948
 20
43.7666761577
 10
225.2323506706
 20
43.7461577937
 10
225.2067193765
 20
43.7269624936
 10
225.1794006009
 20
43.7091557382
 10
225.1505829082
 20
43.6929784827
 10
225.1203635824
 20
43.6785829898
 10
225.088719287
 20
43.666065942
 10
225.0558802105
 20
43.6556222792
 10
225.0223714738
 20
43.647464253
 10
224.9884840691
 20
43.6416515092
 10
224.9542461693
 20
43.638178386
 10
224.9198176437
 20
43.6370643937
  0
LWPOLYLINE
  5
32F
100
AcDbEntity
  8
ASSI
100
AcDbPolyline
 62
250
  6
CONTINUOUS
 90
25
 70
0
 10
225.6181124788
 20
44.1358464188
 10
225.6166812115
 20
44.090991404
 10
225.6124244003
 20
44.0465914485
 10
225.6053420452
 20
44.0026465524
 10
225.5953731355
 20
43.9589315965
 10
225.5825786819
 20
43.9156717001
 10
225.5671417169
 20
43.8735422207
 10
225.5490206926
 20
43.8326004386
 10
225.5282571569
 20
43.7927890735
 10
225.5051587858
 20
43.7546116428
 10
225.4797245993
 20
43.7181221197
 10
225.4519555773
 20
43.6832665308
 10
225.4221623352
 20
43.6503864739
 10
225.3904988967
 20
43.6195650119
 10
225.3568112379
 20
43.5907190817
 10
225.3209479031
 20
43.5639410924
 10
225.2827336554
 20
43.5390590456
 10
225.2423437316
 20
43.5162449396
 10
225.2001523861
 20
43.4961071778
 10
225.1559179008
 20
43.478668897
 10
225.1098819939
 20
43.4639069604
 10
225.0631440738
 20
43.4523603615
 10
225.0160706102
 20
43.4442087646
 10
224.9682951335
 20
43.4392725053
 10
224.9198176437
 20
43.4375515837
  0
LINE
  5
330
100
AcDbEntity
  8
CURVE
100
AcDbLine
 62
7
  6
CONTINUOUS
 10
182.1119886805
 20
39.6923323333
 11
182.4707705495
 21
40.0511142023
  0
LINE
  5
331
100
AcDbEntity
  8
CURVE
100
AcDbLine
 62
7
  6
CONTINUOUS
 10
182.8445326943
 20
40.4248763471
 11
183.2866467693
 21
40.8669904221
  0
LINE
  5
332
100
AcDbEntity
  8
CURVE
100
AcDbLine
 62
7
  6
CONTINUOUS
 10
183.5377342218
 20
41.1180778746
 11
183.8735991255
 21
41.4539427783
  0
LINE
  5
333
100
AcDbEntity
  8
CURVE
100
AcDbLine
 62
7
  6
CONTINUOUS
 10
182.2015100905
 20
39.3618323153
 11
182.5693859305
 21
39.7297081553
  0
LINE
  5
334
100
AcDbEntity
  8
CURVE
100
AcDbLine
 62
7
  6
CONTINUOUS
 10
182.8445326943
 20
40.004854919
 11
183.3332618801
 21
40.4935841049
  0
LINE
  5
335
100
AcDbEntity
  8
CURVE
100
AcDbLine
 62
7
  6
CONTINUOUS
 10
183.8448765937
 20
41.0051988184
 11
184.1508638145
 21
41.3111860392
  0
LINE
  5
336
100
AcDbEntity
  8
CURVE
100
AcDbLine
 62
7
  6
CONTINUOUS
 10
182.5321211326
 20
39.2724219293
 11
182.6680013115
 21
39.4083021083
  0
LINE
  5
337
100
AcDbEntity
  8
CURVE
100
AcDbLine
 62
7
  6
CONTINUOUS
 10
182.8445326943
 20
39.584833491
 11
183.3018727419
 21
40.0421735387
  0
LINE
  5
338
100
AcDbEntity
  8
CURVE
100
AcDbLine
 62
7
  6
CONTINUOUS
 10
183.3930067737
 20
40.1333075704
 11
184.3091559835
 21
41.0494567803
  0
LINE
  5
339
100
AcDbEntity
  8
CURVE
100
AcDbLine
 62
7
  6
CONTINUOUS
 10
182.9521421439
 20
39.2724215126
 11
183.3018727419
 21
39.6221521106
  0
LINE
  5
33A
100
AcDbEntity
  8
CURVE
100
AcDbLine
 62
7
  6
CONTINUOUS
 10
183.7342783409
 20
40.0545577096
 11
184.2915685037
 21
40.6118478724
  0
LINE
  5
33B
100
AcDbEntity
  8
CURVE
100
AcDbLine
 62
7
  6
CONTINUOUS
 10
183.8610613366
 20
39.7613192773
 11
184.2085627316
 21
40.1088206723
  0
LINE
  5
33C
100
AcDbEntity
  8
CURVE
100
AcDbLine
 62
7
  6
CONTINUOUS
 10
183.9571314394
 20
39.4373679521
 11
184.3103185145
 21
39.7905550271
  0
LINE
  5
33D
100
AcDbEntity
  8
CURVE
100
AcDbLine
 62
7
  6
CONTINUOUS
 10
184.212206428
 20
39.2724215126
 11
184.3978324218
 21
39.4580475064
  0
LINE
  5
33E
100
AcDbEntity
  8
ASSI
100
AcDbLine
 62
250
  6
CONTINUOUS
 10
225.6181124788
 20
159.5360285812
 11
225.4185996688
 21
159.5360285812
  0
LINE
  5
33F
100
AcDbEntity
  8
ASSI
100
AcDbLine
 62
250
  6
CONTINUOUS
 10
134.8213406462
 20
159.5360285812
 11
135.0208534562
 21
159.5360285812
  0
LINE
  5
340
100
AcDbEntity
  8
ASSI
100
AcDbLine
 62
7
  6
CONTINUOUS
 10
224.8209445374
 20
159.9359375
 11
135.6185085876
 21
159.9359375
  0
LINE
  5
341
100
AcDbEntity
  8
ASSI
100
AcDbLine
 62
250
  6
CONTINUOUS
 10
135.5196354813
 20
160.0348106063
 11
224.9198176437
 21
160.0348106063
  0
LINE
  5
342
100
AcDbEntity
  8
ASSI
100
AcDbLine
 62
250
  6
CONTINUOUS
 10
135.5196354813
 20
160.2343234163
 11
224.9198176437
 21
160.2343234163
  0
LWPOLYLINE
  5
343
100
AcDbEntity
  8
ASSI
100
AcDbPolyline
 62
250
  6
CONTINUOUS
 90
25
 70
0
 10
224.9198176437
 20
160.0348106063
 10
224.9517001374
 20
160.033860207
 10
224.9835131238
 20
160.0308756119
 10
225.0151270229
 20
160.0258555097
 10
225.0464475461
 20
160.018798389
 10
225.0773067413
 20
160.0097238956
 10
225.1074701722
 20
159.9986952993
 10
225.1367926955
 20
159.9857755897
 10
225.1651824173
 20
159.9710164014
 10
225.1924993774
 20
159.954500577
 10
225.2186154806
 20
159.9363236572
 10
225.2434581
 20
159.9165555885
 10
225.2669752967
 20
159.8952467675
 10
225.2889879048
 20
159.8725792323
 10
225.3095062688
 20
159.8485616081
 10
225.3287015689
 20
159.822930314
 10
225.3465083243
 20
159.7956115384
 10
225.3626855798
 20
159.7667938457
 10
225.3770810727
 20
159.7365745199
 10
225.3895981205
 20
159.7049302245
 10
225.4000417833
 20
159.672091148
 10
225.4081998095
 20
159.6385824113
 10
225.4140125533
 20
159.6046950066
 10
225.4174856765
 20
159.5704571068
 10
225.4185996688
 20
159.5360285812
  0
LWPOLYLINE
  5
344
100
AcDbEntity
  8
ASSI
100
AcDbPolyline
 62
250
  6
CONTINUOUS
 90
25
 70
0
 10
224.9198176437
 20
160.2343234163
 10
224.9646726585
 20
160.232892149
 10
225.009072614
 20
160.2286353378
 10
225.0530175101
 20
160.2215529827
 10
225.096732466
 20
160.211584073
 10
225.1399923624
 20
160.1987896194
 10
225.1821218418
 20
160.1833526544
 10
225.2230636239
 20
160.1652316301
 10
225.262874989
 20
160.1444680944
 10
225.3010524197
 20
160.1213697233
 10
225.3375419428
 20
160.0959355368
 10
225.3723975317
 20
160.0681665148
 10
225.4052775886
 20
160.0383732727
 10
225.4360990506
 20
160.0067098342
 10
225.4649449808
 20
159.9730221754
 10
225.4917229701
 20
159.9371588406
 10
225.5166050169
 20
159.8989445929
 10
225.5394191229
 20
159.8585546691
 10
225.5595568847
 20
159.8163633236
 10
225.5769951655
 20
159.7721288383
 10
225.5917571021
 20
159.7260929314
 10
225.603303701
 20
159.6793550113
 10
225.6114552979
 20
159.6322815477
 10
225.6163915572
 20
159.584506071
 10
225.6181124788
 20
159.5360285812
  0
LWPOLYLINE
  5
345
100
AcDbEntity
  8
0
100
AcDbPolyline
 62
7
  6
CONTINUOUS
 90
3
 70
0
 43
0.3500000006
 10
265.3768778687
 20
97.0145085754
 10
264.5197218018
 20
97.8716555786
 10
267.5197227173
 20
97.8716555786
  0
LWPOLYLINE
  5
346
100
AcDbEntity
  8
0
100
AcDbPolyline
 62
7
  6
CONTINUOUS
 90
10
 70
0
 43
0.3500000006
 10
264.5197218018
 20
101.9430789185
 10
265.1625752563
 20
101.3002254639
 10
266.0197313232
 20
100.8716474304
 10
267.0911537476
 20
100.8716474304
 10
267.5197227173
 20
101.3002254639
 10
267.5197227173
 20
101.9430789185
 10
267.0911537476
 20
102.3716478882
 10
266.2340158081
 20
102.3716478882
 10
265.8054468384
 20
101.9430789185
 10
265.8054468384
 20
101.0145097961
  0
LWPOLYLINE
  5
347
100
AcDbEntity
  8
0
100
AcDbPolyline
 62
7
  6
CONTINUOUS
 90
3
 70
0
 43
0.3500000006
 10
265.3768778687
 20
104.943079834
 10
264.5197218018
 20
105.8002268372
 10
267.5197227173
 20
105.8002268372
  0
LINE
  5
348
100
AcDbEntity
  8
ASSI
100
AcDbLine
 62
7
  6
CONTINUOUS
 10
256.9973445605
 20
25.4528510517
 11
256.9973445605
 21
178.2190239483
  0
LINE
  5
349
100
AcDbEntity
  8
ASSI
100
AcDbLine
 62
7
  6
CONTINUOUS
 10
258.0322440572
 20
25.0240288074
 11
258.0322440572
 21
178.6478461926
  0
LINE
  5
34A
100
AcDbEntity
  8
ASSI
100
AcDbLine
 62
7
  6
CONTINUOUS
 10
258.2697265625
 20
24.7865463021
 11
258.2697265625
 21
178.8853286979
  0
LINE
  5
34B
100
AcDbEntity
  8
ASSI
100
AcDbLine
 62
7
  6
CONTINUOUS
 10
256.6028130108
 20
178.613555498
 11
103.8366401142
 21
178.613555498
  0
LINE
  5
34C
100
AcDbEntity
  8
ASSI
100
AcDbLine
 62
7
  6
CONTINUOUS
 10
257.0316352551
 20
179.6484549947
 11
103.4078178699
 21
179.6484549947
  0
LINE
  5
34D
100
AcDbEntity
  8
ASSI
100
AcDbLine
 62
7
  6
CONTINUOUS
 10
257.2691177604
 20
179.8859375
 11
103.1703353646
 21
179.8859375
  0
LWPOLYLINE
  5
34E
100
AcDbEntity
  8
0
100
AcDbPolyline
 62
7
  6
CONTINUOUS
 90
8
 70
0
 43
0.3500000006
 10
267.5197227173
 20
98.7287935181
 10
267.5197227173
 20
99.5859405212
 10
267.0911537476
 20
100.014509491
 10
266.2340158081
 20
100.014509491
 10
265.8054468384
 20
99.5859405212
 10
265.8054468384
 20
98.7287935181
 10
264.5197218018
 20
98.7287935181
 10
264.5197218018
 20
100.014509491
  0
LWPOLYLINE
  5
34F
100
AcDbEntity
  8
0
100
AcDbPolyline
 62
7
  6
CONTINUOUS
 90
8
 70
0
 43
0.3500000006
 10
177.1125891724
 20
190.6359365845
 10
177.9697271118
 20
190.6359365845
 10
178.3982960815
 20
191.0645055542
 10
178.3982960815
 20
191.9216434937
 10
177.9697271118
 20
192.3502305908
 10
177.1125891724
 20
192.3502305908
 10
177.1125891724
 20
193.6359375
 10
178.3982960815
 20
193.6359375
  0
LINE
  5
350
100
AcDbEntity
  8
ASSI
100
AcDbLine
 62
7
  6
CONTINUOUS
 10
257.0460610706
 20
24.0388891395
 11
257.0316352551
 21
24.0234200053
  0
LINE
  5
351
100
AcDbEntity
  8
ASSI
100
AcDbLine
 62
7
  6
CONTINUOUS
 10
256.6028130108
 20
25.058319502
 11
256.9973445605
 21
25.4528510517
  0
LINE
  5
352
100
AcDbEntity
  8
ASSI
100
AcDbLine
 62
7
  6
CONTINUOUS
 10
257.0460610706
 20
24.0388891395
 11
258.016774923
 21
25.0096029919
  0
LINE
  5
353
100
AcDbEntity
  8
ASSI
100
AcDbLine
 62
7
  6
CONTINUOUS
 10
258.2697265625
 20
24.7865463021
 11
257.2691177604
 21
23.7859375
  0
LINE
  5
354
100
AcDbEntity
  8
ASSI
100
AcDbLine
 62
7
  6
CONTINUOUS
 10
258.0322440572
 20
25.0240288074
 11
258.016774923
 21
25.0096029919
  0
LINE
  5
355
100
AcDbEntity
  8
ASSI
100
AcDbLine
 62
7
  6
CONTINUOUS
 10
258.016774923
 20
178.6622720081
 11
258.0322440572
 21
178.6478461926
  0
LINE
  5
356
100
AcDbEntity
  8
ASSI
100
AcDbLine
 62
7
  6
CONTINUOUS
 10
256.9973445605
 20
178.2190239483
 11
256.6028130108
 21
178.613555498
  0
LINE
  5
357
100
AcDbEntity
  8
ASSI
100
AcDbLine
 62
7
  6
CONTINUOUS
 10
258.016774923
 20
178.6622720081
 11
257.0460610706
 21
179.6329858605
  0
LINE
  5
358
100
AcDbEntity
  8
ASSI
100
AcDbLine
 62
7
  6
CONTINUOUS
 10
257.2691177604
 20
179.8859375
 11
258.2697265625
 21
178.8853286979
  0
LINE
  5
359
100
AcDbEntity
  8
ASSI
100
AcDbLine
 62
7
  6
CONTINUOUS
 10
257.0316352551
 20
179.6484549947
 11
257.0460610706
 21
179.6329858605
  0
LINE
  5
35A
100
AcDbEntity
  8
ASSI
100
AcDbLine
 62
7
  6
CONTINUOUS
 10
56.6948261603
 20
24.0234200053
 11
63.4954353333
 21
23.7859375
  0
LINE
  5
35B
100
AcDbEntity
  8
ASSI
100
AcDbLine
 62
7
  6
CONTINUOUS
 10
56.6948261603
 20
25.0240288074
 11
63.4954353333
 21
24.7865463021
  0
LINE
  5
35C
100
AcDbEntity
  8
0
100
AcDbLine
 62
7
  6
CONTINUOUS
 10
63.4954353333
 20
26.0778935872
 11
64.0954353333
 21
26.0359375
  0
LINE
  5
35D
100
AcDbEntity
  8
0
100
AcDbLine
 62
250
  6
CONTINUOUS
 10
63.4954353333
 20
27.6739960676
 11
64.0954353333
 21
27.6320399804
  0
LINE
  5
35E
100
AcDbEntity
  8
ASSI
100
AcDbLine
 62
7
  6
CONTINUOUS
 10
55.6954353333
 20
178.2190239483
 11
56.679887791
 21
178.6622720081
  0
LINE
  5
35F
100
AcDbEntity
  8
ASSI
100
AcDbLine
 62
7
  6
CONTINUOUS
 10
55.6954353333
 20
25.4528510517
 11
56.679887791
 21
25.0096029919
  0
LINE
  5
360
100
AcDbEntity
  8
ASSI
100
AcDbLine
 62
7
  6
CONTINUOUS
 10
55.6954353333
 20
178.613555498
 11
56.6948261603
 21
179.6484549947
  0
LINE
  5
361
100
AcDbEntity
  8
ASSI
100
AcDbLine
 62
7
  6
CONTINUOUS
 10
55.6954353333
 20
25.058319502
 11
56.6948261603
 21
24.0234200053
  0
LWPOLYLINE
  5
362
100
AcDbEntity
  8
0
100
AcDbPolyline
 62
7
  6
CONTINUOUS
 90
3
 70
0
 43
0.3500000006
 10
68.2193446655
 20
198.9216456299
 10
68.1479134827
 20
198.707361145
 10
68.0050556488
 20
198.421654541
  0
LWPOLYLINE
  5
363
100
AcDbEntity
  8
0
100
AcDbPolyline
 62
7
  6
CONTINUOUS
 90
3
 70
0
 43
0.3500000006
 10
68.2530390472
 20
190.9216431885
 10
68.1816078644
 20
190.7073587036
 10
68.0387500305
 20
190.4216520996
  0
LINE
  5
364
100
AcDbEntity
  8
ASSI
100
AcDbLine
 62
7
  6
CONTINUOUS
 10
55.6954353333
 20
25.058319502
 11
55.6954353333
 21
178.613555498
  0
LINE
  5
365
100
AcDbEntity
  8
ASSI
100
AcDbLine
 62
7
  6
CONTINUOUS
 10
56.679887791
 20
24.0388891395
 11
56.679887791
 21
25.0096029919
  0
LINE
  5
366
100
AcDbEntity
  8
ASSI
100
AcDbLine
 62
7
  6
CONTINUOUS
 10
56.679887791
 20
178.6622720081
 11
56.679887791
 21
179.6329858605
  0
LINE
  5
367
100
AcDbEntity
  8
ASSI
100
AcDbLine
 62
7
  6
CONTINUOUS
 10
56.6948261603
 20
25.0240288074
 11
56.6948261603
 21
178.6478461926
  0
LINE
  5
368
100
AcDbEntity
  8
ASSI
100
AcDbLine
 62
7
  6
CONTINUOUS
 10
63.4954353333
 20
23.7859375
 11
63.4954353333
 21
179.8859375
  0
LINE
  5
369
100
AcDbEntity
  8
0
100
AcDbLine
 62
7
  6
CONTINUOUS
 10
64.0954353333
 20
26.0359375
 11
64.0954353333
 21
177.6359375
  0
LWPOLYLINE
  5
36A
100
AcDbEntity
  8
0
100
AcDbPolyline
 62
7
  6
CONTINUOUS
 90
4
 70
0
 43
0.3500000006
 10
65.1479125671
 20
199.0645079956
 10
65.1479125671
 20
199.9216459351
 10
65.5764860687
 20
200.3502149048
 10
66.2193440552
 20
200.3502149048
  0
LWPOLYLINE
  5
36B
100
AcDbEntity
  8
0
100
AcDbPolyline
 62
7
  6
CONTINUOUS
 90
4
 70
0
 43
0.3500000006
 10
65.1816069489
 20
192.9930840454
 10
65.1816069489
 20
193.6359375
 10
66.6816074066
 20
193.6359375
 10
65.8244649353
 20
190.6359365845
  0
LWPOLYLINE
  5
36C
100
AcDbEntity
  8
0
100
AcDbPolyline
 62
7
  6
CONTINUOUS
 90
4
 70
0
 43
0.3500000006
 10
69.2530393524
 20
191.0645055542
 10
69.2530393524
 20
191.9216434937
 10
69.6816083221
 20
192.3502305908
 10
70.3244663086
 20
192.3502305908
  0
LWPOLYLINE
  5
36D
100
AcDbEntity
  8
0
100
AcDbPolyline
 62
7
  6
CONTINUOUS
 90
2
 70
0
 43
0.3500000006
 10
70.219340744
 20
198.6359390259
 10
70.219340744
 20
200.1359304199
  0
LWPOLYLINE
  5
36E
100
AcDbEntity
  8
0
100
AcDbPolyline
 62
7
  6
CONTINUOUS
 90
10
 70
0
 43
0.3500000006
 10
68.1816078644
 20
191.1359458008
 10
68.2530390472
 20
190.9930834351
 10
68.2530390472
 20
190.9216431885
 10
68.1101812134
 20
190.7787989502
 10
68.0387500305
 20
190.7787989502
 10
67.9673233795
 20
190.8502210693
 10
67.9673233795
 20
190.9216431885
 10
68.0387500305
 20
191.0645055542
 10
68.1101812134
 20
191.1359458008
 10
68.1816078644
 20
191.1359458008
  0
LWPOLYLINE
  5
36F
100
AcDbEntity
  8
0
100
AcDbPolyline
 62
7
  6
CONTINUOUS
 90
10
 70
0
 43
0.3500000006
 10
68.1479134827
 20
199.1359301147
 10
68.2193446655
 20
198.9930858765
 10
68.2193446655
 20
198.9216456299
 10
68.0764868317
 20
198.7788013916
 10
68.0050556488
 20
198.7788013916
 10
67.9336289978
 20
198.8502235107
 10
67.9336289978
 20
198.9216456299
 10
68.0050556488
 20
199.0645079956
 10
68.0764868317
 20
199.1359301147
 10
68.1479134827
 20
199.1359301147
  0
LINE
  5
370
100
AcDbEntity
  8
ASSI
100
AcDbLine
 62
7
  6
CONTINUOUS
 10
56.6948261603
 20
25.0240288074
 11
56.679887791
 21
25.0096029919
  0
LINE
  5
371
100
AcDbEntity
  8
ASSI
100
AcDbLine
 62
7
  6
CONTINUOUS
 10
56.679887791
 20
178.6622720081
 11
56.6948261603
 21
178.6478461926
  0
LINE
  5
372
100
AcDbEntity
  8
0
100
AcDbLine
 62
250
  6
CONTINUOUS
 10
63.4954353333
 20
175.9978789324
 11
64.0954353333
 21
176.0398350196
  0
LINE
  5
373
100
AcDbEntity
  8
0
100
AcDbLine
 62
7
  6
CONTINUOUS
 10
63.4954353333
 20
177.5939814128
 11
64.0954353333
 21
177.6359375
  0
LINE
  5
374
100
AcDbEntity
  8
ASSI
100
AcDbLine
 62
7
  6
CONTINUOUS
 10
56.6948261603
 20
178.6478461926
 11
63.4954353333
 21
178.8853286979
  0
LINE
  5
375
100
AcDbEntity
  8
ASSI
100
AcDbLine
 62
7
  6
CONTINUOUS
 10
56.6948261603
 20
179.6484549947
 11
63.4954353333
 21
179.8859375
  0
LWPOLYLINE
  5
376
100
AcDbEntity
  8
0
100
AcDbPolyline
 62
7
  6
CONTINUOUS
 90
3
 70
0
 43
0.3500000006
 10
70.7193408966
 20
199.2787924805
 10
69.2193449707
 20
199.2787924805
 10
69.8621984253
 20
201.6359399414
  0
LWPOLYLINE
  5
377
100
AcDbEntity
  8
0
100
AcDbPolyline
 62
7
  6
CONTINUOUS
 90
13
 70
0
 43
0.3500000006
 10
69.6816083221
 20
192.3502305908
 10
69.3958926544
 20
192.5645150757
 10
69.3958926544
 20
193.2073685303
 10
69.6816083221
 20
193.6359375
 10
70.3244663086
 20
193.6359375
 10
70.6101819763
 20
193.2073685303
 10
70.6101819763
 20
192.5645150757
 10
70.3244663086
 20
192.3502305908
 10
70.7530352783
 20
191.9216434937
 10
70.7530352783
 20
191.0645055542
 10
70.3244663086
 20
190.6359365845
 10
69.6816083221
 20
190.6359365845
 10
69.2530393524
 20
191.0645055542
  0
LWPOLYLINE
  5
378
100
AcDbEntity
  8
0
100
AcDbPolyline
 62
7
  6
CONTINUOUS
 90
13
 70
0
 43
0.3500000006
 10
65.5764860687
 20
200.3502149048
 10
65.290770401
 20
200.5645175171
 10
65.290770401
 20
201.2073709717
 10
65.5764860687
 20
201.6359399414
 10
66.2193440552
 20
201.6359399414
 10
66.505055191
 20
201.2073709717
 10
66.505055191
 20
200.5645175171
 10
66.2193440552
 20
200.3502149048
 10
66.6479130249
 20
199.9216459351
 10
66.6479130249
 20
199.0645079956
 10
66.2193440552
 20
198.6359390259
 10
65.5764860687
 20
198.6359390259
 10
65.1479125671
 20
199.0645079956
  0
ELLIPSE
  5
379
100
AcDbEntity
  8
ASSI
100
AcDbEllipse
 62
7
  6
CONTINUOUS
 10
135.6209475115
 20
44.237158449
 30
0.0
 11
-0.3552779753
 21
-0.3552779753
 31
0.0
 40
0.9951458158
 41
-0.782965171
 42
0.782965171
  0
ELLIPSE
  5
37A
100
AcDbEntity
  8
ASSI
100
AcDbEllipse
 62
7
  6
CONTINUOUS
 10
224.8185056135
 20
44.237158449
 30
0.0
 11
0.3552779753
 21
-0.3552779753
 31
0.0
 40
0.9951458158
 41
-0.782965171
 42
0.782965171
  0
ELLIPSE
  5
37B
100
AcDbEntity
  8
ASSI
100
AcDbEllipse
 62
7
  6
CONTINUOUS
 10
224.8185056135
 20
159.434716551
 30
0.0
 11
0.3552779753
 21
0.3552779753
 31
0.0
 40
0.9951458158
 41
-0.782965171
 42
0.782965171
  0
ELLIPSE
  5
37C
100
AcDbEntity
  8
ASSI
100
AcDbEllipse
 62
7
  6
CONTINUOUS
 10
135.6209475115
 20
159.434716551
 30
0.0
 11
-0.3552779753
 21
0.3552779753
 31
0.0
 40
0.9951458158
 41
-0.782965171
 42
0.782965171
  0
ENDSEC
  0
SECTION
  2
OBJECTS
  0
DICTIONARY
  5
C
100
AcDbDictionary
280
0
281
1
  3
ACAD_GROUP
350
D
  3
ACAD_MLINESTYLE
350
17
  3
ACAD_LAYOUT
350
1A
  3
ACAD_PLOTSETTINGS
350
19
  3
ACAD_PLOTSTYLENAME
350
E
  0
DICTIONARY
  5
D
102
{ACAD_REACTORS
330
C
102
}
100
AcDbDictionary
280
0
281
1
  0
ACDBDICTIONARYWDFLT
  5
E
102
{ACAD_REACTORS
330
C
102
}
100
AcDbDictionary
281
1
  3
Normal
350
F
100
AcDbDictionaryWithDefault
340
F
  0
DICTIONARY
  5
17
102
{ACAD_REACTORS
330
C
102
}
100
AcDbDictionary
280
0
281
1
  3
Standard
350
18
  0
DICTIONARY
  5
19
102
{ACAD_REACTORS
330
C
102
}
100
AcDbDictionary
281
1
  0
DICTIONARY
  5
1A
102
{ACAD_REACTORS
330
C
102
}
100
AcDbDictionary
281
1
  3
Model
350
37D
  3
Layout1
350
37E
  0
ACDBPLACEHOLDER
  5
F
102
{ACAD_REACTORS
330
E
102
}
  0
MLINESTYLE
  5
18
102
{ACAD_REACTORS
330
17
102
}
100
AcDbMlineStyle
  2
STANDARD
 70
0
  3

 62
256
 51
90.0
 52
90.0
 71
2
 49
0.5
 62
256
  6
BYLAYER
 49
-0.5
 62
256
  6
BYLAYER
  0
LAYOUT
  5
37D
102
{ACAD_REACTORS
330
1A
102
}
100
AcDbPlotSettings
  1

  2
none_device
  4
ISO_A4_(297.00_x_210.00_MM)
  6

 40
0.0
 41
0.0
 42
0.0
 43
0.0
 44
297.0
 45
210.0
 46
0.0
 47
0.0
 48
0.0
 49
0.0
140
0.0
141
0.0
142
1.0
143
1.0
 70
1024
 72
1
 73
0
 74
0
  7

 75
0
147
1.0
148
0.0
149
0.0
100
AcDbLayout
  1
Model
 70
0
 71
0
 10
0.0
 20
0.0
 11
297.0
 21
210.0
 12
0.0
 22
0.0
 32
0.0
 14
0.0
 24
0.0
 34
0.0
 15
0.0
 25
0.0
 35
0.0
146
0.0
 13
0.0
 23
0.0
 33
0.0
 16
1.0
 26
0.0
 36
0.0
 17
0.0
 27
1.0
 37
0.0
 76
0
330
21C
345
0
346
0
  0
LAYOUT
  5
37E
102
{ACAD_REACTORS
330
1A
102
}
100
AcDbPlotSettings
  1

  2
none_device
  4
ISO_A4_(297.00_x_210.00_MM)
  6

 40
0.0
 41
0.0
 42
0.0
 43
0.0
 44
297.0
 45
210.0
 46
0.0
 47
0.0
 48
0.0
 49
0.0
140
0.0
141
0.0
142
1.0
143
1.0
 70
0
 72
1
 73
0
 74
0
  7

 75
0
147
1.0
148
0.0
149
0.0
100
AcDbLayout
  1
Layout1
 70
0
 71
1
 10
0.0
 20
0.0
 11
297.0
 21
210.0
 12
0.0
 22
0.0
 32
0.0
 14
0.0
 24
0.0
 34
0.0
 15
0.0
 25
0.0
 35
0.0
146
0.0
 13
0.0
 23
0.0
 33
0.0
 16
1.0
 26
0.0
 36
0.0
 17
0.0
 27
1.0
 37
0.0
 76
0
330
21D
345
0
346
0
  0
ENDSEC
  0
EOF
