  0
SECTION
  2
HEADER
  9
$ACADVER
  1
AC1021
  9
$DWGCODEPAGE
  3
ANSI_1252
  9
$EXTMAX
 10
297.0
 20
210.0
 30
0.0
  9
$EXTMIN
 10
0.0
 20
0.0
 30
0.0
  9
$LIMMIN
 10
0.0
 20
0.0
  9
$LIMMAX
 10
297.0
 20
210.0
  9
$VIEWCTR
 10
148.5
 20
105.0
  9
$VIEWSIZE
 40
210.0
  9
$CLAYER
  8
0
  9
$LTSCALE
 40
16.335
  9
$CELTYPE
  6
BYLAYER
  9
$DIMSCALE
 40
1.0
  9
$DIMASZ
 40
3.0
  9
$DIMEXO
 40
0.5
  9
$DIMDLI
 40
11.286
  9
$DIMEXE
 40
1.5
  9
$DIMCEN
 40
2.673
  9
$DIMLFAC
 40
1.0
  9
$DIMBLK
  1
_FILLED
  9
$DIMALT
 70
0
  9
$DIMALTF
 40
25.4
  9
$DIMTXT
 40
3.0
  9
$DIMTOL
 70
1
  9
$DIMLIM
 70
0
  9
$DIMTFAC
 40
1.0
  9
$DIMTP
 40
0.01
  9
$DIMTM
 40
0.01
  9
$DIMGAP
 40
0.625
  9
$DIMDSEP
 70
44
  9
$AUNITS
 70
0
  9
$PDMODE
 70
3
  9
$PDSIZE
 40
3.0
  9
$HANDSEED
  5
2E6
  9
$TILEMODE
 70
1
  9
$MEASUREMENT
 70
1
  9
$INSUNITS
 70
4
  0
ENDSEC
  0
SECTION
  2
CLASSES
  0
CLASS
  1
ACDBDICTIONARYWDFLT
  2
AcDbDictionaryWithDefault
  3
AutoCAD 2000
 90
0
 91
1
280
0
281
0
  0
CLASS
  1
ACDBPLACEHOLDER
  2
AcDbPlaceHolder
  3
AutoCAD 2000
 90
0
 91
1
280
0
281
0
  0
CLASS
  1
LAYOUT
  2
AcDbLayout
  3
AutoCAD 2000
 90
0
 91
0
280
0
281
0
  0
ENDSEC
  0
SECTION
  2
TABLES
  0
TABLE
  2
VPORT
  5
8
100
AcDbSymbolTable
 70
2
  0
VPORT
  5
1F4
100
AcDbSymbolTableRecord
100
AcDbViewportTableRecord
  2
*ACTIVE
 70
0
 10
0.0
 20
0.0
 11
1.0
 21
1.0
 12
148.5
 22
105.0
 13
0.0
 23
0.0
 14
1.0
 24
1.0
 15
0.0
 25
0.0
 16
0.0
 26
0.0
 36
1.0
 17
0.0
 27
0.0
 37
0.0
 40
210.0
 41
1.4142857143
 42
50.0
 43
0.0
 44
0.0
 50
0.0
 51
0.0
 71
0
 72
100
 73
1
 74
1
 75
0
 76
0
 77
0
 78
0
  0
ENDTAB
  0
TABLE
  2
LTYPE
  5
5
100
AcDbSymbolTable
 70
6
  0
LTYPE
  5
14
100
AcDbSymbolTableRecord
100
AcDbLinetypeTableRecord
  2
BYBLOCK
 70
0
  3

 72
65
 73
0
 40
0.0
  0
LTYPE
  5
15
100
AcDbSymbolTableRecord
100
AcDbLinetypeTableRecord
  2
BYLAYER
 70
0
  3

 72
65
 73
0
 40
0.0
  0
LTYPE
  5
16
100
AcDbSymbolTableRecord
100
AcDbLinetypeTableRecord
  2
CONTINUOUS
 70
64
  3
Solid line
 72
65
 73
0
 40
0.0
  0
LTYPE
  5
1F5
100
AcDbSymbolTableRecord
100
AcDbLinetypeTableRecord
  2
CENTER
 70
64
  3
____ _ ____ _ ____ _ ____ _ ____ _ ____ _ ____
 72
65
 73
4
 40
0.6
 49
0.375
 74
0
 49
-0.075
 74
0
 49
0.075
 74
0
 49
-0.075
 74
0
  0
LTYPE
  5
1F6
100
AcDbSymbolTableRecord
100
AcDbLinetypeTableRecord
  2
HIDDEN
 70
64
  3
- - - - - - - - - - - - - - - - - - - -
 72
65
 73
2
 40
0.2
 49
0.1
 74
0
 49
-0.1
 74
0
  0
LTYPE
  5
1F7
100
AcDbSymbolTableRecord
100
AcDbLinetypeTableRecord
  2
PHANTOM
 70
64
  3
_____ _ _ _____ _ _ _____ _ _ _____
 72
65
 73
6
 40
0.8
 49
0.45
 74
0
 49
-0.05
 74
0
 49
0.1
 74
0
 49
-0.05
 74
0
 49
0.1
 74
0
 49
-0.05
 74
0
  0
LTYPE
  5
1F8
100
AcDbSymbolTableRecord
100
AcDbLinetypeTableRecord
  2
DOT
 70
64
  3
. . . . . . . . . . . . . . . . . . . .
 72
65
 73
2
 40
0.2
 49
0.1
 74
0
 49
-0.1
 74
0
  0
LTYPE
  5
1F9
100
AcDbSymbolTableRecord
100
AcDbLinetypeTableRecord
  2
DASHED
 70
64
  3
- - - - - - - - - - - - - - - - - - - -
 72
65
 73
2
 40
0.2
 49
0.1
 74
0
 49
-0.1
 74
0
  0
ENDTAB
  0
TABLE
  2
LAYER
  5
2
100
AcDbSymbolTable
 70
36
  0
LAYER
  5
10
100
AcDbSymbolTableRecord
100
AcDbLayerTableRecord
  2
0
 70
0
 62
7
  6
CONTINUOUS
370
-3
390
F
  0
LAYER
  5
1FA
100
AcDbSymbolTableRecord
100
AcDbLayerTableRecord
  2
DEFAULT_1
 70
0
 62
7
  6
CENTER
370
-3
390
F
  0
LAYER
  5
1FB
100
AcDbSymbolTableRecord
100
AcDbLayerTableRecord
  2
DEFAULT_2
 70
0
 62
7
  6
HIDDEN
370
-3
390
F
  0
LAYER
  5
1FC
100
AcDbSymbolTableRecord
100
AcDbLayerTableRecord
  2
DEFAULT_3
 70
0
 62
7
  6
PHANTOM
370
-3
390
F
  0
LAYER
  5
1FD
100
AcDbSymbolTableRecord
100
AcDbLayerTableRecord
  2
ASSI
 70
0
 62
7
  6
CONTINUOUS
370
-3
390
F
  0
LAYER
  5
1FE
100
AcDbSymbolTableRecord
100
AcDbLayerTableRecord
  2
COORDINATE
 70
0
 62
7
  6
CONTINUOUS
370
-3
390
F
  0
LAYER
  5
1FF
100
AcDbSymbolTableRecord
100
AcDbLayerTableRecord
  2
COORD_ORIGINE
 70
0
 62
7
  6
CONTINUOUS
370
-3
390
F
  0
LAYER
  5
200
100
AcDbSymbolTableRecord
100
AcDbLayerTableRecord
  2
COPY_PUBLISH
 70
0
 62
7
  6
CONTINUOUS
370
-3
390
F
  0
LAYER
  5
201
100
AcDbSymbolTableRecord
100
AcDbLayerTableRecord
  2
COSMETIC
 70
0
 62
7
  6
CONTINUOUS
370
-3
390
F
  0
LAYER
  5
202
100
AcDbSymbolTableRecord
100
AcDbLayerTableRecord
  2
COSMETICI
 70
0
 62
7
  6
CONTINUOUS
370
-3
390
F
  0
LAYER
  5
203
100
AcDbSymbolTableRecord
100
AcDbLayerTableRecord
  2
CURVE
 70
0
 62
7
  6
CONTINUOUS
370
-3
390
F
  0
LAYER
  5
204
100
AcDbSymbolTableRecord
100
AcDbLayerTableRecord
  2
CURVE_TASSELLI
 70
0
 62
7
  6
CONTINUOUS
370
-3
390
F
  0
LAYER
  5
205
100
AcDbSymbolTableRecord
100
AcDbLayerTableRecord
  2
DRAFT
 70
0
 62
7
  6
CONTINUOUS
370
-3
390
F
  0
LAYER
  5
206
100
AcDbSymbolTableRecord
100
AcDbLayerTableRecord
  2
IGES
 70
0
 62
7
  6
CONTINUOUS
370
-3
390
F
  0
LAYER
  5
207
100
AcDbSymbolTableRecord
100
AcDbLayerTableRecord
  2
IMPORT_IGES
 70
0
 62
7
  6
CONTINUOUS
370
-3
390
F
  0
LAYER
  5
208
100
AcDbSymbolTableRecord
100
AcDbLayerTableRecord
  2
INTFCLR_2
 70
0
 62
7
  6
CONTINUOUS
370
-3
390
F
  0
LAYER
  5
209
100
AcDbSymbolTableRecord
100
AcDbLayerTableRecord
  2
INTF_1
 70
0
 62
7
  6
CONTINUOUS
370
-3
390
F
  0
LAYER
  5
20A
100
AcDbSymbolTableRecord
100
AcDbLayerTableRecord
  2
INTF_11
 70
0
 62
7
  6
CONTINUOUS
370
-3
390
F
  0
LAYER
  5
20B
100
AcDbSymbolTableRecord
100
AcDbLayerTableRecord
  2
INTF_21
 70
0
 62
7
  6
CONTINUOUS
370
-3
390
F
  0
LAYER
  5
20C
100
AcDbSymbolTableRecord
100
AcDbLayerTableRecord
  2
INTF_7
 70
0
 62
7
  6
CONTINUOUS
370
-3
390
F
  0
LAYER
  5
20D
100
AcDbSymbolTableRecord
100
AcDbLayerTableRecord
  2
NOTE
 70
0
 62
7
  6
CONTINUOUS
370
-3
390
F
  0
LAYER
  5
20E
100
AcDbSymbolTableRecord
100
AcDbLayerTableRecord
  2
PIANI
 70
0
 62
7
  6
CONTINUOUS
370
-3
390
F
  0
LAYER
  5
20F
100
AcDbSymbolTableRecord
100
AcDbLayerTableRecord
  2
PIANI_ORIGINE
 70
0
 62
7
  6
CONTINUOUS
370
-3
390
F
  0
LAYER
  5
210
100
AcDbSymbolTableRecord
100
AcDbLayerTableRecord
  2
PIANI_RIFERIMENTO
 70
0
 62
7
  6
CONTINUOUS
370
-3
390
F
  0
LAYER
  5
211
100
AcDbSymbolTableRecord
100
AcDbLayerTableRecord
  2
PUNTI
 70
0
 62
7
  6
CONTINUOUS
370
-3
390
F
  0
LAYER
  5
212
100
AcDbSymbolTableRecord
100
AcDbLayerTableRecord
  2
RACCORDO
 70
0
 62
7
  6
CONTINUOUS
370
-3
390
F
  0
LAYER
  5
213
100
AcDbSymbolTableRecord
100
AcDbLayerTableRecord
  2
RGB__255__255__255__
 70
0
 62
7
  6
CONTINUOUS
370
-3
390
F
  0
LAYER
  5
214
100
AcDbSymbolTableRecord
100
AcDbLayerTableRecord
  2
RGB____0____0____0__
 70
0
 62
7
  6
CONTINUOUS
370
-3
390
F
  0
LAYER
  5
215
100
AcDbSymbolTableRecord
100
AcDbLayerTableRecord
  2
SIMBOLI
 70
0
 62
7
  6
CONTINUOUS
370
-3
390
F
  0
LAYER
  5
216
100
AcDbSymbolTableRecord
100
AcDbLayerTableRecord
  2
SMUSSO
 70
0
 62
7
  6
CONTINUOUS
370
-3
390
F
  0
LAYER
  5
217
100
AcDbSymbolTableRecord
100
AcDbLayerTableRecord
  2
SNAPLINE
 70
0
 62
7
  6
CONTINUOUS
370
-3
390
F
  0
LAYER
  5
218
100
AcDbSymbolTableRecord
100
AcDbLayerTableRecord
  2
SUPERFICI
 70
0
 62
7
  6
CONTINUOUS
370
-3
390
F
  0
LAYER
  5
219
100
AcDbSymbolTableRecord
100
AcDbLayerTableRecord
  2
TRASH
 70
0
 62
7
  6
CONTINUOUS
370
-3
390
F
  0
LAYER
  5
21A
100
AcDbSymbolTableRecord
100
AcDbLayerTableRecord
  2
XSEC_DATUMS
 70
0
 62
7
  6
CONTINUOUS
370
-3
390
F
  0
ENDTAB
  0
TABLE
  2
STYLE
  5
3
100
AcDbSymbolTable
 70
1
  0
STYLE
  5
11
100
AcDbSymbolTableRecord
100
AcDbTextStyleTableRecord
  2
STANDARD
 70
0
 40
0.0
 41
0.8
 50
0.0
 71
0
 42
0.2
  3
txt
  4

  0
STYLE
  5
21B
100
AcDbSymbolTableRecord
100
AcDbTextStyleTableRecord
  2
TEXTSTYLE_1
 70
0
 40
0.0
 41
0.8
 50
0.0
 71
0
 42
0.2
  3
gdt
  4

  0
ENDTAB
  0
TABLE
  2
VIEW
  5
6
100
AcDbSymbolTable
 70
0
  0
ENDTAB
  0
TABLE
  2
UCS
  5
7
100
AcDbSymbolTable
 70
0
  0
ENDTAB
  0
TABLE
  2
APPID
  5
9
100
AcDbSymbolTable
 70
1
  0
APPID
  5
21C
100
AcDbSymbolTableRecord
100
AcDbRegAppTableRecord
  2
ACAD
 70
0
  0
ENDTAB
  0
TABLE
  2
BLOCK_RECORD
  5
1
100
AcDbSymbolTable
 70
0
  0
BLOCK_RECORD
  5
21D
100
AcDbSymbolTableRecord
100
AcDbBlockTableRecord
  2
*Model_Space
  0
BLOCK_RECORD
  5
21E
100
AcDbSymbolTableRecord
100
AcDbBlockTableRecord
  2
*Paper_Space
  0
BLOCK_RECORD
  5
21F
100
AcDbSymbolTableRecord
100
AcDbBlockTableRecord
  2
_FILLED
  0
BLOCK_RECORD
  5
220
100
AcDbSymbolTableRecord
100
AcDbBlockTableRecord
  2
*D0
  0
BLOCK_RECORD
  5
221
100
AcDbSymbolTableRecord
100
AcDbBlockTableRecord
  2
*D1
  0
BLOCK_RECORD
  5
222
100
AcDbSymbolTableRecord
100
AcDbBlockTableRecord
  2
*D2
  0
ENDTAB
  0
TABLE
  2
DIMSTYLE
  5
A
100
AcDbSymbolTable
 70
1
100
AcDbDimStyleTable
 71
0
  0
DIMSTYLE
105
223
100
AcDbSymbolTableRecord
100
AcDbDimStyleTableRecord
  2
STANDARD
 70
0
  3

  4

 40
1.0
 41
3.0
 42
0.5
 43
0.38
 44
1.5
 45
0.0
 46
0.0
 47
0.01
 48
0.01
140
3.0
141
0.09
142
0.0
143
25.4
144
1.0
145
0.0
146
1.0
147
0.625
 71
1.0
 72
0.0
 73
0
 74
0
 75
0
 76
0
 77
1
 78
8
 79
2
170
0
171
1
172
0
173
0
174
0
175
0
176
0
177
0
178
0
270
2
179
2
271
2
272
2
273
2
274
2
275
0
280
0
281
0
282
0
283
1
284
8
285
0
286
0
287
3
288
0
340
11
278
44
341
21F
342
21F
343
21F
344
21F
  0
DIMSTYLE
105
224
100
AcDbSymbolTableRecord
100
AcDbDimStyleTableRecord
  2
DIMSTYLE_1
 70
0
  3

  4

 40
1.0
 41
3.0
 42
0.5
 43
0.38
 44
1.5
 45
0.0
 46
0.0
 47
0.0
 48
0.0
140
3.0
141
0.09
142
0.0
143
25.4
144
1.0
145
0.0
146
1.0
147
0.75
 71
0.0
 72
0.0
 73
0
 74
0
 75
0
 76
0
 77
1
 78
8
 79
2
170
0
171
1
172
0
173
0
174
0
175
0
176
0
177
0
178
0
270
2
179
2
271
2
272
2
273
2
274
2
275
0
280
0
281
0
282
0
283
1
284
8
285
0
286
0
287
3
288
0
340
11
278
44
341
21F
342
21F
343
21F
344
21F
  0
ENDTAB
  0
ENDSEC
  0
SECTION
  2
BLOCKS
  0
BLOCK
  5
20
100
AcDbEntity
  8
0
100
AcDbBlockBegin
  2
*Model_Space
 70
0
 10
0.0
 20
0.0
 30
0.0
  3
*Model_Space
  1

  0
ENDBLK
  5
21
100
AcDbEntity
  8
0
100
AcDbBlockEnd
  0
BLOCK
  5
1C
100
AcDbEntity
  8
0
100
AcDbBlockBegin
  2
*Paper_Space
 70
0
 10
0.0
 20
0.0
 30
0.0
  3
*Paper_Space
  1

  0
ENDBLK
  5
1D
100
AcDbEntity
  8
0
100
AcDbBlockEnd
  0
BLOCK
  5
225
100
AcDbEntity
  8
0
100
AcDbBlockBegin
  2
_FILLED
 70
64
 10
0.0
 20
0.0
  3
_FILLED
  1

  0
SOLID
  5
226
100
AcDbEntity
  8
0
  6
BYBLOCK
 62
0
100
AcDbTrace
 10
0.0
 20
0.0
 11
-1.0
 21
0.3166666667
 12
-1.0
 22
-0.3166666667
 13
-1.0
 23
-0.3166666667
  0
ENDBLK
  5
227
100
AcDbEntity
  8
0
  6
BYBLOCK
 62
0
100
AcDbBlockEnd
  0
BLOCK
  5
228
100
AcDbEntity
  8
0
100
AcDbBlockBegin
 62
7
  6
CONTINUOUS
  2
*D0
 70
65
 10
0.0
 20
0.0
  3
*D0
  1

  0
LINE
  5
229
100
AcDbEntity
  8
0
100
AcDbLine
 62
7
  6
CONTINUOUS
 10
57.8611534119
 20
175.6366730125
 11
57.8611534119
 21
188.9858329638
  0
LINE
  5
22A
100
AcDbEntity
  8
0
100
AcDbLine
 62
7
  6
CONTINUOUS
 10
49.2611534119
 20
176.9858329639
 11
49.2611534119
 21
188.9858329638
  0
LINE
  5
22B
100
AcDbEntity
  8
0
100
AcDbLine
 62
7
  6
CONTINUOUS
 10
57.8611534119
 20
187.4858329638
 11
53.5611534119
 21
187.4858329638
  0
LINE
  5
22C
100
AcDbEntity
  8
0
100
AcDbLine
 62
7
  6
CONTINUOUS
 10
53.5611534119
 20
187.4858329638
 11
66.6225373404
 21
187.4858329638
  0
LINE
  5
22D
100
AcDbEntity
  8
0
100
AcDbLine
 62
7
  6
CONTINUOUS
 10
49.2611534119
 20
187.4858329638
 11
53.5611534119
 21
187.4858329638
  0
INSERT
  5
22E
100
AcDbEntity
  8
0
100
AcDbBlockReference
 62
7
  6
CONTINUOUS
  2
_FILLED
 10
57.8611534119
 20
187.4858329638
 41
3.0
 42
3.0
 43
3.0
  0
INSERT
  5
22F
100
AcDbEntity
  8
0
100
AcDbBlockReference
 62
7
  6
CONTINUOUS
  2
_FILLED
 10
49.2611534119
 20
187.4858329638
 41
3.0
 42
3.0
 43
3.0
 50
180.0
  0
ENDBLK
  5
230
100
AcDbEntity
  8
0
  6
BYBLOCK
 62
0
100
AcDbBlockEnd
  0
BLOCK
  5
231
100
AcDbEntity
  8
0
100
AcDbBlockBegin
 62
7
  6
CONTINUOUS
  2
*D1
 70
65
 10
0.0
 20
0.0
  3
*D1
  1

  0
LINE
  5
232
100
AcDbEntity
  8
0
100
AcDbLine
 62
7
  6
CONTINUOUS
 10
91.8265632794
 20
176.9858329639
 11
91.8265632794
 21
188.9858329638
  0
LINE
  5
233
100
AcDbEntity
  8
0
100
AcDbLine
 62
7
  6
CONTINUOUS
 10
247.9265632794
 20
176.9858329639
 11
247.9265632794
 21
188.9858329638
  0
LINE
  5
234
100
AcDbEntity
  8
0
100
AcDbLine
 62
7
  6
CONTINUOUS
 10
91.8265632794
 20
187.4858329638
 11
169.8765632794
 21
187.4858329638
  0
LINE
  5
235
100
AcDbEntity
  8
0
100
AcDbLine
 62
7
  6
CONTINUOUS
 10
247.9265632794
 20
187.4858329638
 11
169.8765632794
 21
187.4858329638
  0
INSERT
  5
236
100
AcDbEntity
  8
0
100
AcDbBlockReference
 62
7
  6
CONTINUOUS
  2
_FILLED
 10
91.8265632794
 20
187.4858329638
 41
3.0
 42
3.0
 43
3.0
 50
180.0
  0
INSERT
  5
237
100
AcDbEntity
  8
0
100
AcDbBlockReference
 62
7
  6
CONTINUOUS
  2
_FILLED
 10
247.9265632794
 20
187.4858329638
 41
3.0
 42
3.0
 43
3.0
  0
ENDBLK
  5
238
100
AcDbEntity
  8
0
  6
BYBLOCK
 62
0
100
AcDbBlockEnd
  0
BLOCK
  5
239
100
AcDbEntity
  8
0
100
AcDbBlockBegin
 62
7
  6
CONTINUOUS
  2
*D2
 70
65
 10
0.0
 20
0.0
  3
*D2
  1

  0
LINE
  5
23A
100
AcDbEntity
  8
0
100
AcDbLine
 62
7
  6
CONTINUOUS
 10
247.4265632794
 20
177.4858329639
 11
260.0765632794
 21
177.4858329639
  0
LINE
  5
23B
100
AcDbEntity
  8
0
100
AcDbLine
 62
7
  6
CONTINUOUS
 10
247.4265632794
 20
21.3858329639
 11
260.0765632794
 21
21.3858329639
  0
LINE
  5
23C
100
AcDbEntity
  8
0
100
AcDbLine
 62
7
  6
CONTINUOUS
 10
258.5765632794
 20
177.4858329639
 11
258.5765632794
 21
99.4358329639
  0
LINE
  5
23D
100
AcDbEntity
  8
0
100
AcDbLine
 62
7
  6
CONTINUOUS
 10
258.5765632794
 20
21.3858329639
 11
258.5765632794
 21
99.4358329639
  0
INSERT
  5
23E
100
AcDbEntity
  8
0
100
AcDbBlockReference
 62
7
  6
CONTINUOUS
  2
_FILLED
 10
258.5765632794
 20
177.4858329639
 41
3.0
 42
3.0
 43
3.0
 50
90.0
  0
INSERT
  5
23F
100
AcDbEntity
  8
0
100
AcDbBlockReference
 62
7
  6
CONTINUOUS
  2
_FILLED
 10
258.5765632794
 20
21.3858329639
 41
3.0
 42
3.0
 43
3.0
 50
270.0
  0
ENDBLK
  5
240
100
AcDbEntity
  8
0
  6
BYBLOCK
 62
0
100
AcDbBlockEnd
  0
ENDSEC
  0
SECTION
  2
ENTITIES
  0
DIMENSION
  5
241
100
AcDbEntity
  8
0
100
AcDbDimension
 62
7
  6
CONTINUOUS
  2
*D0
 10
49.2611534119
 20
187.4858329638
 11
60.1939659119
 21
187.4858329638
 70
160
 71
1
 72
2
 41
0.9
 42
8.6
  3
DIMSTYLE_1
100
AcDbAlignedDimension
 13
57.8611534119
 23
175.1366730125
 14
49.2611534119
 24
176.4858329639
 50
180.0
100
AcDbRotatedDimension
  0
DIMENSION
  5
242
100
AcDbEntity
  8
0
100
AcDbDimension
 62
7
  6
CONTINUOUS
  2
*D1
 10
247.9265632794
 20
187.4858329638
 11
165.055134708
 21
187.4858329638
 70
160
 71
2
 72
2
 41
0.9
 42
156.1
  3
DIMSTYLE_1
100
AcDbAlignedDimension
 13
91.8265632794
 23
176.4858329639
 14
247.9265632794
 24
176.4858329639
100
AcDbRotatedDimension
  0
DIMENSION
  5
243
100
AcDbEntity
  8
0
100
AcDbDimension
 62
7
  6
CONTINUOUS
  2
*D2
 10
258.5765632794
 20
21.3858329639
 11
258.5765632794
 21
94.6144043925
 70
160
 71
2
 72
2
 41
0.9
 42
156.1
  3
DIMSTYLE_1
100
AcDbAlignedDimension
 13
246.9265632794
 23
177.4858329639
 14
246.9265632794
 24
21.3858329639
 50
270.0
100
AcDbRotatedDimension
  0
LINE
  5
244
100
AcDbEntity
  8
SMUSSO
100
AcDbLine
 62
7
  6
CONTINUOUS
 10
91.8265632794
 20
176.4858329639
 11
91.8265632794
 21
22.3858329639
  0
LINE
  5
245
100
AcDbEntity
  8
SMUSSO
100
AcDbLine
 62
7
  6
CONTINUOUS
 10
92.8265632794
 20
176.4858329639
 11
92.8265632794
 21
22.3858329639
  0
LINE
  5
246
100
AcDbEntity
  8
SMUSSO
100
AcDbLine
 62
250
  6
CONTINUOUS
 10
92.8265632794
 20
22.3858329639
 11
92.8265632794
 21
21.3858329639
  0
LINE
  5
247
100
AcDbEntity
  8
SMUSSO
100
AcDbLine
 62
250
  6
CONTINUOUS
 10
92.8265632794
 20
176.4858329639
 11
92.8265632794
 21
177.4858329639
  0
LINE
  5
248
100
AcDbEntity
  8
SMUSSO
100
AcDbLine
 62
7
  6
CONTINUOUS
 10
92.8265632794
 20
21.3858329639
 11
246.9265632794
 21
21.3858329639
  0
LINE
  5
249
100
AcDbEntity
  8
SMUSSO
100
AcDbLine
 62
250
  6
CONTINUOUS
 10
92.8265632794
 20
22.3858329639
 11
91.8265632794
 21
22.3858329639
  0
LINE
  5
24A
100
AcDbEntity
  8
SMUSSO
100
AcDbLine
 62
7
  6
CONTINUOUS
 10
92.8265632794
 20
22.3858329639
 11
246.9265632794
 21
22.3858329639
  0
LINE
  5
24B
100
AcDbEntity
  8
SMUSSO
100
AcDbLine
 62
250
  6
CONTINUOUS
 10
246.9265632794
 20
22.3858329639
 11
247.9265632794
 21
22.3858329639
  0
LWPOLYLINE
  5
24C
100
AcDbEntity
  8
0
100
AcDbPolyline
 62
7
  6
CONTINUOUS
 90
3
 70
0
 43
0.3500000006
 10
165.0551396484
 20
190.3786900635
 10
165.9122775879
 20
191.2358280029
 10
165.9122775879
 20
188.2358270874
  0
LWPOLYLINE
  5
24D
100
AcDbEntity
  8
0
100
AcDbPolyline
 62
7
  6
CONTINUOUS
 90
10
 70
0
 43
0.3500000006
 10
169.9837009277
 20
191.2358280029
 10
169.3408474731
 20
190.5929745483
 10
168.9122785034
 20
189.7358366089
 10
168.9122785034
 20
188.6643960571
 10
169.3408474731
 20
188.2358270874
 10
169.9837009277
 20
188.2358270874
 10
170.4122698975
 20
188.6643960571
 10
170.4122698975
 20
189.521552124
 10
169.9837009277
 20
189.9501210938
 10
169.0551408691
 20
189.9501210938
  0
LWPOLYLINE
  5
24E
100
AcDbEntity
  8
0
100
AcDbPolyline
 62
7
  6
CONTINUOUS
 90
3
 70
0
 43
0.3500000006
 10
172.9837018433
 20
190.3786900635
 10
173.8408579102
 20
191.2358280029
 10
173.8408579102
 20
188.2358270874
  0
LINE
  5
24F
100
AcDbEntity
  8
RACCORDO
100
AcDbLine
 62
7
  6
CONTINUOUS
 10
125.9765632794
 20
41.3358329639
 11
213.7765632794
 21
41.3358329639
  0
LINE
  5
250
100
AcDbEntity
  8
RACCORDO
100
AcDbLine
 62
7
  6
CONTINUOUS
 10
124.7765632794
 20
156.3358329639
 11
124.7765632794
 21
42.5358329639
  0
LWPOLYLINE
  5
251
100
AcDbEntity
  8
0
100
AcDbPolyline
 62
7
  6
CONTINUOUS
 90
3
 70
0
 43
0.3500000006
 10
171.9837015381
 20
188.5215518188
 10
171.9122794189
 20
188.307267334
 10
171.7694170532
 20
188.0215426025
  0
LWPOLYLINE
  5
252
100
AcDbEntity
  8
0
100
AcDbPolyline
 62
7
  6
CONTINUOUS
 90
3
 70
0
 43
0.3500000006
 10
257.5408562622
 20
101.5429790955
 10
257.7551407471
 20
101.4715479126
 10
258.0408473511
 20
101.3286946106
  0
LWPOLYLINE
  5
253
100
AcDbEntity
  8
0
100
AcDbPolyline
 62
7
  6
CONTINUOUS
 90
10
 70
0
 43
0.3500000006
 10
257.3265717773
 20
101.4715479126
 10
257.4694160156
 20
101.5429790955
 10
257.5408562622
 20
101.5429790955
 10
257.6837005005
 20
101.4001167297
 10
257.6837005005
 20
101.3286946106
 10
257.6122783813
 20
101.2572634277
 10
257.5408562622
 20
101.2572634277
 10
257.3979938965
 20
101.3286946106
 10
257.3265717773
 20
101.4001167297
 10
257.3265717773
 20
101.4715479126
  0
LINE
  5
254
100
AcDbEntity
  8
RACCORDO
100
AcDbLine
 62
7
  6
CONTINUOUS
 10
214.9765632794
 20
42.5358329639
 11
214.9765632794
 21
156.3358329639
  0
LWPOLYLINE
  5
255
100
AcDbEntity
  8
0
100
AcDbPolyline
 62
7
  6
CONTINUOUS
 90
10
 70
0
 43
0.3500000006
 10
171.9122794189
 20
188.7358363037
 10
171.9837015381
 20
188.592973938
 10
171.9837015381
 20
188.5215518188
 10
171.8408572998
 20
188.3786894531
 10
171.7694170532
 20
188.3786894531
 10
171.6979949341
 20
188.4501115723
 10
171.6979949341
 20
188.5215518188
 10
171.7694170532
 20
188.6643960571
 10
171.8408572998
 20
188.7358363037
 10
171.9122794189
 20
188.7358363037
  0
LINE
  5
256
100
AcDbEntity
  8
RACCORDO
100
AcDbLine
 62
7
  6
CONTINUOUS
 10
213.7765632794
 20
157.5358329639
 11
125.9765632794
 21
157.5358329639
  0
LWPOLYLINE
  5
257
100
AcDbEntity
  8
0
100
AcDbPolyline
 62
7
  6
CONTINUOUS
 90
3
 70
0
 43
0.3500000006
 10
255.6836998901
 20
94.6144081421
 10
254.8265619507
 20
95.4715460815
 10
257.8265628662
 20
95.4715460815
  0
LWPOLYLINE
  5
258
100
AcDbEntity
  8
0
100
AcDbPolyline
 62
7
  6
CONTINUOUS
 90
10
 70
0
 43
0.3500000006
 10
254.8265619507
 20
99.5429784851
 10
255.4694154053
 20
98.9001159668
 10
256.3265714722
 20
98.4715469971
 10
257.3979938965
 20
98.4715469971
 10
257.8265628662
 20
98.9001159668
 10
257.8265628662
 20
99.5429784851
 10
257.3979938965
 20
99.9715474548
 10
256.540855957
 20
99.9715474548
 10
256.1122688599
 20
99.5429784851
 10
256.1122688599
 20
98.6144002991
  0
LWPOLYLINE
  5
259
100
AcDbEntity
  8
0
100
AcDbPolyline
 62
7
  6
CONTINUOUS
 90
3
 70
0
 43
0.3500000006
 10
255.6836998901
 20
102.5429794006
 10
254.8265619507
 20
103.4001173401
 10
257.8265628662
 20
103.4001173401
  0
LINE
  5
25A
100
AcDbEntity
  8
SMUSSO
100
AcDbLine
 62
250
  6
CONTINUOUS
 10
246.9265632794
 20
22.3858329639
 11
246.9265632794
 21
21.3858329639
  0
LINE
  5
25B
100
AcDbEntity
  8
SMUSSO
100
AcDbLine
 62
7
  6
CONTINUOUS
 10
246.9265632794
 20
22.3858329639
 11
246.9265632794
 21
176.4858329639
  0
LINE
  5
25C
100
AcDbEntity
  8
SMUSSO
100
AcDbLine
 62
250
  6
CONTINUOUS
 10
246.9265632794
 20
176.4858329639
 11
246.9265632794
 21
177.4858329639
  0
LINE
  5
25D
100
AcDbEntity
  8
SMUSSO
100
AcDbLine
 62
7
  6
CONTINUOUS
 10
247.9265632794
 20
22.3858329639
 11
247.9265632794
 21
176.4858329639
  0
LINE
  5
25E
100
AcDbEntity
  8
SMUSSO
100
AcDbLine
 62
7
  6
CONTINUOUS
 10
246.9265632794
 20
176.4858329639
 11
92.8265632794
 21
176.4858329639
  0
LINE
  5
25F
100
AcDbEntity
  8
SMUSSO
100
AcDbLine
 62
250
  6
CONTINUOUS
 10
92.8265632794
 20
176.4858329639
 11
91.8265632794
 21
176.4858329639
  0
LINE
  5
260
100
AcDbEntity
  8
SMUSSO
100
AcDbLine
 62
250
  6
CONTINUOUS
 10
246.9265632794
 20
176.4858329639
 11
247.9265632794
 21
176.4858329639
  0
LINE
  5
261
100
AcDbEntity
  8
SMUSSO
100
AcDbLine
 62
7
  6
CONTINUOUS
 10
246.9265632794
 20
177.4858329639
 11
92.8265632794
 21
177.4858329639
  0
LWPOLYLINE
  5
262
100
AcDbEntity
  8
0
100
AcDbPolyline
 62
7
  6
CONTINUOUS
 90
8
 70
0
 43
0.3500000006
 10
257.8265628662
 20
96.3286930847
 10
257.8265628662
 20
97.1858310242
 10
257.3979938965
 20
97.6143999939
 10
256.540855957
 20
97.6143999939
 10
256.1122688599
 20
97.1858310242
 10
256.1122688599
 20
96.3286930847
 10
254.8265619507
 20
96.3286930847
 10
254.8265619507
 20
97.6143999939
  0
LWPOLYLINE
  5
263
100
AcDbEntity
  8
0
100
AcDbPolyline
 62
7
  6
CONTINUOUS
 90
8
 70
0
 43
0.3500000006
 10
166.7694155273
 20
188.2358270874
 10
167.6265715942
 20
188.2358270874
 10
168.055140564
 20
188.6643960571
 10
168.055140564
 20
189.521552124
 10
167.6265715942
 20
189.9501210938
 10
166.7694155273
 20
189.9501210938
 10
166.7694155273
 20
191.2358280029
 10
168.055140564
 20
191.2358280029
  0
LINE
  5
264
100
AcDbEntity
  8
SMUSSO
100
AcDbLine
 62
7
  6
CONTINUOUS
 10
50.2611534119
 20
21.3858329639
 11
51.7611534119
 21
21.3858329639
  0
LINE
  5
265
100
AcDbEntity
  8
0
100
AcDbLine
 62
250
  6
CONTINUOUS
 10
55.3611534119
 20
23.1684906552
 11
57.8611534119
 21
23.7349929154
  0
LINE
  5
266
100
AcDbEntity
  8
ASSI
100
AcDbLine
 62
250
  6
CONTINUOUS
 10
55.3611534119
 20
23.1684906552
 11
57.8611534119
 21
23.7349929154
  0
LINE
  5
267
100
AcDbEntity
  8
0
100
AcDbLine
 62
7
  6
CONTINUOUS
 10
55.3611534119
 20
22.0858329639
 11
55.3610223121
 21
22.0858306756
  0
LINE
  5
268
100
AcDbEntity
  8
0
100
AcDbLine
 62
7
  6
CONTINUOUS
 10
52.4111534119
 20
22.0343405224
 11
55.3560374484
 21
22.0857436645
  0
LINE
  5
269
100
AcDbEntity
  8
ASSI
100
AcDbLine
 62
7
  6
CONTINUOUS
 10
52.4111534119
 20
22.0343405224
 11
55.3560374484
 21
22.0857436645
  0
LINE
  5
26A
100
AcDbEntity
  8
0
100
AcDbLine
 62
250
  6
CONTINUOUS
 10
52.4111534119
 20
23.0341882176
 11
55.3560374484
 21
23.0855913596
  0
LINE
  5
26B
100
AcDbEntity
  8
ASSI
100
AcDbLine
 62
250
  6
CONTINUOUS
 10
52.4111534119
 20
23.0341882176
 11
55.3560374484
 21
23.0855913596
  0
LINE
  5
26C
100
AcDbEntity
  8
SMUSSO
100
AcDbLine
 62
250
  6
CONTINUOUS
 10
49.2611534119
 20
22.3858329639
 11
52.2611534119
 21
22.3858329639
  0
LWPOLYLINE
  5
26D
100
AcDbEntity
  8
0
100
AcDbPolyline
 62
7
  6
CONTINUOUS
 90
6
 70
0
 10
55.3560374484
 20
22.0857436645
 10
55.3494845479
 20
22.0872884821
 10
55.3435778547
 20
22.0921697229
 10
55.3383139703
 20
22.1003890795
 10
55.3337291067
 20
22.1119392594
 10
55.3297807966
 20
22.1267978074
  0
LWPOLYLINE
  5
26E
100
AcDbEntity
  8
ASSI
100
AcDbPolyline
 62
7
  6
CONTINUOUS
 90
6
 70
0
 10
55.3560374484
 20
22.0857436645
 10
55.3494845479
 20
22.0872884821
 10
55.3435778547
 20
22.0921697229
 10
55.3383139703
 20
22.1003890795
 10
55.3337291067
 20
22.1119392594
 10
55.3297807966
 20
22.1267978074
  0
LINE
  5
26F
100
AcDbEntity
  8
0
100
AcDbLine
 62
250
  6
CONTINUOUS
 10
54.2875244119
 20
29.3580139639
 11
52.9798014119
 21
28.9958689639
  0
LINE
  5
270
100
AcDbEntity
  8
RACCORDO
100
AcDbLine
 62
7
  6
CONTINUOUS
 10
52.2611534119
 20
29.4358329639
 11
52.4111534119
 21
29.4358329639
  0
LINE
  5
271
100
AcDbEntity
  8
0
100
AcDbLine
 62
250
  6
CONTINUOUS
 10
54.8796474119
 20
30.2746919639
 11
52.9796874119
 21
30.2746919639
  0
LINE
  5
272
100
AcDbEntity
  8
RACCORDO
100
AcDbLine
 62
250
  6
CONTINUOUS
 10
52.2611534119
 20
30.4358329639
 11
52.4111534119
 21
30.4358329639
  0
LINE
  5
273
100
AcDbEntity
  8
0
100
AcDbLine
 62
250
  6
CONTINUOUS
 10
52.9796874119
 20
30.6712639639
 11
54.8796474119
 21
30.6712639639
  0
LINE
  5
274
100
AcDbEntity
  8
0
100
AcDbLine
 62
250
  6
CONTINUOUS
 10
54.8796474119
 20
31.2641419639
 11
53.6390834119
 21
31.3497229639
  0
LINE
  5
275
100
AcDbEntity
  8
0
100
AcDbLine
 62
250
  6
CONTINUOUS
 10
52.9798014119
 20
31.0562969639
 11
54.8796474119
 21
30.8847519639
  0
LINE
  5
276
100
AcDbEntity
  8
0
100
AcDbLine
 62
250
  6
CONTINUOUS
 10
52.9798014119
 20
29.7312219639
 11
54.2875244119
 21
29.3580139639
  0
LINE
  5
277
100
AcDbEntity
  8
0
100
AcDbLine
 62
250
  6
CONTINUOUS
 10
54.5003704119
 20
33.9155609639
 11
54.8796474119
 21
34.0182939639
  0
LINE
  5
278
100
AcDbEntity
  8
0
100
AcDbLine
 62
250
  6
CONTINUOUS
 10
53.5018304119
 20
33.6540759639
 11
54.2068874119
 21
33.8363059639
  0
LINE
  5
279
100
AcDbEntity
  8
0
100
AcDbLine
 62
250
  6
CONTINUOUS
 10
54.8796474119
 20
32.8115239639
 11
52.9798014119
 21
32.6338669639
  0
LINE
  5
27A
100
AcDbEntity
  8
0
100
AcDbLine
 62
250
  6
CONTINUOUS
 10
53.6442554119
 20
32.3420939639
 11
54.8796474119
 21
32.4235709639
  0
LWPOLYLINE
  5
27B
100
AcDbEntity
  8
0
100
AcDbPolyline
 62
250
  6
CONTINUOUS
 90
49
 70
0
 10
53.5297684664
 20
35.4692388963
 10
53.5226873683
 20
35.4690202402
 10
53.5156434125
 20
35.4685875458
 10
53.5086336344
 20
35.467942551
 10
53.5016550693
 20
35.4670869934
 10
53.4947047528
 20
35.4660226111
 10
53.4877797203
 20
35.4647511416
 10
53.4808770072
 20
35.4632743228
 10
53.473993649
 20
35.4615938926
 10
53.4671286418
 20
35.4597113192
 10
53.4602888245
 20
35.457626994
 10
53.4534829966
 20
35.4553410387
 10
53.4467199577
 20
35.4528535751
 10
53.4400085073
 20
35.450164725
 10
53.4333574449
 20
35.4472746103
 10
53.4267755702
 20
35.4441833527
 10
53.4202716826
 20
35.4408910741
 10
53.4138544408
 20
35.4373980246
 10
53.4075319391
 20
35.433704968
 10
53.4013121311
 20
35.4298127963
 10
53.3952029704
 20
35.4257224017
 10
53.3892124009
 20
35.4214340054
 10
53.3833483289
 20
35.4169451455
 10
53.3776186511
 20
35.4122526895
 10
53.3720312643
 20
35.4073535046
 10
53.3665939322
 20
35.4022463809
 10
53.3613138869
 20
35.3969377991
 10
53.3561982273
 20
35.3914361627
 10
53.3512540523
 20
35.3857498751
 10
53.3464877392
 20
35.3798875718
 10
53.341902778
 20
35.3738588164
 10
53.337501937
 20
35.3676734049
 10
53.3332879844
 20
35.3613411329
 10
53.3292633314
 20
35.3548713024
 10
53.3254289604
 20
35.3482712402
 10
53.3217854969
 20
35.341547779
 10
53.3183335661
 20
35.3347077517
 10
53.3150737935
 20
35.3277579912
 10
53.3120068043
 20
35.3207053303
 10
53.3091332239
 20
35.313556602
 10
53.3064536778
 20
35.3063186389
 10
53.303969175
 20
35.2989966934
 10
53.3016822604
 20
35.2915896942
 10
53.2995958626
 20
35.2840949897
 10
53.2977129103
 20
35.276509928
 10
53.296036332
 20
35.2688318574
 10
53.2945690565
 20
35.2610581261
 10
53.2933140124
 20
35.2531860824
 10
53.2922741282
 20
35.2452130743
  0
LINE
  5
27C
100
AcDbEntity
  8
0
100
AcDbLine
 62
250
  6
CONTINUOUS
 10
54.8796471579
 20
34.5527175667
 11
53.0019979531
 21
34.5527175667
  0
LINE
  5
27D
100
AcDbEntity
  8
0
100
AcDbLine
 62
250
  6
CONTINUOUS
 10
53.3034589886
 20
34.9345444671
 11
53.8250036761
 21
34.9345444671
  0
LINE
  5
27E
100
AcDbEntity
  8
0
100
AcDbLine
 62
250
  6
CONTINUOUS
 10
54.1361524954
 20
34.9476942088
 11
54.8796471579
 21
34.9476942088
  0
LINE
  5
27F
100
AcDbEntity
  8
0
100
AcDbLine
 62
250
  6
CONTINUOUS
 10
53.9815896043
 20
35.5722855726
 11
53.9928160361
 21
35.5722855726
  0
LINE
  5
280
100
AcDbEntity
  8
0
100
AcDbLine
 62
250
  6
CONTINUOUS
 10
54.2068874119
 20
33.4566159639
 11
53.5018304119
 21
33.6540759639
  0
LINE
  5
281
100
AcDbEntity
  8
0
100
AcDbLine
 62
250
  6
CONTINUOUS
 10
54.8796474119
 20
33.2660659639
 11
54.5003704119
 21
33.3754949639
  0
LINE
  5
282
100
AcDbEntity
  8
0
100
AcDbLine
 62
250
  6
CONTINUOUS
 10
52.9798014119
 20
33.4697089639
 11
54.8796474119
 21
32.8737959639
  0
LINE
  5
283
100
AcDbEntity
  8
0
100
AcDbLine
 62
250
  6
CONTINUOUS
 10
54.8796474119
 20
29.5168369639
 11
52.9798014119
 21
30.1275229639
  0
LINE
  5
284
100
AcDbEntity
  8
0
100
AcDbLine
 62
250
  6
CONTINUOUS
 10
52.9798014119
 20
32.2414969639
 11
54.0346014119
 21
31.8449249639
  0
LINE
  5
285
100
AcDbEntity
  8
0
100
AcDbLine
 62
250
  6
CONTINUOUS
 10
54.8796474119
 20
31.8705689639
 11
53.6442554119
 21
32.3420939639
  0
LINE
  5
286
100
AcDbEntity
  8
SMUSSO
100
AcDbLine
 62
7
  6
CONTINUOUS
 10
49.2611534119
 20
176.4858329639
 11
50.2611534119
 21
177.4858329639
  0
LWPOLYLINE
  5
287
100
AcDbEntity
  8
0
100
AcDbPolyline
 62
250
  6
CONTINUOUS
 90
3
 70
0
 10
54.6096674213
 20
35.4764629387
 10
54.5453387225
 20
35.4582037988
 10
54.4823902051
 20
35.4400982487
  0
LINE
  5
288
100
AcDbEntity
  8
0
100
AcDbLine
 62
250
  6
CONTINUOUS
 10
54.3195434764
 20
35.7884022511
 11
54.4538293766
 21
35.8246709789
  0
LINE
  5
289
100
AcDbEntity
  8
0
100
AcDbLine
 62
250
  6
CONTINUOUS
 10
54.7967315312
 20
35.9143548734
 11
54.8796471579
 21
35.9364465144
  0
LINE
  5
28A
100
AcDbEntity
  8
0
100
AcDbLine
 62
250
  6
CONTINUOUS
 10
54.4538293766
 20
35.8246709789
 11
54.6274243131
 21
35.8703016013
  0
LINE
  5
28B
100
AcDbEntity
  8
0
100
AcDbLine
 62
250
  6
CONTINUOUS
 10
54.6274243131
 20
35.8703016013
 11
54.7967315312
 21
35.9143548734
  0
LINE
  5
28C
100
AcDbEntity
  8
SMUSSO
100
AcDbLine
 62
7
  6
CONTINUOUS
 10
49.2611534119
 20
22.3858329639
 11
50.2611534119
 21
21.3858329639
  0
LWPOLYLINE
  5
28D
100
AcDbEntity
  8
0
100
AcDbPolyline
 62
7
  6
CONTINUOUS
 90
10
 70
0
 43
0.3500000006
 10
65.3368231659
 20
191.2358280029
 10
64.6939651794
 20
190.5929745483
 10
64.2653962097
 20
189.7358366089
 10
64.2653962097
 20
188.6643960571
 10
64.6939651794
 20
188.2358270874
 10
65.3368231659
 20
188.2358270874
 10
65.7653966675
 20
188.6643960571
 10
65.7653966675
 20
189.521552124
 10
65.3368231659
 20
189.9501210938
 10
64.4082495117
 20
189.9501210938
  0
LWPOLYLINE
  5
28E
100
AcDbEntity
  8
0
100
AcDbPolyline
 62
7
  6
CONTINUOUS
 90
3
 70
0
 43
0.3500000006
 10
63.2653959045
 20
188.5215518188
 10
63.1939647217
 20
188.307267334
 10
63.0511068878
 20
188.0215426025
  0
LWPOLYLINE
  5
28F
100
AcDbEntity
  8
0
100
AcDbPolyline
 62
7
  6
CONTINUOUS
 90
3
 70
0
 10
55.3297807966
 20
22.1267978074
 10
55.3263479928
 20
22.1449231316
 10
55.323414824
 20
22.1662696406
  0
LWPOLYLINE
  5
290
100
AcDbEntity
  8
ASSI
100
AcDbPolyline
 62
7
  6
CONTINUOUS
 90
3
 70
0
 10
55.3297807966
 20
22.1267978074
 10
55.3263479928
 20
22.1449231316
 10
55.323414824
 20
22.1662696406
  0
LINE
  5
291
100
AcDbEntity
  8
0
100
AcDbLine
 62
250
  6
CONTINUOUS
 10
53.0019979531
 20
34.5527175667
 11
52.9934999224
 21
34.6115654045
  0
LWPOLYLINE
  5
292
100
AcDbEntity
  8
0
100
AcDbPolyline
 62
7
  6
CONTINUOUS
 90
21
 70
0
 10
55.323414824
 20
22.1662696406
 10
55.3209923652
 20
22.1907775087
 10
55.3190005659
 20
22.2183576804
 10
55.3174250791
 20
22.2489286482
 10
55.3162772579
 20
22.2823895596
 10
55.3155164198
 20
22.3185917959
 10
55.315128878
 20
22.3573888922
 10
55.3151276581
 20
22.3986649895
 10
55.3155127277
 20
22.4422985577
 10
55.3162710959
 20
22.4881669399
 10
55.3174164054
 20
22.5360928225
 10
55.3189891643
 20
22.585857977
 10
55.320977806
 20
22.6372765603
 10
55.3233969094
 20
22.6901801784
 10
55.3263269943
 20
22.7443608826
 10
55.329755787
 20
22.7996195888
 10
55.3337003189
 20
22.8557757535
 10
55.3382855181
 20
22.912643849
 10
55.3435550325
 20
22.9700328294
 10
55.3494712389
 20
23.0277465539
 10
55.3576115414
 20
23.0997340359
  0
LWPOLYLINE
  5
293
100
AcDbEntity
  8
ASSI
100
AcDbPolyline
 62
7
  6
CONTINUOUS
 90
21
 70
0
 10
55.323414824
 20
22.1662696406
 10
55.3209923652
 20
22.1907775087
 10
55.3190005659
 20
22.2183576804
 10
55.3174250791
 20
22.2489286482
 10
55.3162772579
 20
22.2823895596
 10
55.3155164198
 20
22.3185917959
 10
55.315128878
 20
22.3573888922
 10
55.3151276581
 20
22.3986649895
 10
55.3155127277
 20
22.4422985577
 10
55.3162710959
 20
22.4881669399
 10
55.3174164054
 20
22.5360928225
 10
55.3189891643
 20
22.585857977
 10
55.320977806
 20
22.6372765603
 10
55.3233969094
 20
22.6901801784
 10
55.3263269943
 20
22.7443608826
 10
55.329755787
 20
22.7996195888
 10
55.3337003189
 20
22.8557757535
 10
55.3382855181
 20
22.912643849
 10
55.3435550325
 20
22.9700328294
 10
55.3494712389
 20
23.0277465539
 10
55.3576115414
 20
23.0997340359
  0
LWPOLYLINE
  5
294
100
AcDbEntity
  8
0
100
AcDbPolyline
 62
7
  6
CONTINUOUS
 90
8
 70
0
 10
55.3233945152
 20
176.7052237842
 10
55.3263242994
 20
176.72659486
 10
55.3297530899
 20
176.7447462482
 10
55.3336978134
 20
176.7596326875
 10
55.3382833773
 20
176.7712146899
 10
55.3435534282
 20
176.7794649823
 10
55.3494703479
 20
176.7843688411
 10
55.3560374484
 20
176.7859222634
  0
LWPOLYLINE
  5
295
100
AcDbEntity
  8
ASSI
100
AcDbPolyline
 62
7
  6
CONTINUOUS
 90
8
 70
0
 10
55.3233945152
 20
176.7052237842
 10
55.3263242994
 20
176.72659486
 10
55.3297530899
 20
176.7447462482
 10
55.3336978134
 20
176.7596326875
 10
55.3382833773
 20
176.7712146899
 10
55.3435534282
 20
176.7794649823
 10
55.3494703479
 20
176.7843688411
 10
55.3560374484
 20
176.7859222634
  0
LWPOLYLINE
  5
296
100
AcDbEntity
  8
0
100
AcDbPolyline
 62
250
  6
CONTINUOUS
 90
33
 70
0
 10
52.9934999224
 20
34.6115654045
 10
52.985665716
 20
34.6685253888
 10
52.9820329982
 20
34.6962702986
 10
52.9786067063
 20
34.723519015
 10
52.9753906614
 20
34.7503023558
 10
52.9723866129
 20
34.7766594736
 10
52.96959631
 20
34.8026295209
 10
52.9670215023
 20
34.8282516501
 10
52.9641094038
 20
34.8598438779
 10
52.9615444042
 20
34.8909952069
 10
52.9593341582
 20
34.9217471845
 10
52.9574863202
 20
34.952141358
 10
52.9560094202
 20
34.9822217329
 10
52.954915489
 20
35.0120421458
 10
52.9542174327
 20
35.0416588915
 10
52.9539281576
 20
35.0711282647
 10
52.9540619543
 20
35.1004990686
 10
52.9546386516
 20
35.129790141
 10
52.9556794629
 20
35.1590128282
 10
52.9572056015
 20
35.1881784766
 10
52.959238659
 20
35.2172949731
 10
52.9618017395
 20
35.2463563672
 10
52.9649183252
 20
35.2753532489
 10
52.9686118985
 20
35.3042762082
 10
52.9729046055
 20
35.3331153692
 10
52.9778132471
 20
35.3618589923
 10
52.9833532881
 20
35.3904948717
 10
52.9895401934
 20
35.4190108017
 10
52.9949733293
 20
35.4417271121
 10
53.0008831356
 20
35.4643413866
 10
53.0073223924
 20
35.4868361683
 10
53.0143438796
 20
35.5091940005
 10
53.0220003772
 20
35.5313974265
  0
LWPOLYLINE
  5
297
100
AcDbEntity
  8
0
100
AcDbPolyline
 62
250
  6
CONTINUOUS
 90
56
 70
0
 10
53.8250036761
 20
35.1611816198
 10
53.8246326091
 20
35.1728553348
 10
53.8240495168
 20
35.1842893327
 10
53.8232594378
 20
35.195477829
 10
53.8222674103
 20
35.2064150392
 10
53.8210784727
 20
35.2170951788
 10
53.8196976634
 20
35.2275124634
 10
53.8181300207
 20
35.2376611084
 10
53.8163788153
 20
35.2475392239
 10
53.8144402466
 20
35.2571604979
 10
53.8123087463
 20
35.266542513
 10
53.809978746
 20
35.2757028518
 10
53.8074446775
 20
35.2846590968
 10
53.8047009724
 20
35.2934288306
 10
53.8017420624
 20
35.3020296359
 10
53.7989721528
 20
35.3094272542
 10
53.7960297799
 20
35.3167007714
 10
53.7929115096
 20
35.3238419607
 10
53.789613908
 20
35.3308425953
 10
53.7861312439
 20
35.3376974621
 10
53.7824485964
 20
35.3444134019
 10
53.7785487475
 20
35.3510002694
 10
53.774414479
 20
35.3574679191
 10
53.7700315194
 20
35.3638212402
 10
53.7653973835
 20
35.3700452602
 10
53.7605125326
 20
35.376120041
 10
53.7553774282
 20
35.3820256448
 10
53.7499937228
 20
35.3877458734
 10
53.7443678336
 20
35.3932794874
 10
53.7385073689
 20
35.398628987
 10
53.732419937
 20
35.4037968727
 10
53.7261124759
 20
35.4087851558
 10
53.7195892428
 20
35.4135938921
 10
53.7128538244
 20
35.4182226487
 10
53.7059098075
 20
35.4226709923
 10
53.6987616049
 20
35.4269381549
 10
53.6914169325
 20
35.4310220276
 10
53.6838843324
 20
35.4349201668
 10
53.6761723463
 20
35.4386301286
 10
53.6682881632
 20
35.44214944
 10
53.6602335594
 20
35.4454755114
 10
53.6520089584
 20
35.4486057243
 10
53.6436147835
 20
35.4515374599
 10
53.6350514581
 20
35.4542680995
 10
53.6263194055
 20
35.4567950244
 10
53.6174190491
 20
35.459115616
 10
53.6083508123
 20
35.4612272555
 10
53.6001495032
 20
35.4629253015
 10
53.5918158212
 20
35.4644457409
 10
53.583349705
 20
35.4657781338
 10
53.5747510936
 20
35.4669120408
 10
53.5660199258
 20
35.467837022
 10
53.5571561403
 20
35.4685426379
 10
53.548159676
 20
35.4690184486
 10
53.5390304718
 20
35.4692540147
 10
53.5297684663
 20
35.4692388963
  0
LINE
  5
298
100
AcDbEntity
  8
SMUSSO
100
AcDbLine
 62
7
  6
CONTINUOUS
 10
49.2611534119
 20
22.3858329639
 11
49.2611534119
 21
176.4858329639
  0
LINE
  5
299
100
AcDbEntity
  8
SMUSSO
100
AcDbLine
 62
7
  6
CONTINUOUS
 10
50.2611534119
 20
21.3858329639
 11
50.2611534119
 21
177.4858329639
  0
LINE
  5
29A
100
AcDbEntity
  8
SMUSSO
100
AcDbLine
 62
7
  6
CONTINUOUS
 10
51.7611534119
 20
177.4858329639
 11
51.7611534119
 21
21.3858329639
  0
LINE
  5
29B
100
AcDbEntity
  8
SMUSSO
100
AcDbLine
 62
7
  6
CONTINUOUS
 10
52.2611534119
 20
176.9858329639
 11
52.2611534119
 21
21.8858329639
  0
LINE
  5
29C
100
AcDbEntity
  8
ASSI
100
AcDbLine
 62
7
  6
CONTINUOUS
 10
52.3611534119
 20
169.4358329639
 11
52.3611534119
 21
171.5858329639
  0
LINE
  5
29D
100
AcDbEntity
  8
0
100
AcDbLine
 62
7
  6
CONTINUOUS
 10
52.4111534119
 20
22.0343405224
 11
52.4111534119
 21
176.8373254055
  0
LINE
  5
29E
100
AcDbEntity
  8
ASSI
100
AcDbLine
 62
7
  6
CONTINUOUS
 10
52.4111534119
 20
22.0343405224
 11
52.4111534119
 21
176.8373254055
  0
LINE
  5
29F
100
AcDbEntity
  8
0
100
AcDbLine
 62
250
  6
CONTINUOUS
 10
52.9796874119
 20
30.2746919639
 11
52.9796874119
 21
30.6712639639
  0
LINE
  5
2A0
100
AcDbEntity
  8
0
100
AcDbLine
 62
250
  6
CONTINUOUS
 10
52.9798014119
 20
33.8533449639
 11
52.9798014119
 21
33.4697089639
  0
LINE
  5
2A1
100
AcDbEntity
  8
0
100
AcDbLine
 62
250
  6
CONTINUOUS
 10
52.9798014119
 20
32.6338669639
 11
52.9798014119
 21
32.2414969639
  0
LINE
  5
2A2
100
AcDbEntity
  8
0
100
AcDbLine
 62
250
  6
CONTINUOUS
 10
52.9798014119
 20
31.4525409639
 11
52.9798014119
 21
31.0562969639
  0
LINE
  5
2A3
100
AcDbEntity
  8
0
100
AcDbLine
 62
250
  6
CONTINUOUS
 10
52.9798014119
 20
30.1275229639
 11
52.9798014119
 21
29.7312219639
  0
LINE
  5
2A4
100
AcDbEntity
  8
0
100
AcDbLine
 62
250
  6
CONTINUOUS
 10
52.9798014119
 20
28.9958689639
 11
52.9798014119
 21
28.5650689639
  0
LINE
  5
2A5
100
AcDbEntity
  8
0
100
AcDbLine
 62
250
  6
CONTINUOUS
 10
53.8250036761
 20
34.9345444671
 11
53.8250036761
 21
35.1611816198
  0
LINE
  5
2A6
100
AcDbEntity
  8
0
100
AcDbLine
 62
250
  6
CONTINUOUS
 10
54.1361524954
 20
35.1603268154
 11
54.1361524954
 21
34.9476942088
  0
LINE
  5
2A7
100
AcDbEntity
  8
0
100
AcDbLine
 62
250
  6
CONTINUOUS
 10
54.2068874119
 20
33.8363059639
 11
54.2068874119
 21
33.4566159639
  0
LWPOLYLINE
  5
2A8
100
AcDbEntity
  8
0
100
AcDbPolyline
 62
7
  6
CONTINUOUS
 90
7
 70
0
 10
55.3611534119
 20
175.7031752727
 10
55.3610223121
 20
175.7166635978
 10
55.3606025881
 20
175.7302832126
 10
55.3598942397
 20
175.744034117
 10
55.3588972669
 20
175.7579163111
 10
55.3576116699
 20
175.7719297949
 10
55.3494797895
 20
175.8438234109
  0
LWPOLYLINE
  5
2A9
100
AcDbEntity
  8
ASSI
100
AcDbPolyline
 62
7
  6
CONTINUOUS
 90
7
 70
0
 10
55.3611534119
 20
175.7031752727
 10
55.3610223121
 20
175.7166635978
 10
55.3606025881
 20
175.7302832126
 10
55.3598942397
 20
175.744034117
 10
55.3588972669
 20
175.7579163111
 10
55.3576116699
 20
175.7719297949
 10
55.3494797895
 20
175.8438234109
  0
LINE
  5
2AA
100
AcDbEntity
  8
0
100
AcDbLine
 62
250
  6
CONTINUOUS
 10
54.5003704119
 20
33.3754949639
 11
54.5003704119
 21
33.9155609639
  0
LINE
  5
2AB
100
AcDbEntity
  8
0
100
AcDbLine
 62
250
  6
CONTINUOUS
 10
54.8796471579
 20
35.9364465144
 11
54.8796471579
 21
35.5549900292
  0
LINE
  5
2AC
100
AcDbEntity
  8
0
100
AcDbLine
 62
250
  6
CONTINUOUS
 10
54.8796471579
 20
34.9476942088
 11
54.8796471579
 21
34.5527175667
  0
LINE
  5
2AD
100
AcDbEntity
  8
0
100
AcDbLine
 62
250
  6
CONTINUOUS
 10
54.8796474119
 20
30.6712639639
 11
54.8796474119
 21
30.2746919639
  0
LINE
  5
2AE
100
AcDbEntity
  8
0
100
AcDbLine
 62
250
  6
CONTINUOUS
 10
54.8796474119
 20
29.1673569639
 11
54.8796474119
 21
29.5168369639
  0
LINE
  5
2AF
100
AcDbEntity
  8
0
100
AcDbLine
 62
250
  6
CONTINUOUS
 10
54.8796474119
 20
30.8847519639
 11
54.8796474119
 21
31.2641419639
  0
LINE
  5
2B0
100
AcDbEntity
  8
0
100
AcDbLine
 62
250
  6
CONTINUOUS
 10
54.8796474119
 20
31.8149499639
 11
54.8796474119
 21
31.8705689639
  0
LINE
  5
2B1
100
AcDbEntity
  8
0
100
AcDbLine
 62
250
  6
CONTINUOUS
 10
54.8796474119
 20
32.4235709639
 11
54.8796474119
 21
32.8115239639
  0
LINE
  5
2B2
100
AcDbEntity
  8
0
100
AcDbLine
 62
250
  6
CONTINUOUS
 10
54.8796474119
 20
32.8737959639
 11
54.8796474119
 21
33.2660659639
  0
LINE
  5
2B3
100
AcDbEntity
  8
0
100
AcDbLine
 62
250
  6
CONTINUOUS
 10
54.8796474119
 20
34.0182939639
 11
54.8796474119
 21
34.4362649639
  0
LINE
  5
2B4
100
AcDbEntity
  8
0
100
AcDbLine
 62
7
  6
CONTINUOUS
 10
55.3611534119
 20
175.7031752727
 11
55.3611534119
 21
23.1684906552
  0
LINE
  5
2B5
100
AcDbEntity
  8
ASSI
100
AcDbLine
 62
7
  6
CONTINUOUS
 10
55.3611534119
 20
175.7031752727
 11
55.3611534119
 21
23.1684906552
  0
LINE
  5
2B6
100
AcDbEntity
  8
0
100
AcDbLine
 62
7
  6
CONTINUOUS
 10
57.8611534119
 20
175.2858329639
 11
57.8611534119
 21
23.5867572505
  0
LINE
  5
2B7
100
AcDbEntity
  8
ASSI
100
AcDbLine
 62
7
  6
CONTINUOUS
 10
57.8611534119
 20
175.2858329639
 11
57.8611534119
 21
23.5867572505
  0
LWPOLYLINE
  5
2B8
100
AcDbEntity
  8
0
100
AcDbPolyline
 62
7
  6
CONTINUOUS
 90
20
 70
0
 10
55.3494797895
 20
175.8438234109
 10
55.3435694923
 20
175.9014680521
 10
55.3383031716
 20
175.9588151375
 10
55.3337172802
 20
176.0156777375
 10
55.3297691416
 20
176.0718543532
 10
55.3263370628
 20
176.1271307889
 10
55.3234052434
 20
176.181318013
 10
55.3209847692
 20
176.2342259538
 10
55.318994841
 20
176.2856457251
 10
55.3174209651
 20
176.3354113344
 10
55.3162746507
 20
176.3833352038
 10
55.3155149392
 20
176.4291930233
 10
55.3151281053
 20
176.4728006278
 10
55.3151273653
 20
176.5140464551
 10
55.3155126874
 20
176.5528277226
 10
55.3162708564
 20
176.5890344485
 10
55.3174155951
 20
176.6225100075
 10
55.3189877932
 20
176.6530984913
 10
55.3209759322
 20
176.6806959663
 10
55.3233945152
 20
176.7052237842
  0
LWPOLYLINE
  5
2B9
100
AcDbEntity
  8
ASSI
100
AcDbPolyline
 62
7
  6
CONTINUOUS
 90
20
 70
0
 10
55.3494797895
 20
175.8438234109
 10
55.3435694923
 20
175.9014680521
 10
55.3383031716
 20
175.9588151375
 10
55.3337172802
 20
176.0156777375
 10
55.3297691416
 20
176.0718543532
 10
55.3263370628
 20
176.1271307889
 10
55.3234052434
 20
176.181318013
 10
55.3209847692
 20
176.2342259538
 10
55.318994841
 20
176.2856457251
 10
55.3174209651
 20
176.3354113344
 10
55.3162746507
 20
176.3833352038
 10
55.3155149392
 20
176.4291930233
 10
55.3151281053
 20
176.4728006278
 10
55.3151273653
 20
176.5140464551
 10
55.3155126874
 20
176.5528277226
 10
55.3162708564
 20
176.5890344485
 10
55.3174155951
 20
176.6225100075
 10
55.3189877932
 20
176.6530984913
 10
55.3209759322
 20
176.6806959663
 10
55.3233945152
 20
176.7052237842
  0
LWPOLYLINE
  5
2BA
100
AcDbEntity
  8
0
100
AcDbPolyline
 62
7
  6
CONTINUOUS
 90
4
 70
0
 43
0.3500000006
 10
60.1939638062
 20
188.6643960571
 10
60.1939638062
 20
189.521552124
 10
60.6225373077
 20
189.9501210938
 10
61.2653952942
 20
189.9501210938
  0
LWPOLYLINE
  5
2BB
100
AcDbEntity
  8
0
100
AcDbPolyline
 62
7
  6
CONTINUOUS
 90
6
 70
0
 10
55.3576115414
 20
23.0997340359
 10
55.3588970614
 20
23.1137462613
 10
55.3598940085
 20
23.127628036
 10
55.3606023826
 20
23.1413793598
 10
55.3610221837
 20
23.1550002329
 10
55.3611534119
 20
23.1684906552
  0
LWPOLYLINE
  5
2BC
100
AcDbEntity
  8
ASSI
100
AcDbPolyline
 62
7
  6
CONTINUOUS
 90
6
 70
0
 10
55.3576115414
 20
23.0997340359
 10
55.3588970614
 20
23.1137462613
 10
55.3598940085
 20
23.127628036
 10
55.3606023826
 20
23.1413793598
 10
55.3610221837
 20
23.1550002329
 10
55.3611534119
 20
23.1684906552
  0
LWPOLYLINE
  5
2BD
100
AcDbEntity
  8
0
100
AcDbPolyline
 62
250
  6
CONTINUOUS
 90
24
 70
0
 10
53.2922741283
 20
35.2452130743
 10
53.2906878551
 20
35.2306164347
 10
53.2893148768
 20
35.2160033567
 10
53.2881547014
 20
35.2013759575
 10
53.2872068368
 20
35.1867363546
 10
53.2864707907
 20
35.1720866653
 10
53.2859460711
 20
35.1574290069
 10
53.2856321857
 20
35.1427654968
 10
53.2855301539
 20
35.1299309225
 10
53.285589164
 20
35.1170897048
 10
53.2858092147
 20
35.1042380594
 10
53.2861903048
 20
35.0913722018
 10
53.2867331157
 20
35.0784877938
 10
53.2874410599
 20
35.0655782805
 10
53.2883182327
 20
35.0526365532
 10
53.2893687292
 20
35.0396555029
 10
53.2905947584
 20
35.0266303191
 10
53.2919909833
 20
35.0135653847
 10
53.2935501804
 20
35.000467381
 10
53.2952651265
 20
34.987342989
 10
53.2971273646
 20
34.9741962228
 10
53.2991235039
 20
34.9610204281
 10
53.3012389201
 20
34.9478062833
 10
53.3034589886
 20
34.9345444671
  0
LWPOLYLINE
  5
2BE
100
AcDbEntity
  8
0
100
AcDbPolyline
 62
250
  6
CONTINUOUS
 90
85
 70
0
 10
53.0220003772
 20
35.5313974265
 10
53.0264102361
 20
35.5428880904
 10
53.0313962585
 20
35.5544884694
 10
53.0369774028
 20
35.5662200919
 10
53.0431726272
 20
35.5781044868
 10
53.05000089
 20
35.5901631828
 10
53.0574811494
 20
35.6024177084
 10
53.0656257753
 20
35.6148730891
 10
53.0744207843
 20
35.6274683364
 10
53.0838456046
 20
35.6401259583
 10
53.0938796646
 20
35.6527684631
 10
53.1045023923
 20
35.6653183588
 10
53.1156932161
 20
35.6776981536
 10
53.1274320513
 20
35.6898373002
 10
53.1397007614
 20
35.7016930294
 10
53.1524816971
 20
35.7132295169
 10
53.1657572088
 20
35.724410938
 10
53.1795096474
 20
35.7352014683
 10
53.1937213633
 20
35.7455652834
 10
53.2083668783
 20
35.7554676766
 10
53.2233893987
 20
35.764878414
 10
53.2387243019
 20
35.7737683794
 10
53.2543069653
 20
35.7821084567
 10
53.2700727665
 20
35.7898695299
 10
53.2859570827
 20
35.7970224829
 10
53.3019016182
 20
35.8035468331
 10
53.317873384
 20
35.8094566324
 10
53.3338457178
 20
35.8147745659
 10
53.3497919576
 20
35.8195233191
 10
53.365685441
 20
35.8237255771
 10
53.3814995059
 20
35.8274040254
 10
53.4003320846
 20
35.8311599732
 10
53.4189542771
 20
35.8342412898
 10
53.4373084535
 20
35.8366949631
 10
53.4553369838
 20
35.8385679812
 10
53.4729822382
 20
35.8399073321
 10
53.4901974156
 20
35.8407565416
 10
53.5069790307
 20
35.841145287
 10
53.5233344273
 20
35.8410997831
 10
53.5392709489
 20
35.8406462451
 10
53.5547959391
 20
35.8398108879
 10
53.5699169068
 20
35.838618693
 10
53.5846420211
 20
35.8370897081
 10
53.5989796162
 20
35.835242747
 10
53.6129380266
 20
35.8330966238
 10
53.6265255864
 20
35.8306701526
 10
53.6430027263
 20
35.8272695294
 10
53.6589387238
 20
35.8234852656
 10
53.6743588683
 20
35.8193423673
 10
53.689288449
 20
35.8148658409
 10
53.7037474024
 20
35.8100818827
 10
53.7177342536
 20
35.8050214493
 10
53.7312421751
 20
35.7997166874
 10
53.7442643393
 20
35.7941997436
 10
53.7567978429
 20
35.788500144
 10
53.7688554806
 20
35.7826369316
 10
53.7804539715
 20
35.7766265288
 10
53.7916100346
 20
35.7704853579
 10
53.8058210698
 20
35.76212128
 10
53.8192885696
 20
35.7535879439
 10
53.8320258143
 20
35.7449193724
 10
53.8440502532
 20
35.7361480412
 10
53.8553960131
 20
35.7273002369
 10
53.86610139
 20
35.7184006988
 10
53.8762058404
 20
35.7094772056
 10
53.8857534619
 20
35.7005696935
 10
53.8947895127
 20
35.6917211383
 10
53.9033576315
 20
35.6829709511
 10
53.9114949805
 20
35.6743442842
 10
53.9192371028
 20
35.6658627251
 10
53.9248059606
 20
35.6596082087
 10
53.9301890056
 20
35.6534472027
 10
53.9354005676
 20
35.6473816938
 10
53.9404462582
 20
35.641422638
 10
53.9453316732
 20
35.6355791956
 10
53.9500710642
 20
35.6298443726
 10
53.9591197541
 20
35.6185580254
 10
53.9633702836
 20
35.61286806
 10
53.9673369375
 20
35.607134902
 10
53.9709273826
 20
35.6013831783
 10
53.9740822546
 20
35.5956203052
 10
53.9767546147
 20
35.5898448974
 10
53.9789142566
 20
35.5840375743
 10
53.9805349463
 20
35.578181195
 10
53.9815896043
 20
35.5722855726
  0
LWPOLYLINE
  5
2BF
100
AcDbEntity
  8
0
100
AcDbPolyline
 62
250
  6
CONTINUOUS
 90
41
 70
0
 10
53.9928160361
 20
35.5722855726
 10
53.9954764002
 20
35.578654876
 10
53.9983642093
 20
35.5849833802
 10
54.0014846381
 20
35.5912746406
 10
54.0048428615
 20
35.5975322126
 10
54.0084445012
 20
35.6037593454
 10
54.0122969664
 20
35.6099580632
 10
54.0164081133
 20
35.6161300837
 10
54.020785798
 20
35.6222771249
 10
54.0254355612
 20
35.6283984192
 10
54.0303536826
 20
35.6344832567
 10
54.0355341265
 20
35.6405184423
 10
54.040970857
 20
35.6464907807
 10
54.0466568016
 20
35.6523878572
 10
54.0525807396
 20
35.6582003793
 10
54.0587304133
 20
35.6639198348
 10
54.0650935651
 20
35.6695377118
 10
54.0716605411
 20
35.6750478444
 10
54.0784321022
 20
35.6804534525
 10
54.0854116132
 20
35.685760102
 10
54.0926024389
 20
35.6909733591
 10
54.1000064042
 20
35.6960975043
 10
54.1076191755
 20
35.7011316761
 10
54.1154348795
 20
35.7060737273
 10
54.1234476427
 20
35.7109215109
 10
54.1328395669
 20
35.7163442925
 10
54.1424767425
 20
35.7216417893
 10
54.1523547088
 20
35.7268146458
 10
54.162469005
 20
35.7318635066
 10
54.1728151703
 20
35.7367890161
 10
54.183388744
 20
35.741591819
 10
54.1941852653
 20
35.7462725598
 10
54.207056554
 20
35.7515800052
 10
54.2202152483
 20
35.7567231761
 10
54.2336513691
 20
35.7617030608
 10
54.247354937
 20
35.7665206476
 10
54.2613159729
 20
35.7711769246
 10
54.2755244975
 20
35.7756728803
 10
54.2899708377
 20
35.7800166714
 10
54.3046465449
 20
35.7842451286
 10
54.3195434764
 20
35.7884022511
  0
LWPOLYLINE
  5
2C0
100
AcDbEntity
  8
0
100
AcDbPolyline
 62
7
  6
CONTINUOUS
 90
10
 70
0
 43
0.3500000006
 10
63.1939647217
 20
188.7358363037
 10
63.2653959045
 20
188.592973938
 10
63.2653959045
 20
188.5215518188
 10
63.1225380707
 20
188.3786894531
 10
63.0511068878
 20
188.3786894531
 10
62.9796802368
 20
188.4501115723
 10
62.9796802368
 20
188.5215518188
 10
63.0511068878
 20
188.6643960571
 10
63.1225380707
 20
188.7358363037
 10
63.1939647217
 20
188.7358363037
  0
LINE
  5
2C1
100
AcDbEntity
  8
SMUSSO
100
AcDbLine
 62
7
  6
CONTINUOUS
 10
52.2611534119
 20
21.8858329639
 11
51.7611534119
 21
21.3858329639
  0
LINE
  5
2C2
100
AcDbEntity
  8
SMUSSO
100
AcDbLine
 62
7
  6
CONTINUOUS
 10
52.2611534119
 20
176.9858329639
 11
51.7611534119
 21
177.4858329639
  0
LWPOLYLINE
  5
2C3
100
AcDbEntity
  8
0
100
AcDbPolyline
 62
250
  6
CONTINUOUS
 90
48
 70
0
 10
54.3035118424
 20
35.3815637389
 10
54.2975253386
 20
35.3792446826
 10
54.2916455034
 20
35.3768242326
 10
54.285860532
 20
35.3743000789
 10
54.2801586197
 20
35.3716699116
 10
54.2745279619
 20
35.3689314208
 10
54.2675770689
 20
35.3653537382
 10
54.2607272781
 20
35.36160636
 10
54.2539868014
 20
35.3576924557
 10
54.2473638506
 20
35.3536151944
 10
54.2408667095
 20
35.3493779777
 10
54.2345039492
 20
35.3449851351
 10
54.2282842131
 20
35.3404412284
 10
54.2222161442
 20
35.3357508193
 10
54.2174766144
 20
35.331896022
 10
54.2128436091
 20
35.3279523958
 10
54.208321054
 20
35.323921954
 10
54.2039128748
 20
35.3198067098
 10
54.1996229974
 20
35.3156086765
 10
54.1954550922
 20
35.3113297098
 10
54.1914118085
 20
35.306971036
 10
54.18749554
 20
35.3025337237
 10
54.1837086806
 20
35.2980188418
 10
54.1800536242
 20
35.2934274589
 10
54.1765327668
 20
35.2887598574
 10
54.1731485126
 20
35.2840131734
 10
54.1699032679
 20
35.2791837565
 10
54.1667994392
 20
35.2742679565
 10
54.1638394328
 20
35.269262123
 10
54.161025743
 20
35.264164632
 10
54.1583612164
 20
35.2589819653
 10
54.1558487875
 20
35.2537226312
 10
54.1534913909
 20
35.2483951376
 10
54.151291961
 20
35.2430079929
 10
54.149252589
 20
35.2375701184
 10
54.1473719931
 20
35.232092088
 10
54.1456480478
 20
35.2265848888
 10
54.1440786279
 20
35.2210595082
 10
54.142661608
 20
35.2155269332
 10
54.1413945394
 20
35.2099965214
 10
54.1402736791
 20
35.2044711122
 10
54.1392949607
 20
35.1989519154
 10
54.1384543178
 20
35.1934401408
 10
54.1377476839
 20
35.1879369981
 10
54.1370477432
 20
35.1810678907
 10
54.1365494741
 20
35.1741915591
 10
54.1362515127
 20
35.1672854013
 10
54.1361524954
 20
35.1603268154
  0
LINE
  5
2C4
100
AcDbEntity
  8
0
100
AcDbLine
 62
250
  6
CONTINUOUS
 10
54.8796474119
 20
34.4362649639
 11
52.9798014119
 21
33.8533449639
  0
LWPOLYLINE
  5
2C5
100
AcDbEntity
  8
0
100
AcDbPolyline
 62
250
  6
CONTINUOUS
 90
8
 70
0
 10
54.4823902051
 20
35.4400982487
 10
54.4558775437
 20
35.4322336131
 10
54.4296624552
 20
35.4242518449
 10
54.4037569793
 20
35.416123308
 10
54.3781731557
 20
35.4078183663
 10
54.3529230239
 20
35.3993073841
 10
54.3280186236
 20
35.3905607252
 10
54.3034719945
 20
35.3815487537
  0
LINE
  5
2C6
100
AcDbEntity
  8
0
100
AcDbLine
 62
250
  6
CONTINUOUS
 10
54.8447306995
 20
35.5448958394
 11
54.6752548357
 21
35.4952943925
  0
LINE
  5
2C7
100
AcDbEntity
  8
0
100
AcDbLine
 62
250
  6
CONTINUOUS
 10
54.8796471579
 20
35.5549900292
 11
54.8447306995
 21
35.5448958394
  0
LINE
  5
2C8
100
AcDbEntity
  8
0
100
AcDbLine
 62
250
  6
CONTINUOUS
 10
54.6752548357
 20
35.4952943925
 11
54.6096674213
 21
35.4764629387
  0
LINE
  5
2C9
100
AcDbEntity
  8
0
100
AcDbLine
 62
7
  6
CONTINUOUS
 10
55.3611534119
 20
22.0858329639
 11
57.8611534119
 21
23.5858329639
  0
LINE
  5
2CA
100
AcDbEntity
  8
ASSI
100
AcDbLine
 62
7
  6
CONTINUOUS
 10
55.3611534119
 20
22.0858329639
 11
57.8611534119
 21
23.5858329639
  0
LINE
  5
2CB
100
AcDbEntity
  8
0
100
AcDbLine
 62
250
  6
CONTINUOUS
 10
53.6390834119
 20
31.3497229639
 11
54.8796474119
 21
31.8149499639
  0
LINE
  5
2CC
100
AcDbEntity
  8
0
100
AcDbLine
 62
250
  6
CONTINUOUS
 10
54.0346014119
 20
31.8449249639
 11
52.9798014119
 21
31.4525409639
  0
LINE
  5
2CD
100
AcDbEntity
  8
0
100
AcDbLine
 62
250
  6
CONTINUOUS
 10
52.9798014119
 20
28.5650689639
 11
54.8796474119
 21
29.1673569639
  0
LINE
  5
2CE
100
AcDbEntity
  8
0
100
AcDbLine
 62
7
  6
CONTINUOUS
 10
55.3611534119
 20
176.7858329639
 11
57.8611534119
 21
175.2858329639
  0
LINE
  5
2CF
100
AcDbEntity
  8
ASSI
100
AcDbLine
 62
7
  6
CONTINUOUS
 10
55.3611534119
 20
176.7858329639
 11
57.8611534119
 21
175.2858329639
  0
LINE
  5
2D0
100
AcDbEntity
  8
RACCORDO
100
AcDbLine
 62
250
  6
CONTINUOUS
 10
52.2611534119
 20
168.4358329639
 11
52.4111534119
 21
168.4358329639
  0
LINE
  5
2D1
100
AcDbEntity
  8
RACCORDO
100
AcDbLine
 62
7
  6
CONTINUOUS
 10
52.2611534119
 20
169.4358329639
 11
52.4111534119
 21
169.4358329639
  0
LINE
  5
2D2
100
AcDbEntity
  8
ASSI
100
AcDbLine
 62
7
  6
CONTINUOUS
 10
52.3611534119
 20
171.5858329639
 11
52.4111534119
 21
171.5858329639
  0
LINE
  5
2D3
100
AcDbEntity
  8
SMUSSO
100
AcDbLine
 62
250
  6
CONTINUOUS
 10
49.2611534119
 20
176.4858329639
 11
52.2611534119
 21
176.4858329639
  0
LINE
  5
2D4
100
AcDbEntity
  8
SMUSSO
100
AcDbLine
 62
7
  6
CONTINUOUS
 10
50.2611534119
 20
177.4858329639
 11
51.7611534119
 21
177.4858329639
  0
LINE
  5
2D5
100
AcDbEntity
  8
0
100
AcDbLine
 62
250
  6
CONTINUOUS
 10
52.4111534119
 20
175.8374777103
 11
55.3560374484
 21
175.7860745683
  0
LINE
  5
2D6
100
AcDbEntity
  8
ASSI
100
AcDbLine
 62
250
  6
CONTINUOUS
 10
52.4111534119
 20
175.8374777103
 11
55.3560374484
 21
175.7860745683
  0
LINE
  5
2D7
100
AcDbEntity
  8
0
100
AcDbLine
 62
7
  6
CONTINUOUS
 10
52.4111534119
 20
176.8373254055
 11
55.3560374484
 21
176.7859222634
  0
LINE
  5
2D8
100
AcDbEntity
  8
ASSI
100
AcDbLine
 62
7
  6
CONTINUOUS
 10
52.4111534119
 20
176.8373254055
 11
55.3560374484
 21
176.7859222634
  0
LINE
  5
2D9
100
AcDbEntity
  8
0
100
AcDbLine
 62
250
  6
CONTINUOUS
 10
55.3611534119
 20
175.7031752727
 11
57.8611534119
 21
175.1366730125
  0
LINE
  5
2DA
100
AcDbEntity
  8
ASSI
100
AcDbLine
 62
250
  6
CONTINUOUS
 10
55.3611534119
 20
175.7031752727
 11
57.8611534119
 21
175.1366730125
  0
LWPOLYLINE
  5
2DB
100
AcDbEntity
  8
0
100
AcDbPolyline
 62
7
  6
CONTINUOUS
 90
13
 70
0
 43
0.3500000006
 10
60.6225373077
 20
189.9501210938
 10
60.33682164
 20
190.1644055786
 10
60.33682164
 20
190.8072590332
 10
60.6225373077
 20
191.2358280029
 10
61.2653952942
 20
191.2358280029
 10
61.5511109619
 20
190.8072590332
 10
61.5511109619
 20
190.1644055786
 10
61.2653952942
 20
189.9501210938
 10
61.6939642639
 20
189.521552124
 10
61.6939642639
 20
188.6643960571
 10
61.2653952942
 20
188.2358270874
 10
60.6225373077
 20
188.2358270874
 10
60.1939638062
 20
188.6643960571
  0
ARC
  5
2DC
100
AcDbEntity
  8
RACCORDO
100
AcDbCircle
 62
7
  6
CONTINUOUS
 10
125.9765632794
 20
42.5358329639
 40
1.2
100
AcDbArc
 50
180.0
 51
270.0
  0
ARC
  5
2DD
100
AcDbEntity
  8
RACCORDO
100
AcDbCircle
 62
7
  6
CONTINUOUS
 10
213.7765632794
 20
42.5358329639
 40
1.2
100
AcDbArc
 50
270.0
 51
360.0
  0
ARC
  5
2DE
100
AcDbEntity
  8
RACCORDO
100
AcDbCircle
 62
7
  6
CONTINUOUS
 10
213.7765632794
 20
156.3358329639
 40
1.2
100
AcDbArc
 50
0.0
 51
90.0
  0
ARC
  5
2DF
100
AcDbEntity
  8
RACCORDO
100
AcDbCircle
 62
7
  6
CONTINUOUS
 10
125.9765632794
 20
156.3358329639
 40
1.2
100
AcDbArc
 50
90.0
 51
180.0
  0
ARC
  5
2E0
100
AcDbEntity
  8
SMUSSO
100
AcDbCircle
 62
7
  6
CONTINUOUS
 10
246.9265632794
 20
22.3858329639
 40
1.0
100
AcDbArc
 50
270.0
 51
360.0
  0
ARC
  5
2E1
100
AcDbEntity
  8
SMUSSO
100
AcDbCircle
 62
7
  6
CONTINUOUS
 10
246.9265632794
 20
176.4858329639
 40
1.0
100
AcDbArc
 50
0.0
 51
90.0
  0
ARC
  5
2E2
100
AcDbEntity
  8
SMUSSO
100
AcDbCircle
 62
7
  6
CONTINUOUS
 10
92.8265632794
 20
22.3858329639
 40
1.0
100
AcDbArc
 50
180.0
 51
270.0
  0
ARC
  5
2E3
100
AcDbEntity
  8
SMUSSO
100
AcDbCircle
 62
7
  6
CONTINUOUS
 10
92.8265632794
 20
176.4858329639
 40
1.0
100
AcDbArc
 50
90.0
 51
180.0
  0
ENDSEC
  0
SECTION
  2
OBJECTS
  0
DICTIONARY
  5
C
100
AcDbDictionary
280
0
281
1
  3
ACAD_GROUP
350
D
  3
ACAD_MLINESTYLE
350
17
  3
ACAD_LAYOUT
350
1A
  3
ACAD_PLOTSETTINGS
350
19
  3
ACAD_PLOTSTYLENAME
350
E
  0
DICTIONARY
  5
D
102
{ACAD_REACTORS
330
C
102
}
100
AcDbDictionary
280
0
281
1
  0
ACDBDICTIONARYWDFLT
  5
E
102
{ACAD_REACTORS
330
C
102
}
100
AcDbDictionary
281
1
  3
Normal
350
F
100
AcDbDictionaryWithDefault
340
F
  0
DICTIONARY
  5
17
102
{ACAD_REACTORS
330
C
102
}
100
AcDbDictionary
280
0
281
1
  3
Standard
350
18
  0
DICTIONARY
  5
19
102
{ACAD_REACTORS
330
C
102
}
100
AcDbDictionary
281
1
  0
DICTIONARY
  5
1A
102
{ACAD_REACTORS
330
C
102
}
100
AcDbDictionary
281
1
  3
Model
350
2E4
  3
Layout1
350
2E5
  0
ACDBPLACEHOLDER
  5
F
102
{ACAD_REACTORS
330
E
102
}
  0
MLINESTYLE
  5
18
102
{ACAD_REACTORS
330
17
102
}
100
AcDbMlineStyle
  2
STANDARD
 70
0
  3

 62
256
 51
90.0
 52
90.0
 71
2
 49
0.5
 62
256
  6
BYLAYER
 49
-0.5
 62
256
  6
BYLAYER
  0
LAYOUT
  5
2E4
102
{ACAD_REACTORS
330
1A
102
}
100
AcDbPlotSettings
  1

  2
none_device
  4
ISO_A4_(297.00_x_210.00_MM)
  6

 40
0.0
 41
0.0
 42
0.0
 43
0.0
 44
297.0
 45
210.0
 46
0.0
 47
0.0
 48
0.0
 49
0.0
140
0.0
141
0.0
142
1.0
143
1.0
 70
1024
 72
1
 73
0
 74
0
  7

 75
0
147
1.0
148
0.0
149
0.0
100
AcDbLayout
  1
Model
 70
0
 71
0
 10
0.0
 20
0.0
 11
297.0
 21
210.0
 12
0.0
 22
0.0
 32
0.0
 14
0.0
 24
0.0
 34
0.0
 15
0.0
 25
0.0
 35
0.0
146
0.0
 13
0.0
 23
0.0
 33
0.0
 16
1.0
 26
0.0
 36
0.0
 17
0.0
 27
1.0
 37
0.0
 76
0
330
21D
345
0
346
0
  0
LAYOUT
  5
2E5
102
{ACAD_REACTORS
330
1A
102
}
100
AcDbPlotSettings
  1

  2
none_device
  4
ISO_A4_(297.00_x_210.00_MM)
  6

 40
0.0
 41
0.0
 42
0.0
 43
0.0
 44
297.0
 45
210.0
 46
0.0
 47
0.0
 48
0.0
 49
0.0
140
0.0
141
0.0
142
1.0
143
1.0
 70
0
 72
1
 73
0
 74
0
  7

 75
0
147
1.0
148
0.0
149
0.0
100
AcDbLayout
  1
Layout1
 70
0
 71
1
 10
0.0
 20
0.0
 11
297.0
 21
210.0
 12
0.0
 22
0.0
 32
0.0
 14
0.0
 24
0.0
 34
0.0
 15
0.0
 25
0.0
 35
0.0
146
0.0
 13
0.0
 23
0.0
 33
0.0
 16
1.0
 26
0.0
 36
0.0
 17
0.0
 27
1.0
 37
0.0
 76
0
330
21E
345
0
346
0
  0
ENDSEC
  0
EOF
