  0
SECTION
  2
HEADER
  9
$ACADVER
  1
AC1021
  9
$DWGCODEPAGE
  3
ANSI_1252
  9
$EXTMAX
 10
297.0
 20
210.0
 30
0.0
  9
$EXTMIN
 10
0.0
 20
0.0
 30
0.0
  9
$LIMMIN
 10
0.0
 20
0.0
  9
$LIMMAX
 10
297.0
 20
210.0
  9
$VIEWCTR
 10
148.5
 20
105.0
  9
$VIEWSIZE
 40
210.0
  9
$CLAYER
  8
0
  9
$LTSCALE
 40
16.335
  9
$CELTYPE
  6
BYLAYER
  9
$DIMSCALE
 40
1.0
  9
$DIMASZ
 40
3.0
  9
$DIMEXO
 40
0.5
  9
$DIMDLI
 40
11.286
  9
$DIMEXE
 40
1.5
  9
$DIMCEN
 40
2.673
  9
$DIMLFAC
 40
1.0
  9
$DIMBLK
  1
_FILLED
  9
$DIMALT
 70
0
  9
$DIMALTF
 40
25.4
  9
$DIMTXT
 40
3.0
  9
$DIMTOL
 70
1
  9
$DIMLIM
 70
0
  9
$DIMTFAC
 40
1.0
  9
$DIMTP
 40
0.01
  9
$DIMTM
 40
0.01
  9
$DIMGAP
 40
0.625
  9
$DIMDSEP
 70
44
  9
$AUNITS
 70
0
  9
$PDMODE
 70
3
  9
$PDSIZE
 40
3.0
  9
$HANDSEED
  5
2D3
  9
$TILEMODE
 70
1
  9
$MEASUREMENT
 70
1
  9
$INSUNITS
 70
4
  0
ENDSEC
  0
SECTION
  2
CLASSES
  0
CLASS
  1
ACDBDICTIONARYWDFLT
  2
AcDbDictionaryWithDefault
  3
AutoCAD 2000
 90
0
 91
1
280
0
281
0
  0
CLASS
  1
ACDBPLACEHOLDER
  2
AcDbPlaceHolder
  3
AutoCAD 2000
 90
0
 91
1
280
0
281
0
  0
CLASS
  1
LAYOUT
  2
AcDbLayout
  3
AutoCAD 2000
 90
0
 91
0
280
0
281
0
  0
ENDSEC
  0
SECTION
  2
TABLES
  0
TABLE
  2
VPORT
  5
8
100
AcDbSymbolTable
 70
2
  0
VPORT
  5
1F4
100
AcDbSymbolTableRecord
100
AcDbViewportTableRecord
  2
*ACTIVE
 70
0
 10
0.0
 20
0.0
 11
1.0
 21
1.0
 12
148.5
 22
105.0
 13
0.0
 23
0.0
 14
1.0
 24
1.0
 15
0.0
 25
0.0
 16
0.0
 26
0.0
 36
1.0
 17
0.0
 27
0.0
 37
0.0
 40
210.0
 41
1.4142857143
 42
50.0
 43
0.0
 44
0.0
 50
0.0
 51
0.0
 71
0
 72
100
 73
1
 74
1
 75
0
 76
0
 77
0
 78
0
  0
ENDTAB
  0
TABLE
  2
LTYPE
  5
5
100
AcDbSymbolTable
 70
6
  0
LTYPE
  5
14
100
AcDbSymbolTableRecord
100
AcDbLinetypeTableRecord
  2
BYBLOCK
 70
0
  3

 72
65
 73
0
 40
0.0
  0
LTYPE
  5
15
100
AcDbSymbolTableRecord
100
AcDbLinetypeTableRecord
  2
BYLAYER
 70
0
  3

 72
65
 73
0
 40
0.0
  0
LTYPE
  5
16
100
AcDbSymbolTableRecord
100
AcDbLinetypeTableRecord
  2
CONTINUOUS
 70
64
  3
Solid line
 72
65
 73
0
 40
0.0
  0
LTYPE
  5
1F5
100
AcDbSymbolTableRecord
100
AcDbLinetypeTableRecord
  2
CENTER
 70
64
  3
____ _ ____ _ ____ _ ____ _ ____ _ ____ _ ____
 72
65
 73
4
 40
0.6
 49
0.375
 74
0
 49
-0.075
 74
0
 49
0.075
 74
0
 49
-0.075
 74
0
  0
LTYPE
  5
1F6
100
AcDbSymbolTableRecord
100
AcDbLinetypeTableRecord
  2
HIDDEN
 70
64
  3
- - - - - - - - - - - - - - - - - - - -
 72
65
 73
2
 40
0.2
 49
0.1
 74
0
 49
-0.1
 74
0
  0
LTYPE
  5
1F7
100
AcDbSymbolTableRecord
100
AcDbLinetypeTableRecord
  2
PHANTOM
 70
64
  3
_____ _ _ _____ _ _ _____ _ _ _____
 72
65
 73
6
 40
0.8
 49
0.45
 74
0
 49
-0.05
 74
0
 49
0.1
 74
0
 49
-0.05
 74
0
 49
0.1
 74
0
 49
-0.05
 74
0
  0
LTYPE
  5
1F8
100
AcDbSymbolTableRecord
100
AcDbLinetypeTableRecord
  2
DOT
 70
64
  3
. . . . . . . . . . . . . . . . . . . .
 72
65
 73
2
 40
0.2
 49
0.1
 74
0
 49
-0.1
 74
0
  0
LTYPE
  5
1F9
100
AcDbSymbolTableRecord
100
AcDbLinetypeTableRecord
  2
DASHED
 70
64
  3
- - - - - - - - - - - - - - - - - - - -
 72
65
 73
2
 40
0.2
 49
0.1
 74
0
 49
-0.1
 74
0
  0
ENDTAB
  0
TABLE
  2
LAYER
  5
2
100
AcDbSymbolTable
 70
36
  0
LAYER
  5
10
100
AcDbSymbolTableRecord
100
AcDbLayerTableRecord
  2
0
 70
0
 62
7
  6
CONTINUOUS
370
-3
390
F
  0
LAYER
  5
1FA
100
AcDbSymbolTableRecord
100
AcDbLayerTableRecord
  2
DEFAULT_1
 70
0
 62
7
  6
CENTER
370
-3
390
F
  0
LAYER
  5
1FB
100
AcDbSymbolTableRecord
100
AcDbLayerTableRecord
  2
DEFAULT_2
 70
0
 62
7
  6
HIDDEN
370
-3
390
F
  0
LAYER
  5
1FC
100
AcDbSymbolTableRecord
100
AcDbLayerTableRecord
  2
DEFAULT_3
 70
0
 62
7
  6
PHANTOM
370
-3
390
F
  0
LAYER
  5
1FD
100
AcDbSymbolTableRecord
100
AcDbLayerTableRecord
  2
ASSI
 70
0
 62
7
  6
CONTINUOUS
370
-3
390
F
  0
LAYER
  5
1FE
100
AcDbSymbolTableRecord
100
AcDbLayerTableRecord
  2
COORDINATE
 70
0
 62
7
  6
CONTINUOUS
370
-3
390
F
  0
LAYER
  5
1FF
100
AcDbSymbolTableRecord
100
AcDbLayerTableRecord
  2
COORD_ORIGINE
 70
0
 62
7
  6
CONTINUOUS
370
-3
390
F
  0
LAYER
  5
200
100
AcDbSymbolTableRecord
100
AcDbLayerTableRecord
  2
COPY_PUBLISH
 70
0
 62
7
  6
CONTINUOUS
370
-3
390
F
  0
LAYER
  5
201
100
AcDbSymbolTableRecord
100
AcDbLayerTableRecord
  2
COSMETIC
 70
0
 62
7
  6
CONTINUOUS
370
-3
390
F
  0
LAYER
  5
202
100
AcDbSymbolTableRecord
100
AcDbLayerTableRecord
  2
COSMETICI
 70
0
 62
7
  6
CONTINUOUS
370
-3
390
F
  0
LAYER
  5
203
100
AcDbSymbolTableRecord
100
AcDbLayerTableRecord
  2
CURVE
 70
0
 62
7
  6
CONTINUOUS
370
-3
390
F
  0
LAYER
  5
204
100
AcDbSymbolTableRecord
100
AcDbLayerTableRecord
  2
CURVE_TASSELLI
 70
0
 62
7
  6
CONTINUOUS
370
-3
390
F
  0
LAYER
  5
205
100
AcDbSymbolTableRecord
100
AcDbLayerTableRecord
  2
DRAFT
 70
0
 62
7
  6
CONTINUOUS
370
-3
390
F
  0
LAYER
  5
206
100
AcDbSymbolTableRecord
100
AcDbLayerTableRecord
  2
IGES
 70
0
 62
7
  6
CONTINUOUS
370
-3
390
F
  0
LAYER
  5
207
100
AcDbSymbolTableRecord
100
AcDbLayerTableRecord
  2
IMPORT_IGES
 70
0
 62
7
  6
CONTINUOUS
370
-3
390
F
  0
LAYER
  5
208
100
AcDbSymbolTableRecord
100
AcDbLayerTableRecord
  2
INTFCLR_2
 70
0
 62
7
  6
CONTINUOUS
370
-3
390
F
  0
LAYER
  5
209
100
AcDbSymbolTableRecord
100
AcDbLayerTableRecord
  2
INTF_1
 70
0
 62
7
  6
CONTINUOUS
370
-3
390
F
  0
LAYER
  5
20A
100
AcDbSymbolTableRecord
100
AcDbLayerTableRecord
  2
INTF_11
 70
0
 62
7
  6
CONTINUOUS
370
-3
390
F
  0
LAYER
  5
20B
100
AcDbSymbolTableRecord
100
AcDbLayerTableRecord
  2
INTF_21
 70
0
 62
7
  6
CONTINUOUS
370
-3
390
F
  0
LAYER
  5
20C
100
AcDbSymbolTableRecord
100
AcDbLayerTableRecord
  2
INTF_7
 70
0
 62
7
  6
CONTINUOUS
370
-3
390
F
  0
LAYER
  5
20D
100
AcDbSymbolTableRecord
100
AcDbLayerTableRecord
  2
NOTE
 70
0
 62
7
  6
CONTINUOUS
370
-3
390
F
  0
LAYER
  5
20E
100
AcDbSymbolTableRecord
100
AcDbLayerTableRecord
  2
PIANI
 70
0
 62
7
  6
CONTINUOUS
370
-3
390
F
  0
LAYER
  5
20F
100
AcDbSymbolTableRecord
100
AcDbLayerTableRecord
  2
PIANI_ORIGINE
 70
0
 62
7
  6
CONTINUOUS
370
-3
390
F
  0
LAYER
  5
210
100
AcDbSymbolTableRecord
100
AcDbLayerTableRecord
  2
PIANI_RIFERIMENTO
 70
0
 62
7
  6
CONTINUOUS
370
-3
390
F
  0
LAYER
  5
211
100
AcDbSymbolTableRecord
100
AcDbLayerTableRecord
  2
PUNTI
 70
0
 62
7
  6
CONTINUOUS
370
-3
390
F
  0
LAYER
  5
212
100
AcDbSymbolTableRecord
100
AcDbLayerTableRecord
  2
RACCORDO
 70
0
 62
7
  6
CONTINUOUS
370
-3
390
F
  0
LAYER
  5
213
100
AcDbSymbolTableRecord
100
AcDbLayerTableRecord
  2
RGB__255__255__255__
 70
0
 62
7
  6
CONTINUOUS
370
-3
390
F
  0
LAYER
  5
214
100
AcDbSymbolTableRecord
100
AcDbLayerTableRecord
  2
RGB____0____0____0__
 70
0
 62
7
  6
CONTINUOUS
370
-3
390
F
  0
LAYER
  5
215
100
AcDbSymbolTableRecord
100
AcDbLayerTableRecord
  2
SIMBOLI
 70
0
 62
7
  6
CONTINUOUS
370
-3
390
F
  0
LAYER
  5
216
100
AcDbSymbolTableRecord
100
AcDbLayerTableRecord
  2
SMUSSO
 70
0
 62
7
  6
CONTINUOUS
370
-3
390
F
  0
LAYER
  5
217
100
AcDbSymbolTableRecord
100
AcDbLayerTableRecord
  2
SNAPLINE
 70
0
 62
7
  6
CONTINUOUS
370
-3
390
F
  0
LAYER
  5
218
100
AcDbSymbolTableRecord
100
AcDbLayerTableRecord
  2
SUPERFICI
 70
0
 62
7
  6
CONTINUOUS
370
-3
390
F
  0
LAYER
  5
219
100
AcDbSymbolTableRecord
100
AcDbLayerTableRecord
  2
TRASH
 70
0
 62
7
  6
CONTINUOUS
370
-3
390
F
  0
LAYER
  5
21A
100
AcDbSymbolTableRecord
100
AcDbLayerTableRecord
  2
XSEC_DATUMS
 70
0
 62
7
  6
CONTINUOUS
370
-3
390
F
  0
ENDTAB
  0
TABLE
  2
STYLE
  5
3
100
AcDbSymbolTable
 70
1
  0
STYLE
  5
11
100
AcDbSymbolTableRecord
100
AcDbTextStyleTableRecord
  2
STANDARD
 70
0
 40
0.0
 41
0.8
 50
0.0
 71
0
 42
0.2
  3
txt
  4

  0
STYLE
  5
21B
100
AcDbSymbolTableRecord
100
AcDbTextStyleTableRecord
  2
TEXTSTYLE_1
 70
0
 40
0.0
 41
0.8
 50
0.0
 71
0
 42
0.2
  3
gdt
  4

  0
ENDTAB
  0
TABLE
  2
VIEW
  5
6
100
AcDbSymbolTable
 70
0
  0
ENDTAB
  0
TABLE
  2
UCS
  5
7
100
AcDbSymbolTable
 70
0
  0
ENDTAB
  0
TABLE
  2
APPID
  5
9
100
AcDbSymbolTable
 70
1
  0
APPID
  5
21C
100
AcDbSymbolTableRecord
100
AcDbRegAppTableRecord
  2
ACAD
 70
0
  0
ENDTAB
  0
TABLE
  2
BLOCK_RECORD
  5
1
100
AcDbSymbolTable
 70
0
  0
BLOCK_RECORD
  5
21D
100
AcDbSymbolTableRecord
100
AcDbBlockTableRecord
  2
*Model_Space
  0
BLOCK_RECORD
  5
21E
100
AcDbSymbolTableRecord
100
AcDbBlockTableRecord
  2
*Paper_Space
  0
BLOCK_RECORD
  5
21F
100
AcDbSymbolTableRecord
100
AcDbBlockTableRecord
  2
_FILLED
  0
BLOCK_RECORD
  5
220
100
AcDbSymbolTableRecord
100
AcDbBlockTableRecord
  2
*D0
  0
BLOCK_RECORD
  5
221
100
AcDbSymbolTableRecord
100
AcDbBlockTableRecord
  2
*D1
  0
BLOCK_RECORD
  5
222
100
AcDbSymbolTableRecord
100
AcDbBlockTableRecord
  2
*D2
  0
ENDTAB
  0
TABLE
  2
DIMSTYLE
  5
A
100
AcDbSymbolTable
 70
1
100
AcDbDimStyleTable
 71
0
  0
DIMSTYLE
105
223
100
AcDbSymbolTableRecord
100
AcDbDimStyleTableRecord
  2
STANDARD
 70
0
  3

  4

 40
1.0
 41
3.0
 42
0.5
 43
0.38
 44
1.5
 45
0.0
 46
0.0
 47
0.01
 48
0.01
140
3.0
141
0.09
142
0.0
143
25.4
144
1.0
145
0.0
146
1.0
147
0.625
 71
1.0
 72
0.0
 73
0
 74
0
 75
0
 76
0
 77
1
 78
8
 79
2
170
0
171
1
172
0
173
0
174
0
175
0
176
0
177
0
178
0
270
2
179
2
271
2
272
2
273
2
274
2
275
0
280
0
281
0
282
0
283
1
284
8
285
0
286
0
287
3
288
0
340
11
278
44
341
21F
342
21F
343
21F
344
21F
  0
DIMSTYLE
105
224
100
AcDbSymbolTableRecord
100
AcDbDimStyleTableRecord
  2
DIMSTYLE_1
 70
0
  3

  4

 40
1.0
 41
3.0
 42
0.5
 43
0.38
 44
1.5
 45
0.0
 46
0.0
 47
0.0
 48
0.0
140
3.0
141
0.09
142
0.0
143
25.4
144
1.0
145
0.0
146
1.0
147
0.75
 71
0.0
 72
0.0
 73
0
 74
0
 75
0
 76
0
 77
1
 78
8
 79
2
170
0
171
1
172
0
173
0
174
0
175
0
176
0
177
0
178
0
270
2
179
2
271
2
272
2
273
2
274
2
275
0
280
0
281
0
282
0
283
1
284
8
285
0
286
0
287
3
288
0
340
11
278
44
341
21F
342
21F
343
21F
344
21F
  0
ENDTAB
  0
ENDSEC
  0
SECTION
  2
BLOCKS
  0
BLOCK
  5
20
100
AcDbEntity
  8
0
100
AcDbBlockBegin
  2
*Model_Space
 70
0
 10
0.0
 20
0.0
 30
0.0
  3
*Model_Space
  1

  0
ENDBLK
  5
21
100
AcDbEntity
  8
0
100
AcDbBlockEnd
  0
BLOCK
  5
1C
100
AcDbEntity
  8
0
100
AcDbBlockBegin
  2
*Paper_Space
 70
0
 10
0.0
 20
0.0
 30
0.0
  3
*Paper_Space
  1

  0
ENDBLK
  5
1D
100
AcDbEntity
  8
0
100
AcDbBlockEnd
  0
BLOCK
  5
225
100
AcDbEntity
  8
0
100
AcDbBlockBegin
  2
_FILLED
 70
64
 10
0.0
 20
0.0
  3
_FILLED
  1

  0
SOLID
  5
226
100
AcDbEntity
  8
0
  6
BYBLOCK
 62
0
100
AcDbTrace
 10
0.0
 20
0.0
 11
-1.0
 21
0.3166666667
 12
-1.0
 22
-0.3166666667
 13
-1.0
 23
-0.3166666667
  0
ENDBLK
  5
227
100
AcDbEntity
  8
0
  6
BYBLOCK
 62
0
100
AcDbBlockEnd
  0
BLOCK
  5
228
100
AcDbEntity
  8
0
100
AcDbBlockBegin
 62
7
  6
CONTINUOUS
  2
*D0
 70
65
 10
0.0
 20
0.0
  3
*D0
  1

  0
LINE
  5
229
100
AcDbEntity
  8
0
100
AcDbLine
 62
7
  6
CONTINUOUS
 10
67.7055449219
 20
181.7545509861
 11
67.7055449219
 21
195.1037109375
  0
LINE
  5
22A
100
AcDbEntity
  8
0
100
AcDbLine
 62
7
  6
CONTINUOUS
 10
59.1055449219
 20
183.1037109375
 11
59.1055449219
 21
195.1037109375
  0
LINE
  5
22B
100
AcDbEntity
  8
0
100
AcDbLine
 62
7
  6
CONTINUOUS
 10
67.7055449219
 20
193.6037109375
 11
63.4055449219
 21
193.6037109375
  0
LINE
  5
22C
100
AcDbEntity
  8
0
100
AcDbLine
 62
7
  6
CONTINUOUS
 10
63.4055449219
 20
193.6037109375
 11
75.7205460504
 21
193.6037109375
  0
LINE
  5
22D
100
AcDbEntity
  8
0
100
AcDbLine
 62
7
  6
CONTINUOUS
 10
59.1055449219
 20
193.6037109375
 11
63.4055449219
 21
193.6037109375
  0
INSERT
  5
22E
100
AcDbEntity
  8
0
100
AcDbBlockReference
 62
7
  6
CONTINUOUS
  2
_FILLED
 10
67.7055449219
 20
193.6037109375
 41
3.0
 42
3.0
 43
3.0
  0
INSERT
  5
22F
100
AcDbEntity
  8
0
100
AcDbBlockReference
 62
7
  6
CONTINUOUS
  2
_FILLED
 10
59.1055449219
 20
193.6037109375
 41
3.0
 42
3.0
 43
3.0
 50
180.0
  0
ENDBLK
  5
230
100
AcDbEntity
  8
0
  6
BYBLOCK
 62
0
100
AcDbBlockEnd
  0
BLOCK
  5
231
100
AcDbEntity
  8
0
100
AcDbBlockBegin
 62
7
  6
CONTINUOUS
  2
*D1
 70
65
 10
0.0
 20
0.0
  3
*D1
  1

  0
LINE
  5
232
100
AcDbEntity
  8
0
100
AcDbLine
 62
7
  6
CONTINUOUS
 10
99.8164550781
 20
183.1037109375
 11
99.8164550781
 21
195.1037109375
  0
LINE
  5
233
100
AcDbEntity
  8
0
100
AcDbLine
 62
7
  6
CONTINUOUS
 10
255.9164550781
 20
183.1037109375
 11
255.9164550781
 21
195.1037109375
  0
LINE
  5
234
100
AcDbEntity
  8
0
100
AcDbLine
 62
7
  6
CONTINUOUS
 10
99.8164550781
 20
193.6037109375
 11
177.8664550781
 21
193.6037109375
  0
LINE
  5
235
100
AcDbEntity
  8
0
100
AcDbLine
 62
7
  6
CONTINUOUS
 10
255.9164550781
 20
193.6037109375
 11
177.8664550781
 21
193.6037109375
  0
INSERT
  5
236
100
AcDbEntity
  8
0
100
AcDbBlockReference
 62
7
  6
CONTINUOUS
  2
_FILLED
 10
99.8164550781
 20
193.6037109375
 41
3.0
 42
3.0
 43
3.0
 50
180.0
  0
INSERT
  5
237
100
AcDbEntity
  8
0
100
AcDbBlockReference
 62
7
  6
CONTINUOUS
  2
_FILLED
 10
255.9164550781
 20
193.6037109375
 41
3.0
 42
3.0
 43
3.0
  0
ENDBLK
  5
238
100
AcDbEntity
  8
0
  6
BYBLOCK
 62
0
100
AcDbBlockEnd
  0
BLOCK
  5
239
100
AcDbEntity
  8
0
100
AcDbBlockBegin
 62
7
  6
CONTINUOUS
  2
*D2
 70
65
 10
0.0
 20
0.0
  3
*D2
  1

  0
LINE
  5
23A
100
AcDbEntity
  8
0
100
AcDbLine
 62
7
  6
CONTINUOUS
 10
255.4164550781
 20
183.6037109375
 11
267.4164550781
 21
183.6037109375
  0
LINE
  5
23B
100
AcDbEntity
  8
0
100
AcDbLine
 62
7
  6
CONTINUOUS
 10
255.4164550781
 20
27.5037109375
 11
267.4164550781
 21
27.5037109375
  0
LINE
  5
23C
100
AcDbEntity
  8
0
100
AcDbLine
 62
7
  6
CONTINUOUS
 10
265.9164550781
 20
183.6037109375
 11
265.9164550781
 21
105.5537109375
  0
LINE
  5
23D
100
AcDbEntity
  8
0
100
AcDbLine
 62
7
  6
CONTINUOUS
 10
265.9164550781
 20
27.5037109375
 11
265.9164550781
 21
105.5537109375
  0
INSERT
  5
23E
100
AcDbEntity
  8
0
100
AcDbBlockReference
 62
7
  6
CONTINUOUS
  2
_FILLED
 10
265.9164550781
 20
183.6037109375
 41
3.0
 42
3.0
 43
3.0
 50
90.0
  0
INSERT
  5
23F
100
AcDbEntity
  8
0
100
AcDbBlockReference
 62
7
  6
CONTINUOUS
  2
_FILLED
 10
265.9164550781
 20
27.5037109375
 41
3.0
 42
3.0
 43
3.0
 50
270.0
  0
ENDBLK
  5
240
100
AcDbEntity
  8
0
  6
BYBLOCK
 62
0
100
AcDbBlockEnd
  0
ENDSEC
  0
SECTION
  2
ENTITIES
  0
DIMENSION
  5
241
100
AcDbEntity
  8
0
100
AcDbDimension
 62
7
  6
CONTINUOUS
  2
*D0
 10
59.1055449219
 20
193.6037109375
 11
69.2919746219
 21
193.6037109375
 70
160
 71
1
 72
2
 41
0.9
 42
8.6
  3
DIMSTYLE_1
100
AcDbAlignedDimension
 13
67.7055449219
 23
181.2545509861
 14
59.1055449219
 24
182.6037109375
 50
180.0
100
AcDbRotatedDimension
  0
DIMENSION
  5
242
100
AcDbEntity
  8
0
100
AcDbDimension
 62
7
  6
CONTINUOUS
  2
*D1
 10
255.9164550781
 20
193.6037109375
 11
173.0450265067
 21
193.6037109375
 70
160
 71
2
 72
2
 41
0.9
 42
156.1
  3
DIMSTYLE_1
100
AcDbAlignedDimension
 13
99.8164550781
 23
182.6037109375
 14
255.9164550781
 24
182.6037109375
100
AcDbRotatedDimension
  0
DIMENSION
  5
243
100
AcDbEntity
  8
0
100
AcDbDimension
 62
7
  6
CONTINUOUS
  2
*D2
 10
265.9164550781
 20
27.5037109375
 11
265.9164550781
 21
100.7322823661
 70
160
 71
2
 72
2
 41
0.9
 42
156.1
  3
DIMSTYLE_1
100
AcDbAlignedDimension
 13
254.9164550781
 23
183.6037109375
 14
254.9164550781
 24
27.5037109375
 50
270.0
100
AcDbRotatedDimension
  0
LINE
  5
244
100
AcDbEntity
  8
SMUSSO
100
AcDbLine
 62
7
  6
CONTINUOUS
 10
99.8164550781
 20
182.6037109375
 11
100.8164550781
 21
183.6037109375
  0
LINE
  5
245
100
AcDbEntity
  8
SMUSSO
100
AcDbLine
 62
7
  6
CONTINUOUS
 10
100.8164550781
 20
27.5037109375
 11
99.8164550781
 21
28.5037109375
  0
LINE
  5
246
100
AcDbEntity
  8
SMUSSO
100
AcDbLine
 62
7
  6
CONTINUOUS
 10
99.8164550781
 20
182.6037109375
 11
99.8164550781
 21
28.5037109375
  0
LINE
  5
247
100
AcDbEntity
  8
SMUSSO
100
AcDbLine
 62
7
  6
CONTINUOUS
 10
100.8164550781
 20
182.6037109375
 11
100.8164550781
 21
28.5037109375
  0
LINE
  5
248
100
AcDbEntity
  8
SMUSSO
100
AcDbLine
 62
7
  6
CONTINUOUS
 10
100.8164550781
 20
27.5037109375
 11
254.9164550781
 21
27.5037109375
  0
LINE
  5
249
100
AcDbEntity
  8
SMUSSO
100
AcDbLine
 62
7
  6
CONTINUOUS
 10
100.8164550781
 20
28.5037109375
 11
254.9164550781
 21
28.5037109375
  0
LWPOLYLINE
  5
24A
100
AcDbEntity
  8
0
100
AcDbPolyline
 62
7
  6
CONTINUOUS
 90
3
 70
0
 43
0.3500000006
 10
173.0450269775
 20
196.496574646
 10
173.902164917
 20
197.3537125854
 10
173.902164917
 20
194.3537116699
  0
LWPOLYLINE
  5
24B
100
AcDbEntity
  8
0
100
AcDbPolyline
 62
7
  6
CONTINUOUS
 90
10
 70
0
 43
0.3500000006
 10
177.9736063843
 20
197.3537125854
 10
177.3307348022
 20
196.7108591309
 10
176.9021658325
 20
195.853703064
 10
176.9021658325
 20
194.7822806396
 10
177.3307348022
 20
194.3537116699
 10
177.9736063843
 20
194.3537116699
 10
178.402175354
 20
194.7822806396
 10
178.402175354
 20
195.6394185791
 10
177.9736063843
 20
196.0680056763
 10
177.0450281982
 20
196.0680056763
  0
LWPOLYLINE
  5
24C
100
AcDbEntity
  8
0
100
AcDbPolyline
 62
7
  6
CONTINUOUS
 90
3
 70
0
 43
0.3500000006
 10
180.9735891724
 20
196.496574646
 10
181.8307452393
 20
197.3537125854
 10
181.8307452393
 20
194.3537116699
  0
LWPOLYLINE
  5
24D
100
AcDbEntity
  8
0
100
AcDbPolyline
 62
7
  6
CONTINUOUS
 90
7
 70
0
 10
181.6718102111
 20
44.0300480465
 10
181.6766492169
 20
44.0311887842
 10
181.6815495633
 20
44.0327429216
 10
181.6865112504
 20
44.0347104586
 10
181.6915192074
 20
44.0371758874
 10
181.696588505
 20
44.0400547158
 10
181.7070606724
 20
44.0462030785
  0
LWPOLYLINE
  5
24E
100
AcDbEntity
  8
0
100
AcDbPolyline
 62
7
  6
CONTINUOUS
 90
10
 70
0
 10
180.933375285
 20
44.8152496382
 10
180.9755422261
 20
44.8221551105
 10
181.0168632394
 20
44.8277015617
 10
181.0573383248
 20
44.8318889916
 10
181.0965722235
 20
44.8347275372
 10
181.1349601944
 20
44.8362070617
 10
181.1736880136
 20
44.836297154
 10
181.21315094
 20
44.8349876773
 10
181.2529537148
 20
44.8322887684
 10
181.2930963379
 20
44.8282004274
  0
LINE
  5
24F
100
AcDbEntity
  8
0
100
AcDbLine
 62
7
  6
CONTINUOUS
 10
174.2555983851
 20
42.9901953668
 11
174.6602579858
 21
42.9901953668
  0
LINE
  5
250
100
AcDbEntity
  8
0
100
AcDbLine
 62
7
  6
CONTINUOUS
 10
175.5377719459
 20
42.9901953668
 11
175.9969601155
 21
42.9901953668
  0
LINE
  5
251
100
AcDbEntity
  8
0
100
AcDbLine
 62
7
  6
CONTINUOUS
 10
176.2441552471
 20
42.9901953668
 11
176.6834480843
 21
42.9901953668
  0
LINE
  5
252
100
AcDbEntity
  8
0
100
AcDbLine
 62
7
  6
CONTINUOUS
 10
177.3212238648
 20
42.9901953668
 11
177.3856241476
 21
42.9901953668
  0
LINE
  5
253
100
AcDbEntity
  8
0
100
AcDbLine
 62
7
  6
CONTINUOUS
 10
178.0259404042
 20
42.9901953668
 11
178.4751479076
 21
42.9901953668
  0
LINE
  5
254
100
AcDbEntity
  8
0
100
AcDbLine
 62
7
  6
CONTINUOUS
 10
178.5472523805
 20
42.9901953668
 11
179.0014580742
 21
42.9901953668
  0
LINE
  5
255
100
AcDbEntity
  8
0
100
AcDbLine
 62
7
  6
CONTINUOUS
 10
179.8724568917
 20
42.9901953668
 11
180.3564212507
 21
42.9901953668
  0
LINE
  5
256
100
AcDbEntity
  8
0
100
AcDbLine
 62
7
  6
CONTINUOUS
 10
180.4912612099
 20
42.9901949501
 11
180.9486012575
 21
42.9901949501
  0
LINE
  5
257
100
AcDbEntity
  8
0
100
AcDbLine
 62
7
  6
CONTINUOUS
 10
181.6517838506
 20
42.9901949501
 11
182.0934690251
 21
42.9901949501
  0
LINE
  5
258
100
AcDbEntity
  8
0
100
AcDbLine
 62
7
  6
CONTINUOUS
 10
179.128165497
 20
43.429356204
 11
179.7535028971
 21
43.429356204
  0
LINE
  5
259
100
AcDbEntity
  8
RACCORDO
100
AcDbLine
 62
7
  6
CONTINUOUS
 10
181.9450593222
 20
43.5537109375
 11
181.4841915109
 21
43.5537109375
  0
LINE
  5
25A
100
AcDbEntity
  8
RACCORDO
100
AcDbLine
 62
7
  6
CONTINUOUS
 10
180.9486012575
 20
43.5537109375
 11
180.4912612099
 21
43.5537109375
  0
LINE
  5
25B
100
AcDbEntity
  8
RACCORDO
100
AcDbLine
 62
7
  6
CONTINUOUS
 10
180.1835206372
 20
43.5537109375
 11
178.7240069603
 21
43.5537109375
  0
LINE
  5
25C
100
AcDbEntity
  8
RACCORDO
100
AcDbLine
 62
7
  6
CONTINUOUS
 10
178.4224528819
 20
43.5537109375
 11
177.9887753318
 21
43.5537109375
  0
LINE
  5
25D
100
AcDbEntity
  8
RACCORDO
100
AcDbLine
 62
7
  6
CONTINUOUS
 10
177.6007072078
 20
43.5537109375
 11
177.1098982822
 21
43.5537109375
  0
LINE
  5
25E
100
AcDbEntity
  8
RACCORDO
100
AcDbLine
 62
7
  6
CONTINUOUS
 10
176.722322437
 20
43.5537109375
 11
176.2950374782
 21
43.5537109375
  0
LINE
  5
25F
100
AcDbEntity
  8
RACCORDO
100
AcDbLine
 62
7
  6
CONTINUOUS
 10
175.9969601155
 20
43.5537109375
 11
175.5377719459
 21
43.5537109375
  0
LINE
  5
260
100
AcDbEntity
  8
RACCORDO
100
AcDbLine
 62
7
  6
CONTINUOUS
 10
174.841394671
 20
43.5537109375
 11
174.076952917
 21
43.5537109375
  0
LINE
  5
261
100
AcDbEntity
  8
0
100
AcDbLine
 62
7
  6
CONTINUOUS
 10
179.6617346156
 20
43.7691776171
 11
179.2220950165
 21
43.7691776171
  0
LINE
  5
262
100
AcDbEntity
  8
0
100
AcDbLine
 62
7
  6
CONTINUOUS
 10
180.9486012575
 20
43.8510810079
 11
181.1948067189
 21
43.8510810079
  0
LINE
  5
263
100
AcDbEntity
  8
0
100
AcDbLine
 62
7
  6
CONTINUOUS
 10
181.1957964896
 20
44.2113575424
 11
180.933375285
 21
44.2113575424
  0
LINE
  5
264
100
AcDbEntity
  8
0
100
AcDbLine
 62
7
  6
CONTINUOUS
 10
179.6814633766
 20
45.1900098382
 11
179.2372551111
 21
45.1900098382
  0
LINE
  5
265
100
AcDbEntity
  8
0
100
AcDbLine
 62
7
  6
CONTINUOUS
 10
178.2694405836
 20
45.1900098382
 11
177.8151196519
 21
45.1900098382
  0
LINE
  5
266
100
AcDbEntity
  8
0
100
AcDbLine
 62
7
  6
CONTINUOUS
 10
176.9015937886
 20
45.1900098382
 11
176.4427859047
 21
45.1900098382
  0
LINE
  5
267
100
AcDbEntity
  8
0
100
AcDbLine
 62
7
  6
CONTINUOUS
 10
175.367367287
 20
45.1900098382
 11
174.9084923554
 21
45.1900098382
  0
LINE
  5
268
100
AcDbEntity
  8
0
100
AcDbLine
 62
7
  6
CONTINUOUS
 10
174.0570337275
 20
45.1900098382
 11
173.5582141311
 21
45.1900098382
  0
LINE
  5
269
100
AcDbEntity
  8
0
100
AcDbLine
 62
7
  6
CONTINUOUS
 10
175.9969601155
 20
45.1901418382
 11
175.5377719459
 21
45.1901418382
  0
LINE
  5
26A
100
AcDbEntity
  8
RACCORDO
100
AcDbLine
 62
7
  6
CONTINUOUS
 10
133.9664550781
 20
47.4537109375
 11
221.7664550781
 21
47.4537109375
  0
LWPOLYLINE
  5
26B
100
AcDbEntity
  8
0
100
AcDbPolyline
 62
7
  6
CONTINUOUS
 90
16
 70
0
 10
181.1948067189
 20
43.8510810079
 10
181.2174067161
 20
43.850051142
 10
181.2393371731
 20
43.8473264916
 10
181.26059809
 20
43.8429070567
 10
181.2812658996
 20
43.8367639348
 10
181.3012641691
 20
43.8289260284
 10
181.3203635997
 20
43.8194800453
 10
181.3384711605
 20
43.8085031516
 10
181.3556798823
 20
43.7959181811
 10
181.3720395592
 20
43.781580343
 10
181.3876247262
 20
43.7654771018
 10
181.4023608482
 20
43.7476209929
 10
181.4160741142
 20
43.7279048312
 10
181.4287065872
 20
43.7062928884
 10
181.4403162041
 20
43.6828208927
 10
181.4509029649
 20
43.6574888442
  0
LWPOLYLINE
  5
26C
100
AcDbEntity
  8
0
100
AcDbPolyline
 62
7
  6
CONTINUOUS
 90
19
 70
0
 10
181.2930963379
 20
44.8282004274
 10
181.3183337571
 20
44.824098789
 10
181.3425519007
 20
44.818399538
 10
181.3657507687
 20
44.8111026744
 10
181.3880566329
 20
44.802102444
 10
181.4093432215
 20
44.791504601
 10
181.4292317186
 20
44.7796264086
 10
181.4475978898
 20
44.7665626262
 10
181.4645659695
 20
44.7522184944
 10
181.4801298442
 20
44.7366269978
 10
181.494314621
 20
44.7197166643
 10
181.5070951928
 20
44.7015589662
 10
181.5183901251
 20
44.6824013041
 10
181.5282575913
 20
44.6620979522
 10
181.536639418
 20
44.6407946364
 10
181.5432796504
 20
44.6191759358
 10
181.5480929703
 20
44.5974700436
 10
181.5511646959
 20
44.5754487666
 10
181.5524948272
 20
44.5531121049
  0
LWPOLYLINE
  5
26D
100
AcDbEntity
  8
0
100
AcDbPolyline
 62
7
  6
CONTINUOUS
 90
16
 70
0
 10
181.6244661793
 20
45.141148137
 10
181.5690446406
 20
45.1591483659
 10
181.5105589743
 20
45.1745906304
 10
181.4490091804
 20
45.1874749307
 10
181.3842718131
 20
45.1977073345
 10
181.3164703182
 20
45.2053817739
 10
181.2459750333
 20
45.2107800453
 10
181.1729054495
 20
45.2139237828
 10
181.0971420756
 20
45.2147913521
 10
181.0186967759
 20
45.2135996472
 10
180.9375908031
 20
45.210396139
 10
180.8538029044
 20
45.2051333566
 10
180.7672811852
 20
45.1978857805
 10
180.6780083473
 20
45.1886782377
 10
180.5860016889
 20
45.1774859013
 10
180.4912612099
 20
45.1643087714
  0
LINE
  5
26E
100
AcDbEntity
  8
RACCORDO
100
AcDbLine
 62
7
  6
CONTINUOUS
 10
132.7664550781
 20
162.4537109375
 11
132.7664550781
 21
48.6537109375
  0
LWPOLYLINE
  5
26F
100
AcDbEntity
  8
0
100
AcDbPolyline
 62
7
  6
CONTINUOUS
 90
3
 70
0
 43
0.3500000006
 10
179.9736069946
 20
194.6394182739
 10
179.902166748
 20
194.4251337891
 10
179.7593043823
 20
194.1394271851
  0
LINE
  5
270
100
AcDbEntity
  8
0
100
AcDbLine
 62
7
  6
CONTINUOUS
 10
176.7825413179
 20
44.4266329205
 11
177.3212238648
 21
42.9901953668
  0
LINE
  5
271
100
AcDbEntity
  8
0
100
AcDbLine
 62
7
  6
CONTINUOUS
 10
177.3559314823
 20
43.9686662747
 11
176.9015937886
 21
45.1900098382
  0
LINE
  5
272
100
AcDbEntity
  8
0
100
AcDbLine
 62
7
  6
CONTINUOUS
 10
173.5582141311
 20
45.1900098382
 11
174.2555983851
 21
42.9901953668
  0
LWPOLYLINE
  5
273
100
AcDbEntity
  8
0
100
AcDbPolyline
 62
7
  6
CONTINUOUS
 90
5
 70
0
 10
181.4509029649
 20
43.6574888442
 10
181.4722394031
 20
43.5914792428
 10
181.4937611001
 20
43.5234713197
 10
181.5154680559
 20
43.453465075
 10
181.5372793954
 20
43.3815074678
  0
LINE
  5
274
100
AcDbEntity
  8
0
100
AcDbLine
 62
7
  6
CONTINUOUS
 10
180.3564212507
 20
42.9901953668
 11
179.6814633766
 21
45.1900098382
  0
LWPOLYLINE
  5
275
100
AcDbEntity
  8
0
100
AcDbPolyline
 62
7
  6
CONTINUOUS
 90
4
 70
0
 10
181.5372793954
 20
43.3815074678
 10
181.6046337169
 20
43.1531751233
 10
181.6279948418
 20
43.0727546365
 10
181.6517838506
 20
42.9901949501
  0
LINE
  5
276
100
AcDbEntity
  8
0
100
AcDbLine
 62
7
  6
CONTINUOUS
 10
174.4763589465
 20
43.6758096213
 11
174.0570337275
 21
45.1900098382
  0
LINE
  5
277
100
AcDbEntity
  8
0
100
AcDbLine
 62
7
  6
CONTINUOUS
 10
179.7535028971
 20
43.429356204
 11
179.8724568917
 21
42.9901953668
  0
LINE
  5
278
100
AcDbEntity
  8
0
100
AcDbLine
 62
7
  6
CONTINUOUS
 10
181.9906104321
 20
43.3827264338
 11
181.9365240235
 21
43.5854717388
  0
LWPOLYLINE
  5
279
100
AcDbEntity
  8
0
100
AcDbPolyline
 62
7
  6
CONTINUOUS
 90
19
 70
0
 10
181.9365240235
 20
43.5854717388
 10
181.9269412469
 20
43.6219802852
 10
181.9169506983
 20
43.6573381164
 10
181.9065523777
 20
43.6915452326
 10
181.8958618034
 20
43.7247025948
 10
181.8847634572
 20
43.756709242
 10
181.8729107836
 20
43.7872622904
 10
181.8602268595
 20
43.8163633834
 10
181.8467886082
 20
43.8440108777
 10
181.832480244
 20
43.8698969602
 10
181.8172283579
 20
43.8939857874
 10
181.8011063589
 20
43.9163132029
 10
181.7842186885
 20
43.9366789245
 10
181.7664228361
 20
43.9550246382
 10
181.7478613124
 20
43.9714086581
 10
181.7290660907
 20
43.9858056441
 10
181.7102144955
 20
43.9982071493
 10
181.6911292023
 20
44.0086216206
 10
181.6718102111
 20
44.017049058
  0
LINE
  5
27A
100
AcDbEntity
  8
0
100
AcDbLine
 62
7
  6
CONTINUOUS
 10
182.0934690251
 20
42.9901949501
 11
181.9906104321
 21
43.3827264338
  0
LINE
  5
27B
100
AcDbEntity
  8
0
100
AcDbLine
 62
7
  6
CONTINUOUS
 10
179.4507315775
 20
44.5855567228
 11
179.6617346156
 21
43.7691776171
  0
LINE
  5
27C
100
AcDbEntity
  8
0
100
AcDbLine
 62
7
  6
CONTINUOUS
 10
178.4751479076
 20
42.9901953668
 11
178.2694405836
 21
45.1900098382
  0
LINE
  5
27D
100
AcDbEntity
  8
0
100
AcDbLine
 62
7
  6
CONTINUOUS
 10
177.9315991704
 20
44.4206447303
 11
178.0259404042
 21
42.9901953668
  0
LINE
  5
27E
100
AcDbEntity
  8
0
100
AcDbLine
 62
7
  6
CONTINUOUS
 10
175.5377719459
 20
45.1901418382
 11
175.5377719459
 21
42.9901953668
  0
LINE
  5
27F
100
AcDbEntity
  8
0
100
AcDbLine
 62
7
  6
CONTINUOUS
 10
175.9969601155
 20
42.9901953668
 11
175.9969601155
 21
45.1901418382
  0
LINE
  5
280
100
AcDbEntity
  8
SMUSSO
100
AcDbLine
 62
7
  6
CONTINUOUS
 10
255.4164550781
 20
183.1037109375
 11
254.9164550781
 21
182.6037109375
  0
LINE
  5
281
100
AcDbEntity
  8
SMUSSO
100
AcDbLine
 62
7
  6
CONTINUOUS
 10
100.8164550781
 20
28.5037109375
 11
100.3164550781
 21
28.0037109375
  0
LINE
  5
282
100
AcDbEntity
  8
SMUSSO
100
AcDbLine
 62
7
  6
CONTINUOUS
 10
255.4164550781
 20
28.0037109375
 11
254.9164550781
 21
28.5037109375
  0
LINE
  5
283
100
AcDbEntity
  8
SMUSSO
100
AcDbLine
 62
7
  6
CONTINUOUS
 10
100.3164550781
 20
183.1037109375
 11
100.8164550781
 21
182.6037109375
  0
LINE
  5
284
100
AcDbEntity
  8
0
100
AcDbLine
 62
7
  6
CONTINUOUS
 10
180.4912612099
 20
45.1643087714
 11
180.4912612099
 21
42.9901949501
  0
LINE
  5
285
100
AcDbEntity
  8
0
100
AcDbLine
 62
7
  6
CONTINUOUS
 10
180.933375285
 20
44.2113575424
 11
180.933375285
 21
44.8152496382
  0
LINE
  5
286
100
AcDbEntity
  8
0
100
AcDbLine
 62
7
  6
CONTINUOUS
 10
180.9486012575
 20
42.9901949501
 11
180.9486012575
 21
43.8510810079
  0
LINE
  5
287
100
AcDbEntity
  8
0
100
AcDbLine
 62
7
  6
CONTINUOUS
 10
181.6718102111
 20
44.017049058
 11
181.6718102111
 21
44.0300480465
  0
LWPOLYLINE
  5
288
100
AcDbEntity
  8
0
100
AcDbPolyline
 62
7
  6
CONTINUOUS
 90
22
 70
0
 10
181.5524948272
 20
44.5531121049
 10
181.5521481212
 20
44.5218214184
 10
181.5499840456
 20
44.4920337809
 10
181.5460026003
 20
44.4637491923
 10
181.5401752411
 20
44.4369599012
 10
181.5325305122
 20
44.4116736592
 10
181.5231540471
 20
44.3879137205
 10
181.5119875456
 20
44.3656906092
 10
181.4990893079
 20
44.3449938014
 10
181.4847198677
 20
44.3258149793
 10
181.4689773366
 20
44.3081523915
 10
181.4517636031
 20
44.2920077894
 10
181.4330448663
 20
44.2773781098
 10
181.4128432521
 20
44.2643008276
 10
181.3911366347
 20
44.2527384679
 10
181.3678248355
 20
44.2425755424
 10
181.3428095871
 20
44.2337512435
 10
181.3161891569
 20
44.2263263789
 10
181.2881581697
 20
44.2203678831
 10
181.2587815001
 20
44.2158980674
 10
181.2279942734
 20
44.2128946205
 10
181.1957964896
 20
44.2113575424
  0
LINE
  5
289
100
AcDbEntity
  8
0
100
AcDbLine
 62
7
  6
CONTINUOUS
 10
176.6834480843
 20
42.9901953668
 11
176.7825413179
 21
44.4266329205
  0
LINE
  5
28A
100
AcDbEntity
  8
0
100
AcDbLine
 62
7
  6
CONTINUOUS
 10
176.4427859047
 20
45.1900098382
 11
176.2441552471
 21
42.9901953668
  0
LINE
  5
28B
100
AcDbEntity
  8
0
100
AcDbLine
 62
7
  6
CONTINUOUS
 10
174.9084923554
 20
45.1900098382
 11
174.4763589465
 21
43.6758096213
  0
LINE
  5
28C
100
AcDbEntity
  8
0
100
AcDbLine
 62
7
  6
CONTINUOUS
 10
179.2220950165
 20
43.7691776171
 11
179.4507315775
 21
44.5855567228
  0
LINE
  5
28D
100
AcDbEntity
  8
0
100
AcDbLine
 62
7
  6
CONTINUOUS
 10
179.0014580742
 20
42.9901953668
 11
179.128165497
 21
43.429356204
  0
LINE
  5
28E
100
AcDbEntity
  8
0
100
AcDbLine
 62
7
  6
CONTINUOUS
 10
179.2372551111
 20
45.1900098382
 11
178.5472523805
 21
42.9901953668
  0
LINE
  5
28F
100
AcDbEntity
  8
0
100
AcDbLine
 62
7
  6
CONTINUOUS
 10
174.6602579858
 20
42.9901953668
 11
175.367367287
 21
45.1900098382
  0
LINE
  5
290
100
AcDbEntity
  8
0
100
AcDbLine
 62
7
  6
CONTINUOUS
 10
177.8151196519
 20
45.1900098382
 11
177.3559314823
 21
43.9686662747
  0
LINE
  5
291
100
AcDbEntity
  8
0
100
AcDbLine
 62
7
  6
CONTINUOUS
 10
177.3856241476
 20
42.9901953668
 11
177.9315991704
 21
44.4206447303
  0
LWPOLYLINE
  5
292
100
AcDbEntity
  8
0
100
AcDbPolyline
 62
7
  6
CONTINUOUS
 90
3
 70
0
 43
0.3500000006
 10
264.8807479248
 20
107.6608546143
 10
265.0950324097
 20
107.5894234314
 10
265.3807390137
 20
107.4465701294
  0
LWPOLYLINE
  5
293
100
AcDbEntity
  8
0
100
AcDbPolyline
 62
7
  6
CONTINUOUS
 90
10
 70
0
 43
0.3500000006
 10
264.6664634399
 20
107.5894234314
 10
264.8093076782
 20
107.6608546143
 10
264.8807479248
 20
107.6608546143
 10
265.0235921631
 20
107.5179922485
 10
265.0235921631
 20
107.4465701294
 10
264.9521700439
 20
107.3751389465
 10
264.8807479248
 20
107.3751389465
 10
264.7378855591
 20
107.4465701294
 10
264.6664634399
 20
107.5179922485
 10
264.6664634399
 20
107.5894234314
  0
LINE
  5
294
100
AcDbEntity
  8
RACCORDO
100
AcDbLine
 62
7
  6
CONTINUOUS
 10
222.9664550781
 20
48.6537109375
 11
222.9664550781
 21
162.4537109375
  0
LWPOLYLINE
  5
295
100
AcDbEntity
  8
0
100
AcDbPolyline
 62
7
  6
CONTINUOUS
 90
10
 70
0
 43
0.3500000006
 10
179.902166748
 20
194.8537027588
 10
179.9736069946
 20
194.7108585205
 10
179.9736069946
 20
194.6394182739
 10
179.8307446289
 20
194.4965740356
 10
179.7593043823
 20
194.4965740356
 10
179.6878822632
 20
194.5679961548
 10
179.6878822632
 20
194.6394182739
 10
179.7593043823
 20
194.7822806396
 10
179.8307446289
 20
194.8537027588
 10
179.902166748
 20
194.8537027588
  0
LWPOLYLINE
  5
296
100
AcDbEntity
  8
0
100
AcDbPolyline
 62
7
  6
CONTINUOUS
 90
69
 70
0
 10
181.7070606724
 20
44.0462030785
 10
181.7124635422
 20
44.0494726128
 10
181.7179764374
 20
44.0529157889
 10
181.7236006039
 20
44.0565199292
 10
181.7293347958
 20
44.0602977113
 10
181.7351787487
 20
44.064300887
 10
181.7411378962
 20
44.0685394734
 10
181.7472068047
 20
44.0730034534
 10
181.7533689083
 20
44.0777145283
 10
181.7596194222
 20
44.0826741507
 10
181.7659631312
 20
44.087880868
 10
181.7723978238
 20
44.0933520238
 10
181.7789270559
 20
44.0990903977
 10
181.7855472716
 20
44.10509321
 10
181.792245592
 20
44.1113694653
 10
181.7990238827
 20
44.11791249
 10
181.8058802782
 20
44.1247289577
 10
181.8127963032
 20
44.1318478932
 10
181.8197708402
 20
44.1392618471
 10
181.8268050067
 20
44.1469782688
 10
181.8338836795
 20
44.1550485313
 10
181.841008639
 20
44.1634686157
 10
181.8481781047
 20
44.172242541
 10
181.8553716124
 20
44.1814337373
 10
181.8625929632
 20
44.1910392303
 10
181.8698383558
 20
44.2010619944
 10
181.8770759229
 20
44.2115743831
 10
181.884313516
 20
44.2225756882
 10
181.8915432834
 20
44.2340666178
 10
181.8987098025
 20
44.2461216501
 10
181.9058214295
 20
44.2587412649
 10
181.9128698081
 20
44.2719249823
 10
181.9197744466
 20
44.2857458415
 10
181.9265448542
 20
44.3002045984
 10
181.9331715216
 20
44.315300497
 10
181.93954543
 20
44.3311043084
 10
181.9456744773
 20
44.3476190252
 10
181.9515507655
 20
44.3648416547
 10
181.9570415822
 20
44.3828339898
 10
181.9621543305
 20
44.4016061074
 10
181.9668816072
 20
44.4211479307
 10
181.9710684908
 20
44.4414910213
 10
181.9747179
 20
44.4626280499
 10
181.977826916
 20
44.4845663459
 10
181.9802318608
 20
44.5073594597
 10
181.9819500853
 20
44.5309715467
 10
181.9829642385
 20
44.5554384515
 10
181.9830585896
 20
44.5809212581
 10
181.9823214257
 20
44.6074472091
 10
181.9806644597
 20
44.634989062
 10
181.9776070993
 20
44.6636261731
 10
181.9731967959
 20
44.6935188513
 10
181.9673860982
 20
44.7245067879
 10
181.959552059
 20
44.7561884126
 10
181.9496139292
 20
44.788719075
 10
181.9376524578
 20
44.8219434255
 10
181.923286946
 20
44.8549938456
 10
181.906275676
 20
44.8879788786
 10
181.8868603656
 20
44.9207899811
 10
181.8653854678
 20
44.9522339046
 10
181.8415858823
 20
44.9822157695
 10
181.8157267096
 20
45.0108304554
 10
181.7889477045
 20
45.0371693534
 10
181.7611388046
 20
45.0610942546
 10
181.7324100723
 20
45.0827433679
 10
181.7042314494
 20
45.101622711
 10
181.6770929166
 20
45.1175676232
 10
181.6505044932
 20
45.1307427652
 10
181.6244661793
 20
45.141148137
  0
LINE
  5
297
100
AcDbEntity
  8
RACCORDO
100
AcDbLine
 62
7
  6
CONTINUOUS
 10
221.7664550781
 20
163.6537109375
 11
133.9664550781
 21
163.6537109375
  0
LWPOLYLINE
  5
298
100
AcDbEntity
  8
0
100
AcDbPolyline
 62
7
  6
CONTINUOUS
 90
3
 70
0
 43
0.3500000006
 10
263.0235915527
 20
100.7322836609
 10
262.1664536133
 20
101.5894216003
 10
265.1664545288
 20
101.5894216003
  0
LWPOLYLINE
  5
299
100
AcDbEntity
  8
0
100
AcDbPolyline
 62
7
  6
CONTINUOUS
 90
10
 70
0
 43
0.3500000006
 10
262.1664536133
 20
105.6608540039
 10
262.8093070679
 20
105.0180005493
 10
263.6664631348
 20
104.5894225159
 10
264.7378855591
 20
104.5894225159
 10
265.1664545288
 20
105.0180005493
 10
265.1664545288
 20
105.6608540039
 10
264.7378855591
 20
106.0894229736
 10
263.8807476196
 20
106.0894229736
 10
263.4521605225
 20
105.6608540039
 10
263.4521605225
 20
104.7322848816
  0
LWPOLYLINE
  5
29A
100
AcDbEntity
  8
0
100
AcDbPolyline
 62
7
  6
CONTINUOUS
 90
3
 70
0
 43
0.3500000006
 10
263.0235915527
 20
108.6608549194
 10
262.1664536133
 20
109.5179928589
 10
265.1664545288
 20
109.5179928589
  0
LINE
  5
29B
100
AcDbEntity
  8
SMUSSO
100
AcDbLine
 62
7
  6
CONTINUOUS
 10
254.9164550781
 20
28.5037109375
 11
254.9164550781
 21
182.6037109375
  0
LINE
  5
29C
100
AcDbEntity
  8
SMUSSO
100
AcDbLine
 62
7
  6
CONTINUOUS
 10
255.9164550781
 20
28.5037109375
 11
255.9164550781
 21
182.6037109375
  0
LINE
  5
29D
100
AcDbEntity
  8
SMUSSO
100
AcDbLine
 62
7
  6
CONTINUOUS
 10
254.9164550781
 20
182.6037109375
 11
100.8164550781
 21
182.6037109375
  0
LINE
  5
29E
100
AcDbEntity
  8
SMUSSO
100
AcDbLine
 62
7
  6
CONTINUOUS
 10
254.9164550781
 20
183.6037109375
 11
100.8164550781
 21
183.6037109375
  0
LWPOLYLINE
  5
29F
100
AcDbEntity
  8
0
100
AcDbPolyline
 62
7
  6
CONTINUOUS
 90
8
 70
0
 43
0.3500000006
 10
265.1664545288
 20
102.4465686035
 10
265.1664545288
 20
103.303706543
 10
264.7378855591
 20
103.7322845764
 10
263.8807476196
 20
103.7322845764
 10
263.4521605225
 20
103.303706543
 10
263.4521605225
 20
102.4465686035
 10
262.1664536133
 20
102.4465686035
 10
262.1664536133
 20
103.7322845764
  0
LWPOLYLINE
  5
2A0
100
AcDbEntity
  8
0
100
AcDbPolyline
 62
7
  6
CONTINUOUS
 90
8
 70
0
 43
0.3500000006
 10
174.7593209839
 20
194.3537116699
 10
175.6164589233
 20
194.3537116699
 10
176.0450278931
 20
194.7822806396
 10
176.0450278931
 20
195.6394185791
 10
175.6164589233
 20
196.0680056763
 10
174.7593209839
 20
196.0680056763
 10
174.7593209839
 20
197.3537125854
 10
176.0450278931
 20
197.3537125854
  0
LINE
  5
2A1
100
AcDbEntity
  8
SMUSSO
100
AcDbLine
 62
7
  6
CONTINUOUS
 10
255.9164550781
 20
28.5037109375
 11
254.9164550781
 21
27.5037109375
  0
LINE
  5
2A2
100
AcDbEntity
  8
SMUSSO
100
AcDbLine
 62
7
  6
CONTINUOUS
 10
254.9164550781
 20
183.6037109375
 11
255.9164550781
 21
182.6037109375
  0
LINE
  5
2A3
100
AcDbEntity
  8
SMUSSO
100
AcDbLine
 62
7
  6
CONTINUOUS
 10
60.1055449219
 20
27.5037109375
 11
61.6055449219
 21
27.5037109375
  0
LINE
  5
2A4
100
AcDbEntity
  8
0
100
AcDbLine
 62
250
  6
CONTINUOUS
 10
65.2055449219
 20
29.2863686287
 11
67.7055449219
 21
29.8528708889
  0
LINE
  5
2A5
100
AcDbEntity
  8
0
100
AcDbLine
 62
7
  6
CONTINUOUS
 10
62.2555449219
 20
28.152218496
 11
65.2004289584
 21
28.203621638
  0
LINE
  5
2A6
100
AcDbEntity
  8
0
100
AcDbLine
 62
250
  6
CONTINUOUS
 10
62.2555449219
 20
29.1520661911
 11
65.2004289584
 21
29.2034693332
  0
LINE
  5
2A7
100
AcDbEntity
  8
SMUSSO
100
AcDbLine
 62
7
  6
CONTINUOUS
 10
60.1055449219
 20
28.5037109375
 11
61.6055449219
 21
28.5037109375
  0
LWPOLYLINE
  5
2A8
100
AcDbEntity
  8
0
100
AcDbPolyline
 62
7
  6
CONTINUOUS
 90
8
 70
0
 10
65.2004289584
 20
28.203621638
 10
65.1938760579
 20
28.2051664556
 10
65.1879693648
 20
28.2100476964
 10
65.1827054803
 20
28.2182670531
 10
65.1781206167
 20
28.229817233
 10
65.1741723066
 20
28.2446757809
 10
65.1707395028
 20
28.2628011052
 10
65.167806334
 20
28.2841476142
  0
LINE
  5
2A9
100
AcDbEntity
  8
RACCORDO
100
AcDbLine
 62
7
  6
CONTINUOUS
 10
62.1055449219
 20
35.5537109375
 11
62.2555449219
 21
35.5537109375
  0
LINE
  5
2AA
100
AcDbEntity
  8
RACCORDO
100
AcDbLine
 62
250
  6
CONTINUOUS
 10
62.1055449219
 20
36.5537109375
 11
62.2555449219
 21
36.5537109375
  0
LINE
  5
2AB
100
AcDbEntity
  8
SMUSSO
100
AcDbLine
 62
7
  6
CONTINUOUS
 10
60.1055449219
 20
183.6037109375
 11
59.1055449219
 21
182.6037109375
  0
LWPOLYLINE
  5
2AC
100
AcDbEntity
  8
0
100
AcDbPolyline
 62
7
  6
CONTINUOUS
 90
10
 70
0
 43
0.3500000006
 10
74.4348319244
 20
197.3537125854
 10
73.791973938
 20
196.7108591309
 10
73.3634049683
 20
195.853703064
 10
73.3634049683
 20
194.7822806396
 10
73.791973938
 20
194.3537116699
 10
74.4348319244
 20
194.3537116699
 10
74.863405426
 20
194.7822806396
 10
74.863405426
 20
195.6394185791
 10
74.4348319244
 20
196.0680056763
 10
73.5062582703
 20
196.0680056763
  0
LINE
  5
2AD
100
AcDbEntity
  8
SMUSSO
100
AcDbLine
 62
7
  6
CONTINUOUS
 10
59.1055449219
 20
28.5037109375
 11
60.1055449219
 21
27.5037109375
  0
LINE
  5
2AE
100
AcDbEntity
  8
SMUSSO
100
AcDbLine
 62
7
  6
CONTINUOUS
 10
61.6055449219
 20
182.6037109375
 11
62.1055449219
 21
183.1037109375
  0
LINE
  5
2AF
100
AcDbEntity
  8
SMUSSO
100
AcDbLine
 62
7
  6
CONTINUOUS
 10
62.1055449219
 20
28.0037109375
 11
61.6055449219
 21
28.5037109375
  0
LWPOLYLINE
  5
2B0
100
AcDbEntity
  8
0
100
AcDbPolyline
 62
7
  6
CONTINUOUS
 90
3
 70
0
 43
0.3500000006
 10
72.3634046631
 20
194.6394182739
 10
72.2919734802
 20
194.4251337891
 10
72.1491156464
 20
194.1394271851
  0
LWPOLYLINE
  5
2B1
100
AcDbEntity
  8
0
100
AcDbPolyline
 62
7
  6
CONTINUOUS
 90
21
 70
0
 10
65.167806334
 20
28.2841476142
 10
65.1653838752
 20
28.3086554823
 10
65.1633920759
 20
28.336235654
 10
65.1618165891
 20
28.3668066217
 10
65.1606687679
 20
28.4002675332
 10
65.1599079298
 20
28.4364697695
 10
65.159520388
 20
28.4752668658
 10
65.1595191682
 20
28.5165429631
 10
65.1599042377
 20
28.5601765313
 10
65.1606626059
 20
28.6060449135
 10
65.1618079155
 20
28.6539707961
 10
65.1633806743
 20
28.7037359505
 10
65.165369316
 20
28.7551545339
 10
65.1677884194
 20
28.8080581519
 10
65.1707185043
 20
28.8622388562
 10
65.174147297
 20
28.9174975624
 10
65.178091829
 20
28.973653727
 10
65.1826770281
 20
29.0305218226
 10
65.1879465425
 20
29.087910803
 10
65.1938627489
 20
29.1456245275
 10
65.2020030514
 20
29.2176120094
  0
LWPOLYLINE
  5
2B2
100
AcDbEntity
  8
0
100
AcDbPolyline
 62
7
  6
CONTINUOUS
 90
8
 70
0
 10
65.1677860252
 20
182.8231017578
 10
65.1707158094
 20
182.8444728336
 10
65.1741445999
 20
182.8626242217
 10
65.1780893234
 20
182.8775106611
 10
65.1826748873
 20
182.8890926634
 10
65.1879449382
 20
182.8973429559
 10
65.1938618579
 20
182.9022468147
 10
65.2004289584
 20
182.903800237
  0
LINE
  5
2B3
100
AcDbEntity
  8
SMUSSO
100
AcDbLine
 62
7
  6
CONTINUOUS
 10
59.1055449219
 20
28.5037109375
 11
59.1055449219
 21
182.6037109375
  0
LINE
  5
2B4
100
AcDbEntity
  8
SMUSSO
100
AcDbLine
 62
7
  6
CONTINUOUS
 10
60.1055449219
 20
28.5037109375
 11
60.1055449219
 21
182.6037109375
  0
LINE
  5
2B5
100
AcDbEntity
  8
SMUSSO
100
AcDbLine
 62
7
  6
CONTINUOUS
 10
61.6055449219
 20
182.6037109375
 11
61.6055449219
 21
28.5037109375
  0
LINE
  5
2B6
100
AcDbEntity
  8
SMUSSO
100
AcDbLine
 62
7
  6
CONTINUOUS
 10
62.1055449219
 20
183.1037109375
 11
62.1055449219
 21
28.0037109375
  0
LINE
  5
2B7
100
AcDbEntity
  8
0
100
AcDbLine
 62
7
  6
CONTINUOUS
 10
62.2555449219
 20
28.152218496
 11
62.2555449219
 21
182.955203379
  0
LWPOLYLINE
  5
2B8
100
AcDbEntity
  8
0
100
AcDbPolyline
 62
7
  6
CONTINUOUS
 90
7
 70
0
 10
65.2055449219
 20
181.8210532463
 10
65.2054138222
 20
181.8345415714
 10
65.2049940981
 20
181.8481611862
 10
65.2042857497
 20
181.8619120906
 10
65.2032887769
 20
181.8757942847
 10
65.2020031799
 20
181.8898077684
 10
65.1938712995
 20
181.9617013845
  0
LINE
  5
2B9
100
AcDbEntity
  8
0
100
AcDbLine
 62
7
  6
CONTINUOUS
 10
65.2055449219
 20
181.8210532463
 11
65.2055449219
 21
29.2863686287
  0
LINE
  5
2BA
100
AcDbEntity
  8
0
100
AcDbLine
 62
7
  6
CONTINUOUS
 10
67.7055449219
 20
181.4037109375
 11
67.7055449219
 21
29.7037109375
  0
LWPOLYLINE
  5
2BB
100
AcDbEntity
  8
0
100
AcDbPolyline
 62
7
  6
CONTINUOUS
 90
4
 70
0
 43
0.3500000006
 10
69.2919725647
 20
194.7822806396
 10
69.2919725647
 20
195.6394185791
 10
69.7205460663
 20
196.0680056763
 10
70.3634040527
 20
196.0680056763
  0
LWPOLYLINE
  5
2BC
100
AcDbEntity
  8
0
100
AcDbPolyline
 62
7
  6
CONTINUOUS
 90
20
 70
0
 10
65.1938712995
 20
181.9617013845
 10
65.1879610024
 20
182.0193460257
 10
65.1826946816
 20
182.0766931111
 10
65.1781087902
 20
182.133555711
 10
65.1741606516
 20
182.1897323267
 10
65.1707285728
 20
182.2450087625
 10
65.1677967534
 20
182.2991959866
 10
65.1653762792
 20
182.3521039274
 10
65.163386351
 20
182.4035236986
 10
65.1618124751
 20
182.453289308
 10
65.1606661607
 20
182.5012131774
 10
65.1599064493
 20
182.5470709969
 10
65.1595196153
 20
182.5906786013
 10
65.1595188753
 20
182.6319244287
 10
65.1599041974
 20
182.6707056962
 10
65.1606623664
 20
182.7069124221
 10
65.1618071051
 20
182.7403879811
 10
65.1633793032
 20
182.7709764648
 10
65.1653674422
 20
182.7985739399
 10
65.1677860252
 20
182.8231017578
  0
LWPOLYLINE
  5
2BD
100
AcDbEntity
  8
0
100
AcDbPolyline
 62
7
  6
CONTINUOUS
 90
6
 70
0
 10
65.2020030514
 20
29.2176120094
 10
65.2032885714
 20
29.2316242349
 10
65.2042855185
 20
29.2455060095
 10
65.2049938926
 20
29.2592573334
 10
65.2054136937
 20
29.2728782064
 10
65.2055449219
 20
29.2863686287
  0
LINE
  5
2BE
100
AcDbEntity
  8
SMUSSO
100
AcDbLine
 62
7
  6
CONTINUOUS
 10
60.1055449219
 20
28.5037109375
 11
59.6055449219
 21
28.0037109375
  0
LINE
  5
2BF
100
AcDbEntity
  8
SMUSSO
100
AcDbLine
 62
7
  6
CONTINUOUS
 10
59.6055449219
 20
183.1037109375
 11
60.1055449219
 21
182.6037109375
  0
LWPOLYLINE
  5
2C0
100
AcDbEntity
  8
0
100
AcDbPolyline
 62
7
  6
CONTINUOUS
 90
10
 70
0
 43
0.3500000006
 10
72.2919734802
 20
194.8537027588
 10
72.3634046631
 20
194.7108585205
 10
72.3634046631
 20
194.6394182739
 10
72.2205468292
 20
194.4965740356
 10
72.1491156464
 20
194.4965740356
 10
72.0776889954
 20
194.5679961548
 10
72.0776889954
 20
194.6394182739
 10
72.1491156464
 20
194.7822806396
 10
72.2205468292
 20
194.8537027588
 10
72.2919734802
 20
194.8537027588
  0
LINE
  5
2C1
100
AcDbEntity
  8
SMUSSO
100
AcDbLine
 62
7
  6
CONTINUOUS
 10
61.6055449219
 20
27.5037109375
 11
62.1055449219
 21
28.0037109375
  0
LINE
  5
2C2
100
AcDbEntity
  8
SMUSSO
100
AcDbLine
 62
7
  6
CONTINUOUS
 10
62.1055449219
 20
183.1037109375
 11
61.6055449219
 21
183.6037109375
  0
LINE
  5
2C3
100
AcDbEntity
  8
0
100
AcDbLine
 62
7
  6
CONTINUOUS
 10
65.2055449219
 20
28.2037109375
 11
67.7055449219
 21
29.7037109375
  0
LINE
  5
2C4
100
AcDbEntity
  8
0
100
AcDbLine
 62
7
  6
CONTINUOUS
 10
65.2055449219
 20
182.9037109375
 11
67.7055449219
 21
181.4037109375
  0
LINE
  5
2C5
100
AcDbEntity
  8
RACCORDO
100
AcDbLine
 62
250
  6
CONTINUOUS
 10
62.1055449219
 20
174.5537109375
 11
62.2555449219
 21
174.5537109375
  0
LINE
  5
2C6
100
AcDbEntity
  8
RACCORDO
100
AcDbLine
 62
7
  6
CONTINUOUS
 10
62.1055449219
 20
175.5537109375
 11
62.2555449219
 21
175.5537109375
  0
LINE
  5
2C7
100
AcDbEntity
  8
SMUSSO
100
AcDbLine
 62
7
  6
CONTINUOUS
 10
60.1055449219
 20
182.6037109375
 11
61.6055449219
 21
182.6037109375
  0
LINE
  5
2C8
100
AcDbEntity
  8
SMUSSO
100
AcDbLine
 62
7
  6
CONTINUOUS
 10
60.1055449219
 20
183.6037109375
 11
61.6055449219
 21
183.6037109375
  0
LINE
  5
2C9
100
AcDbEntity
  8
0
100
AcDbLine
 62
250
  6
CONTINUOUS
 10
62.2555449219
 20
181.9553556839
 11
65.2004289584
 21
181.9039525418
  0
LINE
  5
2CA
100
AcDbEntity
  8
0
100
AcDbLine
 62
7
  6
CONTINUOUS
 10
62.2555449219
 20
182.955203379
 11
65.2004289584
 21
182.903800237
  0
LINE
  5
2CB
100
AcDbEntity
  8
0
100
AcDbLine
 62
250
  6
CONTINUOUS
 10
65.2055449219
 20
181.8210532463
 11
67.7055449219
 21
181.2545509861
  0
LWPOLYLINE
  5
2CC
100
AcDbEntity
  8
0
100
AcDbPolyline
 62
7
  6
CONTINUOUS
 90
13
 70
0
 43
0.3500000006
 10
69.7205460663
 20
196.0680056763
 10
69.4348303986
 20
196.2822901611
 10
69.4348303986
 20
196.9251436157
 10
69.7205460663
 20
197.3537125854
 10
70.3634040527
 20
197.3537125854
 10
70.6491197205
 20
196.9251436157
 10
70.6491197205
 20
196.2822901611
 10
70.3634040527
 20
196.0680056763
 10
70.7919730225
 20
195.6394185791
 10
70.7919730225
 20
194.7822806396
 10
70.3634040527
 20
194.3537116699
 10
69.7205460663
 20
194.3537116699
 10
69.2919725647
 20
194.7822806396
  0
ARC
  5
2CD
100
AcDbEntity
  8
RACCORDO
100
AcDbCircle
 62
7
  6
CONTINUOUS
 10
133.9664550781
 20
48.6537109375
 40
1.2
100
AcDbArc
 50
180.0
 51
270.0
  0
ARC
  5
2CE
100
AcDbEntity
  8
RACCORDO
100
AcDbCircle
 62
7
  6
CONTINUOUS
 10
221.7664550781
 20
48.6537109375
 40
1.2
100
AcDbArc
 50
270.0
 51
360.0
  0
ARC
  5
2CF
100
AcDbEntity
  8
RACCORDO
100
AcDbCircle
 62
7
  6
CONTINUOUS
 10
221.7664550781
 20
162.4537109375
 40
1.2
100
AcDbArc
 50
0.0
 51
90.0
  0
ARC
  5
2D0
100
AcDbEntity
  8
RACCORDO
100
AcDbCircle
 62
7
  6
CONTINUOUS
 10
133.9664550781
 20
162.4537109375
 40
1.2
100
AcDbArc
 50
90.0
 51
180.0
  0
ENDSEC
  0
SECTION
  2
OBJECTS
  0
DICTIONARY
  5
C
100
AcDbDictionary
280
0
281
1
  3
ACAD_GROUP
350
D
  3
ACAD_MLINESTYLE
350
17
  3
ACAD_LAYOUT
350
1A
  3
ACAD_PLOTSETTINGS
350
19
  3
ACAD_PLOTSTYLENAME
350
E
  0
DICTIONARY
  5
D
102
{ACAD_REACTORS
330
C
102
}
100
AcDbDictionary
280
0
281
1
  0
ACDBDICTIONARYWDFLT
  5
E
102
{ACAD_REACTORS
330
C
102
}
100
AcDbDictionary
281
1
  3
Normal
350
F
100
AcDbDictionaryWithDefault
340
F
  0
DICTIONARY
  5
17
102
{ACAD_REACTORS
330
C
102
}
100
AcDbDictionary
280
0
281
1
  3
Standard
350
18
  0
DICTIONARY
  5
19
102
{ACAD_REACTORS
330
C
102
}
100
AcDbDictionary
281
1
  0
DICTIONARY
  5
1A
102
{ACAD_REACTORS
330
C
102
}
100
AcDbDictionary
281
1
  3
Model
350
2D1
  3
Layout1
350
2D2
  0
ACDBPLACEHOLDER
  5
F
102
{ACAD_REACTORS
330
E
102
}
  0
MLINESTYLE
  5
18
102
{ACAD_REACTORS
330
17
102
}
100
AcDbMlineStyle
  2
STANDARD
 70
0
  3

 62
256
 51
90.0
 52
90.0
 71
2
 49
0.5
 62
256
  6
BYLAYER
 49
-0.5
 62
256
  6
BYLAYER
  0
LAYOUT
  5
2D1
102
{ACAD_REACTORS
330
1A
102
}
100
AcDbPlotSettings
  1

  2
none_device
  4
ISO_A4_(297.00_x_210.00_MM)
  6

 40
0.0
 41
0.0
 42
0.0
 43
0.0
 44
297.0
 45
210.0
 46
0.0
 47
0.0
 48
0.0
 49
0.0
140
0.0
141
0.0
142
1.0
143
1.0
 70
1024
 72
1
 73
0
 74
0
  7

 75
0
147
1.0
148
0.0
149
0.0
100
AcDbLayout
  1
Model
 70
0
 71
0
 10
0.0
 20
0.0
 11
297.0
 21
210.0
 12
0.0
 22
0.0
 32
0.0
 14
0.0
 24
0.0
 34
0.0
 15
0.0
 25
0.0
 35
0.0
146
0.0
 13
0.0
 23
0.0
 33
0.0
 16
1.0
 26
0.0
 36
0.0
 17
0.0
 27
1.0
 37
0.0
 76
0
330
21D
345
0
346
0
  0
LAYOUT
  5
2D2
102
{ACAD_REACTORS
330
1A
102
}
100
AcDbPlotSettings
  1

  2
none_device
  4
ISO_A4_(297.00_x_210.00_MM)
  6

 40
0.0
 41
0.0
 42
0.0
 43
0.0
 44
297.0
 45
210.0
 46
0.0
 47
0.0
 48
0.0
 49
0.0
140
0.0
141
0.0
142
1.0
143
1.0
 70
0
 72
1
 73
0
 74
0
  7

 75
0
147
1.0
148
0.0
149
0.0
100
AcDbLayout
  1
Layout1
 70
0
 71
1
 10
0.0
 20
0.0
 11
297.0
 21
210.0
 12
0.0
 22
0.0
 32
0.0
 14
0.0
 24
0.0
 34
0.0
 15
0.0
 25
0.0
 35
0.0
146
0.0
 13
0.0
 23
0.0
 33
0.0
 16
1.0
 26
0.0
 36
0.0
 17
0.0
 27
1.0
 37
0.0
 76
0
330
21E
345
0
346
0
  0
ENDSEC
  0
EOF
