  0
SECTION
  2
HEADER
  9
$ACADVER
  1
AC1024
  9
$DWGCODEPAGE
  3
ANSI_1252
  9
$EXTMAX
 10
297.0
 20
210.0
 30
0.0
  9
$EXTMIN
 10
0.0
 20
0.0
 30
0.0
  9
$LIMMIN
 10
0.0
 20
0.0
  9
$LIMMAX
 10
297.0
 20
210.0
  9
$VIEWCTR
 10
148.5
 20
105.0
  9
$VIEWSIZE
 40
210.0
  9
$CLAYER
  8
0
  9
$LTSCALE
 40
16.335
  9
$CELTYPE
  6
BYLAYER
  9
$DIMSCALE
 40
1.0
  9
$DIMASZ
 40
3.0
  9
$DIMEXO
 40
0.5
  9
$DIMDLI
 40
11.286
  9
$DIMEXE
 40
1.5
  9
$DIMCEN
 40
2.673
  9
$DIMLFAC
 40
1.0
  9
$DIMBLK
  1
_FILLED
  9
$DIMALT
 70
0
  9
$DIMALTF
 40
0.0393700787
  9
$DIMTXT
 40
3.0
  9
$DIMTOL
 70
1
  9
$DIMLIM
 70
0
  9
$DIMTFAC
 40
1.0
  9
$DIMTP
 40
0.01
  9
$DIMTM
 40
0.01
  9
$DIMGAP
 40
0.625
  9
$DIMDSEP
 70
44
  9
$AUNITS
 70
0
  9
$PDMODE
 70
3
  9
$PDSIZE
 40
3.0
  9
$HANDSEED
  5
3A6
  9
$TILEMODE
 70
1
  9
$MEASUREMENT
 70
1
  9
$INSUNITS
 70
4
  0
ENDSEC
  0
SECTION
  2
CLASSES
  0
CLASS
  1
ACDBDICTIONARYWDFLT
  2
AcDbDictionaryWithDefault
  3
AutoCAD 2000
 90
0
 91
1
280
0
281
0
  0
CLASS
  1
ACDBPLACEHOLDER
  2
AcDbPlaceHolder
  3
AutoCAD 2000
 90
0
 91
1
280
0
281
0
  0
CLASS
  1
LAYOUT
  2
AcDbLayout
  3
AutoCAD 2000
 90
0
 91
0
280
0
281
0
  0
ENDSEC
  0
SECTION
  2
TABLES
  0
TABLE
  2
VPORT
  5
8
100
AcDbSymbolTable
 70
2
  0
VPORT
  5
1F4
100
AcDbSymbolTableRecord
100
AcDbViewportTableRecord
  2
*ACTIVE
 70
0
 10
0.0
 20
0.0
 11
1.0
 21
1.0
 12
148.5
 22
105.0
 13
0.0
 23
0.0
 14
1.0
 24
1.0
 15
0.0
 25
0.0
 16
0.0
 26
0.0
 36
1.0
 17
0.0
 27
0.0
 37
0.0
 40
210.0
 41
1.4142857143
 42
50.0
 43
0.0
 44
0.0
 50
0.0
 51
0.0
 71
0
 72
100
 73
1
 74
1
 75
0
 76
0
 77
0
 78
0
  0
ENDTAB
  0
TABLE
  2
LTYPE
  5
5
100
AcDbSymbolTable
 70
6
  0
LTYPE
  5
14
100
AcDbSymbolTableRecord
100
AcDbLinetypeTableRecord
  2
BYBLOCK
 70
0
  3

 72
65
 73
0
 40
0.0
  0
LTYPE
  5
15
100
AcDbSymbolTableRecord
100
AcDbLinetypeTableRecord
  2
BYLAYER
 70
0
  3

 72
65
 73
0
 40
0.0
  0
LTYPE
  5
16
100
AcDbSymbolTableRecord
100
AcDbLinetypeTableRecord
  2
CONTINUOUS
 70
64
  3
Solid line
 72
65
 73
0
 40
0.0
  0
LTYPE
  5
1F5
100
AcDbSymbolTableRecord
100
AcDbLinetypeTableRecord
  2
CENTER
 70
64
  3
____ _ ____ _ ____ _ ____ _ ____ _ ____ _ ____
 72
65
 73
4
 40
0.6
 49
0.375
 74
0
 49
-0.075
 74
0
 49
0.075
 74
0
 49
-0.075
 74
0
  0
LTYPE
  5
1F6
100
AcDbSymbolTableRecord
100
AcDbLinetypeTableRecord
  2
HIDDEN
 70
64
  3
- - - - - - - - - - - - - - - - - - - -
 72
65
 73
2
 40
0.2
 49
0.1
 74
0
 49
-0.1
 74
0
  0
LTYPE
  5
1F7
100
AcDbSymbolTableRecord
100
AcDbLinetypeTableRecord
  2
PHANTOM
 70
64
  3
_____ _ _ _____ _ _ _____ _ _ _____
 72
65
 73
6
 40
0.8
 49
0.45
 74
0
 49
-0.05
 74
0
 49
0.1
 74
0
 49
-0.05
 74
0
 49
0.1
 74
0
 49
-0.05
 74
0
  0
LTYPE
  5
1F8
100
AcDbSymbolTableRecord
100
AcDbLinetypeTableRecord
  2
DOT
 70
64
  3
. . . . . . . . . . . . . . . . . . . .
 72
65
 73
2
 40
0.2
 49
0.1
 74
0
 49
-0.1
 74
0
  0
LTYPE
  5
1F9
100
AcDbSymbolTableRecord
100
AcDbLinetypeTableRecord
  2
DASHED
 70
64
  3
- - - - - - - - - - - - - - - - - - - -
 72
65
 73
2
 40
0.2
 49
0.1
 74
0
 49
-0.1
 74
0
  0
ENDTAB
  0
TABLE
  2
LAYER
  5
2
100
AcDbSymbolTable
 70
36
  0
LAYER
  5
10
100
AcDbSymbolTableRecord
100
AcDbLayerTableRecord
  2
0
 70
0
 62
7
  6
CONTINUOUS
370
-3
390
F
  0
LAYER
  5
1FA
100
AcDbSymbolTableRecord
100
AcDbLayerTableRecord
  2
DEFAULT_1
 70
0
 62
7
  6
CENTER
370
-3
390
F
  0
LAYER
  5
1FB
100
AcDbSymbolTableRecord
100
AcDbLayerTableRecord
  2
DEFAULT_2
 70
0
 62
7
  6
HIDDEN
370
-3
390
F
  0
LAYER
  5
1FC
100
AcDbSymbolTableRecord
100
AcDbLayerTableRecord
  2
DEFAULT_3
 70
0
 62
7
  6
PHANTOM
370
-3
390
F
  0
LAYER
  5
1FD
100
AcDbSymbolTableRecord
100
AcDbLayerTableRecord
  2
ASSI
 70
0
 62
7
  6
CONTINUOUS
370
-3
390
F
  0
LAYER
  5
1FE
100
AcDbSymbolTableRecord
100
AcDbLayerTableRecord
  2
COORDINATE
 70
0
 62
7
  6
CONTINUOUS
370
-3
390
F
  0
LAYER
  5
1FF
100
AcDbSymbolTableRecord
100
AcDbLayerTableRecord
  2
COORD_ORIGINE
 70
0
 62
7
  6
CONTINUOUS
370
-3
390
F
  0
LAYER
  5
200
100
AcDbSymbolTableRecord
100
AcDbLayerTableRecord
  2
COPY_PUBLISH
 70
0
 62
7
  6
CONTINUOUS
370
-3
390
F
  0
LAYER
  5
201
100
AcDbSymbolTableRecord
100
AcDbLayerTableRecord
  2
COSMETIC
 70
0
 62
7
  6
CONTINUOUS
370
-3
390
F
  0
LAYER
  5
202
100
AcDbSymbolTableRecord
100
AcDbLayerTableRecord
  2
COSMETICI
 70
0
 62
7
  6
CONTINUOUS
370
-3
390
F
  0
LAYER
  5
203
100
AcDbSymbolTableRecord
100
AcDbLayerTableRecord
  2
CURVE
 70
0
 62
7
  6
CONTINUOUS
370
-3
390
F
  0
LAYER
  5
204
100
AcDbSymbolTableRecord
100
AcDbLayerTableRecord
  2
CURVE_TASSELLI
 70
0
 62
7
  6
CONTINUOUS
370
-3
390
F
  0
LAYER
  5
205
100
AcDbSymbolTableRecord
100
AcDbLayerTableRecord
  2
DRAFT
 70
0
 62
7
  6
CONTINUOUS
370
-3
390
F
  0
LAYER
  5
206
100
AcDbSymbolTableRecord
100
AcDbLayerTableRecord
  2
IMPORT_IGES
 70
0
 62
7
  6
CONTINUOUS
370
-3
390
F
  0
LAYER
  5
207
100
AcDbSymbolTableRecord
100
AcDbLayerTableRecord
  2
INTFCLR_2
 70
0
 62
7
  6
CONTINUOUS
370
-3
390
F
  0
LAYER
  5
208
100
AcDbSymbolTableRecord
100
AcDbLayerTableRecord
  2
INTF_1
 70
0
 62
7
  6
CONTINUOUS
370
-3
390
F
  0
LAYER
  5
209
100
AcDbSymbolTableRecord
100
AcDbLayerTableRecord
  2
INTF_2
 70
0
 62
7
  6
CONTINUOUS
370
-3
390
F
  0
LAYER
  5
20A
100
AcDbSymbolTableRecord
100
AcDbLayerTableRecord
  2
INTF_21
 70
0
 62
7
  6
CONTINUOUS
370
-3
390
F
  0
LAYER
  5
20B
100
AcDbSymbolTableRecord
100
AcDbLayerTableRecord
  2
INTF_7
 70
0
 62
7
  6
CONTINUOUS
370
-3
390
F
  0
LAYER
  5
20C
100
AcDbSymbolTableRecord
100
AcDbLayerTableRecord
  2
INTF_CYAN
 70
0
 62
7
  6
CONTINUOUS
370
-3
390
F
  0
LAYER
  5
20D
100
AcDbSymbolTableRecord
100
AcDbLayerTableRecord
  2
NOTE
 70
0
 62
7
  6
CONTINUOUS
370
-3
390
F
  0
LAYER
  5
20E
100
AcDbSymbolTableRecord
100
AcDbLayerTableRecord
  2
PIANI
 70
0
 62
7
  6
CONTINUOUS
370
-3
390
F
  0
LAYER
  5
20F
100
AcDbSymbolTableRecord
100
AcDbLayerTableRecord
  2
PIANI_ORIGINE
 70
0
 62
7
  6
CONTINUOUS
370
-3
390
F
  0
LAYER
  5
210
100
AcDbSymbolTableRecord
100
AcDbLayerTableRecord
  2
PIANI_RIFERIMENTO
 70
0
 62
7
  6
CONTINUOUS
370
-3
390
F
  0
LAYER
  5
211
100
AcDbSymbolTableRecord
100
AcDbLayerTableRecord
  2
PUNTI
 70
0
 62
7
  6
CONTINUOUS
370
-3
390
F
  0
LAYER
  5
212
100
AcDbSymbolTableRecord
100
AcDbLayerTableRecord
  2
RACCORDO
 70
0
 62
7
  6
CONTINUOUS
370
-3
390
F
  0
LAYER
  5
213
100
AcDbSymbolTableRecord
100
AcDbLayerTableRecord
  2
RGB__255__255__255__
 70
0
 62
7
  6
CONTINUOUS
370
-3
390
F
  0
LAYER
  5
214
100
AcDbSymbolTableRecord
100
AcDbLayerTableRecord
  2
RGB____0____0____0__
 70
0
 62
7
  6
CONTINUOUS
370
-3
390
F
  0
LAYER
  5
215
100
AcDbSymbolTableRecord
100
AcDbLayerTableRecord
  2
SIMBOLI
 70
0
 62
7
  6
CONTINUOUS
370
-3
390
F
  0
LAYER
  5
216
100
AcDbSymbolTableRecord
100
AcDbLayerTableRecord
  2
SMUSSO
 70
0
 62
7
  6
CONTINUOUS
370
-3
390
F
  0
LAYER
  5
217
100
AcDbSymbolTableRecord
100
AcDbLayerTableRecord
  2
SUPERFICI
 70
0
 62
7
  6
CONTINUOUS
370
-3
390
F
  0
LAYER
  5
218
100
AcDbSymbolTableRecord
100
AcDbLayerTableRecord
  2
TRASH
 70
0
 62
7
  6
CONTINUOUS
370
-3
390
F
  0
LAYER
  5
219
100
AcDbSymbolTableRecord
100
AcDbLayerTableRecord
  2
XSEC_DATUMS
 70
0
 62
7
  6
CONTINUOUS
370
-3
390
F
  0
ENDTAB
  0
TABLE
  2
STYLE
  5
3
100
AcDbSymbolTable
 70
1
  0
STYLE
  5
11
100
AcDbSymbolTableRecord
100
AcDbTextStyleTableRecord
  2
STANDARD
 70
0
 40
0.0
 41
0.8
 50
0.0
 71
0
 42
0.2
  3
txt
  4

  0
STYLE
  5
21A
100
AcDbSymbolTableRecord
100
AcDbTextStyleTableRecord
  2
TEXTSTYLE_1
 70
0
 40
0.0
 41
0.8
 50
0.0
 71
0
 42
0.2
  3
gdt
  4

  0
ENDTAB
  0
TABLE
  2
VIEW
  5
6
100
AcDbSymbolTable
 70
0
  0
ENDTAB
  0
TABLE
  2
UCS
  5
7
100
AcDbSymbolTable
 70
0
  0
ENDTAB
  0
TABLE
  2
APPID
  5
9
100
AcDbSymbolTable
 70
1
  0
APPID
  5
21B
100
AcDbSymbolTableRecord
100
AcDbRegAppTableRecord
  2
ACAD
 70
0
  0
ENDTAB
  0
TABLE
  2
BLOCK_RECORD
  5
1
100
AcDbSymbolTable
 70
0
  0
BLOCK_RECORD
  5
21C
100
AcDbSymbolTableRecord
100
AcDbBlockTableRecord
  2
*Model_Space
  0
BLOCK_RECORD
  5
21D
100
AcDbSymbolTableRecord
100
AcDbBlockTableRecord
  2
*Paper_Space
  0
BLOCK_RECORD
  5
21E
100
AcDbSymbolTableRecord
100
AcDbBlockTableRecord
  2
_FILLED
  0
BLOCK_RECORD
  5
21F
100
AcDbSymbolTableRecord
100
AcDbBlockTableRecord
  2
*D0
  0
BLOCK_RECORD
  5
220
100
AcDbSymbolTableRecord
100
AcDbBlockTableRecord
  2
*D1
  0
BLOCK_RECORD
  5
221
100
AcDbSymbolTableRecord
100
AcDbBlockTableRecord
  2
*D2
  0
BLOCK_RECORD
  5
222
100
AcDbSymbolTableRecord
100
AcDbBlockTableRecord
  2
*D3
  0
ENDTAB
  0
TABLE
  2
DIMSTYLE
  5
A
100
AcDbSymbolTable
 70
1
100
AcDbDimStyleTable
 71
0
  0
DIMSTYLE
105
223
100
AcDbSymbolTableRecord
100
AcDbDimStyleTableRecord
  2
STANDARD
 70
0
  3

  4

 40
1.0
 41
3.0
 42
0.5
 43
0.38
 44
1.5
 45
0.0
 46
0.0
 47
0.01
 48
0.01
140
3.0
141
0.09
142
0.0
143
25.4
144
1.0
145
0.0
146
1.0
147
0.625
 71
1
 72
0
 73
0
 74
0
 75
0
 76
0
 77
1
 78
8
 79
2
170
0
171
1
172
0
173
0
174
0
175
0
176
0
177
0
178
0
270
2
179
2
271
2
272
2
273
2
274
2
275
0
280
0
281
0
282
0
283
1
284
8
285
0
286
0
287
3
288
0
340
11
278
44
341
21E
342
21E
343
21E
344
21E
  0
DIMSTYLE
105
224
100
AcDbSymbolTableRecord
100
AcDbDimStyleTableRecord
  2
DIMSTYLE_1
 70
0
  3

  4

 40
1.0
 41
3.0
 42
0.5
 43
0.38
 44
1.5
 45
0.0
 46
0.0
 47
0.0
 48
0.0
140
3.0
141
0.09
142
0.0
143
25.4
144
1.0
145
0.0
146
1.0
147
0.75
 71
0
 72
0
 73
0
 74
0
 75
0
 76
0
 77
1
 78
8
 79
2
170
0
171
1
172
0
173
0
174
0
175
0
176
0
177
0
178
0
270
2
179
2
271
2
272
2
273
2
274
2
275
0
280
0
281
0
282
0
283
1
284
8
285
0
286
0
287
3
288
0
340
11
278
44
341
21E
342
21E
343
21E
344
21E
  0
ENDTAB
  0
ENDSEC
  0
SECTION
  2
BLOCKS
  0
BLOCK
  5
20
100
AcDbEntity
  8
0
100
AcDbBlockBegin
  2
*Model_Space
 70
0
 10
0.0
 20
0.0
 30
0.0
  3
*Model_Space
  1

  0
ENDBLK
  5
21
100
AcDbEntity
  8
0
100
AcDbBlockEnd
  0
BLOCK
  5
1C
100
AcDbEntity
  8
0
100
AcDbBlockBegin
  2
*Paper_Space
 70
0
 10
0.0
 20
0.0
 30
0.0
  3
*Paper_Space
  1

  0
ENDBLK
  5
1D
100
AcDbEntity
  8
0
100
AcDbBlockEnd
  0
BLOCK
  5
225
100
AcDbEntity
  8
0
100
AcDbBlockBegin
  2
_FILLED
 70
64
 10
0.0
 20
0.0
  3
_FILLED
  1

  0
SOLID
  5
226
100
AcDbEntity
  8
0
  6
BYBLOCK
 62
0
100
AcDbTrace
 10
0.0
 20
0.0
 11
-1.0
 21
0.3166666667
 12
-1.0
 22
-0.3166666667
 13
-1.0
 23
-0.3166666667
  0
ENDBLK
  5
227
100
AcDbEntity
  8
0
  6
BYBLOCK
 62
0
100
AcDbBlockEnd
  0
BLOCK
  5
228
100
AcDbEntity
  8
0
100
AcDbBlockBegin
 62
7
  6
CONTINUOUS
  2
*D0
 70
65
 10
0.0
 20
0.0
  3
*D0
  1

  0
LINE
  5
229
100
AcDbEntity
  8
0
100
AcDbLine
 62
7
  6
CONTINUOUS
 10
163.5393379934
 20
147.4777629084
 11
163.5393379934
 21
161.5977723145
  0
LINE
  5
22A
100
AcDbEntity
  8
0
100
AcDbLine
 62
7
  6
CONTINUOUS
 10
205.5393379934
 20
147.4777629084
 11
205.5393379934
 21
161.5977723145
  0
LINE
  5
22B
100
AcDbEntity
  8
0
100
AcDbLine
 62
7
  6
CONTINUOUS
 10
163.5393379934
 20
160.0977723145
 11
184.5393379934
 21
160.0977723145
  0
LINE
  5
22C
100
AcDbEntity
  8
0
100
AcDbLine
 62
7
  6
CONTINUOUS
 10
205.5393379934
 20
160.0977723145
 11
184.5393379934
 21
160.0977723145
  0
INSERT
  5
22D
100
AcDbEntity
  8
0
100
AcDbBlockReference
 62
7
  6
CONTINUOUS
  2
_FILLED
 10
163.5393379934
 20
160.0977723145
 41
3.0
 42
3.0
 43
3.0
 50
180.0
  0
INSERT
  5
22E
100
AcDbEntity
  8
0
100
AcDbBlockReference
 62
7
  6
CONTINUOUS
  2
_FILLED
 10
205.5393379934
 20
160.0977723145
 41
3.0
 42
3.0
 43
3.0
  0
ENDBLK
  5
22F
100
AcDbEntity
  8
0
  6
BYBLOCK
 62
0
100
AcDbBlockEnd
  0
BLOCK
  5
230
100
AcDbEntity
  8
0
100
AcDbBlockBegin
 62
7
  6
CONTINUOUS
  2
*D1
 70
65
 10
0.0
 20
0.0
  3
*D1
  1

  0
LINE
  5
231
100
AcDbEntity
  8
0
100
AcDbLine
 62
7
  6
CONTINUOUS
 10
205.0387291913
 20
147.9783717105
 11
220.9302414844
 21
147.9783717105
  0
LINE
  5
232
100
AcDbEntity
  8
0
100
AcDbLine
 62
7
  6
CONTINUOUS
 10
205.0387291913
 20
65.9783717105
 11
220.9302414844
 21
65.9783717105
  0
LINE
  5
233
100
AcDbEntity
  8
0
100
AcDbLine
 62
7
  6
CONTINUOUS
 10
219.4302414844
 20
147.9783717105
 11
219.4302414844
 21
106.9783717105
  0
LINE
  5
234
100
AcDbEntity
  8
0
100
AcDbLine
 62
7
  6
CONTINUOUS
 10
219.4302414844
 20
65.9783717105
 11
219.4302414844
 21
106.9783717105
  0
INSERT
  5
235
100
AcDbEntity
  8
0
100
AcDbBlockReference
 62
7
  6
CONTINUOUS
  2
_FILLED
 10
219.4302414844
 20
147.9783717105
 41
3.0
 42
3.0
 43
3.0
 50
90.0
  0
INSERT
  5
236
100
AcDbEntity
  8
0
100
AcDbBlockReference
 62
7
  6
CONTINUOUS
  2
_FILLED
 10
219.4302414844
 20
65.9783717105
 41
3.0
 42
3.0
 43
3.0
 50
270.0
  0
ENDBLK
  5
237
100
AcDbEntity
  8
0
  6
BYBLOCK
 62
0
100
AcDbBlockEnd
  0
BLOCK
  5
238
100
AcDbEntity
  8
0
100
AcDbBlockBegin
 62
7
  6
CONTINUOUS
  2
*D2
 70
65
 10
0.0
 20
0.0
  3
*D2
  1

  0
LINE
  5
239
100
AcDbEntity
  8
0
100
AcDbLine
 62
7
  6
CONTINUOUS
 10
116.6507953392
 20
146.8551091207
 11
116.6507953392
 21
161.7224557733
  0
LINE
  5
23A
100
AcDbEntity
  8
0
100
AcDbLine
 62
7
  6
CONTINUOUS
 10
123.8007953392
 20
144.6822692301
 11
123.8007953392
 21
161.7224557733
  0
LINE
  5
23B
100
AcDbEntity
  8
0
100
AcDbLine
 62
7
  6
CONTINUOUS
 10
116.6507953392
 20
160.2224557733
 11
120.2257953392
 21
160.2224557733
  0
LINE
  5
23C
100
AcDbEntity
  8
0
100
AcDbLine
 62
7
  6
CONTINUOUS
 10
120.2257953392
 20
160.2224557733
 11
104.7147702572
 21
160.2224557733
  0
LINE
  5
23D
100
AcDbEntity
  8
0
100
AcDbLine
 62
7
  6
CONTINUOUS
 10
123.8007953392
 20
160.2224557733
 11
120.2257953392
 21
160.2224557733
  0
INSERT
  5
23E
100
AcDbEntity
  8
0
100
AcDbBlockReference
 62
7
  6
CONTINUOUS
  2
_FILLED
 10
116.6507953392
 20
160.2224557733
 41
3.0
 42
3.0
 43
3.0
 50
180.0
  0
INSERT
  5
23F
100
AcDbEntity
  8
0
100
AcDbBlockReference
 62
7
  6
CONTINUOUS
  2
_FILLED
 10
123.8007953392
 20
160.2224557733
 41
3.0
 42
3.0
 43
3.0
  0
ENDBLK
  5
240
100
AcDbEntity
  8
0
  6
BYBLOCK
 62
0
100
AcDbBlockEnd
  0
BLOCK
  5
241
100
AcDbEntity
  8
0
100
AcDbBlockBegin
 62
7
  6
CONTINUOUS
  2
*D3
 70
65
 10
0.0
 20
0.0
  3
*D3
  1

  0
LINE
  5
242
100
AcDbEntity
  8
0
100
AcDbLine
 62
7
  6
CONTINUOUS
 10
116.6507953392
 20
146.8551091207
 11
116.6507953392
 21
169.3242881704
  0
LINE
  5
243
100
AcDbEntity
  8
0
100
AcDbLine
 62
7
  6
CONTINUOUS
 10
126.5007953392
 20
133.5246885037
 11
126.5007953392
 21
169.3242881704
  0
LINE
  5
244
100
AcDbEntity
  8
0
100
AcDbLine
 62
7
  6
CONTINUOUS
 10
116.6507953392
 20
167.8242881704
 11
121.5757953392
 21
167.8242881704
  0
LINE
  5
245
100
AcDbEntity
  8
0
100
AcDbLine
 62
7
  6
CONTINUOUS
 10
121.5757953392
 20
167.8242881704
 11
104.6253447946
 21
167.8242881704
  0
LINE
  5
246
100
AcDbEntity
  8
0
100
AcDbLine
 62
7
  6
CONTINUOUS
 10
126.5007953392
 20
167.8242881704
 11
121.5757953392
 21
167.8242881704
  0
INSERT
  5
247
100
AcDbEntity
  8
0
100
AcDbBlockReference
 62
7
  6
CONTINUOUS
  2
_FILLED
 10
116.6507953392
 20
167.8242881704
 41
3.0
 42
3.0
 43
3.0
 50
180.0
  0
INSERT
  5
248
100
AcDbEntity
  8
0
100
AcDbBlockReference
 62
7
  6
CONTINUOUS
  2
_FILLED
 10
126.5007953392
 20
167.8242881704
 41
3.0
 42
3.0
 43
3.0
  0
ENDBLK
  5
249
100
AcDbEntity
  8
0
  6
BYBLOCK
 62
0
100
AcDbBlockEnd
  0
ENDSEC
  0
SECTION
  2
ENTITIES
  0
DIMENSION
  5
24A
100
AcDbEntity
  8
0
100
AcDbDimension
 62
7
  6
CONTINUOUS
  2
*D0
 10
205.5393379934
 20
160.0977723145
 11
182.1821951363
 21
160.0977723145
 70
160
 71
2
 72
2
 41
0.9
 42
42.0
  3
DIMSTYLE_1
100
AcDbAlignedDimension
 13
163.5393379934
 23
146.9777629084
 14
205.5393379934
 24
146.9777629084
100
AcDbRotatedDimension
  0
DIMENSION
  5
24B
100
AcDbEntity
  8
0
100
AcDbDimension
 62
7
  6
CONTINUOUS
  2
*D1
 10
219.4302414844
 20
65.9783717105
 11
219.4302414844
 21
104.6212288534
 70
160
 71
2
 72
2
 41
0.9
 42
82.0
  3
DIMSTYLE_1
100
AcDbAlignedDimension
 13
204.5387291913
 23
147.9783717105
 14
204.5387291913
 24
65.9783717105
 50
270.0
100
AcDbRotatedDimension
  0
DIMENSION
  5
24C
100
AcDbEntity
  8
0
100
AcDbDimension
 62
7
  6
CONTINUOUS
  2
*D2
 10
123.8007953392
 20
160.2224557733
 11
104.7147702572
 21
160.2224557733
 70
160
 71
3
 72
2
 41
0.9
 42
7.15
  3
DIMSTYLE_1
100
AcDbAlignedDimension
 13
116.6507953392
 23
146.3551091207
 14
123.8007953392
 24
144.1822692301
100
AcDbRotatedDimension
  0
DIMENSION
  5
24D
100
AcDbEntity
  8
0
100
AcDbDimension
 62
7
  6
CONTINUOUS
  2
*D3
 10
126.5007953392
 20
167.8242881704
 11
104.6253447946
 21
167.8242881704
 70
160
 71
3
 72
2
 41
0.9
 42
9.85
  3
DIMSTYLE_1
100
AcDbAlignedDimension
 13
116.6507953392
 23
146.3551091207
 14
126.5007953392
 24
133.0246885037
100
AcDbRotatedDimension
  0
LINE
  5
24E
100
AcDbEntity
  8
0
100
AcDbLine
 62
7
  6
CONTINUOUS
 10
164.7193525235
 20
147.7690710329
 11
164.733778339
 21
147.7845401671
  0
LINE
  5
24F
100
AcDbEntity
  8
ASSI
100
AcDbLine
 62
7
  6
CONTINUOUS
 10
164.7193525235
 20
147.7690710329
 11
164.733778339
 21
147.7845401671
  0
LINE
  5
250
100
AcDbEntity
  8
0
100
AcDbLine
 62
7
  6
CONTINUOUS
 10
163.5393379934
 20
146.9777629084
 11
164.5399467955
 21
147.9783717105
  0
LINE
  5
251
100
AcDbEntity
  8
ASSI
100
AcDbLine
 62
7
  6
CONTINUOUS
 10
163.5393379934
 20
146.9777629084
 11
164.5399467955
 21
147.9783717105
  0
LINE
  5
252
100
AcDbEntity
  8
0
100
AcDbLine
 62
7
  6
CONTINUOUS
 10
164.7193525235
 20
147.7690710329
 11
163.7486386711
 21
146.7983571804
  0
LINE
  5
253
100
AcDbEntity
  8
ASSI
100
AcDbLine
 62
7
  6
CONTINUOUS
 10
164.7193525235
 20
147.7690710329
 11
163.7486386711
 21
146.7983571804
  0
LINE
  5
254
100
AcDbEntity
  8
0
100
AcDbLine
 62
7
  6
CONTINUOUS
 10
165.1626005832
 20
146.7496406704
 11
164.7680690336
 21
146.3551091207
  0
LINE
  5
255
100
AcDbEntity
  8
ASSI
100
AcDbLine
 62
7
  6
CONTINUOUS
 10
165.1626005832
 20
146.7496406704
 11
164.7680690336
 21
146.3551091207
  0
LINE
  5
256
100
AcDbEntity
  8
0
100
AcDbLine
 62
7
  6
CONTINUOUS
 10
163.7331695369
 20
146.7839313649
 11
163.7486386711
 21
146.7983571804
  0
LINE
  5
257
100
AcDbEntity
  8
ASSI
100
AcDbLine
 62
7
  6
CONTINUOUS
 10
163.7331695369
 20
146.7839313649
 11
163.7486386711
 21
146.7983571804
  0
LINE
  5
258
100
AcDbEntity
  8
0
100
AcDbLine
 62
7
  6
CONTINUOUS
 10
163.7486386711
 20
67.1583862406
 11
163.7331695369
 21
67.1728120561
  0
LINE
  5
259
100
AcDbEntity
  8
ASSI
100
AcDbLine
 62
7
  6
CONTINUOUS
 10
163.7486386711
 20
67.1583862406
 11
163.7331695369
 21
67.1728120561
  0
LINE
  5
25A
100
AcDbEntity
  8
0
100
AcDbLine
 62
7
  6
CONTINUOUS
 10
164.5399467955
 20
65.9783717105
 11
163.5393379934
 21
66.9789805126
  0
LINE
  5
25B
100
AcDbEntity
  8
ASSI
100
AcDbLine
 62
7
  6
CONTINUOUS
 10
164.5399467955
 20
65.9783717105
 11
163.5393379934
 21
66.9789805126
  0
LINE
  5
25C
100
AcDbEntity
  8
0
100
AcDbLine
 62
7
  6
CONTINUOUS
 10
163.7486386711
 20
67.1583862406
 11
164.7193525235
 21
66.1876723882
  0
LINE
  5
25D
100
AcDbEntity
  8
ASSI
100
AcDbLine
 62
7
  6
CONTINUOUS
 10
163.7486386711
 20
67.1583862406
 11
164.7193525235
 21
66.1876723882
  0
LINE
  5
25E
100
AcDbEntity
  8
0
100
AcDbLine
 62
7
  6
CONTINUOUS
 10
164.7680690336
 20
67.6016343003
 11
165.1626005832
 21
67.2071027507
  0
LINE
  5
25F
100
AcDbEntity
  8
ASSI
100
AcDbLine
 62
7
  6
CONTINUOUS
 10
164.7680690336
 20
67.6016343003
 11
165.1626005832
 21
67.2071027507
  0
LINE
  5
260
100
AcDbEntity
  8
0
100
AcDbLine
 62
7
  6
CONTINUOUS
 10
164.733778339
 20
66.172203254
 11
164.7193525235
 21
66.1876723882
  0
LINE
  5
261
100
AcDbEntity
  8
ASSI
100
AcDbLine
 62
7
  6
CONTINUOUS
 10
164.733778339
 20
66.172203254
 11
164.7193525235
 21
66.1876723882
  0
LINE
  5
262
100
AcDbEntity
  8
0
100
AcDbLine
 62
7
  6
CONTINUOUS
 10
164.5399467955
 20
65.9783717105
 11
204.5387291913
 21
65.9783717105
  0
LINE
  5
263
100
AcDbEntity
  8
ASSI
100
AcDbLine
 62
7
  6
CONTINUOUS
 10
164.5399467955
 20
65.9783717105
 11
204.5387291913
 21
65.9783717105
  0
LINE
  5
264
100
AcDbEntity
  8
0
100
AcDbLine
 62
7
  6
CONTINUOUS
 10
164.733778339
 20
66.172203254
 11
204.3448976478
 21
66.172203254
  0
LINE
  5
265
100
AcDbEntity
  8
ASSI
100
AcDbLine
 62
7
  6
CONTINUOUS
 10
164.733778339
 20
66.172203254
 11
204.3448976478
 21
66.172203254
  0
LINE
  5
266
100
AcDbEntity
  8
0
100
AcDbLine
 62
7
  6
CONTINUOUS
 10
165.1626005832
 20
67.2071027507
 11
203.9160754036
 21
67.2071027507
  0
LINE
  5
267
100
AcDbEntity
  8
ASSI
100
AcDbLine
 62
7
  6
CONTINUOUS
 10
165.1626005832
 20
67.2071027507
 11
203.9160754036
 21
67.2071027507
  0
LINE
  5
268
100
AcDbEntity
  8
0
100
AcDbLine
 62
7
  6
CONTINUOUS
 10
204.3106069533
 20
146.3551091207
 11
205.3300373158
 21
146.7983571804
  0
LINE
  5
269
100
AcDbEntity
  8
ASSI
100
AcDbLine
 62
7
  6
CONTINUOUS
 10
204.3106069533
 20
146.3551091207
 11
205.3300373158
 21
146.7983571804
  0
LINE
  5
26A
100
AcDbEntity
  8
0
100
AcDbLine
 62
7
  6
CONTINUOUS
 10
204.3106069533
 20
67.6016343003
 11
205.3300373158
 21
67.1583862406
  0
LINE
  5
26B
100
AcDbEntity
  8
ASSI
100
AcDbLine
 62
7
  6
CONTINUOUS
 10
204.3106069533
 20
67.6016343003
 11
205.3300373158
 21
67.1583862406
  0
LINE
  5
26C
100
AcDbEntity
  8
0
100
AcDbLine
 62
7
  6
CONTINUOUS
 10
163.5393379934
 20
146.9777629084
 11
163.5393379934
 21
66.9789805126
  0
LINE
  5
26D
100
AcDbEntity
  8
ASSI
100
AcDbLine
 62
7
  6
CONTINUOUS
 10
163.5393379934
 20
146.9777629084
 11
163.5393379934
 21
66.9789805126
  0
LINE
  5
26E
100
AcDbEntity
  8
0
100
AcDbLine
 62
7
  6
CONTINUOUS
 10
163.7331695369
 20
146.7839313649
 11
163.7331695369
 21
67.1728120561
  0
LINE
  5
26F
100
AcDbEntity
  8
ASSI
100
AcDbLine
 62
7
  6
CONTINUOUS
 10
163.7331695369
 20
146.7839313649
 11
163.7331695369
 21
67.1728120561
  0
LINE
  5
270
100
AcDbEntity
  8
0
100
AcDbLine
 62
7
  6
CONTINUOUS
 10
164.7680690336
 20
146.3551091207
 11
164.7680690336
 21
67.6016343003
  0
LINE
  5
271
100
AcDbEntity
  8
ASSI
100
AcDbLine
 62
7
  6
CONTINUOUS
 10
164.7680690336
 20
146.3551091207
 11
164.7680690336
 21
67.6016343003
  0
LINE
  5
272
100
AcDbEntity
  8
0
100
AcDbLine
 62
7
  6
CONTINUOUS
 10
204.3448976478
 20
147.7845401671
 11
204.5387291913
 21
147.9783717105
  0
LINE
  5
273
100
AcDbEntity
  8
ASSI
100
AcDbLine
 62
7
  6
CONTINUOUS
 10
204.3448976478
 20
147.7845401671
 11
204.5387291913
 21
147.9783717105
  0
LINE
  5
274
100
AcDbEntity
  8
0
100
AcDbLine
 62
7
  6
CONTINUOUS
 10
204.3448976478
 20
66.172203254
 11
204.5387291913
 21
65.9783717105
  0
LINE
  5
275
100
AcDbEntity
  8
ASSI
100
AcDbLine
 62
7
  6
CONTINUOUS
 10
204.3448976478
 20
66.172203254
 11
204.5387291913
 21
65.9783717105
  0
LINE
  5
276
100
AcDbEntity
  8
0
100
AcDbLine
 62
7
  6
CONTINUOUS
 10
205.34550645
 20
146.7839313649
 11
205.5393379934
 21
146.9777629084
  0
LINE
  5
277
100
AcDbEntity
  8
ASSI
100
AcDbLine
 62
7
  6
CONTINUOUS
 10
205.34550645
 20
146.7839313649
 11
205.5393379934
 21
146.9777629084
  0
LINE
  5
278
100
AcDbEntity
  8
0
100
AcDbLine
 62
7
  6
CONTINUOUS
 10
205.34550645
 20
67.1728120561
 11
205.5393379934
 21
66.9789805126
  0
LINE
  5
279
100
AcDbEntity
  8
ASSI
100
AcDbLine
 62
7
  6
CONTINUOUS
 10
205.34550645
 20
67.1728120561
 11
205.5393379934
 21
66.9789805126
  0
LINE
  5
27A
100
AcDbEntity
  8
0
100
AcDbLine
 62
7
  6
CONTINUOUS
 10
179.8393379934
 20
104.9783717105
 11
179.8393379934
 21
108.9783717105
  0
LINE
  5
27B
100
AcDbEntity
  8
ASSI
100
AcDbLine
 62
7
  6
CONTINUOUS
 10
179.8393379934
 20
104.9783717105
 11
179.8393379934
 21
108.9783717105
  0
LINE
  5
27C
100
AcDbEntity
  8
0
100
AcDbLine
 62
7
  6
CONTINUOUS
 10
181.0393379934
 20
104.9783717105
 11
181.0393379934
 21
108.9783717105
  0
LINE
  5
27D
100
AcDbEntity
  8
ASSI
100
AcDbLine
 62
7
  6
CONTINUOUS
 10
181.0393379934
 20
104.9783717105
 11
181.0393379934
 21
108.9783717105
  0
LWPOLYLINE
  5
27E
100
AcDbEntity
  8
0
100
AcDbPolyline
 62
7
  6
CONTINUOUS
 90
2
 70
0
 43
0.3500000006
 10
183.1822003784
 20
160.8477647095
 10
183.1822003784
 20
162.347774231
  0
LINE
  5
27F
100
AcDbEntity
  8
0
100
AcDbLine
 62
7
  6
CONTINUOUS
 10
165.1626005832
 20
67.2071027507
 11
164.7193525235
 21
66.1876723882
  0
LINE
  5
280
100
AcDbEntity
  8
ASSI
100
AcDbLine
 62
7
  6
CONTINUOUS
 10
165.1626005832
 20
67.2071027507
 11
164.7193525235
 21
66.1876723882
  0
LWPOLYLINE
  5
281
100
AcDbEntity
  8
0
100
AcDbPolyline
 62
7
  6
CONTINUOUS
 90
4
 70
0
 43
0.3500000006
 10
218.251675415
 20
104.6212271118
 10
217.3945193481
 20
104.6212271118
 10
216.9659503784
 20
105.0497960815
 10
216.9659503784
 20
105.6926585999
  0
LINE
  5
282
100
AcDbEntity
  8
0
100
AcDbLine
 62
250
  6
CONTINUOUS
 10
189.2393379934
 20
104.9783717105
 11
188.0393379934
 21
104.9783717105
  0
LINE
  5
283
100
AcDbEntity
  8
ASSI
100
AcDbLine
 62
250
  6
CONTINUOUS
 10
189.2393379934
 20
104.9783717105
 11
188.0393379934
 21
104.9783717105
  0
LINE
  5
284
100
AcDbEntity
  8
0
100
AcDbLine
 62
250
  6
CONTINUOUS
 10
179.8393379934
 20
104.9783717105
 11
181.0393379934
 21
104.9783717105
  0
LINE
  5
285
100
AcDbEntity
  8
ASSI
100
AcDbLine
 62
250
  6
CONTINUOUS
 10
179.8393379934
 20
104.9783717105
 11
181.0393379934
 21
104.9783717105
  0
LINE
  5
286
100
AcDbEntity
  8
0
100
AcDbLine
 62
7
  6
CONTINUOUS
 10
165.1626005832
 20
146.7496406704
 11
164.7193525235
 21
147.7690710329
  0
LINE
  5
287
100
AcDbEntity
  8
ASSI
100
AcDbLine
 62
7
  6
CONTINUOUS
 10
165.1626005832
 20
146.7496406704
 11
164.7193525235
 21
147.7690710329
  0
LINE
  5
288
100
AcDbEntity
  8
0
100
AcDbLine
 62
7
  6
CONTINUOUS
 10
188.0393379934
 20
108.9783717105
 11
188.0393379934
 21
104.9783717105
  0
LINE
  5
289
100
AcDbEntity
  8
ASSI
100
AcDbLine
 62
7
  6
CONTINUOUS
 10
188.0393379934
 20
108.9783717105
 11
188.0393379934
 21
104.9783717105
  0
LINE
  5
28A
100
AcDbEntity
  8
0
100
AcDbLine
 62
7
  6
CONTINUOUS
 10
203.9160754036
 20
146.7496406704
 11
204.3593234633
 21
147.7690710329
  0
LINE
  5
28B
100
AcDbEntity
  8
ASSI
100
AcDbLine
 62
7
  6
CONTINUOUS
 10
203.9160754036
 20
146.7496406704
 11
204.3593234633
 21
147.7690710329
  0
LINE
  5
28C
100
AcDbEntity
  8
0
100
AcDbLine
 62
250
  6
CONTINUOUS
 10
189.2393379934
 20
108.9783717105
 11
188.0393379934
 21
108.9783717105
  0
LINE
  5
28D
100
AcDbEntity
  8
ASSI
100
AcDbLine
 62
250
  6
CONTINUOUS
 10
189.2393379934
 20
108.9783717105
 11
188.0393379934
 21
108.9783717105
  0
LINE
  5
28E
100
AcDbEntity
  8
0
100
AcDbLine
 62
250
  6
CONTINUOUS
 10
179.8393379934
 20
108.9783717105
 11
181.0393379934
 21
108.9783717105
  0
LINE
  5
28F
100
AcDbEntity
  8
ASSI
100
AcDbLine
 62
250
  6
CONTINUOUS
 10
179.8393379934
 20
108.9783717105
 11
181.0393379934
 21
108.9783717105
  0
LINE
  5
290
100
AcDbEntity
  8
0
100
AcDbLine
 62
7
  6
CONTINUOUS
 10
203.9160754036
 20
67.2071027507
 11
204.3593234633
 21
66.1876723882
  0
LINE
  5
291
100
AcDbEntity
  8
ASSI
100
AcDbLine
 62
7
  6
CONTINUOUS
 10
203.9160754036
 20
67.2071027507
 11
204.3593234633
 21
66.1876723882
  0
LINE
  5
292
100
AcDbEntity
  8
0
100
AcDbLine
 62
7
  6
CONTINUOUS
 10
189.2393379934
 20
108.9783717105
 11
189.2393379934
 21
104.9783717105
  0
LINE
  5
293
100
AcDbEntity
  8
ASSI
100
AcDbLine
 62
7
  6
CONTINUOUS
 10
189.2393379934
 20
108.9783717105
 11
189.2393379934
 21
104.9783717105
  0
LINE
  5
294
100
AcDbEntity
  8
0
100
AcDbLine
 62
7
  6
CONTINUOUS
 10
163.7331695369
 20
67.1728120561
 11
163.5393379934
 21
66.9789805126
  0
LINE
  5
295
100
AcDbEntity
  8
ASSI
100
AcDbLine
 62
7
  6
CONTINUOUS
 10
163.7331695369
 20
67.1728120561
 11
163.5393379934
 21
66.9789805126
  0
LINE
  5
296
100
AcDbEntity
  8
0
100
AcDbLine
 62
7
  6
CONTINUOUS
 10
163.7331695369
 20
146.7839313649
 11
163.5393379934
 21
146.9777629084
  0
LINE
  5
297
100
AcDbEntity
  8
ASSI
100
AcDbLine
 62
7
  6
CONTINUOUS
 10
163.7331695369
 20
146.7839313649
 11
163.5393379934
 21
146.9777629084
  0
LINE
  5
298
100
AcDbEntity
  8
0
100
AcDbLine
 62
7
  6
CONTINUOUS
 10
164.733778339
 20
66.172203254
 11
164.5399467955
 21
65.9783717105
  0
LINE
  5
299
100
AcDbEntity
  8
ASSI
100
AcDbLine
 62
7
  6
CONTINUOUS
 10
164.733778339
 20
66.172203254
 11
164.5399467955
 21
65.9783717105
  0
LINE
  5
29A
100
AcDbEntity
  8
0
100
AcDbLine
 62
7
  6
CONTINUOUS
 10
164.733778339
 20
147.7845401671
 11
164.5399467955
 21
147.9783717105
  0
LINE
  5
29B
100
AcDbEntity
  8
ASSI
100
AcDbLine
 62
7
  6
CONTINUOUS
 10
164.733778339
 20
147.7845401671
 11
164.5399467955
 21
147.9783717105
  0
LINE
  5
29C
100
AcDbEntity
  8
0
100
AcDbLine
 62
7
  6
CONTINUOUS
 10
204.3106069533
 20
67.6016343003
 11
204.3106069533
 21
146.3551091207
  0
LINE
  5
29D
100
AcDbEntity
  8
ASSI
100
AcDbLine
 62
7
  6
CONTINUOUS
 10
204.3106069533
 20
67.6016343003
 11
204.3106069533
 21
146.3551091207
  0
LINE
  5
29E
100
AcDbEntity
  8
0
100
AcDbLine
 62
7
  6
CONTINUOUS
 10
205.34550645
 20
67.1728120561
 11
205.34550645
 21
146.7839313649
  0
LINE
  5
29F
100
AcDbEntity
  8
ASSI
100
AcDbLine
 62
7
  6
CONTINUOUS
 10
205.34550645
 20
67.1728120561
 11
205.34550645
 21
146.7839313649
  0
LINE
  5
2A0
100
AcDbEntity
  8
CURVE
100
AcDbLine
 62
250
  6
CONTINUOUS
 10
205.5393379934
 20
77.6590387105
 11
205.5393379934
 21
76.0143347105
  0
LINE
  5
2A1
100
AcDbEntity
  8
CURVE
100
AcDbLine
 62
250
  6
CONTINUOUS
 10
205.5393379934
 20
75.9487847105
 11
205.5393379934
 21
73.9206037105
  0
LINE
  5
2A2
100
AcDbEntity
  8
CURVE
100
AcDbLine
 62
250
  6
CONTINUOUS
 10
205.5393379934
 20
73.6958797105
 11
205.5393379934
 21
73.2784357105
  0
LINE
  5
2A3
100
AcDbEntity
  8
CURVE
100
AcDbLine
 62
250
  6
CONTINUOUS
 10
205.5393379934
 20
73.1235207105
 11
205.5393379934
 21
71.4788327105
  0
LINE
  5
2A4
100
AcDbEntity
  8
CURVE
100
AcDbLine
 62
250
  6
CONTINUOUS
 10
205.5393379934
 20
77.7816205422
 11
205.5393379934
 21
79.2381773292
  0
LINE
  5
2A5
100
AcDbEntity
  8
0
100
AcDbLine
 62
7
  6
CONTINUOUS
 10
205.5393379934
 20
66.9789805126
 11
205.5393379934
 21
146.9777629084
  0
LINE
  5
2A6
100
AcDbEntity
  8
ASSI
100
AcDbLine
 62
7
  6
CONTINUOUS
 10
205.5393379934
 20
66.9789805126
 11
205.5393379934
 21
146.9777629084
  0
LWPOLYLINE
  5
2A7
100
AcDbEntity
  8
0
100
AcDbPolyline
 62
7
  6
CONTINUOUS
 90
13
 70
0
 43
0.3500000006
 10
216.9659503784
 20
105.0497960815
 10
216.7516658936
 20
104.7640894775
 10
216.108812439
 20
104.7640894775
 10
215.6802434692
 20
105.0497960815
 10
215.6802434692
 20
105.6926585999
 10
216.108812439
 20
105.9783742676
 10
216.7516658936
 20
105.9783742676
 10
216.9659503784
 20
105.6926585999
 10
217.3945193481
 20
106.1212275696
 10
218.251675415
 20
106.1212275696
 10
218.6802443848
 20
105.6926585999
 10
218.6802443848
 20
105.0497960815
 10
218.251675415
 20
104.6212271118
  0
LINE
  5
2A8
100
AcDbEntity
  8
0
100
AcDbLine
 62
7
  6
CONTINUOUS
 10
164.7680690336
 20
67.6016343003
 11
163.7486386711
 21
67.1583862406
  0
LINE
  5
2A9
100
AcDbEntity
  8
ASSI
100
AcDbLine
 62
7
  6
CONTINUOUS
 10
164.7680690336
 20
67.6016343003
 11
163.7486386711
 21
67.1583862406
  0
LINE
  5
2AA
100
AcDbEntity
  8
0
100
AcDbLine
 62
7
  6
CONTINUOUS
 10
164.7680690336
 20
146.3551091207
 11
163.7486386711
 21
146.7983571804
  0
LINE
  5
2AB
100
AcDbEntity
  8
ASSI
100
AcDbLine
 62
7
  6
CONTINUOUS
 10
164.7680690336
 20
146.3551091207
 11
163.7486386711
 21
146.7983571804
  0
LWPOLYLINE
  5
2AC
100
AcDbEntity
  8
0
100
AcDbPolyline
 62
7
  6
CONTINUOUS
 90
7
 70
0
 43
0.3500000006
 10
218.6802443848
 20
108.4783750305
 10
218.6802443848
 20
106.9783745728
 10
216.5373814087
 20
108.4783750305
 10
216.108812439
 20
108.4783750305
 10
215.6802434692
 20
108.0497969971
 10
215.6802434692
 20
107.4069435425
 10
216.3230969238
 20
106.9783745728
  0
LINE
  5
2AD
100
AcDbEntity
  8
0
100
AcDbLine
 62
7
  6
CONTINUOUS
 10
204.3593234633
 20
66.1876723882
 11
204.3448976478
 21
66.172203254
  0
LINE
  5
2AE
100
AcDbEntity
  8
ASSI
100
AcDbLine
 62
7
  6
CONTINUOUS
 10
204.3593234633
 20
66.1876723882
 11
204.3448976478
 21
66.172203254
  0
LINE
  5
2AF
100
AcDbEntity
  8
0
100
AcDbLine
 62
7
  6
CONTINUOUS
 10
203.9160754036
 20
67.2071027507
 11
204.3106069533
 21
67.6016343003
  0
LINE
  5
2B0
100
AcDbEntity
  8
ASSI
100
AcDbLine
 62
7
  6
CONTINUOUS
 10
203.9160754036
 20
67.2071027507
 11
204.3106069533
 21
67.6016343003
  0
LINE
  5
2B1
100
AcDbEntity
  8
0
100
AcDbLine
 62
7
  6
CONTINUOUS
 10
203.9160754036
 20
146.7496406704
 11
165.1626005832
 21
146.7496406704
  0
LINE
  5
2B2
100
AcDbEntity
  8
ASSI
100
AcDbLine
 62
7
  6
CONTINUOUS
 10
203.9160754036
 20
146.7496406704
 11
165.1626005832
 21
146.7496406704
  0
LINE
  5
2B3
100
AcDbEntity
  8
0
100
AcDbLine
 62
7
  6
CONTINUOUS
 10
204.3448976478
 20
147.7845401671
 11
164.733778339
 21
147.7845401671
  0
LINE
  5
2B4
100
AcDbEntity
  8
ASSI
100
AcDbLine
 62
7
  6
CONTINUOUS
 10
204.3448976478
 20
147.7845401671
 11
164.733778339
 21
147.7845401671
  0
LINE
  5
2B5
100
AcDbEntity
  8
0
100
AcDbLine
 62
7
  6
CONTINUOUS
 10
204.5387291913
 20
147.9783717105
 11
164.5399467955
 21
147.9783717105
  0
LINE
  5
2B6
100
AcDbEntity
  8
ASSI
100
AcDbLine
 62
7
  6
CONTINUOUS
 10
204.5387291913
 20
147.9783717105
 11
164.5399467955
 21
147.9783717105
  0
LINE
  5
2B7
100
AcDbEntity
  8
0
100
AcDbLine
 62
7
  6
CONTINUOUS
 10
204.3106069533
 20
146.3551091207
 11
203.9160754036
 21
146.7496406704
  0
LINE
  5
2B8
100
AcDbEntity
  8
ASSI
100
AcDbLine
 62
7
  6
CONTINUOUS
 10
204.3106069533
 20
146.3551091207
 11
203.9160754036
 21
146.7496406704
  0
LINE
  5
2B9
100
AcDbEntity
  8
0
100
AcDbLine
 62
7
  6
CONTINUOUS
 10
204.3448976478
 20
147.7845401671
 11
204.3593234633
 21
147.7690710329
  0
LINE
  5
2BA
100
AcDbEntity
  8
ASSI
100
AcDbLine
 62
7
  6
CONTINUOUS
 10
204.3448976478
 20
147.7845401671
 11
204.3593234633
 21
147.7690710329
  0
LINE
  5
2BB
100
AcDbEntity
  8
0
100
AcDbLine
 62
7
  6
CONTINUOUS
 10
204.3593234633
 20
66.1876723882
 11
205.3300373158
 21
67.1583862406
  0
LINE
  5
2BC
100
AcDbEntity
  8
ASSI
100
AcDbLine
 62
7
  6
CONTINUOUS
 10
204.3593234633
 20
66.1876723882
 11
205.3300373158
 21
67.1583862406
  0
LINE
  5
2BD
100
AcDbEntity
  8
0
100
AcDbLine
 62
7
  6
CONTINUOUS
 10
205.5393379934
 20
66.9789805126
 11
204.5387291913
 21
65.9783717105
  0
LINE
  5
2BE
100
AcDbEntity
  8
ASSI
100
AcDbLine
 62
7
  6
CONTINUOUS
 10
205.5393379934
 20
66.9789805126
 11
204.5387291913
 21
65.9783717105
  0
LINE
  5
2BF
100
AcDbEntity
  8
0
100
AcDbLine
 62
7
  6
CONTINUOUS
 10
205.34550645
 20
67.1728120561
 11
205.3300373158
 21
67.1583862406
  0
LINE
  5
2C0
100
AcDbEntity
  8
ASSI
100
AcDbLine
 62
7
  6
CONTINUOUS
 10
205.34550645
 20
67.1728120561
 11
205.3300373158
 21
67.1583862406
  0
LINE
  5
2C1
100
AcDbEntity
  8
0
100
AcDbLine
 62
7
  6
CONTINUOUS
 10
205.3300373158
 20
146.7983571804
 11
205.34550645
 21
146.7839313649
  0
LINE
  5
2C2
100
AcDbEntity
  8
ASSI
100
AcDbLine
 62
7
  6
CONTINUOUS
 10
205.3300373158
 20
146.7983571804
 11
205.34550645
 21
146.7839313649
  0
LINE
  5
2C3
100
AcDbEntity
  8
0
100
AcDbLine
 62
7
  6
CONTINUOUS
 10
205.3300373158
 20
146.7983571804
 11
204.3593234633
 21
147.7690710329
  0
LINE
  5
2C4
100
AcDbEntity
  8
ASSI
100
AcDbLine
 62
7
  6
CONTINUOUS
 10
205.3300373158
 20
146.7983571804
 11
204.3593234633
 21
147.7690710329
  0
LINE
  5
2C5
100
AcDbEntity
  8
0
100
AcDbLine
 62
7
  6
CONTINUOUS
 10
204.5387291913
 20
147.9783717105
 11
205.5393379934
 21
146.9777629084
  0
LINE
  5
2C6
100
AcDbEntity
  8
ASSI
100
AcDbLine
 62
7
  6
CONTINUOUS
 10
204.5387291913
 20
147.9783717105
 11
205.5393379934
 21
146.9777629084
  0
LWPOLYLINE
  5
2C7
100
AcDbEntity
  8
0
100
AcDbPolyline
 62
7
  6
CONTINUOUS
 90
7
 70
0
 43
0.3500000006
 10
186.0393389282
 20
160.8477647095
 10
184.5393294067
 20
160.8477647095
 10
186.0393389282
 20
162.9906276855
 10
186.0393389282
 20
163.4191966553
 10
185.6107699585
 20
163.847765625
 10
184.9679165039
 20
163.847765625
 10
184.5393294067
 20
163.2049121704
  0
LWPOLYLINE
  5
2C8
100
AcDbEntity
  8
0
100
AcDbPolyline
 62
7
  6
CONTINUOUS
 90
3
 70
0
 43
0.3500000006
 10
183.6821914673
 20
161.4906362915
 10
182.1822000732
 20
161.4906362915
 10
182.8250535278
 20
163.847765625
  0
LWPOLYLINE
  5
2C9
100
AcDbEntity
  8
0
100
AcDbPolyline
 62
7
  6
CONTINUOUS
 90
10
 70
0
 43
0.3500000006
 10
105.053915863
 20
168.5742965698
 10
105.9110628662
 20
169.4314345093
 10
106.1253473511
 20
170.2885724487
 10
106.1253473511
 20
171.1457103882
 10
105.6967693176
 20
171.5742793579
 10
105.053915863
 20
171.5742793579
 10
104.6253468933
 20
171.1457103882
 10
104.6253468933
 20
170.2885724487
 10
105.053915863
 20
169.860003479
 10
105.9824849854
 20
169.860003479
  0
LWPOLYLINE
  5
2CA
100
AcDbEntity
  8
0
100
AcDbPolyline
 62
7
  6
CONTINUOUS
 90
3
 70
0
 43
0.3500000006
 10
108.7862019653
 20
163.1153082275
 10
109.6433399048
 20
163.9724642944
 10
109.6433399048
 20
160.9724633789
  0
LINE
  5
2CB
100
AcDbEntity
  8
0
100
AcDbLine
 62
7
  6
CONTINUOUS
 10
117.6501861662
 20
66.172203254
 11
123.2007953392
 21
65.9783717105
  0
LINE
  5
2CC
100
AcDbEntity
  8
ASSI
100
AcDbLine
 62
7
  6
CONTINUOUS
 10
117.6501861662
 20
66.172203254
 11
123.2007953392
 21
65.9783717105
  0
LINE
  5
2CD
100
AcDbEntity
  8
0
100
AcDbLine
 62
7
  6
CONTINUOUS
 10
117.6501861662
 20
67.1728120561
 11
123.2007953392
 21
66.9789805126
  0
LINE
  5
2CE
100
AcDbEntity
  8
ASSI
100
AcDbLine
 62
7
  6
CONTINUOUS
 10
117.6501861662
 20
67.1728120561
 11
123.2007953392
 21
66.9789805126
  0
LINE
  5
2CF
100
AcDbEntity
  8
0
100
AcDbLine
 62
7
  6
CONTINUOUS
 10
123.2007953392
 20
68.2203277977
 11
123.8007953392
 21
68.1783717105
  0
LINE
  5
2D0
100
AcDbEntity
  8
0
100
AcDbLine
 62
7
  6
CONTINUOUS
 10
116.6507953392
 20
146.3551091207
 11
117.635247797
 21
146.7983571804
  0
LINE
  5
2D1
100
AcDbEntity
  8
ASSI
100
AcDbLine
 62
7
  6
CONTINUOUS
 10
116.6507953392
 20
146.3551091207
 11
117.635247797
 21
146.7983571804
  0
LINE
  5
2D2
100
AcDbEntity
  8
0
100
AcDbLine
 62
250
  6
CONTINUOUS
 10
123.2007953392
 20
69.8164302781
 11
123.8007953392
 21
69.7744741909
  0
LINE
  5
2D3
100
AcDbEntity
  8
0
100
AcDbLine
 62
7
  6
CONTINUOUS
 10
116.6507953392
 20
67.6016343003
 11
117.635247797
 21
67.1583862406
  0
LINE
  5
2D4
100
AcDbEntity
  8
ASSI
100
AcDbLine
 62
7
  6
CONTINUOUS
 10
116.6507953392
 20
67.6016343003
 11
117.635247797
 21
67.1583862406
  0
LWPOLYLINE
  5
2D5
100
AcDbEntity
  8
0
100
AcDbPolyline
 62
7
  6
CONTINUOUS
 90
3
 70
0
 43
0.3500000006
 10
107.696769928
 20
168.8600031738
 10
107.6253478088
 20
168.645718689
 10
107.4824854431
 20
168.3599939575
  0
LINE
  5
2D6
100
AcDbEntity
  8
CURVE
100
AcDbLine
 62
250
  6
CONTINUOUS
 10
118.9479423392
 20
71.9323057105
 11
120.3244933392
 21
72.3135117105
  0
LINE
  5
2D7
100
AcDbEntity
  8
CURVE
100
AcDbLine
 62
250
  6
CONTINUOUS
 10
118.9478223392
 20
73.2784357105
 11
120.9477803392
 21
73.2784357105
  0
LINE
  5
2D8
100
AcDbEntity
  8
CURVE
100
AcDbLine
 62
250
  6
CONTINUOUS
 10
120.9477803392
 20
73.6958797105
 11
118.9478223392
 21
73.6958797105
  0
LINE
  5
2D9
100
AcDbEntity
  8
CURVE
100
AcDbLine
 62
250
  6
CONTINUOUS
 10
120.9477803392
 20
73.9206037105
 11
118.9479423392
 21
74.1011777105
  0
LINE
  5
2DA
100
AcDbEntity
  8
CURVE
100
AcDbLine
 62
250
  6
CONTINUOUS
 10
120.3244933392
 20
72.3135117105
 11
118.9479423392
 21
72.7063607105
  0
LINE
  5
2DB
100
AcDbEntity
  8
CURVE
100
AcDbLine
 62
250
  6
CONTINUOUS
 10
118.9479423392
 20
73.1235207105
 11
120.9477803392
 21
72.4806927105
  0
LWPOLYLINE
  5
2DC
100
AcDbEntity
  8
0
100
AcDbPolyline
 62
7
  6
CONTINUOUS
 90
3
 70
0
 43
0.3500000006
 10
107.7862016602
 20
161.2581699829
 10
107.7147704773
 20
161.043885498
 10
107.5719171753
 20
160.758178894
  0
LINE
  5
2DD
100
AcDbEntity
  8
0
100
AcDbLine
 62
7
  6
CONTINUOUS
 10
116.6507953392
 20
146.7496406704
 11
117.6501861662
 21
147.7845401671
  0
LINE
  5
2DE
100
AcDbEntity
  8
ASSI
100
AcDbLine
 62
7
  6
CONTINUOUS
 10
116.6507953392
 20
146.7496406704
 11
117.6501861662
 21
147.7845401671
  0
LINE
  5
2DF
100
AcDbEntity
  8
CURVE
100
AcDbLine
 62
250
  6
CONTINUOUS
 10
118.9479423392
 20
75.7617777105
 11
120.9477803392
 21
75.9487847105
  0
LINE
  5
2E0
100
AcDbEntity
  8
CURVE
100
AcDbLine
 62
250
  6
CONTINUOUS
 10
120.9477803392
 20
75.5404137105
 11
119.6473683392
 21
75.4546467105
  0
LINE
  5
2E1
100
AcDbEntity
  8
CURVE
100
AcDbLine
 62
250
  6
CONTINUOUS
 10
119.6419233392
 20
74.4100457105
 11
120.9477803392
 21
74.3199617105
  0
LINE
  5
2E2
100
AcDbEntity
  8
CURVE
100
AcDbLine
 62
250
  6
CONTINUOUS
 10
120.0582583392
 20
74.9313127105
 11
118.9479423392
 21
75.3487567105
  0
LINE
  5
2E3
100
AcDbEntity
  8
CURVE
100
AcDbLine
 62
250
  6
CONTINUOUS
 10
119.6473683392
 20
75.4546467105
 11
120.9477803392
 21
74.9583057105
  0
LINE
  5
2E4
100
AcDbEntity
  8
0
100
AcDbLine
 62
7
  6
CONTINUOUS
 10
116.6507953392
 20
67.2071027507
 11
117.6501861662
 21
66.172203254
  0
LINE
  5
2E5
100
AcDbEntity
  8
ASSI
100
AcDbLine
 62
7
  6
CONTINUOUS
 10
116.6507953392
 20
67.2071027507
 11
117.6501861662
 21
66.172203254
  0
LINE
  5
2E6
100
AcDbEntity
  8
CURVE
100
AcDbLine
 62
250
  6
CONTINUOUS
 10
120.9477803392
 20
77.2190697105
 11
120.5485413392
 21
77.1109287105
  0
LINE
  5
2E7
100
AcDbEntity
  8
CURVE
100
AcDbLine
 62
250
  6
CONTINUOUS
 10
120.2396123392
 20
77.0275027105
 11
119.4974473392
 21
76.8356817105
  0
LWPOLYLINE
  5
2E8
100
AcDbEntity
  8
CURVE
100
AcDbPolyline
 62
250
  6
CONTINUOUS
 90
59
 70
0
 10
119.526855666
 20
78.7463798365
 10
119.5355386457
 20
78.746402784
 10
119.5442887704
 20
78.7462047586
 10
119.553094056
 20
78.7457856625
 10
119.5619425183
 20
78.7451453979
 10
119.5708221732
 20
78.744283867
 10
119.5797210364
 20
78.743200972
 10
119.5886271238
 20
78.7418966152
 10
119.5975284512
 20
78.7403706987
 10
119.6064130344
 20
78.7386231247
 10
119.6152688893
 20
78.7366537955
 10
119.6240840317
 20
78.7344626133
 10
119.6328464773
 20
78.7320494802
 10
119.6415442421
 20
78.7294142985
 10
119.6501653418
 20
78.7265569704
 10
119.6586977923
 20
78.7234773981
 10
119.6671296093
 20
78.7201754838
 10
119.6754488087
 20
78.7166511297
 10
119.6836434064
 20
78.712904238
 10
119.6917014181
 20
78.7089347109
 10
119.6996108596
 20
78.7047424507
 10
119.7073597469
 20
78.7003273595
 10
119.7149360956
 20
78.6956893395
 10
119.7223279217
 20
78.690828293
 10
119.7295232409
 20
78.6857441222
 10
119.7365100691
 20
78.6804367292
 10
119.7432764221
 20
78.6749060163
 10
119.7498103158
 20
78.6691518857
 10
119.7560997658
 20
78.6631742396
 10
119.7621327881
 20
78.6569729802
 10
119.7678973985
 20
78.6505480097
 10
119.773312671
 20
78.643991841
 10
119.7784608564
 20
78.6372280973
 10
119.7833477738
 20
78.630267034
 10
119.7879792424
 20
78.6231189067
 10
119.7923610812
 20
78.615793971
 10
119.7964991094
 20
78.6083024822
 10
119.8003991461
 20
78.6006546961
 10
119.8040670105
 20
78.5928608681
 10
119.8075085217
 20
78.5849312537
 10
119.8107294988
 20
78.5768761084
 10
119.813735761
 20
78.5687056878
 10
119.8165331273
 20
78.5604302474
 10
119.819127417
 20
78.5520600428
 10
119.8215244492
 20
78.5436053294
 10
119.8237300429
 20
78.5350763628
 10
119.8257500174
 20
78.5264833985
 10
119.8275901917
 20
78.5178366921
 10
119.8292563849
 20
78.509146499
 10
119.8307544163
 20
78.5004230748
 10
119.832090105
 20
78.4916766751
 10
119.83326927
 20
78.4829175553
 10
119.8342977306
 20
78.4741559709
 10
119.8351813058
 20
78.4654021775
 10
119.8359258147
 20
78.4566664307
 10
119.8365370766
 20
78.4479589859
 10
119.8370209105
 20
78.4392900987
 10
119.8373831356
 20
78.4306700246
 10
119.837629571
 20
78.4221090192
  0
LINE
  5
2E9
100
AcDbEntity
  8
CURVE
100
AcDbLine
 62
250
  6
CONTINUOUS
 10
118.9713077574
 20
77.7816205422
 11
120.9477806045
 21
77.7816205422
  0
LINE
  5
2EA
100
AcDbEntity
  8
CURVE
100
AcDbLine
 62
250
  6
CONTINUOUS
 10
119.837629571
 20
78.1835435952
 11
119.2886351632
 21
78.1835435952
  0
LINE
  5
2EB
100
AcDbEntity
  8
CURVE
100
AcDbLine
 62
250
  6
CONTINUOUS
 10
120.9477806045
 20
78.1973854286
 11
120.1651546439
 21
78.1973854286
  0
LINE
  5
2EC
100
AcDbEntity
  8
CURVE
100
AcDbLine
 62
250
  6
CONTINUOUS
 10
120.0142741605
 20
78.8548500221
 11
120.0024568639
 21
78.8548500221
  0
LINE
  5
2ED
100
AcDbEntity
  8
CURVE
100
AcDbLine
 62
250
  6
CONTINUOUS
 10
119.4974473392
 20
76.8356817105
 11
120.2396123392
 21
76.6278297105
  0
LINE
  5
2EE
100
AcDbEntity
  8
CURVE
100
AcDbLine
 62
250
  6
CONTINUOUS
 10
120.5485413392
 20
76.5424387105
 11
120.9477803392
 21
76.4272507105
  0
LINE
  5
2EF
100
AcDbEntity
  8
CURVE
100
AcDbLine
 62
250
  6
CONTINUOUS
 10
120.9477803392
 20
76.0143347105
 11
118.9479423392
 21
76.6416117105
  0
LINE
  5
2F0
100
AcDbEntity
  8
CURVE
100
AcDbLine
 62
250
  6
CONTINUOUS
 10
120.5942472118
 20
78.7343134485
 11
120.67940575
 21
78.7584614476
  0
LWPOLYLINE
  5
2F1
100
AcDbEntity
  8
CURVE
100
AcDbPolyline
 62
250
  6
CONTINUOUS
 90
45
 70
0
 10
120.3600434015
 20
79.0828701197
 10
120.3445832779
 20
79.0785676943
 10
120.3290837875
 20
79.0741141529
 10
120.3135127442
 20
79.0694495676
 10
120.2978379622
 20
79.0645140109
 10
120.2892237297
 20
79.0616837503
 10
120.2805776393
 20
79.0587529537
 10
120.2719083807
 20
79.0557197956
 10
120.2632246437
 20
79.0525824506
 10
120.2545351179
 20
79.0493390932
 10
120.2458484932
 20
79.0459878979
 10
120.2371734592
 20
79.0425270394
 10
120.2285187058
 20
79.0389546921
 10
120.2198929227
 20
79.0352690306
 10
120.2113047996
 20
79.0314682294
 10
120.2027630262
 20
79.0275504632
 10
120.1942762924
 20
79.0235139064
 10
120.1858532878
 20
79.0193567336
 10
120.1775027022
 20
79.0150771193
 10
120.1692332254
 20
79.0106732382
 10
120.1610535471
 20
79.0061432647
 10
120.1529723571
 20
79.0014853734
 10
120.144998345
 20
78.9966977388
 10
120.1371402007
 20
78.9917785355
 10
120.1294066139
 20
78.9867259381
 10
120.1218062743
 20
78.981538121
 10
120.1143478717
 20
78.9762132589
 10
120.1070400959
 20
78.9707495263
 10
120.0998916365
 20
78.9651450978
 10
120.0929111833
 20
78.9593981478
 10
120.0861074261
 20
78.953506851
 10
120.0794890546
 20
78.9474693818
 10
120.0730647586
 20
78.9412839149
 10
120.0668432278
 20
78.9349486247
 10
120.060833152
 20
78.9284616859
 10
120.0550432208
 20
78.921821273
 10
120.0494821242
 20
78.9150255605
 10
120.0441585517
 20
78.908072723
 10
120.0390811931
 20
78.900960935
 10
120.0342587383
 20
78.8936883711
 10
120.0296998768
 20
78.8862532059
 10
120.0254132986
 20
78.8786536138
 10
120.0214076933
 20
78.8708877694
 10
120.0176917507
 20
78.8629538473
 10
120.0142741605
 20
78.8548500221
  0
LINE
  5
2F2
100
AcDbEntity
  8
CURVE
100
AcDbLine
 62
250
  6
CONTINUOUS
 10
120.4787448625
 20
79.1149668932
 11
120.3600434015
 21
79.0828701197
  0
LINE
  5
2F3
100
AcDbEntity
  8
CURVE
100
AcDbLine
 62
250
  6
CONTINUOUS
 10
120.9477806045
 20
79.2381773292
 11
120.8763827767
 21
79.2191316797
  0
LINE
  5
2F4
100
AcDbEntity
  8
CURVE
100
AcDbLine
 62
250
  6
CONTINUOUS
 10
120.6234247602
 20
79.1531797482
 11
120.4787448625
 21
79.1149668932
  0
LINE
  5
2F5
100
AcDbEntity
  8
CURVE
100
AcDbLine
 62
250
  6
CONTINUOUS
 10
120.8763827767
 20
79.2191316797
 11
120.6234247602
 21
79.1531797482
  0
LINE
  5
2F6
100
AcDbEntity
  8
0
100
AcDbLine
 62
7
  6
CONTINUOUS
 10
125.9508445714
 20
80.6368078502
 11
123.8007953392
 21
80.6242992297
  0
LINE
  5
2F7
100
AcDbEntity
  8
0
100
AcDbLine
 62
250
  6
CONTINUOUS
 10
125.9508445714
 20
80.7246743288
 11
123.8007953392
 21
80.7121657083
  0
LINE
  5
2F8
100
AcDbEntity
  8
0
100
AcDbLine
 62
7
  6
CONTINUOUS
 10
124.4266324341
 20
79.8282422717
 11
123.8007953392
 21
79.8271499788
  0
LINE
  5
2F9
100
AcDbEntity
  8
0
100
AcDbLine
 62
250
  6
CONTINUOUS
 10
124.426567923
 20
80.0506924666
 11
123.8007953392
 21
80.0504097896
  0
LINE
  5
2FA
100
AcDbEntity
  8
0
100
AcDbLine
 62
7
  6
CONTINUOUS
 10
124.4509197181
 20
81.7783717105
 11
123.8007953392
 21
81.7783717105
  0
LINE
  5
2FB
100
AcDbEntity
  8
0
100
AcDbLine
 62
7
  6
CONTINUOUS
 10
123.9507953392
 20
81.9283717105
 11
124.1507953392
 21
81.9283717105
  0
LINE
  5
2FC
100
AcDbEntity
  8
0
100
AcDbLine
 62
7
  6
CONTINUOUS
 10
123.8007953392
 20
81.2092977983
 11
126.3112625305
 21
81.0983850429
  0
LINE
  5
2FD
100
AcDbEntity
  8
0
100
AcDbLine
 62
7
  6
CONTINUOUS
 10
124.5504234371
 20
81.7734089007
 11
126.5007953392
 21
81.5783717105
  0
LWPOLYLINE
  5
2FE
100
AcDbEntity
  8
0
100
AcDbPolyline
 62
250
  6
CONTINUOUS
 90
4
 70
0
 10
126.0033304147
 20
133.2724222003
 10
125.9861598176
 20
133.2613141266
 10
125.9686072577
 20
133.2478211994
 10
125.9508445714
 20
133.2320690922
  0
LWPOLYLINE
  5
2FF
100
AcDbEntity
  8
0
100
AcDbPolyline
 62
250
  6
CONTINUOUS
 90
4
 70
0
 10
126.0033245841
 20
80.6843246247
 10
125.9861413753
 20
80.6954423607
 10
125.9685905471
 20
80.7089360598
 10
125.9508445714
 20
80.7246743288
  0
LWPOLYLINE
  5
300
100
AcDbEntity
  8
0
100
AcDbPolyline
 62
7
  6
CONTINUOUS
 90
4
 70
0
 43
0.3500000006
 10
104.7147695618
 20
163.3295927124
 10
104.7147695618
 20
163.9724642944
 10
106.2147700195
 20
163.9724642944
 10
105.3576230164
 20
160.9724633789
  0
LINE
  5
301
100
AcDbEntity
  8
0
100
AcDbLine
 62
7
  6
CONTINUOUS
 10
124.1507953392
 20
132.0283717105
 11
124.3007953392
 21
132.1783717105
  0
LINE
  5
302
100
AcDbEntity
  8
0
100
AcDbLine
 62
7
  6
CONTINUOUS
 10
124.1507953392
 20
81.9283717105
 11
124.3007953392
 21
81.7783717105
  0
LWPOLYLINE
  5
303
100
AcDbEntity
  8
0
100
AcDbPolyline
 62
250
  6
CONTINUOUS
 90
8
 70
0
 10
124.5208597963
 20
79.9036002655
 10
124.5292403559
 20
79.8930433362
 10
124.5372739642
 20
79.8836388699
 10
124.5448071675
 20
79.8756581628
 10
124.5516804675
 20
79.8693699325
 10
124.5577313527
 20
79.8650447448
 10
124.5627952556
 20
79.862952377
 10
124.5667015729
 20
79.8633559145
  0
LWPOLYLINE
  5
304
100
AcDbEntity
  8
0
100
AcDbPolyline
 62
7
  6
CONTINUOUS
 90
4
 70
0
 43
0.3500000006
 10
108.6967702332
 20
169.0028655396
 10
108.6967702332
 20
169.860003479
 10
109.1253482666
 20
170.2885724487
 10
109.7682017212
 20
170.2885724487
  0
LWPOLYLINE
  5
305
100
AcDbEntity
  8
0
100
AcDbPolyline
 62
250
  6
CONTINUOUS
 90
16
 70
0
 10
124.426567923
 20
133.9060509544
 10
124.4362576385
 20
133.9228557993
 10
124.4464027456
 20
133.940097662
 10
124.4569412717
 20
133.9576130266
 10
124.4677975104
 20
133.975219278
 10
124.478873309
 20
133.9926862716
 10
124.4900483454
 20
134.0097403043
 10
124.5012103704
 20
134.0261304555
 10
124.5121883152
 20
134.0415289514
 10
124.5227586903
 20
134.0555413753
 10
124.5328051199
 20
134.0679188645
 10
124.542078553
 20
134.0782570107
 10
124.5502222154
 20
134.086101444
 10
124.5570762315
 20
134.0912820331
 10
124.5626001767
 20
134.0937416506
 10
124.5667015729
 20
134.0933875066
  0
LWPOLYLINE
  5
306
100
AcDbEntity
  8
0
100
AcDbPolyline
 62
250
  6
CONTINUOUS
 90
12
 70
0
 10
124.426567923
 20
80.0506924666
 10
124.4349268654
 20
80.036153453
 10
124.4433736677
 20
80.0217152408
 10
124.4518773458
 20
80.0074423253
 10
124.4603436191
 20
79.9934992668
 10
124.4687997786
 20
79.9798525722
 10
124.4773847469
 20
79.9663072731
 10
124.4860637792
 20
79.9529540877
 10
124.4947579751
 20
79.9399475046
 10
124.5035091247
 20
79.9272696791
 10
124.5122529138
 20
79.9150723708
 10
124.5208597963
 20
79.9036002655
  0
LWPOLYLINE
  5
307
100
AcDbEntity
  8
0
100
AcDbPolyline
 62
7
  6
CONTINUOUS
 90
7
 70
0
 10
126.4729364242
 20
81.0018099931
 10
126.4811698063
 20
80.9878121623
 10
126.4880700451
 20
80.9747631255
 10
126.4935527609
 20
80.9626628826
 10
126.4975426743
 20
80.9515114336
 10
126.4999747561
 20
80.9413087785
 10
126.5007953392
 20
80.9320549173
  0
LWPOLYLINE
  5
308
100
AcDbEntity
  8
CURVE
100
AcDbPolyline
 62
250
  6
CONTINUOUS
 90
73
 70
0
 10
120.0024568639
 20
78.8548500221
 10
120.0012065728
 20
78.861661424
 10
119.9992900567
 20
78.8682726063
 10
119.9967812684
 20
78.8747003047
 10
119.9937541603
 20
78.8809612549
 10
119.9902826853
 20
78.8870721927
 10
119.9864407958
 20
78.893049854
 10
119.9823024445
 20
78.8989109743
 10
119.9779415841
 20
78.9046722896
 10
119.9734321671
 20
78.9103505355
 10
119.9688481462
 20
78.9159624478
 10
119.9572604047
 20
78.9298652092
 10
119.945609412
 20
78.9434354293
 10
119.9338360476
 20
78.9566551095
 10
119.9218811906
 20
78.9695062511
 10
119.9096857203
 20
78.9819708554
 10
119.897190516
 20
78.9940309238
 10
119.8843364569
 20
79.0056684576
 10
119.8710644222
 20
79.0168654582
 10
119.8562117229
 20
79.0284453013
 10
119.8408432767
 20
79.0394813915
 10
119.8249998559
 20
79.0499648405
 10
119.8087222328
 20
79.0598867598
 10
119.7920511797
 20
79.0692382611
 10
119.775027469
 20
79.0780104559
 10
119.7576918731
 20
79.0861944559
 10
119.7400851642
 20
79.0937813726
 10
119.7222481146
 20
79.1007623177
 10
119.7042214967
 20
79.1071284027
 10
119.6860575154
 20
79.1128686488
 10
119.6677554873
 20
79.1179942645
 10
119.6493258932
 20
79.1225132423
 10
119.6307792139
 20
79.1264335745
 10
119.6121259301
 20
79.1297632536
 10
119.5933765224
 20
79.1325102719
 10
119.5718399279
 20
79.1349472936
 10
119.5502187531
 20
79.1366462466
 10
119.5285403441
 20
79.1376200938
 10
119.5068320472
 20
79.1378817983
 10
119.4851212086
 20
79.1374443229
 10
119.4634351746
 20
79.1363206307
 10
119.4423400503
 20
79.1345706467
 10
119.4213201284
 20
79.1321569625
 10
119.4004010297
 20
79.1290559675
 10
119.3796083748
 20
79.1252440513
 10
119.3589677843
 20
79.1206976032
 10
119.340565373
 20
79.1159664999
 10
119.3223289006
 20
79.1106182301
 10
119.3042807309
 20
79.1046482305
 10
119.2864432276
 20
79.0980519378
 10
119.2688387544
 20
79.0908247887
 10
119.2499657566
 20
79.0822386747
 10
119.2314268191
 20
79.0729177048
 10
119.2132533391
 20
79.0628800498
 10
119.1954767133
 20
79.0521438805
 10
119.1781283386
 20
79.0407273678
 10
119.1612396119
 20
79.0286486823
 10
119.1448419301
 20
79.0159259951
 10
119.1289666901
 20
79.0025774768
 10
119.1144784687
 20
78.9894123959
 10
119.1004956595
 20
78.97572375
 10
119.0870296343
 20
78.961530025
 10
119.0740917649
 20
78.9468497067
 10
119.0616934231
 20
78.9317012811
 10
119.0498459808
 20
78.916103234
 10
119.0385608096
 20
78.9000740513
 10
119.0307022485
 20
78.8881279398
 10
119.0231915315
 20
78.8759619202
 10
119.0160717253
 20
78.8635753258
 10
119.0093858965
 20
78.8509674901
 10
119.0031771117
 20
78.8381377463
 10
118.9974884375
 20
78.8250854279
 10
118.9923629406
 20
78.8118098682
  0
LWPOLYLINE
  5
309
100
AcDbEntity
  8
CURVE
100
AcDbPolyline
 62
250
  6
CONTINUOUS
 90
22
 70
0
 10
119.2886351632
 20
78.1835435952
 10
119.2861983414
 20
78.1981195284
 10
119.2838718805
 20
78.2127131864
 10
119.281674423
 20
78.2273271011
 10
119.2796246116
 20
78.2419638042
 10
119.2777410887
 20
78.2566258276
 10
119.2760424971
 20
78.2713157033
 10
119.2744342744
 20
78.2872035233
 10
119.2730632763
 20
78.3031217818
 10
119.2719295801
 20
78.3190655221
 10
119.2710332628
 20
78.3350297875
 10
119.2703744017
 20
78.3510096216
 10
119.2699530739
 20
78.3670000676
 10
119.2697693566
 20
78.382996169
 10
119.2698233269
 20
78.3989929692
 10
119.2701150621
 20
78.4149855115
 10
119.2706446393
 20
78.4309688395
 10
119.2714121357
 20
78.4469379963
 10
119.2724176284
 20
78.4628880256
 10
119.2736611946
 20
78.4788139705
 10
119.2751429115
 20
78.4947108746
 10
119.2768628563
 20
78.5105737813
  0
LINE
  5
30A
100
AcDbEntity
  8
0
100
AcDbLine
 62
7
  6
CONTINUOUS
 10
116.6507953392
 20
67.2071027507
 11
116.6507953392
 21
146.7496406704
  0
LINE
  5
30B
100
AcDbEntity
  8
ASSI
100
AcDbLine
 62
7
  6
CONTINUOUS
 10
116.6507953392
 20
67.2071027507
 11
116.6507953392
 21
146.7496406704
  0
LINE
  5
30C
100
AcDbEntity
  8
0
100
AcDbLine
 62
7
  6
CONTINUOUS
 10
117.635247797
 20
66.1876723882
 11
117.635247797
 21
67.1583862406
  0
LINE
  5
30D
100
AcDbEntity
  8
ASSI
100
AcDbLine
 62
7
  6
CONTINUOUS
 10
117.635247797
 20
66.1876723882
 11
117.635247797
 21
67.1583862406
  0
LINE
  5
30E
100
AcDbEntity
  8
0
100
AcDbLine
 62
7
  6
CONTINUOUS
 10
117.635247797
 20
146.7983571804
 11
117.635247797
 21
147.7690710329
  0
LINE
  5
30F
100
AcDbEntity
  8
ASSI
100
AcDbLine
 62
7
  6
CONTINUOUS
 10
117.635247797
 20
146.7983571804
 11
117.635247797
 21
147.7690710329
  0
LINE
  5
310
100
AcDbEntity
  8
0
100
AcDbLine
 62
7
  6
CONTINUOUS
 10
117.6501861662
 20
67.1728120561
 11
117.6501861662
 21
146.7839313649
  0
LINE
  5
311
100
AcDbEntity
  8
ASSI
100
AcDbLine
 62
7
  6
CONTINUOUS
 10
117.6501861662
 20
67.1728120561
 11
117.6501861662
 21
146.7839313649
  0
LINE
  5
312
100
AcDbEntity
  8
CURVE
100
AcDbLine
 62
250
  6
CONTINUOUS
 10
118.9478223392
 20
73.6958797105
 11
118.9478223392
 21
73.2784357105
  0
LINE
  5
313
100
AcDbEntity
  8
CURVE
100
AcDbLine
 62
250
  6
CONTINUOUS
 10
118.9479423392
 20
71.4788327105
 11
118.9479423392
 21
71.9323057105
  0
LINE
  5
314
100
AcDbEntity
  8
CURVE
100
AcDbLine
 62
250
  6
CONTINUOUS
 10
118.9479423392
 20
72.7063607105
 11
118.9479423392
 21
73.1235207105
  0
LINE
  5
315
100
AcDbEntity
  8
CURVE
100
AcDbLine
 62
250
  6
CONTINUOUS
 10
118.9479423392
 20
74.1011777105
 11
118.9479423392
 21
74.5182767105
  0
LINE
  5
316
100
AcDbEntity
  8
CURVE
100
AcDbLine
 62
250
  6
CONTINUOUS
 10
118.9479423392
 20
75.3487567105
 11
118.9479423392
 21
75.7617777105
  0
LINE
  5
317
100
AcDbEntity
  8
CURVE
100
AcDbLine
 62
250
  6
CONTINUOUS
 10
118.9479423392
 20
76.6416117105
 11
118.9479423392
 21
77.0454387105
  0
LINE
  5
318
100
AcDbEntity
  8
CURVE
100
AcDbLine
 62
250
  6
CONTINUOUS
 10
119.837629571
 20
78.4221090192
 11
119.837629571
 21
78.1835435952
  0
LINE
  5
319
100
AcDbEntity
  8
CURVE
100
AcDbLine
 62
250
  6
CONTINUOUS
 10
120.1651546439
 20
78.1973854286
 11
120.1651546439
 21
78.421209225
  0
LINE
  5
31A
100
AcDbEntity
  8
CURVE
100
AcDbLine
 62
250
  6
CONTINUOUS
 10
120.2396123392
 20
76.6278297105
 11
120.2396123392
 21
77.0275027105
  0
LINE
  5
31B
100
AcDbEntity
  8
CURVE
100
AcDbLine
 62
250
  6
CONTINUOUS
 10
120.5485413392
 20
77.1109287105
 11
120.5485413392
 21
76.5424387105
  0
LINE
  5
31C
100
AcDbEntity
  8
CURVE
100
AcDbLine
 62
250
  6
CONTINUOUS
 10
120.9477803392
 20
77.6590387105
 11
120.9477803392
 21
77.2190697105
  0
LINE
  5
31D
100
AcDbEntity
  8
CURVE
100
AcDbLine
 62
250
  6
CONTINUOUS
 10
120.9477803392
 20
76.4272507105
 11
120.9477803392
 21
76.0143347105
  0
LINE
  5
31E
100
AcDbEntity
  8
CURVE
100
AcDbLine
 62
250
  6
CONTINUOUS
 10
120.9477803392
 20
75.9487847105
 11
120.9477803392
 21
75.5404137105
  0
LINE
  5
31F
100
AcDbEntity
  8
CURVE
100
AcDbLine
 62
250
  6
CONTINUOUS
 10
120.9477803392
 20
74.9583057105
 11
120.9477803392
 21
74.8997597105
  0
LINE
  5
320
100
AcDbEntity
  8
CURVE
100
AcDbLine
 62
250
  6
CONTINUOUS
 10
120.9477803392
 20
74.3199617105
 11
120.9477803392
 21
73.9206037105
  0
LINE
  5
321
100
AcDbEntity
  8
CURVE
100
AcDbLine
 62
250
  6
CONTINUOUS
 10
120.9477803392
 20
72.4806927105
 11
120.9477803392
 21
72.1128197105
  0
LINE
  5
322
100
AcDbEntity
  8
CURVE
100
AcDbLine
 62
250
  6
CONTINUOUS
 10
120.9477803392
 20
73.2784357105
 11
120.9477803392
 21
73.6958797105
  0
LINE
  5
323
100
AcDbEntity
  8
CURVE
100
AcDbLine
 62
250
  6
CONTINUOUS
 10
120.9477806045
 20
77.7816205422
 11
120.9477806045
 21
78.1973854286
  0
LINE
  5
324
100
AcDbEntity
  8
CURVE
100
AcDbLine
 62
250
  6
CONTINUOUS
 10
120.9477806045
 20
78.836644187
 11
120.9477806045
 21
79.2381773292
  0
LWPOLYLINE
  5
325
100
AcDbEntity
  8
CURVE
100
AcDbPolyline
 62
250
  6
CONTINUOUS
 90
48
 70
0
 10
120.1651546439
 20
78.421209225
 10
120.1652362499
 20
78.4276366563
 10
120.1654819578
 20
78.4340754996
 10
120.165893103
 20
78.4405191398
 10
120.1664710206
 20
78.4469609617
 10
120.1672170458
 20
78.4533943501
 10
120.1681325139
 20
78.4598126899
 10
120.1692187601
 20
78.4662093659
 10
120.1704771196
 20
78.4725777628
 10
120.1719089276
 20
78.4789112656
 10
120.1735155193
 20
78.4852032591
 10
120.1752982299
 20
78.4914471281
 10
120.1772583947
 20
78.4976362574
 10
120.1793973489
 20
78.5037640318
 10
120.1817164276
 20
78.5098238362
 10
120.1842169661
 20
78.5158090554
 10
120.1869002995
 20
78.5217130742
 10
120.1897677632
 20
78.5275292774
 10
120.1928996595
 20
78.5333964921
 10
120.1962205405
 20
78.5391630143
 10
120.1997243549
 20
78.5448274551
 10
120.2034050513
 20
78.5503884258
 10
120.2072565783
 20
78.5558445376
 10
120.2112728845
 20
78.5611944016
 10
120.2154479185
 20
78.5664366291
 10
120.2197756288
 20
78.5715698313
 10
120.2242499641
 20
78.5765926193
 10
120.228864873
 20
78.5815036045
 10
120.233614304
 20
78.5863013979
 10
120.2384922057
 20
78.5909846108
 10
120.2434925268
 20
78.5955518544
 10
120.2486092159
 20
78.6000017399
 10
120.2538362214
 20
78.6043328785
 10
120.2591674921
 20
78.6085438813
 10
120.2645969766
 20
78.6126333597
 10
120.2701186233
 20
78.6165999248
 10
120.2757263809
 20
78.6204421877
 10
120.2814141981
 20
78.6241587598
 10
120.2871760233
 20
78.6277482522
 10
120.2930058052
 20
78.6312092761
 10
120.2988974924
 20
78.6345404427
 10
120.3048450335
 20
78.6377403632
 10
120.3108423771
 20
78.6408076488
 10
120.3168834717
 20
78.6437409108
 10
120.322962266
 20
78.6465387602
 10
120.3290727086
 20
78.6491998084
 10
120.335208748
 20
78.6517226665
 10
120.3413643329
 20
78.6541059458
  0
LINE
  5
326
100
AcDbEntity
  8
0
100
AcDbLine
 62
7
  6
CONTINUOUS
 10
123.2007953392
 20
65.9783717105
 11
123.2007953392
 21
147.9783717105
  0
LINE
  5
327
100
AcDbEntity
  8
ASSI
100
AcDbLine
 62
7
  6
CONTINUOUS
 10
123.2007953392
 20
65.9783717105
 11
123.2007953392
 21
147.9783717105
  0
LINE
  5
328
100
AcDbEntity
  8
0
100
AcDbLine
 62
7
  6
CONTINUOUS
 10
123.8007953392
 20
68.1783717105
 11
123.8007953392
 21
145.7783717105
  0
LINE
  5
329
100
AcDbEntity
  8
0
100
AcDbLine
 62
250
  6
CONTINUOUS
 10
124.4266326852
 20
79.8285939818
 11
124.426567923
 21
80.0506924666
  0
LINE
  5
32A
100
AcDbEntity
  8
0
100
AcDbLine
 62
250
  6
CONTINUOUS
 10
124.426567923
 20
133.9060509544
 11
124.4266325323
 21
134.1281482953
  0
LWPOLYLINE
  5
32B
100
AcDbEntity
  8
0
100
AcDbPolyline
 62
7
  6
CONTINUOUS
 90
7
 70
0
 10
126.5007953392
 20
133.0246885037
 10
126.4999748721
 20
133.0154354653
 10
126.4975430428
 20
133.0052333039
 10
126.4935533764
 20
132.9940820194
 10
126.4880707652
 20
132.9819816119
 10
126.4811703603
 20
132.9689320815
 10
126.4729364242
 20
132.954933428
  0
LWPOLYLINE
  5
32C
100
AcDbEntity
  8
CURVE
100
AcDbPolyline
 62
250
  6
CONTINUOUS
 90
49
 70
0
 10
119.2768628563
 20
78.5105737813
 10
119.2778543446
 20
78.5182245115
 10
119.2790526387
 20
78.5258757633
 10
119.2804571571
 20
78.53351911
 10
119.2820673185
 20
78.5411461246
 10
119.2838825416
 20
78.5487483803
 10
119.2859022448
 20
78.5563174504
 10
119.2881258469
 20
78.5638449081
 10
119.2905527665
 20
78.5713223264
 10
119.2931824222
 20
78.5787412786
 10
119.2960142325
 20
78.5860933379
 10
119.2990476162
 20
78.5933700775
 10
119.3022819919
 20
78.6005630706
 10
119.3057167781
 20
78.6076638902
 10
119.3093513935
 20
78.6146641097
 10
119.3131852567
 20
78.6215553021
 10
119.3172177863
 20
78.6283290408
 10
119.321448401
 20
78.6349768988
 10
119.3258765194
 20
78.6414904493
 10
119.33050156
 20
78.6478612656
 10
119.3353229415
 20
78.6540809208
 10
119.3403400826
 20
78.6601409881
 10
119.3455524018
 20
78.6660330407
 10
119.3509593178
 20
78.6717486518
 10
119.3565602491
 20
78.6772793945
 10
119.3623214568
 20
78.6825895868
 10
119.368264981
 20
78.687706141
 10
119.3743817838
 20
78.692626636
 10
119.3806628271
 20
78.6973486509
 10
119.3870990729
 20
78.7018697647
 10
119.3936814832
 20
78.7061875565
 10
119.40040102
 20
78.7102996053
 10
119.4072486453
 20
78.7142034901
 10
119.4142153211
 20
78.7178967899
 10
119.4212920093
 20
78.7213770838
 10
119.428469672
 20
78.7246419508
 10
119.4357392711
 20
78.72768897
 10
119.4430917686
 20
78.7305157204
 10
119.4505181266
 20
78.733119781
 10
119.4580093069
 20
78.7354987308
 10
119.4655562716
 20
78.737650149
 10
119.4731499827
 20
78.7395716144
 10
119.4807814022
 20
78.7412607063
 10
119.488441492
 20
78.7427150035
 10
119.4961212142
 20
78.7439320851
 10
119.5038115307
 20
78.7449095302
 10
119.5115034035
 20
78.7456449178
 10
119.5191877946
 20
78.7461358269
 10
119.526855666
 20
78.7463798365
  0
LWPOLYLINE
  5
32D
100
AcDbEntity
  8
0
100
AcDbPolyline
 62
250
  6
CONTINUOUS
 90
3
 70
0
 10
125.9509435919
 20
133.3153769964
 10
125.9509009378
 20
133.3187935799
 10
125.9508445714
 20
133.3199355709
  0
LINE
  5
32E
100
AcDbEntity
  8
0
100
AcDbLine
 62
250
  6
CONTINUOUS
 10
125.9509865704
 20
133.3018407577
 11
125.9509435919
 21
133.3153769964
  0
LINE
  5
32F
100
AcDbEntity
  8
0
100
AcDbLine
 62
250
  6
CONTINUOUS
 10
125.9509865704
 20
80.6549026634
 11
125.9508445714
 21
80.7246743288
  0
LINE
  5
330
100
AcDbEntity
  8
0
100
AcDbLine
 62
250
  6
CONTINUOUS
 10
126.3112625305
 20
132.8583583782
 11
126.3112625305
 21
132.3594184297
  0
LINE
  5
331
100
AcDbEntity
  8
0
100
AcDbLine
 62
250
  6
CONTINUOUS
 10
126.3112625305
 20
81.5973249914
 11
126.3112625305
 21
81.0983850429
  0
LINE
  5
332
100
AcDbEntity
  8
0
100
AcDbLine
 62
7
  6
CONTINUOUS
 10
126.5007953392
 20
133.0667360509
 11
126.5007953392
 21
132.3783717105
  0
LINE
  5
333
100
AcDbEntity
  8
0
100
AcDbLine
 62
7
  6
CONTINUOUS
 10
126.5007953392
 20
81.5783717105
 11
126.5007953392
 21
80.8900073701
  0
LINE
  5
334
100
AcDbEntity
  8
0
100
AcDbLine
 62
250
  6
CONTINUOUS
 10
125.9508445714
 20
133.2320690922
 11
125.9509865704
 21
133.3018407577
  0
LWPOLYLINE
  5
335
100
AcDbEntity
  8
0
100
AcDbPolyline
 62
250
  6
CONTINUOUS
 90
4
 70
0
 10
125.9508445714
 20
80.6368078502
 10
125.9509009378
 20
80.6379498412
 10
125.9509435919
 20
80.6413664247
 10
125.9509865704
 20
80.6549026634
  0
LWPOLYLINE
  5
336
100
AcDbEntity
  8
CURVE
100
AcDbPolyline
 62
250
  6
CONTINUOUS
 90
32
 70
0
 10
118.9923629406
 20
78.8118098682
 10
118.9840464175
 20
78.7876456199
 10
118.9764449539
 20
78.7632493757
 10
118.9695238624
 20
78.7386416255
 10
118.9632484555
 20
78.713842859
 10
118.9575840456
 20
78.6888735662
 10
118.9524959454
 20
78.663754237
 10
118.9479494672
 20
78.638505361
 10
118.9439099236
 20
78.6131474282
 10
118.9403426272
 20
78.5877009285
 10
118.9372128904
 20
78.5621863516
 10
118.9344860257
 20
78.5366241874
 10
118.9321273456
 20
78.5110349258
 10
118.9292115374
 20
78.4725318699
 10
118.9270199115
 20
78.4340179899
 10
118.9255222775
 20
78.3954974082
 10
118.9246884452
 20
78.3569742473
 10
118.9244882243
 20
78.3184526294
 10
118.9248914244
 20
78.2799366771
 10
118.9258678553
 20
78.2414305126
 10
118.9273873267
 20
78.2029382584
 10
118.9294196482
 20
78.1644640369
 10
118.9319346296
 20
78.1260119703
 10
118.9349020806
 20
78.0875861812
 10
118.9382918109
 20
78.049190792
 10
118.9420736301
 20
78.0108299249
 10
118.946217348
 20
77.9725077024
 10
118.9506927743
 20
77.9342282468
 10
118.9554697187
 20
77.8959956807
 10
118.9605179909
 20
77.8578141262
 10
118.9658074005
 20
77.8196877059
 10
118.9713077574
 20
77.7816205422
  0
LWPOLYLINE
  5
337
100
AcDbEntity
  8
0
100
AcDbPolyline
 62
7
  6
CONTINUOUS
 90
10
 70
0
 43
0.3500000006
 10
107.7147704773
 20
161.4724544678
 10
107.7862016602
 20
161.3295921021
 10
107.7862016602
 20
161.2581699829
 10
107.6433392944
 20
161.1153076172
 10
107.5719171753
 20
161.1153076172
 10
107.5004859924
 20
161.1867478638
 10
107.5004859924
 20
161.2581699829
 10
107.5719171753
 20
161.4010323486
 10
107.6433392944
 20
161.4724544678
 10
107.7147704773
 20
161.4724544678
  0
LWPOLYLINE
  5
338
100
AcDbEntity
  8
0
100
AcDbPolyline
 62
7
  6
CONTINUOUS
 90
10
 70
0
 43
0.3500000006
 10
107.6253478088
 20
169.0742876587
 10
107.696769928
 20
168.931425293
 10
107.696769928
 20
168.8600031738
 10
107.553916626
 20
168.7171408081
 10
107.4824854431
 20
168.7171408081
 10
107.411063324
 20
168.7885810547
 10
107.411063324
 20
168.8600031738
 10
107.4824854431
 20
169.0028655396
 10
107.553916626
 20
169.0742876587
 10
107.6253478088
 20
169.0742876587
  0
LINE
  5
339
100
AcDbEntity
  8
CURVE
100
AcDbLine
 62
7
  6
CONTINUOUS
 10
118.9448875403
 20
78.616142188
 11
119.4650991959
 21
79.1363538437
  0
LINE
  5
33A
100
AcDbEntity
  8
CURVE
100
AcDbLine
 62
7
  6
CONTINUOUS
 10
118.9290473728
 20
78.1802805925
 11
119.2801174843
 21
78.531350704
  0
LINE
  5
33B
100
AcDbEntity
  8
CURVE
100
AcDbLine
 62
7
  6
CONTINUOUS
 10
119.4917682019
 20
78.7430014216
 11
119.8082998406
 21
79.0595330603
  0
LINE
  5
33C
100
AcDbEntity
  8
CURVE
100
AcDbLine
 62
7
  6
CONTINUOUS
 10
118.9687746064
 20
77.7999863981
 11
119.3523318035
 21
78.1835435952
  0
LINE
  5
33D
100
AcDbEntity
  8
CURVE
100
AcDbLine
 62
7
  6
CONTINUOUS
 10
119.7892215889
 20
78.6204333805
 11
120.1903421555
 21
79.0215539471
  0
LINE
  5
33E
100
AcDbEntity
  8
CURVE
100
AcDbLine
 62
7
  6
CONTINUOUS
 10
119.3704301785
 20
77.7816205422
 11
119.7723532316
 21
78.1835435952
  0
LINE
  5
33F
100
AcDbEntity
  8
CURVE
100
AcDbLine
 62
7
  6
CONTINUOUS
 10
119.837629571
 20
78.2488199347
 11
120.7837563857
 21
79.1949467493
  0
LINE
  5
340
100
AcDbEntity
  8
CURVE
100
AcDbLine
 62
7
  6
CONTINUOUS
 10
118.9479423392
 20
76.9391112748
 11
119.1013342144
 21
77.0925031501
  0
LINE
  5
341
100
AcDbEntity
  8
CURVE
100
AcDbLine
 62
7
  6
CONTINUOUS
 10
119.7904516065
 20
77.7816205422
 11
120.206216493
 21
78.1973854286
  0
LINE
  5
342
100
AcDbEntity
  8
CURVE
100
AcDbLine
 62
7
  6
CONTINUOUS
 10
120.8033411475
 20
78.7945100831
 11
120.9477806045
 21
78.9389495401
  0
LINE
  5
343
100
AcDbEntity
  8
0
100
AcDbLine
 62
7
  6
CONTINUOUS
 10
123.8007953392
 20
81.7783717105
 11
123.9507953392
 21
81.9283717105
  0
LINE
  5
344
100
AcDbEntity
  8
0
100
AcDbLine
 62
7
  6
CONTINUOUS
 10
123.8007953392
 20
132.1783717105
 11
123.9507953392
 21
132.0283717105
  0
LINE
  5
345
100
AcDbEntity
  8
CURVE
100
AcDbLine
 62
7
  6
CONTINUOUS
 10
119.0412096225
 20
76.6123571301
 11
119.7072725977
 21
77.2784201053
  0
LINE
  5
346
100
AcDbEntity
  8
CURVE
100
AcDbLine
 62
7
  6
CONTINUOUS
 10
120.2104730346
 20
77.7816205422
 11
120.626237921
 21
78.1973854286
  0
LINE
  5
347
100
AcDbEntity
  8
CURVE
100
AcDbLine
 62
7
  6
CONTINUOUS
 10
119.360942414
 20
76.5120684936
 11
119.6436186449
 21
76.7947447245
  0
LINE
  5
348
100
AcDbEntity
  8
CURVE
100
AcDbLine
 62
7
  6
CONTINUOUS
 10
119.7497717496
 20
76.9008978292
 11
120.313210981
 21
77.4643370606
  0
LINE
  5
349
100
AcDbEntity
  8
CURVE
100
AcDbLine
 62
7
  6
CONTINUOUS
 10
120.6304944626
 20
77.7816205422
 11
120.9477806045
 21
78.0989066841
  0
LINE
  5
34A
100
AcDbEntity
  8
CURVE
100
AcDbLine
 62
7
  6
CONTINUOUS
 10
118.9479423392
 20
75.6790469908
 11
119.039207348
 21
75.7703119996
  0
LINE
  5
34B
100
AcDbEntity
  8
CURVE
100
AcDbLine
 62
7
  6
CONTINUOUS
 10
119.6806752055
 20
76.4117798571
 11
119.971744566
 21
76.7028492175
  0
LINE
  5
34C
100
AcDbEntity
  8
CURVE
100
AcDbLine
 62
7
  6
CONTINUOUS
 10
120.2396123392
 20
76.9707169908
 11
120.9191493643
 21
77.6502540159
  0
LINE
  5
34D
100
AcDbEntity
  8
CURVE
100
AcDbLine
 62
7
  6
CONTINUOUS
 10
119.0131554153
 20
75.3242386388
 11
119.5025571101
 21
75.8136403336
  0
LINE
  5
34E
100
AcDbEntity
  8
CURVE
100
AcDbLine
 62
7
  6
CONTINUOUS
 10
120.000407997
 20
76.3114912206
 11
120.5485413392
 21
76.8596245627
  0
LINE
  5
34F
100
AcDbEntity
  8
CURVE
100
AcDbLine
 62
7
  6
CONTINUOUS
 10
120.8932033316
 20
77.2042865551
 11
120.9477803392
 21
77.2588635627
  0
LINE
  5
350
100
AcDbEntity
  8
CURVE
100
AcDbLine
 62
7
  6
CONTINUOUS
 10
119.3184105024
 20
75.2094722979
 11
119.9659068722
 21
75.8569686677
  0
LINE
  5
351
100
AcDbEntity
  8
CURVE
100
AcDbLine
 62
7
  6
CONTINUOUS
 10
120.3201407885
 20
76.211202584
 11
120.6283504714
 21
76.5194122669
  0
LINE
  5
352
100
AcDbEntity
  8
CURVE
100
AcDbLine
 62
7
  6
CONTINUOUS
 10
118.9479423392
 20
74.4189827067
 11
119.1060534584
 21
74.5770938258
  0
LINE
  5
353
100
AcDbEntity
  8
CURVE
100
AcDbLine
 62
7
  6
CONTINUOUS
 10
119.6236655895
 20
75.094705957
 11
119.8907228432
 21
75.3617632106
  0
LINE
  5
354
100
AcDbEntity
  8
CURVE
100
AcDbLine
 62
7
  6
CONTINUOUS
 10
120.0073483622
 20
75.4783887297
 11
120.4292566343
 21
75.9002970018
  0
LINE
  5
355
100
AcDbEntity
  8
CURVE
100
AcDbLine
 62
7
  6
CONTINUOUS
 10
120.6398735801
 20
76.1109139475
 11
120.9477803392
 21
76.4188207067
  0
LINE
  5
356
100
AcDbEntity
  8
CURVE
100
AcDbLine
 62
7
  6
CONTINUOUS
 10
119.0416935682
 20
74.0927125076
 11
119.7748758997
 21
74.8258948391
  0
LINE
  5
357
100
AcDbEntity
  8
CURVE
100
AcDbLine
 62
7
  6
CONTINUOUS
 10
119.9289206766
 20
74.9799396161
 11
120.1947161607
 21
75.2457351002
  0
LINE
  5
358
100
AcDbEntity
  8
CURVE
100
AcDbLine
 62
7
  6
CONTINUOUS
 10
120.4570278202
 20
75.5080467597
 11
120.8926063964
 21
75.9436253359
  0
LINE
  5
359
100
AcDbEntity
  8
CURVE
100
AcDbLine
 62
7
  6
CONTINUOUS
 10
118.9478223392
 20
73.5788198507
 11
119.0648821991
 21
73.6958797105
  0
LINE
  5
35A
100
AcDbEntity
  8
CURVE
100
AcDbLine
 62
7
  6
CONTINUOUS
 10
119.426930309
 20
74.0579278205
 11
119.7701991461
 21
74.4011966575
  0
LINE
  5
35B
100
AcDbEntity
  8
CURVE
100
AcDbLine
 62
7
  6
CONTINUOUS
 10
119.8613278531
 20
74.4923253645
 11
120.4987094782
 21
75.1297069897
  0
LINE
  5
35C
100
AcDbEntity
  8
CURVE
100
AcDbLine
 62
7
  6
CONTINUOUS
 10
120.9067072782
 20
75.5377047896
 11
120.9477803392
 21
75.5787778507
  0
LINE
  5
35D
100
AcDbEntity
  8
CURVE
100
AcDbLine
 62
7
  6
CONTINUOUS
 10
119.0674596271
 20
73.2784357105
 11
119.4849036271
 21
73.6958797105
  0
LINE
  5
35E
100
AcDbEntity
  8
CURVE
100
AcDbLine
 62
7
  6
CONTINUOUS
 10
119.8121670499
 20
74.0231431333
 11
120.1631154097
 21
74.3740914931
  0
LINE
  5
35F
100
AcDbEntity
  8
CURVE
100
AcDbLine
 62
7
  6
CONTINUOUS
 10
120.5333766508
 20
74.7443527342
 11
120.8027027958
 21
75.0136788792
  0
LINE
  5
360
100
AcDbEntity
  8
CURVE
100
AcDbLine
 62
7
  6
CONTINUOUS
 10
118.9479423392
 20
72.7388969946
 11
119.2390064097
 21
73.0299610651
  0
LINE
  5
361
100
AcDbEntity
  8
CURVE
100
AcDbLine
 62
7
  6
CONTINUOUS
 10
119.4874810552
 20
73.2784357105
 11
119.9049250552
 21
73.6958797105
  0
LINE
  5
362
100
AcDbEntity
  8
CURVE
100
AcDbLine
 62
7
  6
CONTINUOUS
 10
120.1974037907
 20
73.9883584461
 11
120.5560316733
 21
74.3469863287
  0
LINE
  5
363
100
AcDbEntity
  8
CURVE
100
AcDbLine
 62
7
  6
CONTINUOUS
 10
119.2493965397
 20
72.6203297671
 11
119.5568577055
 21
72.9277909329
  0
LINE
  5
364
100
AcDbEntity
  8
CURVE
100
AcDbLine
 62
7
  6
CONTINUOUS
 10
119.9075024832
 20
73.2784357105
 11
120.3249464832
 21
73.6958797105
  0
LINE
  5
365
100
AcDbEntity
  8
CURVE
100
AcDbLine
 62
7
  6
CONTINUOUS
 10
120.5826405316
 20
73.9535737589
 11
120.9477803392
 21
74.3187135666
  0
LINE
  5
366
100
AcDbEntity
  8
CURVE
100
AcDbLine
 62
7
  6
CONTINUOUS
 10
118.9479423392
 20
71.8988541386
 11
118.994205489
 21
71.9451172884
  0
LINE
  5
367
100
AcDbEntity
  8
CURVE
100
AcDbLine
 62
7
  6
CONTINUOUS
 10
119.5761631933
 20
72.5270749926
 11
119.8747090014
 21
72.8256208007
  0
LINE
  5
368
100
AcDbEntity
  8
CURVE
100
AcDbLine
 62
7
  6
CONTINUOUS
 10
120.3275239112
 20
73.2784357105
 11
120.7449679112
 21
73.6958797105
  0
LINE
  5
369
100
AcDbEntity
  8
CURVE
100
AcDbLine
 62
7
  6
CONTINUOUS
 10
118.9479423392
 20
71.4788327105
 11
119.5750904252
 21
72.1059807965
  0
LINE
  5
36A
100
AcDbEntity
  8
CURVE
100
AcDbLine
 62
7
  6
CONTINUOUS
 10
119.9029298468
 20
72.4338202181
 11
120.1925602972
 21
72.7234506685
  0
LINE
  5
36B
100
AcDbEntity
  8
CURVE
100
AcDbLine
 62
7
  6
CONTINUOUS
 10
120.7475453392
 20
73.2784357105
 11
120.9477803392
 21
73.4786707105
  0
LINE
  5
36C
100
AcDbEntity
  8
CURVE
100
AcDbLine
 62
7
  6
CONTINUOUS
 10
119.5629250955
 20
71.6737940387
 11
120.1559753613
 21
72.2668443046
  0
LINE
  5
36D
100
AcDbEntity
  8
CURVE
100
AcDbLine
 62
7
  6
CONTINUOUS
 10
120.2296965004
 20
72.3405654436
 11
120.510411593
 21
72.6212805363
  0
LINE
  5
36E
100
AcDbEntity
  8
CURVE
100
AcDbLine
 62
7
  6
CONTINUOUS
 10
120.1779078517
 20
71.8687553669
 11
120.8282628889
 21
72.5191104041
  0
LINE
  5
36F
100
AcDbEntity
  8
CURVE
100
AcDbLine
 62
7
  6
CONTINUOUS
 10
120.7928906079
 20
72.0637166951
 11
120.9477803392
 21
72.2186064265
  0
LINE
  5
370
100
AcDbEntity
  8
0
100
AcDbLine
 62
250
  6
CONTINUOUS
 10
124.426567923
 20
80.0506924666
 11
125.5260867828
 21
80.6343366817
  0
LINE
  5
371
100
AcDbEntity
  8
0
100
AcDbLine
 62
7
  6
CONTINUOUS
 10
124.5504234371
 20
132.1833345203
 11
126.5007953392
 21
132.3783717105
  0
LINE
  5
372
100
AcDbEntity
  8
0
100
AcDbLine
 62
7
  6
CONTINUOUS
 10
123.9507953392
 20
132.0283717105
 11
124.1507953392
 21
132.0283717105
  0
LINE
  5
373
100
AcDbEntity
  8
0
100
AcDbLine
 62
250
  6
CONTINUOUS
 10
125.5260867828
 20
133.3224067394
 11
124.426567923
 21
133.9060509544
  0
LINE
  5
374
100
AcDbEntity
  8
0
100
AcDbLine
 62
7
  6
CONTINUOUS
 10
117.6501861662
 20
67.1728120561
 11
117.635247797
 21
67.1583862406
  0
LINE
  5
375
100
AcDbEntity
  8
ASSI
100
AcDbLine
 62
7
  6
CONTINUOUS
 10
117.6501861662
 20
67.1728120561
 11
117.635247797
 21
67.1583862406
  0
LINE
  5
376
100
AcDbEntity
  8
0
100
AcDbLine
 62
250
  6
CONTINUOUS
 10
125.9508445714
 20
80.7246743288
 11
126.4729364242
 21
81.0018099931
  0
LINE
  5
377
100
AcDbEntity
  8
0
100
AcDbLine
 62
7
  6
CONTINUOUS
 10
124.565807301
 20
79.862881219
 11
126.5007953392
 21
80.8900073701
  0
LWPOLYLINE
  5
378
100
AcDbEntity
  8
0
100
AcDbPolyline
 62
250
  6
CONTINUOUS
 90
7
 70
0
 10
126.0897565005
 20
80.6718206258
 10
126.0780651063
 20
80.6672848159
 10
126.0651070919
 20
80.6653997603
 10
126.0510103301
 20
80.6661829671
 10
126.0359154712
 20
80.6696251979
 10
126.0199697302
 20
80.6756915529
 10
126.0033245841
 20
80.6843246247
  0
LWPOLYLINE
  5
379
100
AcDbEntity
  8
CURVE
100
AcDbPolyline
 62
250
  6
CONTINUOUS
 90
8
 70
0
 10
120.3413643329
 20
78.6541059458
 10
120.3690393549
 20
78.6642525369
 10
120.3968568993
 20
78.6739855345
 10
120.4248012144
 20
78.6833499094
 10
120.4528565489
 20
78.6923906325
 10
120.4810071514
 20
78.7011526745
 10
120.5092372703
 20
78.7096810064
 10
120.5375311543
 20
78.7180205987
  0
LINE
  5
37A
100
AcDbEntity
  8
CURVE
100
AcDbLine
 62
250
  6
CONTINUOUS
 10
118.9479423392
 20
77.0454387105
 11
120.9477803392
 21
77.6590387105
  0
LINE
  5
37B
100
AcDbEntity
  8
CURVE
100
AcDbLine
 62
250
  6
CONTINUOUS
 10
120.67940575
 20
78.7584614476
 11
120.9477806045
 21
78.836644187
  0
LINE
  5
37C
100
AcDbEntity
  8
CURVE
100
AcDbLine
 62
250
  6
CONTINUOUS
 10
120.5375311543
 20
78.7180205987
 11
120.5942472118
 21
78.7343134485
  0
LINE
  5
37D
100
AcDbEntity
  8
0
100
AcDbLine
 62
7
  6
CONTINUOUS
 10
123.8007953392
 20
132.7474456227
 11
126.3112625305
 21
132.8583583782
  0
LINE
  5
37E
100
AcDbEntity
  8
0
100
AcDbLine
 62
7
  6
CONTINUOUS
 10
123.8007953392
 20
132.1783717105
 11
124.4509197181
 21
132.1783717105
  0
LINE
  5
37F
100
AcDbEntity
  8
0
100
AcDbLine
 62
250
  6
CONTINUOUS
 10
124.426567923
 20
133.9060509544
 11
123.8007953392
 21
133.9063336315
  0
LINE
  5
380
100
AcDbEntity
  8
0
100
AcDbLine
 62
7
  6
CONTINUOUS
 10
124.4266324341
 20
134.1285011493
 11
123.8007953392
 21
134.1295934422
  0
LINE
  5
381
100
AcDbEntity
  8
0
100
AcDbLine
 62
250
  6
CONTINUOUS
 10
125.9508445714
 20
133.2320690922
 11
123.8007953392
 21
133.2445777128
  0
LINE
  5
382
100
AcDbEntity
  8
0
100
AcDbLine
 62
7
  6
CONTINUOUS
 10
125.9508445714
 20
133.3199355709
 11
123.8007953392
 21
133.3324441914
  0
LWPOLYLINE
  5
383
100
AcDbEntity
  8
0
100
AcDbPolyline
 62
250
  6
CONTINUOUS
 90
7
 70
0
 10
126.0897565005
 20
133.2849227953
 10
126.0780180616
 20
133.2894708373
 10
126.0650247705
 20
133.2913469622
 10
126.0509110169
 20
133.2905460185
 10
126.0358351121
 20
133.2870935745
 10
126.0199371431
 20
133.2810371664
 10
126.0033304147
 20
133.2724222003
  0
LINE
  5
384
100
AcDbEntity
  8
0
100
AcDbLine
 62
250
  6
CONTINUOUS
 10
126.4729364242
 20
132.954933428
 11
125.9508445714
 21
133.2320690922
  0
LINE
  5
385
100
AcDbEntity
  8
0
100
AcDbLine
 62
7
  6
CONTINUOUS
 10
124.565807301
 20
134.0938622021
 11
126.5007953392
 21
133.0667360509
  0
LINE
  5
386
100
AcDbEntity
  8
0
100
AcDbLine
 62
7
  6
CONTINUOUS
 10
117.635247797
 20
146.7983571804
 11
117.6501861662
 21
146.7839313649
  0
LINE
  5
387
100
AcDbEntity
  8
ASSI
100
AcDbLine
 62
7
  6
CONTINUOUS
 10
117.635247797
 20
146.7983571804
 11
117.6501861662
 21
146.7839313649
  0
LINE
  5
388
100
AcDbEntity
  8
CURVE
100
AcDbLine
 62
250
  6
CONTINUOUS
 10
120.9477803392
 20
74.8997597105
 11
119.6419233392
 21
74.4100457105
  0
LINE
  5
389
100
AcDbEntity
  8
CURVE
100
AcDbLine
 62
250
  6
CONTINUOUS
 10
118.9479423392
 20
74.5182767105
 11
120.0582583392
 21
74.9313127105
  0
LINE
  5
38A
100
AcDbEntity
  8
CURVE
100
AcDbLine
 62
250
  6
CONTINUOUS
 10
120.9477803392
 20
72.1128197105
 11
118.9479423392
 21
71.4788327105
  0
LINE
  5
38B
100
AcDbEntity
  8
0
100
AcDbLine
 62
250
  6
CONTINUOUS
 10
123.2007953392
 20
144.1403131429
 11
123.8007953392
 21
144.1822692301
  0
LINE
  5
38C
100
AcDbEntity
  8
0
100
AcDbLine
 62
7
  6
CONTINUOUS
 10
123.2007953392
 20
145.7364156234
 11
123.8007953392
 21
145.7783717105
  0
LINE
  5
38D
100
AcDbEntity
  8
0
100
AcDbLine
 62
7
  6
CONTINUOUS
 10
117.6501861662
 20
146.7839313649
 11
123.2007953392
 21
146.9777629084
  0
LINE
  5
38E
100
AcDbEntity
  8
ASSI
100
AcDbLine
 62
7
  6
CONTINUOUS
 10
117.6501861662
 20
146.7839313649
 11
123.2007953392
 21
146.9777629084
  0
LINE
  5
38F
100
AcDbEntity
  8
0
100
AcDbLine
 62
7
  6
CONTINUOUS
 10
117.6501861662
 20
147.7845401671
 11
123.2007953392
 21
147.9783717105
  0
LINE
  5
390
100
AcDbEntity
  8
ASSI
100
AcDbLine
 62
7
  6
CONTINUOUS
 10
117.6501861662
 20
147.7845401671
 11
123.2007953392
 21
147.9783717105
  0
LWPOLYLINE
  5
391
100
AcDbEntity
  8
0
100
AcDbPolyline
 62
7
  6
CONTINUOUS
 90
8
 70
0
 43
0.3500000006
 10
110.500486908
 20
160.9724633789
 10
111.3576248474
 20
160.9724633789
 10
111.7862028809
 20
161.4010323486
 10
111.7862028809
 20
162.2581702881
 10
111.3576248474
 20
162.6867392578
 10
110.500486908
 20
162.6867392578
 10
110.500486908
 20
163.9724642944
 10
111.7862028809
 20
163.9724642944
  0
LWPOLYLINE
  5
392
100
AcDbEntity
  8
0
100
AcDbPolyline
 62
7
  6
CONTINUOUS
 90
8
 70
0
 43
0.3500000006
 10
111.0539176941
 20
168.5742965698
 10
111.9110556335
 20
168.5742965698
 10
112.339633667
 20
169.0028655396
 10
112.339633667
 20
169.860003479
 10
111.9110556335
 20
170.2885724487
 10
111.0539176941
 20
170.2885724487
 10
111.0539176941
 20
171.5742793579
 10
112.339633667
 20
171.5742793579
  0
LWPOLYLINE
  5
393
100
AcDbEntity
  8
0
100
AcDbPolyline
 62
7
  6
CONTINUOUS
 90
13
 70
0
 43
0.3500000006
 10
109.1253482666
 20
170.2885724487
 10
108.8396325989
 20
170.5028569336
 10
108.8396325989
 20
171.1457103882
 10
109.1253482666
 20
171.5742793579
 10
109.7682017212
 20
171.5742793579
 10
110.0539173889
 20
171.1457103882
 10
110.0539173889
 20
170.5028569336
 10
109.7682017212
 20
170.2885724487
 10
110.1967706909
 20
169.860003479
 10
110.1967706909
 20
169.0028655396
 10
109.7682017212
 20
168.5742965698
 10
109.1253482666
 20
168.5742965698
 10
108.6967702332
 20
169.0028655396
  0
ARC
  5
394
100
AcDbEntity
  8
0
100
AcDbCircle
 62
7
  6
CONTINUOUS
 10
184.5393379934
 20
104.9783717105
 40
4.7
100
AcDbArc
 50
180.0
 51
360.0
  0
ARC
  5
395
100
AcDbEntity
  8
0
100
AcDbCircle
 62
7
  6
CONTINUOUS
 10
184.5393379934
 20
108.9783717105
 40
4.7
100
AcDbArc
 50
0.0
 51
180.0
  0
ARC
  5
396
100
AcDbEntity
  8
ASSI
100
AcDbCircle
 62
7
  6
CONTINUOUS
 10
184.5393379934
 20
104.9783717105
 40
4.7
100
AcDbArc
 50
180.0
 51
360.0
  0
ARC
  5
397
100
AcDbEntity
  8
ASSI
100
AcDbCircle
 62
7
  6
CONTINUOUS
 10
184.5393379934
 20
108.9783717105
 40
4.7
100
AcDbArc
 50
0.0
 51
180.0
  0
ARC
  5
398
100
AcDbEntity
  8
0
100
AcDbCircle
 62
7
  6
CONTINUOUS
 10
184.5393379934
 20
104.9783717105
 40
3.5
100
AcDbArc
 50
180.0
 51
360.0
  0
ARC
  5
399
100
AcDbEntity
  8
0
100
AcDbCircle
 62
7
  6
CONTINUOUS
 10
184.5393379934
 20
108.9783717105
 40
3.5
100
AcDbArc
 50
0.0
 51
180.0
  0
ARC
  5
39A
100
AcDbEntity
  8
ASSI
100
AcDbCircle
 62
7
  6
CONTINUOUS
 10
184.5393379934
 20
104.9783717105
 40
3.5
100
AcDbArc
 50
180.0
 51
360.0
  0
ARC
  5
39B
100
AcDbEntity
  8
ASSI
100
AcDbCircle
 62
7
  6
CONTINUOUS
 10
184.5393379934
 20
108.9783717105
 40
3.5
100
AcDbArc
 50
0.0
 51
180.0
  0
ARC
  5
39C
100
AcDbEntity
  8
0
100
AcDbCircle
 62
7
  6
CONTINUOUS
 10
124.4509197181
 20
133.1783717105
 40
1.0
100
AcDbArc
 50
270.0
 51
275.7105931375
  0
ARC
  5
39D
100
AcDbEntity
  8
0
100
AcDbCircle
 62
7
  6
CONTINUOUS
 10
124.4509197181
 20
80.7783717105
 40
1.0
100
AcDbArc
 50
84.2894068625
 51
90.0
  0
ARC
  5
39E
100
AcDbEntity
  8
0
100
AcDbCircle
 62
7
  6
CONTINUOUS
 10
124.4261086081
 20
80.1283721848
 40
0.3
100
AcDbArc
 50
270.1000001427
 51
297.9489999322
  0
ARC
  5
39F
100
AcDbEntity
  8
0
100
AcDbCircle
 62
7
  6
CONTINUOUS
 10
124.4261086081
 20
133.8283712363
 40
0.3
100
AcDbArc
 50
62.0510000678
 51
89.8999998573
  0
ARC
  5
3A0
100
AcDbEntity
  8
0
100
AcDbCircle
 62
7
  6
CONTINUOUS
 10
125.949099252
 20
133.0199406478
 40
0.3
100
AcDbArc
 50
62.0398404207
 51
89.6666666667
  0
ARC
  5
3A1
100
AcDbEntity
  8
0
100
AcDbCircle
 62
7
  6
CONTINUOUS
 10
125.949099252
 20
80.9368027732
 40
0.3
100
AcDbArc
 50
270.3333333333
 51
297.9601595775
  0
ELLIPSE
  5
3A2
100
AcDbEntity
  8
0
100
AcDbEllipse
 62
7
  6
CONTINUOUS
 10
126.3007953392
 20
80.8985730155
 30
0.0
 11
0.1417119467
 21
0.1422961243
 31
0.0
 40
0.9918061237
 41
-0.2491986107
 42
0.7350951877
  0
ELLIPSE
  5
3A3
100
AcDbEntity
  8
0
100
AcDbEllipse
 62
7
  6
CONTINUOUS
 10
126.3007953392
 20
133.0581704056
 30
0.0
 11
-0.1417119467
 21
0.1422961243
 31
0.0
 40
0.9918061237
 41
-3.8766878413
 42
-2.8923940429
  0
ENDSEC
  0
SECTION
  2
OBJECTS
  0
DICTIONARY
  5
C
100
AcDbDictionary
280
0
281
1
  3
ACAD_GROUP
350
D
  3
ACAD_MLINESTYLE
350
17
  3
ACAD_LAYOUT
350
1A
  3
ACAD_PLOTSETTINGS
350
19
  3
ACAD_PLOTSTYLENAME
350
E
  0
DICTIONARY
  5
D
102
{ACAD_REACTORS
330
C
102
}
100
AcDbDictionary
280
0
281
1
  0
ACDBDICTIONARYWDFLT
  5
E
102
{ACAD_REACTORS
330
C
102
}
100
AcDbDictionary
281
1
  3
Normal
350
F
100
AcDbDictionaryWithDefault
340
F
  0
DICTIONARY
  5
17
102
{ACAD_REACTORS
330
C
102
}
100
AcDbDictionary
280
0
281
1
  3
Standard
350
18
  0
DICTIONARY
  5
19
102
{ACAD_REACTORS
330
C
102
}
100
AcDbDictionary
281
1
  0
DICTIONARY
  5
1A
102
{ACAD_REACTORS
330
C
102
}
100
AcDbDictionary
281
1
  3
Model
350
3A4
  3
Layout1
350
3A5
  0
ACDBPLACEHOLDER
  5
F
102
{ACAD_REACTORS
330
E
102
}
  0
MLINESTYLE
  5
18
102
{ACAD_REACTORS
330
17
102
}
100
AcDbMlineStyle
  2
STANDARD
 70
0
  3

 62
256
 51
90.0
 52
90.0
 71
2
 49
0.5
 62
256
  6
BYLAYER
 49
-0.5
 62
256
  6
BYLAYER
  0
LAYOUT
  5
3A4
102
{ACAD_REACTORS
330
1A
102
}
100
AcDbPlotSettings
  1

  2
none_device
  4
ISO_A4_(297.00_x_210.00_MM)
  6

 40
0.0
 41
0.0
 42
0.0
 43
0.0
 44
297.0
 45
210.0
 46
0.0
 47
0.0
 48
0.0
 49
0.0
140
0.0
141
0.0
142
1.0
143
1.0
 70
1024
 72
1
 73
0
 74
0
  7

 75
0
147
1.0
148
0.0
149
0.0
100
AcDbLayout
  1
Model
 70
0
 71
0
 10
0.0
 20
0.0
 11
297.0
 21
210.0
 12
0.0
 22
0.0
 32
0.0
 14
0.0
 24
0.0
 34
0.0
 15
0.0
 25
0.0
 35
0.0
146
0.0
 13
0.0
 23
0.0
 33
0.0
 16
1.0
 26
0.0
 36
0.0
 17
0.0
 27
1.0
 37
0.0
 76
0
330
21C
345
0
346
0
  0
LAYOUT
  5
3A5
102
{ACAD_REACTORS
330
1A
102
}
100
AcDbPlotSettings
  1

  2
none_device
  4
ISO_A4_(297.00_x_210.00_MM)
  6

 40
0.0
 41
0.0
 42
0.0
 43
0.0
 44
297.0
 45
210.0
 46
0.0
 47
0.0
 48
0.0
 49
0.0
140
0.0
141
0.0
142
1.0
143
1.0
 70
0
 72
1
 73
0
 74
0
  7

 75
0
147
1.0
148
0.0
149
0.0
100
AcDbLayout
  1
Layout1
 70
0
 71
1
 10
0.0
 20
0.0
 11
297.0
 21
210.0
 12
0.0
 22
0.0
 32
0.0
 14
0.0
 24
0.0
 34
0.0
 15
0.0
 25
0.0
 35
0.0
146
0.0
 13
0.0
 23
0.0
 33
0.0
 16
1.0
 26
0.0
 36
0.0
 17
0.0
 27
1.0
 37
0.0
 76
0
330
21D
345
0
346
0
  0
ENDSEC
  0
EOF
