  0
SECTION
  2
HEADER
  9
$ACADVER
  1
AC1024
  9
$DWGCODEPAGE
  3
ANSI_1252
  9
$EXTMAX
 10
297.0
 20
210.0
 30
0.0
  9
$EXTMIN
 10
0.0
 20
0.0
 30
0.0
  9
$LIMMIN
 10
0.0
 20
0.0
  9
$LIMMAX
 10
297.0
 20
210.0
  9
$VIEWCTR
 10
148.5
 20
105.0
  9
$VIEWSIZE
 40
210.0
  9
$CLAYER
  8
0
  9
$LTSCALE
 40
16.335
  9
$CELTYPE
  6
BYLAYER
  9
$DIMSCALE
 40
1.0
  9
$DIMASZ
 40
3.0
  9
$DIMEXO
 40
0.5
  9
$DIMDLI
 40
11.286
  9
$DIMEXE
 40
1.5
  9
$DIMCEN
 40
2.673
  9
$DIMLFAC
 40
1.0
  9
$DIMBLK
  1
_FILLED
  9
$DIMALT
 70
0
  9
$DIMALTF
 40
0.0393700787
  9
$DIMTXT
 40
3.0
  9
$DIMTOL
 70
1
  9
$DIMLIM
 70
0
  9
$DIMTFAC
 40
1.0
  9
$DIMTP
 40
0.01
  9
$DIMTM
 40
0.01
  9
$DIMGAP
 40
0.625
  9
$DIMDSEP
 70
44
  9
$AUNITS
 70
0
  9
$PDMODE
 70
3
  9
$PDSIZE
 40
3.0
  9
$HANDSEED
  5
471
  9
$TILEMODE
 70
1
  9
$MEASUREMENT
 70
1
  9
$INSUNITS
 70
4
  0
ENDSEC
  0
SECTION
  2
CLASSES
  0
CLASS
  1
ACDBDICTIONARYWDFLT
  2
AcDbDictionaryWithDefault
  3
AutoCAD 2000
 90
0
 91
1
280
0
281
0
  0
CLASS
  1
ACDBPLACEHOLDER
  2
AcDbPlaceHolder
  3
AutoCAD 2000
 90
0
 91
1
280
0
281
0
  0
CLASS
  1
LAYOUT
  2
AcDbLayout
  3
AutoCAD 2000
 90
0
 91
0
280
0
281
0
  0
ENDSEC
  0
SECTION
  2
TABLES
  0
TABLE
  2
VPORT
  5
8
100
AcDbSymbolTable
 70
2
  0
VPORT
  5
1F4
100
AcDbSymbolTableRecord
100
AcDbViewportTableRecord
  2
*ACTIVE
 70
0
 10
0.0
 20
0.0
 11
1.0
 21
1.0
 12
148.5
 22
105.0
 13
0.0
 23
0.0
 14
1.0
 24
1.0
 15
0.0
 25
0.0
 16
0.0
 26
0.0
 36
1.0
 17
0.0
 27
0.0
 37
0.0
 40
210.0
 41
1.4142857143
 42
50.0
 43
0.0
 44
0.0
 50
0.0
 51
0.0
 71
0
 72
100
 73
1
 74
1
 75
0
 76
0
 77
0
 78
0
  0
ENDTAB
  0
TABLE
  2
LTYPE
  5
5
100
AcDbSymbolTable
 70
6
  0
LTYPE
  5
14
100
AcDbSymbolTableRecord
100
AcDbLinetypeTableRecord
  2
BYBLOCK
 70
0
  3

 72
65
 73
0
 40
0.0
  0
LTYPE
  5
15
100
AcDbSymbolTableRecord
100
AcDbLinetypeTableRecord
  2
BYLAYER
 70
0
  3

 72
65
 73
0
 40
0.0
  0
LTYPE
  5
16
100
AcDbSymbolTableRecord
100
AcDbLinetypeTableRecord
  2
CONTINUOUS
 70
64
  3
Solid line
 72
65
 73
0
 40
0.0
  0
LTYPE
  5
1F5
100
AcDbSymbolTableRecord
100
AcDbLinetypeTableRecord
  2
CENTER
 70
64
  3
____ _ ____ _ ____ _ ____ _ ____ _ ____ _ ____
 72
65
 73
4
 40
0.6
 49
0.375
 74
0
 49
-0.075
 74
0
 49
0.075
 74
0
 49
-0.075
 74
0
  0
LTYPE
  5
1F6
100
AcDbSymbolTableRecord
100
AcDbLinetypeTableRecord
  2
HIDDEN
 70
64
  3
- - - - - - - - - - - - - - - - - - - -
 72
65
 73
2
 40
0.2
 49
0.1
 74
0
 49
-0.1
 74
0
  0
LTYPE
  5
1F7
100
AcDbSymbolTableRecord
100
AcDbLinetypeTableRecord
  2
PHANTOM
 70
64
  3
_____ _ _ _____ _ _ _____ _ _ _____
 72
65
 73
6
 40
0.8
 49
0.45
 74
0
 49
-0.05
 74
0
 49
0.1
 74
0
 49
-0.05
 74
0
 49
0.1
 74
0
 49
-0.05
 74
0
  0
LTYPE
  5
1F8
100
AcDbSymbolTableRecord
100
AcDbLinetypeTableRecord
  2
DOT
 70
64
  3
. . . . . . . . . . . . . . . . . . . .
 72
65
 73
2
 40
0.2
 49
0.1
 74
0
 49
-0.1
 74
0
  0
LTYPE
  5
1F9
100
AcDbSymbolTableRecord
100
AcDbLinetypeTableRecord
  2
DASHED
 70
64
  3
- - - - - - - - - - - - - - - - - - - -
 72
65
 73
2
 40
0.2
 49
0.1
 74
0
 49
-0.1
 74
0
  0
ENDTAB
  0
TABLE
  2
LAYER
  5
2
100
AcDbSymbolTable
 70
36
  0
LAYER
  5
10
100
AcDbSymbolTableRecord
100
AcDbLayerTableRecord
  2
0
 70
0
 62
7
  6
CONTINUOUS
370
-3
390
F
  0
LAYER
  5
1FA
100
AcDbSymbolTableRecord
100
AcDbLayerTableRecord
  2
DEFAULT_1
 70
0
 62
7
  6
CENTER
370
-3
390
F
  0
LAYER
  5
1FB
100
AcDbSymbolTableRecord
100
AcDbLayerTableRecord
  2
DEFAULT_2
 70
0
 62
7
  6
HIDDEN
370
-3
390
F
  0
LAYER
  5
1FC
100
AcDbSymbolTableRecord
100
AcDbLayerTableRecord
  2
DEFAULT_3
 70
0
 62
7
  6
PHANTOM
370
-3
390
F
  0
LAYER
  5
1FD
100
AcDbSymbolTableRecord
100
AcDbLayerTableRecord
  2
ASSI
 70
0
 62
7
  6
CONTINUOUS
370
-3
390
F
  0
LAYER
  5
1FE
100
AcDbSymbolTableRecord
100
AcDbLayerTableRecord
  2
COORDINATE
 70
0
 62
7
  6
CONTINUOUS
370
-3
390
F
  0
LAYER
  5
1FF
100
AcDbSymbolTableRecord
100
AcDbLayerTableRecord
  2
COORD_ORIGINE
 70
0
 62
7
  6
CONTINUOUS
370
-3
390
F
  0
LAYER
  5
200
100
AcDbSymbolTableRecord
100
AcDbLayerTableRecord
  2
COPY_PUBLISH
 70
0
 62
7
  6
CONTINUOUS
370
-3
390
F
  0
LAYER
  5
201
100
AcDbSymbolTableRecord
100
AcDbLayerTableRecord
  2
COSMETIC
 70
0
 62
7
  6
CONTINUOUS
370
-3
390
F
  0
LAYER
  5
202
100
AcDbSymbolTableRecord
100
AcDbLayerTableRecord
  2
COSMETICI
 70
0
 62
7
  6
CONTINUOUS
370
-3
390
F
  0
LAYER
  5
203
100
AcDbSymbolTableRecord
100
AcDbLayerTableRecord
  2
CURVE
 70
0
 62
7
  6
CONTINUOUS
370
-3
390
F
  0
LAYER
  5
204
100
AcDbSymbolTableRecord
100
AcDbLayerTableRecord
  2
CURVE_TASSELLI
 70
0
 62
7
  6
CONTINUOUS
370
-3
390
F
  0
LAYER
  5
205
100
AcDbSymbolTableRecord
100
AcDbLayerTableRecord
  2
DRAFT
 70
0
 62
7
  6
CONTINUOUS
370
-3
390
F
  0
LAYER
  5
206
100
AcDbSymbolTableRecord
100
AcDbLayerTableRecord
  2
IMPORT_IGES
 70
0
 62
7
  6
CONTINUOUS
370
-3
390
F
  0
LAYER
  5
207
100
AcDbSymbolTableRecord
100
AcDbLayerTableRecord
  2
INTFCLR_2
 70
0
 62
7
  6
CONTINUOUS
370
-3
390
F
  0
LAYER
  5
208
100
AcDbSymbolTableRecord
100
AcDbLayerTableRecord
  2
INTF_1
 70
0
 62
7
  6
CONTINUOUS
370
-3
390
F
  0
LAYER
  5
209
100
AcDbSymbolTableRecord
100
AcDbLayerTableRecord
  2
INTF_21
 70
0
 62
7
  6
CONTINUOUS
370
-3
390
F
  0
LAYER
  5
20A
100
AcDbSymbolTableRecord
100
AcDbLayerTableRecord
  2
INTF_6
 70
0
 62
7
  6
CONTINUOUS
370
-3
390
F
  0
LAYER
  5
20B
100
AcDbSymbolTableRecord
100
AcDbLayerTableRecord
  2
INTF_7
 70
0
 62
7
  6
CONTINUOUS
370
-3
390
F
  0
LAYER
  5
20C
100
AcDbSymbolTableRecord
100
AcDbLayerTableRecord
  2
INTF_CYAN
 70
0
 62
7
  6
CONTINUOUS
370
-3
390
F
  0
LAYER
  5
20D
100
AcDbSymbolTableRecord
100
AcDbLayerTableRecord
  2
LIVELLO_1
 70
0
 62
7
  6
CONTINUOUS
370
-3
390
F
  0
LAYER
  5
20E
100
AcDbSymbolTableRecord
100
AcDbLayerTableRecord
  2
NOTE
 70
0
 62
7
  6
CONTINUOUS
370
-3
390
F
  0
LAYER
  5
20F
100
AcDbSymbolTableRecord
100
AcDbLayerTableRecord
  2
PIANI
 70
0
 62
7
  6
CONTINUOUS
370
-3
390
F
  0
LAYER
  5
210
100
AcDbSymbolTableRecord
100
AcDbLayerTableRecord
  2
PIANI_ORIGINE
 70
0
 62
7
  6
CONTINUOUS
370
-3
390
F
  0
LAYER
  5
211
100
AcDbSymbolTableRecord
100
AcDbLayerTableRecord
  2
PIANI_RIFERIMENTO
 70
0
 62
7
  6
CONTINUOUS
370
-3
390
F
  0
LAYER
  5
212
100
AcDbSymbolTableRecord
100
AcDbLayerTableRecord
  2
PUNTI
 70
0
 62
7
  6
CONTINUOUS
370
-3
390
F
  0
LAYER
  5
213
100
AcDbSymbolTableRecord
100
AcDbLayerTableRecord
  2
RACCORDO
 70
0
 62
7
  6
CONTINUOUS
370
-3
390
F
  0
LAYER
  5
214
100
AcDbSymbolTableRecord
100
AcDbLayerTableRecord
  2
RGB__255__255__255__
 70
0
 62
7
  6
CONTINUOUS
370
-3
390
F
  0
LAYER
  5
215
100
AcDbSymbolTableRecord
100
AcDbLayerTableRecord
  2
RGB____0____0____0__
 70
0
 62
7
  6
CONTINUOUS
370
-3
390
F
  0
LAYER
  5
216
100
AcDbSymbolTableRecord
100
AcDbLayerTableRecord
  2
SIMBOLI
 70
0
 62
7
  6
CONTINUOUS
370
-3
390
F
  0
LAYER
  5
217
100
AcDbSymbolTableRecord
100
AcDbLayerTableRecord
  2
SMUSSO
 70
0
 62
7
  6
CONTINUOUS
370
-3
390
F
  0
LAYER
  5
218
100
AcDbSymbolTableRecord
100
AcDbLayerTableRecord
  2
SUPERFICI
 70
0
 62
7
  6
CONTINUOUS
370
-3
390
F
  0
LAYER
  5
219
100
AcDbSymbolTableRecord
100
AcDbLayerTableRecord
  2
TRASH
 70
0
 62
7
  6
CONTINUOUS
370
-3
390
F
  0
LAYER
  5
21A
100
AcDbSymbolTableRecord
100
AcDbLayerTableRecord
  2
WHITE
 70
0
 62
7
  6
CONTINUOUS
370
-3
390
F
  0
LAYER
  5
21B
100
AcDbSymbolTableRecord
100
AcDbLayerTableRecord
  2
XSEC_DATUMS
 70
0
 62
7
  6
CONTINUOUS
370
-3
390
F
  0
ENDTAB
  0
TABLE
  2
STYLE
  5
3
100
AcDbSymbolTable
 70
1
  0
STYLE
  5
11
100
AcDbSymbolTableRecord
100
AcDbTextStyleTableRecord
  2
STANDARD
 70
0
 40
0.0
 41
0.8
 50
0.0
 71
0
 42
0.2
  3
txt
  4

  0
STYLE
  5
21C
100
AcDbSymbolTableRecord
100
AcDbTextStyleTableRecord
  2
TEXTSTYLE_1
 70
0
 40
0.0
 41
0.8
 50
0.0
 71
0
 42
0.2
  3
gdt
  4

  0
ENDTAB
  0
TABLE
  2
VIEW
  5
6
100
AcDbSymbolTable
 70
0
  0
ENDTAB
  0
TABLE
  2
UCS
  5
7
100
AcDbSymbolTable
 70
0
  0
ENDTAB
  0
TABLE
  2
APPID
  5
9
100
AcDbSymbolTable
 70
1
  0
APPID
  5
21D
100
AcDbSymbolTableRecord
100
AcDbRegAppTableRecord
  2
ACAD
 70
0
  0
ENDTAB
  0
TABLE
  2
BLOCK_RECORD
  5
1
100
AcDbSymbolTable
 70
0
  0
BLOCK_RECORD
  5
21E
100
AcDbSymbolTableRecord
100
AcDbBlockTableRecord
  2
*Model_Space
  0
BLOCK_RECORD
  5
21F
100
AcDbSymbolTableRecord
100
AcDbBlockTableRecord
  2
*Paper_Space
  0
BLOCK_RECORD
  5
220
100
AcDbSymbolTableRecord
100
AcDbBlockTableRecord
  2
_FILLED
  0
BLOCK_RECORD
  5
221
100
AcDbSymbolTableRecord
100
AcDbBlockTableRecord
  2
*D0
  0
BLOCK_RECORD
  5
222
100
AcDbSymbolTableRecord
100
AcDbBlockTableRecord
  2
*D1
  0
BLOCK_RECORD
  5
223
100
AcDbSymbolTableRecord
100
AcDbBlockTableRecord
  2
*D2
  0
BLOCK_RECORD
  5
224
100
AcDbSymbolTableRecord
100
AcDbBlockTableRecord
  2
*D3
  0
ENDTAB
  0
TABLE
  2
DIMSTYLE
  5
A
100
AcDbSymbolTable
 70
1
100
AcDbDimStyleTable
 71
0
  0
DIMSTYLE
105
225
100
AcDbSymbolTableRecord
100
AcDbDimStyleTableRecord
  2
STANDARD
 70
0
  3

  4

 40
1.0
 41
3.0
 42
0.5
 43
0.38
 44
1.5
 45
0.0
 46
0.0
 47
0.01
 48
0.01
140
3.0
141
0.09
142
0.0
143
25.4
144
1.0
145
0.0
146
1.0
147
0.625
 71
1
 72
0
 73
0
 74
0
 75
0
 76
0
 77
1
 78
8
 79
2
170
0
171
1
172
0
173
0
174
0
175
0
176
0
177
0
178
0
270
2
179
2
271
2
272
2
273
2
274
2
275
0
280
0
281
0
282
0
283
1
284
8
285
0
286
0
287
3
288
0
340
11
278
44
341
220
342
220
343
220
344
220
  0
DIMSTYLE
105
226
100
AcDbSymbolTableRecord
100
AcDbDimStyleTableRecord
  2
DIMSTYLE_1
 70
0
  3

  4

 40
1.0
 41
3.0
 42
0.5
 43
0.38
 44
1.5
 45
0.0
 46
0.0
 47
0.0
 48
0.0
140
3.0
141
0.09
142
0.0
143
25.4
144
1.0
145
0.0
146
1.0
147
0.75
 71
0
 72
0
 73
0
 74
0
 75
0
 76
0
 77
1
 78
8
 79
2
170
0
171
1
172
0
173
0
174
0
175
0
176
0
177
0
178
0
270
2
179
2
271
2
272
2
273
2
274
2
275
0
280
0
281
0
282
0
283
1
284
8
285
0
286
0
287
3
288
0
340
11
278
44
341
220
342
220
343
220
344
220
  0
ENDTAB
  0
ENDSEC
  0
SECTION
  2
BLOCKS
  0
BLOCK
  5
20
100
AcDbEntity
  8
0
100
AcDbBlockBegin
  2
*Model_Space
 70
0
 10
0.0
 20
0.0
 30
0.0
  3
*Model_Space
  1

  0
ENDBLK
  5
21
100
AcDbEntity
  8
0
100
AcDbBlockEnd
  0
BLOCK
  5
1C
100
AcDbEntity
  8
0
100
AcDbBlockBegin
  2
*Paper_Space
 70
0
 10
0.0
 20
0.0
 30
0.0
  3
*Paper_Space
  1

  0
ENDBLK
  5
1D
100
AcDbEntity
  8
0
100
AcDbBlockEnd
  0
BLOCK
  5
227
100
AcDbEntity
  8
0
100
AcDbBlockBegin
  2
_FILLED
 70
64
 10
0.0
 20
0.0
  3
_FILLED
  1

  0
SOLID
  5
228
100
AcDbEntity
  8
0
  6
BYBLOCK
 62
0
100
AcDbTrace
 10
0.0
 20
0.0
 11
-1.0
 21
0.3166666667
 12
-1.0
 22
-0.3166666667
 13
-1.0
 23
-0.3166666667
  0
ENDBLK
  5
229
100
AcDbEntity
  8
0
  6
BYBLOCK
 62
0
100
AcDbBlockEnd
  0
BLOCK
  5
22A
100
AcDbEntity
  8
0
100
AcDbBlockBegin
 62
7
  6
CONTINUOUS
  2
*D0
 70
65
 10
0.0
 20
0.0
  3
*D0
  1

  0
MTEXT
  5
22B
100
AcDbEntity
  8
0
100
AcDbMText
 62
7
  6
CONTINUOUS
  7
STANDARD
 71
2
 72
1
 10
0.0
 20
60.3683535068
 30
0.0
 11
1.0
 21
0.0
 31
0.0
 73
2
 44
0.9
  1
{\ftxt;\W0.0001;\H0.0001;\~}{\ftxt;\W1.5714285714;\H3.0; }{\ftxt;\W0.0001;\H0.0001;\~}
 40
3.0
 41
7.0714285714
  0
LINE
  5
22C
100
AcDbEntity
  8
0
100
AcDbLine
 62
7
  6
CONTINUOUS
 10
-45.0
 20
44.4993911979
 11
-45.0
 21
58.1183535068
  0
LINE
  5
22D
100
AcDbEntity
  8
0
100
AcDbLine
 62
7
  6
CONTINUOUS
 10
45.0
 20
44.4993911979
 11
45.0
 21
58.1183535068
  0
LINE
  5
22E
100
AcDbEntity
  8
0
100
AcDbLine
 62
7
  6
CONTINUOUS
 10
-45.0
 20
56.6183535068
 11
0.0
 21
56.6183535068
  0
LINE
  5
22F
100
AcDbEntity
  8
0
100
AcDbLine
 62
7
  6
CONTINUOUS
 10
45.0
 20
56.6183535068
 11
0.0
 21
56.6183535068
  0
INSERT
  5
230
100
AcDbEntity
  8
0
100
AcDbBlockReference
 62
7
  6
CONTINUOUS
  2
_FILLED
 10
-45.0
 20
56.6183535068
 41
3.0
 42
3.0
 43
3.0
 50
180.0
  0
INSERT
  5
231
100
AcDbEntity
  8
0
100
AcDbBlockReference
 62
7
  6
CONTINUOUS
  2
_FILLED
 10
45.0
 20
56.6183535068
 41
3.0
 42
3.0
 43
3.0
 50
0.0
  0
ENDBLK
  5
232
100
AcDbEntity
  8
0
  6
BYBLOCK
 62
0
100
AcDbBlockEnd
  0
BLOCK
  5
233
100
AcDbEntity
  8
0
100
AcDbBlockBegin
 62
7
  6
CONTINUOUS
  2
*D1
 70
65
 10
0.0
 20
0.0
  3
*D1
  1

  0
MTEXT
  5
234
100
AcDbEntity
  8
0
100
AcDbMText
 62
7
  6
CONTINUOUS
  7
STANDARD
 71
2
 72
1
 10
53.7768559727
 20
0.0
 30
0.0
 11
0.0
 21
1.0
 31
0.0
 73
2
 44
0.9
  1
{\ftxt;\W0.0001;\H0.0001;\~}{\ftxt;\W1.5714285714;\H3.0; }{\ftxt;\W0.0001;\H0.0001;\~}
 40
3.0
 41
7.0714285714
  0
LINE
  5
235
100
AcDbEntity
  8
0
100
AcDbLine
 62
7
  6
CONTINUOUS
 10
44.4993911979
 20
45.0
 11
59.0268559727
 21
45.0
  0
LINE
  5
236
100
AcDbEntity
  8
0
100
AcDbLine
 62
7
  6
CONTINUOUS
 10
44.4993911979
 20
-45.0
 11
59.0268559727
 21
-45.0
  0
LINE
  5
237
100
AcDbEntity
  8
0
100
AcDbLine
 62
7
  6
CONTINUOUS
 10
57.5268559727
 20
45.0
 11
57.5268559727
 21
0.0
  0
LINE
  5
238
100
AcDbEntity
  8
0
100
AcDbLine
 62
7
  6
CONTINUOUS
 10
57.5268559727
 20
-45.0
 11
57.5268559727
 21
0.0
  0
INSERT
  5
239
100
AcDbEntity
  8
0
100
AcDbBlockReference
 62
7
  6
CONTINUOUS
  2
_FILLED
 10
57.5268559727
 20
45.0
 41
3.0
 42
3.0
 43
3.0
 50
90.0
  0
INSERT
  5
23A
100
AcDbEntity
  8
0
100
AcDbBlockReference
 62
7
  6
CONTINUOUS
  2
_FILLED
 10
57.5268559727
 20
-45.0
 41
3.0
 42
3.0
 43
3.0
 50
270.0
  0
ENDBLK
  5
23B
100
AcDbEntity
  8
0
  6
BYBLOCK
 62
0
100
AcDbBlockEnd
  0
BLOCK
  5
23C
100
AcDbEntity
  8
0
100
AcDbBlockBegin
 62
7
  6
CONTINUOUS
  2
*D2
 70
65
 10
0.0
 20
0.0
  3
*D2
  1

  0
MTEXT
  5
23D
100
AcDbEntity
  8
0
100
AcDbMText
 62
7
  6
CONTINUOUS
  7
STANDARD
 71
3
 72
1
 10
-84.1660043379
 20
60.7535353887
 30
0.0
 11
1.0
 21
0.0
 31
0.0
 73
2
 44
0.9
  1
{\ftxt;\W0.0001;\H0.0001;\~}{\ftxt;\W2.6428571429;\H3.0; }{\ftxt;\W0.0001;\H0.0001;\~}
 40
3.0
 41
11.8928571429
  0
LINE
  5
23E
100
AcDbEntity
  8
0
100
AcDbLine
 62
7
  6
CONTINUOUS
 10
-74.4647820767
 20
41.7038975196
 11
-74.4647820767
 21
58.5035353887
  0
LINE
  5
23F
100
AcDbEntity
  8
0
100
AcDbLine
 62
7
  6
CONTINUOUS
 10
-81.6147820767
 20
43.8767374102
 11
-81.6147820767
 21
58.5035353887
  0
LINE
  5
240
100
AcDbEntity
  8
0
100
AcDbLine
 62
7
  6
CONTINUOUS
 10
-74.4647820767
 20
57.0035353887
 11
-78.0397820767
 21
57.0035353887
  0
LINE
  5
241
100
AcDbEntity
  8
0
100
AcDbLine
 62
7
  6
CONTINUOUS
 10
-81.6147820767
 20
57.0035353887
 11
-78.0397820767
 21
57.0035353887
  0
LINE
  5
242
100
AcDbEntity
  8
0
100
AcDbLine
 62
7
  6
CONTINUOUS
 10
-78.0397820767
 20
57.0035353887
 11
-92.0945757665
 21
57.0035353887
  0
INSERT
  5
243
100
AcDbEntity
  8
0
100
AcDbBlockReference
 62
7
  6
CONTINUOUS
  2
_FILLED
 10
-74.4647820767
 20
57.0035353887
 41
3.0
 42
3.0
 43
3.0
  0
INSERT
  5
244
100
AcDbEntity
  8
0
100
AcDbBlockReference
 62
7
  6
CONTINUOUS
  2
_FILLED
 10
-81.6147820767
 20
57.0035353887
 41
3.0
 42
3.0
 43
3.0
 50
180.0
  0
ENDBLK
  5
245
100
AcDbEntity
  8
0
  6
BYBLOCK
 62
0
100
AcDbBlockEnd
  0
BLOCK
  5
246
100
AcDbEntity
  8
0
100
AcDbBlockBegin
 62
7
  6
CONTINUOUS
  2
*D3
 70
65
 10
0.0
 20
0.0
  3
*D3
  1

  0
MTEXT
  5
247
100
AcDbEntity
  8
0
100
AcDbMText
 62
7
  6
CONTINUOUS
  7
STANDARD
 71
3
 72
1
 10
-83.031832853
 20
69.7431343307
 30
0.0
 11
1.0
 21
0.0
 31
0.0
 73
2
 44
0.9
  1
{\ftxt;\W0.0001;\H0.0001;\~}{\ftxt;\W3.2142857143;\H3.0; }{\ftxt;\W0.0001;\H0.0001;\~}
 40
3.0
 41
14.4642857143
  0
LINE
  5
248
100
AcDbEntity
  8
0
100
AcDbLine
 62
7
  6
CONTINUOUS
 10
-71.4647820767
 20
26.4903260329
 11
-71.4647820767
 21
67.4931343307
  0
LINE
  5
249
100
AcDbEntity
  8
0
100
AcDbLine
 62
7
  6
CONTINUOUS
 10
-81.6147820767
 20
43.8767374102
 11
-81.6147820767
 21
67.4931343307
  0
LINE
  5
24A
100
AcDbEntity
  8
0
100
AcDbLine
 62
7
  6
CONTINUOUS
 10
-71.4647820767
 20
65.9931343307
 11
-76.5397820767
 21
65.9931343307
  0
LINE
  5
24B
100
AcDbEntity
  8
0
100
AcDbLine
 62
7
  6
CONTINUOUS
 10
-81.6147820767
 20
65.9931343307
 11
-76.5397820767
 21
65.9931343307
  0
LINE
  5
24C
100
AcDbEntity
  8
0
100
AcDbLine
 62
7
  6
CONTINUOUS
 10
-76.5397820767
 20
65.9931343307
 11
-92.6746899958
 21
65.9931343307
  0
INSERT
  5
24D
100
AcDbEntity
  8
0
100
AcDbBlockReference
 62
7
  6
CONTINUOUS
  2
_FILLED
 10
-71.4647820767
 20
65.9931343307
 41
3.0
 42
3.0
 43
3.0
  0
INSERT
  5
24E
100
AcDbEntity
  8
0
100
AcDbBlockReference
 62
7
  6
CONTINUOUS
  2
_FILLED
 10
-81.6147820767
 20
65.9931343307
 41
3.0
 42
3.0
 43
3.0
 50
180.0
  0
ENDBLK
  5
24F
100
AcDbEntity
  8
0
  6
BYBLOCK
 62
0
100
AcDbBlockEnd
  0
ENDSEC
  0
SECTION
  2
ENTITIES
  0
DIMENSION
  5
250
100
AcDbEntity
  8
0
100
AcDbDimension
 62
7
  6
CONTINUOUS
  2
*D0
 10
45.0
 20
56.6183535068
 11
-0.4285713773
 21
56.6183535068
 70
160
 71
2
 72
2
 41
0.9
 42
90.0
  1
{\ftxt;\W0.0001;\H0.0001;\~}{\ftxt;\W1.5714285714;\H3.0; }{\ftxt;\W0.0001;\H0.0001;\~}
  3
DIMSTYLE_1
100
AcDbAlignedDimension
 13
-45.0
 23
43.9993911979
 14
45.0
 24
43.9993911979
100
AcDbRotatedDimension
  0
DIMENSION
  5
251
100
AcDbEntity
  8
0
100
AcDbDimension
 62
7
  6
CONTINUOUS
  2
*D1
 10
57.5268559727
 20
-45.0
 11
57.5268559727
 21
-0.4285721406
 70
160
 71
2
 72
2
 41
0.9
 42
90.0
  1
{\ftxt;\W0.0001;\H0.0001;\~}{\ftxt;\W1.5714285714;\H3.0; }{\ftxt;\W0.0001;\H0.0001;\~}
  3
DIMSTYLE_1
100
AcDbAlignedDimension
 13
43.9993911979
 23
45.0
 14
43.9993911979
 24
-45.0
 50
270.0
100
AcDbRotatedDimension
  0
DIMENSION
  5
252
100
AcDbEntity
  8
0
100
AcDbDimension
 62
7
  6
CONTINUOUS
  2
*D2
 10
-81.6147820767
 20
57.0035353887
 11
-88.5588596191
 21
57.0035353887
 70
160
 71
3
 72
2
 41
0.9
 42
7.15
  1
{\ftxt;\W0.0001;\H0.0001;\~}{\ftxt;\W2.6428571429;\H3.0; }{\ftxt;\W0.0001;\H0.0001;\~}
  3
DIMSTYLE_1
100
AcDbAlignedDimension
 13
-74.4647820767
 23
41.2038975196
 14
-81.6147820767
 24
43.3767374102
 50
180.0
100
AcDbRotatedDimension
  0
DIMENSION
  5
253
100
AcDbEntity
  8
0
100
AcDbDimension
 62
7
  6
CONTINUOUS
  2
*D3
 10
-81.6147820767
 20
65.9931343307
 11
-88.2818315277
 21
65.9931343307
 70
160
 71
3
 72
2
 41
0.9
 42
10.15
  1
{\ftxt;\W0.0001;\H0.0001;\~}{\ftxt;\W3.2142857143;\H3.0; }{\ftxt;\W0.0001;\H0.0001;\~}
  3
DIMSTYLE_1
100
AcDbAlignedDimension
 13
-71.4647820767
 23
25.9903260329
 14
-81.6147820767
 24
43.3767374102
 50
180.0
100
AcDbRotatedDimension
  0
LINE
  5
254
100
AcDbEntity
  8
0
100
AcDbLine
 62
7
  6
CONTINUOUS
 10
-43.8199854699
 20
44.7906993223
 11
-43.8055596544
 21
44.8061684565
  0
LINE
  5
255
100
AcDbEntity
  8
ASSI
100
AcDbLine
 62
7
  6
CONTINUOUS
 10
-43.8199854699
 20
44.7906993223
 11
-43.8055596544
 21
44.8061684565
  0
LINE
  5
256
100
AcDbEntity
  8
0
100
AcDbLine
 62
7
  6
CONTINUOUS
 10
-45.0
 20
43.9993911979
 11
-43.9993911979
 21
45.0
  0
LINE
  5
257
100
AcDbEntity
  8
ASSI
100
AcDbLine
 62
7
  6
CONTINUOUS
 10
-45.0
 20
43.9993911979
 11
-43.9993911979
 21
45.0
  0
LINE
  5
258
100
AcDbEntity
  8
0
100
AcDbLine
 62
7
  6
CONTINUOUS
 10
-43.8199854699
 20
44.7906993223
 11
-44.7906993223
 21
43.8199854699
  0
LINE
  5
259
100
AcDbEntity
  8
ASSI
100
AcDbLine
 62
7
  6
CONTINUOUS
 10
-43.8199854699
 20
44.7906993223
 11
-44.7906993223
 21
43.8199854699
  0
LINE
  5
25A
100
AcDbEntity
  8
0
100
AcDbLine
 62
7
  6
CONTINUOUS
 10
-43.3767374102
 20
43.7712689598
 11
-43.7712689598
 21
43.3767374102
  0
LINE
  5
25B
100
AcDbEntity
  8
ASSI
100
AcDbLine
 62
7
  6
CONTINUOUS
 10
-43.3767374102
 20
43.7712689598
 11
-43.7712689598
 21
43.3767374102
  0
LINE
  5
25C
100
AcDbEntity
  8
0
100
AcDbLine
 62
7
  6
CONTINUOUS
 10
-44.8061684565
 20
43.8055596544
 11
-44.7906993223
 21
43.8199854699
  0
LINE
  5
25D
100
AcDbEntity
  8
ASSI
100
AcDbLine
 62
7
  6
CONTINUOUS
 10
-44.8061684565
 20
43.8055596544
 11
-44.7906993223
 21
43.8199854699
  0
LINE
  5
25E
100
AcDbEntity
  8
0
100
AcDbLine
 62
7
  6
CONTINUOUS
 10
-44.7906993223
 20
-43.8199854699
 11
-44.8061684565
 21
-43.8055596544
  0
LINE
  5
25F
100
AcDbEntity
  8
ASSI
100
AcDbLine
 62
7
  6
CONTINUOUS
 10
-44.7906993223
 20
-43.8199854699
 11
-44.8061684565
 21
-43.8055596544
  0
LINE
  5
260
100
AcDbEntity
  8
0
100
AcDbLine
 62
7
  6
CONTINUOUS
 10
-43.9993911979
 20
-45.0
 11
-45.0
 21
-43.9993911979
  0
LINE
  5
261
100
AcDbEntity
  8
ASSI
100
AcDbLine
 62
7
  6
CONTINUOUS
 10
-43.9993911979
 20
-45.0
 11
-45.0
 21
-43.9993911979
  0
LINE
  5
262
100
AcDbEntity
  8
0
100
AcDbLine
 62
7
  6
CONTINUOUS
 10
-44.7906993223
 20
-43.8199854699
 11
-43.8199854699
 21
-44.7906993223
  0
LINE
  5
263
100
AcDbEntity
  8
ASSI
100
AcDbLine
 62
7
  6
CONTINUOUS
 10
-44.7906993223
 20
-43.8199854699
 11
-43.8199854699
 21
-44.7906993223
  0
LINE
  5
264
100
AcDbEntity
  8
0
100
AcDbLine
 62
7
  6
CONTINUOUS
 10
-43.7712689598
 20
-43.3767374102
 11
-43.3767374102
 21
-43.7712689598
  0
LINE
  5
265
100
AcDbEntity
  8
ASSI
100
AcDbLine
 62
7
  6
CONTINUOUS
 10
-43.7712689598
 20
-43.3767374102
 11
-43.3767374102
 21
-43.7712689598
  0
LINE
  5
266
100
AcDbEntity
  8
0
100
AcDbLine
 62
7
  6
CONTINUOUS
 10
-43.8055596544
 20
-44.8061684565
 11
-43.8199854699
 21
-44.7906993223
  0
LINE
  5
267
100
AcDbEntity
  8
ASSI
100
AcDbLine
 62
7
  6
CONTINUOUS
 10
-43.8055596544
 20
-44.8061684565
 11
-43.8199854699
 21
-44.7906993223
  0
LINE
  5
268
100
AcDbEntity
  8
0
100
AcDbLine
 62
7
  6
CONTINUOUS
 10
-45.0
 20
43.9993911979
 11
-45.0
 21
-43.9993911979
  0
LINE
  5
269
100
AcDbEntity
  8
ASSI
100
AcDbLine
 62
7
  6
CONTINUOUS
 10
-45.0
 20
43.9993911979
 11
-45.0
 21
-43.9993911979
  0
LINE
  5
26A
100
AcDbEntity
  8
0
100
AcDbLine
 62
7
  6
CONTINUOUS
 10
-44.8061684565
 20
43.8055596544
 11
-44.8061684565
 21
-43.8055596544
  0
LINE
  5
26B
100
AcDbEntity
  8
ASSI
100
AcDbLine
 62
7
  6
CONTINUOUS
 10
-44.8061684565
 20
43.8055596544
 11
-44.8061684565
 21
-43.8055596544
  0
LINE
  5
26C
100
AcDbEntity
  8
0
100
AcDbLine
 62
7
  6
CONTINUOUS
 10
-43.7712689598
 20
43.3767374102
 11
-43.7712689598
 21
-43.3767374102
  0
LINE
  5
26D
100
AcDbEntity
  8
ASSI
100
AcDbLine
 62
7
  6
CONTINUOUS
 10
-43.7712689598
 20
43.3767374102
 11
-43.7712689598
 21
-43.3767374102
  0
LWPOLYLINE
  5
26E
100
AcDbEntity
  8
0
100
AcDbPolyline
 62
7
  6
CONTINUOUS
 90
10
 70
0
 43
0.3500000006
 10
-1.9285714102
 20
57.3683530884
 10
-1.0714285848
 20
58.2255000916
 10
-0.8571428254
 20
59.082638031
 10
-0.8571428254
 20
59.9397850342
 10
-1.2857142735
 20
60.3683540039
 10
-1.9285714102
 20
60.3683540039
 10
-2.3571427875
 20
59.9397850342
 10
-2.3571427875
 20
59.082638031
 10
-1.9285714102
 20
58.6540690613
 10
-1.0000000219
 20
58.6540690613
  0
LINE
  5
26F
100
AcDbEntity
  8
0
100
AcDbLine
 62
7
  6
CONTINUOUS
 10
-43.9993911979
 20
-45.0
 11
43.9993911979
 21
-45.0
  0
LINE
  5
270
100
AcDbEntity
  8
ASSI
100
AcDbLine
 62
7
  6
CONTINUOUS
 10
-43.9993911979
 20
-45.0
 11
43.9993911979
 21
-45.0
  0
LINE
  5
271
100
AcDbEntity
  8
0
100
AcDbLine
 62
7
  6
CONTINUOUS
 10
-43.8055596544
 20
-44.8061684565
 11
43.8055596544
 21
-44.8061684565
  0
LINE
  5
272
100
AcDbEntity
  8
ASSI
100
AcDbLine
 62
7
  6
CONTINUOUS
 10
-43.8055596544
 20
-44.8061684565
 11
43.8055596544
 21
-44.8061684565
  0
LINE
  5
273
100
AcDbEntity
  8
0
100
AcDbLine
 62
7
  6
CONTINUOUS
 10
-43.3767374102
 20
-43.7712689598
 11
43.3767374102
 21
-43.7712689598
  0
LINE
  5
274
100
AcDbEntity
  8
ASSI
100
AcDbLine
 62
7
  6
CONTINUOUS
 10
-43.3767374102
 20
-43.7712689598
 11
43.3767374102
 21
-43.7712689598
  0
LINE
  5
275
100
AcDbEntity
  8
CURVE
100
AcDbLine
 62
250
  6
CONTINUOUS
 10
44.860131217
 20
-36.257398
 11
44.9473759453
 21
-36.257398
  0
LINE
  5
276
100
AcDbEntity
  8
CURVE
100
AcDbLine
 62
250
  6
CONTINUOUS
 10
44.9473759453
 20
-35.735605
 11
44.860131217
 21
-35.735605
  0
LINE
  5
277
100
AcDbEntity
  8
CURVE
100
AcDbLine
 62
250
  6
CONTINUOUS
 10
44.8611556794
 20
-30.6285551388
 11
44.9473759458
 21
-30.6285551388
  0
LINE
  5
278
100
AcDbEntity
  8
CURVE
100
AcDbLine
 62
250
  6
CONTINUOUS
 10
44.8989474951
 20
-30.126163664
 11
44.8749985478
 21
-30.126163664
  0
LINE
  5
279
100
AcDbEntity
  8
CURVE
100
AcDbLine
 62
250
  6
CONTINUOUS
 10
44.9473759458
 20
-30.1088617972
 11
44.9132352194
 21
-30.1088617972
  0
LINE
  5
27A
100
AcDbEntity
  8
CURVE
100
AcDbLine
 62
250
  6
CONTINUOUS
 10
44.9066533149
 20
-29.2870512436
 11
44.9061378054
 21
-29.2870512436
  0
LINE
  5
27B
100
AcDbEntity
  8
0
100
AcDbLine
 62
7
  6
CONTINUOUS
 10
-43.3767374102
 20
-43.7712689598
 11
-43.8199854699
 21
-44.7906993223
  0
LINE
  5
27C
100
AcDbEntity
  8
ASSI
100
AcDbLine
 62
7
  6
CONTINUOUS
 10
-43.3767374102
 20
-43.7712689598
 11
-43.8199854699
 21
-44.7906993223
  0
LINE
  5
27D
100
AcDbEntity
  8
0
100
AcDbLine
 62
7
  6
CONTINUOUS
 10
43.7712689598
 20
43.3767374102
 11
44.7906993223
 21
43.8199854699
  0
LINE
  5
27E
100
AcDbEntity
  8
ASSI
100
AcDbLine
 62
7
  6
CONTINUOUS
 10
43.7712689598
 20
43.3767374102
 11
44.7906993223
 21
43.8199854699
  0
LINE
  5
27F
100
AcDbEntity
  8
0
100
AcDbLine
 62
7
  6
CONTINUOUS
 10
43.7712689598
 20
-43.3767374102
 11
44.7906993223
 21
-43.8199854699
  0
LINE
  5
280
100
AcDbEntity
  8
ASSI
100
AcDbLine
 62
7
  6
CONTINUOUS
 10
43.7712689598
 20
-43.3767374102
 11
44.7906993223
 21
-43.8199854699
  0
LINE
  5
281
100
AcDbEntity
  8
0
100
AcDbLine
 62
7
  6
CONTINUOUS
 10
-43.3767374102
 20
43.7712689598
 11
-43.8199854699
 21
44.7906993223
  0
LINE
  5
282
100
AcDbEntity
  8
ASSI
100
AcDbLine
 62
7
  6
CONTINUOUS
 10
-43.3767374102
 20
43.7712689598
 11
-43.8199854699
 21
44.7906993223
  0
LINE
  5
283
100
AcDbEntity
  8
0
100
AcDbLine
 62
7
  6
CONTINUOUS
 10
-15.95
 20
-2.0
 11
-15.95
 21
2.0
  0
LINE
  5
284
100
AcDbEntity
  8
ASSI
100
AcDbLine
 62
7
  6
CONTINUOUS
 10
-15.95
 20
-2.0
 11
-15.95
 21
2.0
  0
LINE
  5
285
100
AcDbEntity
  8
0
100
AcDbLine
 62
7
  6
CONTINUOUS
 10
-14.75
 20
-2.0
 11
-14.75
 21
2.0
  0
LINE
  5
286
100
AcDbEntity
  8
ASSI
100
AcDbLine
 62
7
  6
CONTINUOUS
 10
-14.75
 20
-2.0
 11
-14.75
 21
2.0
  0
LINE
  5
287
100
AcDbEntity
  8
0
100
AcDbLine
 62
7
  6
CONTINUOUS
 10
-7.75
 20
2.0
 11
-7.75
 21
-2.0
  0
LINE
  5
288
100
AcDbEntity
  8
ASSI
100
AcDbLine
 62
7
  6
CONTINUOUS
 10
-7.75
 20
2.0
 11
-7.75
 21
-2.0
  0
LINE
  5
289
100
AcDbEntity
  8
0
100
AcDbLine
 62
7
  6
CONTINUOUS
 10
-6.55
 20
2.0
 11
-6.55
 21
-2.0
  0
LINE
  5
28A
100
AcDbEntity
  8
ASSI
100
AcDbLine
 62
7
  6
CONTINUOUS
 10
-6.55
 20
2.0
 11
-6.55
 21
-2.0
  0
LWPOLYLINE
  5
28B
100
AcDbEntity
  8
0
100
AcDbPolyline
 62
7
  6
CONTINUOUS
 90
13
 70
0
 43
0.3500000006
 10
0.0
 20
58.2255000916
 10
0.0
 20
59.5112070007
 10
0.2142857063
 20
59.9397850342
 10
0.6428571367
 20
60.3683540039
 10
0.8571428254
 20
60.3683540039
 10
1.2857142735
 20
59.9397850342
 10
1.5000000329
 20
59.5112070007
 10
1.5000000329
 20
58.2255000916
 10
1.2857142735
 20
57.7969220581
 10
0.8571428254
 20
57.3683530884
 10
0.6428571367
 20
57.3683530884
 10
0.2142857063
 20
57.7969220581
 10
0.0
 20
58.2255000916
  0
LINE
  5
28C
100
AcDbEntity
  8
0
100
AcDbLine
 62
7
  6
CONTINUOUS
 10
-44.8061684565
 20
-43.8055596544
 11
-45.0
 21
-43.9993911979
  0
LINE
  5
28D
100
AcDbEntity
  8
ASSI
100
AcDbLine
 62
7
  6
CONTINUOUS
 10
-44.8061684565
 20
-43.8055596544
 11
-45.0
 21
-43.9993911979
  0
LINE
  5
28E
100
AcDbEntity
  8
0
100
AcDbLine
 62
7
  6
CONTINUOUS
 10
43.8055596544
 20
44.8061684565
 11
43.9993911979
 21
45.0
  0
LINE
  5
28F
100
AcDbEntity
  8
ASSI
100
AcDbLine
 62
7
  6
CONTINUOUS
 10
43.8055596544
 20
44.8061684565
 11
43.9993911979
 21
45.0
  0
LINE
  5
290
100
AcDbEntity
  8
0
100
AcDbLine
 62
250
  6
CONTINUOUS
 10
-15.95
 20
-2.0
 11
-14.75
 21
-2.0
  0
LINE
  5
291
100
AcDbEntity
  8
ASSI
100
AcDbLine
 62
250
  6
CONTINUOUS
 10
-15.95
 20
-2.0
 11
-14.75
 21
-2.0
  0
LINE
  5
292
100
AcDbEntity
  8
0
100
AcDbLine
 62
250
  6
CONTINUOUS
 10
15.95
 20
-2.0
 11
14.75
 21
-2.0
  0
LINE
  5
293
100
AcDbEntity
  8
ASSI
100
AcDbLine
 62
250
  6
CONTINUOUS
 10
15.95
 20
-2.0
 11
14.75
 21
-2.0
  0
LINE
  5
294
100
AcDbEntity
  8
0
100
AcDbLine
 62
250
  6
CONTINUOUS
 10
6.55
 20
-2.0
 11
7.75
 21
-2.0
  0
LINE
  5
295
100
AcDbEntity
  8
ASSI
100
AcDbLine
 62
250
  6
CONTINUOUS
 10
6.55
 20
-2.0
 11
7.75
 21
-2.0
  0
LINE
  5
296
100
AcDbEntity
  8
0
100
AcDbLine
 62
250
  6
CONTINUOUS
 10
-6.55
 20
-2.0
 11
-7.75
 21
-2.0
  0
LINE
  5
297
100
AcDbEntity
  8
ASSI
100
AcDbLine
 62
250
  6
CONTINUOUS
 10
-6.55
 20
-2.0
 11
-7.75
 21
-2.0
  0
LWPOLYLINE
  5
298
100
AcDbEntity
  8
0
100
AcDbPolyline
 62
7
  6
CONTINUOUS
 90
13
 70
0
 43
0.3500000006
 10
55.9197125244
 20
-0.0000003204
 10
54.6340010834
 20
-0.0000003204
 10
54.2054275818
 20
0.2142864304
 10
53.7768540802
 20
0.642857666
 10
53.7768540802
 20
0.8571421509
 10
54.2054275818
 20
1.2857133865
 10
54.6340010834
 20
1.5000001373
 10
55.9197125244
 20
1.5000001373
 10
56.348286026
 20
1.2857133865
 10
56.7768549957
 20
0.8571421509
 10
56.7768549957
 20
0.642857666
 10
56.348286026
 20
0.2142864304
 10
55.9197125244
 20
-0.0000003204
  0
LINE
  5
299
100
AcDbEntity
  8
0
100
AcDbLine
 62
7
  6
CONTINUOUS
 10
43.8055596544
 20
-44.8061684565
 11
43.9993911979
 21
-45.0
  0
LINE
  5
29A
100
AcDbEntity
  8
ASSI
100
AcDbLine
 62
7
  6
CONTINUOUS
 10
43.8055596544
 20
-44.8061684565
 11
43.9993911979
 21
-45.0
  0
LINE
  5
29B
100
AcDbEntity
  8
0
100
AcDbLine
 62
7
  6
CONTINUOUS
 10
-44.8061684565
 20
43.8055596544
 11
-45.0
 21
43.9993911979
  0
LINE
  5
29C
100
AcDbEntity
  8
ASSI
100
AcDbLine
 62
7
  6
CONTINUOUS
 10
-44.8061684565
 20
43.8055596544
 11
-45.0
 21
43.9993911979
  0
LINE
  5
29D
100
AcDbEntity
  8
0
100
AcDbLine
 62
7
  6
CONTINUOUS
 10
-43.8055596544
 20
-44.8061684565
 11
-43.9993911979
 21
-45.0
  0
LINE
  5
29E
100
AcDbEntity
  8
ASSI
100
AcDbLine
 62
7
  6
CONTINUOUS
 10
-43.8055596544
 20
-44.8061684565
 11
-43.9993911979
 21
-45.0
  0
LINE
  5
29F
100
AcDbEntity
  8
0
100
AcDbLine
 62
7
  6
CONTINUOUS
 10
44.8061684565
 20
43.8055596544
 11
45.0
 21
43.9993911979
  0
LINE
  5
2A0
100
AcDbEntity
  8
ASSI
100
AcDbLine
 62
7
  6
CONTINUOUS
 10
44.8061684565
 20
43.8055596544
 11
45.0
 21
43.9993911979
  0
LINE
  5
2A1
100
AcDbEntity
  8
0
100
AcDbLine
 62
250
  6
CONTINUOUS
 10
-15.95
 20
2.0
 11
-14.75
 21
2.0
  0
LINE
  5
2A2
100
AcDbEntity
  8
ASSI
100
AcDbLine
 62
250
  6
CONTINUOUS
 10
-15.95
 20
2.0
 11
-14.75
 21
2.0
  0
LINE
  5
2A3
100
AcDbEntity
  8
0
100
AcDbLine
 62
250
  6
CONTINUOUS
 10
15.95
 20
2.0
 11
14.75
 21
2.0
  0
LINE
  5
2A4
100
AcDbEntity
  8
ASSI
100
AcDbLine
 62
250
  6
CONTINUOUS
 10
15.95
 20
2.0
 11
14.75
 21
2.0
  0
LINE
  5
2A5
100
AcDbEntity
  8
0
100
AcDbLine
 62
250
  6
CONTINUOUS
 10
6.55
 20
2.0
 11
7.75
 21
2.0
  0
LINE
  5
2A6
100
AcDbEntity
  8
ASSI
100
AcDbLine
 62
250
  6
CONTINUOUS
 10
6.55
 20
2.0
 11
7.75
 21
2.0
  0
LINE
  5
2A7
100
AcDbEntity
  8
0
100
AcDbLine
 62
250
  6
CONTINUOUS
 10
-6.55
 20
2.0
 11
-7.75
 21
2.0
  0
LINE
  5
2A8
100
AcDbEntity
  8
ASSI
100
AcDbLine
 62
250
  6
CONTINUOUS
 10
-6.55
 20
2.0
 11
-7.75
 21
2.0
  0
LINE
  5
2A9
100
AcDbEntity
  8
0
100
AcDbLine
 62
7
  6
CONTINUOUS
 10
44.8061684565
 20
-43.8055596544
 11
45.0
 21
-43.9993911979
  0
LINE
  5
2AA
100
AcDbEntity
  8
ASSI
100
AcDbLine
 62
7
  6
CONTINUOUS
 10
44.8061684565
 20
-43.8055596544
 11
45.0
 21
-43.9993911979
  0
LINE
  5
2AB
100
AcDbEntity
  8
0
100
AcDbLine
 62
7
  6
CONTINUOUS
 10
-43.8055596544
 20
44.8061684565
 11
-43.9993911979
 21
45.0
  0
LINE
  5
2AC
100
AcDbEntity
  8
ASSI
100
AcDbLine
 62
7
  6
CONTINUOUS
 10
-43.8055596544
 20
44.8061684565
 11
-43.9993911979
 21
45.0
  0
LINE
  5
2AD
100
AcDbEntity
  8
0
100
AcDbLine
 62
7
  6
CONTINUOUS
 10
6.55
 20
-2.0
 11
6.55
 21
2.0
  0
LINE
  5
2AE
100
AcDbEntity
  8
ASSI
100
AcDbLine
 62
7
  6
CONTINUOUS
 10
6.55
 20
-2.0
 11
6.55
 21
2.0
  0
LINE
  5
2AF
100
AcDbEntity
  8
0
100
AcDbLine
 62
7
  6
CONTINUOUS
 10
7.75
 20
-2.0
 11
7.75
 21
2.0
  0
LINE
  5
2B0
100
AcDbEntity
  8
ASSI
100
AcDbLine
 62
7
  6
CONTINUOUS
 10
7.75
 20
-2.0
 11
7.75
 21
2.0
  0
LINE
  5
2B1
100
AcDbEntity
  8
0
100
AcDbLine
 62
7
  6
CONTINUOUS
 10
14.75
 20
2.0
 11
14.75
 21
-2.0
  0
LINE
  5
2B2
100
AcDbEntity
  8
ASSI
100
AcDbLine
 62
7
  6
CONTINUOUS
 10
14.75
 20
2.0
 11
14.75
 21
-2.0
  0
LINE
  5
2B3
100
AcDbEntity
  8
0
100
AcDbLine
 62
7
  6
CONTINUOUS
 10
15.95
 20
2.0
 11
15.95
 21
-2.0
  0
LINE
  5
2B4
100
AcDbEntity
  8
ASSI
100
AcDbLine
 62
7
  6
CONTINUOUS
 10
15.95
 20
2.0
 11
15.95
 21
-2.0
  0
LINE
  5
2B5
100
AcDbEntity
  8
0
100
AcDbLine
 62
7
  6
CONTINUOUS
 10
43.3767374102
 20
43.7712689598
 11
43.8199854699
 21
44.7906993223
  0
LINE
  5
2B6
100
AcDbEntity
  8
ASSI
100
AcDbLine
 62
7
  6
CONTINUOUS
 10
43.3767374102
 20
43.7712689598
 11
43.8199854699
 21
44.7906993223
  0
LINE
  5
2B7
100
AcDbEntity
  8
0
100
AcDbLine
 62
7
  6
CONTINUOUS
 10
-43.7712689598
 20
-43.3767374102
 11
-44.7906993223
 21
-43.8199854699
  0
LINE
  5
2B8
100
AcDbEntity
  8
ASSI
100
AcDbLine
 62
7
  6
CONTINUOUS
 10
-43.7712689598
 20
-43.3767374102
 11
-44.7906993223
 21
-43.8199854699
  0
LINE
  5
2B9
100
AcDbEntity
  8
0
100
AcDbLine
 62
7
  6
CONTINUOUS
 10
-43.7712689598
 20
43.3767374102
 11
-44.7906993223
 21
43.8199854699
  0
LINE
  5
2BA
100
AcDbEntity
  8
ASSI
100
AcDbLine
 62
7
  6
CONTINUOUS
 10
-43.7712689598
 20
43.3767374102
 11
-44.7906993223
 21
43.8199854699
  0
LINE
  5
2BB
100
AcDbEntity
  8
CURVE
100
AcDbLine
 62
250
  6
CONTINUOUS
 10
44.8904101948
 20
-34.842919
 11
44.9473759453
 21
-34.955522
  0
LINE
  5
2BC
100
AcDbEntity
  8
0
100
AcDbLine
 62
7
  6
CONTINUOUS
 10
43.3767374102
 20
-43.7712689598
 11
43.8199854699
 21
-44.7906993223
  0
LINE
  5
2BD
100
AcDbEntity
  8
ASSI
100
AcDbLine
 62
7
  6
CONTINUOUS
 10
43.3767374102
 20
-43.7712689598
 11
43.8199854699
 21
-44.7906993223
  0
LINE
  5
2BE
100
AcDbEntity
  8
CURVE
100
AcDbLine
 62
250
  6
CONTINUOUS
 10
44.9473759453
 20
-35.454708
 11
44.860136417
 21
-35.228996
  0
LINE
  5
2BF
100
AcDbEntity
  8
CURVE
100
AcDbLine
 62
250
  6
CONTINUOUS
 10
44.860136417
 20
-36.451037
 11
44.9473759453
 21
-37.254552
  0
LINE
  5
2C0
100
AcDbEntity
  8
CURVE
100
AcDbLine
 62
250
  6
CONTINUOUS
 10
44.9085720674
 20
-34.191353
 11
44.860136417
 21
-33.66956
  0
LINE
  5
2C1
100
AcDbEntity
  8
CURVE
100
AcDbLine
 62
250
  6
CONTINUOUS
 10
44.890647651
 20
-33.5372
 11
44.9473759453
 21
-34.157611
  0
LWPOLYLINE
  5
2C2
100
AcDbEntity
  8
0
100
AcDbPolyline
 62
7
  6
CONTINUOUS
 90
10
 70
0
 43
0.3500000006
 10
56.7768549957
 20
-1.9285708809
 10
55.9197125244
 20
-1.0714295425
 10
55.0625700531
 20
-0.8571427917
 10
54.2054275818
 20
-0.8571427917
 10
53.7768540802
 20
-1.2857140274
 10
53.7768540802
 20
-1.9285708809
 10
54.2054275818
 20
-2.3571432495
 10
55.0625700531
 20
-2.3571432495
 10
55.4911435547
 20
-1.9285708809
 10
55.4911435547
 20
-1.0000006256
  0
LINE
  5
2C3
100
AcDbEntity
  8
CURVE
100
AcDbLine
 62
250
  6
CONTINUOUS
 10
44.8841076249
 20
-31.81095
 11
44.9164833296
 21
-32.070759
  0
LINE
  5
2C4
100
AcDbEntity
  8
CURVE
100
AcDbLine
 62
250
  6
CONTINUOUS
 10
44.9201860964
 20
-37.463524
 11
44.860136417
 21
-36.972473
  0
LINE
  5
2C5
100
AcDbEntity
  8
CURVE
100
AcDbLine
 62
250
  6
CONTINUOUS
 10
44.92995984
 20
-32.177494
 11
44.9473759453
 21
-32.321477
  0
LINE
  5
2C6
100
AcDbEntity
  8
CURVE
100
AcDbLine
 62
250
  6
CONTINUOUS
 10
44.9473759453
 20
-32.837608
 11
44.860136417
 21
-32.053532
  0
LINE
  5
2C7
100
AcDbEntity
  8
0
100
AcDbLine
 62
7
  6
CONTINUOUS
 10
43.7712689598
 20
-43.3767374102
 11
43.7712689598
 21
43.3767374102
  0
LINE
  5
2C8
100
AcDbEntity
  8
ASSI
100
AcDbLine
 62
7
  6
CONTINUOUS
 10
43.7712689598
 20
-43.3767374102
 11
43.7712689598
 21
43.3767374102
  0
LINE
  5
2C9
100
AcDbEntity
  8
0
100
AcDbLine
 62
7
  6
CONTINUOUS
 10
44.8061684565
 20
-43.8055596544
 11
44.8061684565
 21
43.8055596544
  0
LINE
  5
2CA
100
AcDbEntity
  8
ASSI
100
AcDbLine
 62
7
  6
CONTINUOUS
 10
44.8061684565
 20
-43.8055596544
 11
44.8061684565
 21
43.8055596544
  0
LINE
  5
2CB
100
AcDbEntity
  8
CURVE
100
AcDbLine
 62
250
  6
CONTINUOUS
 10
44.860131217
 20
-35.735605
 11
44.860131217
 21
-36.257398
  0
LINE
  5
2CC
100
AcDbEntity
  8
CURVE
100
AcDbLine
 62
250
  6
CONTINUOUS
 10
44.860136417
 20
-38.506847
 11
44.860136417
 21
-37.940019
  0
LINE
  5
2CD
100
AcDbEntity
  8
CURVE
100
AcDbLine
 62
250
  6
CONTINUOUS
 10
44.860136417
 20
-36.972473
 11
44.860136417
 21
-36.451037
  0
LINE
  5
2CE
100
AcDbEntity
  8
CURVE
100
AcDbLine
 62
250
  6
CONTINUOUS
 10
44.860136417
 20
-35.228996
 11
44.860136417
 21
-34.707635
  0
LINE
  5
2CF
100
AcDbEntity
  8
CURVE
100
AcDbLine
 62
250
  6
CONTINUOUS
 10
44.860136417
 20
-33.66956
 11
44.860136417
 21
-33.153297
  0
LINE
  5
2D0
100
AcDbEntity
  8
CURVE
100
AcDbLine
 62
250
  6
CONTINUOUS
 10
44.860136417
 20
-32.053532
 11
44.860136417
 21
-31.54876
  0
LINE
  5
2D1
100
AcDbEntity
  8
CURVE
100
AcDbLine
 62
250
  6
CONTINUOUS
 10
44.8989474951
 20
-29.8279642095
 11
44.8989474951
 21
-30.126163664
  0
LINE
  5
2D2
100
AcDbEntity
  8
CURVE
100
AcDbLine
 62
250
  6
CONTINUOUS
 10
44.9132352194
 20
-30.1088617972
 11
44.9132352194
 21
-29.8290889245
  0
LINE
  5
2D3
100
AcDbEntity
  8
CURVE
100
AcDbLine
 62
250
  6
CONTINUOUS
 10
44.9164833296
 20
-32.070759
 11
44.9164833296
 21
-31.571179
  0
LINE
  5
2D4
100
AcDbEntity
  8
CURVE
100
AcDbLine
 62
250
  6
CONTINUOUS
 10
44.92995984
 20
-31.466899
 11
44.92995984
 21
-32.177494
  0
LINE
  5
2D5
100
AcDbEntity
  8
CURVE
100
AcDbLine
 62
250
  6
CONTINUOUS
 10
44.9473759453
 20
-36.257398
 11
44.9473759453
 21
-35.735605
  0
LINE
  5
2D6
100
AcDbEntity
  8
CURVE
100
AcDbLine
 62
250
  6
CONTINUOUS
 10
44.9473759458
 20
-30.6285551388
 11
44.9473759458
 21
-30.1088617972
  0
LINE
  5
2D7
100
AcDbEntity
  8
CURVE
100
AcDbLine
 62
250
  6
CONTINUOUS
 10
44.9473759458
 20
-29.3098079785
 11
44.9473759458
 21
-28.8079038802
  0
LINE
  5
2D8
100
AcDbEntity
  8
CURVE
100
AcDbLine
 62
250
  6
CONTINUOUS
 10
44.9473759453
 20
-30.781779
 11
44.9473759453
 21
-31.331727
  0
LINE
  5
2D9
100
AcDbEntity
  8
CURVE
100
AcDbLine
 62
250
  6
CONTINUOUS
 10
44.9473759453
 20
-32.321477
 11
44.9473759453
 21
-32.837608
  0
LINE
  5
2DA
100
AcDbEntity
  8
CURVE
100
AcDbLine
 62
250
  6
CONTINUOUS
 10
44.9473759453
 20
-32.919544
 11
44.9473759453
 21
-33.429996
  0
LINE
  5
2DB
100
AcDbEntity
  8
CURVE
100
AcDbLine
 62
250
  6
CONTINUOUS
 10
44.9473759453
 20
-34.157611
 11
44.9473759453
 21
-34.230793
  0
LINE
  5
2DC
100
AcDbEntity
  8
CURVE
100
AcDbLine
 62
250
  6
CONTINUOUS
 10
44.9473759453
 20
-34.955522
 11
44.9473759453
 21
-35.454708
  0
LINE
  5
2DD
100
AcDbEntity
  8
CURVE
100
AcDbLine
 62
250
  6
CONTINUOUS
 10
44.9473759453
 20
-37.254552
 11
44.9473759453
 21
-37.714382
  0
LINE
  5
2DE
100
AcDbEntity
  8
0
100
AcDbLine
 62
7
  6
CONTINUOUS
 10
45.0
 20
-43.9993911979
 11
45.0
 21
43.9993911979
  0
LINE
  5
2DF
100
AcDbEntity
  8
ASSI
100
AcDbLine
 62
7
  6
CONTINUOUS
 10
45.0
 20
-43.9993911979
 11
45.0
 21
43.9993911979
  0
LINE
  5
2E0
100
AcDbEntity
  8
0
100
AcDbLine
 62
7
  6
CONTINUOUS
 10
43.3767374102
 20
43.7712689598
 11
-43.3767374102
 21
43.7712689598
  0
LINE
  5
2E1
100
AcDbEntity
  8
ASSI
100
AcDbLine
 62
7
  6
CONTINUOUS
 10
43.3767374102
 20
43.7712689598
 11
-43.3767374102
 21
43.7712689598
  0
LINE
  5
2E2
100
AcDbEntity
  8
0
100
AcDbLine
 62
7
  6
CONTINUOUS
 10
43.8055596544
 20
44.8061684565
 11
-43.8055596544
 21
44.8061684565
  0
LINE
  5
2E3
100
AcDbEntity
  8
ASSI
100
AcDbLine
 62
7
  6
CONTINUOUS
 10
43.8055596544
 20
44.8061684565
 11
-43.8055596544
 21
44.8061684565
  0
LINE
  5
2E4
100
AcDbEntity
  8
0
100
AcDbLine
 62
7
  6
CONTINUOUS
 10
43.9993911979
 20
45.0
 11
-43.9993911979
 21
45.0
  0
LINE
  5
2E5
100
AcDbEntity
  8
ASSI
100
AcDbLine
 62
7
  6
CONTINUOUS
 10
43.9993911979
 20
45.0
 11
-43.9993911979
 21
45.0
  0
LINE
  5
2E6
100
AcDbEntity
  8
CURVE
100
AcDbLine
 62
250
  6
CONTINUOUS
 10
44.9473759453
 20
-34.230793
 11
44.8904101948
 21
-34.842919
  0
LINE
  5
2E7
100
AcDbEntity
  8
CURVE
100
AcDbLine
 62
250
  6
CONTINUOUS
 10
44.860136417
 20
-34.707635
 11
44.9085720674
 21
-34.191353
  0
LINE
  5
2E8
100
AcDbEntity
  8
CURVE
100
AcDbLine
 62
250
  6
CONTINUOUS
 10
44.9473759453
 20
-37.714382
 11
44.860136417
 21
-38.506847
  0
LINE
  5
2E9
100
AcDbEntity
  8
CURVE
100
AcDbLine
 62
250
  6
CONTINUOUS
 10
44.860136417
 20
-31.54876
 11
44.9473759453
 21
-30.781779
  0
LINE
  5
2EA
100
AcDbEntity
  8
CURVE
100
AcDbLine
 62
250
  6
CONTINUOUS
 10
44.860136417
 20
-37.940019
 11
44.9201860964
 21
-37.463524
  0
LINE
  5
2EB
100
AcDbEntity
  8
CURVE
100
AcDbLine
 62
250
  6
CONTINUOUS
 10
44.9473759453
 20
-31.331727
 11
44.92995984
 21
-31.466899
  0
LINE
  5
2EC
100
AcDbEntity
  8
CURVE
100
AcDbLine
 62
250
  6
CONTINUOUS
 10
44.9164833296
 20
-31.571179
 11
44.8841076249
 21
-31.81095
  0
LINE
  5
2ED
100
AcDbEntity
  8
CURVE
100
AcDbLine
 62
250
  6
CONTINUOUS
 10
44.860136417
 20
-33.153297
 11
44.9473759453
 21
-32.919544
  0
LINE
  5
2EE
100
AcDbEntity
  8
CURVE
100
AcDbLine
 62
250
  6
CONTINUOUS
 10
44.9473759453
 20
-33.429996
 11
44.890647651
 21
-33.5372
  0
LINE
  5
2EF
100
AcDbEntity
  8
CURVE
100
AcDbLine
 62
7
  6
CONTINUOUS
 10
44.9403230847
 20
-28.8611763
 11
44.9473759458
 21
-28.8541234389
  0
LINE
  5
2F0
100
AcDbEntity
  8
CURVE
100
AcDbLine
 62
7
  6
CONTINUOUS
 10
44.8664942614
 20
-29.1450158374
 11
44.9014044164
 21
-29.1101056824
  0
LINE
  5
2F1
100
AcDbEntity
  8
CURVE
100
AcDbLine
 62
7
  6
CONTINUOUS
 10
44.9130351519
 20
-29.0984749469
 11
44.9473759458
 21
-29.0641341529
  0
LINE
  5
2F2
100
AcDbEntity
  8
CURVE
100
AcDbLine
 62
7
  6
CONTINUOUS
 10
44.8618693599
 20
-29.3596514529
 11
44.9473759458
 21
-29.274144867
  0
LINE
  5
2F3
100
AcDbEntity
  8
CURVE
100
AcDbLine
 62
7
  6
CONTINUOUS
 10
44.8600810983
 20
-29.5714504285
 11
44.876596684
 21
-29.5549348428
  0
LINE
  5
2F4
100
AcDbEntity
  8
CURVE
100
AcDbLine
 62
7
  6
CONTINUOUS
 10
44.8956825097
 20
-29.5358490171
 11
44.9239482785
 21
-29.5075832483
  0
LINE
  5
2F5
100
AcDbEntity
  8
CURVE
100
AcDbLine
 62
7
  6
CONTINUOUS
 10
44.8987066428
 20
-29.742835598
 11
44.9138426981
 21
-29.7276995427
  0
LINE
  5
2F6
100
AcDbEntity
  8
CURVE
100
AcDbLine
 62
7
  6
CONTINUOUS
 10
44.8593194135
 20
-29.7822228273
 11
44.8743228778
 21
-29.7672193631
  0
LINE
  5
2F7
100
AcDbEntity
  8
CURVE
100
AcDbLine
 62
7
  6
CONTINUOUS
 10
44.8989474951
 20
-29.9526054597
 11
44.9132352194
 21
-29.9383177355
  0
LINE
  5
2F8
100
AcDbEntity
  8
CURVE
100
AcDbLine
 62
7
  6
CONTINUOUS
 10
44.8591438682
 20
-29.9924090866
 11
44.8743312878
 21
-29.977221667
  0
LINE
  5
2F9
100
AcDbEntity
  8
CURVE
100
AcDbLine
 62
7
  6
CONTINUOUS
 10
44.8594624149
 20
-30.202101254
 11
44.9473759458
 21
-30.114187723
  0
LINE
  5
2FA
100
AcDbEntity
  8
CURVE
100
AcDbLine
 62
7
  6
CONTINUOUS
 10
44.8601645785
 20
-30.4114098043
 11
44.9473759458
 21
-30.324198437
  0
LINE
  5
2FB
100
AcDbEntity
  8
CURVE
100
AcDbLine
 62
7
  6
CONTINUOUS
 10
44.8611167529
 20
-30.620468344
 11
44.9473759458
 21
-30.534209151
  0
LINE
  5
2FC
100
AcDbEntity
  8
CURVE
100
AcDbLine
 62
7
  6
CONTINUOUS
 10
44.925243127
 20
-30.9763633979
 11
44.9473759453
 21
-30.9542305796
  0
LINE
  5
2FD
100
AcDbEntity
  8
CURVE
100
AcDbLine
 62
7
  6
CONTINUOUS
 10
44.8982898861
 20
-31.2133273528
 11
44.9473759453
 21
-31.1642412936
  0
LINE
  5
2FE
100
AcDbEntity
  8
CURVE
100
AcDbLine
 62
7
  6
CONTINUOUS
 10
44.8713366452
 20
-31.4502913077
 11
44.9410864936
 21
-31.3805414593
  0
LINE
  5
2FF
100
AcDbEntity
  8
CURVE
100
AcDbLine
 62
7
  6
CONTINUOUS
 10
44.860136417
 20
-31.67150225
 11
44.9096183479
 21
-31.6220203191
  0
LINE
  5
300
100
AcDbEntity
  8
CURVE
100
AcDbLine
 62
7
  6
CONTINUOUS
 10
44.9164833296
 20
-31.6151553374
 11
44.92995984
 21
-31.6016788269
  0
LINE
  5
301
100
AcDbEntity
  8
CURVE
100
AcDbLine
 62
7
  6
CONTINUOUS
 10
44.9164833296
 20
-31.8251660514
 11
44.92995984
 21
-31.8116895409
  0
LINE
  5
302
100
AcDbEntity
  8
CURVE
100
AcDbLine
 62
7
  6
CONTINUOUS
 10
44.860136417
 20
-31.881512964
 11
44.8892702529
 21
-31.8523791281
  0
LINE
  5
303
100
AcDbEntity
  8
CURVE
100
AcDbLine
 62
7
  6
CONTINUOUS
 10
44.8639402928
 20
-32.0877198022
 11
44.9125406183
 21
-32.0391194766
  0
LINE
  5
304
100
AcDbEntity
  8
CURVE
100
AcDbLine
 62
7
  6
CONTINUOUS
 10
44.9164833296
 20
-32.0351767654
 11
44.92995984
 21
-32.0217002549
  0
LINE
  5
305
100
AcDbEntity
  8
CURVE
100
AcDbLine
 62
7
  6
CONTINUOUS
 10
44.8849673892
 20
-32.2767034198
 11
44.9358102345
 21
-32.2258605744
  0
LINE
  5
306
100
AcDbEntity
  8
CURVE
100
AcDbLine
 62
7
  6
CONTINUOUS
 10
44.9059944856
 20
-32.4656870373
 11
44.9473759453
 21
-32.4243055777
  0
LINE
  5
307
100
AcDbEntity
  8
CURVE
100
AcDbLine
 62
7
  6
CONTINUOUS
 10
44.9270215821
 20
-32.6546706549
 11
44.9473759453
 21
-32.6343162917
  0
LINE
  5
308
100
AcDbEntity
  8
CURVE
100
AcDbLine
 62
7
  6
CONTINUOUS
 10
44.8671147898
 20
-33.1345988752
 11
44.9473759453
 21
-33.0543377198
  0
LINE
  5
309
100
AcDbEntity
  8
CURVE
100
AcDbLine
 62
7
  6
CONTINUOUS
 10
44.860136417
 20
-33.3515879621
 11
44.9473759453
 21
-33.2643484338
  0
LINE
  5
30A
100
AcDbEntity
  8
CURVE
100
AcDbLine
 62
7
  6
CONTINUOUS
 10
44.860136417
 20
-33.5615986761
 11
44.8975173912
 21
-33.5242177019
  0
LINE
  5
30B
100
AcDbEntity
  8
CURVE
100
AcDbLine
 62
7
  6
CONTINUOUS
 10
44.8688045689
 20
-33.7629412381
 11
44.907729505
 21
-33.724016302
  0
LINE
  5
30C
100
AcDbEntity
  8
0
100
AcDbLine
 62
7
  6
CONTINUOUS
 10
43.8199854699
 20
-44.7906993223
 11
43.8055596544
 21
-44.8061684565
  0
LINE
  5
30D
100
AcDbEntity
  8
ASSI
100
AcDbLine
 62
7
  6
CONTINUOUS
 10
43.8199854699
 20
-44.7906993223
 11
43.8055596544
 21
-44.8061684565
  0
LINE
  5
30E
100
AcDbEntity
  8
CURVE
100
AcDbLine
 62
7
  6
CONTINUOUS
 10
44.8866430369
 20
-33.9551134842
 11
44.9253234472
 21
-33.9164330739
  0
LINE
  5
30F
100
AcDbEntity
  8
CURVE
100
AcDbLine
 62
7
  6
CONTINUOUS
 10
44.9044815049
 20
-34.1472857302
 11
44.9429173894
 21
-34.1088498457
  0
LINE
  5
310
100
AcDbEntity
  8
CURVE
100
AcDbLine
 62
7
  6
CONTINUOUS
 10
44.8918156053
 20
-34.3699623438
 11
44.9387967113
 21
-34.3229812378
  0
LINE
  5
311
100
AcDbEntity
  8
CURVE
100
AcDbLine
 62
7
  6
CONTINUOUS
 10
44.8700734126
 20
-34.6017152505
 11
44.9172472255
 21
-34.5545414376
  0
LINE
  5
312
100
AcDbEntity
  8
CURVE
100
AcDbLine
 62
7
  6
CONTINUOUS
 10
44.860136417
 20
-34.8216629601
 11
44.8956977397
 21
-34.7861016374
  0
LINE
  5
313
100
AcDbEntity
  8
CURVE
100
AcDbLine
 62
7
  6
CONTINUOUS
 10
44.860136417
 20
-35.0316736742
 11
44.9436510376
 21
-34.9481590535
  0
LINE
  5
314
100
AcDbEntity
  8
CURVE
100
AcDbLine
 62
7
  6
CONTINUOUS
 10
44.8636734791
 20
-35.238147326
 11
44.9473759453
 21
-35.1544448599
  0
LINE
  5
315
100
AcDbEntity
  8
CURVE
100
AcDbLine
 62
7
  6
CONTINUOUS
 10
44.9222168444
 20
-35.3896146748
 11
44.9473759453
 21
-35.3644555739
  0
LINE
  5
316
100
AcDbEntity
  8
CURVE
100
AcDbLine
 62
7
  6
CONTINUOUS
 10
44.860131217
 20
-35.8717217302
 11
44.9473759453
 21
-35.7844770019
  0
LINE
  5
317
100
AcDbEntity
  8
CURVE
100
AcDbLine
 62
7
  6
CONTINUOUS
 10
44.860131217
 20
-36.0817324442
 11
44.9473759453
 21
-35.9944877159
  0
LINE
  5
318
100
AcDbEntity
  8
CURVE
100
AcDbLine
 62
7
  6
CONTINUOUS
 10
44.8944763752
 20
-36.257398
 11
44.9473759453
 21
-36.2044984299
  0
LINE
  5
319
100
AcDbEntity
  8
CURVE
100
AcDbLine
 62
7
  6
CONTINUOUS
 10
44.860136417
 20
-36.5017486722
 11
44.8651030629
 21
-36.4967820263
  0
LINE
  5
31A
100
AcDbEntity
  8
CURVE
100
AcDbLine
 62
7
  6
CONTINUOUS
 10
44.860136417
 20
-36.7117593863
 11
44.8856712835
 21
-36.6862245197
  0
LINE
  5
31B
100
AcDbEntity
  8
CURVE
100
AcDbLine
 62
7
  6
CONTINUOUS
 10
44.860136417
 20
-36.9217701003
 11
44.9062395041
 21
-36.8756670131
  0
LINE
  5
31C
100
AcDbEntity
  8
CURVE
100
AcDbLine
 62
7
  6
CONTINUOUS
 10
44.8774951021
 20
-37.1144221291
 11
44.9268077247
 21
-37.0651095066
  0
LINE
  5
31D
100
AcDbEntity
  8
CURVE
100
AcDbLine
 62
7
  6
CONTINUOUS
 10
44.9003785362
 20
-37.3015494091
 11
44.9473759453
 21
-37.254552
  0
LINE
  5
31E
100
AcDbEntity
  8
CURVE
100
AcDbLine
 62
7
  6
CONTINUOUS
 10
44.9161156553
 20
-37.495823004
 11
44.9473759453
 21
-37.464562714
  0
LINE
  5
31F
100
AcDbEntity
  8
CURVE
100
AcDbLine
 62
7
  6
CONTINUOUS
 10
44.8858329857
 20
-37.7361163876
 11
44.9473759453
 21
-37.674573428
  0
LINE
  5
320
100
AcDbEntity
  8
CURVE
100
AcDbLine
 62
7
  6
CONTINUOUS
 10
44.860136417
 20
-37.9718236703
 11
44.9263211831
 21
-37.9056389042
  0
LINE
  5
321
100
AcDbEntity
  8
CURVE
100
AcDbLine
 62
7
  6
CONTINUOUS
 10
44.860136417
 20
-38.1818343843
 11
44.9003419235
 21
-38.1416288779
  0
LINE
  5
322
100
AcDbEntity
  8
CURVE
100
AcDbLine
 62
7
  6
CONTINUOUS
 10
44.860136417
 20
-38.3918450984
 11
44.8743626638
 21
-38.3776188515
  0
LINE
  5
323
100
AcDbEntity
  8
0
100
AcDbLine
 62
7
  6
CONTINUOUS
 10
43.3767374102
 20
-43.7712689598
 11
43.7712689598
 21
-43.3767374102
  0
LINE
  5
324
100
AcDbEntity
  8
ASSI
100
AcDbLine
 62
7
  6
CONTINUOUS
 10
43.3767374102
 20
-43.7712689598
 11
43.7712689598
 21
-43.3767374102
  0
LINE
  5
325
100
AcDbEntity
  8
0
100
AcDbLine
 62
7
  6
CONTINUOUS
 10
43.8199854699
 20
-44.7906993223
 11
44.7906993223
 21
-43.8199854699
  0
LINE
  5
326
100
AcDbEntity
  8
ASSI
100
AcDbLine
 62
7
  6
CONTINUOUS
 10
43.8199854699
 20
-44.7906993223
 11
44.7906993223
 21
-43.8199854699
  0
LINE
  5
327
100
AcDbEntity
  8
0
100
AcDbLine
 62
7
  6
CONTINUOUS
 10
45.0
 20
-43.9993911979
 11
43.9993911979
 21
-45.0
  0
LINE
  5
328
100
AcDbEntity
  8
ASSI
100
AcDbLine
 62
7
  6
CONTINUOUS
 10
45.0
 20
-43.9993911979
 11
43.9993911979
 21
-45.0
  0
LINE
  5
329
100
AcDbEntity
  8
0
100
AcDbLine
 62
7
  6
CONTINUOUS
 10
44.8061684565
 20
-43.8055596544
 11
44.7906993223
 21
-43.8199854699
  0
LINE
  5
32A
100
AcDbEntity
  8
ASSI
100
AcDbLine
 62
7
  6
CONTINUOUS
 10
44.8061684565
 20
-43.8055596544
 11
44.7906993223
 21
-43.8199854699
  0
LINE
  5
32B
100
AcDbEntity
  8
0
100
AcDbLine
 62
7
  6
CONTINUOUS
 10
44.7906993223
 20
43.8199854699
 11
44.8061684565
 21
43.8055596544
  0
LINE
  5
32C
100
AcDbEntity
  8
ASSI
100
AcDbLine
 62
7
  6
CONTINUOUS
 10
44.7906993223
 20
43.8199854699
 11
44.8061684565
 21
43.8055596544
  0
LINE
  5
32D
100
AcDbEntity
  8
0
100
AcDbLine
 62
7
  6
CONTINUOUS
 10
43.7712689598
 20
43.3767374102
 11
43.3767374102
 21
43.7712689598
  0
LINE
  5
32E
100
AcDbEntity
  8
ASSI
100
AcDbLine
 62
7
  6
CONTINUOUS
 10
43.7712689598
 20
43.3767374102
 11
43.3767374102
 21
43.7712689598
  0
LINE
  5
32F
100
AcDbEntity
  8
0
100
AcDbLine
 62
7
  6
CONTINUOUS
 10
44.7906993223
 20
43.8199854699
 11
43.8199854699
 21
44.7906993223
  0
LINE
  5
330
100
AcDbEntity
  8
ASSI
100
AcDbLine
 62
7
  6
CONTINUOUS
 10
44.7906993223
 20
43.8199854699
 11
43.8199854699
 21
44.7906993223
  0
LINE
  5
331
100
AcDbEntity
  8
0
100
AcDbLine
 62
7
  6
CONTINUOUS
 10
43.9993911979
 20
45.0
 11
45.0
 21
43.9993911979
  0
LINE
  5
332
100
AcDbEntity
  8
ASSI
100
AcDbLine
 62
7
  6
CONTINUOUS
 10
43.9993911979
 20
45.0
 11
45.0
 21
43.9993911979
  0
LINE
  5
333
100
AcDbEntity
  8
0
100
AcDbLine
 62
7
  6
CONTINUOUS
 10
43.8055596544
 20
44.8061684565
 11
43.8199854699
 21
44.7906993223
  0
LINE
  5
334
100
AcDbEntity
  8
ASSI
100
AcDbLine
 62
7
  6
CONTINUOUS
 10
43.8055596544
 20
44.8061684565
 11
43.8199854699
 21
44.7906993223
  0
LWPOLYLINE
  5
335
100
AcDbEntity
  8
0
100
AcDbPolyline
 62
7
  6
CONTINUOUS
 90
3
 70
0
 43
0.3500000006
 10
-92.6746861267
 20
68.8859945984
 10
-91.8175481873
 20
69.7431325378
 10
-91.8175481873
 20
66.7431316223
  0
LWPOLYLINE
  5
336
100
AcDbEntity
  8
0
100
AcDbPolyline
 62
7
  6
CONTINUOUS
 90
3
 70
0
 43
0.3500000006
 10
-86.8889778442
 20
68.8859945984
 10
-86.0318308411
 20
69.7431325378
 10
-86.0318308411
 20
66.7431316223
  0
LWPOLYLINE
  5
337
100
AcDbEntity
  8
0
100
AcDbPolyline
 62
7
  6
CONTINUOUS
 90
3
 70
0
 43
0.3500000006
 10
-88.023148407
 20
59.8963970032
 10
-87.1660014038
 20
60.7535349426
 10
-87.1660014038
 20
57.7535340271
  0
LINE
  5
338
100
AcDbEntity
  8
0
100
AcDbLine
 62
7
  6
CONTINUOUS
 10
-80.6153912497
 20
-44.8061684565
 11
-75.0647820767
 21
-45.0
  0
LINE
  5
339
100
AcDbEntity
  8
ASSI
100
AcDbLine
 62
7
  6
CONTINUOUS
 10
-80.6153912497
 20
-44.8061684565
 11
-75.0647820767
 21
-45.0
  0
LINE
  5
33A
100
AcDbEntity
  8
0
100
AcDbLine
 62
7
  6
CONTINUOUS
 10
-80.6153912497
 20
-43.8055596544
 11
-75.0647820767
 21
-43.9993911979
  0
LINE
  5
33B
100
AcDbEntity
  8
ASSI
100
AcDbLine
 62
7
  6
CONTINUOUS
 10
-80.6153912497
 20
-43.8055596544
 11
-75.0647820767
 21
-43.9993911979
  0
LINE
  5
33C
100
AcDbEntity
  8
0
100
AcDbLine
 62
7
  6
CONTINUOUS
 10
-75.0647820767
 20
-42.7580439128
 11
-74.4647820767
 21
-42.8
  0
LINE
  5
33D
100
AcDbEntity
  8
0
100
AcDbLine
 62
7
  6
CONTINUOUS
 10
-81.6147820767
 20
43.3767374102
 11
-80.630329619
 21
43.8199854699
  0
LINE
  5
33E
100
AcDbEntity
  8
ASSI
100
AcDbLine
 62
7
  6
CONTINUOUS
 10
-81.6147820767
 20
43.3767374102
 11
-80.630329619
 21
43.8199854699
  0
LINE
  5
33F
100
AcDbEntity
  8
0
100
AcDbLine
 62
250
  6
CONTINUOUS
 10
-75.0647820767
 20
-41.1619414324
 11
-74.4647820767
 21
-41.2038975196
  0
LINE
  5
340
100
AcDbEntity
  8
0
100
AcDbLine
 62
7
  6
CONTINUOUS
 10
-81.6147820767
 20
-43.3767374102
 11
-80.630329619
 21
-43.8199854699
  0
LINE
  5
341
100
AcDbEntity
  8
ASSI
100
AcDbLine
 62
7
  6
CONTINUOUS
 10
-81.6147820767
 20
-43.3767374102
 11
-80.630329619
 21
-43.8199854699
  0
LINE
  5
342
100
AcDbEntity
  8
CURVE
100
AcDbLine
 62
250
  6
CONTINUOUS
 10
-79.0699510653
 20
-37.940019
 11
-77.3503532363
 21
-37.463524
  0
LINE
  5
343
100
AcDbEntity
  8
CURVE
100
AcDbLine
 62
250
  6
CONTINUOUS
 10
-79.0700999745
 20
-36.257398
 11
-76.5717378369
 21
-36.257398
  0
LINE
  5
344
100
AcDbEntity
  8
CURVE
100
AcDbLine
 62
250
  6
CONTINUOUS
 10
-77.3503532363
 20
-37.463524
 11
-79.0699510653
 21
-36.972473
  0
LINE
  5
345
100
AcDbEntity
  8
0
100
AcDbLine
 62
7
  6
CONTINUOUS
 10
-80.6153912497
 20
44.8061684565
 11
-81.6147820767
 21
43.7712689598
  0
LINE
  5
346
100
AcDbEntity
  8
ASSI
100
AcDbLine
 62
7
  6
CONTINUOUS
 10
-80.6153912497
 20
44.8061684565
 11
-81.6147820767
 21
43.7712689598
  0
LINE
  5
347
100
AcDbEntity
  8
CURVE
100
AcDbLine
 62
250
  6
CONTINUOUS
 10
-76.5717378369
 20
-33.429996
 11
-78.1962236408
 21
-33.5372
  0
LINE
  5
348
100
AcDbEntity
  8
CURVE
100
AcDbLine
 62
250
  6
CONTINUOUS
 10
-76.5717378369
 20
-35.735605
 11
-79.0700999745
 21
-35.735605
  0
LINE
  5
349
100
AcDbEntity
  8
CURVE
100
AcDbLine
 62
250
  6
CONTINUOUS
 10
-78.203023496
 20
-34.842919
 11
-76.5717378369
 21
-34.955522
  0
LINE
  5
34A
100
AcDbEntity
  8
CURVE
100
AcDbLine
 62
250
  6
CONTINUOUS
 10
-76.5717378369
 20
-35.454708
 11
-79.0699510653
 21
-35.228996
  0
LINE
  5
34B
100
AcDbEntity
  8
CURVE
100
AcDbLine
 62
250
  6
CONTINUOUS
 10
-79.0699510653
 20
-36.451037
 11
-76.5717378369
 21
-37.254552
  0
LINE
  5
34C
100
AcDbEntity
  8
0
100
AcDbLine
 62
7
  6
CONTINUOUS
 10
-81.6147820767
 20
-43.7712689598
 11
-80.6153912497
 21
-44.8061684565
  0
LINE
  5
34D
100
AcDbEntity
  8
ASSI
100
AcDbLine
 62
7
  6
CONTINUOUS
 10
-81.6147820767
 20
-43.7712689598
 11
-80.6153912497
 21
-44.8061684565
  0
LWPOLYLINE
  5
34E
100
AcDbEntity
  8
0
100
AcDbPolyline
 62
7
  6
CONTINUOUS
 90
3
 70
0
 43
0.3500000006
 10
-87.8889781494
 20
67.02884729
 10
-87.9604002686
 20
66.8145628052
 10
-88.1032626343
 20
66.5288471375
  0
LWPOLYLINE
  5
34F
100
AcDbEntity
  8
0
100
AcDbPolyline
 62
7
  6
CONTINUOUS
 90
3
 70
0
 43
0.3500000006
 10
-89.0231487122
 20
58.0392496948
 10
-89.094579895
 20
57.82496521
 10
-89.237433197
 20
57.5392495422
  0
LINE
  5
350
100
AcDbEntity
  8
CURVE
100
AcDbLine
 62
250
  6
CONTINUOUS
 10
-76.5717378369
 20
-31.331727
 11
-77.0704698377
 21
-31.466899
  0
LINE
  5
351
100
AcDbEntity
  8
CURVE
100
AcDbLine
 62
250
  6
CONTINUOUS
 10
-77.4563866043
 20
-31.571179
 11
-78.3835054843
 21
-31.81095
  0
LINE
  5
352
100
AcDbEntity
  8
CURVE
100
AcDbLine
 62
250
  6
CONTINUOUS
 10
-79.0699510653
 20
-33.153297
 11
-76.5717378369
 21
-32.919544
  0
LINE
  5
353
100
AcDbEntity
  8
CURVE
100
AcDbLine
 62
250
  6
CONTINUOUS
 10
-79.0407632091
 20
-30.6285551388
 11
-76.5717378204
 21
-30.6285551388
  0
LINE
  5
354
100
AcDbEntity
  8
CURVE
100
AcDbLine
 62
250
  6
CONTINUOUS
 10
-77.958547202
 20
-30.126163664
 11
-78.644355324
 21
-30.126163664
  0
LINE
  5
355
100
AcDbEntity
  8
CURVE
100
AcDbLine
 62
250
  6
CONTINUOUS
 10
-76.5717378204
 20
-30.1088617972
 11
-77.5494003111
 21
-30.1088617972
  0
LINE
  5
356
100
AcDbEntity
  8
CURVE
100
AcDbLine
 62
250
  6
CONTINUOUS
 10
-78.3835054843
 20
-31.81095
 11
-77.4563866043
 21
-32.070759
  0
LINE
  5
357
100
AcDbEntity
  8
CURVE
100
AcDbLine
 62
250
  6
CONTINUOUS
 10
-77.0704698377
 20
-32.177494
 11
-76.5717378369
 21
-32.321477
  0
LINE
  5
358
100
AcDbEntity
  8
CURVE
100
AcDbLine
 62
250
  6
CONTINUOUS
 10
-76.5717378369
 20
-32.837608
 11
-79.0699510653
 21
-32.053532
  0
LINE
  5
359
100
AcDbEntity
  8
CURVE
100
AcDbLine
 62
250
  6
CONTINUOUS
 10
-77.6829355127
 20
-34.191353
 11
-79.0699510653
 21
-33.66956
  0
LINE
  5
35A
100
AcDbEntity
  8
CURVE
100
AcDbLine
 62
250
  6
CONTINUOUS
 10
-78.1962236408
 20
-33.5372
 11
-76.5717378369
 21
-34.157611
  0
LINE
  5
35B
100
AcDbEntity
  8
0
100
AcDbLine
 62
7
  6
CONTINUOUS
 10
-73.5389449258
 20
-27.1501294387
 11
-74.4647820767
 21
-27.151745331
  0
LINE
  5
35C
100
AcDbEntity
  8
0
100
AcDbLine
 62
250
  6
CONTINUOUS
 10
-73.539009493
 20
-26.9276792439
 11
-74.4647820767
 21
-26.9280974384
  0
LINE
  5
35D
100
AcDbEntity
  8
CURVE
100
AcDbLine
 62
250
  6
CONTINUOUS
 10
-77.7378813949
 20
-29.2870512436
 11
-77.7526436545
 21
-29.2870512436
  0
LWPOLYLINE
  5
35E
100
AcDbEntity
  8
0
100
AcDbPolyline
 62
7
  6
CONTINUOUS
 90
15
 70
0
 10
-72.5047918555
 20
-26.5286213358
 10
-72.4806825771
 20
-26.5279581755
 10
-72.4520796441
 20
-26.5265776586
 10
-72.4239903088
 20
-26.5245970893
 10
-72.396547492
 20
-26.5220519269
 10
-72.3696674487
 20
-26.5189330145
 10
-72.3434160881
 20
-26.5152409708
 10
-72.3180853832
 20
-26.510995443
 10
-72.2936396373
 20
-26.5061606297
 10
-72.2699912978
 20
-26.5006695942
 10
-72.2471391841
 20
-26.4944146865
 10
-72.2245748275
 20
-26.4871252555
 10
-72.2024102487
 20
-26.4785478715
 10
-72.1814444433
 20
-26.4687456582
 10
-72.1773683178
 20
-26.4666176884
  0
LINE
  5
35F
100
AcDbEntity
  8
0
100
AcDbLine
 62
7
  6
CONTINUOUS
 10
-74.4647820767
 20
-26.5637861501
 11
-72.5047917388
 21
-26.5286213375
  0
LINE
  5
360
100
AcDbEntity
  8
0
100
AcDbLine
 62
7
  6
CONTINUOUS
 10
-73.5146576979
 20
-25.2
 11
-74.4647820767
 21
-25.2
  0
LINE
  5
361
100
AcDbEntity
  8
0
100
AcDbLine
 62
7
  6
CONTINUOUS
 10
-74.4647820767
 20
-25.05
 11
-74.3147820767
 21
-25.05
  0
LINE
  5
362
100
AcDbEntity
  8
0
100
AcDbLine
 62
7
  6
CONTINUOUS
 10
-74.0147820767
 20
-25.05
 11
-73.8147820767
 21
-25.05
  0
LINE
  5
363
100
AcDbEntity
  8
0
100
AcDbLine
 62
7
  6
CONTINUOUS
 10
-74.4647820767
 20
-25.7558198745
 11
-73.4629021569
 21
-25.8000830551
  0
LINE
  5
364
100
AcDbEntity
  8
0
100
AcDbLine
 62
7
  6
CONTINUOUS
 10
-71.4647820767
 20
-25.4
 11
-73.4151539788
 21
-25.2049628098
  0
LWPOLYLINE
  5
365
100
AcDbEntity
  8
0
100
AcDbPolyline
 62
7
  6
CONTINUOUS
 90
4
 70
0
 43
0.3500000006
 10
-92.0945717468
 20
60.110681488
 10
-92.0945717468
 20
60.7535349426
 10
-90.5945712891
 20
60.7535349426
 10
-91.4517182922
 20
57.7535340271
  0
LINE
  5
366
100
AcDbEntity
  8
0
100
AcDbLine
 62
7
  6
CONTINUOUS
 10
-74.3147820767
 20
25.05
 11
-74.1647820767
 21
25.2
  0
LINE
  5
367
100
AcDbEntity
  8
0
100
AcDbLine
 62
7
  6
CONTINUOUS
 10
-73.8147820767
 20
25.05
 11
-73.6647820767
 21
25.2
  0
LINE
  5
368
100
AcDbEntity
  8
0
100
AcDbLine
 62
7
  6
CONTINUOUS
 10
-74.3147820767
 20
-25.05
 11
-74.1647820767
 21
-25.2
  0
LINE
  5
369
100
AcDbEntity
  8
0
100
AcDbLine
 62
7
  6
CONTINUOUS
 10
-73.8147820767
 20
-25.05
 11
-73.6647820767
 21
-25.2
  0
LWPOLYLINE
  5
36A
100
AcDbEntity
  8
0
100
AcDbPolyline
 62
7
  6
CONTINUOUS
 90
13
 70
0
 43
0.3500000006
 10
-90.9604011841
 20
67.6002786255
 10
-90.9604011841
 20
68.8859945984
 10
-90.7461166992
 20
69.3145635681
 10
-90.3175477295
 20
69.7431325378
 10
-90.1032632446
 20
69.7431325378
 10
-89.6746942749
 20
69.3145635681
 10
-89.4604007263
 20
68.8859945984
 10
-89.4604007263
 20
67.6002786255
 10
-89.6746942749
 20
67.1717096558
 10
-90.1032632446
 20
66.7431316223
 10
-90.3175477295
 20
66.7431316223
 10
-90.7461166992
 20
67.1717096558
 10
-90.9604011841
 20
67.6002786255
  0
LINE
  5
36B
100
AcDbEntity
  8
0
100
AcDbLine
 62
7
  6
CONTINUOUS
 10
-81.6147820767
 20
-43.7712689598
 11
-81.6147820767
 21
43.7712689598
  0
LINE
  5
36C
100
AcDbEntity
  8
ASSI
100
AcDbLine
 62
7
  6
CONTINUOUS
 10
-81.6147820767
 20
-43.7712689598
 11
-81.6147820767
 21
43.7712689598
  0
LINE
  5
36D
100
AcDbEntity
  8
0
100
AcDbLine
 62
7
  6
CONTINUOUS
 10
-80.630329619
 20
-44.7906993223
 11
-80.630329619
 21
-43.8199854699
  0
LINE
  5
36E
100
AcDbEntity
  8
ASSI
100
AcDbLine
 62
7
  6
CONTINUOUS
 10
-80.630329619
 20
-44.7906993223
 11
-80.630329619
 21
-43.8199854699
  0
LINE
  5
36F
100
AcDbEntity
  8
0
100
AcDbLine
 62
7
  6
CONTINUOUS
 10
-80.630329619
 20
43.8199854699
 11
-80.630329619
 21
44.7906993223
  0
LINE
  5
370
100
AcDbEntity
  8
ASSI
100
AcDbLine
 62
7
  6
CONTINUOUS
 10
-80.630329619
 20
43.8199854699
 11
-80.630329619
 21
44.7906993223
  0
LINE
  5
371
100
AcDbEntity
  8
0
100
AcDbLine
 62
7
  6
CONTINUOUS
 10
-80.6153912497
 20
-43.8055596544
 11
-80.6153912497
 21
43.8055596544
  0
LINE
  5
372
100
AcDbEntity
  8
ASSI
100
AcDbLine
 62
7
  6
CONTINUOUS
 10
-80.6153912497
 20
-43.8055596544
 11
-80.6153912497
 21
43.8055596544
  0
LINE
  5
373
100
AcDbEntity
  8
CURVE
100
AcDbLine
 62
250
  6
CONTINUOUS
 10
-79.0700999745
 20
-35.735605
 11
-79.0700999745
 21
-36.257398
  0
LINE
  5
374
100
AcDbEntity
  8
CURVE
100
AcDbLine
 62
250
  6
CONTINUOUS
 10
-79.0699510653
 20
-38.506847
 11
-79.0699510653
 21
-37.940019
  0
LINE
  5
375
100
AcDbEntity
  8
CURVE
100
AcDbLine
 62
250
  6
CONTINUOUS
 10
-79.0699510653
 20
-36.972473
 11
-79.0699510653
 21
-36.451037
  0
LINE
  5
376
100
AcDbEntity
  8
CURVE
100
AcDbLine
 62
250
  6
CONTINUOUS
 10
-79.0699510653
 20
-35.228996
 11
-79.0699510653
 21
-34.707635
  0
LINE
  5
377
100
AcDbEntity
  8
CURVE
100
AcDbLine
 62
250
  6
CONTINUOUS
 10
-79.0699510653
 20
-33.66956
 11
-79.0699510653
 21
-33.153297
  0
LINE
  5
378
100
AcDbEntity
  8
CURVE
100
AcDbLine
 62
250
  6
CONTINUOUS
 10
-79.0699510653
 20
-32.053532
 11
-79.0699510653
 21
-31.54876
  0
LINE
  5
379
100
AcDbEntity
  8
CURVE
100
AcDbLine
 62
250
  6
CONTINUOUS
 10
-77.958547202
 20
-29.8279642095
 11
-77.958547202
 21
-30.126163664
  0
LINE
  5
37A
100
AcDbEntity
  8
CURVE
100
AcDbLine
 62
250
  6
CONTINUOUS
 10
-77.5494003111
 20
-30.1088617972
 11
-77.5494003111
 21
-29.8290889245
  0
LINE
  5
37B
100
AcDbEntity
  8
CURVE
100
AcDbLine
 62
250
  6
CONTINUOUS
 10
-77.4563866043
 20
-32.070759
 11
-77.4563866043
 21
-31.571179
  0
LINE
  5
37C
100
AcDbEntity
  8
CURVE
100
AcDbLine
 62
250
  6
CONTINUOUS
 10
-77.0704698377
 20
-31.466899
 11
-77.0704698377
 21
-32.177494
  0
LINE
  5
37D
100
AcDbEntity
  8
CURVE
100
AcDbLine
 62
250
  6
CONTINUOUS
 10
-76.5717378369
 20
-36.257398
 11
-76.5717378369
 21
-35.735605
  0
LINE
  5
37E
100
AcDbEntity
  8
CURVE
100
AcDbLine
 62
250
  6
CONTINUOUS
 10
-76.5717378369
 20
-30.781779
 11
-76.5717378369
 21
-31.331727
  0
LINE
  5
37F
100
AcDbEntity
  8
CURVE
100
AcDbLine
 62
250
  6
CONTINUOUS
 10
-76.5717378369
 20
-32.321477
 11
-76.5717378369
 21
-32.837608
  0
LINE
  5
380
100
AcDbEntity
  8
CURVE
100
AcDbLine
 62
250
  6
CONTINUOUS
 10
-76.5717378369
 20
-32.919544
 11
-76.5717378369
 21
-33.429996
  0
LINE
  5
381
100
AcDbEntity
  8
CURVE
100
AcDbLine
 62
250
  6
CONTINUOUS
 10
-76.5717378369
 20
-34.157611
 11
-76.5717378369
 21
-34.230793
  0
LINE
  5
382
100
AcDbEntity
  8
CURVE
100
AcDbLine
 62
250
  6
CONTINUOUS
 10
-76.5717378369
 20
-34.955522
 11
-76.5717378369
 21
-35.454708
  0
LINE
  5
383
100
AcDbEntity
  8
CURVE
100
AcDbLine
 62
250
  6
CONTINUOUS
 10
-76.5717378369
 20
-37.254552
 11
-76.5717378369
 21
-37.714382
  0
LINE
  5
384
100
AcDbEntity
  8
CURVE
100
AcDbLine
 62
250
  6
CONTINUOUS
 10
-76.5717378204
 20
-30.6285551388
 11
-76.5717378204
 21
-30.1088617972
  0
LINE
  5
385
100
AcDbEntity
  8
CURVE
100
AcDbLine
 62
250
  6
CONTINUOUS
 10
-76.5717378204
 20
-29.3098079785
 11
-76.5717378204
 21
-28.8079038802
  0
LINE
  5
386
100
AcDbEntity
  8
0
100
AcDbLine
 62
250
  6
CONTINUOUS
 10
-73.5389449968
 20
-27.1500750748
 11
-73.539009493
 21
-26.9276792439
  0
LINE
  5
387
100
AcDbEntity
  8
0
100
AcDbLine
 62
7
  6
CONTINUOUS
 10
-75.0647820767
 20
-45.0
 11
-75.0647820767
 21
45.0
  0
LINE
  5
388
100
AcDbEntity
  8
ASSI
100
AcDbLine
 62
7
  6
CONTINUOUS
 10
-75.0647820767
 20
-45.0
 11
-75.0647820767
 21
45.0
  0
LINE
  5
389
100
AcDbEntity
  8
0
100
AcDbLine
 62
7
  6
CONTINUOUS
 10
-74.4647820767
 20
-42.8
 11
-74.4647820767
 21
42.8
  0
LINE
  5
38A
100
AcDbEntity
  8
0
100
AcDbLine
 62
250
  6
CONTINUOUS
 10
-73.539009493
 20
26.9276792439
 11
-73.5389450283
 21
27.1501232518
  0
LINE
  5
38B
100
AcDbEntity
  8
0
100
AcDbLine
 62
250
  6
CONTINUOUS
 10
-71.6543148855
 20
25.8799866677
 11
-71.6543148855
 21
25.3810467191
  0
LINE
  5
38C
100
AcDbEntity
  8
0
100
AcDbLine
 62
250
  6
CONTINUOUS
 10
-71.6543148855
 20
-25.3810467191
 11
-71.6543148855
 21
-25.8162101919
  0
LINE
  5
38D
100
AcDbEntity
  8
0
100
AcDbLine
 62
7
  6
CONTINUOUS
 10
-71.4647820767
 20
26.0883643404
 11
-71.4647820767
 21
25.4
  0
LINE
  5
38E
100
AcDbEntity
  8
0
100
AcDbLine
 62
7
  6
CONTINUOUS
 10
-71.4647820767
 20
-25.4
 11
-71.4647820767
 21
-26.0883643404
  0
LWPOLYLINE
  5
38F
100
AcDbEntity
  8
0
100
AcDbPolyline
 62
7
  6
CONTINUOUS
 90
10
 70
0
 43
0.3500000006
 10
-89.094579895
 20
58.2535341797
 10
-89.0231487122
 20
58.1106808777
 10
-89.0231487122
 20
58.0392496948
 10
-89.1660020142
 20
57.8963963928
 10
-89.237433197
 20
57.8963963928
 10
-89.3088643799
 20
57.967818512
 10
-89.3088643799
 20
58.0392496948
 10
-89.237433197
 20
58.1821029968
 10
-89.1660020142
 20
58.2535341797
 10
-89.094579895
 20
58.2535341797
  0
LINE
  5
390
100
AcDbEntity
  8
CURVE
100
AcDbLine
 62
7
  6
CONTINUOUS
 10
-79.0438658254
 20
-29.4361550019
 11
-78.5648317769
 21
-28.9571209534
  0
LINE
  5
391
100
AcDbEntity
  8
CURVE
100
AcDbLine
 62
7
  6
CONTINUOUS
 10
-79.0867330472
 20
-29.6890329377
 11
-78.3322744675
 21
-28.934574358
  0
LINE
  5
392
100
AcDbEntity
  8
CURVE
100
AcDbLine
 62
7
  6
CONTINUOUS
 10
-79.0982510074
 20
-29.9105616119
 11
-78.1519105106
 21
-28.9642211151
  0
LINE
  5
393
100
AcDbEntity
  8
CURVE
100
AcDbLine
 62
7
  6
CONTINUOUS
 10
-79.0941713241
 20
-30.1164926426
 11
-78.6508678523
 21
-29.6731891708
  0
LINE
  5
394
100
AcDbEntity
  8
CURVE
100
AcDbLine
 62
7
  6
CONTINUOUS
 10
-78.4075227665
 20
-29.4298440851
 11
-78.0037588638
 21
-29.0260801824
  0
LINE
  5
395
100
AcDbEntity
  8
0
100
AcDbLine
 62
7
  6
CONTINUOUS
 10
-74.1647820767
 20
-25.2
 11
-74.0147820767
 21
-25.05
  0
LINE
  5
396
100
AcDbEntity
  8
CURVE
100
AcDbLine
 62
7
  6
CONTINUOUS
 10
-79.0800515542
 20
-30.3123835868
 11
-78.6675674204
 21
-29.8998994529
  0
LINE
  5
397
100
AcDbEntity
  8
CURVE
100
AcDbLine
 62
7
  6
CONTINUOUS
 10
-78.2097477208
 20
-29.4420797533
 11
-77.8826913782
 21
-29.1150234107
  0
LINE
  5
398
100
AcDbEntity
  8
CURVE
100
AcDbLine
 62
7
  6
CONTINUOUS
 10
-79.0583835431
 20
-30.5007262896
 11
-78.6497660919
 21
-30.0921088385
  0
LINE
  5
399
100
AcDbEntity
  8
CURVE
100
AcDbLine
 62
7
  6
CONTINUOUS
 10
-78.072966783
 20
-29.5153095296
 11
-77.7829568844
 21
-29.225299631
  0
LINE
  5
39A
100
AcDbEntity
  8
CURVE
100
AcDbLine
 62
7
  6
CONTINUOUS
 10
-78.9762016782
 20
-30.6285551388
 11
-78.4738102034
 21
-30.126163664
  0
LINE
  5
39B
100
AcDbEntity
  8
CURVE
100
AcDbLine
 62
7
  6
CONTINUOUS
 10
-77.9897133241
 20
-29.6420667847
 11
-77.3677823896
 21
-29.0201358501
  0
LINE
  5
39C
100
AcDbEntity
  8
CURVE
100
AcDbLine
 62
7
  6
CONTINUOUS
 10
-78.7661909642
 20
-30.6285551388
 11
-78.2637994894
 21
-30.126163664
  0
LINE
  5
39D
100
AcDbEntity
  8
CURVE
100
AcDbLine
 62
7
  6
CONTINUOUS
 10
-77.9588380272
 20
-29.8212022018
 11
-77.0789417228
 21
-28.9413058974
  0
LINE
  5
39E
100
AcDbEntity
  8
CURVE
100
AcDbLine
 62
7
  6
CONTINUOUS
 10
-78.5561802502
 20
-30.6285551388
 11
-78.0537887754
 21
-30.126163664
  0
LINE
  5
39F
100
AcDbEntity
  8
CURVE
100
AcDbLine
 62
7
  6
CONTINUOUS
 10
-77.958547202
 20
-30.0309220906
 11
-76.7941237204
 21
-28.866498609
  0
LINE
  5
3A0
100
AcDbEntity
  8
CURVE
100
AcDbLine
 62
7
  6
CONTINUOUS
 10
-78.3461695362
 20
-30.6285551388
 11
-77.5494003111
 21
-29.8317859137
  0
LINE
  5
3A1
100
AcDbEntity
  8
CURVE
100
AcDbLine
 62
7
  6
CONTINUOUS
 10
-77.2163085588
 20
-29.4986941614
 11
-76.5717378204
 21
-28.854123423
  0
LINE
  5
3A2
100
AcDbEntity
  8
CURVE
100
AcDbLine
 62
7
  6
CONTINUOUS
 10
-79.0699510653
 20
-31.5623473819
 11
-79.0503441191
 21
-31.5427404357
  0
LINE
  5
3A3
100
AcDbEntity
  8
CURVE
100
AcDbLine
 62
7
  6
CONTINUOUS
 10
-78.1361588222
 20
-30.6285551388
 11
-77.5494003111
 21
-30.0417966277
  0
LINE
  5
3A4
100
AcDbEntity
  8
CURVE
100
AcDbLine
 62
7
  6
CONTINUOUS
 10
-76.9183637842
 20
-29.4107601008
 11
-76.5717378204
 21
-29.064134137
  0
LINE
  5
3A5
100
AcDbEntity
  8
CURVE
100
AcDbLine
 62
7
  6
CONTINUOUS
 10
-79.0699510653
 20
-31.7723580959
 11
-78.747293185
 21
-31.4497002157
  0
LINE
  5
3A6
100
AcDbEntity
  8
CURVE
100
AcDbLine
 62
7
  6
CONTINUOUS
 10
-77.9261481082
 20
-30.6285551388
 11
-77.4064547666
 21
-30.1088617972
  0
LINE
  5
3A7
100
AcDbEntity
  8
CURVE
100
AcDbLine
 62
7
  6
CONTINUOUS
 10
-76.622105918
 20
-29.3245129487
 11
-76.5717378204
 21
-29.274144851
  0
LINE
  5
3A8
100
AcDbEntity
  8
CURVE
100
AcDbLine
 62
7
  6
CONTINUOUS
 10
-79.0699510653
 20
-31.9823688099
 11
-78.444242251
 21
-31.3566599956
  0
LINE
  5
3A9
100
AcDbEntity
  8
CURVE
100
AcDbLine
 62
7
  6
CONTINUOUS
 10
-77.7161373942
 20
-30.6285551388
 11
-77.1964440526
 21
-30.1088617972
  0
LINE
  5
3AA
100
AcDbEntity
  8
CURVE
100
AcDbLine
 62
7
  6
CONTINUOUS
 10
-78.9642715542
 20
-32.0867000128
 11
-78.141191317
 21
-31.2636197756
  0
LINE
  5
3AB
100
AcDbEntity
  8
CURVE
100
AcDbLine
 62
7
  6
CONTINUOUS
 10
-77.5061266802
 20
-30.6285551388
 11
-76.9864333386
 21
-30.1088617972
  0
LINE
  5
3AC
100
AcDbEntity
  8
CURVE
100
AcDbLine
 62
7
  6
CONTINUOUS
 10
-78.8044283754
 20
-32.1368675481
 11
-77.8381403829
 21
-31.1705795556
  0
LINE
  5
3AD
100
AcDbEntity
  8
CURVE
100
AcDbLine
 62
7
  6
CONTINUOUS
 10
-77.2961159661
 20
-30.6285551388
 11
-76.7764226246
 21
-30.1088617972
  0
LINE
  5
3AE
100
AcDbEntity
  8
CURVE
100
AcDbLine
 62
7
  6
CONTINUOUS
 10
-78.6445851967
 20
-32.1870350833
 11
-78.2936738673
 21
-31.836123754
  0
LINE
  5
3AF
100
AcDbEntity
  8
CURVE
100
AcDbLine
 62
7
  6
CONTINUOUS
 10
-78.2283822144
 20
-31.770832101
 11
-77.5350894489
 21
-31.0775393356
  0
LINE
  5
3B0
100
AcDbEntity
  8
CURVE
100
AcDbLine
 62
7
  6
CONTINUOUS
 10
-77.0861052521
 20
-30.6285551388
 11
-76.5717378204
 21
-30.1141877071
  0
LINE
  5
3B1
100
AcDbEntity
  8
CURVE
100
AcDbLine
 62
7
  6
CONTINUOUS
 10
-78.4847420179
 20
-32.2372026186
 11
-78.1296328154
 21
-31.8820934161
  0
LINE
  5
3B2
100
AcDbEntity
  8
CURVE
100
AcDbLine
 62
7
  6
CONTINUOUS
 10
-77.9451124122
 20
-31.6975730129
 11
-77.2320385148
 21
-30.9844991155
  0
LINE
  5
3B3
100
AcDbEntity
  8
CURVE
100
AcDbLine
 62
7
  6
CONTINUOUS
 10
-76.8760945381
 20
-30.6285551388
 11
-76.5717378204
 21
-30.3241984211
  0
LINE
  5
3B4
100
AcDbEntity
  8
0
100
AcDbLine
 62
7
  6
CONTINUOUS
 10
-74.1647820767
 20
25.2
 11
-74.0147820767
 21
25.05
  0
LWPOLYLINE
  5
3B5
100
AcDbEntity
  8
0
100
AcDbPolyline
 62
7
  6
CONTINUOUS
 90
10
 70
0
 43
0.3500000006
 10
-87.9604002686
 20
67.2431317749
 10
-87.8889781494
 20
67.1002784729
 10
-87.8889781494
 20
67.02884729
 10
-88.0318314514
 20
66.885993988
 10
-88.1032626343
 20
66.885993988
 10
-88.1746938171
 20
66.9574161072
 10
-88.1746938171
 20
67.02884729
 10
-88.1032626343
 20
67.1717096558
 10
-88.0318314514
 20
67.2431317749
 10
-87.9604002686
 20
67.2431317749
  0
LINE
  5
3B6
100
AcDbEntity
  8
CURVE
100
AcDbLine
 62
7
  6
CONTINUOUS
 10
-78.3248988392
 20
-32.2873701539
 11
-77.9655917635
 21
-31.9280630782
  0
LINE
  5
3B7
100
AcDbEntity
  8
CURVE
100
AcDbLine
 62
7
  6
CONTINUOUS
 10
-77.6618426101
 20
-31.6243139248
 11
-76.9289875808
 21
-30.8914588955
  0
LINE
  5
3B8
100
AcDbEntity
  8
CURVE
100
AcDbLine
 62
7
  6
CONTINUOUS
 10
-76.6660838241
 20
-30.6285551388
 11
-76.5717378204
 21
-30.5342091351
  0
LINE
  5
3B9
100
AcDbEntity
  8
CURVE
100
AcDbLine
 62
7
  6
CONTINUOUS
 10
-79.0699510653
 20
-33.242433094
 11
-78.9716137369
 21
-33.1440957656
  0
LINE
  5
3BA
100
AcDbEntity
  8
CURVE
100
AcDbLine
 62
7
  6
CONTINUOUS
 10
-78.1650556604
 20
-32.3375376891
 11
-77.8015507116
 21
-31.9740327403
  0
LINE
  5
3BB
100
AcDbEntity
  8
CURVE
100
AcDbLine
 62
7
  6
CONTINUOUS
 10
-77.4563866043
 20
-31.628868633
 11
-76.6259366468
 21
-30.7984186755
  0
LINE
  5
3BC
100
AcDbEntity
  8
CURVE
100
AcDbLine
 62
7
  6
CONTINUOUS
 10
-79.0699510653
 20
-33.452443808
 11
-78.7399242873
 21
-33.12241703
  0
LINE
  5
3BD
100
AcDbEntity
  8
CURVE
100
AcDbLine
 62
7
  6
CONTINUOUS
 10
-78.0052124816
 20
-32.3877052244
 11
-77.6375096597
 21
-32.0200024024
  0
LINE
  5
3BE
100
AcDbEntity
  8
CURVE
100
AcDbLine
 62
7
  6
CONTINUOUS
 10
-77.4563866043
 20
-31.838879347
 11
-76.5717378369
 21
-30.9542305796
  0
LINE
  5
3BF
100
AcDbEntity
  8
CURVE
100
AcDbLine
 62
7
  6
CONTINUOUS
 10
-79.0699510653
 20
-33.662454522
 11
-78.5082348378
 21
-33.1007382945
  0
LINE
  5
3C0
100
AcDbEntity
  8
CURVE
100
AcDbLine
 62
7
  6
CONTINUOUS
 10
-77.8453693029
 20
-32.4378727596
 11
-77.4734686078
 21
-32.0659720645
  0
LINE
  5
3C1
100
AcDbEntity
  8
CURVE
100
AcDbLine
 62
7
  6
CONTINUOUS
 10
-77.4563866043
 20
-32.048890061
 11
-77.0704698377
 21
-31.6629732944
  0
LINE
  5
3C2
100
AcDbEntity
  8
CURVE
100
AcDbLine
 62
7
  6
CONTINUOUS
 10
-76.8014949093
 20
-31.3939983661
 11
-76.5717378369
 21
-31.1642412936
  0
LINE
  5
3C3
100
AcDbEntity
  8
CURVE
100
AcDbLine
 62
7
  6
CONTINUOUS
 10
-78.9225121209
 20
-33.7250262916
 11
-78.2765453882
 21
-33.079059559
  0
LINE
  5
3C4
100
AcDbEntity
  8
CURVE
100
AcDbLine
 62
7
  6
CONTINUOUS
 10
-77.6855261241
 20
-32.4880402949
 11
-77.0704698377
 21
-31.8729840084
  0
LINE
  5
3C5
100
AcDbEntity
  8
CURVE
100
AcDbLine
 62
7
  6
CONTINUOUS
 10
-78.769910056
 20
-33.7824349408
 11
-78.0448559387
 21
-33.0573808234
  0
LINE
  5
3C6
100
AcDbEntity
  8
CURVE
100
AcDbLine
 62
7
  6
CONTINUOUS
 10
-77.5256829454
 20
-32.5382078302
 11
-77.0704698377
 21
-32.0829947224
  0
LINE
  5
3C7
100
AcDbEntity
  8
CURVE
100
AcDbLine
 62
7
  6
CONTINUOUS
 10
-78.6173079912
 20
-33.8398435899
 11
-77.8131664891
 21
-33.0357020879
  0
LINE
  5
3C8
100
AcDbEntity
  8
CURVE
100
AcDbLine
 62
7
  6
CONTINUOUS
 10
-77.3658397666
 20
-32.5883753654
 11
-76.9808356301
 21
-32.2033712288
  0
LINE
  5
3C9
100
AcDbEntity
  8
CURVE
100
AcDbLine
 62
7
  6
CONTINUOUS
 10
-78.4647059263
 20
-33.8972522391
 11
-78.1299604213
 21
-33.5625067341
  0
LINE
  5
3CA
100
AcDbEntity
  8
CURVE
100
AcDbLine
 62
7
  6
CONTINUOUS
 10
-78.0981837847
 20
-33.5307300975
 11
-77.5814770396
 21
-33.0140233523
  0
LINE
  5
3CB
100
AcDbEntity
  8
CURVE
100
AcDbLine
 62
7
  6
CONTINUOUS
 10
-77.2059965879
 20
-32.6385429007
 11
-76.817872165
 21
-32.2504184778
  0
LINE
  5
3CC
100
AcDbEntity
  8
CURVE
100
AcDbLine
 62
7
  6
CONTINUOUS
 10
-79.0699510653
 20
-34.7125080921
 11
-79.0621885822
 21
-34.704745609
  0
LINE
  5
3CD
100
AcDbEntity
  8
CURVE
100
AcDbLine
 62
7
  6
CONTINUOUS
 10
-78.3121038614
 20
-33.9546608882
 11
-77.9779893271
 21
-33.6205463539
  0
LINE
  5
3CE
100
AcDbEntity
  8
CURVE
100
AcDbLine
 62
7
  6
CONTINUOUS
 10
-77.8733347009
 20
-33.5158917277
 11
-77.34978759
 21
-32.9923446168
  0
LINE
  5
3CF
100
AcDbEntity
  8
CURVE
100
AcDbLine
 62
7
  6
CONTINUOUS
 10
-77.0461534091
 20
-32.6887104359
 11
-76.6549086999
 21
-32.2974657267
  0
LINE
  5
3D0
100
AcDbEntity
  8
CURVE
100
AcDbLine
 62
7
  6
CONTINUOUS
 10
-79.0699510653
 20
-34.9225188061
 11
-78.7276567088
 21
-34.5802244496
  0
LINE
  5
3D1
100
AcDbEntity
  8
CURVE
100
AcDbLine
 62
7
  6
CONTINUOUS
 10
-78.1595017966
 20
-34.0120695374
 11
-77.826018233
 21
-33.6785859738
  0
LINE
  5
3D2
100
AcDbEntity
  8
CURVE
100
AcDbLine
 62
7
  6
CONTINUOUS
 10
-77.648485617
 20
-33.5010533578
 11
-77.1180981405
 21
-32.9706658813
  0
LINE
  5
3D3
100
AcDbEntity
  8
CURVE
100
AcDbLine
 62
7
  6
CONTINUOUS
 10
-76.8863102304
 20
-32.7388779712
 11
-76.5717378369
 21
-32.4243055777
  0
LINE
  5
3D4
100
AcDbEntity
  8
CURVE
100
AcDbLine
 62
7
  6
CONTINUOUS
 10
-79.0699510653
 20
-35.1325295201
 11
-78.3931248354
 21
-34.4557032903
  0
LINE
  5
3D5
100
AcDbEntity
  8
CURVE
100
AcDbLine
 62
7
  6
CONTINUOUS
 10
-78.0068997317
 20
-34.0694781865
 11
-77.6740471388
 21
-33.7366255936
  0
LINE
  5
3D6
100
AcDbEntity
  8
CURVE
100
AcDbLine
 62
7
  6
CONTINUOUS
 10
-77.4236365331
 20
-33.4862149879
 11
-76.8864086909
 21
-32.9489871457
  0
LINE
  5
3D7
100
AcDbEntity
  8
CURVE
100
AcDbLine
 62
7
  6
CONTINUOUS
 10
-76.7264670516
 20
-32.7890455065
 11
-76.5717378369
 21
-32.6343162917
  0
LINE
  5
3D8
100
AcDbEntity
  8
CURVE
100
AcDbLine
 62
7
  6
CONTINUOUS
 10
-78.9658154213
 20
-35.2384045902
 11
-78.0585929621
 21
-34.3311821309
  0
LINE
  5
3D9
100
AcDbEntity
  8
CURVE
100
AcDbLine
 62
7
  6
CONTINUOUS
 10
-77.8542976669
 20
-34.1268868357
 11
-77.5220760446
 21
-33.7946652135
  0
LINE
  5
3DA
100
AcDbEntity
  8
CURVE
100
AcDbLine
 62
7
  6
CONTINUOUS
 10
-77.1987874493
 20
-33.4713766181
 11
-76.6547192413
 21
-32.9273084102
  0
LINE
  5
3DB
100
AcDbEntity
  8
CURVE
100
AcDbLine
 62
7
  6
CONTINUOUS
 10
-78.7732067776
 20
-35.2558066605
 11
-77.7240610887
 21
-34.2066609716
  0
LINE
  5
3DC
100
AcDbEntity
  8
CURVE
100
AcDbLine
 62
7
  6
CONTINUOUS
 10
-77.701695602
 20
-34.1842954848
 11
-77.3701049505
 21
-33.8527048333
  0
LINE
  5
3DD
100
AcDbEntity
  8
CURVE
100
AcDbLine
 62
7
  6
CONTINUOUS
 10
-76.9739383654
 20
-33.4565382482
 11
-76.5717378369
 21
-33.0543377198
  0
LINE
  5
3DE
100
AcDbEntity
  8
CURVE
100
AcDbLine
 62
7
  6
CONTINUOUS
 10
-79.0700999745
 20
-35.7627105714
 11
-79.0429944031
 21
-35.735605
  0
LINE
  5
3DF
100
AcDbEntity
  8
CURVE
100
AcDbLine
 62
7
  6
CONTINUOUS
 10
-78.5805981339
 20
-35.2732087308
 11
-78.15371222
 21
-34.8463228169
  0
LINE
  5
3E0
100
AcDbEntity
  8
CURVE
100
AcDbLine
 62
7
  6
CONTINUOUS
 10
-78.1186467507
 20
-34.8112573475
 11
-77.2181338563
 21
-33.9107444532
  0
LINE
  5
3E1
100
AcDbEntity
  8
CURVE
100
AcDbLine
 62
7
  6
CONTINUOUS
 10
-76.7490892815
 20
-33.4416998784
 11
-76.5717378369
 21
-33.2643484338
  0
LINE
  5
3E2
100
AcDbEntity
  8
CURVE
100
AcDbLine
 62
7
  6
CONTINUOUS
 10
-79.0700999745
 20
-35.9727212854
 11
-78.8329836891
 21
-35.735605
  0
LINE
  5
3E3
100
AcDbEntity
  8
CURVE
100
AcDbLine
 62
7
  6
CONTINUOUS
 10
-78.3879894902
 20
-35.290610801
 11
-77.9572619109
 21
-34.8598832218
  0
LINE
  5
3E4
100
AcDbEntity
  8
CURVE
100
AcDbLine
 62
7
  6
CONTINUOUS
 10
-77.7824997466
 20
-34.6851210575
 11
-77.0661627621
 21
-33.968784073
  0
LINE
  5
3E5
100
AcDbEntity
  8
CURVE
100
AcDbLine
 62
7
  6
CONTINUOUS
 10
-79.0700999745
 20
-36.1827319994
 11
-78.6229729751
 21
-35.735605
  0
LINE
  5
3E6
100
AcDbEntity
  8
CURVE
100
AcDbLine
 62
7
  6
CONTINUOUS
 10
-78.1953808464
 20
-35.3080128713
 11
-77.7608116019
 21
-34.8734436268
  0
LINE
  5
3E7
100
AcDbEntity
  8
CURVE
100
AcDbLine
 62
7
  6
CONTINUOUS
 10
-77.4463527426
 20
-34.5589847675
 11
-76.914191668
 21
-34.0268236929
  0
LINE
  5
3E8
100
AcDbEntity
  8
CURVE
100
AcDbLine
 62
7
  6
CONTINUOUS
 10
-78.9347552611
 20
-36.257398
 11
-78.4129622611
 21
-35.735605
  0
LINE
  5
3E9
100
AcDbEntity
  8
CURVE
100
AcDbLine
 62
7
  6
CONTINUOUS
 10
-78.0027722027
 20
-35.3254149416
 11
-77.5643612928
 21
-34.8870040317
  0
LINE
  5
3EA
100
AcDbEntity
  8
CURVE
100
AcDbLine
 62
7
  6
CONTINUOUS
 10
-77.1102057386
 20
-34.4328484775
 11
-76.7622205738
 21
-34.0848633127
  0
LINE
  5
3EB
100
AcDbEntity
  8
CURVE
100
AcDbLine
 62
7
  6
CONTINUOUS
 10
-79.0699510653
 20
-36.6026045182
 11
-78.955269313
 21
-36.4879227659
  0
LINE
  5
3EC
100
AcDbEntity
  8
CURVE
100
AcDbLine
 62
7
  6
CONTINUOUS
 10
-78.7247445471
 20
-36.257398
 11
-78.2029515471
 21
-35.735605
  0
LINE
  5
3ED
100
AcDbEntity
  8
CURVE
100
AcDbLine
 62
7
  6
CONTINUOUS
 10
-77.810163559
 20
-35.3428170119
 11
-77.3679109838
 21
-34.9005644367
  0
LINE
  5
3EE
100
AcDbEntity
  8
CURVE
100
AcDbLine
 62
7
  6
CONTINUOUS
 10
-76.7740587346
 20
-34.3067121875
 11
-76.6102494796
 21
-34.1429029325
  0
LINE
  5
3EF
100
AcDbEntity
  8
CURVE
100
AcDbLine
 62
7
  6
CONTINUOUS
 10
-79.0699510653
 20
-36.8126152322
 11
-78.7963672145
 21
-36.5390313815
  0
LINE
  5
3F0
100
AcDbEntity
  8
CURVE
100
AcDbLine
 62
7
  6
CONTINUOUS
 10
-78.5147338331
 20
-36.257398
 11
-77.9929408331
 21
-35.735605
  0
LINE
  5
3F1
100
AcDbEntity
  8
CURVE
100
AcDbLine
 62
7
  6
CONTINUOUS
 10
-77.6175549153
 20
-35.3602190822
 11
-77.1714606747
 21
-34.9141248417
  0
LINE
  5
3F2
100
AcDbEntity
  8
CURVE
100
AcDbLine
 62
7
  6
CONTINUOUS
 10
-79.0309385834
 20
-36.9836134643
 11
-78.6374651161
 21
-36.5901399971
  0
LINE
  5
3F3
100
AcDbEntity
  8
CURVE
100
AcDbLine
 62
7
  6
CONTINUOUS
 10
-78.3047231191
 20
-36.257398
 11
-77.7829301191
 21
-35.735605
  0
LINE
  5
3F4
100
AcDbEntity
  8
CURVE
100
AcDbLine
 62
7
  6
CONTINUOUS
 10
-77.4249462715
 20
-35.3776211525
 11
-76.9750103657
 21
-34.9276852466
  0
LINE
  5
3F5
100
AcDbEntity
  8
CURVE
100
AcDbLine
 62
7
  6
CONTINUOUS
 10
-78.867577509
 20
-37.0302631039
 11
-78.4785630177
 21
-36.6412486127
  0
LINE
  5
3F6
100
AcDbEntity
  8
CURVE
100
AcDbLine
 62
7
  6
CONTINUOUS
 10
-78.0947124051
 20
-36.257398
 11
-77.5729194051
 21
-35.735605
  0
LINE
  5
3F7
100
AcDbEntity
  8
CURVE
100
AcDbLine
 62
7
  6
CONTINUOUS
 10
-77.2323376278
 20
-35.3950232228
 11
-76.7785600567
 21
-34.9412456516
  0
LINE
  5
3F8
100
AcDbEntity
  8
CURVE
100
AcDbLine
 62
7
  6
CONTINUOUS
 10
-78.7042164345
 20
-37.0769127435
 11
-78.3196609193
 21
-36.6923572283
  0
LINE
  5
3F9
100
AcDbEntity
  8
CURVE
100
AcDbLine
 62
7
  6
CONTINUOUS
 10
-77.884701691
 20
-36.257398
 11
-77.362908691
 21
-35.735605
  0
LINE
  5
3FA
100
AcDbEntity
  8
CURVE
100
AcDbLine
 62
7
  6
CONTINUOUS
 10
-77.0397289841
 20
-35.4124252931
 11
-76.5821097476
 21
-34.9548060566
  0
LINE
  5
3FB
100
AcDbEntity
  8
CURVE
100
AcDbLine
 62
7
  6
CONTINUOUS
 10
-78.5408553601
 20
-37.1235623831
 11
-78.1607588209
 21
-36.7434658439
  0
LINE
  5
3FC
100
AcDbEntity
  8
CURVE
100
AcDbLine
 62
7
  6
CONTINUOUS
 10
-77.674690977
 20
-36.257398
 11
-77.152897977
 21
-35.735605
  0
LINE
  5
3FD
100
AcDbEntity
  8
CURVE
100
AcDbLine
 62
7
  6
CONTINUOUS
 10
-76.8471203404
 20
-35.4298273633
 11
-76.5717378369
 21
-35.1544448599
  0
LINE
  5
3FE
100
AcDbEntity
  8
CURVE
100
AcDbLine
 62
7
  6
CONTINUOUS
 10
-78.3774942857
 20
-37.1702120227
 11
-78.0018567225
 21
-36.7945744595
  0
LINE
  5
3FF
100
AcDbEntity
  8
CURVE
100
AcDbLine
 62
7
  6
CONTINUOUS
 10
-77.464680263
 20
-36.257398
 11
-76.942887263
 21
-35.735605
  0
LINE
  5
400
100
AcDbEntity
  8
CURVE
100
AcDbLine
 62
7
  6
CONTINUOUS
 10
-76.6545116966
 20
-35.4472294336
 11
-76.5717378369
 21
-35.3644555739
  0
LINE
  5
401
100
AcDbEntity
  8
CURVE
100
AcDbLine
 62
7
  6
CONTINUOUS
 10
-79.0699510653
 20
-38.0726795163
 11
-78.8864403126
 21
-37.8891687636
  0
LINE
  5
402
100
AcDbEntity
  8
CURVE
100
AcDbLine
 62
7
  6
CONTINUOUS
 10
-78.2141332113
 20
-37.2168616623
 11
-77.8429546241
 21
-36.8456830751
  0
LINE
  5
403
100
AcDbEntity
  8
CURVE
100
AcDbLine
 62
7
  6
CONTINUOUS
 10
-77.254669549
 20
-36.257398
 11
-76.732876549
 21
-35.735605
  0
LINE
  5
404
100
AcDbEntity
  8
CURVE
100
AcDbLine
 62
7
  6
CONTINUOUS
 10
-79.0699510653
 20
-38.2826902303
 11
-78.5959301799
 21
-37.8086693449
  0
LINE
  5
405
100
AcDbEntity
  8
CURVE
100
AcDbLine
 62
7
  6
CONTINUOUS
 10
-78.0507721368
 20
-37.2635113018
 11
-77.6840525257
 21
-36.8967916907
  0
LINE
  5
406
100
AcDbEntity
  8
CURVE
100
AcDbLine
 62
7
  6
CONTINUOUS
 10
-77.044658835
 20
-36.257398
 11
-76.5717378369
 21
-35.7844770019
  0
LINE
  5
407
100
AcDbEntity
  8
CURVE
100
AcDbLine
 62
7
  6
CONTINUOUS
 10
-79.0699510653
 20
-38.4927009443
 11
-78.3054200471
 21
-37.7281699261
  0
LINE
  5
408
100
AcDbEntity
  8
CURVE
100
AcDbLine
 62
7
  6
CONTINUOUS
 10
-77.8874110624
 20
-37.3101609414
 11
-77.5251504273
 21
-36.9479003063
  0
LINE
  5
409
100
AcDbEntity
  8
CURVE
100
AcDbLine
 62
7
  6
CONTINUOUS
 10
-76.834648121
 20
-36.257398
 11
-76.5717378369
 21
-35.9944877159
  0
LINE
  5
40A
100
AcDbEntity
  8
CURVE
100
AcDbLine
 62
7
  6
CONTINUOUS
 10
-78.7830906294
 20
-38.4158512224
 11
-78.0149099143
 21
-37.6476705074
  0
LINE
  5
40B
100
AcDbEntity
  8
CURVE
100
AcDbLine
 62
7
  6
CONTINUOUS
 10
-77.724049988
 20
-37.356810581
 11
-77.3662483289
 21
-36.999008922
  0
LINE
  5
40C
100
AcDbEntity
  8
CURVE
100
AcDbLine
 62
7
  6
CONTINUOUS
 10
-76.624637407
 20
-36.257398
 11
-76.5717378369
 21
-36.2044984299
  0
LINE
  5
40D
100
AcDbEntity
  8
CURVE
100
AcDbLine
 62
7
  6
CONTINUOUS
 10
-78.4755120928
 20
-38.3182833998
 11
-77.7243997816
 21
-37.5671710886
  0
LINE
  5
40E
100
AcDbEntity
  8
CURVE
100
AcDbLine
 62
7
  6
CONTINUOUS
 10
-77.5606889136
 20
-37.4034602206
 11
-77.2073462305
 21
-37.0501175376
  0
LINE
  5
40F
100
AcDbEntity
  8
CURVE
100
AcDbLine
 62
7
  6
CONTINUOUS
 10
-78.1679335562
 20
-38.2207155773
 11
-77.4338896488
 21
-37.4866716699
  0
LINE
  5
410
100
AcDbEntity
  8
CURVE
100
AcDbLine
 62
7
  6
CONTINUOUS
 10
-77.3973278391
 20
-37.4501098602
 11
-77.0484441321
 21
-37.1012261532
  0
LINE
  5
411
100
AcDbEntity
  8
CURVE
100
AcDbLine
 62
7
  6
CONTINUOUS
 10
-77.8603550196
 20
-38.1231477547
 11
-76.8895420337
 21
-37.1523347688
  0
LINE
  5
412
100
AcDbEntity
  8
CURVE
100
AcDbLine
 62
7
  6
CONTINUOUS
 10
-77.5527764831
 20
-38.0255799321
 11
-76.7306399353
 21
-37.2034433844
  0
LINE
  5
413
100
AcDbEntity
  8
CURVE
100
AcDbLine
 62
7
  6
CONTINUOUS
 10
-77.2451979465
 20
-37.9280121096
 11
-76.5717378369
 21
-37.254552
  0
LINE
  5
414
100
AcDbEntity
  8
CURVE
100
AcDbLine
 62
7
  6
CONTINUOUS
 10
-76.9376194099
 20
-37.830444287
 11
-76.5717378369
 21
-37.464562714
  0
LINE
  5
415
100
AcDbEntity
  8
CURVE
100
AcDbLine
 62
7
  6
CONTINUOUS
 10
-76.6300408733
 20
-37.7328764645
 11
-76.5717378369
 21
-37.674573428
  0
LINE
  5
416
100
AcDbEntity
  8
0
100
AcDbLine
 62
250
  6
CONTINUOUS
 10
-71.4647820772
 20
-26.0406731706
 11
-72.2678666874
 21
-26.4697941135
  0
LINE
  5
417
100
AcDbEntity
  8
0
100
AcDbLine
 62
250
  6
CONTINUOUS
 10
-73.539009493
 20
-26.9276792439
 11
-72.7971102879
 21
-26.5338659179
  0
LINE
  5
418
100
AcDbEntity
  8
0
100
AcDbLine
 62
7
  6
CONTINUOUS
 10
-71.4647820767
 20
-26.0883643404
 11
-73.399770115
 21
-27.1154904916
  0
LINE
  5
419
100
AcDbEntity
  8
0
100
AcDbLine
 62
7
  6
CONTINUOUS
 10
-71.4647820767
 20
25.4
 11
-73.4151539788
 21
25.2049628098
  0
LINE
  5
41A
100
AcDbEntity
  8
0
100
AcDbLine
 62
7
  6
CONTINUOUS
 10
-74.4647820767
 20
25.7558198745
 11
-71.6543148855
 21
25.8799866677
  0
LINE
  5
41B
100
AcDbEntity
  8
0
100
AcDbLine
 62
7
  6
CONTINUOUS
 10
-74.4647820767
 20
25.05
 11
-74.3147820767
 21
25.05
  0
LINE
  5
41C
100
AcDbEntity
  8
0
100
AcDbLine
 62
7
  6
CONTINUOUS
 10
-74.0147820767
 20
25.05
 11
-73.8147820767
 21
25.05
  0
LINE
  5
41D
100
AcDbEntity
  8
0
100
AcDbLine
 62
7
  6
CONTINUOUS
 10
-74.4647820767
 20
25.2
 11
-73.5146576979
 21
25.2
  0
LINE
  5
41E
100
AcDbEntity
  8
0
100
AcDbLine
 62
250
  6
CONTINUOUS
 10
-73.539009493
 20
26.9276792439
 11
-74.4647820767
 21
26.9280974384
  0
LINE
  5
41F
100
AcDbEntity
  8
0
100
AcDbLine
 62
250
  6
CONTINUOUS
 10
-74.4647820767
 20
26.5523835751
 11
-72.5879937835
 21
26.5509203682
  0
LINE
  5
420
100
AcDbEntity
  8
0
100
AcDbLine
 62
7
  6
CONTINUOUS
 10
-72.5878380969
 20
26.5709140678
 11
-74.4647820767
 21
26.5723674752
  0
LINE
  5
421
100
AcDbEntity
  8
0
100
AcDbLine
 62
7
  6
CONTINUOUS
 10
-73.5389449258
 20
27.1501294387
 11
-74.4647820767
 21
27.151745331
  0
LWPOLYLINE
  5
422
100
AcDbEntity
  8
0
100
AcDbPolyline
 62
7
  6
CONTINUOUS
 90
15
 70
0
 10
-72.265038203
 20
26.5131542117
 10
-72.2726927385
 20
26.5170726347
 10
-72.2935999377
 20
26.5264706134
 10
-72.3156337505
 20
26.5346349649
 10
-72.3380448984
 20
26.5415406896
 10
-72.3607750959
 20
26.5474108385
 10
-72.3842978262
 20
26.552509597
 10
-72.4085995908
 20
26.5569255537
 10
-72.4337583617
 20
26.5607247805
 10
-72.459819327
 20
26.563940345
 10
-72.4865027461
 20
26.5665546938
 10
-72.5137452734
 20
26.5685705986
 10
-72.5416218201
 20
26.56998545
 10
-72.5699845658
 20
26.570766163
 10
-72.5878380363
 20
26.5709140647
  0
LINE
  5
423
100
AcDbEntity
  8
0
100
AcDbLine
 62
250
  6
CONTINUOUS
 10
-72.8673124517
 20
26.5711304782
 11
-73.539009493
 21
26.9276792439
  0
LINE
  5
424
100
AcDbEntity
  8
0
100
AcDbLine
 62
7
  6
CONTINUOUS
 10
-73.399770115
 20
27.1154904916
 11
-71.4647820767
 21
26.0883643404
  0
LINE
  5
425
100
AcDbEntity
  8
0
100
AcDbLine
 62
250
  6
CONTINUOUS
 10
-72.3586943796
 20
26.5162094923
 11
-71.4647820767
 21
26.0384659645
  0
LINE
  5
426
100
AcDbEntity
  8
0
100
AcDbLine
 62
7
  6
CONTINUOUS
 10
-80.6153912497
 20
-43.8055596544
 11
-80.630329619
 21
-43.8199854699
  0
LINE
  5
427
100
AcDbEntity
  8
ASSI
100
AcDbLine
 62
7
  6
CONTINUOUS
 10
-80.6153912497
 20
-43.8055596544
 11
-80.630329619
 21
-43.8199854699
  0
LINE
  5
428
100
AcDbEntity
  8
CURVE
100
AcDbLine
 62
250
  6
CONTINUOUS
 10
-79.0699510653
 20
-31.54876
 11
-76.5717378369
 21
-30.781779
  0
LINE
  5
429
100
AcDbEntity
  8
0
100
AcDbLine
 62
7
  6
CONTINUOUS
 10
-80.630329619
 20
43.8199854699
 11
-80.6153912497
 21
43.8055596544
  0
LINE
  5
42A
100
AcDbEntity
  8
ASSI
100
AcDbLine
 62
7
  6
CONTINUOUS
 10
-80.630329619
 20
43.8199854699
 11
-80.6153912497
 21
43.8055596544
  0
LINE
  5
42B
100
AcDbEntity
  8
CURVE
100
AcDbLine
 62
250
  6
CONTINUOUS
 10
-76.5717378369
 20
-34.230793
 11
-78.203023496
 21
-34.842919
  0
LINE
  5
42C
100
AcDbEntity
  8
CURVE
100
AcDbLine
 62
250
  6
CONTINUOUS
 10
-79.0699510653
 20
-34.707635
 11
-77.6829355127
 21
-34.191353
  0
LINE
  5
42D
100
AcDbEntity
  8
CURVE
100
AcDbLine
 62
250
  6
CONTINUOUS
 10
-76.5717378369
 20
-37.714382
 11
-79.0699510653
 21
-38.506847
  0
LINE
  5
42E
100
AcDbEntity
  8
0
100
AcDbLine
 62
250
  6
CONTINUOUS
 10
-75.0647820767
 20
41.1619414324
 11
-74.4647820767
 21
41.2038975196
  0
LINE
  5
42F
100
AcDbEntity
  8
0
100
AcDbLine
 62
7
  6
CONTINUOUS
 10
-75.0647820767
 20
42.7580439128
 11
-74.4647820767
 21
42.8
  0
LINE
  5
430
100
AcDbEntity
  8
0
100
AcDbLine
 62
7
  6
CONTINUOUS
 10
-80.6153912497
 20
43.8055596544
 11
-75.0647820767
 21
43.9993911979
  0
LINE
  5
431
100
AcDbEntity
  8
ASSI
100
AcDbLine
 62
7
  6
CONTINUOUS
 10
-80.6153912497
 20
43.8055596544
 11
-75.0647820767
 21
43.9993911979
  0
LINE
  5
432
100
AcDbEntity
  8
0
100
AcDbLine
 62
7
  6
CONTINUOUS
 10
-80.6153912497
 20
44.8061684565
 11
-75.0647820767
 21
45.0
  0
LINE
  5
433
100
AcDbEntity
  8
ASSI
100
AcDbLine
 62
7
  6
CONTINUOUS
 10
-80.6153912497
 20
44.8061684565
 11
-75.0647820767
 21
45.0
  0
LWPOLYLINE
  5
434
100
AcDbEntity
  8
0
100
AcDbPolyline
 62
7
  6
CONTINUOUS
 90
8
 70
0
 43
0.3500000006
 10
-86.3088634644
 20
57.7535340271
 10
-85.4517164612
 20
57.7535340271
 10
-85.0231474915
 20
58.1821029968
 10
-85.0231474915
 20
59.03925
 10
-85.4517164612
 20
59.4678189697
 10
-86.3088634644
 20
59.4678189697
 10
-86.3088634644
 20
60.7535349426
 10
-85.0231474915
 20
60.7535349426
  0
LWPOLYLINE
  5
435
100
AcDbEntity
  8
0
100
AcDbPolyline
 62
7
  6
CONTINUOUS
 90
8
 70
0
 43
0.3500000006
 10
-85.1746929016
 20
66.7431316223
 10
-84.3175458984
 20
66.7431316223
 10
-83.8889769287
 20
67.1717096558
 10
-83.8889769287
 20
68.0288475952
 10
-84.3175458984
 20
68.4574165649
 10
-85.1746929016
 20
68.4574165649
 10
-85.1746929016
 20
69.7431325378
 10
-83.8889769287
 20
69.7431325378
  0
ARC
  5
436
100
AcDbEntity
  8
CURVE
100
AcDbCircle
 62
250
  6
CONTINUOUS
 10
84.7422937963
 20
-29.8716892664
 40
39.8681074
100
AcDbArc
 50
179.7782450657
 51
180.3657160807
  0
ARC
  5
437
100
AcDbEntity
  8
0
100
AcDbCircle
 62
7
  6
CONTINUOUS
 10
11.25
 20
2.0
 40
4.7
100
AcDbArc
 50
0.0
 51
180.0
  0
ARC
  5
438
100
AcDbEntity
  8
0
100
AcDbCircle
 62
7
  6
CONTINUOUS
 10
11.25
 20
-2.0
 40
4.7
100
AcDbArc
 50
180.0
 51
360.0
  0
ARC
  5
439
100
AcDbEntity
  8
0
100
AcDbCircle
 62
7
  6
CONTINUOUS
 10
-11.25
 20
2.0
 40
4.7
100
AcDbArc
 50
0.0
 51
180.0
  0
ARC
  5
43A
100
AcDbEntity
  8
0
100
AcDbCircle
 62
7
  6
CONTINUOUS
 10
-11.25
 20
-2.0
 40
4.7
100
AcDbArc
 50
180.0
 51
360.0
  0
ARC
  5
43B
100
AcDbEntity
  8
ASSI
100
AcDbCircle
 62
7
  6
CONTINUOUS
 10
11.25
 20
2.0
 40
4.7
100
AcDbArc
 50
0.0
 51
180.0
  0
ARC
  5
43C
100
AcDbEntity
  8
ASSI
100
AcDbCircle
 62
7
  6
CONTINUOUS
 10
11.25
 20
-2.0
 40
4.7
100
AcDbArc
 50
180.0
 51
360.0
  0
ARC
  5
43D
100
AcDbEntity
  8
ASSI
100
AcDbCircle
 62
7
  6
CONTINUOUS
 10
-11.25
 20
2.0
 40
4.7
100
AcDbArc
 50
0.0
 51
180.0
  0
ARC
  5
43E
100
AcDbEntity
  8
ASSI
100
AcDbCircle
 62
7
  6
CONTINUOUS
 10
-11.25
 20
-2.0
 40
4.7
100
AcDbArc
 50
180.0
 51
360.0
  0
ARC
  5
43F
100
AcDbEntity
  8
0
100
AcDbCircle
 62
7
  6
CONTINUOUS
 10
-11.25
 20
-2.0
 40
3.5
100
AcDbArc
 50
180.0
 51
360.0
  0
ARC
  5
440
100
AcDbEntity
  8
0
100
AcDbCircle
 62
7
  6
CONTINUOUS
 10
-11.25
 20
2.0
 40
3.5
100
AcDbArc
 50
0.0
 51
180.0
  0
ARC
  5
441
100
AcDbEntity
  8
0
100
AcDbCircle
 62
7
  6
CONTINUOUS
 10
11.25
 20
-2.0
 40
3.5
100
AcDbArc
 50
180.0
 51
360.0
  0
ARC
  5
442
100
AcDbEntity
  8
0
100
AcDbCircle
 62
7
  6
CONTINUOUS
 10
11.25
 20
2.0
 40
3.5
100
AcDbArc
 50
0.0
 51
180.0
  0
ARC
  5
443
100
AcDbEntity
  8
ASSI
100
AcDbCircle
 62
7
  6
CONTINUOUS
 10
-11.25
 20
-2.0
 40
3.5
100
AcDbArc
 50
180.0
 51
360.0
  0
ARC
  5
444
100
AcDbEntity
  8
ASSI
100
AcDbCircle
 62
7
  6
CONTINUOUS
 10
-11.25
 20
2.0
 40
3.5
100
AcDbArc
 50
0.0
 51
180.0
  0
ARC
  5
445
100
AcDbEntity
  8
ASSI
100
AcDbCircle
 62
7
  6
CONTINUOUS
 10
11.25
 20
-2.0
 40
3.5
100
AcDbArc
 50
180.0
 51
360.0
  0
ARC
  5
446
100
AcDbEntity
  8
ASSI
100
AcDbCircle
 62
7
  6
CONTINUOUS
 10
11.25
 20
2.0
 40
3.5
100
AcDbArc
 50
0.0
 51
180.0
  0
ARC
  5
447
100
AcDbEntity
  8
0
100
AcDbCircle
 62
250
  6
CONTINUOUS
 10
-72.5238049191
 20
-25.447727595
 40
1.0610484761
100
AcDbArc
 50
271.0214901114
 51
275.636935072
  0
ARC
  5
448
100
AcDbEntity
  8
0
100
AcDbCircle
 62
7
  6
CONTINUOUS
 10
-73.5146576979
 20
26.2
 40
1.0
100
AcDbArc
 50
270.0
 51
275.7105931375
  0
ARC
  5
449
100
AcDbEntity
  8
0
100
AcDbCircle
 62
7
  6
CONTINUOUS
 10
-73.5146576979
 20
-26.2
 40
1.0
100
AcDbArc
 50
84.2894068625
 51
90.0
  0
ARC
  5
44A
100
AcDbEntity
  8
0
100
AcDbCircle
 62
250
  6
CONTINUOUS
 10
-72.5888675556
 20
25.5563887282
 40
0.9945320238
100
AcDbArc
 50
87.9270310034
 51
89.949661294
  0
ARC
  5
44B
100
AcDbEntity
  8
0
100
AcDbCircle
 62
250
  6
CONTINUOUS
 10
-72.5871033494
 20
25.5833896848
 40
0.9674852418
100
AcDbArc
 50
84.1884612297
 51
87.9736006925
  0
ARC
  5
44C
100
AcDbEntity
  8
0
100
AcDbCircle
 62
7
  6
CONTINUOUS
 10
-73.5394687519
 20
-26.849999496
 40
0.3
100
AcDbArc
 50
270.0999999936
 51
297.9489629825
  0
ARC
  5
44D
100
AcDbEntity
  8
0
100
AcDbCircle
 62
7
  6
CONTINUOUS
 10
-73.5394687519
 20
26.849999496
 40
0.3
100
AcDbArc
 50
62.0510370175
 51
89.9000000064
  0
SPLINE
  5
44E
100
AcDbEntity
  8
CURVE
100
AcDbSpline
 62
250
  6
CONTINUOUS
 70
0
 71
3
 72
9
 73
5
 74
0
 42
0.0000001
 43
0.0000001
 44
0.0000000001
 40
0.0
 40
0.0
 40
0.0
 40
0.0
 40
0.5206208722
 40
1.0
 40
1.0
 40
1.0
 40
1.0
 10
44.885390512
 20
-29.4226356449
 30
0.0
 10
44.8891619261
 20
-29.4209681689
 30
0.0
 10
44.8974005432
 20
-29.4973108459
 30
0.0
 10
44.8988699409
 20
-29.728472706
 30
0.0
 10
44.8989474951
 20
-29.8279642095
 30
0.0
  0
SPLINE
  5
44F
100
AcDbEntity
  8
CURVE
100
AcDbSpline
 62
250
  6
CONTINUOUS
 70
0
 71
3
 72
9
 73
5
 74
0
 42
0.0000001
 43
0.0000001
 44
0.0000000001
 40
0.0
 40
0.0
 40
0.0
 40
0.0
 40
0.5013510385
 40
1.0
 40
1.0
 40
1.0
 40
1.0
 10
44.8744850009
 20
-29.7173859732
 30
0.0
 10
44.874794863
 20
-29.6409112471
 30
0.0
 10
44.8771452432
 20
-29.4862321801
 30
0.0
 10
44.8827184632
 20
-29.423833145
 30
0.0
 10
44.885390512
 20
-29.4226356449
 30
0.0
  0
SPLINE
  5
450
100
AcDbEntity
  8
CURVE
100
AcDbSpline
 62
250
  6
CONTINUOUS
 70
0
 71
3
 72
9
 73
5
 74
0
 42
0.0000001
 43
0.0000001
 44
0.0000000001
 40
0.0
 40
0.0
 40
0.0
 40
0.0
 40
0.2957417834
 40
1.0
 40
1.0
 40
1.0
 40
1.0
 10
44.8620741759
 20
-29.3408501143
 30
0.0
 10
44.8605585951
 20
-29.4610542637
 30
0.0
 10
44.8580881081
 20
-29.8931154132
 30
0.0
 10
44.8596096759
 20
-30.3274429247
 30
0.0
 10
44.8611556794
 20
-30.6285551388
 30
0.0
  0
SPLINE
  5
451
100
AcDbEntity
  8
CURVE
100
AcDbSpline
 62
250
  6
CONTINUOUS
 70
0
 71
3
 72
17
 73
13
 74
0
 42
0.0000001
 43
0.0000001
 44
0.0000000001
 40
0.0
 40
0.0
 40
0.0
 40
0.0
 40
0.0559780952
 40
0.1687540387
 40
0.321006234
 40
0.4122750837
 40
0.516613223
 40
0.6013931059
 40
0.6776022439
 40
0.8103422694
 40
0.9200404832
 40
1.0
 40
1.0
 40
1.0
 40
1.0
 10
44.9061378054
 20
-29.2870512436
 30
0.0
 10
44.9060080221
 20
-29.2582307418
 30
0.0
 10
44.9039944413
 20
-29.184972753
 30
0.0
 10
44.9001559947
 20
-29.0634829078
 30
0.0
 10
44.894247302
 20
-28.9740276278
 30
0.0
 10
44.8880831982
 20
-28.9341773505
 30
0.0
 10
44.8829671207
 20
-28.9304334968
 30
0.0
 10
44.8781887457
 20
-28.9501640226
 30
0.0
 10
44.8731113496
 20
-28.9979840427
 30
0.0
 10
44.8681353908
 20
-29.0877998266
 30
0.0
 10
44.8642440602
 20
-29.2146127248
 30
0.0
 10
44.862565765
 20
-29.301804483
 30
0.0
 10
44.8620741759
 20
-29.3408501143
 30
0.0
  0
SPLINE
  5
452
100
AcDbEntity
  8
CURVE
100
AcDbSpline
 62
250
  6
CONTINUOUS
 70
0
 71
3
 72
9
 73
5
 74
0
 42
0.0000001
 43
0.0000001
 44
0.0000000001
 40
0.0
 40
0.0
 40
0.0
 40
0.0
 40
0.2426586216
 40
1.0
 40
1.0
 40
1.0
 40
1.0
 10
44.9237639114
 20
-28.9862836897
 30
0.0
 10
44.9221786227
 20
-28.9986586641
 30
0.0
 10
44.9157768408
 20
-29.0459291565
 30
0.0
 10
44.9085526835
 20
-29.1505648409
 30
0.0
 10
44.9066533149
 20
-29.2870512436
 30
0.0
  0
LINE
  5
453
100
AcDbEntity
  8
CURVE
100
AcDbLine
 62
250
  6
CONTINUOUS
 10
44.9473759458
 20
-28.8079038802
 11
44.9237639114
 21
-28.9862836897
  0
SPLINE
  5
454
100
AcDbEntity
  8
CURVE
100
AcDbSpline
 62
250
  6
CONTINUOUS
 70
0
 71
3
 72
9
 73
5
 74
0
 42
0.0000001
 43
0.0000001
 44
0.0000000001
 40
0.0
 40
0.0
 40
0.0
 40
0.0
 40
0.5586214172
 40
1.0
 40
1.0
 40
1.0
 40
1.0
 10
44.9209220674
 20
-29.5379751749
 30
0.0
 10
44.9257378197
 20
-29.486134558
 30
0.0
 10
44.9346552336
 20
-29.4179595379
 30
0.0
 10
44.9434695024
 20
-29.3419894791
 30
0.0
 10
44.9473759458
 20
-29.3098079785
 30
0.0
  0
SPLINE
  5
455
100
AcDbEntity
  8
CURVE
100
AcDbSpline
 62
250
  6
CONTINUOUS
 70
0
 71
3
 72
9
 73
5
 74
0
 42
0.0000001
 43
0.0000001
 44
0.0000000001
 40
0.0
 40
0.0
 40
0.0
 40
0.0
 40
0.3559141631
 40
1.0
 40
1.0
 40
1.0
 40
1.0
 10
44.9132352194
 20
-29.8290889245
 30
0.0
 10
44.9132352194
 20
-29.7836184402
 30
0.0
 10
44.9141961358
 20
-29.6528120506
 30
0.0
 10
44.9182334149
 20
-29.5668873007
 30
0.0
 10
44.9209220674
 20
-29.5379751749
 30
0.0
  0
SPLINE
  5
456
100
AcDbEntity
  8
CURVE
100
AcDbSpline
 62
250
  6
CONTINUOUS
 70
0
 71
3
 72
9
 73
5
 74
0
 42
0.0000001
 43
0.0000001
 44
0.0000000001
 40
0.0
 40
0.0
 40
0.0
 40
0.0
 40
0.5206208722
 40
1.0
 40
1.0
 40
1.0
 40
1.0
 10
-78.3467684026
 20
-29.4226356449
 30
0.0
 10
-78.238769233
 20
-29.4209681689
 30
0.0
 10
-78.0028461094
 20
-29.4973108459
 30
0.0
 10
-77.9607680635
 20
-29.728472706
 30
0.0
 10
-77.958547202
 20
-29.8279642095
 30
0.0
  0
SPLINE
  5
457
100
AcDbEntity
  8
CURVE
100
AcDbSpline
 62
250
  6
CONTINUOUS
 70
0
 71
3
 72
9
 73
5
 74
0
 42
0.0000001
 43
0.0000001
 44
0.0000000001
 40
0.0
 40
0.0
 40
0.0
 40
0.0
 40
0.5013510385
 40
1.0
 40
1.0
 40
1.0
 40
1.0
 10
-78.6590613821
 20
-29.7173859732
 30
0.0
 10
-78.6501880924
 20
-29.6409112471
 30
0.0
 10
-78.5828820103
 20
-29.4862321801
 30
0.0
 10
-78.42328587
 20
-29.423833145
 30
0.0
 10
-78.3467684026
 20
-29.4226356449
 30
0.0
  0
SPLINE
  5
458
100
AcDbEntity
  8
CURVE
100
AcDbSpline
 62
250
  6
CONTINUOUS
 70
0
 71
3
 72
9
 73
5
 74
0
 42
0.0000001
 43
0.0000001
 44
0.0000000001
 40
0.0
 40
0.0
 40
0.0
 40
0.0
 40
0.2703953699
 40
1.0
 40
1.0
 40
1.0
 40
1.0
 10
-78.644355324
 20
-30.126163664
 30
0.0
 10
-78.6505658557
 20
-30.0897447717
 30
0.0
 10
-78.6709917997
 20
-29.9546358143
 30
0.0
 10
-78.6705483756
 20
-29.8164101388
 30
0.0
 10
-78.6590613821
 20
-29.7173859732
 30
0.0
  0
SPLINE
  5
459
100
AcDbEntity
  8
CURVE
100
AcDbSpline
 62
250
  6
CONTINUOUS
 70
0
 71
3
 72
9
 73
5
 74
0
 42
0.0000001
 43
0.0000001
 44
0.0000000001
 40
0.0
 40
0.0
 40
0.0
 40
0.0
 40
0.2957417834
 40
1.0
 40
1.0
 40
1.0
 40
1.0
 10
-79.014460909
 20
-29.3408501143
 30
0.0
 10
-79.0578614647
 20
-29.4610542637
 30
0.0
 10
-79.1286069572
 20
-29.8931154132
 30
0.0
 10
-79.0850349576
 20
-30.3274429247
 30
0.0
 10
-79.0407632091
 20
-30.6285551388
 30
0.0
  0
SPLINE
  5
45A
100
AcDbEntity
  8
CURVE
100
AcDbSpline
 62
250
  6
CONTINUOUS
 70
0
 71
3
 72
17
 73
13
 74
0
 42
0.0000001
 43
0.0000001
 44
0.0000000001
 40
0.0
 40
0.0
 40
0.0
 40
0.0
 40
0.0559780952
 40
0.1687540387
 40
0.321006234
 40
0.4122750837
 40
0.516613223
 40
0.6013931059
 40
0.6776022439
 40
0.8103422694
 40
0.9200404832
 40
1.0
 40
1.0
 40
1.0
 40
1.0
 10
-77.7526436545
 20
-29.2870512436
 30
0.0
 10
-77.7563601636
 20
-29.2582307418
 30
0.0
 10
-77.8140215718
 20
-29.184972753
 30
0.0
 10
-77.9239403018
 20
-29.0634829078
 30
0.0
 10
-78.093143121
 20
-28.9740276278
 30
0.0
 10
-78.2696599603
 20
-28.9341773505
 30
0.0
 10
-78.4161652522
 20
-28.9304334968
 30
0.0
 10
-78.5530000064
 20
-28.9501640226
 30
0.0
 10
-78.6983976073
 20
-28.9979840427
 30
0.0
 10
-78.8408904258
 20
-29.0877998266
 30
0.0
 10
-78.9523235531
 20
-29.2146127248
 30
0.0
 10
-79.0003836403
 20
-29.301804483
 30
0.0
 10
-79.014460909
 20
-29.3408501143
 30
0.0
  0
SPLINE
  5
45B
100
AcDbEntity
  8
CURVE
100
AcDbSpline
 62
250
  6
CONTINUOUS
 70
0
 71
3
 72
9
 73
5
 74
0
 42
0.0000001
 43
0.0000001
 44
0.0000000001
 40
0.0
 40
0.0
 40
0.0
 40
0.0
 40
0.2426586216
 40
1.0
 40
1.0
 40
1.0
 40
1.0
 10
-77.2478980189
 20
-28.9862836897
 30
0.0
 10
-77.2932947468
 20
-28.9986586641
 30
0.0
 10
-77.4766177971
 20
-29.0459291565
 30
0.0
 10
-77.6834905954
 20
-29.1505648409
 30
0.0
 10
-77.7378813949
 20
-29.2870512436
 30
0.0
  0
SPLINE
  5
45C
100
AcDbEntity
  8
CURVE
100
AcDbSpline
 62
250
  6
CONTINUOUS
 70
0
 71
3
 72
9
 73
5
 74
0
 42
0.0000001
 43
0.0000001
 44
0.0000000001
 40
0.0
 40
0.0
 40
0.0
 40
0.0
 40
0.1980141723
 40
1.0
 40
1.0
 40
1.0
 40
1.0
 10
-76.5717378204
 20
-28.8079038802
 30
0.0
 10
-76.6162791359
 20
-28.8200085492
 30
0.0
 10
-76.8417247799
 20
-28.8792554798
 30
0.0
 10
-77.0675380174
 20
-28.9371156095
 30
0.0
 10
-77.2478980189
 20
-28.9862836897
 30
0.0
  0
SPLINE
  5
45D
100
AcDbEntity
  8
CURVE
100
AcDbSpline
 62
250
  6
CONTINUOUS
 70
0
 71
3
 72
9
 73
5
 74
0
 42
0.0000001
 43
0.0000001
 44
0.0000000001
 40
0.0
 40
0.0
 40
0.0
 40
0.0
 40
0.5586214172
 40
1.0
 40
1.0
 40
1.0
 40
1.0
 10
-77.3292777851
 20
-29.5379751749
 30
0.0
 10
-77.1913726818
 20
-29.486134558
 30
0.0
 10
-76.9360113573
 20
-29.4179595379
 30
0.0
 10
-76.683603724
 20
-29.3419894791
 30
0.0
 10
-76.5717378204
 20
-29.3098079785
 30
0.0
  0
SPLINE
  5
45E
100
AcDbEntity
  8
CURVE
100
AcDbSpline
 62
250
  6
CONTINUOUS
 70
0
 71
3
 72
9
 73
5
 74
0
 42
0.0000001
 43
0.0000001
 44
0.0000000001
 40
0.0
 40
0.0
 40
0.0
 40
0.0
 40
0.3559141631
 40
1.0
 40
1.0
 40
1.0
 40
1.0
 10
-77.5494003111
 20
-29.8290889245
 30
0.0
 10
-77.5494003111
 20
-29.7836184402
 30
0.0
 10
-77.5218832632
 20
-29.6528120506
 30
0.0
 10
-77.4062707175
 20
-29.5668873007
 30
0.0
 10
-77.3292777851
 20
-29.5379751749
 30
0.0
  0
SPLINE
  5
45F
100
AcDbEntity
  8
0
100
AcDbSpline
 62
7
  6
CONTINUOUS
 70
0
 71
3
 72
12
 73
8
 74
0
 42
0.0000001
 43
0.0000001
 44
0.0000000001
 40
0.0
 40
0.0
 40
0.0
 40
0.0
 40
0.3323810919
 40
0.6132720133
 40
0.729370166
 40
0.8302823194
 40
1.0
 40
1.0
 40
1.0
 40
1.0
 10
-71.6543148855
 20
-25.8162238239
 30
0.0
 10
-71.6283204849
 20
-25.8164533198
 30
0.0
 10
-71.5802549275
 20
-25.8219084844
 30
0.0
 10
-71.5258539433
 20
-25.8417429
 30
0.0
 10
-71.493782473
 20
-25.8642955324
 30
0.0
 10
-71.4729463015
 20
-25.8863427207
 30
0.0
 10
-71.4647820767
 20
-25.9076891645
 30
0.0
 10
-71.4647820767
 20
-25.9209627273
 30
0.0
  0
LINE
  5
460
100
AcDbEntity
  8
0
100
AcDbLine
 62
7
  6
CONTINUOUS
 10
-74.4647820537
 20
-25.8344712818
 11
-73.4629021569
 21
-25.8000830551
  0
SPLINE
  5
461
100
AcDbEntity
  8
0
100
AcDbSpline
 62
250
  6
CONTINUOUS
 70
0
 71
3
 72
10
 73
6
 74
0
 42
0.0000001
 43
0.0000001
 44
0.0000000001
 40
0.0
 40
0.0
 40
0.0
 40
0.0
 40
0.2229831124
 40
0.4717436652
 40
1.0
 40
1.0
 40
1.0
 40
1.0
 10
-72.2678666874
 20
-26.4697941135
 30
0.0
 10
-72.2780990904
 20
-26.4752608227
 30
0.0
 10
-72.3014736515
 20
-26.4833957243
 30
0.0
 10
-72.3520473605
 20
-26.4954746949
 30
0.0
 10
-72.3922337571
 20
-26.5009408247
 30
0.0
 10
-72.4195840251
 20
-26.5036451457
 30
0.0
  0
LINE
  5
462
100
AcDbEntity
  8
0
100
AcDbLine
 62
250
  6
CONTINUOUS
 10
-72.5048891609
 20
-26.5086074481
 11
-74.4647820764
 21
-26.5438008307
  0
SPLINE
  5
463
100
AcDbEntity
  8
0
100
AcDbSpline
 62
250
  6
CONTINUOUS
 70
0
 71
3
 72
10
 73
6
 74
0
 42
0.0000001
 43
0.0000001
 44
0.0000000001
 40
0.0
 40
0.0
 40
0.0
 40
0.0
 40
0.5303870515
 40
0.7783694843
 40
1.0
 40
1.0
 40
1.0
 40
1.0
 10
-72.4891390313
 20
26.5459023784
 30
0.0
 10
-72.4655130862
 20
26.5434798744
 30
0.0
 10
-72.4308815773
 20
26.53866405
 30
0.0
 10
-72.3873976151
 20
26.5280341633
 30
0.0
 10
-72.3674473679
 20
26.5208866257
 30
0.0
 10
-72.3586943796
 20
26.5162094923
 30
0.0
  0
SPLINE
  5
464
100
AcDbEntity
  8
0
100
AcDbSpline
 62
250
  6
CONTINUOUS
 70
0
 71
3
 72
9
 73
5
 74
0
 42
0.0000001
 43
0.0000001
 44
0.0000000001
 40
0.0
 40
0.0
 40
0.0
 40
0.0
 40
0.4758739135
 40
1.0
 40
1.0
 40
1.0
 40
1.0
 10
-72.177585669
 20
-26.4667331963
 30
0.0
 10
-72.1905269869
 20
-26.4736026782
 30
0.0
 10
-72.221644453
 20
-26.481289816
 30
0.0
 10
-72.2526726799
 20
-26.4752301011
 30
0.0
 10
-72.2678666874
 20
-26.4697941135
 30
0.0
  0
LINE
  5
465
100
AcDbEntity
  8
0
100
AcDbLine
 62
250
  6
CONTINUOUS
 10
-72.5047917043
 20
-26.5286232592
 11
-72.5048891609
 21
-26.5086074481
  0
LINE
  5
466
100
AcDbEntity
  8
0
100
AcDbLine
 62
250
  6
CONTINUOUS
 10
-72.5878380922
 20
26.5709159928
 11
-72.5879937835
 21
26.5509203682
  0
SPLINE
  5
467
100
AcDbEntity
  8
0
100
AcDbSpline
 62
250
  6
CONTINUOUS
 70
0
 71
3
 72
9
 73
5
 74
0
 42
0.0000001
 43
0.0000001
 44
0.0000000001
 40
0.0
 40
0.0
 40
0.0
 40
0.0
 40
0.4766868604
 40
1.0
 40
1.0
 40
1.0
 40
1.0
 10
-72.2649228789
 20
26.5130933445
 30
0.0
 10
-72.2783896789
 20
26.5202417621
 30
0.0
 10
-72.3107155358
 20
26.5282395694
 30
0.0
 10
-72.3429551751
 20
26.5219042505
 30
0.0
 10
-72.3586943796
 20
26.5162094923
 30
0.0
  0
SPLINE
  5
468
100
AcDbEntity
  8
0
100
AcDbSpline
 62
250
  6
CONTINUOUS
 70
0
 71
3
 72
13
 73
9
 74
0
 42
0.0000001
 43
0.0000001
 44
0.0000000001
 40
0.0
 40
0.0
 40
0.0
 40
0.0
 40
0.3880873768
 40
0.7025988063
 40
0.8214552708
 40
0.9105861323
 40
0.9687926632
 40
1.0
 40
1.0
 40
1.0
 40
1.0
 10
-73.539009493
 20
26.9276792439
 30
0.0
 10
-73.523811588
 20
26.954388973
 30
0.0
 10
-73.4952970666
 20
27.0021522321
 30
0.0
 10
-73.4590787208
 20
27.0563451373
 30
0.0
 10
-73.4337940542
 20
27.0889874445
 30
0.0
 10
-73.419160852
 20
27.1045153454
 30
0.0
 10
-73.4089756937
 20
27.1136634531
 30
0.0
 10
-73.401056445
 20
27.1161783954
 30
0.0
 10
-73.3988758431
 20
27.1150157961
 30
0.0
  0
SPLINE
  5
469
100
AcDbEntity
  8
0
100
AcDbSpline
 62
250
  6
CONTINUOUS
 70
0
 71
3
 72
9
 73
5
 74
0
 42
0.0000001
 43
0.0000001
 44
0.0000000001
 40
0.0
 40
0.0
 40
0.0
 40
0.0
 40
0.559051935
 40
1.0
 40
1.0
 40
1.0
 40
1.0
 10
-73.539009493
 20
-26.9276792439
 30
0.0
 10
-73.5228418182
 20
-26.956105941
 30
0.0
 10
-73.4927936306
 20
-27.0063036816
 30
0.0
 10
-73.4600674992
 20
-27.0548979666
 30
0.0
 10
-73.4443007994
 20
-27.0753122965
 30
0.0
  0
SPLINE
  5
46A
100
AcDbEntity
  8
0
100
AcDbSpline
 62
250
  6
CONTINUOUS
 70
0
 71
3
 72
10
 73
6
 74
0
 42
0.0000001
 43
0.0000001
 44
0.0000000001
 40
0.0
 40
0.0
 40
0.0
 40
0.0
 40
0.6950890107
 40
0.8909699854
 40
1.0
 40
1.0
 40
1.0
 40
1.0
 10
-73.4443007994
 20
-27.0753122965
 30
0.0
 10
-73.4355092373
 20
-27.0866953919
 30
0.0
 10
-73.4234346477
 20
-27.1011552054
 30
0.0
 10
-73.4079323483
 20
-27.1142214567
 30
0.0
 10
-73.4008706915
 20
-27.1160695448
 30
0.0
 10
-73.3988758431
 20
-27.1150157961
 30
0.0
  0
SPLINE
  5
46B
100
AcDbEntity
  8
0
100
AcDbSpline
 62
7
  6
CONTINUOUS
 70
0
 71
3
 72
11
 73
7
 74
0
 42
0.0000001
 43
0.0000001
 44
0.0000000001
 40
0.0
 40
0.0
 40
0.0
 40
0.0
 40
0.1766628077
 40
0.3933835141
 40
0.6689569267
 40
1.0
 40
1.0
 40
1.0
 40
1.0
 10
-71.4647820767
 20
25.9903260329
 30
0.0
 10
-71.4647820767
 20
25.9785870345
 30
0.0
 10
-71.4735982298
 20
25.95230288
 30
0.0
 10
-71.5067354777
 20
25.9210987513
 30
0.0
 10
-71.5564013907
 20
25.896888045
 30
0.0
 10
-71.5960628712
 20
25.8878685511
 30
0.0
 10
-71.6178713452
 20
25.8849920949
 30
0.0
  0
ELLIPSE
  5
46C
100
AcDbEntity
  8
0
100
AcDbEllipse
 62
7
  6
CONTINUOUS
 10
21.6840099882
 20
0.0
 30
0.0
 11
530.7034459343
 21
-0.0
 31
0.0
 40
0.0494155445
 41
-1.7510554651
 42
-1.7475925186
  0
ELLIPSE
  5
46D
100
AcDbEntity
  8
0
100
AcDbEllipse
 62
7
  6
CONTINUOUS
 10
4794.2655412121
 20
0.0
 30
0.0
 11
5070.6192780382
 21
-20.8600030618
 31
0.0
 40
0.0041137573
 41
2.856472503
 42
2.8584753448
  0
ELLIPSE
  5
46E
100
AcDbEntity
  8
0
100
AcDbEllipse
 62
7
  6
CONTINUOUS
 10
-71.6647820767
 20
26.079798695
 30
0.0
 11
-0.1417119467
 21
0.1422961243
 31
0.0
 40
0.9918061237
 41
-3.8766878413
 42
-3.6922883273
  0
ENDSEC
  0
SECTION
  2
OBJECTS
  0
DICTIONARY
  5
C
100
AcDbDictionary
280
0
281
1
  3
ACAD_GROUP
350
D
  3
ACAD_MLINESTYLE
350
17
  3
ACAD_LAYOUT
350
1A
  3
ACAD_PLOTSETTINGS
350
19
  3
ACAD_PLOTSTYLENAME
350
E
  0
DICTIONARY
  5
D
102
{ACAD_REACTORS
330
C
102
}
100
AcDbDictionary
280
0
281
1
  0
ACDBDICTIONARYWDFLT
  5
E
102
{ACAD_REACTORS
330
C
102
}
100
AcDbDictionary
281
1
  3
Normal
350
F
100
AcDbDictionaryWithDefault
340
F
  0
DICTIONARY
  5
17
102
{ACAD_REACTORS
330
C
102
}
100
AcDbDictionary
280
0
281
1
  3
Standard
350
18
  0
DICTIONARY
  5
19
102
{ACAD_REACTORS
330
C
102
}
100
AcDbDictionary
281
1
  0
DICTIONARY
  5
1A
102
{ACAD_REACTORS
330
C
102
}
100
AcDbDictionary
281
1
  3
Model
350
46F
  3
Layout1
350
470
  0
ACDBPLACEHOLDER
  5
F
102
{ACAD_REACTORS
330
E
102
}
  0
MLINESTYLE
  5
18
102
{ACAD_REACTORS
330
17
102
}
100
AcDbMlineStyle
  2
STANDARD
 70
0
  3

 62
256
 51
90.0
 52
90.0
 71
2
 49
0.5
 62
256
  6
BYLAYER
 49
-0.5
 62
256
  6
BYLAYER
  0
LAYOUT
  5
46F
102
{ACAD_REACTORS
330
1A
102
}
100
AcDbPlotSettings
  1

  2
none_device
  4
ISO_A4_(297.00_x_210.00_MM)
  6

 40
0.0
 41
0.0
 42
0.0
 43
0.0
 44
297.0
 45
210.0
 46
0.0
 47
0.0
 48
0.0
 49
0.0
140
0.0
141
0.0
142
1.0
143
1.0
 70
1024
 72
1
 73
0
 74
0
  7

 75
0
147
1.0
148
0.0
149
0.0
100
AcDbLayout
  1
Model
 70
0
 71
0
 10
0.0
 20
0.0
 11
297.0
 21
210.0
 12
0.0
 22
0.0
 32
0.0
 14
0.0
 24
0.0
 34
0.0
 15
0.0
 25
0.0
 35
0.0
146
0.0
 13
0.0
 23
0.0
 33
0.0
 16
1.0
 26
0.0
 36
0.0
 17
0.0
 27
1.0
 37
0.0
 76
0
330
21E
345
0
346
0
  0
LAYOUT
  5
470
102
{ACAD_REACTORS
330
1A
102
}
100
AcDbPlotSettings
  1

  2
none_device
  4
ISO_A4_(297.00_x_210.00_MM)
  6

 40
0.0
 41
0.0
 42
0.0
 43
0.0
 44
297.0
 45
210.0
 46
0.0
 47
0.0
 48
0.0
 49
0.0
140
0.0
141
0.0
142
1.0
143
1.0
 70
0
 72
1
 73
0
 74
0
  7

 75
0
147
1.0
148
0.0
149
0.0
100
AcDbLayout
  1
Layout1
 70
0
 71
1
 10
0.0
 20
0.0
 11
297.0
 21
210.0
 12
0.0
 22
0.0
 32
0.0
 14
0.0
 24
0.0
 34
0.0
 15
0.0
 25
0.0
 35
0.0
146
0.0
 13
0.0
 23
0.0
 33
0.0
 16
1.0
 26
0.0
 36
0.0
 17
0.0
 27
1.0
 37
0.0
 76
0
330
21F
345
0
346
0
  0
ENDSEC
  0
EOF
