  0
SECTION
  2
HEADER
  9
$ACADVER
  1
AC1024
  9
$DWGCODEPAGE
  3
ANSI_1252
  9
$EXTMAX
 10
297.0
 20
210.0
 30
0.0
  9
$EXTMIN
 10
0.0
 20
0.0
 30
0.0
  9
$LIMMIN
 10
0.0
 20
0.0
  9
$LIMMAX
 10
297.0
 20
210.0
  9
$VIEWCTR
 10
148.5
 20
105.0
  9
$VIEWSIZE
 40
210.0
  9
$CLAYER
  8
0
  9
$LTSCALE
 40
16.335
  9
$CELTYPE
  6
BYLAYER
  9
$DIMSCALE
 40
1.0
  9
$DIMASZ
 40
3.0
  9
$DIMEXO
 40
0.5
  9
$DIMDLI
 40
11.286
  9
$DIMEXE
 40
1.5
  9
$DIMCEN
 40
2.673
  9
$DIMLFAC
 40
1.0
  9
$DIMBLK
  1
_FILLED
  9
$DIMALT
 70
0
  9
$DIMALTF
 40
0.0393700787
  9
$DIMTXT
 40
3.0
  9
$DIMTOL
 70
1
  9
$DIMLIM
 70
0
  9
$DIMTFAC
 40
1.0
  9
$DIMTP
 40
0.01
  9
$DIMTM
 40
0.01
  9
$DIMGAP
 40
0.625
  9
$DIMDSEP
 70
44
  9
$AUNITS
 70
0
  9
$PDMODE
 70
3
  9
$PDSIZE
 40
3.0
  9
$HANDSEED
  5
2EB
  9
$TILEMODE
 70
1
  9
$MEASUREMENT
 70
1
  9
$INSUNITS
 70
4
  0
ENDSEC
  0
SECTION
  2
CLASSES
  0
CLASS
  1
ACDBDICTIONARYWDFLT
  2
AcDbDictionaryWithDefault
  3
AutoCAD 2000
 90
0
 91
1
280
0
281
0
  0
CLASS
  1
ACDBPLACEHOLDER
  2
AcDbPlaceHolder
  3
AutoCAD 2000
 90
0
 91
1
280
0
281
0
  0
CLASS
  1
LAYOUT
  2
AcDbLayout
  3
AutoCAD 2000
 90
0
 91
0
280
0
281
0
  0
ENDSEC
  0
SECTION
  2
TABLES
  0
TABLE
  2
VPORT
  5
8
100
AcDbSymbolTable
 70
2
  0
VPORT
  5
1F4
100
AcDbSymbolTableRecord
100
AcDbViewportTableRecord
  2
*ACTIVE
 70
0
 10
0.0
 20
0.0
 11
1.0
 21
1.0
 12
148.5
 22
105.0
 13
0.0
 23
0.0
 14
1.0
 24
1.0
 15
0.0
 25
0.0
 16
0.0
 26
0.0
 36
1.0
 17
0.0
 27
0.0
 37
0.0
 40
210.0
 41
1.4142857143
 42
50.0
 43
0.0
 44
0.0
 50
0.0
 51
0.0
 71
0
 72
100
 73
1
 74
1
 75
0
 76
0
 77
0
 78
0
  0
ENDTAB
  0
TABLE
  2
LTYPE
  5
5
100
AcDbSymbolTable
 70
6
  0
LTYPE
  5
14
100
AcDbSymbolTableRecord
100
AcDbLinetypeTableRecord
  2
BYBLOCK
 70
0
  3

 72
65
 73
0
 40
0.0
  0
LTYPE
  5
15
100
AcDbSymbolTableRecord
100
AcDbLinetypeTableRecord
  2
BYLAYER
 70
0
  3

 72
65
 73
0
 40
0.0
  0
LTYPE
  5
16
100
AcDbSymbolTableRecord
100
AcDbLinetypeTableRecord
  2
CONTINUOUS
 70
64
  3
Solid line
 72
65
 73
0
 40
0.0
  0
LTYPE
  5
1F5
100
AcDbSymbolTableRecord
100
AcDbLinetypeTableRecord
  2
CENTER
 70
64
  3
____ _ ____ _ ____ _ ____ _ ____ _ ____ _ ____
 72
65
 73
4
 40
0.6
 49
0.375
 74
0
 49
-0.075
 74
0
 49
0.075
 74
0
 49
-0.075
 74
0
  0
LTYPE
  5
1F6
100
AcDbSymbolTableRecord
100
AcDbLinetypeTableRecord
  2
HIDDEN
 70
64
  3
- - - - - - - - - - - - - - - - - - - -
 72
65
 73
2
 40
0.2
 49
0.1
 74
0
 49
-0.1
 74
0
  0
LTYPE
  5
1F7
100
AcDbSymbolTableRecord
100
AcDbLinetypeTableRecord
  2
PHANTOM
 70
64
  3
_____ _ _ _____ _ _ _____ _ _ _____
 72
65
 73
6
 40
0.8
 49
0.45
 74
0
 49
-0.05
 74
0
 49
0.1
 74
0
 49
-0.05
 74
0
 49
0.1
 74
0
 49
-0.05
 74
0
  0
LTYPE
  5
1F8
100
AcDbSymbolTableRecord
100
AcDbLinetypeTableRecord
  2
DOT
 70
64
  3
. . . . . . . . . . . . . . . . . . . .
 72
65
 73
2
 40
0.2
 49
0.1
 74
0
 49
-0.1
 74
0
  0
LTYPE
  5
1F9
100
AcDbSymbolTableRecord
100
AcDbLinetypeTableRecord
  2
DASHED
 70
64
  3
- - - - - - - - - - - - - - - - - - - -
 72
65
 73
2
 40
0.2
 49
0.1
 74
0
 49
-0.1
 74
0
  0
ENDTAB
  0
TABLE
  2
LAYER
  5
2
100
AcDbSymbolTable
 70
36
  0
LAYER
  5
10
100
AcDbSymbolTableRecord
100
AcDbLayerTableRecord
  2
0
 70
0
 62
7
  6
CONTINUOUS
370
-3
390
F
  0
LAYER
  5
1FA
100
AcDbSymbolTableRecord
100
AcDbLayerTableRecord
  2
DEFAULT_1
 70
0
 62
7
  6
CENTER
370
-3
390
F
  0
LAYER
  5
1FB
100
AcDbSymbolTableRecord
100
AcDbLayerTableRecord
  2
DEFAULT_2
 70
0
 62
7
  6
HIDDEN
370
-3
390
F
  0
LAYER
  5
1FC
100
AcDbSymbolTableRecord
100
AcDbLayerTableRecord
  2
DEFAULT_3
 70
0
 62
7
  6
PHANTOM
370
-3
390
F
  0
LAYER
  5
1FD
100
AcDbSymbolTableRecord
100
AcDbLayerTableRecord
  2
ASSI
 70
0
 62
7
  6
CONTINUOUS
370
-3
390
F
  0
LAYER
  5
1FE
100
AcDbSymbolTableRecord
100
AcDbLayerTableRecord
  2
COORDINATE
 70
0
 62
7
  6
CONTINUOUS
370
-3
390
F
  0
LAYER
  5
1FF
100
AcDbSymbolTableRecord
100
AcDbLayerTableRecord
  2
COORD_ORIGINE
 70
0
 62
7
  6
CONTINUOUS
370
-3
390
F
  0
LAYER
  5
200
100
AcDbSymbolTableRecord
100
AcDbLayerTableRecord
  2
COPY_PUBLISH
 70
0
 62
7
  6
CONTINUOUS
370
-3
390
F
  0
LAYER
  5
201
100
AcDbSymbolTableRecord
100
AcDbLayerTableRecord
  2
COSMETIC
 70
0
 62
7
  6
CONTINUOUS
370
-3
390
F
  0
LAYER
  5
202
100
AcDbSymbolTableRecord
100
AcDbLayerTableRecord
  2
COSMETICI
 70
0
 62
7
  6
CONTINUOUS
370
-3
390
F
  0
LAYER
  5
203
100
AcDbSymbolTableRecord
100
AcDbLayerTableRecord
  2
CURVE
 70
0
 62
7
  6
CONTINUOUS
370
-3
390
F
  0
LAYER
  5
204
100
AcDbSymbolTableRecord
100
AcDbLayerTableRecord
  2
CURVE_TASSELLI
 70
0
 62
7
  6
CONTINUOUS
370
-3
390
F
  0
LAYER
  5
205
100
AcDbSymbolTableRecord
100
AcDbLayerTableRecord
  2
DRAFT
 70
0
 62
7
  6
CONTINUOUS
370
-3
390
F
  0
LAYER
  5
206
100
AcDbSymbolTableRecord
100
AcDbLayerTableRecord
  2
IMPORT_IGES
 70
0
 62
7
  6
CONTINUOUS
370
-3
390
F
  0
LAYER
  5
207
100
AcDbSymbolTableRecord
100
AcDbLayerTableRecord
  2
INTFCLR_2
 70
0
 62
7
  6
CONTINUOUS
370
-3
390
F
  0
LAYER
  5
208
100
AcDbSymbolTableRecord
100
AcDbLayerTableRecord
  2
INTF_1
 70
0
 62
7
  6
CONTINUOUS
370
-3
390
F
  0
LAYER
  5
209
100
AcDbSymbolTableRecord
100
AcDbLayerTableRecord
  2
INTF_21
 70
0
 62
7
  6
CONTINUOUS
370
-3
390
F
  0
LAYER
  5
20A
100
AcDbSymbolTableRecord
100
AcDbLayerTableRecord
  2
INTF_7
 70
0
 62
7
  6
CONTINUOUS
370
-3
390
F
  0
LAYER
  5
20B
100
AcDbSymbolTableRecord
100
AcDbLayerTableRecord
  2
INTF_CYAN
 70
0
 62
7
  6
CONTINUOUS
370
-3
390
F
  0
LAYER
  5
20C
100
AcDbSymbolTableRecord
100
AcDbLayerTableRecord
  2
NOTE
 70
0
 62
7
  6
CONTINUOUS
370
-3
390
F
  0
LAYER
  5
20D
100
AcDbSymbolTableRecord
100
AcDbLayerTableRecord
  2
PIANI
 70
0
 62
7
  6
CONTINUOUS
370
-3
390
F
  0
LAYER
  5
20E
100
AcDbSymbolTableRecord
100
AcDbLayerTableRecord
  2
PIANI_ORIGINE
 70
0
 62
7
  6
CONTINUOUS
370
-3
390
F
  0
LAYER
  5
20F
100
AcDbSymbolTableRecord
100
AcDbLayerTableRecord
  2
PIANI_RIFERIMENTO
 70
0
 62
7
  6
CONTINUOUS
370
-3
390
F
  0
LAYER
  5
210
100
AcDbSymbolTableRecord
100
AcDbLayerTableRecord
  2
PUNTI
 70
0
 62
7
  6
CONTINUOUS
370
-3
390
F
  0
LAYER
  5
211
100
AcDbSymbolTableRecord
100
AcDbLayerTableRecord
  2
RACCORDO
 70
0
 62
7
  6
CONTINUOUS
370
-3
390
F
  0
LAYER
  5
212
100
AcDbSymbolTableRecord
100
AcDbLayerTableRecord
  2
RGB__255__255__255__
 70
0
 62
7
  6
CONTINUOUS
370
-3
390
F
  0
LAYER
  5
213
100
AcDbSymbolTableRecord
100
AcDbLayerTableRecord
  2
RGB____0____0____0__
 70
0
 62
7
  6
CONTINUOUS
370
-3
390
F
  0
LAYER
  5
214
100
AcDbSymbolTableRecord
100
AcDbLayerTableRecord
  2
SIMBOLI
 70
0
 62
7
  6
CONTINUOUS
370
-3
390
F
  0
LAYER
  5
215
100
AcDbSymbolTableRecord
100
AcDbLayerTableRecord
  2
SMUSSO
 70
0
 62
7
  6
CONTINUOUS
370
-3
390
F
  0
LAYER
  5
216
100
AcDbSymbolTableRecord
100
AcDbLayerTableRecord
  2
SUPERFICI
 70
0
 62
7
  6
CONTINUOUS
370
-3
390
F
  0
LAYER
  5
217
100
AcDbSymbolTableRecord
100
AcDbLayerTableRecord
  2
TRASH
 70
0
 62
7
  6
CONTINUOUS
370
-3
390
F
  0
LAYER
  5
218
100
AcDbSymbolTableRecord
100
AcDbLayerTableRecord
  2
XSEC_DATUMS
 70
0
 62
7
  6
CONTINUOUS
370
-3
390
F
  0
ENDTAB
  0
TABLE
  2
STYLE
  5
3
100
AcDbSymbolTable
 70
1
  0
STYLE
  5
11
100
AcDbSymbolTableRecord
100
AcDbTextStyleTableRecord
  2
STANDARD
 70
0
 40
0.0
 41
0.8
 50
0.0
 71
0
 42
0.2
  3
txt
  4

  0
STYLE
  5
219
100
AcDbSymbolTableRecord
100
AcDbTextStyleTableRecord
  2
TEXTSTYLE_1
 70
0
 40
0.0
 41
0.8
 50
0.0
 71
0
 42
0.2
  3
gdt
  4

  0
ENDTAB
  0
TABLE
  2
VIEW
  5
6
100
AcDbSymbolTable
 70
0
  0
ENDTAB
  0
TABLE
  2
UCS
  5
7
100
AcDbSymbolTable
 70
0
  0
ENDTAB
  0
TABLE
  2
APPID
  5
9
100
AcDbSymbolTable
 70
1
  0
APPID
  5
21A
100
AcDbSymbolTableRecord
100
AcDbRegAppTableRecord
  2
ACAD
 70
0
  0
ENDTAB
  0
TABLE
  2
BLOCK_RECORD
  5
1
100
AcDbSymbolTable
 70
0
  0
BLOCK_RECORD
  5
21B
100
AcDbSymbolTableRecord
100
AcDbBlockTableRecord
  2
*Model_Space
  0
BLOCK_RECORD
  5
21C
100
AcDbSymbolTableRecord
100
AcDbBlockTableRecord
  2
*Paper_Space
  0
BLOCK_RECORD
  5
21D
100
AcDbSymbolTableRecord
100
AcDbBlockTableRecord
  2
_FILLED
  0
BLOCK_RECORD
  5
21E
100
AcDbSymbolTableRecord
100
AcDbBlockTableRecord
  2
*D0
  0
BLOCK_RECORD
  5
21F
100
AcDbSymbolTableRecord
100
AcDbBlockTableRecord
  2
*D1
  0
BLOCK_RECORD
  5
220
100
AcDbSymbolTableRecord
100
AcDbBlockTableRecord
  2
*D2
  0
BLOCK_RECORD
  5
221
100
AcDbSymbolTableRecord
100
AcDbBlockTableRecord
  2
*D3
  0
ENDTAB
  0
TABLE
  2
DIMSTYLE
  5
A
100
AcDbSymbolTable
 70
1
100
AcDbDimStyleTable
 71
0
  0
DIMSTYLE
105
222
100
AcDbSymbolTableRecord
100
AcDbDimStyleTableRecord
  2
STANDARD
 70
0
  3

  4

 40
1.0
 41
3.0
 42
0.5
 43
0.38
 44
1.5
 45
0.0
 46
0.0
 47
0.01
 48
0.01
140
3.0
141
0.09
142
0.0
143
25.4
144
1.0
145
0.0
146
1.0
147
0.625
 71
1.0
 72
0.0
 73
0
 74
0
 75
0
 76
0
 77
1
 78
8
 79
2
170
0
171
1
172
0
173
0
174
0
175
0
176
0
177
0
178
0
270
2
179
2
271
2
272
2
273
2
274
2
275
0
280
0
281
0
282
0
283
1
284
8
285
0
286
0
287
3
288
0
340
11
278
44
341
21D
342
21D
343
21D
344
21D
  0
DIMSTYLE
105
223
100
AcDbSymbolTableRecord
100
AcDbDimStyleTableRecord
  2
DIMSTYLE_1
 70
0
  3

  4

 40
1.0
 41
3.0
 42
0.5
 43
0.38
 44
1.5
 45
0.0
 46
0.0
 47
0.0
 48
0.0
140
3.0
141
0.09
142
0.0
143
25.4
144
1.0
145
0.0
146
1.0
147
0.75
 71
0.0
 72
0.0
 73
0
 74
0
 75
0
 76
0
 77
1
 78
8
 79
2
170
0
171
1
172
0
173
0
174
0
175
0
176
0
177
0
178
0
270
2
179
2
271
2
272
2
273
2
274
2
275
0
280
0
281
0
282
0
283
1
284
8
285
0
286
0
287
3
288
0
340
11
278
44
341
21D
342
21D
343
21D
344
21D
  0
ENDTAB
  0
ENDSEC
  0
SECTION
  2
BLOCKS
  0
BLOCK
  5
20
100
AcDbEntity
  8
0
100
AcDbBlockBegin
  2
*Model_Space
 70
0
 10
0.0
 20
0.0
 30
0.0
  3
*Model_Space
  1

  0
ENDBLK
  5
21
100
AcDbEntity
  8
0
100
AcDbBlockEnd
  0
BLOCK
  5
1C
100
AcDbEntity
  8
0
100
AcDbBlockBegin
  2
*Paper_Space
 70
0
 10
0.0
 20
0.0
 30
0.0
  3
*Paper_Space
  1

  0
ENDBLK
  5
1D
100
AcDbEntity
  8
0
100
AcDbBlockEnd
  0
BLOCK
  5
224
100
AcDbEntity
  8
0
100
AcDbBlockBegin
  2
_FILLED
 70
64
 10
0.0
 20
0.0
  3
_FILLED
  1

  0
SOLID
  5
225
100
AcDbEntity
  8
0
  6
BYBLOCK
 62
0
100
AcDbTrace
 10
0.0
 20
0.0
 11
-1.0
 21
0.3166666667
 12
-1.0
 22
-0.3166666667
 13
-1.0
 23
-0.3166666667
  0
ENDBLK
  5
226
100
AcDbEntity
  8
0
  6
BYBLOCK
 62
0
100
AcDbBlockEnd
  0
BLOCK
  5
227
100
AcDbEntity
  8
0
100
AcDbBlockBegin
 62
7
  6
CONTINUOUS
  2
*D0
 70
65
 10
0.0
 20
0.0
  3
*D0
  1

  0
LINE
  5
228
100
AcDbEntity
  8
0
100
AcDbLine
 62
7
  6
CONTINUOUS
 10
225.3979465461
 20
148.1145310005
 11
225.3979465461
 21
160.5056890681
  0
LINE
  5
229
100
AcDbEntity
  8
0
100
AcDbLine
 62
7
  6
CONTINUOUS
 10
135.3979465461
 20
148.1145310005
 11
135.3979465461
 21
160.5056890681
  0
LINE
  5
22A
100
AcDbEntity
  8
0
100
AcDbLine
 62
7
  6
CONTINUOUS
 10
225.3979465461
 20
159.0056890681
 11
180.3979465461
 21
159.0056890681
  0
LINE
  5
22B
100
AcDbEntity
  8
0
100
AcDbLine
 62
7
  6
CONTINUOUS
 10
135.3979465461
 20
159.0056890681
 11
180.3979465461
 21
159.0056890681
  0
INSERT
  5
22C
100
AcDbEntity
  8
0
100
AcDbBlockReference
 62
7
  6
CONTINUOUS
  2
_FILLED
 10
225.3979465461
 20
159.0056890681
 41
3.0
 42
3.0
 43
3.0
  0
INSERT
  5
22D
100
AcDbEntity
  8
0
100
AcDbBlockReference
 62
7
  6
CONTINUOUS
  2
_FILLED
 10
135.3979465461
 20
159.0056890681
 41
3.0
 42
3.0
 43
3.0
 50
180.0
  0
ENDBLK
  5
22E
100
AcDbEntity
  8
0
  6
BYBLOCK
 62
0
100
AcDbBlockEnd
  0
BLOCK
  5
22F
100
AcDbEntity
  8
0
100
AcDbBlockBegin
 62
7
  6
CONTINUOUS
  2
*D1
 70
65
 10
0.0
 20
0.0
  3
*D1
  1

  0
LINE
  5
230
100
AcDbEntity
  8
0
100
AcDbLine
 62
7
  6
CONTINUOUS
 10
224.8973377439
 20
148.6151398026
 11
241.5795795172
 21
148.6151398026
  0
LINE
  5
231
100
AcDbEntity
  8
0
100
AcDbLine
 62
7
  6
CONTINUOUS
 10
224.8973377439
 20
58.6151398026
 11
241.5795795172
 21
58.6151398026
  0
LINE
  5
232
100
AcDbEntity
  8
0
100
AcDbLine
 62
7
  6
CONTINUOUS
 10
240.0795795172
 20
148.6151398026
 11
240.0795795172
 21
103.6151398026
  0
LINE
  5
233
100
AcDbEntity
  8
0
100
AcDbLine
 62
7
  6
CONTINUOUS
 10
240.0795795172
 20
58.6151398026
 11
240.0795795172
 21
103.6151398026
  0
INSERT
  5
234
100
AcDbEntity
  8
0
100
AcDbBlockReference
 62
7
  6
CONTINUOUS
  2
_FILLED
 10
240.0795795172
 20
148.6151398026
 41
3.0
 42
3.0
 43
3.0
 50
90.0
  0
INSERT
  5
235
100
AcDbEntity
  8
0
100
AcDbBlockReference
 62
7
  6
CONTINUOUS
  2
_FILLED
 10
240.0795795172
 20
58.6151398026
 41
3.0
 42
3.0
 43
3.0
 50
270.0
  0
ENDBLK
  5
236
100
AcDbEntity
  8
0
  6
BYBLOCK
 62
0
100
AcDbBlockEnd
  0
BLOCK
  5
237
100
AcDbEntity
  8
0
100
AcDbBlockBegin
 62
7
  6
CONTINUOUS
  2
*D2
 70
65
 10
0.0
 20
0.0
  3
*D2
  1

  0
LINE
  5
238
100
AcDbEntity
  8
0
100
AcDbLine
 62
7
  6
CONTINUOUS
 10
93.9441097818
 20
145.3190373222
 11
93.9441097818
 21
160.9787370372
  0
LINE
  5
239
100
AcDbEntity
  8
0
100
AcDbLine
 62
7
  6
CONTINUOUS
 10
86.7941097818
 20
147.4918772128
 11
86.7941097818
 21
160.9787370372
  0
LINE
  5
23A
100
AcDbEntity
  8
0
100
AcDbLine
 62
7
  6
CONTINUOUS
 10
93.9441097818
 20
159.4787370372
 11
90.3691097818
 21
159.4787370372
  0
LINE
  5
23B
100
AcDbEntity
  8
0
100
AcDbLine
 62
7
  6
CONTINUOUS
 10
86.7941097818
 20
159.4787370372
 11
90.3691097818
 21
159.4787370372
  0
LINE
  5
23C
100
AcDbEntity
  8
0
100
AcDbLine
 62
7
  6
CONTINUOUS
 10
90.3691097818
 20
159.4787370372
 11
74.7378861076
 21
159.4787370372
  0
INSERT
  5
23D
100
AcDbEntity
  8
0
100
AcDbBlockReference
 62
7
  6
CONTINUOUS
  2
_FILLED
 10
93.9441097818
 20
159.4787370372
 41
3.0
 42
3.0
 43
3.0
  0
INSERT
  5
23E
100
AcDbEntity
  8
0
100
AcDbBlockReference
 62
7
  6
CONTINUOUS
  2
_FILLED
 10
86.7941097818
 20
159.4787370372
 41
3.0
 42
3.0
 43
3.0
 50
180.0
  0
ENDBLK
  5
23F
100
AcDbEntity
  8
0
  6
BYBLOCK
 62
0
100
AcDbBlockEnd
  0
BLOCK
  5
240
100
AcDbEntity
  8
0
100
AcDbBlockBegin
 62
7
  6
CONTINUOUS
  2
*D3
 70
65
 10
0.0
 20
0.0
  3
*D3
  1

  0
LINE
  5
241
100
AcDbEntity
  8
0
100
AcDbLine
 62
7
  6
CONTINUOUS
 10
96.9441097818
 20
130.1054658356
 11
96.9441097818
 21
168.8541210716
  0
LINE
  5
242
100
AcDbEntity
  8
0
100
AcDbLine
 62
7
  6
CONTINUOUS
 10
86.7941097818
 20
147.4918772128
 11
86.7941097818
 21
168.8541210716
  0
LINE
  5
243
100
AcDbEntity
  8
0
100
AcDbLine
 62
7
  6
CONTINUOUS
 10
96.9441097818
 20
167.3541210716
 11
91.8691097818
 21
167.3541210716
  0
LINE
  5
244
100
AcDbEntity
  8
0
100
AcDbLine
 62
7
  6
CONTINUOUS
 10
86.7941097818
 20
167.3541210716
 11
91.8691097818
 21
167.3541210716
  0
LINE
  5
245
100
AcDbEntity
  8
0
100
AcDbLine
 62
7
  6
CONTINUOUS
 10
91.8691097818
 20
167.3541210716
 11
74.6223769392
 21
167.3541210716
  0
INSERT
  5
246
100
AcDbEntity
  8
0
100
AcDbBlockReference
 62
7
  6
CONTINUOUS
  2
_FILLED
 10
96.9441097818
 20
167.3541210716
 41
3.0
 42
3.0
 43
3.0
  0
INSERT
  5
247
100
AcDbEntity
  8
0
100
AcDbBlockReference
 62
7
  6
CONTINUOUS
  2
_FILLED
 10
86.7941097818
 20
167.3541210716
 41
3.0
 42
3.0
 43
3.0
 50
180.0
  0
ENDBLK
  5
248
100
AcDbEntity
  8
0
  6
BYBLOCK
 62
0
100
AcDbBlockEnd
  0
ENDSEC
  0
SECTION
  2
ENTITIES
  0
DIMENSION
  5
249
100
AcDbEntity
  8
0
100
AcDbDimension
 62
7
  6
CONTINUOUS
  2
*D0
 10
135.3979465461
 20
159.0056890681
 11
178.0408036889
 21
159.0056890681
 70
160
 71
2
 72
2
 41
0.9
 42
90.0
  3
DIMSTYLE_1
100
AcDbAlignedDimension
 13
225.3979465461
 23
147.6145310005
 14
135.3979465461
 24
147.6145310005
 50
180.0
100
AcDbRotatedDimension
  0
DIMENSION
  5
24A
100
AcDbEntity
  8
0
100
AcDbDimension
 62
7
  6
CONTINUOUS
  2
*D1
 10
240.0795795172
 20
58.6151398026
 11
240.0795795172
 21
101.2579969455
 70
160
 71
2
 72
2
 41
0.9
 42
90.0
  3
DIMSTYLE_1
100
AcDbAlignedDimension
 13
224.3973377439
 23
148.6151398026
 14
224.3973377439
 24
58.6151398026
 50
270.0
100
AcDbRotatedDimension
  0
DIMENSION
  5
24B
100
AcDbEntity
  8
0
100
AcDbDimension
 62
7
  6
CONTINUOUS
  2
*D2
 10
86.7941097818
 20
159.4787370372
 11
74.7378861076
 21
159.4787370372
 70
160
 71
3
 72
2
 41
0.9
 42
7.15
  3
DIMSTYLE_1
100
AcDbAlignedDimension
 13
93.9441097818
 23
144.8190373222
 14
86.7941097818
 24
146.9918772128
 50
180.0
100
AcDbRotatedDimension
  0
DIMENSION
  5
24C
100
AcDbEntity
  8
0
100
AcDbDimension
 62
7
  6
CONTINUOUS
  2
*D3
 10
86.7941097818
 20
167.3541210716
 11
74.6223769392
 21
167.3541210716
 70
160
 71
3
 72
2
 41
0.9
 42
10.15
  3
DIMSTYLE_1
100
AcDbAlignedDimension
 13
96.9441097818
 23
129.6054658356
 14
86.7941097818
 24
146.9918772128
 50
180.0
100
AcDbRotatedDimension
  0
LINE
  5
24D
100
AcDbEntity
  8
0
100
AcDbLine
 62
7
  6
CONTINUOUS
 10
136.5779610761
 20
148.405839125
 11
136.5923868916
 21
148.4213082592
  0
LINE
  5
24E
100
AcDbEntity
  8
0
100
AcDbLine
 62
7
  6
CONTINUOUS
 10
135.3979465461
 20
147.6145310005
 11
136.3985553482
 21
148.6151398026
  0
LINE
  5
24F
100
AcDbEntity
  8
0
100
AcDbLine
 62
7
  6
CONTINUOUS
 10
136.5779610761
 20
148.405839125
 11
135.6072472237
 21
147.4351252725
  0
LINE
  5
250
100
AcDbEntity
  8
0
100
AcDbLine
 62
7
  6
CONTINUOUS
 10
137.0212091358
 20
147.3864087625
 11
136.6266775862
 21
146.9918772128
  0
LINE
  5
251
100
AcDbEntity
  8
0
100
AcDbLine
 62
7
  6
CONTINUOUS
 10
135.5917780895
 20
147.420699457
 11
135.6072472237
 21
147.4351252725
  0
LINE
  5
252
100
AcDbEntity
  8
0
100
AcDbLine
 62
7
  6
CONTINUOUS
 10
135.6072472237
 20
59.7951543327
 11
135.5917780895
 21
59.8095801482
  0
LINE
  5
253
100
AcDbEntity
  8
0
100
AcDbLine
 62
7
  6
CONTINUOUS
 10
136.3985553482
 20
58.6151398026
 11
135.3979465461
 21
59.6157486047
  0
LINE
  5
254
100
AcDbEntity
  8
0
100
AcDbLine
 62
7
  6
CONTINUOUS
 10
135.6072472237
 20
59.7951543327
 11
136.5779610761
 21
58.8244404803
  0
LINE
  5
255
100
AcDbEntity
  8
0
100
AcDbLine
 62
7
  6
CONTINUOUS
 10
136.6266775862
 20
60.2384023924
 11
137.0212091358
 21
59.8438708428
  0
LINE
  5
256
100
AcDbEntity
  8
0
100
AcDbLine
 62
7
  6
CONTINUOUS
 10
136.5923868916
 20
58.8089713461
 11
136.5779610761
 21
58.8244404803
  0
LINE
  5
257
100
AcDbEntity
  8
0
100
AcDbLine
 62
7
  6
CONTINUOUS
 10
135.3979465461
 20
147.6145310005
 11
135.3979465461
 21
59.6157486047
  0
LINE
  5
258
100
AcDbEntity
  8
0
100
AcDbLine
 62
7
  6
CONTINUOUS
 10
135.5917780895
 20
147.420699457
 11
135.5917780895
 21
59.8095801482
  0
LINE
  5
259
100
AcDbEntity
  8
0
100
AcDbLine
 62
7
  6
CONTINUOUS
 10
136.6266775862
 20
146.9918772128
 11
136.6266775862
 21
60.2384023924
  0
LINE
  5
25A
100
AcDbEntity
  8
0
100
AcDbLine
 62
7
  6
CONTINUOUS
 10
136.3985553482
 20
58.6151398026
 11
224.3973377439
 21
58.6151398026
  0
LINE
  5
25B
100
AcDbEntity
  8
0
100
AcDbLine
 62
7
  6
CONTINUOUS
 10
136.5923868916
 20
58.8089713461
 11
224.2035062005
 21
58.8089713461
  0
LINE
  5
25C
100
AcDbEntity
  8
0
100
AcDbLine
 62
7
  6
CONTINUOUS
 10
137.0212091358
 20
59.8438708428
 11
223.7746839563
 21
59.8438708428
  0
LWPOLYLINE
  5
25D
100
AcDbEntity
  8
0
100
AcDbPolyline
 62
7
  6
CONTINUOUS
 90
10
 70
0
 43
0.3500000006
 10
178.4693737793
 20
159.7556951294
 10
179.3265117188
 20
160.6128330688
 10
179.5407962036
 20
161.4699710083
 10
179.5407962036
 20
162.3271089478
 10
179.1122272339
 20
162.7556960449
 10
178.4693737793
 20
162.7556960449
 10
178.0408048096
 20
162.3271089478
 10
178.0408048096
 20
161.4699710083
 10
178.4693737793
 20
161.0414020386
 10
179.3979519653
 20
161.0414020386
  0
LINE
  5
25E
100
AcDbEntity
  8
0
100
AcDbLine
 62
7
  6
CONTINUOUS
 10
137.0212091358
 20
59.8438708428
 11
136.5779610761
 21
58.8244404803
  0
LINE
  5
25F
100
AcDbEntity
  8
0
100
AcDbLine
 62
7
  6
CONTINUOUS
 10
224.1692155059
 20
146.9918772128
 11
225.1886458684
 21
147.4351252725
  0
LINE
  5
260
100
AcDbEntity
  8
0
100
AcDbLine
 62
7
  6
CONTINUOUS
 10
224.1692155059
 20
60.2384023924
 11
225.1886458684
 21
59.7951543327
  0
LINE
  5
261
100
AcDbEntity
  8
0
100
AcDbLine
 62
7
  6
CONTINUOUS
 10
137.0212091358
 20
147.3864087625
 11
136.5779610761
 21
148.405839125
  0
LINE
  5
262
100
AcDbEntity
  8
0
100
AcDbLine
 62
7
  6
CONTINUOUS
 10
175.6979465461
 20
101.6151398026
 11
175.6979465461
 21
105.6151398026
  0
LINE
  5
263
100
AcDbEntity
  8
0
100
AcDbLine
 62
7
  6
CONTINUOUS
 10
176.8979465461
 20
101.6151398026
 11
176.8979465461
 21
105.6151398026
  0
LWPOLYLINE
  5
264
100
AcDbEntity
  8
0
100
AcDbPolyline
 62
7
  6
CONTINUOUS
 90
13
 70
0
 43
0.3500000006
 10
180.3979522705
 20
160.6128330688
 10
180.3979522705
 20
161.898539978
 10
180.6122367554
 20
162.3271089478
 10
181.0408057251
 20
162.7556960449
 10
181.25509021
 20
162.7556960449
 10
181.6836591797
 20
162.3271089478
 10
181.8979436646
 20
161.898539978
 10
181.8979436646
 20
160.6128330688
 10
181.6836591797
 20
160.1842640991
 10
181.25509021
 20
159.7556951294
 10
181.0408057251
 20
159.7556951294
 10
180.6122367554
 20
160.1842640991
 10
180.3979522705
 20
160.6128330688
  0
LINE
  5
265
100
AcDbEntity
  8
0
100
AcDbLine
 62
7
  6
CONTINUOUS
 10
135.5917780895
 20
59.8095801482
 11
135.3979465461
 21
59.6157486047
  0
LINE
  5
266
100
AcDbEntity
  8
0
100
AcDbLine
 62
7
  6
CONTINUOUS
 10
224.2035062005
 20
148.4213082592
 11
224.3973377439
 21
148.6151398026
  0
LINE
  5
267
100
AcDbEntity
  8
0
100
AcDbLine
 62
250
  6
CONTINUOUS
 10
185.0979465461
 20
101.6151398026
 11
183.8979465461
 21
101.6151398026
  0
LINE
  5
268
100
AcDbEntity
  8
0
100
AcDbLine
 62
250
  6
CONTINUOUS
 10
175.6979465461
 20
101.6151398026
 11
176.8979465461
 21
101.6151398026
  0
LWPOLYLINE
  5
269
100
AcDbEntity
  8
0
100
AcDbPolyline
 62
7
  6
CONTINUOUS
 90
13
 70
0
 43
0.3500000006
 10
238.4724375
 20
103.6151359863
 10
237.1867305908
 20
103.6151359863
 10
236.7581434937
 20
103.8294295349
 10
236.3295745239
 20
104.2579985046
 10
236.3295745239
 20
104.4722829895
 10
236.7581434937
 20
104.9008519592
 10
237.1867305908
 20
105.1151364441
 10
238.4724375
 20
105.1151364441
 10
238.9010064697
 20
104.9008519592
 10
239.3295754395
 20
104.4722829895
 10
239.3295754395
 20
104.2579985046
 10
238.9010064697
 20
103.8294295349
 10
238.4724375
 20
103.6151359863
  0
LINE
  5
26A
100
AcDbEntity
  8
0
100
AcDbLine
 62
7
  6
CONTINUOUS
 10
135.5917780895
 20
147.420699457
 11
135.3979465461
 21
147.6145310005
  0
LINE
  5
26B
100
AcDbEntity
  8
0
100
AcDbLine
 62
7
  6
CONTINUOUS
 10
224.2035062005
 20
58.8089713461
 11
224.3973377439
 21
58.6151398026
  0
LINE
  5
26C
100
AcDbEntity
  8
0
100
AcDbLine
 62
7
  6
CONTINUOUS
 10
183.8979465461
 20
105.6151398026
 11
183.8979465461
 21
101.6151398026
  0
LINE
  5
26D
100
AcDbEntity
  8
0
100
AcDbLine
 62
7
  6
CONTINUOUS
 10
185.0979465461
 20
105.6151398026
 11
185.0979465461
 21
101.6151398026
  0
LINE
  5
26E
100
AcDbEntity
  8
0
100
AcDbLine
 62
7
  6
CONTINUOUS
 10
136.5923868916
 20
58.8089713461
 11
136.3985553482
 21
58.6151398026
  0
LINE
  5
26F
100
AcDbEntity
  8
0
100
AcDbLine
 62
7
  6
CONTINUOUS
 10
225.2041150026
 20
147.420699457
 11
225.3979465461
 21
147.6145310005
  0
LINE
  5
270
100
AcDbEntity
  8
0
100
AcDbLine
 62
250
  6
CONTINUOUS
 10
185.0979465461
 20
105.6151398026
 11
183.8979465461
 21
105.6151398026
  0
LINE
  5
271
100
AcDbEntity
  8
0
100
AcDbLine
 62
250
  6
CONTINUOUS
 10
175.6979465461
 20
105.6151398026
 11
176.8979465461
 21
105.6151398026
  0
LINE
  5
272
100
AcDbEntity
  8
0
100
AcDbLine
 62
7
  6
CONTINUOUS
 10
136.5923868916
 20
148.4213082592
 11
136.3985553482
 21
148.6151398026
  0
LINE
  5
273
100
AcDbEntity
  8
0
100
AcDbLine
 62
7
  6
CONTINUOUS
 10
225.2041150026
 20
59.8095801482
 11
225.3979465461
 21
59.6157486047
  0
LINE
  5
274
100
AcDbEntity
  8
0
100
AcDbLine
 62
7
  6
CONTINUOUS
 10
223.7746839563
 20
147.3864087625
 11
224.217932016
 21
148.405839125
  0
LINE
  5
275
100
AcDbEntity
  8
0
100
AcDbLine
 62
7
  6
CONTINUOUS
 10
136.6266775862
 20
60.2384023924
 11
135.6072472237
 21
59.7951543327
  0
LINE
  5
276
100
AcDbEntity
  8
0
100
AcDbLine
 62
7
  6
CONTINUOUS
 10
136.6266775862
 20
146.9918772128
 11
135.6072472237
 21
147.4351252725
  0
LINE
  5
277
100
AcDbEntity
  8
0
100
AcDbLine
 62
7
  6
CONTINUOUS
 10
223.7746839563
 20
59.8438708428
 11
224.217932016
 21
58.8244404803
  0
LWPOLYLINE
  5
278
100
AcDbEntity
  8
0
100
AcDbPolyline
 62
7
  6
CONTINUOUS
 90
10
 70
0
 43
0.3500000006
 10
239.3295754395
 20
101.6865665588
 10
238.4724375
 20
102.543713562
 10
237.6152995605
 20
102.7579980469
 10
236.7581434937
 20
102.7579980469
 10
236.3295745239
 20
102.3294290771
 10
236.3295745239
 20
101.6865665588
 10
236.7581434937
 20
101.2579975891
 10
237.6152995605
 20
101.2579975891
 10
238.0438685303
 20
101.6865665588
 10
238.0438685303
 20
102.6151356812
  0
LINE
  5
279
100
AcDbEntity
  8
0
100
AcDbLine
 62
7
  6
CONTINUOUS
 10
224.1692155059
 20
60.2384023924
 11
224.1692155059
 21
146.9918772128
  0
LINE
  5
27A
100
AcDbEntity
  8
0
100
AcDbLine
 62
7
  6
CONTINUOUS
 10
225.2041150026
 20
59.8095801482
 11
225.2041150026
 21
147.420699457
  0
LINE
  5
27B
100
AcDbEntity
  8
0
100
AcDbLine
 62
7
  6
CONTINUOUS
 10
225.3979465461
 20
59.6157486047
 11
225.3979465461
 21
147.6145310005
  0
LINE
  5
27C
100
AcDbEntity
  8
0
100
AcDbLine
 62
7
  6
CONTINUOUS
 10
223.7746839563
 20
147.3864087625
 11
137.0212091358
 21
147.3864087625
  0
LINE
  5
27D
100
AcDbEntity
  8
0
100
AcDbLine
 62
7
  6
CONTINUOUS
 10
224.2035062005
 20
148.4213082592
 11
136.5923868916
 21
148.4213082592
  0
LINE
  5
27E
100
AcDbEntity
  8
0
100
AcDbLine
 62
7
  6
CONTINUOUS
 10
224.3973377439
 20
148.6151398026
 11
136.3985553482
 21
148.6151398026
  0
LINE
  5
27F
100
AcDbEntity
  8
0
100
AcDbLine
 62
7
  6
CONTINUOUS
 10
224.217932016
 20
58.8244404803
 11
224.2035062005
 21
58.8089713461
  0
LINE
  5
280
100
AcDbEntity
  8
0
100
AcDbLine
 62
7
  6
CONTINUOUS
 10
223.7746839563
 20
59.8438708428
 11
224.1692155059
 21
60.2384023924
  0
LINE
  5
281
100
AcDbEntity
  8
0
100
AcDbLine
 62
7
  6
CONTINUOUS
 10
224.217932016
 20
58.8244404803
 11
225.1886458684
 21
59.7951543327
  0
LINE
  5
282
100
AcDbEntity
  8
0
100
AcDbLine
 62
7
  6
CONTINUOUS
 10
225.3979465461
 20
59.6157486047
 11
224.3973377439
 21
58.6151398026
  0
LINE
  5
283
100
AcDbEntity
  8
0
100
AcDbLine
 62
7
  6
CONTINUOUS
 10
225.2041150026
 20
59.8095801482
 11
225.1886458684
 21
59.7951543327
  0
LINE
  5
284
100
AcDbEntity
  8
0
100
AcDbLine
 62
7
  6
CONTINUOUS
 10
225.1886458684
 20
147.4351252725
 11
225.2041150026
 21
147.420699457
  0
LINE
  5
285
100
AcDbEntity
  8
0
100
AcDbLine
 62
7
  6
CONTINUOUS
 10
224.1692155059
 20
146.9918772128
 11
223.7746839563
 21
147.3864087625
  0
LINE
  5
286
100
AcDbEntity
  8
0
100
AcDbLine
 62
7
  6
CONTINUOUS
 10
225.1886458684
 20
147.4351252725
 11
224.217932016
 21
148.405839125
  0
LINE
  5
287
100
AcDbEntity
  8
0
100
AcDbLine
 62
7
  6
CONTINUOUS
 10
224.3973377439
 20
148.6151398026
 11
225.3979465461
 21
147.6145310005
  0
LINE
  5
288
100
AcDbEntity
  8
0
100
AcDbLine
 62
7
  6
CONTINUOUS
 10
224.2035062005
 20
148.4213082592
 11
224.217932016
 21
148.405839125
  0
LWPOLYLINE
  5
289
100
AcDbEntity
  8
0
100
AcDbPolyline
 62
7
  6
CONTINUOUS
 90
3
 70
0
 43
0.3500000006
 10
74.6223784332
 20
170.2469699707
 10
75.4795209045
 20
171.1041260376
 10
75.4795209045
 20
168.1041251221
  0
LWPOLYLINE
  5
28A
100
AcDbEntity
  8
0
100
AcDbPolyline
 62
7
  6
CONTINUOUS
 90
3
 70
0
 43
0.3500000006
 10
80.4080912476
 20
170.2469699707
 10
81.2652382507
 20
171.1041260376
 10
81.2652382507
 20
168.1041251221
  0
LWPOLYLINE
  5
28B
100
AcDbEntity
  8
0
100
AcDbPolyline
 62
7
  6
CONTINUOUS
 90
3
 70
0
 43
0.3500000006
 10
78.8093143616
 20
162.371593689
 10
79.6664613647
 20
163.2287316284
 10
79.6664613647
 20
160.2287307129
  0
LINE
  5
28C
100
AcDbEntity
  8
0
100
AcDbLine
 62
7
  6
CONTINUOUS
 10
87.7935006088
 20
58.8089713461
 11
93.3441097818
 21
58.6151398026
  0
LINE
  5
28D
100
AcDbEntity
  8
0
100
AcDbLine
 62
7
  6
CONTINUOUS
 10
87.7935006088
 20
59.8095801482
 11
93.3441097818
 21
59.6157486047
  0
LINE
  5
28E
100
AcDbEntity
  8
0
100
AcDbLine
 62
7
  6
CONTINUOUS
 10
93.3441097818
 20
60.8570958898
 11
93.9441097818
 21
60.8151398026
  0
LINE
  5
28F
100
AcDbEntity
  8
0
100
AcDbLine
 62
7
  6
CONTINUOUS
 10
86.7941097818
 20
146.9918772128
 11
87.7785622396
 21
147.4351252725
  0
LINE
  5
290
100
AcDbEntity
  8
0
100
AcDbLine
 62
250
  6
CONTINUOUS
 10
93.3441097818
 20
62.4531983702
 11
93.9441097818
 21
62.411242283
  0
LINE
  5
291
100
AcDbEntity
  8
0
100
AcDbLine
 62
7
  6
CONTINUOUS
 10
86.7941097818
 20
60.2384023924
 11
87.7785622396
 21
59.7951543327
  0
LINE
  5
292
100
AcDbEntity
  8
0
100
AcDbLine
 62
7
  6
CONTINUOUS
 10
86.7941097818
 20
147.3864087625
 11
87.7935006088
 21
148.4213082592
  0
LINE
  5
293
100
AcDbEntity
  8
0
100
AcDbLine
 62
7
  6
CONTINUOUS
 10
86.7941097818
 20
59.8438708428
 11
87.7935006088
 21
58.8089713461
  0
LWPOLYLINE
  5
294
100
AcDbEntity
  8
0
100
AcDbPolyline
 62
7
  6
CONTINUOUS
 90
3
 70
0
 43
0.3500000006
 10
79.4080909424
 20
168.3898317261
 10
79.3366597595
 20
168.1755472412
 10
79.1938064575
 20
167.8898406372
  0
LWPOLYLINE
  5
295
100
AcDbEntity
  8
0
100
AcDbPolyline
 62
7
  6
CONTINUOUS
 90
3
 70
0
 43
0.3500000006
 10
77.8093140564
 20
160.5144554443
 10
77.7378828735
 20
160.3001709595
 10
77.5950295715
 20
160.014446228
  0
LINE
  5
296
100
AcDbEntity
  8
0
100
AcDbLine
 62
7
  6
CONTINUOUS
 10
94.8699469328
 20
76.4650103639
 11
93.9441097818
 21
76.4633944716
  0
LINE
  5
297
100
AcDbEntity
  8
0
100
AcDbLine
 62
250
  6
CONTINUOUS
 10
94.8698823655
 20
76.6874605587
 11
93.9441097818
 21
76.6870423642
  0
LWPOLYLINE
  5
298
100
AcDbEntity
  8
0
100
AcDbPolyline
 62
250
  6
CONTINUOUS
 90
5
 70
0
 10
95.989311504
 20
77.1114863233
 10
95.969111017
 20
77.109699172
 10
95.9482070998
 20
77.1082974288
 10
95.9265043267
 20
77.1072418599
 10
95.9040026977
 20
77.1065323545
  0
LINE
  5
299
100
AcDbEntity
  8
0
100
AcDbLine
 62
7
  6
CONTINUOUS
 10
93.9441097818
 20
77.780668903
 11
94.9459897016
 21
77.8150567475
  0
LWPOLYLINE
  5
29A
100
AcDbEntity
  8
0
100
AcDbPolyline
 62
7
  6
CONTINUOUS
 90
15
 70
0
 10
95.904100003
 20
77.0865184669
 10
95.9282092814
 20
77.0871816271
 10
95.9568122144
 20
77.088562144
 10
95.9849015497
 20
77.0905427134
 10
96.0123443666
 20
77.0930878758
 10
96.0392244098
 20
77.0962067882
 10
96.0654757704
 20
77.0998988318
 10
96.0908064753
 20
77.1041443596
 10
96.1152522213
 20
77.1089791729
 10
96.1389005607
 20
77.1144702085
 10
96.1617526745
 20
77.1207251162
 10
96.184317031
 20
77.1280145471
 10
96.2064816099
 20
77.1365919311
 10
96.2274474153
 20
77.1463941444
 10
96.2315235407
 20
77.1485221142
  0
LINE
  5
29B
100
AcDbEntity
  8
0
100
AcDbLine
 62
7
  6
CONTINUOUS
 10
93.9441097818
 20
77.0513536526
 11
95.9041001197
 21
77.0865184652
  0
LINE
  5
29C
100
AcDbEntity
  8
0
100
AcDbLine
 62
250
  6
CONTINUOUS
 10
95.9040026977
 20
77.1065323545
 11
93.9441097818
 21
77.0713389942
  0
LINE
  5
29D
100
AcDbEntity
  8
0
100
AcDbLine
 62
7
  6
CONTINUOUS
 10
94.8942341607
 20
78.4151398026
 11
93.9441097818
 21
78.4151398026
  0
LINE
  5
29E
100
AcDbEntity
  8
0
100
AcDbLine
 62
7
  6
CONTINUOUS
 10
93.9441097818
 20
78.5651398026
 11
94.0941097818
 21
78.5651398026
  0
LINE
  5
29F
100
AcDbEntity
  8
0
100
AcDbLine
 62
7
  6
CONTINUOUS
 10
94.3941097818
 20
78.5651398026
 11
94.5941097818
 21
78.5651398026
  0
LWPOLYLINE
  5
2A0
100
AcDbEntity
  8
0
100
AcDbPolyline
 62
7
  6
CONTINUOUS
 90
25
 70
0
 10
96.7545769731
 20
77.7989159787
 10
96.7679065186
 20
77.7985408087
 10
96.7810879023
 20
77.7976991827
 10
96.7940638002
 20
77.7963911006
 10
96.8067956949
 20
77.7945958738
 10
96.8192123439
 20
77.792334191
 10
96.8312140544
 20
77.7896681182
 10
96.8427479588
 20
77.7865915134
 10
96.8537832081
 20
77.7831105187
 10
96.8642647377
 20
77.7793056262
 10
96.8741519781
 20
77.775179218
 10
96.8834312014
 20
77.7707289119
 10
96.8920937776
 20
77.7660280536
 10
96.9001110646
 20
77.7610847659
 10
96.9074763502
 20
77.755890926
 10
96.914208156
 20
77.7504955104
 10
96.9202861239
 20
77.7449033554
 10
96.9256959958
 20
77.7391096247
 10
96.9304496217
 20
77.7331487866
 10
96.9345236015
 20
77.7270236772
 10
96.9378994154
 20
77.7207314604
 10
96.940574422
 20
77.7142980959
 10
96.9425223378
 20
77.7077322368
 10
96.9437091073
 20
77.7010252299
 10
96.9441097818
 20
77.6941770753
  0
LINE
  5
2A1
100
AcDbEntity
  8
0
100
AcDbLine
 62
7
  6
CONTINUOUS
 10
93.9441097818
 20
77.8593199281
 11
94.9459897016
 21
77.8150567475
  0
LINE
  5
2A2
100
AcDbEntity
  8
0
100
AcDbLine
 62
7
  6
CONTINUOUS
 10
94.9937378797
 20
78.4101769928
 11
96.9441097818
 21
78.2151398026
  0
LWPOLYLINE
  5
2A3
100
AcDbEntity
  8
0
100
AcDbPolyline
 62
7
  6
CONTINUOUS
 90
4
 70
0
 43
0.3500000006
 10
74.7378864899
 20
162.5858781738
 10
74.7378864899
 20
163.2287316284
 10
76.2378824158
 20
163.2287316284
 10
75.3807444763
 20
160.2287307129
  0
LWPOLYLINE
  5
2A4
100
AcDbEntity
  8
0
100
AcDbPolyline
 62
7
  6
CONTINUOUS
 90
13
 70
0
 43
0.3500000006
 10
76.336658844
 20
168.9612630615
 10
76.336658844
 20
170.2469699707
 10
76.5509523926
 20
170.6755570679
 10
76.9795213623
 20
171.1041260376
 10
77.1938058472
 20
171.1041260376
 10
77.6223748169
 20
170.6755570679
 10
77.8366593018
 20
170.2469699707
 10
77.8366593018
 20
168.9612630615
 10
77.6223748169
 20
168.5326940918
 10
77.1938058472
 20
168.1041251221
 10
76.9795213623
 20
168.1041251221
 10
76.5509523926
 20
168.5326940918
 10
76.336658844
 20
168.9612630615
  0
LINE
  5
2A5
100
AcDbEntity
  8
0
100
AcDbLine
 62
7
  6
CONTINUOUS
 10
94.0941097818
 20
128.6651398026
 11
94.2441097818
 21
128.8151398026
  0
LINE
  5
2A6
100
AcDbEntity
  8
0
100
AcDbLine
 62
7
  6
CONTINUOUS
 10
94.5941097818
 20
128.6651398026
 11
94.7441097818
 21
128.8151398026
  0
LINE
  5
2A7
100
AcDbEntity
  8
0
100
AcDbLine
 62
7
  6
CONTINUOUS
 10
94.0941097818
 20
78.5651398026
 11
94.2441097818
 21
78.4151398026
  0
LINE
  5
2A8
100
AcDbEntity
  8
0
100
AcDbLine
 62
7
  6
CONTINUOUS
 10
94.5941097818
 20
78.5651398026
 11
94.7441097818
 21
78.4151398026
  0
LWPOLYLINE
  5
2A9
100
AcDbEntity
  8
0
100
AcDbPolyline
 62
250
  6
CONTINUOUS
 90
9
 70
0
 10
94.9640424816
 20
76.5405397778
 10
94.9713031725
 20
76.5313445718
 10
94.978349081
 20
76.5229458255
 10
94.9850960169
 20
76.5155155251
 10
94.9914186643
 20
76.5092680041
 10
94.9971933155
 20
76.5044060197
 10
95.0022986504
 20
76.5011294815
 10
95.0066148305
 20
76.4996369604
 10
95.0100160155
 20
76.5001240066
  0
LWPOLYLINE
  5
2AA
100
AcDbEntity
  8
0
100
AcDbPolyline
 62
250
  6
CONTINUOUS
 90
19
 70
0
 10
94.8698823655
 20
130.5428190465
 10
94.8778402237
 20
130.5566341189
 10
94.8861510568
 20
130.5708320425
 10
94.8947813917
 20
130.585319685
 10
94.9036985803
 20
130.6000090852
 10
94.912842619
 20
130.6147557553
 10
94.9221276041
 20
130.6293657844
 10
94.9314807569
 20
130.6436795892
 10
94.9408315929
 20
130.6575514667
 10
94.950086813
 20
130.6707973513
 10
94.9591825124
 20
130.6832745024
 10
94.9679827382
 20
130.6947406584
 10
94.9762937268
 20
130.704895855
 10
94.9840398593
 20
130.7136000255
 10
94.9911023151
 20
130.7206748974
 10
94.9972818807
 20
130.725903816
 10
95.002501137
 20
130.729229324
 10
95.0067574876
 20
130.7306525699
 10
95.0100160155
 20
130.7301555987
  0
LWPOLYLINE
  5
2AB
100
AcDbEntity
  8
0
100
AcDbPolyline
 62
250
  6
CONTINUOUS
 90
14
 70
0
 10
94.8698823655
 20
76.6874605587
 10
94.8766555231
 20
76.6756671822
 10
94.8835354537
 20
76.6638518331
 10
94.8905051722
 20
76.6520534267
 10
94.8975085281
 20
76.640372876
 10
94.9045633489
 20
76.6287917828
 10
94.9117573588
 20
76.6171891543
 10
94.9190760323
 20
76.6056119899
 10
94.9264711457
 20
76.5941560117
 10
94.9339663706
 20
76.5828103695
 10
94.9415230326
 20
76.5716648235
 10
94.9490801062
 20
76.5608426926
 10
94.9566112013
 20
76.550419368
 10
94.9640424816
 20
76.5405397778
  0
LINE
  5
2AC
100
AcDbEntity
  8
0
100
AcDbLine
 62
7
  6
CONTINUOUS
 10
86.7941097818
 20
59.8438708428
 11
86.7941097818
 21
147.3864087625
  0
LINE
  5
2AD
100
AcDbEntity
  8
0
100
AcDbLine
 62
7
  6
CONTINUOUS
 10
87.7785622396
 20
58.8244404803
 11
87.7785622396
 21
59.7951543327
  0
LINE
  5
2AE
100
AcDbEntity
  8
0
100
AcDbLine
 62
7
  6
CONTINUOUS
 10
87.7785622396
 20
147.4351252725
 11
87.7785622396
 21
148.405839125
  0
LINE
  5
2AF
100
AcDbEntity
  8
0
100
AcDbLine
 62
7
  6
CONTINUOUS
 10
87.7935006088
 20
59.8095801482
 11
87.7935006088
 21
147.420699457
  0
LINE
  5
2B0
100
AcDbEntity
  8
0
100
AcDbLine
 62
7
  6
CONTINUOUS
 10
93.3441097818
 20
58.6151398026
 11
93.3441097818
 21
148.6151398026
  0
LINE
  5
2B1
100
AcDbEntity
  8
0
100
AcDbLine
 62
7
  6
CONTINUOUS
 10
93.9441097818
 20
60.8151398026
 11
93.9441097818
 21
146.4151398026
  0
LINE
  5
2B2
100
AcDbEntity
  8
0
100
AcDbLine
 62
250
  6
CONTINUOUS
 10
94.8699471405
 20
76.4653620907
 11
94.8698823655
 21
76.6874605587
  0
LINE
  5
2B3
100
AcDbEntity
  8
0
100
AcDbLine
 62
250
  6
CONTINUOUS
 10
94.8698823655
 20
130.5428190465
 11
94.8699469878
 21
130.7649158478
  0
LWPOLYLINE
  5
2B4
100
AcDbEntity
  8
0
100
AcDbPolyline
 62
250
  6
CONTINUOUS
 90
4
 70
0
 10
95.8210537657
 20
130.1860538704
 10
95.8210212682
 20
130.1850753245
 10
95.8209811765
 20
130.181393831
 10
95.820898075
 20
130.1660601708
  0
LWPOLYLINE
  5
2B5
100
AcDbEntity
  8
0
100
AcDbPolyline
 62
7
  6
CONTINUOUS
 90
16
 70
0
 10
96.9441097818
 20
129.6054658356
 10
96.9432452998
 20
129.5953454518
 10
96.9406668657
 20
129.5854822512
 10
96.9364078807
 20
129.5758762339
 10
96.9304948793
 20
129.5664299521
 10
96.9230000076
 20
129.5572408535
 10
96.9140890712
 20
129.5486012815
 10
96.9039293586
 20
129.5405698797
 10
96.8926196471
 20
129.5330880044
 10
96.8802677637
 20
129.526272068
 10
96.8670078419
 20
129.5201409524
 10
96.8529666223
 20
129.5146757758
 10
96.8382282773
 20
129.5099363053
 10
96.8229007756
 20
129.5059424633
 10
96.8071236435
 20
129.5026743273
 10
96.7910205134
 20
129.5001318975
  0
LINE
  5
2B6
100
AcDbEntity
  8
0
100
AcDbLine
 62
250
  6
CONTINUOUS
 10
96.7545769731
 20
129.4951264703
 11
96.7545769731
 21
128.9961865218
  0
LINE
  5
2B7
100
AcDbEntity
  8
0
100
AcDbLine
 62
250
  6
CONTINUOUS
 10
96.7545769731
 20
78.2340930835
 11
96.7545769731
 21
77.7989296107
  0
LINE
  5
2B8
100
AcDbEntity
  8
0
100
AcDbLine
 62
7
  6
CONTINUOUS
 10
96.9441097818
 20
129.703504143
 11
96.9441097818
 21
129.0151398026
  0
LINE
  5
2B9
100
AcDbEntity
  8
0
100
AcDbLine
 62
7
  6
CONTINUOUS
 10
96.9441097818
 20
78.2151398026
 11
96.9441097818
 21
77.5267754623
  0
LWPOLYLINE
  5
2BA
100
AcDbEntity
  8
0
100
AcDbPolyline
 62
250
  6
CONTINUOUS
 90
4
 70
0
 10
95.9041001197
 20
77.0865184652
 10
95.9041418824
 20
77.0875013182
 10
95.9041452428
 20
77.0911880654
 10
95.9040026977
 20
77.1065323545
  0
LWPOLYLINE
  5
2BB
100
AcDbEntity
  8
0
100
AcDbPolyline
 62
7
  6
CONTINUOUS
 90
10
 70
0
 43
0.3500000006
 10
77.7378828735
 20
160.7287399292
 10
77.8093140564
 20
160.5858775635
 10
77.8093140564
 20
160.5144554443
 10
77.6664607544
 20
160.3715930786
 10
77.5950295715
 20
160.3715930786
 10
77.5235983887
 20
160.4430151978
 10
77.5235983887
 20
160.5144554443
 10
77.5950295715
 20
160.6572996826
 10
77.6664607544
 20
160.7287399292
 10
77.7378828735
 20
160.7287399292
  0
LWPOLYLINE
  5
2BC
100
AcDbEntity
  8
0
100
AcDbPolyline
 62
7
  6
CONTINUOUS
 90
10
 70
0
 43
0.3500000006
 10
79.3366597595
 20
168.6041162109
 10
79.4080909424
 20
168.4612719727
 10
79.4080909424
 20
168.3898317261
 10
79.2652376404
 20
168.2469693604
 10
79.1938064575
 20
168.2469693604
 10
79.1223752747
 20
168.3184096069
 10
79.1223752747
 20
168.3898317261
 10
79.1938064575
 20
168.5326940918
 10
79.2652376404
 20
168.6041162109
 10
79.3366597595
 20
168.6041162109
  0
LINE
  5
2BD
100
AcDbEntity
  8
0
100
AcDbLine
 62
7
  6
CONTINUOUS
 10
94.2441097818
 20
78.4151398026
 11
94.3941097818
 21
78.5651398026
  0
LINE
  5
2BE
100
AcDbEntity
  8
0
100
AcDbLine
 62
7
  6
CONTINUOUS
 10
94.2441097818
 20
128.8151398026
 11
94.3941097818
 21
128.6651398026
  0
LINE
  5
2BF
100
AcDbEntity
  8
0
100
AcDbLine
 62
250
  6
CONTINUOUS
 10
96.9441097813
 20
77.574466632
 11
96.1410251712
 21
77.1453456891
  0
LINE
  5
2C0
100
AcDbEntity
  8
0
100
AcDbLine
 62
250
  6
CONTINUOUS
 10
94.8698823655
 20
76.6874605587
 11
95.6117815707
 21
77.0812738847
  0
LINE
  5
2C1
100
AcDbEntity
  8
0
100
AcDbLine
 62
7
  6
CONTINUOUS
 10
96.9441097818
 20
77.5267754623
 11
95.0091217435
 21
76.4996493111
  0
LWPOLYLINE
  5
2C2
100
AcDbEntity
  8
0
100
AcDbPolyline
 62
250
  6
CONTINUOUS
 90
12
 70
0
 10
96.1410251712
 20
77.1453456891
 10
96.1327344054
 20
77.1414160838
 10
96.1233704048
 20
77.1376581501
 10
96.1129331693
 20
77.1340715637
 10
96.1014501875
 20
77.130661615
 10
96.0888939708
 20
77.1274224115
 10
96.0751820535
 20
77.1243369028
 10
96.0602634247
 20
77.1213735385
 10
96.0441890954
 20
77.1185634356
 10
96.0270296333
 20
77.1159834976
 10
96.0087131351
 20
77.1136200798
 10
95.989311504
 20
77.1114863233
  0
LINE
  5
2C3
100
AcDbEntity
  8
0
100
AcDbLine
 62
250
  6
CONTINUOUS
 10
96.2313061895
 20
77.1484066063
 11
96.2274474153
 21
77.1463941444
  0
LWPOLYLINE
  5
2C4
100
AcDbEntity
  8
0
100
AcDbPolyline
 62
250
  6
CONTINUOUS
 90
9
 70
0
 10
96.2225371754
 20
77.1443247829
 10
96.2133380893
 20
77.1411576233
 10
96.2037554721
 20
77.1389211525
 10
96.1938377845
 20
77.1376266749
 10
96.1836352266
 20
77.1372807501
 10
96.1731994687
 20
77.1378851508
 10
96.1625833111
 20
77.1394368141
 10
96.1518404324
 20
77.1419278662
 10
96.1410251712
 20
77.1453456891
  0
LINE
  5
2C5
100
AcDbEntity
  8
0
100
AcDbLine
 62
7
  6
CONTINUOUS
 10
94.9937378797
 20
128.8201026124
 11
96.9441097818
 21
129.0151398026
  0
LINE
  5
2C6
100
AcDbEntity
  8
0
100
AcDbLine
 62
7
  6
CONTINUOUS
 10
93.9441097818
 20
129.3709596772
 11
96.7545769731
 21
129.4951264703
  0
LINE
  5
2C7
100
AcDbEntity
  8
0
100
AcDbLine
 62
7
  6
CONTINUOUS
 10
93.9441097818
 20
128.6651398026
 11
94.0941097818
 21
128.6651398026
  0
LINE
  5
2C8
100
AcDbEntity
  8
0
100
AcDbLine
 62
7
  6
CONTINUOUS
 10
94.3941097818
 20
128.6651398026
 11
94.5941097818
 21
128.6651398026
  0
LINE
  5
2C9
100
AcDbEntity
  8
0
100
AcDbLine
 62
7
  6
CONTINUOUS
 10
93.9441097818
 20
128.8151398026
 11
94.8942341607
 21
128.8151398026
  0
LINE
  5
2CA
100
AcDbEntity
  8
0
100
AcDbLine
 62
250
  6
CONTINUOUS
 10
94.8698823655
 20
130.5428190465
 11
93.9441097818
 21
130.5432372411
  0
LINE
  5
2CB
100
AcDbEntity
  8
0
100
AcDbLine
 62
250
  6
CONTINUOUS
 10
93.9441097818
 20
130.1675233778
 11
95.820898075
 21
130.1660601708
  0
LINE
  5
2CC
100
AcDbEntity
  8
0
100
AcDbLine
 62
7
  6
CONTINUOUS
 10
95.8210537617
 20
130.1860538705
 11
93.9441097818
 21
130.1875072778
  0
LINE
  5
2CD
100
AcDbEntity
  8
0
100
AcDbLine
 62
7
  6
CONTINUOUS
 10
94.8699469328
 20
130.7652692414
 11
93.9441097818
 21
130.7668851337
  0
LWPOLYLINE
  5
2CE
100
AcDbEntity
  8
0
100
AcDbPolyline
 62
250
  6
CONTINUOUS
 90
3
 70
0
 10
95.820898075
 20
130.1660601708
 10
95.8387133299
 20
130.1658430596
 10
95.8559927997
 20
130.1653783636
  0
LWPOLYLINE
  5
2CF
100
AcDbEntity
  8
0
100
AcDbPolyline
 62
250
  6
CONTINUOUS
 90
5
 70
0
 10
95.8559927997
 20
130.1653783636
 10
95.8727364843
 20
130.1646660275
 10
95.8890257052
 20
130.1636778193
 10
95.904779141
 20
130.1624417604
 10
95.9197528273
 20
130.1610421811
  0
LWPOLYLINE
  5
2D0
100
AcDbEntity
  8
0
100
AcDbPolyline
 62
250
  6
CONTINUOUS
 90
13
 70
0
 10
95.9197528273
 20
130.1610421811
 10
95.9338279668
 20
130.1594951467
 10
95.9471233568
 20
130.1577843681
 10
95.9597514242
 20
130.1559457036
 10
95.9716470926
 20
130.1540139773
 10
95.9828754384
 20
130.1519541556
 10
95.9937441179
 20
130.1496972595
 10
96.0044231289
 20
130.1472392078
 10
96.0147424735
 20
130.1445836353
 10
96.0244998146
 20
130.1416729681
 10
96.0336277063
 20
130.1384877351
 10
96.0421935944
 20
130.1350466497
 10
96.050197479
 20
130.1313492949
  0
LWPOLYLINE
  5
2D1
100
AcDbEntity
  8
0
100
AcDbPolyline
 62
250
  6
CONTINUOUS
 90
10
 70
0
 10
96.1439689796
 20
130.1282331472
 10
96.1348380295
 20
130.1324832887
 10
96.1252609615
 20
130.1357799239
 10
96.1152882544
 20
130.1381056776
 10
96.104972472
 20
130.1394482919
 10
96.0943679865
 20
130.1398006907
 10
96.0835306913
 20
130.1391610173
 10
96.0725177071
 20
130.1375326437
 10
96.0613870808
 20
130.1349241532
 10
96.050197479
 20
130.1313492949
  0
LWPOLYLINE
  5
2D2
100
AcDbEntity
  8
0
100
AcDbPolyline
 62
7
  6
CONTINUOUS
 90
15
 70
0
 10
96.1438536555
 20
130.1282940144
 10
96.1361991201
 20
130.1322124373
 10
96.1152919208
 20
130.141610416
 10
96.0932581081
 20
130.1497747675
 10
96.0708469602
 20
130.1566804922
 10
96.0481167626
 20
130.1625506412
 10
96.0245940324
 20
130.1676493996
 10
96.0002922677
 20
130.1720653563
 10
95.9751334969
 20
130.1758645831
 10
95.9490725316
 20
130.1790801476
 10
95.9223891125
 20
130.1816944964
 10
95.8951465851
 20
130.1837104012
 10
95.8672700385
 20
130.1851252526
 10
95.8389072927
 20
130.1859059656
 10
95.8210538223
 20
130.1860538673
  0
LINE
  5
2D3
100
AcDbEntity
  8
0
100
AcDbLine
 62
250
  6
CONTINUOUS
 10
95.5415794068
 20
130.1862702808
 11
94.8698823655
 21
130.5428190465
  0
LINE
  5
2D4
100
AcDbEntity
  8
0
100
AcDbLine
 62
7
  6
CONTINUOUS
 10
95.0091217435
 20
130.7306302942
 11
96.9441097818
 21
129.703504143
  0
LINE
  5
2D5
100
AcDbEntity
  8
0
100
AcDbLine
 62
250
  6
CONTINUOUS
 10
96.050197479
 20
130.1313492949
 11
96.9441097818
 21
129.6536057671
  0
LINE
  5
2D6
100
AcDbEntity
  8
0
100
AcDbLine
 62
7
  6
CONTINUOUS
 10
87.7935006088
 20
59.8095801482
 11
87.7785622396
 21
59.7951543327
  0
LINE
  5
2D7
100
AcDbEntity
  8
0
100
AcDbLine
 62
7
  6
CONTINUOUS
 10
87.7785622396
 20
147.4351252725
 11
87.7935006088
 21
147.420699457
  0
LINE
  5
2D8
100
AcDbEntity
  8
0
100
AcDbLine
 62
250
  6
CONTINUOUS
 10
93.3441097818
 20
144.777081235
 11
93.9441097818
 21
144.8190373222
  0
LINE
  5
2D9
100
AcDbEntity
  8
0
100
AcDbLine
 62
7
  6
CONTINUOUS
 10
93.3441097818
 20
146.3731837155
 11
93.9441097818
 21
146.4151398026
  0
LINE
  5
2DA
100
AcDbEntity
  8
0
100
AcDbLine
 62
7
  6
CONTINUOUS
 10
87.7935006088
 20
147.420699457
 11
93.3441097818
 21
147.6145310005
  0
LINE
  5
2DB
100
AcDbEntity
  8
0
100
AcDbLine
 62
7
  6
CONTINUOUS
 10
87.7935006088
 20
148.4213082592
 11
93.3441097818
 21
148.6151398026
  0
LWPOLYLINE
  5
2DC
100
AcDbEntity
  8
0
100
AcDbPolyline
 62
7
  6
CONTINUOUS
 90
8
 70
0
 43
0.3500000006
 10
80.5235993042
 20
160.2287307129
 10
81.3807463074
 20
160.2287307129
 10
81.8093152771
 20
160.6572996826
 10
81.8093152771
 20
161.5144557495
 10
81.3807463074
 20
161.9430247192
 10
80.5235993042
 20
161.9430247192
 10
80.5235993042
 20
163.2287316284
 10
81.8093152771
 20
163.2287316284
  0
LWPOLYLINE
  5
2DD
100
AcDbEntity
  8
0
100
AcDbPolyline
 62
7
  6
CONTINUOUS
 90
8
 70
0
 43
0.3500000006
 10
82.1223761902
 20
168.1041251221
 10
82.9795231934
 20
168.1041251221
 10
83.4080921631
 20
168.5326940918
 10
83.4080921631
 20
169.3898320313
 10
82.9795231934
 20
169.818401001
 10
82.1223761902
 20
169.818401001
 10
82.1223761902
 20
171.1041260376
 10
83.4080921631
 20
171.1041260376
  0
ARC
  5
2DE
100
AcDbEntity
  8
0
100
AcDbCircle
 62
7
  6
CONTINUOUS
 10
180.3979465461
 20
101.6151398026
 40
4.7
100
AcDbArc
 50
180.0
 51
360.0
  0
ARC
  5
2DF
100
AcDbEntity
  8
0
100
AcDbCircle
 62
7
  6
CONTINUOUS
 10
180.3979465461
 20
105.6151398026
 40
4.7
100
AcDbArc
 50
0.0
 51
180.0
  0
ARC
  5
2E0
100
AcDbEntity
  8
0
100
AcDbCircle
 62
7
  6
CONTINUOUS
 10
180.3979465461
 20
101.6151398026
 40
3.5
100
AcDbArc
 50
180.0
 51
360.0
  0
ARC
  5
2E1
100
AcDbEntity
  8
0
100
AcDbCircle
 62
7
  6
CONTINUOUS
 10
180.3979465461
 20
105.6151398026
 40
3.5
100
AcDbArc
 50
0.0
 51
180.0
  0
ARC
  5
2E2
100
AcDbEntity
  8
0
100
AcDbCircle
 62
7
  6
CONTINUOUS
 10
94.8942341607
 20
129.8151398026
 40
1.0
100
AcDbArc
 50
270.0
 51
275.7105931375
  0
ARC
  5
2E3
100
AcDbEntity
  8
0
100
AcDbCircle
 62
7
  6
CONTINUOUS
 10
94.8942341607
 20
77.4151398026
 40
1.0
100
AcDbArc
 50
84.2894068625
 51
90.0
  0
ARC
  5
2E4
100
AcDbEntity
  8
0
100
AcDbCircle
 62
7
  6
CONTINUOUS
 10
94.8694231067
 20
76.7651403066
 40
0.3
100
AcDbArc
 50
270.1000001427
 51
297.9489629825
  0
ARC
  5
2E5
100
AcDbEntity
  8
0
100
AcDbCircle
 62
7
  6
CONTINUOUS
 10
94.8694231067
 20
130.4651392986
 40
0.3
100
AcDbArc
 50
62.0510370175
 51
89.8999998573
  0
ELLIPSE
  5
2E6
100
AcDbEntity
  8
0
100
AcDbEllipse
 62
7
  6
CONTINUOUS
 10
4962.6744330707
 20
103.6151398026
 30
0.0
 11
5070.6192780382
 21
-20.8600030618
 31
0.0
 40
0.0041137573
 41
2.856472503
 42
2.8584753448
  0
ELLIPSE
  5
2E7
100
AcDbEntity
  8
0
100
AcDbEllipse
 62
7
  6
CONTINUOUS
 10
190.0929018468
 20
103.6151398026
 30
0.0
 11
530.7034459343
 21
0.0
 31
0.0
 40
0.0494155445
 41
-1.7510554651
 42
-1.7475925186
  0
ELLIPSE
  5
2E8
100
AcDbEntity
  8
0
100
AcDbEllipse
 62
7
  6
CONTINUOUS
 10
96.7441097818
 20
129.6949384977
 30
0.0
 11
-0.1417119467
 21
0.1422961243
 31
0.0
 40
0.9918061237
 41
-3.8766878413
 42
-3.6922883273
  0
ENDSEC
  0
SECTION
  2
OBJECTS
  0
DICTIONARY
  5
C
100
AcDbDictionary
280
0
281
1
  3
ACAD_GROUP
350
D
  3
ACAD_MLINESTYLE
350
17
  3
ACAD_LAYOUT
350
1A
  3
ACAD_PLOTSETTINGS
350
19
  3
ACAD_PLOTSTYLENAME
350
E
  0
DICTIONARY
  5
D
102
{ACAD_REACTORS
330
C
102
}
100
AcDbDictionary
280
0
281
1
  0
ACDBDICTIONARYWDFLT
  5
E
102
{ACAD_REACTORS
330
C
102
}
100
AcDbDictionary
281
1
  3
Normal
350
F
100
AcDbDictionaryWithDefault
340
F
  0
DICTIONARY
  5
17
102
{ACAD_REACTORS
330
C
102
}
100
AcDbDictionary
280
0
281
1
  3
Standard
350
18
  0
DICTIONARY
  5
19
102
{ACAD_REACTORS
330
C
102
}
100
AcDbDictionary
281
1
  0
DICTIONARY
  5
1A
102
{ACAD_REACTORS
330
C
102
}
100
AcDbDictionary
281
1
  3
Model
350
2E9
  3
Layout1
350
2EA
  0
ACDBPLACEHOLDER
  5
F
102
{ACAD_REACTORS
330
E
102
}
  0
MLINESTYLE
  5
18
102
{ACAD_REACTORS
330
17
102
}
100
AcDbMlineStyle
  2
STANDARD
 70
0
  3

 62
256
 51
90.0
 52
90.0
 71
2
 49
0.5
 62
256
  6
BYLAYER
 49
-0.5
 62
256
  6
BYLAYER
  0
LAYOUT
  5
2E9
102
{ACAD_REACTORS
330
1A
102
}
100
AcDbPlotSettings
  1

  2
none_device
  4
ISO_A4_(297.00_x_210.00_MM)
  6

 40
0.0
 41
0.0
 42
0.0
 43
0.0
 44
297.0
 45
210.0
 46
0.0
 47
0.0
 48
0.0
 49
0.0
140
0.0
141
0.0
142
1.0
143
1.0
 70
1024
 72
1
 73
0
 74
0
  7

 75
0
147
1.0
148
0.0
149
0.0
100
AcDbLayout
  1
Model
 70
0
 71
0
 10
0.0
 20
0.0
 11
297.0
 21
210.0
 12
0.0
 22
0.0
 32
0.0
 14
0.0
 24
0.0
 34
0.0
 15
0.0
 25
0.0
 35
0.0
146
0.0
 13
0.0
 23
0.0
 33
0.0
 16
1.0
 26
0.0
 36
0.0
 17
0.0
 27
1.0
 37
0.0
 76
0
330
21B
345
0
346
0
  0
LAYOUT
  5
2EA
102
{ACAD_REACTORS
330
1A
102
}
100
AcDbPlotSettings
  1

  2
none_device
  4
ISO_A4_(297.00_x_210.00_MM)
  6

 40
0.0
 41
0.0
 42
0.0
 43
0.0
 44
297.0
 45
210.0
 46
0.0
 47
0.0
 48
0.0
 49
0.0
140
0.0
141
0.0
142
1.0
143
1.0
 70
0
 72
1
 73
0
 74
0
  7

 75
0
147
1.0
148
0.0
149
0.0
100
AcDbLayout
  1
Layout1
 70
0
 71
1
 10
0.0
 20
0.0
 11
297.0
 21
210.0
 12
0.0
 22
0.0
 32
0.0
 14
0.0
 24
0.0
 34
0.0
 15
0.0
 25
0.0
 35
0.0
146
0.0
 13
0.0
 23
0.0
 33
0.0
 16
1.0
 26
0.0
 36
0.0
 17
0.0
 27
1.0
 37
0.0
 76
0
330
21C
345
0
346
0
  0
ENDSEC
  0
EOF
