  0
SECTION
  2
HEADER
  9
$ACADVER
  1
AC1024
  9
$DWGCODEPAGE
  3
ANSI_1252
  9
$EXTMAX
 10
297.0
 20
210.0
 30
0.0
  9
$EXTMIN
 10
0.0
 20
0.0
 30
0.0
  9
$LIMMIN
 10
0.0
 20
0.0
  9
$LIMMAX
 10
297.0
 20
210.0
  9
$VIEWCTR
 10
148.5
 20
105.0
  9
$VIEWSIZE
 40
210.0
  9
$CLAYER
  8
0
  9
$LTSCALE
 40
16.335
  9
$CELTYPE
  6
BYLAYER
  9
$DIMSCALE
 40
1.0
  9
$DIMASZ
 40
3.0
  9
$DIMEXO
 40
0.5
  9
$DIMDLI
 40
11.286
  9
$DIMEXE
 40
1.5
  9
$DIMCEN
 40
2.673
  9
$DIMLFAC
 40
1.0
  9
$DIMBLK
  1
_FILLED
  9
$DIMALT
 70
0
  9
$DIMALTF
 40
0.0393700787
  9
$DIMTXT
 40
3.0
  9
$DIMTOL
 70
1
  9
$DIMLIM
 70
0
  9
$DIMTFAC
 40
1.0
  9
$DIMTP
 40
0.01
  9
$DIMTM
 40
0.01
  9
$DIMGAP
 40
0.625
  9
$DIMDSEP
 70
44
  9
$AUNITS
 70
0
  9
$PDMODE
 70
3
  9
$PDSIZE
 40
3.0
  9
$HANDSEED
  5
2F7
  9
$TILEMODE
 70
1
  9
$MEASUREMENT
 70
1
  9
$INSUNITS
 70
4
  0
ENDSEC
  0
SECTION
  2
CLASSES
  0
CLASS
  1
ACDBDICTIONARYWDFLT
  2
AcDbDictionaryWithDefault
  3
AutoCAD 2000
 90
0
 91
1
280
0
281
0
  0
CLASS
  1
ACDBPLACEHOLDER
  2
AcDbPlaceHolder
  3
AutoCAD 2000
 90
0
 91
1
280
0
281
0
  0
CLASS
  1
LAYOUT
  2
AcDbLayout
  3
AutoCAD 2000
 90
0
 91
0
280
0
281
0
  0
ENDSEC
  0
SECTION
  2
TABLES
  0
TABLE
  2
VPORT
  5
8
100
AcDbSymbolTable
 70
2
  0
VPORT
  5
1F4
100
AcDbSymbolTableRecord
100
AcDbViewportTableRecord
  2
*ACTIVE
 70
0
 10
0.0
 20
0.0
 11
1.0
 21
1.0
 12
148.5
 22
105.0
 13
0.0
 23
0.0
 14
1.0
 24
1.0
 15
0.0
 25
0.0
 16
0.0
 26
0.0
 36
1.0
 17
0.0
 27
0.0
 37
0.0
 40
210.0
 41
1.4142857143
 42
50.0
 43
0.0
 44
0.0
 50
0.0
 51
0.0
 71
0
 72
100
 73
1
 74
1
 75
0
 76
0
 77
0
 78
0
  0
ENDTAB
  0
TABLE
  2
LTYPE
  5
5
100
AcDbSymbolTable
 70
6
  0
LTYPE
  5
14
100
AcDbSymbolTableRecord
100
AcDbLinetypeTableRecord
  2
BYBLOCK
 70
0
  3

 72
65
 73
0
 40
0.0
  0
LTYPE
  5
15
100
AcDbSymbolTableRecord
100
AcDbLinetypeTableRecord
  2
BYLAYER
 70
0
  3

 72
65
 73
0
 40
0.0
  0
LTYPE
  5
16
100
AcDbSymbolTableRecord
100
AcDbLinetypeTableRecord
  2
CONTINUOUS
 70
64
  3
Solid line
 72
65
 73
0
 40
0.0
  0
LTYPE
  5
1F5
100
AcDbSymbolTableRecord
100
AcDbLinetypeTableRecord
  2
CENTER
 70
64
  3
____ _ ____ _ ____ _ ____ _ ____ _ ____ _ ____
 72
65
 73
4
 40
0.6
 49
0.375
 74
0
 49
-0.075
 74
0
 49
0.075
 74
0
 49
-0.075
 74
0
  0
LTYPE
  5
1F6
100
AcDbSymbolTableRecord
100
AcDbLinetypeTableRecord
  2
HIDDEN
 70
64
  3
- - - - - - - - - - - - - - - - - - - -
 72
65
 73
2
 40
0.2
 49
0.1
 74
0
 49
-0.1
 74
0
  0
LTYPE
  5
1F7
100
AcDbSymbolTableRecord
100
AcDbLinetypeTableRecord
  2
PHANTOM
 70
64
  3
_____ _ _ _____ _ _ _____ _ _ _____
 72
65
 73
6
 40
0.8
 49
0.45
 74
0
 49
-0.05
 74
0
 49
0.1
 74
0
 49
-0.05
 74
0
 49
0.1
 74
0
 49
-0.05
 74
0
  0
LTYPE
  5
1F8
100
AcDbSymbolTableRecord
100
AcDbLinetypeTableRecord
  2
DOT
 70
64
  3
. . . . . . . . . . . . . . . . . . . .
 72
65
 73
2
 40
0.2
 49
0.1
 74
0
 49
-0.1
 74
0
  0
LTYPE
  5
1F9
100
AcDbSymbolTableRecord
100
AcDbLinetypeTableRecord
  2
DASHED
 70
64
  3
- - - - - - - - - - - - - - - - - - - -
 72
65
 73
2
 40
0.2
 49
0.1
 74
0
 49
-0.1
 74
0
  0
ENDTAB
  0
TABLE
  2
LAYER
  5
2
100
AcDbSymbolTable
 70
36
  0
LAYER
  5
10
100
AcDbSymbolTableRecord
100
AcDbLayerTableRecord
  2
0
 70
0
 62
7
  6
CONTINUOUS
370
-3
390
F
  0
LAYER
  5
1FA
100
AcDbSymbolTableRecord
100
AcDbLayerTableRecord
  2
DEFAULT_1
 70
0
 62
7
  6
CENTER
370
-3
390
F
  0
LAYER
  5
1FB
100
AcDbSymbolTableRecord
100
AcDbLayerTableRecord
  2
DEFAULT_2
 70
0
 62
7
  6
HIDDEN
370
-3
390
F
  0
LAYER
  5
1FC
100
AcDbSymbolTableRecord
100
AcDbLayerTableRecord
  2
DEFAULT_3
 70
0
 62
7
  6
PHANTOM
370
-3
390
F
  0
LAYER
  5
1FD
100
AcDbSymbolTableRecord
100
AcDbLayerTableRecord
  2
ASSI
 70
0
 62
7
  6
CONTINUOUS
370
-3
390
F
  0
LAYER
  5
1FE
100
AcDbSymbolTableRecord
100
AcDbLayerTableRecord
  2
COORDINATE
 70
0
 62
7
  6
CONTINUOUS
370
-3
390
F
  0
LAYER
  5
1FF
100
AcDbSymbolTableRecord
100
AcDbLayerTableRecord
  2
COORD_ORIGINE
 70
0
 62
7
  6
CONTINUOUS
370
-3
390
F
  0
LAYER
  5
200
100
AcDbSymbolTableRecord
100
AcDbLayerTableRecord
  2
COPY_PUBLISH
 70
0
 62
7
  6
CONTINUOUS
370
-3
390
F
  0
LAYER
  5
201
100
AcDbSymbolTableRecord
100
AcDbLayerTableRecord
  2
COSMETIC
 70
0
 62
7
  6
CONTINUOUS
370
-3
390
F
  0
LAYER
  5
202
100
AcDbSymbolTableRecord
100
AcDbLayerTableRecord
  2
COSMETICI
 70
0
 62
7
  6
CONTINUOUS
370
-3
390
F
  0
LAYER
  5
203
100
AcDbSymbolTableRecord
100
AcDbLayerTableRecord
  2
CURVE
 70
0
 62
7
  6
CONTINUOUS
370
-3
390
F
  0
LAYER
  5
204
100
AcDbSymbolTableRecord
100
AcDbLayerTableRecord
  2
CURVE_TASSELLI
 70
0
 62
7
  6
CONTINUOUS
370
-3
390
F
  0
LAYER
  5
205
100
AcDbSymbolTableRecord
100
AcDbLayerTableRecord
  2
DRAFT
 70
0
 62
7
  6
CONTINUOUS
370
-3
390
F
  0
LAYER
  5
206
100
AcDbSymbolTableRecord
100
AcDbLayerTableRecord
  2
IMPORT_IGES
 70
0
 62
7
  6
CONTINUOUS
370
-3
390
F
  0
LAYER
  5
207
100
AcDbSymbolTableRecord
100
AcDbLayerTableRecord
  2
INTFCLR_2
 70
0
 62
7
  6
CONTINUOUS
370
-3
390
F
  0
LAYER
  5
208
100
AcDbSymbolTableRecord
100
AcDbLayerTableRecord
  2
INTF_1
 70
0
 62
7
  6
CONTINUOUS
370
-3
390
F
  0
LAYER
  5
209
100
AcDbSymbolTableRecord
100
AcDbLayerTableRecord
  2
INTF_21
 70
0
 62
7
  6
CONTINUOUS
370
-3
390
F
  0
LAYER
  5
20A
100
AcDbSymbolTableRecord
100
AcDbLayerTableRecord
  2
INTF_7
 70
0
 62
7
  6
CONTINUOUS
370
-3
390
F
  0
LAYER
  5
20B
100
AcDbSymbolTableRecord
100
AcDbLayerTableRecord
  2
INTF_CYAN
 70
0
 62
7
  6
CONTINUOUS
370
-3
390
F
  0
LAYER
  5
20C
100
AcDbSymbolTableRecord
100
AcDbLayerTableRecord
  2
NOTE
 70
0
 62
7
  6
CONTINUOUS
370
-3
390
F
  0
LAYER
  5
20D
100
AcDbSymbolTableRecord
100
AcDbLayerTableRecord
  2
PIANI
 70
0
 62
7
  6
CONTINUOUS
370
-3
390
F
  0
LAYER
  5
20E
100
AcDbSymbolTableRecord
100
AcDbLayerTableRecord
  2
PIANI_ORIGINE
 70
0
 62
7
  6
CONTINUOUS
370
-3
390
F
  0
LAYER
  5
20F
100
AcDbSymbolTableRecord
100
AcDbLayerTableRecord
  2
PIANI_RIFERIMENTO
 70
0
 62
7
  6
CONTINUOUS
370
-3
390
F
  0
LAYER
  5
210
100
AcDbSymbolTableRecord
100
AcDbLayerTableRecord
  2
PUNTI
 70
0
 62
7
  6
CONTINUOUS
370
-3
390
F
  0
LAYER
  5
211
100
AcDbSymbolTableRecord
100
AcDbLayerTableRecord
  2
RACCORDO
 70
0
 62
7
  6
CONTINUOUS
370
-3
390
F
  0
LAYER
  5
212
100
AcDbSymbolTableRecord
100
AcDbLayerTableRecord
  2
RGB__255__255__255__
 70
0
 62
7
  6
CONTINUOUS
370
-3
390
F
  0
LAYER
  5
213
100
AcDbSymbolTableRecord
100
AcDbLayerTableRecord
  2
RGB____0____0____0__
 70
0
 62
7
  6
CONTINUOUS
370
-3
390
F
  0
LAYER
  5
214
100
AcDbSymbolTableRecord
100
AcDbLayerTableRecord
  2
SIMBOLI
 70
0
 62
7
  6
CONTINUOUS
370
-3
390
F
  0
LAYER
  5
215
100
AcDbSymbolTableRecord
100
AcDbLayerTableRecord
  2
SMUSSO
 70
0
 62
7
  6
CONTINUOUS
370
-3
390
F
  0
LAYER
  5
216
100
AcDbSymbolTableRecord
100
AcDbLayerTableRecord
  2
SUPERFICI
 70
0
 62
7
  6
CONTINUOUS
370
-3
390
F
  0
LAYER
  5
217
100
AcDbSymbolTableRecord
100
AcDbLayerTableRecord
  2
TRASH
 70
0
 62
7
  6
CONTINUOUS
370
-3
390
F
  0
LAYER
  5
218
100
AcDbSymbolTableRecord
100
AcDbLayerTableRecord
  2
XSEC_DATUMS
 70
0
 62
7
  6
CONTINUOUS
370
-3
390
F
  0
ENDTAB
  0
TABLE
  2
STYLE
  5
3
100
AcDbSymbolTable
 70
1
  0
STYLE
  5
11
100
AcDbSymbolTableRecord
100
AcDbTextStyleTableRecord
  2
STANDARD
 70
0
 40
0.0
 41
0.8
 50
0.0
 71
0
 42
0.2
  3
txt
  4

  0
STYLE
  5
219
100
AcDbSymbolTableRecord
100
AcDbTextStyleTableRecord
  2
TEXTSTYLE_1
 70
0
 40
0.0
 41
0.8
 50
0.0
 71
0
 42
0.2
  3
gdt
  4

  0
ENDTAB
  0
TABLE
  2
VIEW
  5
6
100
AcDbSymbolTable
 70
0
  0
ENDTAB
  0
TABLE
  2
UCS
  5
7
100
AcDbSymbolTable
 70
0
  0
ENDTAB
  0
TABLE
  2
APPID
  5
9
100
AcDbSymbolTable
 70
1
  0
APPID
  5
21A
100
AcDbSymbolTableRecord
100
AcDbRegAppTableRecord
  2
ACAD
 70
0
  0
ENDTAB
  0
TABLE
  2
BLOCK_RECORD
  5
1
100
AcDbSymbolTable
 70
0
  0
BLOCK_RECORD
  5
21B
100
AcDbSymbolTableRecord
100
AcDbBlockTableRecord
  2
*Model_Space
  0
BLOCK_RECORD
  5
21C
100
AcDbSymbolTableRecord
100
AcDbBlockTableRecord
  2
*Paper_Space
  0
BLOCK_RECORD
  5
21D
100
AcDbSymbolTableRecord
100
AcDbBlockTableRecord
  2
_FILLED
  0
BLOCK_RECORD
  5
21E
100
AcDbSymbolTableRecord
100
AcDbBlockTableRecord
  2
*D0
  0
BLOCK_RECORD
  5
21F
100
AcDbSymbolTableRecord
100
AcDbBlockTableRecord
  2
*D1
  0
BLOCK_RECORD
  5
220
100
AcDbSymbolTableRecord
100
AcDbBlockTableRecord
  2
*D2
  0
BLOCK_RECORD
  5
221
100
AcDbSymbolTableRecord
100
AcDbBlockTableRecord
  2
*D3
  0
ENDTAB
  0
TABLE
  2
DIMSTYLE
  5
A
100
AcDbSymbolTable
 70
1
100
AcDbDimStyleTable
 71
0
  0
DIMSTYLE
105
222
100
AcDbSymbolTableRecord
100
AcDbDimStyleTableRecord
  2
STANDARD
 70
0
  3

  4

 40
1.0
 41
3.0
 42
0.5
 43
0.38
 44
1.5
 45
0.0
 46
0.0
 47
0.01
 48
0.01
140
3.0
141
0.09
142
0.0
143
25.4
144
1.0
145
0.0
146
1.0
147
0.625
 71
1.0
 72
0.0
 73
0
 74
0
 75
0
 76
0
 77
1
 78
8
 79
2
170
0
171
1
172
0
173
0
174
0
175
0
176
0
177
0
178
0
270
2
179
2
271
2
272
2
273
2
274
2
275
0
280
0
281
0
282
0
283
1
284
8
285
0
286
0
287
3
288
0
340
11
278
44
341
21D
342
21D
343
21D
344
21D
  0
DIMSTYLE
105
223
100
AcDbSymbolTableRecord
100
AcDbDimStyleTableRecord
  2
DIMSTYLE_1
 70
0
  3

  4

 40
1.0
 41
3.0
 42
0.5
 43
0.38
 44
1.5
 45
0.0
 46
0.0
 47
0.0
 48
0.0
140
3.0
141
0.09
142
0.0
143
25.4
144
1.0
145
0.0
146
1.0
147
0.75
 71
0.0
 72
0.0
 73
0
 74
0
 75
0
 76
0
 77
1
 78
8
 79
2
170
0
171
1
172
0
173
0
174
0
175
0
176
0
177
0
178
0
270
2
179
2
271
2
272
2
273
2
274
2
275
0
280
0
281
0
282
0
283
1
284
8
285
0
286
0
287
3
288
0
340
11
278
44
341
21D
342
21D
343
21D
344
21D
  0
ENDTAB
  0
ENDSEC
  0
SECTION
  2
BLOCKS
  0
BLOCK
  5
20
100
AcDbEntity
  8
0
100
AcDbBlockBegin
  2
*Model_Space
 70
0
 10
0.0
 20
0.0
 30
0.0
  3
*Model_Space
  1

  0
ENDBLK
  5
21
100
AcDbEntity
  8
0
100
AcDbBlockEnd
  0
BLOCK
  5
1C
100
AcDbEntity
  8
0
100
AcDbBlockBegin
  2
*Paper_Space
 70
0
 10
0.0
 20
0.0
 30
0.0
  3
*Paper_Space
  1

  0
ENDBLK
  5
1D
100
AcDbEntity
  8
0
100
AcDbBlockEnd
  0
BLOCK
  5
224
100
AcDbEntity
  8
0
100
AcDbBlockBegin
  2
_FILLED
 70
64
 10
0.0
 20
0.0
  3
_FILLED
  1

  0
SOLID
  5
225
100
AcDbEntity
  8
0
  6
BYBLOCK
 62
0
100
AcDbTrace
 10
0.0
 20
0.0
 11
-1.0
 21
0.3166666667
 12
-1.0
 22
-0.3166666667
 13
-1.0
 23
-0.3166666667
  0
ENDBLK
  5
226
100
AcDbEntity
  8
0
  6
BYBLOCK
 62
0
100
AcDbBlockEnd
  0
BLOCK
  5
227
100
AcDbEntity
  8
0
100
AcDbBlockBegin
 62
7
  6
CONTINUOUS
  2
*D0
 70
65
 10
0.0
 20
0.0
  3
*D0
  1

  0
LINE
  5
228
100
AcDbEntity
  8
0
100
AcDbLine
 62
7
  6
CONTINUOUS
 10
137.956640625
 20
151.8074915268
 11
137.956640625
 21
165.4264538357
  0
LINE
  5
229
100
AcDbEntity
  8
0
100
AcDbLine
 62
7
  6
CONTINUOUS
 10
227.956640625
 20
151.8074915268
 11
227.956640625
 21
165.4264538357
  0
LINE
  5
22A
100
AcDbEntity
  8
0
100
AcDbLine
 62
7
  6
CONTINUOUS
 10
137.956640625
 20
163.9264538357
 11
182.956640625
 21
163.9264538357
  0
LINE
  5
22B
100
AcDbEntity
  8
0
100
AcDbLine
 62
7
  6
CONTINUOUS
 10
227.956640625
 20
163.9264538357
 11
182.956640625
 21
163.9264538357
  0
INSERT
  5
22C
100
AcDbEntity
  8
0
100
AcDbBlockReference
 62
7
  6
CONTINUOUS
  2
_FILLED
 10
137.956640625
 20
163.9264538357
 41
3.0
 42
3.0
 43
3.0
 50
180.0
  0
INSERT
  5
22D
100
AcDbEntity
  8
0
100
AcDbBlockReference
 62
7
  6
CONTINUOUS
  2
_FILLED
 10
227.956640625
 20
163.9264538357
 41
3.0
 42
3.0
 43
3.0
  0
ENDBLK
  5
22E
100
AcDbEntity
  8
0
  6
BYBLOCK
 62
0
100
AcDbBlockEnd
  0
BLOCK
  5
22F
100
AcDbEntity
  8
0
100
AcDbBlockBegin
 62
7
  6
CONTINUOUS
  2
*D1
 70
65
 10
0.0
 20
0.0
  3
*D1
  1

  0
LINE
  5
230
100
AcDbEntity
  8
0
100
AcDbLine
 62
7
  6
CONTINUOUS
 10
227.4560318229
 20
152.3081003289
 11
241.9834965977
 21
152.3081003289
  0
LINE
  5
231
100
AcDbEntity
  8
0
100
AcDbLine
 62
7
  6
CONTINUOUS
 10
227.4560318229
 20
62.3081003289
 11
241.9834965977
 21
62.3081003289
  0
LINE
  5
232
100
AcDbEntity
  8
0
100
AcDbLine
 62
7
  6
CONTINUOUS
 10
240.4834965977
 20
152.3081003289
 11
240.4834965977
 21
107.3081003289
  0
LINE
  5
233
100
AcDbEntity
  8
0
100
AcDbLine
 62
7
  6
CONTINUOUS
 10
240.4834965977
 20
62.3081003289
 11
240.4834965977
 21
107.3081003289
  0
INSERT
  5
234
100
AcDbEntity
  8
0
100
AcDbBlockReference
 62
7
  6
CONTINUOUS
  2
_FILLED
 10
240.4834965977
 20
152.3081003289
 41
3.0
 42
3.0
 43
3.0
 50
90.0
  0
INSERT
  5
235
100
AcDbEntity
  8
0
100
AcDbBlockReference
 62
7
  6
CONTINUOUS
  2
_FILLED
 10
240.4834965977
 20
62.3081003289
 41
3.0
 42
3.0
 43
3.0
 50
270.0
  0
ENDBLK
  5
236
100
AcDbEntity
  8
0
  6
BYBLOCK
 62
0
100
AcDbBlockEnd
  0
BLOCK
  5
237
100
AcDbEntity
  8
0
100
AcDbBlockBegin
 62
7
  6
CONTINUOUS
  2
*D2
 70
65
 10
0.0
 20
0.0
  3
*D2
  1

  0
LINE
  5
238
100
AcDbEntity
  8
0
100
AcDbLine
 62
7
  6
CONTINUOUS
 10
91.0589843706
 20
149.0119978485
 11
91.0589843706
 21
165.8116357176
  0
LINE
  5
239
100
AcDbEntity
  8
0
100
AcDbLine
 62
7
  6
CONTINUOUS
 10
83.9089843706
 20
151.1848377392
 11
83.9089843706
 21
165.8116357176
  0
LINE
  5
23A
100
AcDbEntity
  8
0
100
AcDbLine
 62
7
  6
CONTINUOUS
 10
91.0589843706
 20
164.3116357176
 11
87.4839843706
 21
164.3116357176
  0
LINE
  5
23B
100
AcDbEntity
  8
0
100
AcDbLine
 62
7
  6
CONTINUOUS
 10
83.9089843706
 20
164.3116357176
 11
87.4839843706
 21
164.3116357176
  0
LINE
  5
23C
100
AcDbEntity
  8
0
100
AcDbLine
 62
7
  6
CONTINUOUS
 10
87.4839843706
 20
164.3116357176
 11
73.4291906809
 21
164.3116357176
  0
INSERT
  5
23D
100
AcDbEntity
  8
0
100
AcDbBlockReference
 62
7
  6
CONTINUOUS
  2
_FILLED
 10
91.0589843706
 20
164.3116357176
 41
3.0
 42
3.0
 43
3.0
  0
INSERT
  5
23E
100
AcDbEntity
  8
0
100
AcDbBlockReference
 62
7
  6
CONTINUOUS
  2
_FILLED
 10
83.9089843706
 20
164.3116357176
 41
3.0
 42
3.0
 43
3.0
 50
180.0
  0
ENDBLK
  5
23F
100
AcDbEntity
  8
0
  6
BYBLOCK
 62
0
100
AcDbBlockEnd
  0
BLOCK
  5
240
100
AcDbEntity
  8
0
100
AcDbBlockBegin
 62
7
  6
CONTINUOUS
  2
*D3
 70
65
 10
0.0
 20
0.0
  3
*D3
  1

  0
LINE
  5
241
100
AcDbEntity
  8
0
100
AcDbLine
 62
7
  6
CONTINUOUS
 10
94.0589843706
 20
133.7984263619
 11
94.0589843706
 21
174.8012346596
  0
LINE
  5
242
100
AcDbEntity
  8
0
100
AcDbLine
 62
7
  6
CONTINUOUS
 10
83.9089843706
 20
151.1848377392
 11
83.9089843706
 21
174.8012346596
  0
LINE
  5
243
100
AcDbEntity
  8
0
100
AcDbLine
 62
7
  6
CONTINUOUS
 10
94.0589843706
 20
173.3012346596
 11
88.9839843706
 21
173.3012346596
  0
LINE
  5
244
100
AcDbEntity
  8
0
100
AcDbLine
 62
7
  6
CONTINUOUS
 10
83.9089843706
 20
173.3012346596
 11
88.9839843706
 21
173.3012346596
  0
LINE
  5
245
100
AcDbEntity
  8
0
100
AcDbLine
 62
7
  6
CONTINUOUS
 10
88.9839843706
 20
173.3012346596
 11
72.8490764516
 21
173.3012346596
  0
INSERT
  5
246
100
AcDbEntity
  8
0
100
AcDbBlockReference
 62
7
  6
CONTINUOUS
  2
_FILLED
 10
94.0589843706
 20
173.3012346596
 41
3.0
 42
3.0
 43
3.0
  0
INSERT
  5
247
100
AcDbEntity
  8
0
100
AcDbBlockReference
 62
7
  6
CONTINUOUS
  2
_FILLED
 10
83.9089843706
 20
173.3012346596
 41
3.0
 42
3.0
 43
3.0
 50
180.0
  0
ENDBLK
  5
248
100
AcDbEntity
  8
0
  6
BYBLOCK
 62
0
100
AcDbBlockEnd
  0
ENDSEC
  0
SECTION
  2
ENTITIES
  0
DIMENSION
  5
249
100
AcDbEntity
  8
0
100
AcDbDimension
 62
7
  6
CONTINUOUS
  2
*D0
 10
227.956640625
 20
163.9264538357
 11
180.5994977679
 21
163.9264538357
 70
160
 71
2
 72
2
 41
0.9
 42
90.0
  3
DIMSTYLE_1
100
AcDbAlignedDimension
 13
137.956640625
 23
151.3074915268
 14
227.956640625
 24
151.3074915268
100
AcDbRotatedDimension
  0
DIMENSION
  5
24A
100
AcDbEntity
  8
0
100
AcDbDimension
 62
7
  6
CONTINUOUS
  2
*D1
 10
240.4834965977
 20
62.3081003289
 11
240.4834965977
 21
104.9509574718
 70
160
 71
2
 72
2
 41
0.9
 42
90.0
  3
DIMSTYLE_1
100
AcDbAlignedDimension
 13
226.9560318229
 23
152.3081003289
 14
226.9560318229
 24
62.3081003289
 50
270.0
100
AcDbRotatedDimension
  0
DIMENSION
  5
24B
100
AcDbEntity
  8
0
100
AcDbDimension
 62
7
  6
CONTINUOUS
  2
*D2
 10
83.9089843706
 20
164.3116357176
 11
73.4291906809
 21
164.3116357176
 70
160
 71
3
 72
2
 41
0.9
 42
7.15
  3
DIMSTYLE_1
100
AcDbAlignedDimension
 13
91.0589843706
 23
148.5119978485
 14
83.9089843706
 24
150.6848377392
 50
180.0
100
AcDbRotatedDimension
  0
DIMENSION
  5
24C
100
AcDbEntity
  8
0
100
AcDbDimension
 62
7
  6
CONTINUOUS
  2
*D3
 10
83.9089843706
 20
173.3012346596
 11
72.8490764516
 21
173.3012346596
 70
160
 71
3
 72
2
 41
0.9
 42
10.15
  3
DIMSTYLE_1
100
AcDbAlignedDimension
 13
94.0589843706
 23
133.2984263619
 14
83.9089843706
 24
150.6848377392
 50
180.0
100
AcDbRotatedDimension
  0
LINE
  5
24D
100
AcDbEntity
  8
0
100
AcDbLine
 62
7
  6
CONTINUOUS
 10
139.1366551551
 20
152.0987996513
 11
139.1510809706
 21
152.1142687855
  0
LINE
  5
24E
100
AcDbEntity
  8
0
100
AcDbLine
 62
7
  6
CONTINUOUS
 10
137.956640625
 20
151.3074915268
 11
138.9572494271
 21
152.3081003289
  0
LINE
  5
24F
100
AcDbEntity
  8
0
100
AcDbLine
 62
7
  6
CONTINUOUS
 10
139.1366551551
 20
152.0987996513
 11
138.1659413027
 21
151.1280857989
  0
LINE
  5
250
100
AcDbEntity
  8
0
100
AcDbLine
 62
7
  6
CONTINUOUS
 10
139.5799032148
 20
151.0793692888
 11
139.1853716652
 21
150.6848377392
  0
LINE
  5
251
100
AcDbEntity
  8
0
100
AcDbLine
 62
7
  6
CONTINUOUS
 10
138.1504721685
 20
151.1136599834
 11
138.1659413027
 21
151.1280857989
  0
LINE
  5
252
100
AcDbEntity
  8
0
100
AcDbLine
 62
7
  6
CONTINUOUS
 10
138.1659413027
 20
63.488114859
 11
138.1504721685
 21
63.5025406745
  0
LINE
  5
253
100
AcDbEntity
  8
0
100
AcDbLine
 62
7
  6
CONTINUOUS
 10
138.9572494271
 20
62.3081003289
 11
137.956640625
 21
63.3087091311
  0
LINE
  5
254
100
AcDbEntity
  8
0
100
AcDbLine
 62
7
  6
CONTINUOUS
 10
138.1659413027
 20
63.488114859
 11
139.1366551551
 21
62.5174010066
  0
LINE
  5
255
100
AcDbEntity
  8
0
100
AcDbLine
 62
7
  6
CONTINUOUS
 10
139.1853716652
 20
63.9313629187
 11
139.5799032148
 21
63.5368313691
  0
LINE
  5
256
100
AcDbEntity
  8
0
100
AcDbLine
 62
7
  6
CONTINUOUS
 10
139.1510809706
 20
62.5019318724
 11
139.1366551551
 21
62.5174010066
  0
LINE
  5
257
100
AcDbEntity
  8
0
100
AcDbLine
 62
7
  6
CONTINUOUS
 10
137.956640625
 20
151.3074915268
 11
137.956640625
 21
63.3087091311
  0
LINE
  5
258
100
AcDbEntity
  8
0
100
AcDbLine
 62
7
  6
CONTINUOUS
 10
138.1504721685
 20
151.1136599834
 11
138.1504721685
 21
63.5025406745
  0
LINE
  5
259
100
AcDbEntity
  8
0
100
AcDbLine
 62
7
  6
CONTINUOUS
 10
139.1853716652
 20
150.6848377392
 11
139.1853716652
 21
63.9313629187
  0
LWPOLYLINE
  5
25A
100
AcDbEntity
  8
0
100
AcDbPolyline
 62
7
  6
CONTINUOUS
 90
10
 70
0
 43
0.3500000006
 10
181.0280621338
 20
164.6764616089
 10
181.8852182007
 20
165.5335995483
 10
182.0995026855
 20
166.3907374878
 10
182.0995026855
 20
167.2478754272
 10
181.6709337158
 20
167.6764625244
 10
181.0280621338
 20
167.6764625244
 10
180.5994931641
 20
167.2478754272
 10
180.5994931641
 20
166.3907374878
 10
181.0280621338
 20
165.9621685181
 10
181.9566403198
 20
165.9621685181
  0
LINE
  5
25B
100
AcDbEntity
  8
0
100
AcDbLine
 62
7
  6
CONTINUOUS
 10
138.9572494271
 20
62.3081003289
 11
226.9560318229
 21
62.3081003289
  0
LINE
  5
25C
100
AcDbEntity
  8
0
100
AcDbLine
 62
7
  6
CONTINUOUS
 10
139.1510809706
 20
62.5019318724
 11
226.7622002794
 21
62.5019318724
  0
LINE
  5
25D
100
AcDbEntity
  8
0
100
AcDbLine
 62
7
  6
CONTINUOUS
 10
139.5799032148
 20
63.5368313691
 11
226.3333780352
 21
63.5368313691
  0
LINE
  5
25E
100
AcDbEntity
  8
0
100
AcDbLine
 62
7
  6
CONTINUOUS
 10
139.5799032148
 20
63.5368313691
 11
139.1366551551
 21
62.5174010066
  0
LINE
  5
25F
100
AcDbEntity
  8
0
100
AcDbLine
 62
7
  6
CONTINUOUS
 10
226.7279095848
 20
150.6848377392
 11
227.7473399473
 21
151.1280857989
  0
LINE
  5
260
100
AcDbEntity
  8
0
100
AcDbLine
 62
7
  6
CONTINUOUS
 10
226.7279095848
 20
63.9313629187
 11
227.7473399473
 21
63.488114859
  0
LINE
  5
261
100
AcDbEntity
  8
0
100
AcDbLine
 62
7
  6
CONTINUOUS
 10
139.5799032148
 20
151.0793692888
 11
139.1366551551
 21
152.0987996513
  0
LINE
  5
262
100
AcDbEntity
  8
0
100
AcDbLine
 62
7
  6
CONTINUOUS
 10
167.006640625
 20
105.3081003289
 11
167.006640625
 21
109.3081003289
  0
LINE
  5
263
100
AcDbEntity
  8
0
100
AcDbLine
 62
7
  6
CONTINUOUS
 10
168.206640625
 20
105.3081003289
 11
168.206640625
 21
109.3081003289
  0
LINE
  5
264
100
AcDbEntity
  8
0
100
AcDbLine
 62
7
  6
CONTINUOUS
 10
175.206640625
 20
109.3081003289
 11
175.206640625
 21
105.3081003289
  0
LINE
  5
265
100
AcDbEntity
  8
0
100
AcDbLine
 62
7
  6
CONTINUOUS
 10
176.406640625
 20
109.3081003289
 11
176.406640625
 21
105.3081003289
  0
LWPOLYLINE
  5
266
100
AcDbEntity
  8
0
100
AcDbPolyline
 62
7
  6
CONTINUOUS
 90
13
 70
0
 43
0.3500000006
 10
182.956640625
 20
165.5335995483
 10
182.956640625
 20
166.8193064575
 10
183.1709251099
 20
167.2478754272
 10
183.5994940796
 20
167.6764625244
 10
183.8137785645
 20
167.6764625244
 10
184.2423475342
 20
167.2478754272
 10
184.456632019
 20
166.8193064575
 10
184.456632019
 20
165.5335995483
 10
184.2423475342
 20
165.1050305786
 10
183.8137785645
 20
164.6764616089
 10
183.5994940796
 20
164.6764616089
 10
183.1709251099
 20
165.1050305786
 10
182.956640625
 20
165.5335995483
  0
LINE
  5
267
100
AcDbEntity
  8
0
100
AcDbLine
 62
7
  6
CONTINUOUS
 10
138.1504721685
 20
63.5025406745
 11
137.956640625
 21
63.3087091311
  0
LINE
  5
268
100
AcDbEntity
  8
0
100
AcDbLine
 62
7
  6
CONTINUOUS
 10
226.7622002794
 20
152.1142687855
 11
226.9560318229
 21
152.3081003289
  0
LINE
  5
269
100
AcDbEntity
  8
0
100
AcDbLine
 62
250
  6
CONTINUOUS
 10
198.906640625
 20
105.3081003289
 11
197.706640625
 21
105.3081003289
  0
LINE
  5
26A
100
AcDbEntity
  8
0
100
AcDbLine
 62
250
  6
CONTINUOUS
 10
176.406640625
 20
105.3081003289
 11
175.206640625
 21
105.3081003289
  0
LINE
  5
26B
100
AcDbEntity
  8
0
100
AcDbLine
 62
250
  6
CONTINUOUS
 10
167.006640625
 20
105.3081003289
 11
168.206640625
 21
105.3081003289
  0
LINE
  5
26C
100
AcDbEntity
  8
0
100
AcDbLine
 62
250
  6
CONTINUOUS
 10
189.506640625
 20
105.3081003289
 11
190.706640625
 21
105.3081003289
  0
LWPOLYLINE
  5
26D
100
AcDbEntity
  8
0
100
AcDbPolyline
 62
7
  6
CONTINUOUS
 90
13
 70
0
 43
0.3500000006
 10
238.8763531494
 20
107.3081036682
 10
237.5906462402
 20
107.3081036682
 10
237.1620591431
 20
107.5223881531
 10
236.7334901733
 20
107.9509571228
 10
236.7334901733
 20
108.1652416077
 10
237.1620591431
 20
108.5938105774
 10
237.5906462402
 20
108.808104126
 10
238.8763531494
 20
108.808104126
 10
239.3049221191
 20
108.5938105774
 10
239.7334910889
 20
108.1652416077
 10
239.7334910889
 20
107.9509571228
 10
239.3049221191
 20
107.5223881531
 10
238.8763531494
 20
107.3081036682
  0
LINE
  5
26E
100
AcDbEntity
  8
0
100
AcDbLine
 62
7
  6
CONTINUOUS
 10
138.1504721685
 20
151.1136599834
 11
137.956640625
 21
151.3074915268
  0
LINE
  5
26F
100
AcDbEntity
  8
0
100
AcDbLine
 62
7
  6
CONTINUOUS
 10
226.7622002794
 20
62.5019318724
 11
226.9560318229
 21
62.3081003289
  0
LINE
  5
270
100
AcDbEntity
  8
0
100
AcDbLine
 62
7
  6
CONTINUOUS
 10
139.1510809706
 20
62.5019318724
 11
138.9572494271
 21
62.3081003289
  0
LINE
  5
271
100
AcDbEntity
  8
0
100
AcDbLine
 62
7
  6
CONTINUOUS
 10
227.7628090815
 20
151.1136599834
 11
227.956640625
 21
151.3074915268
  0
LINE
  5
272
100
AcDbEntity
  8
0
100
AcDbLine
 62
250
  6
CONTINUOUS
 10
198.906640625
 20
109.3081003289
 11
197.706640625
 21
109.3081003289
  0
LINE
  5
273
100
AcDbEntity
  8
0
100
AcDbLine
 62
250
  6
CONTINUOUS
 10
176.406640625
 20
109.3081003289
 11
175.206640625
 21
109.3081003289
  0
LINE
  5
274
100
AcDbEntity
  8
0
100
AcDbLine
 62
250
  6
CONTINUOUS
 10
167.006640625
 20
109.3081003289
 11
168.206640625
 21
109.3081003289
  0
LINE
  5
275
100
AcDbEntity
  8
0
100
AcDbLine
 62
250
  6
CONTINUOUS
 10
189.506640625
 20
109.3081003289
 11
190.706640625
 21
109.3081003289
  0
LINE
  5
276
100
AcDbEntity
  8
0
100
AcDbLine
 62
7
  6
CONTINUOUS
 10
139.1510809706
 20
152.1142687855
 11
138.9572494271
 21
152.3081003289
  0
LINE
  5
277
100
AcDbEntity
  8
0
100
AcDbLine
 62
7
  6
CONTINUOUS
 10
227.7628090815
 20
63.5025406745
 11
227.956640625
 21
63.3087091311
  0
LINE
  5
278
100
AcDbEntity
  8
0
100
AcDbLine
 62
7
  6
CONTINUOUS
 10
189.506640625
 20
105.3081003289
 11
189.506640625
 21
109.3081003289
  0
LINE
  5
279
100
AcDbEntity
  8
0
100
AcDbLine
 62
7
  6
CONTINUOUS
 10
190.706640625
 20
105.3081003289
 11
190.706640625
 21
109.3081003289
  0
LINE
  5
27A
100
AcDbEntity
  8
0
100
AcDbLine
 62
7
  6
CONTINUOUS
 10
197.706640625
 20
109.3081003289
 11
197.706640625
 21
105.3081003289
  0
LINE
  5
27B
100
AcDbEntity
  8
0
100
AcDbLine
 62
7
  6
CONTINUOUS
 10
198.906640625
 20
109.3081003289
 11
198.906640625
 21
105.3081003289
  0
LINE
  5
27C
100
AcDbEntity
  8
0
100
AcDbLine
 62
7
  6
CONTINUOUS
 10
226.3333780352
 20
151.0793692888
 11
226.7766260949
 21
152.0987996513
  0
LINE
  5
27D
100
AcDbEntity
  8
0
100
AcDbLine
 62
7
  6
CONTINUOUS
 10
139.1853716652
 20
63.9313629187
 11
138.1659413027
 21
63.488114859
  0
LINE
  5
27E
100
AcDbEntity
  8
0
100
AcDbLine
 62
7
  6
CONTINUOUS
 10
139.1853716652
 20
150.6848377392
 11
138.1659413027
 21
151.1280857989
  0
LINE
  5
27F
100
AcDbEntity
  8
0
100
AcDbLine
 62
7
  6
CONTINUOUS
 10
226.3333780352
 20
63.5368313691
 11
226.7766260949
 21
62.5174010066
  0
LWPOLYLINE
  5
280
100
AcDbEntity
  8
0
100
AcDbPolyline
 62
7
  6
CONTINUOUS
 90
10
 70
0
 43
0.3500000006
 10
239.7334910889
 20
105.379525177
 10
238.8763531494
 20
106.2366721802
 10
238.01921521
 20
106.450956665
 10
237.1620591431
 20
106.450956665
 10
236.7334901733
 20
106.0223876953
 10
236.7334901733
 20
105.379525177
 10
237.1620591431
 20
104.9509562073
 10
238.01921521
 20
104.9509562073
 10
238.4477841797
 20
105.379525177
 10
238.4477841797
 20
106.308103363
  0
LINE
  5
281
100
AcDbEntity
  8
0
100
AcDbLine
 62
7
  6
CONTINUOUS
 10
226.7279095848
 20
63.9313629187
 11
226.7279095848
 21
150.6848377392
  0
LINE
  5
282
100
AcDbEntity
  8
0
100
AcDbLine
 62
7
  6
CONTINUOUS
 10
227.7628090815
 20
63.5025406745
 11
227.7628090815
 21
151.1136599834
  0
LINE
  5
283
100
AcDbEntity
  8
0
100
AcDbLine
 62
7
  6
CONTINUOUS
 10
227.956640625
 20
63.3087091311
 11
227.956640625
 21
151.3074915268
  0
LINE
  5
284
100
AcDbEntity
  8
0
100
AcDbLine
 62
7
  6
CONTINUOUS
 10
226.3333780352
 20
151.0793692888
 11
139.5799032148
 21
151.0793692888
  0
LINE
  5
285
100
AcDbEntity
  8
0
100
AcDbLine
 62
7
  6
CONTINUOUS
 10
226.7622002794
 20
152.1142687855
 11
139.1510809706
 21
152.1142687855
  0
LINE
  5
286
100
AcDbEntity
  8
0
100
AcDbLine
 62
7
  6
CONTINUOUS
 10
226.9560318229
 20
152.3081003289
 11
138.9572494271
 21
152.3081003289
  0
LINE
  5
287
100
AcDbEntity
  8
0
100
AcDbLine
 62
7
  6
CONTINUOUS
 10
226.7766260949
 20
62.5174010066
 11
226.7622002794
 21
62.5019318724
  0
LINE
  5
288
100
AcDbEntity
  8
0
100
AcDbLine
 62
7
  6
CONTINUOUS
 10
226.3333780352
 20
63.5368313691
 11
226.7279095848
 21
63.9313629187
  0
LINE
  5
289
100
AcDbEntity
  8
0
100
AcDbLine
 62
7
  6
CONTINUOUS
 10
226.7766260949
 20
62.5174010066
 11
227.7473399473
 21
63.488114859
  0
LINE
  5
28A
100
AcDbEntity
  8
0
100
AcDbLine
 62
7
  6
CONTINUOUS
 10
227.956640625
 20
63.3087091311
 11
226.9560318229
 21
62.3081003289
  0
LINE
  5
28B
100
AcDbEntity
  8
0
100
AcDbLine
 62
7
  6
CONTINUOUS
 10
227.7628090815
 20
63.5025406745
 11
227.7473399473
 21
63.488114859
  0
LINE
  5
28C
100
AcDbEntity
  8
0
100
AcDbLine
 62
7
  6
CONTINUOUS
 10
227.7473399473
 20
151.1280857989
 11
227.7628090815
 21
151.1136599834
  0
LINE
  5
28D
100
AcDbEntity
  8
0
100
AcDbLine
 62
7
  6
CONTINUOUS
 10
226.7279095848
 20
150.6848377392
 11
226.3333780352
 21
151.0793692888
  0
LINE
  5
28E
100
AcDbEntity
  8
0
100
AcDbLine
 62
7
  6
CONTINUOUS
 10
227.7473399473
 20
151.1280857989
 11
226.7766260949
 21
152.0987996513
  0
LINE
  5
28F
100
AcDbEntity
  8
0
100
AcDbLine
 62
7
  6
CONTINUOUS
 10
226.9560318229
 20
152.3081003289
 11
227.956640625
 21
151.3074915268
  0
LINE
  5
290
100
AcDbEntity
  8
0
100
AcDbLine
 62
7
  6
CONTINUOUS
 10
226.7622002794
 20
152.1142687855
 11
226.7766260949
 21
152.0987996513
  0
LWPOLYLINE
  5
291
100
AcDbEntity
  8
0
100
AcDbPolyline
 62
7
  6
CONTINUOUS
 90
3
 70
0
 43
0.3500000006
 10
72.8490750732
 20
176.1940940552
 10
73.7062175446
 20
177.0512319946
 10
73.7062175446
 20
174.0512310791
  0
LWPOLYLINE
  5
292
100
AcDbEntity
  8
0
100
AcDbPolyline
 62
7
  6
CONTINUOUS
 90
3
 70
0
 43
0.3500000006
 10
78.6347924194
 20
176.1940940552
 10
79.4919303589
 20
177.0512319946
 10
79.4919303589
 20
174.0512310791
  0
LWPOLYLINE
  5
293
100
AcDbEntity
  8
0
100
AcDbPolyline
 62
7
  6
CONTINUOUS
 90
3
 70
0
 43
0.3500000006
 10
77.5006218567
 20
167.20449646
 10
78.3577597961
 20
168.0616343994
 10
78.3577597961
 20
165.0616334839
  0
LINE
  5
294
100
AcDbEntity
  8
0
100
AcDbLine
 62
7
  6
CONTINUOUS
 10
84.9083751976
 20
62.5019318724
 11
90.4589843706
 21
62.3081003289
  0
LINE
  5
295
100
AcDbEntity
  8
0
100
AcDbLine
 62
7
  6
CONTINUOUS
 10
84.9083751976
 20
63.5025406745
 11
90.4589843706
 21
63.3087091311
  0
LINE
  5
296
100
AcDbEntity
  8
0
100
AcDbLine
 62
7
  6
CONTINUOUS
 10
90.4589843706
 20
64.5500564161
 11
91.0589843706
 21
64.5081003289
  0
LINE
  5
297
100
AcDbEntity
  8
0
100
AcDbLine
 62
7
  6
CONTINUOUS
 10
83.9089843706
 20
150.6848377392
 11
84.8934368284
 21
151.1280857989
  0
LINE
  5
298
100
AcDbEntity
  8
0
100
AcDbLine
 62
250
  6
CONTINUOUS
 10
90.4589843706
 20
66.1461588965
 11
91.0589843706
 21
66.1042028094
  0
LINE
  5
299
100
AcDbEntity
  8
0
100
AcDbLine
 62
7
  6
CONTINUOUS
 10
83.9089843706
 20
63.9313629187
 11
84.8934368284
 21
63.488114859
  0
LINE
  5
29A
100
AcDbEntity
  8
0
100
AcDbLine
 62
7
  6
CONTINUOUS
 10
83.9089843706
 20
151.0793692888
 11
84.9083751976
 21
152.1142687855
  0
LINE
  5
29B
100
AcDbEntity
  8
0
100
AcDbLine
 62
7
  6
CONTINUOUS
 10
83.9089843706
 20
63.5368313691
 11
84.9083751976
 21
62.5019318724
  0
LWPOLYLINE
  5
29C
100
AcDbEntity
  8
0
100
AcDbPolyline
 62
7
  6
CONTINUOUS
 90
3
 70
0
 43
0.3500000006
 10
77.6347921143
 20
174.3369558105
 10
77.5633609314
 20
174.1226713257
 10
77.4205076294
 20
173.8369465942
  0
LWPOLYLINE
  5
29D
100
AcDbEntity
  8
0
100
AcDbPolyline
 62
7
  6
CONTINUOUS
 90
3
 70
0
 43
0.3500000006
 10
76.5006215515
 20
165.3473582153
 10
76.4291903687
 20
165.133055603
 10
76.2863370667
 20
164.847348999
  0
LINE
  5
29E
100
AcDbEntity
  8
0
100
AcDbLine
 62
7
  6
CONTINUOUS
 10
91.9848215216
 20
80.1579708902
 11
91.0589843706
 21
80.1563549979
  0
LINE
  5
29F
100
AcDbEntity
  8
0
100
AcDbLine
 62
250
  6
CONTINUOUS
 10
91.9847569544
 20
80.380421085
 11
91.0589843706
 21
80.3800028905
  0
LWPOLYLINE
  5
2A0
100
AcDbEntity
  8
0
100
AcDbPolyline
 62
250
  6
CONTINUOUS
 90
5
 70
0
 10
93.1041860928
 20
80.8044468497
 10
93.0839856058
 20
80.8026596983
 10
93.0630816886
 20
80.8012579551
 10
93.0413789155
 20
80.8002023862
 10
93.0188772865
 20
80.7994928809
  0
LINE
  5
2A1
100
AcDbEntity
  8
0
100
AcDbLine
 62
7
  6
CONTINUOUS
 10
91.0589843706
 20
81.4736294293
 11
92.0608642904
 21
81.5080172739
  0
LWPOLYLINE
  5
2A2
100
AcDbEntity
  8
0
100
AcDbPolyline
 62
7
  6
CONTINUOUS
 90
15
 70
0
 10
93.0189745919
 20
80.7794789932
 10
93.0430838703
 20
80.7801421535
 10
93.0716868033
 20
80.7815226704
 10
93.0997761385
 20
80.7835032397
 10
93.1272189554
 20
80.7860484021
 10
93.1540989987
 20
80.7891673145
 10
93.1803503593
 20
80.7928593581
 10
93.2056810641
 20
80.797104886
 10
93.2301268101
 20
80.8019396993
 10
93.2537751495
 20
80.8074307348
 10
93.2766272633
 20
80.8136856425
 10
93.2991916198
 20
80.8209750734
 10
93.3213561987
 20
80.8295524574
 10
93.3423220041
 20
80.8393546707
 10
93.3463981296
 20
80.8414826405
  0
LINE
  5
2A3
100
AcDbEntity
  8
0
100
AcDbLine
 62
7
  6
CONTINUOUS
 10
91.0589843706
 20
80.7443141789
 11
93.0189747085
 21
80.7794789915
  0
LINE
  5
2A4
100
AcDbEntity
  8
0
100
AcDbLine
 62
250
  6
CONTINUOUS
 10
93.0188772865
 20
80.7994928809
 11
91.0589843706
 21
80.7642995205
  0
LINE
  5
2A5
100
AcDbEntity
  8
0
100
AcDbLine
 62
7
  6
CONTINUOUS
 10
92.0091087495
 20
82.1081003289
 11
91.0589843706
 21
82.1081003289
  0
LINE
  5
2A6
100
AcDbEntity
  8
0
100
AcDbLine
 62
7
  6
CONTINUOUS
 10
91.0589843706
 20
82.2581003289
 11
91.2089843706
 21
82.2581003289
  0
LINE
  5
2A7
100
AcDbEntity
  8
0
100
AcDbLine
 62
7
  6
CONTINUOUS
 10
91.5089843706
 20
82.2581003289
 11
91.7089843706
 21
82.2581003289
  0
LWPOLYLINE
  5
2A8
100
AcDbEntity
  8
0
100
AcDbPolyline
 62
7
  6
CONTINUOUS
 90
25
 70
0
 10
93.8694515619
 20
81.491876505
 10
93.8827811074
 20
81.491501335
 10
93.8959624911
 20
81.490659709
 10
93.9089383891
 20
81.4893516269
 10
93.9216702837
 20
81.4875564001
 10
93.9340869328
 20
81.4852947173
 10
93.9460886432
 20
81.4826286445
 10
93.9576225476
 20
81.4795520397
 10
93.9686577969
 20
81.476071045
 10
93.9791393265
 20
81.4722661525
 10
93.9890265669
 20
81.4681397443
 10
93.9983057902
 20
81.4636894382
 10
94.0069683664
 20
81.4589885799
 10
94.0149856534
 20
81.4540452923
 10
94.022350939
 20
81.4488514523
 10
94.0290827448
 20
81.4434560367
 10
94.0351607128
 20
81.4378638817
 10
94.0405705846
 20
81.432070151
 10
94.0453242105
 20
81.4261093129
 10
94.0493981903
 20
81.4199842035
 10
94.0527740042
 20
81.4136919867
 10
94.0554490108
 20
81.4072586222
 10
94.0573969266
 20
81.4006927631
 10
94.0585836961
 20
81.3939857562
 10
94.0589843706
 20
81.3871376016
  0
LINE
  5
2A9
100
AcDbEntity
  8
0
100
AcDbLine
 62
7
  6
CONTINUOUS
 10
91.0589843706
 20
81.5522804544
 11
92.0608642904
 21
81.5080172739
  0
LINE
  5
2AA
100
AcDbEntity
  8
0
100
AcDbLine
 62
7
  6
CONTINUOUS
 10
92.1086124685
 20
82.1031375192
 11
94.0589843706
 21
81.9081003289
  0
LWPOLYLINE
  5
2AB
100
AcDbEntity
  8
0
100
AcDbPolyline
 62
7
  6
CONTINUOUS
 90
4
 70
0
 43
0.3500000006
 10
73.4291894531
 20
167.4187809448
 10
73.4291894531
 20
168.0616343994
 10
74.9291899109
 20
168.0616343994
 10
74.0720474396
 20
165.0616334839
  0
LINE
  5
2AC
100
AcDbEntity
  8
0
100
AcDbLine
 62
7
  6
CONTINUOUS
 10
91.2089843706
 20
132.3581003289
 11
91.3589843706
 21
132.5081003289
  0
LINE
  5
2AD
100
AcDbEntity
  8
0
100
AcDbLine
 62
7
  6
CONTINUOUS
 10
91.7089843706
 20
132.3581003289
 11
91.8589843706
 21
132.5081003289
  0
LINE
  5
2AE
100
AcDbEntity
  8
0
100
AcDbLine
 62
7
  6
CONTINUOUS
 10
91.2089843706
 20
82.2581003289
 11
91.3589843706
 21
82.1081003289
  0
LINE
  5
2AF
100
AcDbEntity
  8
0
100
AcDbLine
 62
7
  6
CONTINUOUS
 10
91.7089843706
 20
82.2581003289
 11
91.8589843706
 21
82.1081003289
  0
LWPOLYLINE
  5
2B0
100
AcDbEntity
  8
0
100
AcDbPolyline
 62
7
  6
CONTINUOUS
 90
13
 70
0
 43
0.3500000006
 10
74.5633600159
 20
174.9083690186
 10
74.5633600159
 20
176.1940940552
 10
74.7776490326
 20
176.6226630249
 10
75.2062180023
 20
177.0512319946
 10
75.420507019
 20
177.0512319946
 10
75.8490759888
 20
176.6226630249
 10
76.0633604736
 20
176.1940940552
 10
76.0633604736
 20
174.9083690186
 10
75.8490759888
 20
174.4798000488
 10
75.420507019
 20
174.0512310791
 10
75.2062180023
 20
174.0512310791
 10
74.7776490326
 20
174.4798000488
 10
74.5633600159
 20
174.9083690186
  0
LWPOLYLINE
  5
2B1
100
AcDbEntity
  8
0
100
AcDbPolyline
 62
250
  6
CONTINUOUS
 90
9
 70
0
 10
92.0789170704
 20
80.2335003041
 10
92.0861777613
 20
80.2243050981
 10
92.0932236698
 20
80.2159063518
 10
92.0999706057
 20
80.2084760514
 10
92.1062932531
 20
80.2022285304
 10
92.1120679044
 20
80.197366546
 10
92.1171732392
 20
80.1940900078
 10
92.1214894193
 20
80.1925974867
 10
92.1248906043
 20
80.1930845329
  0
LWPOLYLINE
  5
2B2
100
AcDbEntity
  8
0
100
AcDbPolyline
 62
250
  6
CONTINUOUS
 90
19
 70
0
 10
91.9847569544
 20
134.2357795729
 10
91.9927148125
 20
134.2495946452
 10
92.0010256456
 20
134.2637925688
 10
92.0096559805
 20
134.2782802113
 10
92.0185731691
 20
134.2929696115
 10
92.0277172079
 20
134.3077162817
 10
92.0370021929
 20
134.3223263107
 10
92.0463553457
 20
134.3366401155
 10
92.0557061817
 20
134.350511993
 10
92.0649614018
 20
134.3637578776
 10
92.0740571012
 20
134.3762350287
 10
92.082857327
 20
134.3877011847
 10
92.0911683156
 20
134.3978563813
 10
92.0989144481
 20
134.4065605519
 10
92.1059769039
 20
134.4136354237
 10
92.1121564695
 20
134.4188643423
 10
92.1173757258
 20
134.4221898503
 10
92.1216320764
 20
134.4236130962
 10
92.1248906043
 20
134.423116125
  0
LWPOLYLINE
  5
2B3
100
AcDbEntity
  8
0
100
AcDbPolyline
 62
250
  6
CONTINUOUS
 90
14
 70
0
 10
91.9847569544
 20
80.380421085
 10
91.9915301119
 20
80.3686277086
 10
91.9984100425
 20
80.3568123594
 10
92.005379761
 20
80.345013953
 10
92.0123831169
 20
80.3333334023
 10
92.0194379378
 20
80.3217523091
 10
92.0266319476
 20
80.3101496806
 10
92.0339506212
 20
80.2985725162
 10
92.0413457345
 20
80.2871165381
 10
92.0488409595
 20
80.2757708958
 10
92.0563976214
 20
80.2646253499
 10
92.063954695
 20
80.2538032189
 10
92.0714857902
 20
80.2433798943
 10
92.0789170704
 20
80.2335003041
  0
LINE
  5
2B4
100
AcDbEntity
  8
0
100
AcDbLine
 62
7
  6
CONTINUOUS
 10
83.9089843706
 20
63.5368313691
 11
83.9089843706
 21
151.0793692888
  0
LINE
  5
2B5
100
AcDbEntity
  8
0
100
AcDbLine
 62
7
  6
CONTINUOUS
 10
84.8934368284
 20
62.5174010066
 11
84.8934368284
 21
63.488114859
  0
LINE
  5
2B6
100
AcDbEntity
  8
0
100
AcDbLine
 62
7
  6
CONTINUOUS
 10
84.8934368284
 20
151.1280857989
 11
84.8934368284
 21
152.0987996513
  0
LINE
  5
2B7
100
AcDbEntity
  8
0
100
AcDbLine
 62
7
  6
CONTINUOUS
 10
84.9083751976
 20
63.5025406745
 11
84.9083751976
 21
151.1136599834
  0
LINE
  5
2B8
100
AcDbEntity
  8
0
100
AcDbLine
 62
7
  6
CONTINUOUS
 10
90.4589843706
 20
62.3081003289
 11
90.4589843706
 21
152.3081003289
  0
LINE
  5
2B9
100
AcDbEntity
  8
0
100
AcDbLine
 62
7
  6
CONTINUOUS
 10
91.0589843706
 20
64.5081003289
 11
91.0589843706
 21
150.1081003289
  0
LINE
  5
2BA
100
AcDbEntity
  8
0
100
AcDbLine
 62
250
  6
CONTINUOUS
 10
91.9848217293
 20
80.158322617
 11
91.9847569544
 21
80.380421085
  0
LINE
  5
2BB
100
AcDbEntity
  8
0
100
AcDbLine
 62
250
  6
CONTINUOUS
 10
91.9847569544
 20
134.2357795729
 11
91.9848215766
 21
134.4578763741
  0
LWPOLYLINE
  5
2BC
100
AcDbEntity
  8
0
100
AcDbPolyline
 62
250
  6
CONTINUOUS
 90
4
 70
0
 10
92.9359283545
 20
133.8790143968
 10
92.935895857
 20
133.8780358508
 10
92.9358557653
 20
133.8743543574
 10
92.9357726638
 20
133.8590206972
  0
LWPOLYLINE
  5
2BD
100
AcDbEntity
  8
0
100
AcDbPolyline
 62
7
  6
CONTINUOUS
 90
16
 70
0
 10
94.0589843706
 20
133.2984263619
 10
94.0581198886
 20
133.2883059781
 10
94.0555414545
 20
133.2784427775
 10
94.0512824695
 20
133.2688367602
 10
94.0453694681
 20
133.2593904784
 10
94.0378745965
 20
133.2502013799
 10
94.02896366
 20
133.2415618078
 10
94.0188039474
 20
133.233530406
 10
94.007494236
 20
133.2260485307
 10
93.9951423526
 20
133.2192325943
 10
93.9818824307
 20
133.2131014787
 10
93.9678412111
 20
133.2076363021
 10
93.9531028661
 20
133.2028968316
 10
93.9377753644
 20
133.1989029896
 10
93.9219982323
 20
133.1956348537
 10
93.9058951022
 20
133.1930924238
  0
LINE
  5
2BE
100
AcDbEntity
  8
0
100
AcDbLine
 62
250
  6
CONTINUOUS
 10
93.8694515619
 20
133.1880869966
 11
93.8694515619
 21
132.6891470481
  0
LINE
  5
2BF
100
AcDbEntity
  8
0
100
AcDbLine
 62
250
  6
CONTINUOUS
 10
93.8694515619
 20
81.9270536098
 11
93.8694515619
 21
81.491890137
  0
LINE
  5
2C0
100
AcDbEntity
  8
0
100
AcDbLine
 62
7
  6
CONTINUOUS
 10
94.0589843706
 20
133.3964646693
 11
94.0589843706
 21
132.7081003289
  0
LINE
  5
2C1
100
AcDbEntity
  8
0
100
AcDbLine
 62
7
  6
CONTINUOUS
 10
94.0589843706
 20
81.9081003289
 11
94.0589843706
 21
81.2197359886
  0
LWPOLYLINE
  5
2C2
100
AcDbEntity
  8
0
100
AcDbPolyline
 62
250
  6
CONTINUOUS
 90
4
 70
0
 10
93.0189747085
 20
80.7794789915
 10
93.0190164713
 20
80.7804618446
 10
93.0190198316
 20
80.7841485917
 10
93.0188772865
 20
80.7994928809
  0
LWPOLYLINE
  5
2C3
100
AcDbEntity
  8
0
100
AcDbPolyline
 62
7
  6
CONTINUOUS
 90
10
 70
0
 43
0.3500000006
 10
76.4291903687
 20
165.5616427002
 10
76.5006215515
 20
165.4187803345
 10
76.5006215515
 20
165.3473582153
 10
76.3577591858
 20
165.2044958496
 10
76.2863370667
 20
165.2044958496
 10
76.2149058838
 20
165.2759179688
 10
76.2149058838
 20
165.3473582153
 10
76.2863370667
 20
165.4902024536
 10
76.3577591858
 20
165.5616427002
 10
76.4291903687
 20
165.5616427002
  0
LINE
  5
2C4
100
AcDbEntity
  8
0
100
AcDbLine
 62
7
  6
CONTINUOUS
 10
91.3589843706
 20
82.1081003289
 11
91.5089843706
 21
82.2581003289
  0
LINE
  5
2C5
100
AcDbEntity
  8
0
100
AcDbLine
 62
7
  6
CONTINUOUS
 10
91.3589843706
 20
132.5081003289
 11
91.5089843706
 21
132.3581003289
  0
LWPOLYLINE
  5
2C6
100
AcDbEntity
  8
0
100
AcDbPolyline
 62
7
  6
CONTINUOUS
 90
10
 70
0
 43
0.3500000006
 10
77.5633609314
 20
174.5512402954
 10
77.6347921143
 20
174.4083779297
 10
77.6347921143
 20
174.3369558105
 10
77.4919297485
 20
174.1940934448
 10
77.4205076294
 20
174.1940934448
 10
77.3490764465
 20
174.265515564
 10
77.3490764465
 20
174.3369558105
 10
77.4205076294
 20
174.4798000488
 10
77.4919297485
 20
174.5512402954
 10
77.5633609314
 20
174.5512402954
  0
LINE
  5
2C7
100
AcDbEntity
  8
0
100
AcDbLine
 62
250
  6
CONTINUOUS
 10
94.0589843702
 20
81.2674271583
 11
93.25589976
 21
80.8383062154
  0
LINE
  5
2C8
100
AcDbEntity
  8
0
100
AcDbLine
 62
250
  6
CONTINUOUS
 10
91.9847569544
 20
80.380421085
 11
92.7266561595
 21
80.774234411
  0
LINE
  5
2C9
100
AcDbEntity
  8
0
100
AcDbLine
 62
7
  6
CONTINUOUS
 10
94.0589843706
 20
81.2197359886
 11
92.1239963324
 21
80.1926098374
  0
LWPOLYLINE
  5
2CA
100
AcDbEntity
  8
0
100
AcDbPolyline
 62
250
  6
CONTINUOUS
 90
12
 70
0
 10
93.25589976
 20
80.8383062154
 10
93.2476089943
 20
80.8343766101
 10
93.2382449937
 20
80.8306186764
 10
93.2278077582
 20
80.82703209
 10
93.2163247763
 20
80.8236221413
 10
93.2037685596
 20
80.8203829378
 10
93.1900566423
 20
80.8172974291
 10
93.1751380135
 20
80.8143340648
 10
93.1590636843
 20
80.8115239619
 10
93.1419042221
 20
80.8089440239
 10
93.1235877239
 20
80.8065806061
 10
93.1041860928
 20
80.8044468497
  0
LINE
  5
2CB
100
AcDbEntity
  8
0
100
AcDbLine
 62
250
  6
CONTINUOUS
 10
93.3461807783
 20
80.8413671326
 11
93.3423220041
 21
80.8393546707
  0
LWPOLYLINE
  5
2CC
100
AcDbEntity
  8
0
100
AcDbPolyline
 62
250
  6
CONTINUOUS
 90
9
 70
0
 10
93.3374117643
 20
80.8372853092
 10
93.3282126781
 20
80.8341181497
 10
93.3186300609
 20
80.8318816788
 10
93.3087123733
 20
80.8305872012
 10
93.2985098154
 20
80.8302412764
 10
93.2880740575
 20
80.8308456771
 10
93.2774579
 20
80.8323973404
 10
93.2667150212
 20
80.8348883925
 10
93.25589976
 20
80.8383062154
  0
LINE
  5
2CD
100
AcDbEntity
  8
0
100
AcDbLine
 62
7
  6
CONTINUOUS
 10
92.1086124685
 20
132.5130631387
 11
94.0589843706
 21
132.7081003289
  0
LINE
  5
2CE
100
AcDbEntity
  8
0
100
AcDbLine
 62
7
  6
CONTINUOUS
 10
91.0589843706
 20
133.0639202035
 11
93.8694515619
 21
133.1880869966
  0
LINE
  5
2CF
100
AcDbEntity
  8
0
100
AcDbLine
 62
7
  6
CONTINUOUS
 10
91.0589843706
 20
132.3581003289
 11
91.2089843706
 21
132.3581003289
  0
LINE
  5
2D0
100
AcDbEntity
  8
0
100
AcDbLine
 62
7
  6
CONTINUOUS
 10
91.5089843706
 20
132.3581003289
 11
91.7089843706
 21
132.3581003289
  0
LINE
  5
2D1
100
AcDbEntity
  8
0
100
AcDbLine
 62
7
  6
CONTINUOUS
 10
91.0589843706
 20
132.5081003289
 11
92.0091087495
 21
132.5081003289
  0
LINE
  5
2D2
100
AcDbEntity
  8
0
100
AcDbLine
 62
250
  6
CONTINUOUS
 10
91.9847569544
 20
134.2357795729
 11
91.0589843706
 21
134.2361977674
  0
LINE
  5
2D3
100
AcDbEntity
  8
0
100
AcDbLine
 62
250
  6
CONTINUOUS
 10
91.0589843706
 20
133.8604839041
 11
92.9357726638
 21
133.8590206972
  0
LINE
  5
2D4
100
AcDbEntity
  8
0
100
AcDbLine
 62
7
  6
CONTINUOUS
 10
92.9359283505
 20
133.8790143968
 11
91.0589843706
 21
133.8804678041
  0
LINE
  5
2D5
100
AcDbEntity
  8
0
100
AcDbLine
 62
7
  6
CONTINUOUS
 10
91.9848215216
 20
134.4582297677
 11
91.0589843706
 21
134.45984566
  0
LWPOLYLINE
  5
2D6
100
AcDbEntity
  8
0
100
AcDbPolyline
 62
250
  6
CONTINUOUS
 90
3
 70
0
 10
92.9357726638
 20
133.8590206972
 10
92.9535879187
 20
133.8588035859
 10
92.9708673885
 20
133.8583388899
  0
LWPOLYLINE
  5
2D7
100
AcDbEntity
  8
0
100
AcDbPolyline
 62
250
  6
CONTINUOUS
 90
5
 70
0
 10
92.9708673885
 20
133.8583388899
 10
92.9876110731
 20
133.8576265538
 10
93.003900294
 20
133.8566383456
 10
93.0196537298
 20
133.8554022867
 10
93.0346274161
 20
133.8540027074
  0
LWPOLYLINE
  5
2D8
100
AcDbEntity
  8
0
100
AcDbPolyline
 62
250
  6
CONTINUOUS
 90
13
 70
0
 10
93.0346274161
 20
133.8540027074
 10
93.0487025556
 20
133.852455673
 10
93.0619979456
 20
133.8507448944
 10
93.074626013
 20
133.8489062299
 10
93.0865216814
 20
133.8469745036
 10
93.0977500272
 20
133.8449146819
 10
93.1086187067
 20
133.8426577858
 10
93.1192977177
 20
133.8401997341
 10
93.1296170623
 20
133.8375441616
 10
93.1393744034
 20
133.8346334944
 10
93.1485022951
 20
133.8314482614
 10
93.1570681833
 20
133.828007176
 10
93.1650720678
 20
133.8243098212
  0
LWPOLYLINE
  5
2D9
100
AcDbEntity
  8
0
100
AcDbPolyline
 62
250
  6
CONTINUOUS
 90
10
 70
0
 10
93.2588435684
 20
133.8211936735
 10
93.2497126183
 20
133.825443815
 10
93.2401355503
 20
133.8287404502
 10
93.2301628432
 20
133.8310662039
 10
93.2198470608
 20
133.8324088182
 10
93.2092425753
 20
133.832761217
 10
93.1984052801
 20
133.8321215436
 10
93.1873922959
 20
133.83049317
 10
93.1762616696
 20
133.8278846795
 10
93.1650720678
 20
133.8243098212
  0
LWPOLYLINE
  5
2DA
100
AcDbEntity
  8
0
100
AcDbPolyline
 62
7
  6
CONTINUOUS
 90
15
 70
0
 10
93.2587282443
 20
133.8212545407
 10
93.2510737089
 20
133.8251729636
 10
93.2301665096
 20
133.8345709423
 10
93.2081326969
 20
133.8427352938
 10
93.185721549
 20
133.8496410185
 10
93.1629913514
 20
133.8555111675
 10
93.1394686212
 20
133.860609926
 10
93.1151668565
 20
133.8650258827
 10
93.0900080857
 20
133.8688251094
 10
93.0639471204
 20
133.8720406739
 10
93.0372637013
 20
133.8746550228
 10
93.0100211739
 20
133.8766709275
 10
92.9821446273
 20
133.8780857789
 10
92.9537818815
 20
133.8788664919
 10
92.9359284111
 20
133.8790143936
  0
LINE
  5
2DB
100
AcDbEntity
  8
0
100
AcDbLine
 62
250
  6
CONTINUOUS
 10
92.6564539956
 20
133.8792308071
 11
91.9847569544
 21
134.2357795729
  0
LINE
  5
2DC
100
AcDbEntity
  8
0
100
AcDbLine
 62
7
  6
CONTINUOUS
 10
92.1239963324
 20
134.4235908205
 11
94.0589843706
 21
133.3964646693
  0
LINE
  5
2DD
100
AcDbEntity
  8
0
100
AcDbLine
 62
250
  6
CONTINUOUS
 10
93.1650720678
 20
133.8243098212
 11
94.0589843706
 21
133.3465662934
  0
LINE
  5
2DE
100
AcDbEntity
  8
0
100
AcDbLine
 62
7
  6
CONTINUOUS
 10
84.9083751976
 20
63.5025406745
 11
84.8934368284
 21
63.488114859
  0
LINE
  5
2DF
100
AcDbEntity
  8
0
100
AcDbLine
 62
7
  6
CONTINUOUS
 10
84.8934368284
 20
151.1280857989
 11
84.9083751976
 21
151.1136599834
  0
LINE
  5
2E0
100
AcDbEntity
  8
0
100
AcDbLine
 62
250
  6
CONTINUOUS
 10
90.4589843706
 20
148.4700417614
 11
91.0589843706
 21
148.5119978485
  0
LINE
  5
2E1
100
AcDbEntity
  8
0
100
AcDbLine
 62
7
  6
CONTINUOUS
 10
90.4589843706
 20
150.0661442418
 11
91.0589843706
 21
150.1081003289
  0
LINE
  5
2E2
100
AcDbEntity
  8
0
100
AcDbLine
 62
7
  6
CONTINUOUS
 10
84.9083751976
 20
151.1136599834
 11
90.4589843706
 21
151.3074915268
  0
LINE
  5
2E3
100
AcDbEntity
  8
0
100
AcDbLine
 62
7
  6
CONTINUOUS
 10
84.9083751976
 20
152.1142687855
 11
90.4589843706
 21
152.3081003289
  0
LWPOLYLINE
  5
2E4
100
AcDbEntity
  8
0
100
AcDbPolyline
 62
7
  6
CONTINUOUS
 90
8
 70
0
 43
0.3500000006
 10
79.2149067993
 20
165.0616334839
 10
80.0720447388
 20
165.0616334839
 10
80.5006227722
 20
165.4902024536
 10
80.5006227722
 20
166.3473585205
 10
80.0720447388
 20
166.7759274902
 10
79.2149067993
 20
166.7759274902
 10
79.2149067993
 20
168.0616343994
 10
80.5006227722
 20
168.0616343994
  0
LWPOLYLINE
  5
2E5
100
AcDbEntity
  8
0
100
AcDbPolyline
 62
7
  6
CONTINUOUS
 90
8
 70
0
 43
0.3500000006
 10
80.3490773621
 20
174.0512310791
 10
81.2062153015
 20
174.0512310791
 10
81.634793335
 20
174.4798000488
 10
81.634793335
 20
175.3369561157
 10
81.2062153015
 20
175.7655250854
 10
80.3490773621
 20
175.7655250854
 10
80.3490773621
 20
177.0512319946
 10
81.634793335
 20
177.0512319946
  0
ARC
  5
2E6
100
AcDbEntity
  8
0
100
AcDbCircle
 62
7
  6
CONTINUOUS
 10
194.206640625
 20
109.3081003289
 40
4.7
100
AcDbArc
 50
0.0
 51
180.0
  0
ARC
  5
2E7
100
AcDbEntity
  8
0
100
AcDbCircle
 62
7
  6
CONTINUOUS
 10
194.206640625
 20
105.3081003289
 40
4.7
100
AcDbArc
 50
180.0
 51
360.0
  0
ARC
  5
2E8
100
AcDbEntity
  8
0
100
AcDbCircle
 62
7
  6
CONTINUOUS
 10
171.706640625
 20
109.3081003289
 40
4.7
100
AcDbArc
 50
0.0
 51
180.0
  0
ARC
  5
2E9
100
AcDbEntity
  8
0
100
AcDbCircle
 62
7
  6
CONTINUOUS
 10
171.706640625
 20
105.3081003289
 40
4.7
100
AcDbArc
 50
180.0
 51
360.0
  0
ARC
  5
2EA
100
AcDbEntity
  8
0
100
AcDbCircle
 62
7
  6
CONTINUOUS
 10
171.706640625
 20
105.3081003289
 40
3.5
100
AcDbArc
 50
180.0
 51
360.0
  0
ARC
  5
2EB
100
AcDbEntity
  8
0
100
AcDbCircle
 62
7
  6
CONTINUOUS
 10
171.706640625
 20
109.3081003289
 40
3.5
100
AcDbArc
 50
0.0
 51
180.0
  0
ARC
  5
2EC
100
AcDbEntity
  8
0
100
AcDbCircle
 62
7
  6
CONTINUOUS
 10
194.206640625
 20
105.3081003289
 40
3.5
100
AcDbArc
 50
180.0
 51
360.0
  0
ARC
  5
2ED
100
AcDbEntity
  8
0
100
AcDbCircle
 62
7
  6
CONTINUOUS
 10
194.206640625
 20
109.3081003289
 40
3.5
100
AcDbArc
 50
0.0
 51
180.0
  0
ARC
  5
2EE
100
AcDbEntity
  8
0
100
AcDbCircle
 62
7
  6
CONTINUOUS
 10
92.0091087495
 20
133.5081003289
 40
1.0
100
AcDbArc
 50
270.0
 51
275.7105931375
  0
ARC
  5
2EF
100
AcDbEntity
  8
0
100
AcDbCircle
 62
7
  6
CONTINUOUS
 10
92.0091087495
 20
81.1081003289
 40
1.0
100
AcDbArc
 50
84.2894068625
 51
90.0
  0
ARC
  5
2F0
100
AcDbEntity
  8
0
100
AcDbCircle
 62
7
  6
CONTINUOUS
 10
91.9842976955
 20
80.458100833
 40
0.3
100
AcDbArc
 50
270.1000001427
 51
297.9489629825
  0
ARC
  5
2F1
100
AcDbEntity
  8
0
100
AcDbCircle
 62
7
  6
CONTINUOUS
 10
91.9842976955
 20
134.1580998249
 40
0.3
100
AcDbArc
 50
62.0510370175
 51
89.8999998573
  0
ELLIPSE
  5
2F2
100
AcDbEntity
  8
0
100
AcDbEllipse
 62
7
  6
CONTINUOUS
 10
4959.7893076595
 20
107.3081003289
 30
0.0
 11
5070.6192780382
 21
-20.8600030618
 31
0.0
 40
0.0041137573
 41
2.856472503
 42
2.8584753448
  0
ELLIPSE
  5
2F3
100
AcDbEntity
  8
0
100
AcDbEllipse
 62
7
  6
CONTINUOUS
 10
187.2077764356
 20
107.3081003289
 30
0.0
 11
530.7034459343
 21
0.0
 31
0.0
 40
0.0494155445
 41
-1.7510554651
 42
-1.7475925186
  0
ELLIPSE
  5
2F4
100
AcDbEntity
  8
0
100
AcDbEllipse
 62
7
  6
CONTINUOUS
 10
93.8589843706
 20
133.387899024
 30
0.0
 11
-0.1417119467
 21
0.1422961243
 31
0.0
 40
0.9918061237
 41
-3.8766878413
 42
-3.6922883272
  0
ENDSEC
  0
SECTION
  2
OBJECTS
  0
DICTIONARY
  5
C
100
AcDbDictionary
280
0
281
1
  3
ACAD_GROUP
350
D
  3
ACAD_MLINESTYLE
350
17
  3
ACAD_LAYOUT
350
1A
  3
ACAD_PLOTSETTINGS
350
19
  3
ACAD_PLOTSTYLENAME
350
E
  0
DICTIONARY
  5
D
102
{ACAD_REACTORS
330
C
102
}
100
AcDbDictionary
280
0
281
1
  0
ACDBDICTIONARYWDFLT
  5
E
102
{ACAD_REACTORS
330
C
102
}
100
AcDbDictionary
281
1
  3
Normal
350
F
100
AcDbDictionaryWithDefault
340
F
  0
DICTIONARY
  5
17
102
{ACAD_REACTORS
330
C
102
}
100
AcDbDictionary
280
0
281
1
  3
Standard
350
18
  0
DICTIONARY
  5
19
102
{ACAD_REACTORS
330
C
102
}
100
AcDbDictionary
281
1
  0
DICTIONARY
  5
1A
102
{ACAD_REACTORS
330
C
102
}
100
AcDbDictionary
281
1
  3
Model
350
2F5
  3
Layout1
350
2F6
  0
ACDBPLACEHOLDER
  5
F
102
{ACAD_REACTORS
330
E
102
}
  0
MLINESTYLE
  5
18
102
{ACAD_REACTORS
330
17
102
}
100
AcDbMlineStyle
  2
STANDARD
 70
0
  3

 62
256
 51
90.0
 52
90.0
 71
2
 49
0.5
 62
256
  6
BYLAYER
 49
-0.5
 62
256
  6
BYLAYER
  0
LAYOUT
  5
2F5
102
{ACAD_REACTORS
330
1A
102
}
100
AcDbPlotSettings
  1

  2
none_device
  4
ISO_A4_(297.00_x_210.00_MM)
  6

 40
0.0
 41
0.0
 42
0.0
 43
0.0
 44
297.0
 45
210.0
 46
0.0
 47
0.0
 48
0.0
 49
0.0
140
0.0
141
0.0
142
1.0
143
1.0
 70
1024
 72
1
 73
0
 74
0
  7

 75
0
147
1.0
148
0.0
149
0.0
100
AcDbLayout
  1
Model
 70
0
 71
0
 10
0.0
 20
0.0
 11
297.0
 21
210.0
 12
0.0
 22
0.0
 32
0.0
 14
0.0
 24
0.0
 34
0.0
 15
0.0
 25
0.0
 35
0.0
146
0.0
 13
0.0
 23
0.0
 33
0.0
 16
1.0
 26
0.0
 36
0.0
 17
0.0
 27
1.0
 37
0.0
 76
0
330
21B
345
0
346
0
  0
LAYOUT
  5
2F6
102
{ACAD_REACTORS
330
1A
102
}
100
AcDbPlotSettings
  1

  2
none_device
  4
ISO_A4_(297.00_x_210.00_MM)
  6

 40
0.0
 41
0.0
 42
0.0
 43
0.0
 44
297.0
 45
210.0
 46
0.0
 47
0.0
 48
0.0
 49
0.0
140
0.0
141
0.0
142
1.0
143
1.0
 70
0
 72
1
 73
0
 74
0
  7

 75
0
147
1.0
148
0.0
149
0.0
100
AcDbLayout
  1
Layout1
 70
0
 71
1
 10
0.0
 20
0.0
 11
297.0
 21
210.0
 12
0.0
 22
0.0
 32
0.0
 14
0.0
 24
0.0
 34
0.0
 15
0.0
 25
0.0
 35
0.0
146
0.0
 13
0.0
 23
0.0
 33
0.0
 16
1.0
 26
0.0
 36
0.0
 17
0.0
 27
1.0
 37
0.0
 76
0
330
21C
345
0
346
0
  0
ENDSEC
  0
EOF
