  0
SECTION
  2
HEADER
  9
$ACADVER
  1
AC1024
  9
$DWGCODEPAGE
  3
ANSI_1252
  9
$EXTMAX
 10
297.0
 20
210.0
 30
0.0
  9
$EXTMIN
 10
0.0
 20
0.0
 30
0.0
  9
$LIMMIN
 10
0.0
 20
0.0
  9
$LIMMAX
 10
297.0
 20
210.0
  9
$VIEWCTR
 10
148.5
 20
105.0
  9
$VIEWSIZE
 40
210.0
  9
$CLAYER
  8
0
  9
$LTSCALE
 40
16.335
  9
$CELTYPE
  6
BYLAYER
  9
$DIMSCALE
 40
1.0
  9
$DIMASZ
 40
3.0
  9
$DIMEXO
 40
0.5
  9
$DIMDLI
 40
11.286
  9
$DIMEXE
 40
1.5
  9
$DIMCEN
 40
2.673
  9
$DIMLFAC
 40
1.0
  9
$DIMBLK
  1
_FILLED
  9
$DIMALT
 70
0
  9
$DIMALTF
 40
0.0393700787
  9
$DIMTXT
 40
3.0
  9
$DIMTOL
 70
1
  9
$DIMLIM
 70
0
  9
$DIMTFAC
 40
1.0
  9
$DIMTP
 40
0.01
  9
$DIMTM
 40
0.01
  9
$DIMGAP
 40
0.625
  9
$DIMDSEP
 70
44
  9
$AUNITS
 70
0
  9
$PDMODE
 70
3
  9
$PDSIZE
 40
3.0
  9
$HANDSEED
  5
46A
  9
$TILEMODE
 70
1
  9
$MEASUREMENT
 70
1
  9
$INSUNITS
 70
4
  0
ENDSEC
  0
SECTION
  2
CLASSES
  0
CLASS
  1
ACDBDICTIONARYWDFLT
  2
AcDbDictionaryWithDefault
  3
AutoCAD 2000
 90
0
 91
1
280
0
281
0
  0
CLASS
  1
ACDBPLACEHOLDER
  2
AcDbPlaceHolder
  3
AutoCAD 2000
 90
0
 91
1
280
0
281
0
  0
CLASS
  1
LAYOUT
  2
AcDbLayout
  3
AutoCAD 2000
 90
0
 91
0
280
0
281
0
  0
ENDSEC
  0
SECTION
  2
TABLES
  0
TABLE
  2
VPORT
  5
8
100
AcDbSymbolTable
 70
2
  0
VPORT
  5
1F4
100
AcDbSymbolTableRecord
100
AcDbViewportTableRecord
  2
*ACTIVE
 70
0
 10
0.0
 20
0.0
 11
1.0
 21
1.0
 12
148.5
 22
105.0
 13
0.0
 23
0.0
 14
1.0
 24
1.0
 15
0.0
 25
0.0
 16
0.0
 26
0.0
 36
1.0
 17
0.0
 27
0.0
 37
0.0
 40
210.0
 41
1.4142857143
 42
50.0
 43
0.0
 44
0.0
 50
0.0
 51
0.0
 71
0
 72
100
 73
1
 74
1
 75
0
 76
0
 77
0
 78
0
  0
ENDTAB
  0
TABLE
  2
LTYPE
  5
5
100
AcDbSymbolTable
 70
6
  0
LTYPE
  5
14
100
AcDbSymbolTableRecord
100
AcDbLinetypeTableRecord
  2
BYBLOCK
 70
0
  3

 72
65
 73
0
 40
0.0
  0
LTYPE
  5
15
100
AcDbSymbolTableRecord
100
AcDbLinetypeTableRecord
  2
BYLAYER
 70
0
  3

 72
65
 73
0
 40
0.0
  0
LTYPE
  5
16
100
AcDbSymbolTableRecord
100
AcDbLinetypeTableRecord
  2
CONTINUOUS
 70
64
  3
Solid line
 72
65
 73
0
 40
0.0
  0
LTYPE
  5
1F5
100
AcDbSymbolTableRecord
100
AcDbLinetypeTableRecord
  2
CENTER
 70
64
  3
____ _ ____ _ ____ _ ____ _ ____ _ ____ _ ____
 72
65
 73
4
 40
0.6
 49
0.375
 74
0
 49
-0.075
 74
0
 49
0.075
 74
0
 49
-0.075
 74
0
  0
LTYPE
  5
1F6
100
AcDbSymbolTableRecord
100
AcDbLinetypeTableRecord
  2
HIDDEN
 70
64
  3
- - - - - - - - - - - - - - - - - - - -
 72
65
 73
2
 40
0.2
 49
0.1
 74
0
 49
-0.1
 74
0
  0
LTYPE
  5
1F7
100
AcDbSymbolTableRecord
100
AcDbLinetypeTableRecord
  2
PHANTOM
 70
64
  3
_____ _ _ _____ _ _ _____ _ _ _____
 72
65
 73
6
 40
0.8
 49
0.45
 74
0
 49
-0.05
 74
0
 49
0.1
 74
0
 49
-0.05
 74
0
 49
0.1
 74
0
 49
-0.05
 74
0
  0
LTYPE
  5
1F8
100
AcDbSymbolTableRecord
100
AcDbLinetypeTableRecord
  2
DOT
 70
64
  3
. . . . . . . . . . . . . . . . . . . .
 72
65
 73
2
 40
0.2
 49
0.1
 74
0
 49
-0.1
 74
0
  0
LTYPE
  5
1F9
100
AcDbSymbolTableRecord
100
AcDbLinetypeTableRecord
  2
DASHED
 70
64
  3
- - - - - - - - - - - - - - - - - - - -
 72
65
 73
2
 40
0.2
 49
0.1
 74
0
 49
-0.1
 74
0
  0
ENDTAB
  0
TABLE
  2
LAYER
  5
2
100
AcDbSymbolTable
 70
36
  0
LAYER
  5
10
100
AcDbSymbolTableRecord
100
AcDbLayerTableRecord
  2
0
 70
0
 62
7
  6
CONTINUOUS
370
-3
390
F
  0
LAYER
  5
1FA
100
AcDbSymbolTableRecord
100
AcDbLayerTableRecord
  2
DEFAULT_1
 70
0
 62
7
  6
CENTER
370
-3
390
F
  0
LAYER
  5
1FB
100
AcDbSymbolTableRecord
100
AcDbLayerTableRecord
  2
DEFAULT_2
 70
0
 62
7
  6
HIDDEN
370
-3
390
F
  0
LAYER
  5
1FC
100
AcDbSymbolTableRecord
100
AcDbLayerTableRecord
  2
DEFAULT_3
 70
0
 62
7
  6
PHANTOM
370
-3
390
F
  0
LAYER
  5
1FD
100
AcDbSymbolTableRecord
100
AcDbLayerTableRecord
  2
ASSI
 70
0
 62
7
  6
CONTINUOUS
370
-3
390
F
  0
LAYER
  5
1FE
100
AcDbSymbolTableRecord
100
AcDbLayerTableRecord
  2
COORDINATE
 70
0
 62
7
  6
CONTINUOUS
370
-3
390
F
  0
LAYER
  5
1FF
100
AcDbSymbolTableRecord
100
AcDbLayerTableRecord
  2
COORD_ORIGINE
 70
0
 62
7
  6
CONTINUOUS
370
-3
390
F
  0
LAYER
  5
200
100
AcDbSymbolTableRecord
100
AcDbLayerTableRecord
  2
COPY_PUBLISH
 70
0
 62
7
  6
CONTINUOUS
370
-3
390
F
  0
LAYER
  5
201
100
AcDbSymbolTableRecord
100
AcDbLayerTableRecord
  2
COSMETIC
 70
0
 62
7
  6
CONTINUOUS
370
-3
390
F
  0
LAYER
  5
202
100
AcDbSymbolTableRecord
100
AcDbLayerTableRecord
  2
COSMETICI
 70
0
 62
7
  6
CONTINUOUS
370
-3
390
F
  0
LAYER
  5
203
100
AcDbSymbolTableRecord
100
AcDbLayerTableRecord
  2
CURVA_TASSELLO
 70
0
 62
7
  6
CONTINUOUS
370
-3
390
F
  0
LAYER
  5
204
100
AcDbSymbolTableRecord
100
AcDbLayerTableRecord
  2
CURVE
 70
0
 62
7
  6
CONTINUOUS
370
-3
390
F
  0
LAYER
  5
205
100
AcDbSymbolTableRecord
100
AcDbLayerTableRecord
  2
DRAFT
 70
0
 62
7
  6
CONTINUOUS
370
-3
390
F
  0
LAYER
  5
206
100
AcDbSymbolTableRecord
100
AcDbLayerTableRecord
  2
IMPORT_IGES
 70
0
 62
7
  6
CONTINUOUS
370
-3
390
F
  0
LAYER
  5
207
100
AcDbSymbolTableRecord
100
AcDbLayerTableRecord
  2
INTFCLR_2
 70
0
 62
7
  6
CONTINUOUS
370
-3
390
F
  0
LAYER
  5
208
100
AcDbSymbolTableRecord
100
AcDbLayerTableRecord
  2
INTF_1
 70
0
 62
7
  6
CONTINUOUS
370
-3
390
F
  0
LAYER
  5
209
100
AcDbSymbolTableRecord
100
AcDbLayerTableRecord
  2
INTF_6
 70
0
 62
7
  6
CONTINUOUS
370
-3
390
F
  0
LAYER
  5
20A
100
AcDbSymbolTableRecord
100
AcDbLayerTableRecord
  2
INTF_7
 70
0
 62
7
  6
CONTINUOUS
370
-3
390
F
  0
LAYER
  5
20B
100
AcDbSymbolTableRecord
100
AcDbLayerTableRecord
  2
LINEA_CHIUSURA
 70
0
 62
7
  6
CONTINUOUS
370
-3
390
F
  0
LAYER
  5
20C
100
AcDbSymbolTableRecord
100
AcDbLayerTableRecord
  2
LIVELLO_1
 70
0
 62
7
  6
CONTINUOUS
370
-3
390
F
  0
LAYER
  5
20D
100
AcDbSymbolTableRecord
100
AcDbLayerTableRecord
  2
NOTE
 70
0
 62
7
  6
CONTINUOUS
370
-3
390
F
  0
LAYER
  5
20E
100
AcDbSymbolTableRecord
100
AcDbLayerTableRecord
  2
PIANI
 70
0
 62
7
  6
CONTINUOUS
370
-3
390
F
  0
LAYER
  5
20F
100
AcDbSymbolTableRecord
100
AcDbLayerTableRecord
  2
PIANI_ORIGINE
 70
0
 62
7
  6
CONTINUOUS
370
-3
390
F
  0
LAYER
  5
210
100
AcDbSymbolTableRecord
100
AcDbLayerTableRecord
  2
PIANI_RIFERIMENTO
 70
0
 62
7
  6
CONTINUOUS
370
-3
390
F
  0
LAYER
  5
211
100
AcDbSymbolTableRecord
100
AcDbLayerTableRecord
  2
PUNTI
 70
0
 62
7
  6
CONTINUOUS
370
-3
390
F
  0
LAYER
  5
212
100
AcDbSymbolTableRecord
100
AcDbLayerTableRecord
  2
RACCORDO
 70
0
 62
7
  6
CONTINUOUS
370
-3
390
F
  0
LAYER
  5
213
100
AcDbSymbolTableRecord
100
AcDbLayerTableRecord
  2
RGB__255__255__255__
 70
0
 62
7
  6
CONTINUOUS
370
-3
390
F
  0
LAYER
  5
214
100
AcDbSymbolTableRecord
100
AcDbLayerTableRecord
  2
RGB____0____0____0__
 70
0
 62
7
  6
CONTINUOUS
370
-3
390
F
  0
LAYER
  5
215
100
AcDbSymbolTableRecord
100
AcDbLayerTableRecord
  2
SIMBOLI
 70
0
 62
7
  6
CONTINUOUS
370
-3
390
F
  0
LAYER
  5
216
100
AcDbSymbolTableRecord
100
AcDbLayerTableRecord
  2
SMUSSO
 70
0
 62
7
  6
CONTINUOUS
370
-3
390
F
  0
LAYER
  5
217
100
AcDbSymbolTableRecord
100
AcDbLayerTableRecord
  2
SNAPLINE
 70
0
 62
7
  6
CONTINUOUS
370
-3
390
F
  0
LAYER
  5
218
100
AcDbSymbolTableRecord
100
AcDbLayerTableRecord
  2
SUPERFICI
 70
0
 62
7
  6
CONTINUOUS
370
-3
390
F
  0
LAYER
  5
219
100
AcDbSymbolTableRecord
100
AcDbLayerTableRecord
  2
TRASH
 70
0
 62
7
  6
CONTINUOUS
370
-3
390
F
  0
LAYER
  5
21A
100
AcDbSymbolTableRecord
100
AcDbLayerTableRecord
  2
WHITE
 70
0
 62
7
  6
CONTINUOUS
370
-3
390
F
  0
LAYER
  5
21B
100
AcDbSymbolTableRecord
100
AcDbLayerTableRecord
  2
XSEC_DATUMS
 70
0
 62
7
  6
CONTINUOUS
370
-3
390
F
  0
ENDTAB
  0
TABLE
  2
STYLE
  5
3
100
AcDbSymbolTable
 70
1
  0
STYLE
  5
11
100
AcDbSymbolTableRecord
100
AcDbTextStyleTableRecord
  2
STANDARD
 70
0
 40
0.0
 41
0.8
 50
0.0
 71
0
 42
0.2
  3
txt
  4

  0
STYLE
  5
21C
100
AcDbSymbolTableRecord
100
AcDbTextStyleTableRecord
  2
TEXTSTYLE_1
 70
0
 40
0.0
 41
0.8
 50
0.0
 71
0
 42
0.2
  3
gdt
  4

  0
ENDTAB
  0
TABLE
  2
VIEW
  5
6
100
AcDbSymbolTable
 70
0
  0
ENDTAB
  0
TABLE
  2
UCS
  5
7
100
AcDbSymbolTable
 70
0
  0
ENDTAB
  0
TABLE
  2
APPID
  5
9
100
AcDbSymbolTable
 70
1
  0
APPID
  5
21D
100
AcDbSymbolTableRecord
100
AcDbRegAppTableRecord
  2
ACAD
 70
0
  0
ENDTAB
  0
TABLE
  2
BLOCK_RECORD
  5
1
100
AcDbSymbolTable
 70
0
  0
BLOCK_RECORD
  5
21E
100
AcDbSymbolTableRecord
100
AcDbBlockTableRecord
  2
*Model_Space
  0
BLOCK_RECORD
  5
21F
100
AcDbSymbolTableRecord
100
AcDbBlockTableRecord
  2
*Paper_Space
  0
BLOCK_RECORD
  5
220
100
AcDbSymbolTableRecord
100
AcDbBlockTableRecord
  2
_FILLED
  0
BLOCK_RECORD
  5
221
100
AcDbSymbolTableRecord
100
AcDbBlockTableRecord
  2
*D0
  0
BLOCK_RECORD
  5
222
100
AcDbSymbolTableRecord
100
AcDbBlockTableRecord
  2
*D1
  0
BLOCK_RECORD
  5
223
100
AcDbSymbolTableRecord
100
AcDbBlockTableRecord
  2
*D2
  0
BLOCK_RECORD
  5
224
100
AcDbSymbolTableRecord
100
AcDbBlockTableRecord
  2
*D3
  0
ENDTAB
  0
TABLE
  2
DIMSTYLE
  5
A
100
AcDbSymbolTable
 70
1
100
AcDbDimStyleTable
 71
0
  0
DIMSTYLE
105
225
100
AcDbSymbolTableRecord
100
AcDbDimStyleTableRecord
  2
STANDARD
 70
0
  3

  4

 40
1.0
 41
3.0
 42
0.5
 43
0.38
 44
1.5
 45
0.0
 46
0.0
 47
0.01
 48
0.01
140
3.0
141
0.09
142
0.0
143
25.4
144
1.0
145
0.0
146
1.0
147
0.625
 71
1
 72
0
 73
0
 74
0
 75
0
 76
0
 77
1
 78
8
 79
2
170
0
171
1
172
0
173
0
174
0
175
0
176
0
177
0
178
0
270
2
179
2
271
2
272
2
273
2
274
2
275
0
280
0
281
0
282
0
283
1
284
8
285
0
286
0
287
3
288
0
340
11
278
44
341
220
342
220
343
220
344
220
  0
DIMSTYLE
105
226
100
AcDbSymbolTableRecord
100
AcDbDimStyleTableRecord
  2
DIMSTYLE_1
 70
0
  3

  4

 40
1.0
 41
3.0
 42
0.5
 43
0.38
 44
1.5
 45
0.0
 46
0.0
 47
0.0
 48
0.0
140
3.0
141
0.09
142
0.0
143
25.4
144
1.0
145
0.0
146
1.0
147
0.75
 71
0
 72
0
 73
0
 74
0
 75
0
 76
0
 77
1
 78
8
 79
2
170
0
171
1
172
0
173
0
174
0
175
0
176
0
177
0
178
0
270
2
179
2
271
2
272
2
273
2
274
2
275
0
280
0
281
0
282
0
283
1
284
8
285
0
286
0
287
3
288
0
340
11
278
44
341
220
342
220
343
220
344
220
  0
ENDTAB
  0
ENDSEC
  0
SECTION
  2
BLOCKS
  0
BLOCK
  5
20
100
AcDbEntity
  8
0
100
AcDbBlockBegin
  2
*Model_Space
 70
0
 10
0.0
 20
0.0
 30
0.0
  3
*Model_Space
  1

  0
ENDBLK
  5
21
100
AcDbEntity
  8
0
100
AcDbBlockEnd
  0
BLOCK
  5
1C
100
AcDbEntity
  8
0
100
AcDbBlockBegin
  2
*Paper_Space
 70
0
 10
0.0
 20
0.0
 30
0.0
  3
*Paper_Space
  1

  0
ENDBLK
  5
1D
100
AcDbEntity
  8
0
100
AcDbBlockEnd
  0
BLOCK
  5
227
100
AcDbEntity
  8
0
100
AcDbBlockBegin
  2
_FILLED
 70
64
 10
0.0
 20
0.0
  3
_FILLED
  1

  0
SOLID
  5
228
100
AcDbEntity
  8
0
  6
BYBLOCK
 62
0
100
AcDbTrace
 10
0.0
 20
0.0
 11
-1.0
 21
0.3166666667
 12
-1.0
 22
-0.3166666667
 13
-1.0
 23
-0.3166666667
  0
ENDBLK
  5
229
100
AcDbEntity
  8
0
  6
BYBLOCK
 62
0
100
AcDbBlockEnd
  0
BLOCK
  5
22A
100
AcDbEntity
  8
0
100
AcDbBlockBegin
 62
7
  6
CONTINUOUS
  2
*D0
 70
65
 10
0.0
 20
0.0
  3
*D0
  1

  0
MTEXT
  5
22B
100
AcDbEntity
  8
0
100
AcDbMText
 62
7
  6
CONTINUOUS
  7
STANDARD
 71
2
 72
1
 10
0.0
 20
58.75
 30
0.0
 11
1.0
 21
0.0
 31
0.0
 73
2
 44
0.9
  1
{\ftxt;\W0.0001;\H0.0001;\~}{\ftxt;\W3.4285714286;\H3.0; }{\ftxt;\W0.0001;\H0.0001;\~}
 40
3.0
 41
15.4285714286
  0
LINE
  5
22C
100
AcDbEntity
  8
0
100
AcDbLine
 62
7
  6
CONTINUOUS
 10
-72.25
 20
44.4993911979
 11
-72.25
 21
56.5
  0
LINE
  5
22D
100
AcDbEntity
  8
0
100
AcDbLine
 62
7
  6
CONTINUOUS
 10
72.25
 20
44.4993911979
 11
72.25
 21
56.5
  0
LINE
  5
22E
100
AcDbEntity
  8
0
100
AcDbLine
 62
7
  6
CONTINUOUS
 10
-72.25
 20
55.0
 11
0.0
 21
55.0
  0
LINE
  5
22F
100
AcDbEntity
  8
0
100
AcDbLine
 62
7
  6
CONTINUOUS
 10
72.25
 20
55.0
 11
0.0
 21
55.0
  0
INSERT
  5
230
100
AcDbEntity
  8
0
100
AcDbBlockReference
 62
7
  6
CONTINUOUS
  2
_FILLED
 10
-72.25
 20
55.0
 41
3.0
 42
3.0
 43
3.0
 50
180.0
  0
INSERT
  5
231
100
AcDbEntity
  8
0
100
AcDbBlockReference
 62
7
  6
CONTINUOUS
  2
_FILLED
 10
72.25
 20
55.0
 41
3.0
 42
3.0
 43
3.0
 50
0.0
  0
ENDBLK
  5
232
100
AcDbEntity
  8
0
  6
BYBLOCK
 62
0
100
AcDbBlockEnd
  0
BLOCK
  5
233
100
AcDbEntity
  8
0
100
AcDbBlockBegin
 62
7
  6
CONTINUOUS
  2
*D1
 70
65
 10
0.0
 20
0.0
  3
*D1
  1

  0
MTEXT
  5
234
100
AcDbEntity
  8
0
100
AcDbMText
 62
7
  6
CONTINUOUS
  7
STANDARD
 71
2
 72
1
 10
78.5
 20
0.0
 30
0.0
 11
0.0
 21
1.0
 31
0.0
 73
2
 44
0.9
  1
{\ftxt;\W0.0001;\H0.0001;\~}{\ftxt;\W1.5714285714;\H3.0; }{\ftxt;\W0.0001;\H0.0001;\~}
 40
3.0
 41
7.0714285714
  0
LINE
  5
235
100
AcDbEntity
  8
0
100
AcDbLine
 62
7
  6
CONTINUOUS
 10
71.7493911979
 20
45.0
 11
83.75
 21
45.0
  0
LINE
  5
236
100
AcDbEntity
  8
0
100
AcDbLine
 62
7
  6
CONTINUOUS
 10
71.7493911979
 20
-45.0
 11
83.75
 21
-45.0
  0
LINE
  5
237
100
AcDbEntity
  8
0
100
AcDbLine
 62
7
  6
CONTINUOUS
 10
82.25
 20
45.0
 11
82.25
 21
0.0
  0
LINE
  5
238
100
AcDbEntity
  8
0
100
AcDbLine
 62
7
  6
CONTINUOUS
 10
82.25
 20
-45.0
 11
82.25
 21
0.0
  0
INSERT
  5
239
100
AcDbEntity
  8
0
100
AcDbBlockReference
 62
7
  6
CONTINUOUS
  2
_FILLED
 10
82.25
 20
45.0
 41
3.0
 42
3.0
 43
3.0
 50
90.0
  0
INSERT
  5
23A
100
AcDbEntity
  8
0
100
AcDbBlockReference
 62
7
  6
CONTINUOUS
  2
_FILLED
 10
82.25
 20
-45.0
 41
3.0
 42
3.0
 43
3.0
 50
270.0
  0
ENDBLK
  5
23B
100
AcDbEntity
  8
0
  6
BYBLOCK
 62
0
100
AcDbBlockEnd
  0
BLOCK
  5
23C
100
AcDbEntity
  8
0
100
AcDbBlockBegin
 62
7
  6
CONTINUOUS
  2
*D2
 70
65
 10
0.0
 20
0.0
  3
*D2
  1

  0
MTEXT
  5
23D
100
AcDbEntity
  8
0
100
AcDbMText
 62
7
  6
CONTINUOUS
  7
STANDARD
 71
3
 72
1
 10
-118.0831168403
 20
58.75
 30
0.0
 11
1.0
 21
0.0
 31
0.0
 73
2
 44
0.9
  1
{\ftxt;\W0.0001;\H0.0001;\~}{\ftxt;\W2.6428571429;\H3.0; }{\ftxt;\W0.0001;\H0.0001;\~}
 40
3.0
 41
11.8928571429
  0
LINE
  5
23E
100
AcDbEntity
  8
0
100
AcDbLine
 62
7
  6
CONTINUOUS
 10
-107.9802424926
 20
41.7038975196
 11
-107.9802424926
 21
56.5
  0
LINE
  5
23F
100
AcDbEntity
  8
0
100
AcDbLine
 62
7
  6
CONTINUOUS
 10
-115.1302424926
 20
43.8767374102
 11
-115.1302424926
 21
56.5
  0
LINE
  5
240
100
AcDbEntity
  8
0
100
AcDbLine
 62
7
  6
CONTINUOUS
 10
-107.9802424926
 20
55.0
 11
-111.5552424926
 21
55.0
  0
LINE
  5
241
100
AcDbEntity
  8
0
100
AcDbLine
 62
7
  6
CONTINUOUS
 10
-115.1302424926
 20
55.0
 11
-111.5552424926
 21
55.0
  0
LINE
  5
242
100
AcDbEntity
  8
0
100
AcDbLine
 62
7
  6
CONTINUOUS
 10
-111.5552424926
 20
55.0
 11
-126.0116882689
 21
55.0
  0
INSERT
  5
243
100
AcDbEntity
  8
0
100
AcDbBlockReference
 62
7
  6
CONTINUOUS
  2
_FILLED
 10
-107.9802424926
 20
55.0
 41
3.0
 42
3.0
 43
3.0
  0
INSERT
  5
244
100
AcDbEntity
  8
0
100
AcDbBlockReference
 62
7
  6
CONTINUOUS
  2
_FILLED
 10
-115.1302424926
 20
55.0
 41
3.0
 42
3.0
 43
3.0
 50
180.0
  0
ENDBLK
  5
245
100
AcDbEntity
  8
0
  6
BYBLOCK
 62
0
100
AcDbBlockEnd
  0
BLOCK
  5
246
100
AcDbEntity
  8
0
100
AcDbBlockBegin
 62
7
  6
CONTINUOUS
  2
*D3
 70
65
 10
0.0
 20
0.0
  3
*D3
  1

  0
MTEXT
  5
247
100
AcDbEntity
  8
0
100
AcDbMText
 62
7
  6
CONTINUOUS
  7
STANDARD
 71
3
 72
1
 10
-118.2736185195
 20
66.75
 30
0.0
 11
1.0
 21
0.0
 31
0.0
 73
2
 44
0.9
  1
{\ftxt;\W0.0001;\H0.0001;\~}{\ftxt;\W3.2142857143;\H3.0; }{\ftxt;\W0.0001;\H0.0001;\~}
 40
3.0
 41
14.4642857143
  0
LINE
  5
248
100
AcDbEntity
  8
0
100
AcDbLine
 62
7
  6
CONTINUOUS
 10
-115.1302424926
 20
43.8767374102
 11
-115.1302424926
 21
64.5
  0
LINE
  5
249
100
AcDbEntity
  8
0
100
AcDbLine
 62
7
  6
CONTINUOUS
 10
-104.9802424926
 20
26.5463167932
 11
-104.9802424926
 21
64.5
  0
LINE
  5
24A
100
AcDbEntity
  8
0
100
AcDbLine
 62
7
  6
CONTINUOUS
 10
-115.1302424926
 20
63.0
 11
-110.0552424926
 21
63.0
  0
LINE
  5
24B
100
AcDbEntity
  8
0
100
AcDbLine
 62
7
  6
CONTINUOUS
 10
-110.0552424926
 20
63.0
 11
-127.9164756624
 21
63.0
  0
LINE
  5
24C
100
AcDbEntity
  8
0
100
AcDbLine
 62
7
  6
CONTINUOUS
 10
-104.9802424926
 20
63.0
 11
-110.0552424926
 21
63.0
  0
INSERT
  5
24D
100
AcDbEntity
  8
0
100
AcDbBlockReference
 62
7
  6
CONTINUOUS
  2
_FILLED
 10
-115.1302424926
 20
63.0
 41
3.0
 42
3.0
 43
3.0
 50
180.0
  0
INSERT
  5
24E
100
AcDbEntity
  8
0
100
AcDbBlockReference
 62
7
  6
CONTINUOUS
  2
_FILLED
 10
-104.9802424926
 20
63.0
 41
3.0
 42
3.0
 43
3.0
  0
ENDBLK
  5
24F
100
AcDbEntity
  8
0
  6
BYBLOCK
 62
0
100
AcDbBlockEnd
  0
ENDSEC
  0
SECTION
  2
ENTITIES
  0
DIMENSION
  5
250
100
AcDbEntity
  8
0
100
AcDbDimension
 62
7
  6
CONTINUOUS
  2
*D0
 10
72.25
 20
55.0
 11
-0.4285713773
 21
55.0
 70
160
 71
2
 72
2
 41
0.9
 42
144.5
  1
{\ftxt;\W0.0001;\H0.0001;\~}{\ftxt;\W3.4285714286;\H3.0; }{\ftxt;\W0.0001;\H0.0001;\~}
  3
DIMSTYLE_1
100
AcDbAlignedDimension
 13
-72.25
 23
43.9993911979
 14
72.25
 24
43.9993911979
100
AcDbRotatedDimension
  0
DIMENSION
  5
251
100
AcDbEntity
  8
0
100
AcDbDimension
 62
7
  6
CONTINUOUS
  2
*D1
 10
82.25
 20
-45.0
 11
82.25
 21
-0.4285712171
 70
160
 71
2
 72
2
 41
0.9
 42
90.0
  1
{\ftxt;\W0.0001;\H0.0001;\~}{\ftxt;\W1.5714285714;\H3.0; }{\ftxt;\W0.0001;\H0.0001;\~}
  3
DIMSTYLE_1
100
AcDbAlignedDimension
 13
71.2493911979
 23
45.0
 14
71.2493911979
 24
-45.0
 50
270.0
100
AcDbRotatedDimension
  0
DIMENSION
  5
252
100
AcDbEntity
  8
0
100
AcDbDimension
 62
7
  6
CONTINUOUS
  2
*D2
 10
-115.1302424926
 20
55.0
 11
-122.4759732056
 21
55.0
 70
160
 71
3
 72
2
 41
0.9
 42
7.15
  1
{\ftxt;\W0.0001;\H0.0001;\~}{\ftxt;\W2.6428571429;\H3.0; }{\ftxt;\W0.0001;\H0.0001;\~}
  3
DIMSTYLE_1
100
AcDbAlignedDimension
 13
-107.9802424926
 23
41.2038975196
 14
-115.1302424926
 24
43.3767374102
 50
180.0
100
AcDbRotatedDimension
  0
DIMENSION
  5
253
100
AcDbEntity
  8
0
100
AcDbDimension
 62
7
  6
CONTINUOUS
  2
*D3
 10
-104.9802424926
 20
63.0
 11
-123.5236169586
 21
63.0
 70
160
 71
3
 72
2
 41
0.9
 42
10.15
  1
{\ftxt;\W0.0001;\H0.0001;\~}{\ftxt;\W3.2142857143;\H3.0; }{\ftxt;\W0.0001;\H0.0001;\~}
  3
DIMSTYLE_1
100
AcDbAlignedDimension
 13
-115.1302424926
 23
43.3767374102
 14
-104.9802424926
 24
26.0463167932
100
AcDbRotatedDimension
  0
LINE
  5
254
100
AcDbEntity
  8
ASSI
100
AcDbLine
 62
7
  6
CONTINUOUS
 10
-71.0699854699
 20
44.7906993223
 11
-71.0555596544
 21
44.8061684565
  0
LINE
  5
255
100
AcDbEntity
  8
ASSI
100
AcDbLine
 62
7
  6
CONTINUOUS
 10
-72.25
 20
43.9993911979
 11
-71.2493911979
 21
45.0
  0
LINE
  5
256
100
AcDbEntity
  8
ASSI
100
AcDbLine
 62
7
  6
CONTINUOUS
 10
-71.0699854699
 20
44.7906993223
 11
-72.0406993223
 21
43.8199854699
  0
LINE
  5
257
100
AcDbEntity
  8
ASSI
100
AcDbLine
 62
7
  6
CONTINUOUS
 10
-70.6267374102
 20
43.7712689598
 11
-71.0212689598
 21
43.3767374102
  0
LINE
  5
258
100
AcDbEntity
  8
ASSI
100
AcDbLine
 62
7
  6
CONTINUOUS
 10
-72.0561684565
 20
43.8055596544
 11
-72.0406993223
 21
43.8199854699
  0
LINE
  5
259
100
AcDbEntity
  8
ASSI
100
AcDbLine
 62
7
  6
CONTINUOUS
 10
-72.0406993223
 20
-43.8199854699
 11
-72.0561684565
 21
-43.8055596544
  0
LINE
  5
25A
100
AcDbEntity
  8
ASSI
100
AcDbLine
 62
7
  6
CONTINUOUS
 10
-71.2493911979
 20
-45.0
 11
-72.25
 21
-43.9993911979
  0
LINE
  5
25B
100
AcDbEntity
  8
ASSI
100
AcDbLine
 62
7
  6
CONTINUOUS
 10
-72.0406993223
 20
-43.8199854699
 11
-71.0699854699
 21
-44.7906993223
  0
LINE
  5
25C
100
AcDbEntity
  8
ASSI
100
AcDbLine
 62
7
  6
CONTINUOUS
 10
-71.0212689598
 20
-43.3767374102
 11
-70.6267374102
 21
-43.7712689598
  0
LINE
  5
25D
100
AcDbEntity
  8
ASSI
100
AcDbLine
 62
7
  6
CONTINUOUS
 10
-71.0555596544
 20
-44.8061684565
 11
-71.0699854699
 21
-44.7906993223
  0
LINE
  5
25E
100
AcDbEntity
  8
ASSI
100
AcDbLine
 62
7
  6
CONTINUOUS
 10
-72.25
 20
43.9993911979
 11
-72.25
 21
-43.9993911979
  0
LINE
  5
25F
100
AcDbEntity
  8
ASSI
100
AcDbLine
 62
7
  6
CONTINUOUS
 10
-72.0561684565
 20
43.8055596544
 11
-72.0561684565
 21
-43.8055596544
  0
LINE
  5
260
100
AcDbEntity
  8
ASSI
100
AcDbLine
 62
7
  6
CONTINUOUS
 10
-71.0212689598
 20
43.3767374102
 11
-71.0212689598
 21
-43.3767374102
  0
LINE
  5
261
100
AcDbEntity
  8
ASSI
100
AcDbLine
 62
7
  6
CONTINUOUS
 10
-70.6267374102
 20
-43.7712689598
 11
-71.0699854699
 21
-44.7906993223
  0
LINE
  5
262
100
AcDbEntity
  8
ASSI
100
AcDbLine
 62
7
  6
CONTINUOUS
 10
-71.2493911979
 20
-45.0
 11
71.2493911979
 21
-45.0
  0
LINE
  5
263
100
AcDbEntity
  8
ASSI
100
AcDbLine
 62
7
  6
CONTINUOUS
 10
-71.0555596544
 20
-44.8061684565
 11
71.0555596544
 21
-44.8061684565
  0
LINE
  5
264
100
AcDbEntity
  8
ASSI
100
AcDbLine
 62
7
  6
CONTINUOUS
 10
-70.6267374102
 20
43.7712689598
 11
-71.0699854699
 21
44.7906993223
  0
LWPOLYLINE
  5
265
100
AcDbEntity
  8
0
100
AcDbPolyline
 62
7
  6
CONTINUOUS
 90
3
 70
0
 43
0.3500000006
 10
-5.1428570938
 20
57.8928615417
 10
-4.2857143393
 20
58.7499994812
 10
-4.2857143393
 20
55.7499985657
  0
LINE
  5
266
100
AcDbEntity
  8
ASSI
100
AcDbLine
 62
7
  6
CONTINUOUS
 10
-70.6267374102
 20
-43.7712689598
 11
70.6267374102
 21
-43.7712689598
  0
LINE
  5
267
100
AcDbEntity
  8
SMUSSO
100
AcDbLine
 62
7
  6
CONTINUOUS
 10
-38.45
 20
-2.0
 11
-38.45
 21
2.0
  0
LINE
  5
268
100
AcDbEntity
  8
ASSI
100
AcDbLine
 62
7
  6
CONTINUOUS
 10
-38.45
 20
-2.0
 11
-38.45
 21
2.0
  0
LINE
  5
269
100
AcDbEntity
  8
SMUSSO
100
AcDbLine
 62
7
  6
CONTINUOUS
 10
-37.25
 20
-2.0
 11
-37.25
 21
2.0
  0
LINE
  5
26A
100
AcDbEntity
  8
ASSI
100
AcDbLine
 62
7
  6
CONTINUOUS
 10
-37.25
 20
-2.0
 11
-37.25
 21
2.0
  0
LINE
  5
26B
100
AcDbEntity
  8
CURVE
100
AcDbLine
 62
250
  6
CONTINUOUS
 10
72.110131217
 20
-36.257398
 11
72.1973759453
 21
-36.257398
  0
LINE
  5
26C
100
AcDbEntity
  8
CURVE
100
AcDbLine
 62
250
  6
CONTINUOUS
 10
72.1973759453
 20
-35.735605
 11
72.110131217
 21
-35.735605
  0
LINE
  5
26D
100
AcDbEntity
  8
SMUSSO
100
AcDbLine
 62
7
  6
CONTINUOUS
 10
-30.25
 20
2.0
 11
-30.25
 21
-2.0
  0
LINE
  5
26E
100
AcDbEntity
  8
ASSI
100
AcDbLine
 62
7
  6
CONTINUOUS
 10
-30.25
 20
2.0
 11
-30.25
 21
-2.0
  0
LINE
  5
26F
100
AcDbEntity
  8
SMUSSO
100
AcDbLine
 62
7
  6
CONTINUOUS
 10
-29.05
 20
2.0
 11
-29.05
 21
-2.0
  0
LINE
  5
270
100
AcDbEntity
  8
ASSI
100
AcDbLine
 62
7
  6
CONTINUOUS
 10
-29.05
 20
2.0
 11
-29.05
 21
-2.0
  0
LINE
  5
271
100
AcDbEntity
  8
CURVE
100
AcDbLine
 62
250
  6
CONTINUOUS
 10
72.1111556794
 20
-30.6285551388
 11
72.1973759458
 21
-30.6285551388
  0
LINE
  5
272
100
AcDbEntity
  8
CURVE
100
AcDbLine
 62
250
  6
CONTINUOUS
 10
72.1489474951
 20
-30.126163664
 11
72.1249985478
 21
-30.126163664
  0
LINE
  5
273
100
AcDbEntity
  8
CURVE
100
AcDbLine
 62
250
  6
CONTINUOUS
 10
72.1973759458
 20
-30.1088617972
 11
72.1632352194
 21
-30.1088617972
  0
LINE
  5
274
100
AcDbEntity
  8
CURVE
100
AcDbLine
 62
250
  6
CONTINUOUS
 10
72.1566533149
 20
-29.2870512436
 11
72.1561378054
 21
-29.2870512436
  0
LINE
  5
275
100
AcDbEntity
  8
ASSI
100
AcDbLine
 62
7
  6
CONTINUOUS
 10
-72.0561684565
 20
-43.8055596544
 11
-72.25
 21
-43.9993911979
  0
LINE
  5
276
100
AcDbEntity
  8
ASSI
100
AcDbLine
 62
7
  6
CONTINUOUS
 10
-71.0555596544
 20
-44.8061684565
 11
-71.2493911979
 21
-45.0
  0
LINE
  5
277
100
AcDbEntity
  8
ASSI
100
AcDbLine
 62
7
  6
CONTINUOUS
 10
-72.0561684565
 20
43.8055596544
 11
-72.25
 21
43.9993911979
  0
LINE
  5
278
100
AcDbEntity
  8
ASSI
100
AcDbLine
 62
7
  6
CONTINUOUS
 10
-71.0555596544
 20
44.8061684565
 11
-71.2493911979
 21
45.0
  0
LINE
  5
279
100
AcDbEntity
  8
SMUSSO
100
AcDbLine
 62
7
  6
CONTINUOUS
 10
-15.95
 20
-2.0
 11
-15.95
 21
2.0
  0
LINE
  5
27A
100
AcDbEntity
  8
ASSI
100
AcDbLine
 62
7
  6
CONTINUOUS
 10
-15.95
 20
-2.0
 11
-15.95
 21
2.0
  0
LINE
  5
27B
100
AcDbEntity
  8
SMUSSO
100
AcDbLine
 62
7
  6
CONTINUOUS
 10
-14.75
 20
-2.0
 11
-14.75
 21
2.0
  0
LINE
  5
27C
100
AcDbEntity
  8
ASSI
100
AcDbLine
 62
7
  6
CONTINUOUS
 10
-14.75
 20
-2.0
 11
-14.75
 21
2.0
  0
LWPOLYLINE
  5
27D
100
AcDbEntity
  8
0
100
AcDbPolyline
 62
7
  6
CONTINUOUS
 90
3
 70
0
 43
0.3500000006
 10
2.0000000439
 20
56.0357142334
 10
1.9285714102
 20
55.8214297485
 10
1.7857142844
 20
55.5357140808
  0
LINE
  5
27E
100
AcDbEntity
  8
ASSI
100
AcDbLine
 62
7
  6
CONTINUOUS
 10
71.0212689598
 20
43.3767374102
 11
72.0406993223
 21
43.8199854699
  0
LINE
  5
27F
100
AcDbEntity
  8
ASSI
100
AcDbLine
 62
7
  6
CONTINUOUS
 10
71.0212689598
 20
-43.3767374102
 11
72.0406993223
 21
-43.8199854699
  0
LINE
  5
280
100
AcDbEntity
  8
SMUSSO
100
AcDbLine
 62
7
  6
CONTINUOUS
 10
-7.75
 20
2.0
 11
-7.75
 21
-2.0
  0
LINE
  5
281
100
AcDbEntity
  8
ASSI
100
AcDbLine
 62
7
  6
CONTINUOUS
 10
-7.75
 20
2.0
 11
-7.75
 21
-2.0
  0
LINE
  5
282
100
AcDbEntity
  8
SMUSSO
100
AcDbLine
 62
7
  6
CONTINUOUS
 10
-6.55
 20
2.0
 11
-6.55
 21
-2.0
  0
LINE
  5
283
100
AcDbEntity
  8
ASSI
100
AcDbLine
 62
7
  6
CONTINUOUS
 10
-6.55
 20
2.0
 11
-6.55
 21
-2.0
  0
LWPOLYLINE
  5
284
100
AcDbEntity
  8
0
100
AcDbPolyline
 62
7
  6
CONTINUOUS
 90
2
 70
0
 43
0.3500000006
 10
-2.4285715628
 20
55.7499985657
 10
-2.4285715628
 20
57.2499990234
  0
LWPOLYLINE
  5
285
100
AcDbEntity
  8
0
100
AcDbPolyline
 62
7
  6
CONTINUOUS
 90
2
 70
0
 43
0.3500000006
 10
-0.0714285717
 20
55.7499985657
 10
-0.0714285717
 20
57.2499990234
  0
LINE
  5
286
100
AcDbEntity
  8
SMUSSO
100
AcDbLine
 62
250
  6
CONTINUOUS
 10
-38.45
 20
-2.0
 11
-37.25
 21
-2.0
  0
LINE
  5
287
100
AcDbEntity
  8
ASSI
100
AcDbLine
 62
250
  6
CONTINUOUS
 10
-38.45
 20
-2.0
 11
-37.25
 21
-2.0
  0
LINE
  5
288
100
AcDbEntity
  8
SMUSSO
100
AcDbLine
 62
250
  6
CONTINUOUS
 10
38.45
 20
-2.0
 11
37.25
 21
-2.0
  0
LINE
  5
289
100
AcDbEntity
  8
ASSI
100
AcDbLine
 62
250
  6
CONTINUOUS
 10
38.45
 20
-2.0
 11
37.25
 21
-2.0
  0
LINE
  5
28A
100
AcDbEntity
  8
SMUSSO
100
AcDbLine
 62
250
  6
CONTINUOUS
 10
-15.95
 20
-2.0
 11
-14.75
 21
-2.0
  0
LINE
  5
28B
100
AcDbEntity
  8
ASSI
100
AcDbLine
 62
250
  6
CONTINUOUS
 10
-15.95
 20
-2.0
 11
-14.75
 21
-2.0
  0
LINE
  5
28C
100
AcDbEntity
  8
SMUSSO
100
AcDbLine
 62
250
  6
CONTINUOUS
 10
15.95
 20
-2.0
 11
14.75
 21
-2.0
  0
LINE
  5
28D
100
AcDbEntity
  8
ASSI
100
AcDbLine
 62
250
  6
CONTINUOUS
 10
15.95
 20
-2.0
 11
14.75
 21
-2.0
  0
LINE
  5
28E
100
AcDbEntity
  8
SMUSSO
100
AcDbLine
 62
250
  6
CONTINUOUS
 10
6.55
 20
-2.0
 11
7.75
 21
-2.0
  0
LINE
  5
28F
100
AcDbEntity
  8
ASSI
100
AcDbLine
 62
250
  6
CONTINUOUS
 10
6.55
 20
-2.0
 11
7.75
 21
-2.0
  0
LINE
  5
290
100
AcDbEntity
  8
SMUSSO
100
AcDbLine
 62
250
  6
CONTINUOUS
 10
-6.55
 20
-2.0
 11
-7.75
 21
-2.0
  0
LINE
  5
291
100
AcDbEntity
  8
ASSI
100
AcDbLine
 62
250
  6
CONTINUOUS
 10
-6.55
 20
-2.0
 11
-7.75
 21
-2.0
  0
LINE
  5
292
100
AcDbEntity
  8
SMUSSO
100
AcDbLine
 62
250
  6
CONTINUOUS
 10
29.05
 20
-2.0
 11
30.25
 21
-2.0
  0
LINE
  5
293
100
AcDbEntity
  8
ASSI
100
AcDbLine
 62
250
  6
CONTINUOUS
 10
29.05
 20
-2.0
 11
30.25
 21
-2.0
  0
LINE
  5
294
100
AcDbEntity
  8
SMUSSO
100
AcDbLine
 62
250
  6
CONTINUOUS
 10
-29.05
 20
-2.0
 11
-30.25
 21
-2.0
  0
LINE
  5
295
100
AcDbEntity
  8
ASSI
100
AcDbLine
 62
250
  6
CONTINUOUS
 10
-29.05
 20
-2.0
 11
-30.25
 21
-2.0
  0
LWPOLYLINE
  5
296
100
AcDbEntity
  8
0
100
AcDbPolyline
 62
7
  6
CONTINUOUS
 90
13
 70
0
 43
0.3500000006
 10
80.6428597412
 20
-0.0000003204
 10
79.3571437683
 20
-0.0000003204
 10
78.9285747986
 20
0.2142864304
 10
78.4999967651
 20
0.642857666
 10
78.4999967651
 20
0.8571421509
 10
78.9285747986
 20
1.2857133865
 10
79.3571437683
 20
1.5000001373
 10
80.6428597412
 20
1.5000001373
 10
81.0714287109
 20
1.2857133865
 10
81.4999976807
 20
0.8571421509
 10
81.4999976807
 20
0.642857666
 10
81.0714287109
 20
0.2142864304
 10
80.6428597412
 20
-0.0000003204
  0
LINE
  5
297
100
AcDbEntity
  8
SMUSSO
100
AcDbLine
 62
250
  6
CONTINUOUS
 10
-38.45
 20
2.0
 11
-37.25
 21
2.0
  0
LINE
  5
298
100
AcDbEntity
  8
ASSI
100
AcDbLine
 62
250
  6
CONTINUOUS
 10
-38.45
 20
2.0
 11
-37.25
 21
2.0
  0
LINE
  5
299
100
AcDbEntity
  8
SMUSSO
100
AcDbLine
 62
250
  6
CONTINUOUS
 10
38.45
 20
2.0
 11
37.25
 21
2.0
  0
LINE
  5
29A
100
AcDbEntity
  8
ASSI
100
AcDbLine
 62
250
  6
CONTINUOUS
 10
38.45
 20
2.0
 11
37.25
 21
2.0
  0
LINE
  5
29B
100
AcDbEntity
  8
SMUSSO
100
AcDbLine
 62
250
  6
CONTINUOUS
 10
-15.95
 20
2.0
 11
-14.75
 21
2.0
  0
LINE
  5
29C
100
AcDbEntity
  8
ASSI
100
AcDbLine
 62
250
  6
CONTINUOUS
 10
-15.95
 20
2.0
 11
-14.75
 21
2.0
  0
LINE
  5
29D
100
AcDbEntity
  8
SMUSSO
100
AcDbLine
 62
250
  6
CONTINUOUS
 10
15.95
 20
2.0
 11
14.75
 21
2.0
  0
LINE
  5
29E
100
AcDbEntity
  8
ASSI
100
AcDbLine
 62
250
  6
CONTINUOUS
 10
15.95
 20
2.0
 11
14.75
 21
2.0
  0
LINE
  5
29F
100
AcDbEntity
  8
SMUSSO
100
AcDbLine
 62
250
  6
CONTINUOUS
 10
6.55
 20
2.0
 11
7.75
 21
2.0
  0
LINE
  5
2A0
100
AcDbEntity
  8
ASSI
100
AcDbLine
 62
250
  6
CONTINUOUS
 10
6.55
 20
2.0
 11
7.75
 21
2.0
  0
LINE
  5
2A1
100
AcDbEntity
  8
SMUSSO
100
AcDbLine
 62
250
  6
CONTINUOUS
 10
-6.55
 20
2.0
 11
-7.75
 21
2.0
  0
LINE
  5
2A2
100
AcDbEntity
  8
ASSI
100
AcDbLine
 62
250
  6
CONTINUOUS
 10
-6.55
 20
2.0
 11
-7.75
 21
2.0
  0
LINE
  5
2A3
100
AcDbEntity
  8
SMUSSO
100
AcDbLine
 62
250
  6
CONTINUOUS
 10
29.05
 20
2.0
 11
30.25
 21
2.0
  0
LINE
  5
2A4
100
AcDbEntity
  8
ASSI
100
AcDbLine
 62
250
  6
CONTINUOUS
 10
29.05
 20
2.0
 11
30.25
 21
2.0
  0
LINE
  5
2A5
100
AcDbEntity
  8
SMUSSO
100
AcDbLine
 62
250
  6
CONTINUOUS
 10
-29.05
 20
2.0
 11
-30.25
 21
2.0
  0
LINE
  5
2A6
100
AcDbEntity
  8
ASSI
100
AcDbLine
 62
250
  6
CONTINUOUS
 10
-29.05
 20
2.0
 11
-30.25
 21
2.0
  0
LINE
  5
2A7
100
AcDbEntity
  8
SMUSSO
100
AcDbLine
 62
7
  6
CONTINUOUS
 10
6.55
 20
-2.0
 11
6.55
 21
2.0
  0
LINE
  5
2A8
100
AcDbEntity
  8
ASSI
100
AcDbLine
 62
7
  6
CONTINUOUS
 10
6.55
 20
-2.0
 11
6.55
 21
2.0
  0
LINE
  5
2A9
100
AcDbEntity
  8
SMUSSO
100
AcDbLine
 62
7
  6
CONTINUOUS
 10
7.75
 20
-2.0
 11
7.75
 21
2.0
  0
LINE
  5
2AA
100
AcDbEntity
  8
ASSI
100
AcDbLine
 62
7
  6
CONTINUOUS
 10
7.75
 20
-2.0
 11
7.75
 21
2.0
  0
LINE
  5
2AB
100
AcDbEntity
  8
ASSI
100
AcDbLine
 62
7
  6
CONTINUOUS
 10
-71.0212689598
 20
-43.3767374102
 11
-72.0406993223
 21
-43.8199854699
  0
LINE
  5
2AC
100
AcDbEntity
  8
ASSI
100
AcDbLine
 62
7
  6
CONTINUOUS
 10
-71.0212689598
 20
43.3767374102
 11
-72.0406993223
 21
43.8199854699
  0
LINE
  5
2AD
100
AcDbEntity
  8
SMUSSO
100
AcDbLine
 62
7
  6
CONTINUOUS
 10
14.75
 20
2.0
 11
14.75
 21
-2.0
  0
LINE
  5
2AE
100
AcDbEntity
  8
ASSI
100
AcDbLine
 62
7
  6
CONTINUOUS
 10
14.75
 20
2.0
 11
14.75
 21
-2.0
  0
LINE
  5
2AF
100
AcDbEntity
  8
SMUSSO
100
AcDbLine
 62
7
  6
CONTINUOUS
 10
15.95
 20
2.0
 11
15.95
 21
-2.0
  0
LINE
  5
2B0
100
AcDbEntity
  8
ASSI
100
AcDbLine
 62
7
  6
CONTINUOUS
 10
15.95
 20
2.0
 11
15.95
 21
-2.0
  0
LINE
  5
2B1
100
AcDbEntity
  8
ASSI
100
AcDbLine
 62
7
  6
CONTINUOUS
 10
71.0555596544
 20
44.8061684565
 11
71.2493911979
 21
45.0
  0
LINE
  5
2B2
100
AcDbEntity
  8
ASSI
100
AcDbLine
 62
7
  6
CONTINUOUS
 10
72.0561684565
 20
43.8055596544
 11
72.25
 21
43.9993911979
  0
LINE
  5
2B3
100
AcDbEntity
  8
ASSI
100
AcDbLine
 62
7
  6
CONTINUOUS
 10
71.0555596544
 20
-44.8061684565
 11
71.2493911979
 21
-45.0
  0
LINE
  5
2B4
100
AcDbEntity
  8
ASSI
100
AcDbLine
 62
7
  6
CONTINUOUS
 10
72.0561684565
 20
-43.8055596544
 11
72.25
 21
-43.9993911979
  0
LINE
  5
2B5
100
AcDbEntity
  8
SMUSSO
100
AcDbLine
 62
7
  6
CONTINUOUS
 10
29.05
 20
-2.0
 11
29.05
 21
2.0
  0
LINE
  5
2B6
100
AcDbEntity
  8
ASSI
100
AcDbLine
 62
7
  6
CONTINUOUS
 10
29.05
 20
-2.0
 11
29.05
 21
2.0
  0
LWPOLYLINE
  5
2B7
100
AcDbEntity
  8
0
100
AcDbPolyline
 62
7
  6
CONTINUOUS
 90
10
 70
0
 43
0.3500000006
 10
1.9285714102
 20
56.2499987183
 10
2.0000000439
 20
56.1071454163
 10
2.0000000439
 20
56.0357142334
 10
1.8571429181
 20
55.8928609314
 10
1.7857142844
 20
55.8928609314
 10
1.7142856507
 20
55.9642830505
 10
1.7142856507
 20
56.0357142334
 10
1.7857142844
 20
56.1785675354
 10
1.8571429181
 20
56.2499987183
 10
1.9285714102
 20
56.2499987183
  0
LINE
  5
2B8
100
AcDbEntity
  8
SMUSSO
100
AcDbLine
 62
7
  6
CONTINUOUS
 10
30.25
 20
-2.0
 11
30.25
 21
2.0
  0
LINE
  5
2B9
100
AcDbEntity
  8
ASSI
100
AcDbLine
 62
7
  6
CONTINUOUS
 10
30.25
 20
-2.0
 11
30.25
 21
2.0
  0
LINE
  5
2BA
100
AcDbEntity
  8
SMUSSO
100
AcDbLine
 62
7
  6
CONTINUOUS
 10
37.25
 20
2.0
 11
37.25
 21
-2.0
  0
LINE
  5
2BB
100
AcDbEntity
  8
ASSI
100
AcDbLine
 62
7
  6
CONTINUOUS
 10
37.25
 20
2.0
 11
37.25
 21
-2.0
  0
LINE
  5
2BC
100
AcDbEntity
  8
SMUSSO
100
AcDbLine
 62
7
  6
CONTINUOUS
 10
38.45
 20
2.0
 11
38.45
 21
-2.0
  0
LINE
  5
2BD
100
AcDbEntity
  8
ASSI
100
AcDbLine
 62
7
  6
CONTINUOUS
 10
38.45
 20
2.0
 11
38.45
 21
-2.0
  0
LINE
  5
2BE
100
AcDbEntity
  8
ASSI
100
AcDbLine
 62
7
  6
CONTINUOUS
 10
70.6267374102
 20
43.7712689598
 11
-70.6267374102
 21
43.7712689598
  0
LINE
  5
2BF
100
AcDbEntity
  8
ASSI
100
AcDbLine
 62
7
  6
CONTINUOUS
 10
71.0555596544
 20
44.8061684565
 11
-71.0555596544
 21
44.8061684565
  0
LINE
  5
2C0
100
AcDbEntity
  8
ASSI
100
AcDbLine
 62
7
  6
CONTINUOUS
 10
71.2493911979
 20
45.0
 11
-71.2493911979
 21
45.0
  0
LINE
  5
2C1
100
AcDbEntity
  8
ASSI
100
AcDbLine
 62
7
  6
CONTINUOUS
 10
70.6267374102
 20
43.7712689598
 11
71.0699854699
 21
44.7906993223
  0
LINE
  5
2C2
100
AcDbEntity
  8
CURVE
100
AcDbLine
 62
250
  6
CONTINUOUS
 10
72.1404101948
 20
-34.842919
 11
72.1973759453
 21
-34.955522
  0
LINE
  5
2C3
100
AcDbEntity
  8
ASSI
100
AcDbLine
 62
7
  6
CONTINUOUS
 10
70.6267374102
 20
-43.7712689598
 11
71.0699854699
 21
-44.7906993223
  0
LWPOLYLINE
  5
2C4
100
AcDbEntity
  8
0
100
AcDbPolyline
 62
7
  6
CONTINUOUS
 90
8
 70
0
 43
0.3500000006
 10
3.0000000658
 20
55.7499985657
 10
3.8571428204
 20
55.7499985657
 10
4.2857143393
 20
56.1785675354
 10
4.2857143393
 20
57.0357145386
 10
3.8571428204
 20
57.4642835083
 10
3.0000000658
 20
57.4642835083
 10
3.0000000658
 20
58.7499994812
 10
4.2857143393
 20
58.7499994812
  0
LWPOLYLINE
  5
2C5
100
AcDbEntity
  8
0
100
AcDbPolyline
 62
7
  6
CONTINUOUS
 90
3
 70
0
 43
0.3500000006
 10
0.4285714127
 20
56.392861084
 10
-1.0714285848
 20
56.392861084
 10
-0.4285714127
 20
58.7499994812
  0
LWPOLYLINE
  5
2C6
100
AcDbEntity
  8
0
100
AcDbPolyline
 62
7
  6
CONTINUOUS
 90
3
 70
0
 43
0.3500000006
 10
-1.9285714102
 20
56.392861084
 10
-3.4285713015
 20
56.392861084
 10
-2.7857141647
 20
58.7499994812
  0
LWPOLYLINE
  5
2C7
100
AcDbEntity
  8
0
100
AcDbPolyline
 62
7
  6
CONTINUOUS
 90
10
 70
0
 43
0.3500000006
 10
81.4999976807
 20
-1.9285708809
 10
80.6428597412
 20
-1.0714295425
 10
79.785712738
 20
-0.8571427917
 10
78.9285747986
 20
-0.8571427917
 10
78.4999967651
 20
-1.2857140274
 10
78.4999967651
 20
-1.9285708809
 10
78.9285747986
 20
-2.3571432495
 10
79.785712738
 20
-2.3571432495
 10
80.2142817078
 20
-1.9285708809
 10
80.2142817078
 20
-1.0000006256
  0
LINE
  5
2C8
100
AcDbEntity
  8
CURVE
100
AcDbLine
 62
250
  6
CONTINUOUS
 10
72.1973759453
 20
-35.454708
 11
72.110136417
 21
-35.228996
  0
LINE
  5
2C9
100
AcDbEntity
  8
CURVE
100
AcDbLine
 62
250
  6
CONTINUOUS
 10
72.110136417
 20
-36.451037
 11
72.1973759453
 21
-37.254552
  0
LINE
  5
2CA
100
AcDbEntity
  8
CURVE
100
AcDbLine
 62
250
  6
CONTINUOUS
 10
72.1585720674
 20
-34.191353
 11
72.110136417
 21
-33.66956
  0
LINE
  5
2CB
100
AcDbEntity
  8
CURVE
100
AcDbLine
 62
250
  6
CONTINUOUS
 10
72.140647651
 20
-33.5372
 11
72.1973759453
 21
-34.157611
  0
LINE
  5
2CC
100
AcDbEntity
  8
CURVE
100
AcDbLine
 62
250
  6
CONTINUOUS
 10
72.1341076249
 20
-31.81095
 11
72.1664833296
 21
-32.070759
  0
LINE
  5
2CD
100
AcDbEntity
  8
CURVE
100
AcDbLine
 62
250
  6
CONTINUOUS
 10
72.1701860964
 20
-37.463524
 11
72.110136417
 21
-36.972473
  0
LINE
  5
2CE
100
AcDbEntity
  8
CURVE
100
AcDbLine
 62
250
  6
CONTINUOUS
 10
72.17995984
 20
-32.177494
 11
72.1973759453
 21
-32.321477
  0
LINE
  5
2CF
100
AcDbEntity
  8
CURVE
100
AcDbLine
 62
250
  6
CONTINUOUS
 10
72.1973759453
 20
-32.837608
 11
72.110136417
 21
-32.053532
  0
LINE
  5
2D0
100
AcDbEntity
  8
ASSI
100
AcDbLine
 62
7
  6
CONTINUOUS
 10
71.0212689598
 20
-43.3767374102
 11
71.0212689598
 21
43.3767374102
  0
LINE
  5
2D1
100
AcDbEntity
  8
ASSI
100
AcDbLine
 62
7
  6
CONTINUOUS
 10
72.0561684565
 20
-43.8055596544
 11
72.0561684565
 21
43.8055596544
  0
LINE
  5
2D2
100
AcDbEntity
  8
CURVE
100
AcDbLine
 62
250
  6
CONTINUOUS
 10
72.110131217
 20
-35.735605
 11
72.110131217
 21
-36.257398
  0
LINE
  5
2D3
100
AcDbEntity
  8
CURVE
100
AcDbLine
 62
250
  6
CONTINUOUS
 10
72.110136417
 20
-38.506847
 11
72.110136417
 21
-37.940019
  0
LINE
  5
2D4
100
AcDbEntity
  8
CURVE
100
AcDbLine
 62
250
  6
CONTINUOUS
 10
72.110136417
 20
-36.972473
 11
72.110136417
 21
-36.451037
  0
LINE
  5
2D5
100
AcDbEntity
  8
CURVE
100
AcDbLine
 62
250
  6
CONTINUOUS
 10
72.110136417
 20
-35.228996
 11
72.110136417
 21
-34.707635
  0
LINE
  5
2D6
100
AcDbEntity
  8
CURVE
100
AcDbLine
 62
250
  6
CONTINUOUS
 10
72.110136417
 20
-33.66956
 11
72.110136417
 21
-33.153297
  0
LINE
  5
2D7
100
AcDbEntity
  8
CURVE
100
AcDbLine
 62
250
  6
CONTINUOUS
 10
72.110136417
 20
-32.053532
 11
72.110136417
 21
-31.54876
  0
LINE
  5
2D8
100
AcDbEntity
  8
CURVE
100
AcDbLine
 62
250
  6
CONTINUOUS
 10
72.1489474951
 20
-29.8279642095
 11
72.1489474951
 21
-30.126163664
  0
LINE
  5
2D9
100
AcDbEntity
  8
CURVE
100
AcDbLine
 62
250
  6
CONTINUOUS
 10
72.1632352194
 20
-30.1088617972
 11
72.1632352194
 21
-29.8290889245
  0
LINE
  5
2DA
100
AcDbEntity
  8
CURVE
100
AcDbLine
 62
250
  6
CONTINUOUS
 10
72.1664833296
 20
-32.070759
 11
72.1664833296
 21
-31.571179
  0
LINE
  5
2DB
100
AcDbEntity
  8
CURVE
100
AcDbLine
 62
250
  6
CONTINUOUS
 10
72.17995984
 20
-31.466899
 11
72.17995984
 21
-32.177494
  0
LINE
  5
2DC
100
AcDbEntity
  8
CURVE
100
AcDbLine
 62
250
  6
CONTINUOUS
 10
72.1973759453
 20
-36.257398
 11
72.1973759453
 21
-35.735605
  0
LINE
  5
2DD
100
AcDbEntity
  8
CURVE
100
AcDbLine
 62
250
  6
CONTINUOUS
 10
72.1973759458
 20
-30.6285551388
 11
72.1973759458
 21
-30.1088617972
  0
LINE
  5
2DE
100
AcDbEntity
  8
CURVE
100
AcDbLine
 62
250
  6
CONTINUOUS
 10
72.1973759458
 20
-29.3098079785
 11
72.1973759458
 21
-28.8079038802
  0
LINE
  5
2DF
100
AcDbEntity
  8
CURVE
100
AcDbLine
 62
250
  6
CONTINUOUS
 10
72.1973759453
 20
-30.781779
 11
72.1973759453
 21
-31.331727
  0
LINE
  5
2E0
100
AcDbEntity
  8
CURVE
100
AcDbLine
 62
250
  6
CONTINUOUS
 10
72.1973759453
 20
-32.321477
 11
72.1973759453
 21
-32.837608
  0
LINE
  5
2E1
100
AcDbEntity
  8
CURVE
100
AcDbLine
 62
250
  6
CONTINUOUS
 10
72.1973759453
 20
-32.919544
 11
72.1973759453
 21
-33.429996
  0
LINE
  5
2E2
100
AcDbEntity
  8
CURVE
100
AcDbLine
 62
250
  6
CONTINUOUS
 10
72.1973759453
 20
-34.157611
 11
72.1973759453
 21
-34.230793
  0
LINE
  5
2E3
100
AcDbEntity
  8
CURVE
100
AcDbLine
 62
250
  6
CONTINUOUS
 10
72.1973759453
 20
-34.955522
 11
72.1973759453
 21
-35.454708
  0
LINE
  5
2E4
100
AcDbEntity
  8
CURVE
100
AcDbLine
 62
250
  6
CONTINUOUS
 10
72.1973759453
 20
-37.254552
 11
72.1973759453
 21
-37.714382
  0
LINE
  5
2E5
100
AcDbEntity
  8
ASSI
100
AcDbLine
 62
7
  6
CONTINUOUS
 10
72.25
 20
-43.9993911979
 11
72.25
 21
43.9993911979
  0
LINE
  5
2E6
100
AcDbEntity
  8
CURVE
100
AcDbLine
 62
7
  6
CONTINUOUS
 10
72.1821659312
 20
-28.9222330236
 11
72.1973759458
 21
-28.907023009
  0
LINE
  5
2E7
100
AcDbEntity
  8
CURVE
100
AcDbLine
 62
7
  6
CONTINUOUS
 10
72.1253310051
 20
-28.9790679497
 11
72.1419717137
 21
-28.9624272411
  0
LINE
  5
2E8
100
AcDbEntity
  8
CURVE
100
AcDbLine
 62
7
  6
CONTINUOUS
 10
72.1601746443
 20
-29.1542350245
 11
72.1973759458
 21
-29.117033723
  0
LINE
  5
2E9
100
AcDbEntity
  8
CURVE
100
AcDbLine
 62
7
  6
CONTINUOUS
 10
72.1148909499
 20
-29.1995187189
 11
72.1531820623
 21
-29.1612276066
  0
LINE
  5
2EA
100
AcDbEntity
  8
CURVE
100
AcDbLine
 62
7
  6
CONTINUOUS
 10
72.1112867414
 20
-29.4131336414
 11
72.1950341491
 21
-29.3293862337
  0
LINE
  5
2EB
100
AcDbEntity
  8
CURVE
100
AcDbLine
 62
7
  6
CONTINUOUS
 10
72.1469879345
 20
-29.5874431624
 11
72.1688902476
 21
-29.5655408493
  0
LINE
  5
2EC
100
AcDbEntity
  8
CURVE
100
AcDbLine
 62
7
  6
CONTINUOUS
 10
72.109791189
 20
-29.6246399079
 11
72.1255357545
 21
-29.6088953423
  0
LINE
  5
2ED
100
AcDbEntity
  8
CURVE
100
AcDbLine
 62
7
  6
CONTINUOUS
 10
72.1488988018
 20
-29.7955430091
 11
72.1633667814
 21
-29.7810750295
  0
LINE
  5
2EE
100
AcDbEntity
  8
CURVE
100
AcDbLine
 62
7
  6
CONTINUOUS
 10
72.1092164384
 20
-29.8352253724
 11
72.1242185627
 21
-29.8202232482
  0
LINE
  5
2EF
100
AcDbEntity
  8
CURVE
100
AcDbLine
 62
7
  6
CONTINUOUS
 10
72.1489474951
 20
-30.0055050298
 11
72.1632352194
 21
-29.9912173055
  0
LINE
  5
2F0
100
AcDbEntity
  8
CURVE
100
AcDbLine
 62
7
  6
CONTINUOUS
 10
72.1091791851
 20
-30.0452733398
 11
72.1245094986
 21
-30.0299430262
  0
LINE
  5
2F1
100
AcDbEntity
  8
CURVE
100
AcDbLine
 62
7
  6
CONTINUOUS
 10
72.1096160794
 20
-30.2548471595
 11
72.1973759458
 21
-30.1670872931
  0
LINE
  5
2F2
100
AcDbEntity
  8
CURVE
100
AcDbLine
 62
7
  6
CONTINUOUS
 10
72.1103751179
 20
-30.464098835
 11
72.1973759458
 21
-30.3770980071
  0
LINE
  5
2F3
100
AcDbEntity
  8
CURVE
100
AcDbLine
 62
7
  6
CONTINUOUS
 10
72.1559295281
 20
-30.6285551388
 11
72.1973759458
 21
-30.5871087211
  0
LINE
  5
2F4
100
AcDbEntity
  8
CURVE
100
AcDbLine
 62
7
  6
CONTINUOUS
 10
72.1954071197
 20
-30.7990882612
 11
72.1973759453
 21
-30.7971194357
  0
LINE
  5
2F5
100
AcDbEntity
  8
CURVE
100
AcDbLine
 62
7
  6
CONTINUOUS
 10
72.1684538788
 20
-31.0360522161
 11
72.1973759453
 21
-31.0071301497
  0
LINE
  5
2F6
100
AcDbEntity
  8
CURVE
100
AcDbLine
 62
7
  6
CONTINUOUS
 10
72.141500638
 20
-31.273016171
 11
72.1973759453
 21
-31.2171408637
  0
LINE
  5
2F7
100
AcDbEntity
  8
CURVE
100
AcDbLine
 62
7
  6
CONTINUOUS
 10
72.1145473971
 20
-31.5099801259
 11
72.1832626434
 21
-31.4412648796
  0
LINE
  5
2F8
100
AcDbEntity
  8
CURVE
100
AcDbLine
 62
7
  6
CONTINUOUS
 10
72.1664833296
 20
-31.6680549074
 11
72.17995984
 21
-31.654578397
  0
LINE
  5
2F9
100
AcDbEntity
  8
CURVE
100
AcDbLine
 62
7
  6
CONTINUOUS
 10
72.110136417
 20
-31.72440182
 11
72.1513603936
 21
-31.6831778434
  0
LINE
  5
2FA
100
AcDbEntity
  8
CURVE
100
AcDbLine
 62
7
  6
CONTINUOUS
 10
72.1664833296
 20
-31.8780656214
 11
72.17995984
 21
-31.864589111
  0
LINE
  5
2FB
100
AcDbEntity
  8
CURVE
100
AcDbLine
 62
7
  6
CONTINUOUS
 10
72.110136417
 20
-31.934412534
 11
72.145131822
 21
-31.899417129
  0
LINE
  5
2FC
100
AcDbEntity
  8
CURVE
100
AcDbLine
 62
7
  6
CONTINUOUS
 10
72.1192368052
 20
-32.1353228598
 11
72.17995984
 21
-32.074599825
  0
LINE
  5
2FD
100
AcDbEntity
  8
CURVE
100
AcDbLine
 62
7
  6
CONTINUOUS
 10
72.1402639017
 20
-32.3243064774
 11
72.1915184724
 21
-32.2730519067
  0
LINE
  5
2FE
100
AcDbEntity
  8
CURVE
100
AcDbLine
 62
7
  6
CONTINUOUS
 10
72.1612909981
 20
-32.513290095
 11
72.1973759453
 21
-32.4772051478
  0
LINE
  5
2FF
100
AcDbEntity
  8
CURVE
100
AcDbLine
 62
7
  6
CONTINUOUS
 10
72.1823180945
 20
-32.7022737126
 11
72.1973759453
 21
-32.6872158618
  0
LINE
  5
300
100
AcDbEntity
  8
CURVE
100
AcDbLine
 62
7
  6
CONTINUOUS
 10
72.110136417
 20
-33.1944768181
 11
72.1973759453
 21
-33.1072372898
  0
LINE
  5
301
100
AcDbEntity
  8
CURVE
100
AcDbLine
 62
250
  6
CONTINUOUS
 10
72.1973759453
 20
-34.230793
 11
72.1404101948
 21
-34.842919
  0
LINE
  5
302
100
AcDbEntity
  8
CURVE
100
AcDbLine
 62
250
  6
CONTINUOUS
 10
72.110136417
 20
-34.707635
 11
72.1585720674
 21
-34.191353
  0
LINE
  5
303
100
AcDbEntity
  8
CURVE
100
AcDbLine
 62
250
  6
CONTINUOUS
 10
72.1973759453
 20
-37.714382
 11
72.110136417
 21
-38.506847
  0
LINE
  5
304
100
AcDbEntity
  8
CURVE
100
AcDbLine
 62
250
  6
CONTINUOUS
 10
72.110136417
 20
-31.54876
 11
72.1973759453
 21
-30.781779
  0
LINE
  5
305
100
AcDbEntity
  8
CURVE
100
AcDbLine
 62
250
  6
CONTINUOUS
 10
72.110136417
 20
-37.940019
 11
72.1701860964
 21
-37.463524
  0
LINE
  5
306
100
AcDbEntity
  8
CURVE
100
AcDbLine
 62
250
  6
CONTINUOUS
 10
72.1973759453
 20
-31.331727
 11
72.17995984
 21
-31.466899
  0
LINE
  5
307
100
AcDbEntity
  8
CURVE
100
AcDbLine
 62
250
  6
CONTINUOUS
 10
72.1664833296
 20
-31.571179
 11
72.1341076249
 21
-31.81095
  0
LINE
  5
308
100
AcDbEntity
  8
CURVE
100
AcDbLine
 62
250
  6
CONTINUOUS
 10
72.110136417
 20
-33.153297
 11
72.1973759453
 21
-32.919544
  0
LINE
  5
309
100
AcDbEntity
  8
CURVE
100
AcDbLine
 62
250
  6
CONTINUOUS
 10
72.1973759453
 20
-33.429996
 11
72.140647651
 21
-33.5372
  0
LINE
  5
30A
100
AcDbEntity
  8
ASSI
100
AcDbLine
 62
7
  6
CONTINUOUS
 10
71.0699854699
 20
-44.7906993223
 11
71.0555596544
 21
-44.8061684565
  0
LINE
  5
30B
100
AcDbEntity
  8
CURVE
100
AcDbLine
 62
7
  6
CONTINUOUS
 10
72.110136417
 20
-33.4044875321
 11
72.1973759453
 21
-33.3172480038
  0
LINE
  5
30C
100
AcDbEntity
  8
CURVE
100
AcDbLine
 62
7
  6
CONTINUOUS
 10
72.110136417
 20
-33.6144982461
 11
72.1445672985
 21
-33.5800673646
  0
LINE
  5
30D
100
AcDbEntity
  8
CURVE
100
AcDbLine
 62
7
  6
CONTINUOUS
 10
72.1232978982
 20
-33.8113474789
 11
72.1621612407
 21
-33.7724841364
  0
LINE
  5
30E
100
AcDbEntity
  8
CURVE
100
AcDbLine
 62
7
  6
CONTINUOUS
 10
72.1411363662
 20
-34.003519725
 11
72.1797551829
 21
-33.9649009082
  0
LINE
  5
30F
100
AcDbEntity
  8
CURVE
100
AcDbLine
 62
7
  6
CONTINUOUS
 10
72.1580811601
 20
-34.196585645
 11
72.1973491251
 21
-34.1573176801
  0
LINE
  5
310
100
AcDbEntity
  8
CURVE
100
AcDbLine
 62
7
  6
CONTINUOUS
 10
72.1363389674
 20
-34.4283385518
 11
72.1833686143
 21
-34.3813089049
  0
LINE
  5
311
100
AcDbEntity
  8
CURVE
100
AcDbLine
 62
7
  6
CONTINUOUS
 10
72.1145967746
 20
-34.6600914586
 11
72.1618191285
 21
-34.6128691047
  0
LINE
  5
312
100
AcDbEntity
  8
CURVE
100
AcDbLine
 62
7
  6
CONTINUOUS
 10
72.110136417
 20
-34.8745625302
 11
72.1408703561
 21
-34.8438285911
  0
LINE
  5
313
100
AcDbEntity
  8
CURVE
100
AcDbLine
 62
7
  6
CONTINUOUS
 10
72.110136417
 20
-35.0845732442
 11
72.1973759453
 21
-34.9973337159
  0
LINE
  5
314
100
AcDbEntity
  8
CURVE
100
AcDbLine
 62
7
  6
CONTINUOUS
 10
72.1284199594
 20
-35.2763004158
 11
72.1973759453
 21
-35.2073444299
  0
LINE
  5
315
100
AcDbEntity
  8
CURVE
100
AcDbLine
 62
7
  6
CONTINUOUS
 10
72.1869633246
 20
-35.4277677646
 11
72.1973759453
 21
-35.417355144
  0
LINE
  5
316
100
AcDbEntity
  8
CURVE
100
AcDbLine
 62
7
  6
CONTINUOUS
 10
72.110131217
 20
-35.9246213003
 11
72.1973759453
 21
-35.837376572
  0
LINE
  5
317
100
AcDbEntity
  8
CURVE
100
AcDbLine
 62
7
  6
CONTINUOUS
 10
72.110131217
 20
-36.1346320143
 11
72.1973759453
 21
-36.047387286
  0
LINE
  5
318
100
AcDbEntity
  8
CURVE
100
AcDbLine
 62
7
  6
CONTINUOUS
 10
72.110136417
 20
-36.5546482423
 11
72.1202839892
 21
-36.5445006701
  0
LINE
  5
319
100
AcDbEntity
  8
CURVE
100
AcDbLine
 62
7
  6
CONTINUOUS
 10
72.110136417
 20
-36.7646589563
 11
72.1408522098
 21
-36.7339431635
  0
LINE
  5
31A
100
AcDbEntity
  8
CURVE
100
AcDbLine
 62
7
  6
CONTINUOUS
 10
72.1103757731
 20
-36.9744303142
 11
72.1614204304
 21
-36.9233856569
  0
LINE
  5
31B
100
AcDbEntity
  8
CURVE
100
AcDbLine
 62
7
  6
CONTINUOUS
 10
72.1332592072
 20
-37.1615575941
 11
72.181988651
 21
-37.1128281504
  0
LINE
  5
31C
100
AcDbEntity
  8
CURVE
100
AcDbLine
 62
7
  6
CONTINUOUS
 10
72.1561426412
 20
-37.3486848741
 11
72.1973759453
 21
-37.3074515701
  0
LINE
  5
31D
100
AcDbEntity
  8
CURVE
100
AcDbLine
 62
7
  6
CONTINUOUS
 10
72.1584877578
 20
-37.5563504716
 11
72.1973759453
 21
-37.5174622841
  0
LINE
  5
31E
100
AcDbEntity
  8
CURVE
100
AcDbLine
 62
7
  6
CONTINUOUS
 10
72.1282050882
 20
-37.7966438552
 11
72.1957565306
 21
-37.7290924128
  0
LINE
  5
31F
100
AcDbEntity
  8
CURVE
100
AcDbLine
 62
7
  6
CONTINUOUS
 10
72.110136417
 20
-38.0247232404
 11
72.1697772709
 21
-37.9650823864
  0
LINE
  5
320
100
AcDbEntity
  8
CURVE
100
AcDbLine
 62
7
  6
CONTINUOUS
 10
72.110136417
 20
-38.2347339544
 11
72.1437980113
 21
-38.2010723601
  0
LINE
  5
321
100
AcDbEntity
  8
CURVE
100
AcDbLine
 62
7
  6
CONTINUOUS
 10
72.110136417
 20
-38.4447446684
 11
72.1178187517
 21
-38.4370623337
  0
LINE
  5
322
100
AcDbEntity
  8
ASSI
100
AcDbLine
 62
7
  6
CONTINUOUS
 10
70.6267374102
 20
-43.7712689598
 11
71.0212689598
 21
-43.3767374102
  0
LINE
  5
323
100
AcDbEntity
  8
ASSI
100
AcDbLine
 62
7
  6
CONTINUOUS
 10
71.0699854699
 20
-44.7906993223
 11
72.0406993223
 21
-43.8199854699
  0
LINE
  5
324
100
AcDbEntity
  8
ASSI
100
AcDbLine
 62
7
  6
CONTINUOUS
 10
72.25
 20
-43.9993911979
 11
71.2493911979
 21
-45.0
  0
LINE
  5
325
100
AcDbEntity
  8
ASSI
100
AcDbLine
 62
7
  6
CONTINUOUS
 10
72.0561684565
 20
-43.8055596544
 11
72.0406993223
 21
-43.8199854699
  0
LINE
  5
326
100
AcDbEntity
  8
ASSI
100
AcDbLine
 62
7
  6
CONTINUOUS
 10
72.0406993223
 20
43.8199854699
 11
72.0561684565
 21
43.8055596544
  0
LINE
  5
327
100
AcDbEntity
  8
ASSI
100
AcDbLine
 62
7
  6
CONTINUOUS
 10
71.0212689598
 20
43.3767374102
 11
70.6267374102
 21
43.7712689598
  0
LINE
  5
328
100
AcDbEntity
  8
ASSI
100
AcDbLine
 62
7
  6
CONTINUOUS
 10
72.0406993223
 20
43.8199854699
 11
71.0699854699
 21
44.7906993223
  0
LINE
  5
329
100
AcDbEntity
  8
ASSI
100
AcDbLine
 62
7
  6
CONTINUOUS
 10
71.2493911979
 20
45.0
 11
72.25
 21
43.9993911979
  0
LINE
  5
32A
100
AcDbEntity
  8
ASSI
100
AcDbLine
 62
7
  6
CONTINUOUS
 10
71.0555596544
 20
44.8061684565
 11
71.0699854699
 21
44.7906993223
  0
LWPOLYLINE
  5
32B
100
AcDbEntity
  8
0
100
AcDbPolyline
 62
7
  6
CONTINUOUS
 90
3
 70
0
 43
0.3500000006
 10
-127.9164715576
 20
65.8928549194
 10
-127.0593336182
 20
66.7500019226
 10
-127.0593336182
 20
63.7500010071
  0
LWPOLYLINE
  5
32C
100
AcDbEntity
  8
0
100
AcDbPolyline
 62
7
  6
CONTINUOUS
 90
3
 70
0
 43
0.3500000006
 10
-122.1307632751
 20
65.8928549194
 10
-121.273616272
 20
66.7500019226
 10
-121.273616272
 20
63.7500010071
  0
LWPOLYLINE
  5
32D
100
AcDbEntity
  8
0
100
AcDbPolyline
 62
7
  6
CONTINUOUS
 90
3
 70
0
 43
0.3500000006
 10
-121.9402619934
 20
57.8928615417
 10
-121.0831149902
 20
58.7499994812
 10
-121.0831149902
 20
55.7499985657
  0
LINE
  5
32E
100
AcDbEntity
  8
ASSI
100
AcDbLine
 62
7
  6
CONTINUOUS
 10
-114.1308516656
 20
-44.8061684565
 11
-108.5802424926
 21
-45.0
  0
LINE
  5
32F
100
AcDbEntity
  8
ASSI
100
AcDbLine
 62
7
  6
CONTINUOUS
 10
-114.1308516656
 20
-43.8055596544
 11
-108.5802424926
 21
-43.9993911979
  0
LINE
  5
330
100
AcDbEntity
  8
0
100
AcDbLine
 62
7
  6
CONTINUOUS
 10
-108.5802424926
 20
-42.7580439128
 11
-107.9802424926
 21
-42.8
  0
LINE
  5
331
100
AcDbEntity
  8
ASSI
100
AcDbLine
 62
7
  6
CONTINUOUS
 10
-115.1302424926
 20
43.3767374102
 11
-114.1457900348
 21
43.8199854699
  0
LINE
  5
332
100
AcDbEntity
  8
0
100
AcDbLine
 62
250
  6
CONTINUOUS
 10
-108.5802424926
 20
-41.1619414324
 11
-107.9802424926
 21
-41.2038975196
  0
LINE
  5
333
100
AcDbEntity
  8
ASSI
100
AcDbLine
 62
7
  6
CONTINUOUS
 10
-115.1302424926
 20
-43.3767374102
 11
-114.1457900348
 21
-43.8199854699
  0
LINE
  5
334
100
AcDbEntity
  8
CURVE
100
AcDbLine
 62
250
  6
CONTINUOUS
 10
-112.5854114811
 20
-37.940019
 11
-110.8658136522
 21
-37.463524
  0
LINE
  5
335
100
AcDbEntity
  8
CURVE
100
AcDbLine
 62
250
  6
CONTINUOUS
 10
-112.5855603903
 20
-36.257398
 11
-110.0871982527
 21
-36.257398
  0
LINE
  5
336
100
AcDbEntity
  8
CURVE
100
AcDbLine
 62
250
  6
CONTINUOUS
 10
-110.8658136522
 20
-37.463524
 11
-112.5854114811
 21
-36.972473
  0
LINE
  5
337
100
AcDbEntity
  8
ASSI
100
AcDbLine
 62
7
  6
CONTINUOUS
 10
-114.1308516656
 20
44.8061684565
 11
-115.1302424926
 21
43.7712689598
  0
LINE
  5
338
100
AcDbEntity
  8
CURVE
100
AcDbLine
 62
250
  6
CONTINUOUS
 10
-110.0871982527
 20
-33.429996
 11
-111.7116840567
 21
-33.5372
  0
LINE
  5
339
100
AcDbEntity
  8
CURVE
100
AcDbLine
 62
250
  6
CONTINUOUS
 10
-110.0871982527
 20
-35.735605
 11
-112.5855603903
 21
-35.735605
  0
LINE
  5
33A
100
AcDbEntity
  8
CURVE
100
AcDbLine
 62
250
  6
CONTINUOUS
 10
-111.7184839119
 20
-34.842919
 11
-110.0871982527
 21
-34.955522
  0
LINE
  5
33B
100
AcDbEntity
  8
CURVE
100
AcDbLine
 62
250
  6
CONTINUOUS
 10
-110.0871982527
 20
-35.454708
 11
-112.5854114811
 21
-35.228996
  0
LINE
  5
33C
100
AcDbEntity
  8
CURVE
100
AcDbLine
 62
250
  6
CONTINUOUS
 10
-112.5854114811
 20
-36.451037
 11
-110.0871982527
 21
-37.254552
  0
LINE
  5
33D
100
AcDbEntity
  8
ASSI
100
AcDbLine
 62
7
  6
CONTINUOUS
 10
-115.1302424926
 20
-43.7712689598
 11
-114.1308516656
 21
-44.8061684565
  0
LWPOLYLINE
  5
33E
100
AcDbEntity
  8
0
100
AcDbPolyline
 62
7
  6
CONTINUOUS
 90
3
 70
0
 43
0.3500000006
 10
-123.1307635803
 20
64.0357166748
 10
-123.2021856995
 20
63.8214321899
 10
-123.3450480652
 20
63.5357165222
  0
LWPOLYLINE
  5
33F
100
AcDbEntity
  8
0
100
AcDbPolyline
 62
7
  6
CONTINUOUS
 90
3
 70
0
 43
0.3500000006
 10
-122.9402622986
 20
56.0357142334
 10
-123.0116844177
 20
55.8214297485
 10
-123.1545467834
 20
55.5357140808
  0
LINE
  5
340
100
AcDbEntity
  8
CURVE
100
AcDbLine
 62
250
  6
CONTINUOUS
 10
-110.0871982527
 20
-31.331727
 11
-110.5859302535
 21
-31.466899
  0
LINE
  5
341
100
AcDbEntity
  8
CURVE
100
AcDbLine
 62
250
  6
CONTINUOUS
 10
-110.9718470201
 20
-31.571179
 11
-111.8989659001
 21
-31.81095
  0
LINE
  5
342
100
AcDbEntity
  8
CURVE
100
AcDbLine
 62
250
  6
CONTINUOUS
 10
-112.5854114811
 20
-33.153297
 11
-110.0871982527
 21
-32.919544
  0
LINE
  5
343
100
AcDbEntity
  8
CURVE
100
AcDbLine
 62
250
  6
CONTINUOUS
 10
-112.556223625
 20
-30.6285551388
 11
-110.0871982362
 21
-30.6285551388
  0
LINE
  5
344
100
AcDbEntity
  8
CURVE
100
AcDbLine
 62
250
  6
CONTINUOUS
 10
-111.4740076179
 20
-30.126163664
 11
-112.1598157398
 21
-30.126163664
  0
LINE
  5
345
100
AcDbEntity
  8
CURVE
100
AcDbLine
 62
250
  6
CONTINUOUS
 10
-110.0871982362
 20
-30.1088617972
 11
-111.0648607269
 21
-30.1088617972
  0
LINE
  5
346
100
AcDbEntity
  8
CURVE
100
AcDbLine
 62
250
  6
CONTINUOUS
 10
-111.8989659001
 20
-31.81095
 11
-110.9718470201
 21
-32.070759
  0
LINE
  5
347
100
AcDbEntity
  8
CURVE
100
AcDbLine
 62
250
  6
CONTINUOUS
 10
-110.5859302535
 20
-32.177494
 11
-110.0871982527
 21
-32.321477
  0
LINE
  5
348
100
AcDbEntity
  8
CURVE
100
AcDbLine
 62
250
  6
CONTINUOUS
 10
-110.0871982527
 20
-32.837608
 11
-112.5854114811
 21
-32.053532
  0
LINE
  5
349
100
AcDbEntity
  8
CURVE
100
AcDbLine
 62
250
  6
CONTINUOUS
 10
-111.1983959285
 20
-34.191353
 11
-112.5854114811
 21
-33.66956
  0
LINE
  5
34A
100
AcDbEntity
  8
CURVE
100
AcDbLine
 62
250
  6
CONTINUOUS
 10
-111.7116840567
 20
-33.5372
 11
-110.0871982527
 21
-34.157611
  0
LINE
  5
34B
100
AcDbEntity
  8
0
100
AcDbLine
 62
7
  6
CONTINUOUS
 10
-107.0544053416
 20
-27.1501294387
 11
-107.9802424926
 21
-27.151745331
  0
LINE
  5
34C
100
AcDbEntity
  8
0
100
AcDbLine
 62
250
  6
CONTINUOUS
 10
-107.0544699088
 20
-26.9276792439
 11
-107.9802424926
 21
-26.9280974384
  0
LINE
  5
34D
100
AcDbEntity
  8
CURVE
100
AcDbLine
 62
250
  6
CONTINUOUS
 10
-111.2533418107
 20
-29.2870512436
 11
-111.2681040703
 21
-29.2870512436
  0
LINE
  5
34E
100
AcDbEntity
  8
0
100
AcDbLine
 62
7
  6
CONTINUOUS
 10
-105.5301932604
 20
-26.3415638603
 11
-107.9802424926
 21
-26.3558178298
  0
LINE
  5
34F
100
AcDbEntity
  8
0
100
AcDbLine
 62
250
  6
CONTINUOUS
 10
-105.5301932604
 20
-26.2536973817
 11
-107.9802424926
 21
-26.2679513512
  0
LINE
  5
350
100
AcDbEntity
  8
0
100
AcDbLine
 62
7
  6
CONTINUOUS
 10
-104.9802424926
 20
-26.1523612067
 11
-105.1008052596
 21
-26.1523612067
  0
LINE
  5
351
100
AcDbEntity
  8
0
100
AcDbLine
 62
7
  6
CONTINUOUS
 10
-107.0301181137
 20
-25.2
 11
-107.9802424926
 21
-25.2
  0
LINE
  5
352
100
AcDbEntity
  8
0
100
AcDbLine
 62
7
  6
CONTINUOUS
 10
-107.9802424926
 20
-25.05
 11
-107.8302424926
 21
-25.05
  0
LINE
  5
353
100
AcDbEntity
  8
0
100
AcDbLine
 62
7
  6
CONTINUOUS
 10
-107.5302424926
 20
-25.05
 11
-107.3302424926
 21
-25.05
  0
LINE
  5
354
100
AcDbEntity
  8
0
100
AcDbLine
 62
7
  6
CONTINUOUS
 10
-104.9802615307
 20
-25.3545427575
 11
-105.4782759796
 21
-25.3501966513
  0
LINE
  5
355
100
AcDbEntity
  8
0
100
AcDbLine
 62
7
  6
CONTINUOUS
 10
-107.9802424926
 20
-25.7558198745
 11
-105.1697753013
 21
-25.8799866677
  0
LINE
  5
356
100
AcDbEntity
  8
0
100
AcDbLine
 62
7
  6
CONTINUOUS
 10
-104.9802424926
 20
-25.4
 11
-106.9306143947
 21
-25.2049628098
  0
LWPOLYLINE
  5
357
100
AcDbEntity
  8
0
100
AcDbPolyline
 62
7
  6
CONTINUOUS
 90
13
 70
0
 43
0.3500000006
 10
-126.202186615
 20
64.6071389465
 10
-126.202186615
 20
65.8928549194
 10
-125.9879021301
 20
66.3214329529
 10
-125.5593331604
 20
66.7500019226
 10
-125.3450486755
 20
66.7500019226
 10
-124.9164797058
 20
66.3214329529
 10
-124.7021861572
 20
65.8928549194
 10
-124.7021861572
 20
64.6071389465
 10
-124.9164797058
 20
64.1785699768
 10
-125.3450486755
 20
63.7500010071
 10
-125.5593331604
 20
63.7500010071
 10
-125.9879021301
 20
64.1785699768
 10
-126.202186615
 20
64.6071389465
  0
LWPOLYLINE
  5
358
100
AcDbEntity
  8
0
100
AcDbPolyline
 62
7
  6
CONTINUOUS
 90
4
 70
0
 43
0.3500000006
 10
-126.0116853333
 20
58.1071460266
 10
-126.0116853333
 20
58.7499994812
 10
-124.5116848755
 20
58.7499994812
 10
-125.3688318787
 20
55.7499985657
  0
LINE
  5
359
100
AcDbEntity
  8
0
100
AcDbLine
 62
7
  6
CONTINUOUS
 10
-107.8302424926
 20
25.05
 11
-107.6802424926
 21
25.2
  0
LINE
  5
35A
100
AcDbEntity
  8
0
100
AcDbLine
 62
7
  6
CONTINUOUS
 10
-107.3302424926
 20
25.05
 11
-107.1802424926
 21
25.2
  0
LINE
  5
35B
100
AcDbEntity
  8
0
100
AcDbLine
 62
7
  6
CONTINUOUS
 10
-107.8302424926
 20
-25.05
 11
-107.6802424926
 21
-25.2
  0
LINE
  5
35C
100
AcDbEntity
  8
0
100
AcDbLine
 62
7
  6
CONTINUOUS
 10
-107.3302424926
 20
-25.05
 11
-107.1802424926
 21
-25.2
  0
LINE
  5
35D
100
AcDbEntity
  8
ASSI
100
AcDbLine
 62
7
  6
CONTINUOUS
 10
-115.1302424926
 20
-43.7712689598
 11
-115.1302424926
 21
43.7712689598
  0
LINE
  5
35E
100
AcDbEntity
  8
ASSI
100
AcDbLine
 62
7
  6
CONTINUOUS
 10
-114.1457900348
 20
-44.7906993223
 11
-114.1457900348
 21
-43.8199854699
  0
LINE
  5
35F
100
AcDbEntity
  8
ASSI
100
AcDbLine
 62
7
  6
CONTINUOUS
 10
-114.1457900348
 20
43.8199854699
 11
-114.1457900348
 21
44.7906993223
  0
LINE
  5
360
100
AcDbEntity
  8
ASSI
100
AcDbLine
 62
7
  6
CONTINUOUS
 10
-114.1308516656
 20
-43.8055596544
 11
-114.1308516656
 21
43.8055596544
  0
LINE
  5
361
100
AcDbEntity
  8
0
100
AcDbLine
 62
250
  6
CONTINUOUS
 10
-107.7302424926
 20
-2.6214065094
 11
-107.9802424926
 21
-2.6214065094
  0
LINE
  5
362
100
AcDbEntity
  8
CURVE
100
AcDbLine
 62
250
  6
CONTINUOUS
 10
-112.5855603903
 20
-35.735605
 11
-112.5855603903
 21
-36.257398
  0
LINE
  5
363
100
AcDbEntity
  8
CURVE
100
AcDbLine
 62
250
  6
CONTINUOUS
 10
-112.5854114811
 20
-38.506847
 11
-112.5854114811
 21
-37.940019
  0
LINE
  5
364
100
AcDbEntity
  8
CURVE
100
AcDbLine
 62
250
  6
CONTINUOUS
 10
-112.5854114811
 20
-36.972473
 11
-112.5854114811
 21
-36.451037
  0
LINE
  5
365
100
AcDbEntity
  8
CURVE
100
AcDbLine
 62
250
  6
CONTINUOUS
 10
-112.5854114811
 20
-35.228996
 11
-112.5854114811
 21
-34.707635
  0
LINE
  5
366
100
AcDbEntity
  8
CURVE
100
AcDbLine
 62
250
  6
CONTINUOUS
 10
-112.5854114811
 20
-33.66956
 11
-112.5854114811
 21
-33.153297
  0
LINE
  5
367
100
AcDbEntity
  8
CURVE
100
AcDbLine
 62
250
  6
CONTINUOUS
 10
-112.5854114811
 20
-32.053532
 11
-112.5854114811
 21
-31.54876
  0
LINE
  5
368
100
AcDbEntity
  8
CURVE
100
AcDbLine
 62
250
  6
CONTINUOUS
 10
-111.4740076179
 20
-29.8279642095
 11
-111.4740076179
 21
-30.126163664
  0
LINE
  5
369
100
AcDbEntity
  8
CURVE
100
AcDbLine
 62
250
  6
CONTINUOUS
 10
-111.0648607269
 20
-30.1088617972
 11
-111.0648607269
 21
-29.8290889245
  0
LINE
  5
36A
100
AcDbEntity
  8
CURVE
100
AcDbLine
 62
250
  6
CONTINUOUS
 10
-110.9718470201
 20
-32.070759
 11
-110.9718470201
 21
-31.571179
  0
LINE
  5
36B
100
AcDbEntity
  8
CURVE
100
AcDbLine
 62
250
  6
CONTINUOUS
 10
-110.5859302535
 20
-31.466899
 11
-110.5859302535
 21
-32.177494
  0
LINE
  5
36C
100
AcDbEntity
  8
CURVE
100
AcDbLine
 62
250
  6
CONTINUOUS
 10
-110.0871982527
 20
-36.257398
 11
-110.0871982527
 21
-35.735605
  0
LINE
  5
36D
100
AcDbEntity
  8
CURVE
100
AcDbLine
 62
250
  6
CONTINUOUS
 10
-110.0871982527
 20
-30.781779
 11
-110.0871982527
 21
-31.331727
  0
LINE
  5
36E
100
AcDbEntity
  8
CURVE
100
AcDbLine
 62
250
  6
CONTINUOUS
 10
-110.0871982527
 20
-32.321477
 11
-110.0871982527
 21
-32.837608
  0
LINE
  5
36F
100
AcDbEntity
  8
CURVE
100
AcDbLine
 62
250
  6
CONTINUOUS
 10
-110.0871982527
 20
-32.919544
 11
-110.0871982527
 21
-33.429996
  0
LINE
  5
370
100
AcDbEntity
  8
CURVE
100
AcDbLine
 62
250
  6
CONTINUOUS
 10
-110.0871982527
 20
-34.157611
 11
-110.0871982527
 21
-34.230793
  0
LINE
  5
371
100
AcDbEntity
  8
CURVE
100
AcDbLine
 62
250
  6
CONTINUOUS
 10
-110.0871982527
 20
-34.955522
 11
-110.0871982527
 21
-35.454708
  0
LINE
  5
372
100
AcDbEntity
  8
CURVE
100
AcDbLine
 62
250
  6
CONTINUOUS
 10
-110.0871982527
 20
-37.254552
 11
-110.0871982527
 21
-37.714382
  0
LINE
  5
373
100
AcDbEntity
  8
CURVE
100
AcDbLine
 62
250
  6
CONTINUOUS
 10
-110.0871982362
 20
-30.6285551388
 11
-110.0871982362
 21
-30.1088617972
  0
LINE
  5
374
100
AcDbEntity
  8
CURVE
100
AcDbLine
 62
250
  6
CONTINUOUS
 10
-110.0871982362
 20
-29.3098079785
 11
-110.0871982362
 21
-28.8079038802
  0
LINE
  5
375
100
AcDbEntity
  8
0
100
AcDbLine
 62
250
  6
CONTINUOUS
 10
-107.0544053502
 20
-27.1501294387
 11
-107.0544699088
 21
-26.9276792439
  0
LINE
  5
376
100
AcDbEntity
  8
ASSI
100
AcDbLine
 62
7
  6
CONTINUOUS
 10
-108.5802424926
 20
-45.0
 11
-108.5802424926
 21
45.0
  0
LINE
  5
377
100
AcDbEntity
  8
0
100
AcDbLine
 62
7
  6
CONTINUOUS
 10
-107.9802424926
 20
-42.8
 11
-107.9802424926
 21
42.8
  0
LINE
  5
378
100
AcDbEntity
  8
0
100
AcDbLine
 62
7
  6
CONTINUOUS
 10
-107.7302424926
 20
2.6214065094
 11
-107.7302424926
 21
-2.6214065094
  0
LINE
  5
379
100
AcDbEntity
  8
0
100
AcDbLine
 62
250
  6
CONTINUOUS
 10
-107.0544699088
 20
26.9276792439
 11
-107.0544053502
 21
27.1501294387
  0
LINE
  5
37A
100
AcDbEntity
  8
0
100
AcDbLine
 62
250
  6
CONTINUOUS
 10
-107.7302424926
 20
2.6214065094
 11
-107.9802424926
 21
2.6214065094
  0
LINE
  5
37B
100
AcDbEntity
  8
0
100
AcDbLine
 62
250
  6
CONTINUOUS
 10
-105.2645417057
 20
25.3715700787
 11
-105.2645417057
 21
25.3498801651
  0
LINE
  5
37C
100
AcDbEntity
  8
0
100
AcDbLine
 62
250
  6
CONTINUOUS
 10
-105.2645417057
 20
-25.3498801651
 11
-105.2645417057
 21
-25.3715700787
  0
LINE
  5
37D
100
AcDbEntity
  8
0
100
AcDbLine
 62
250
  6
CONTINUOUS
 10
-105.1697753013
 20
25.8799866677
 11
-105.1697753013
 21
25.3810467191
  0
LINE
  5
37E
100
AcDbEntity
  8
0
100
AcDbLine
 62
250
  6
CONTINUOUS
 10
-105.1697753013
 20
-25.3810467191
 11
-105.1697753013
 21
-25.8799866677
  0
LINE
  5
37F
100
AcDbEntity
  8
0
100
AcDbLine
 62
7
  6
CONTINUOUS
 10
-104.9802424926
 20
26.1523612067
 11
-104.9802424926
 21
25.3523612067
  0
LINE
  5
380
100
AcDbEntity
  8
0
100
AcDbLine
 62
7
  6
CONTINUOUS
 10
-104.9802424926
 20
-25.3523612067
 11
-104.9802424926
 21
-26.1523612067
  0
LWPOLYLINE
  5
381
100
AcDbEntity
  8
0
100
AcDbPolyline
 62
7
  6
CONTINUOUS
 90
10
 70
0
 43
0.3500000006
 10
-123.0116844177
 20
56.2499987183
 10
-122.9402622986
 20
56.1071454163
 10
-122.9402622986
 20
56.0357142334
 10
-123.0831156006
 20
55.8928609314
 10
-123.1545467834
 20
55.8928609314
 10
-123.2259779663
 20
55.9642830505
 10
-123.2259779663
 20
56.0357142334
 10
-123.1545467834
 20
56.1785675354
 10
-123.0831156006
 20
56.2499987183
 10
-123.0116844177
 20
56.2499987183
  0
LWPOLYLINE
  5
382
100
AcDbEntity
  8
0
100
AcDbPolyline
 62
7
  6
CONTINUOUS
 90
10
 70
0
 43
0.3500000006
 10
-123.2021856995
 20
64.2500011597
 10
-123.1307635803
 20
64.1071387939
 10
-123.1307635803
 20
64.0357166748
 10
-123.2736168823
 20
63.8928543091
 10
-123.3450480652
 20
63.8928543091
 10
-123.416479248
 20
63.9642854919
 10
-123.416479248
 20
64.0357166748
 10
-123.3450480652
 20
64.1785699768
 10
-123.2736168823
 20
64.2500011597
 10
-123.2021856995
 20
64.2500011597
  0
LINE
  5
383
100
AcDbEntity
  8
CURVE
100
AcDbLine
 62
7
  6
CONTINUOUS
 10
-112.5748821975
 20
-29.5046105282
 11
-112.0138111675
 21
-28.9435394983
  0
LINE
  5
384
100
AcDbEntity
  8
CURVE
100
AcDbLine
 62
7
  6
CONTINUOUS
 10
-112.606823419
 20
-29.7465624637
 11
-111.7987020119
 21
-28.9384410567
  0
LINE
  5
385
100
AcDbEntity
  8
CURVE
100
AcDbLine
 62
7
  6
CONTINUOUS
 10
-112.6137909989
 20
-29.9635407577
 11
-111.6271305582
 21
-28.976880317
  0
LINE
  5
386
100
AcDbEntity
  8
0
100
AcDbLine
 62
7
  6
CONTINUOUS
 10
-107.6802424926
 20
-25.2
 11
-107.5302424926
 21
-25.05
  0
LINE
  5
387
100
AcDbEntity
  8
CURVE
100
AcDbLine
 62
7
  6
CONTINUOUS
 10
-112.607363016
 20
-30.1671234888
 11
-112.1762576102
 21
-29.736018083
  0
LINE
  5
388
100
AcDbEntity
  8
CURVE
100
AcDbLine
 62
7
  6
CONTINUOUS
 10
-111.8629192513
 20
-29.4226797241
 11
-111.4861085499
 21
-29.0458690227
  0
LINE
  5
389
100
AcDbEntity
  8
CURVE
100
AcDbLine
 62
7
  6
CONTINUOUS
 10
-112.5904611379
 20
-30.3602323246
 11
-112.1809342086
 21
-29.9507053954
  0
LINE
  5
38A
100
AcDbEntity
  8
CURVE
100
AcDbLine
 62
7
  6
CONTINUOUS
 10
-111.6862682445
 20
-29.4560394313
 11
-111.3716469618
 21
-29.1414181486
  0
LINE
  5
38B
100
AcDbEntity
  8
CURVE
100
AcDbLine
 62
7
  6
CONTINUOUS
 10
-112.5674354795
 20
-30.5472173803
 11
-112.1463817632
 21
-30.126163664
  0
LINE
  5
38C
100
AcDbEntity
  8
CURVE
100
AcDbLine
 62
7
  6
CONTINUOUS
 10
-111.5618681323
 20
-29.5416500331
 11
-111.2778556944
 21
-29.2576375952
  0
LINE
  5
38D
100
AcDbEntity
  8
CURVE
100
AcDbLine
 62
7
  6
CONTINUOUS
 10
-112.438762524
 20
-30.6285551388
 11
-111.9363710492
 21
-30.126163664
  0
LINE
  5
38E
100
AcDbEntity
  8
CURVE
100
AcDbLine
 62
7
  6
CONTINUOUS
 10
-111.4927098217
 20
-29.6825024365
 11
-110.8087955135
 21
-28.9985881283
  0
LINE
  5
38F
100
AcDbEntity
  8
CURVE
100
AcDbLine
 62
7
  6
CONTINUOUS
 10
-112.22875181
 20
-30.6285551388
 11
-111.7263603352
 21
-30.126163664
  0
LINE
  5
390
100
AcDbEntity
  8
CURVE
100
AcDbLine
 62
7
  6
CONTINUOUS
 10
-111.4740076179
 20
-29.8738109467
 11
-110.5223112911
 21
-28.9221146199
  0
LINE
  5
391
100
AcDbEntity
  8
CURVE
100
AcDbLine
 62
7
  6
CONTINUOUS
 10
-112.018741096
 20
-30.6285551388
 11
-111.5163496212
 21
-30.126163664
  0
LINE
  5
392
100
AcDbEntity
  8
CURVE
100
AcDbLine
 62
7
  6
CONTINUOUS
 10
-111.4740076179
 20
-30.0838216607
 11
-110.2380341636
 21
-28.8478482064
  0
LINE
  5
393
100
AcDbEntity
  8
CURVE
100
AcDbLine
 62
7
  6
CONTINUOUS
 10
-111.808730382
 20
-30.6285551388
 11
-111.0648607269
 21
-29.8846854838
  0
LINE
  5
394
100
AcDbEntity
  8
CURVE
100
AcDbLine
 62
7
  6
CONTINUOUS
 10
-110.6548759647
 20
-29.4747007215
 11
-110.0871982362
 21
-28.9070229931
  0
LINE
  5
395
100
AcDbEntity
  8
CURVE
100
AcDbLine
 62
7
  6
CONTINUOUS
 10
-112.5854114811
 20
-31.6152469519
 11
-112.4894690765
 21
-31.5193045474
  0
LINE
  5
396
100
AcDbEntity
  8
CURVE
100
AcDbLine
 62
7
  6
CONTINUOUS
 10
-111.598719668
 20
-30.6285551388
 11
-111.0648607269
 21
-30.0946961978
  0
LINE
  5
397
100
AcDbEntity
  8
CURVE
100
AcDbLine
 62
7
  6
CONTINUOUS
 10
-110.3593252485
 20
-29.3891607194
 11
-110.0871982362
 21
-29.1170337071
  0
LINE
  5
398
100
AcDbEntity
  8
CURVE
100
AcDbLine
 62
7
  6
CONTINUOUS
 10
-112.5854114811
 20
-31.825257666
 11
-112.1864181425
 21
-31.4262643273
  0
LINE
  5
399
100
AcDbEntity
  8
CURVE
100
AcDbLine
 62
7
  6
CONTINUOUS
 10
-111.3887089539
 20
-30.6285551388
 11
-110.8690156124
 21
-30.1088617972
  0
LINE
  5
39A
100
AcDbEntity
  8
CURVE
100
AcDbLine
 62
7
  6
CONTINUOUS
 10
-112.5854114811
 20
-32.03526838
 11
-111.8833672084
 21
-31.3332241073
  0
LINE
  5
39B
100
AcDbEntity
  8
CURVE
100
AcDbLine
 62
7
  6
CONTINUOUS
 10
-111.1786982399
 20
-30.6285551388
 11
-110.6590048984
 21
-30.1088617972
  0
LINE
  5
39C
100
AcDbEntity
  8
CURVE
100
AcDbLine
 62
7
  6
CONTINUOUS
 10
-112.4394690935
 20
-32.0993367064
 11
-111.5803162744
 21
-31.2401838873
  0
LINE
  5
39D
100
AcDbEntity
  8
CURVE
100
AcDbLine
 62
7
  6
CONTINUOUS
 10
-110.9686875259
 20
-30.6285551388
 11
-110.4489941843
 21
-30.1088617972
  0
LINE
  5
39E
100
AcDbEntity
  8
CURVE
100
AcDbLine
 62
7
  6
CONTINUOUS
 10
-112.2796259148
 20
-32.1495042417
 11
-111.2772653404
 21
-31.1471436673
  0
LINE
  5
39F
100
AcDbEntity
  8
CURVE
100
AcDbLine
 62
7
  6
CONTINUOUS
 10
-110.7586768119
 20
-30.6285551388
 11
-110.2389834703
 21
-30.1088617972
  0
LINE
  5
3A0
100
AcDbEntity
  8
CURVE
100
AcDbLine
 62
7
  6
CONTINUOUS
 10
-112.119782736
 20
-32.1996717769
 11
-111.767814005
 21
-31.8477030459
  0
LINE
  5
3A1
100
AcDbEntity
  8
CURVE
100
AcDbLine
 62
7
  6
CONTINUOUS
 10
-111.6724898384
 20
-31.7523788793
 11
-110.9742144063
 21
-31.0541034472
  0
LINE
  5
3A2
100
AcDbEntity
  8
CURVE
100
AcDbLine
 62
7
  6
CONTINUOUS
 10
-110.5486660979
 20
-30.6285551388
 11
-110.0871982362
 21
-30.1670872772
  0
LINE
  5
3A3
100
AcDbEntity
  8
CURVE
100
AcDbLine
 62
7
  6
CONTINUOUS
 10
-111.9599395573
 20
-32.2498393122
 11
-111.6037729531
 21
-31.893672708
  0
LINE
  5
3A4
100
AcDbEntity
  8
CURVE
100
AcDbLine
 62
7
  6
CONTINUOUS
 10
-111.3892200363
 20
-31.6791197912
 11
-110.6711634723
 21
-30.9610632272
  0
LINE
  5
3A5
100
AcDbEntity
  8
CURVE
100
AcDbLine
 62
7
  6
CONTINUOUS
 10
-110.3386553839
 20
-30.6285551388
 11
-110.0871982362
 21
-30.3770979912
  0
LINE
  5
3A6
100
AcDbEntity
  8
0
100
AcDbLine
 62
7
  6
CONTINUOUS
 10
-107.6802424926
 20
25.2
 11
-107.5302424926
 21
25.05
  0
LINE
  5
3A7
100
AcDbEntity
  8
CURVE
100
AcDbLine
 62
7
  6
CONTINUOUS
 10
-111.8000963785
 20
-32.3000068475
 11
-111.4397319012
 21
-31.9396423701
  0
LINE
  5
3A8
100
AcDbEntity
  8
CURVE
100
AcDbLine
 62
7
  6
CONTINUOUS
 10
-111.1059502342
 20
-31.6058607031
 11
-110.3681125383
 21
-30.8680230072
  0
LINE
  5
3A9
100
AcDbEntity
  8
CURVE
100
AcDbLine
 62
7
  6
CONTINUOUS
 10
-110.1286446699
 20
-30.6285551388
 11
-110.0871982362
 21
-30.5871087052
  0
LINE
  5
3AA
100
AcDbEntity
  8
CURVE
100
AcDbLine
 62
7
  6
CONTINUOUS
 10
-112.5854114811
 20
-33.295332664
 11
-112.4287139289
 21
-33.1386351119
  0
LINE
  5
3AB
100
AcDbEntity
  8
CURVE
100
AcDbLine
 62
7
  6
CONTINUOUS
 10
-111.6402531998
 20
-32.3501743827
 11
-111.2756908493
 21
-31.9856120322
  0
LINE
  5
3AC
100
AcDbEntity
  8
CURVE
100
AcDbLine
 62
7
  6
CONTINUOUS
 10
-110.9718470201
 20
-31.6817682031
 11
-110.0871982527
 21
-30.7971194357
  0
LINE
  5
3AD
100
AcDbEntity
  8
CURVE
100
AcDbLine
 62
7
  6
CONTINUOUS
 10
-112.5854114811
 20
-33.5053433781
 11
-112.1970244794
 21
-33.1169563763
  0
LINE
  5
3AE
100
AcDbEntity
  8
CURVE
100
AcDbLine
 62
7
  6
CONTINUOUS
 10
-111.480410021
 20
-32.400341918
 11
-111.1116497974
 21
-32.0315816943
  0
LINE
  5
3AF
100
AcDbEntity
  8
CURVE
100
AcDbLine
 62
7
  6
CONTINUOUS
 10
-110.9718470201
 20
-31.8917789171
 11
-110.5859302535
 21
-31.5058621504
  0
LINE
  5
3B0
100
AcDbEntity
  8
CURVE
100
AcDbLine
 62
7
  6
CONTINUOUS
 10
-110.5324805617
 20
-31.4524124587
 11
-110.0871982527
 21
-31.0071301497
  0
LINE
  5
3B1
100
AcDbEntity
  8
CURVE
100
AcDbLine
 62
7
  6
CONTINUOUS
 10
-112.5521356883
 20
-33.6820782993
 11
-111.9653350298
 21
-33.0952776408
  0
LINE
  5
3B2
100
AcDbEntity
  8
CURVE
100
AcDbLine
 62
7
  6
CONTINUOUS
 10
-111.3205668423
 20
-32.4505094532
 11
-110.5859302535
 21
-31.7158728645
  0
LINE
  5
3B3
100
AcDbEntity
  8
CURVE
100
AcDbLine
 62
7
  6
CONTINUOUS
 10
-110.244387638
 20
-31.3743302489
 11
-110.0871982527
 21
-31.2171408637
  0
LINE
  5
3B4
100
AcDbEntity
  8
CURVE
100
AcDbLine
 62
7
  6
CONTINUOUS
 10
-112.3995336234
 20
-33.7394869484
 11
-111.7336455802
 21
-33.0735989052
  0
LINE
  5
3B5
100
AcDbEntity
  8
CURVE
100
AcDbLine
 62
7
  6
CONTINUOUS
 10
-111.1607236635
 20
-32.5006769885
 11
-110.5859302535
 21
-31.9258835785
  0
LINE
  5
3B6
100
AcDbEntity
  8
CURVE
100
AcDbLine
 62
7
  6
CONTINUOUS
 10
-112.2469315586
 20
-33.7968955976
 11
-111.5019561307
 21
-33.0519201697
  0
LINE
  5
3B7
100
AcDbEntity
  8
CURVE
100
AcDbLine
 62
7
  6
CONTINUOUS
 10
-111.0008804848
 20
-32.5508445238
 11
-110.5859302535
 21
-32.1358942925
  0
LINE
  5
3B8
100
AcDbEntity
  8
CURVE
100
AcDbLine
 62
7
  6
CONTINUOUS
 10
-112.0943294937
 20
-33.8543042467
 11
-111.2702666811
 21
-33.0302414342
  0
LINE
  5
3B9
100
AcDbEntity
  8
CURVE
100
AcDbLine
 62
7
  6
CONTINUOUS
 10
-110.841037306
 20
-32.601012059
 11
-110.4552472009
 21
-32.2152219539
  0
LINE
  5
3BA
100
AcDbEntity
  8
CURVE
100
AcDbLine
 62
7
  6
CONTINUOUS
 10
-111.9417274288
 20
-33.9117128959
 11
-111.607140859
 21
-33.577126326
  0
LINE
  5
3BB
100
AcDbEntity
  8
CURVE
100
AcDbLine
 62
7
  6
CONTINUOUS
 10
-111.5570069955
 20
-33.5269924626
 11
-111.0385772316
 21
-33.0085626986
  0
LINE
  5
3BC
100
AcDbEntity
  8
CURVE
100
AcDbLine
 62
7
  6
CONTINUOUS
 10
-110.6811941273
 20
-32.6511795943
 11
-110.2922837359
 21
-32.2622692029
  0
LINE
  5
3BD
100
AcDbEntity
  8
CURVE
100
AcDbLine
 62
7
  6
CONTINUOUS
 10
-112.5854114811
 20
-34.7654076621
 11
-112.4933838101
 21
-34.6733799911
  0
LINE
  5
3BE
100
AcDbEntity
  8
CURVE
100
AcDbLine
 62
7
  6
CONTINUOUS
 10
-111.789125364
 20
-33.969121545
 11
-111.4551697648
 21
-33.6351659459
  0
LINE
  5
3BF
100
AcDbEntity
  8
CURVE
100
AcDbLine
 62
7
  6
CONTINUOUS
 10
-111.3321579117
 20
-33.5121540927
 11
-110.806887782
 21
-32.9868839631
  0
LINE
  5
3C0
100
AcDbEntity
  8
CURVE
100
AcDbLine
 62
7
  6
CONTINUOUS
 10
-110.5213509485
 20
-32.7013471295
 11
-110.1293202708
 21
-32.3093164518
  0
LINE
  5
3C1
100
AcDbEntity
  8
CURVE
100
AcDbLine
 62
7
  6
CONTINUOUS
 10
-112.5854114811
 20
-34.9754183761
 11
-112.1588519367
 21
-34.5488588318
  0
LINE
  5
3C2
100
AcDbEntity
  8
CURVE
100
AcDbLine
 62
7
  6
CONTINUOUS
 10
-111.6365232991
 20
-34.0265301942
 11
-111.3031986707
 21
-33.6932055657
  0
LINE
  5
3C3
100
AcDbEntity
  8
CURVE
100
AcDbLine
 62
7
  6
CONTINUOUS
 10
-111.1073088278
 20
-33.4973157228
 11
-110.5751983325
 21
-32.9652052275
  0
LINE
  5
3C4
100
AcDbEntity
  8
CURVE
100
AcDbLine
 62
7
  6
CONTINUOUS
 10
-110.3615077698
 20
-32.7515146648
 11
-110.0871982527
 21
-32.4772051478
  0
LINE
  5
3C5
100
AcDbEntity
  8
CURVE
100
AcDbLine
 62
7
  6
CONTINUOUS
 10
-112.5854114811
 20
-35.1854290902
 11
-111.8243200634
 21
-34.4243376724
  0
LINE
  5
3C6
100
AcDbEntity
  8
CURVE
100
AcDbLine
 62
7
  6
CONTINUOUS
 10
-111.4839212343
 20
-34.0839388433
 11
-111.1512275765
 21
-33.7512451855
  0
LINE
  5
3C7
100
AcDbEntity
  8
CURVE
100
AcDbLine
 62
7
  6
CONTINUOUS
 10
-110.8824597439
 20
-33.482477353
 11
-110.3435088829
 21
-32.943526492
  0
LINE
  5
3C8
100
AcDbEntity
  8
CURVE
100
AcDbLine
 62
7
  6
CONTINUOUS
 10
-110.201664591
 20
-32.8016822001
 11
-110.0871982527
 21
-32.6872158618
  0
LINE
  5
3C9
100
AcDbEntity
  8
CURVE
100
AcDbLine
 62
7
  6
CONTINUOUS
 10
-112.4327596722
 20
-35.2427879953
 11
-111.48978819
 21
-34.2998165131
  0
LINE
  5
3CA
100
AcDbEntity
  8
CURVE
100
AcDbLine
 62
7
  6
CONTINUOUS
 10
-111.3313191694
 20
-34.1413474925
 11
-110.9992564823
 21
-33.8092848054
  0
LINE
  5
3CB
100
AcDbEntity
  8
CURVE
100
AcDbLine
 62
7
  6
CONTINUOUS
 10
-110.6576106601
 20
-33.4676389831
 11
-110.1118194334
 21
-32.9218477565
  0
LINE
  5
3CC
100
AcDbEntity
  8
CURVE
100
AcDbLine
 62
7
  6
CONTINUOUS
 10
-112.2401510285
 20
-35.2601900656
 11
-110.8472853882
 21
-33.8673244252
  0
LINE
  5
3CD
100
AcDbEntity
  8
CURVE
100
AcDbLine
 62
7
  6
CONTINUOUS
 10
-110.4327615762
 20
-33.4528006133
 11
-110.0871982527
 21
-33.1072372898
  0
LINE
  5
3CE
100
AcDbEntity
  8
CURVE
100
AcDbLine
 62
7
  6
CONTINUOUS
 10
-112.5855603903
 20
-35.8156101414
 11
-112.5055552489
 21
-35.735605
  0
LINE
  5
3CF
100
AcDbEntity
  8
CURVE
100
AcDbLine
 62
7
  6
CONTINUOUS
 10
-112.0475423848
 20
-35.2775921359
 11
-111.6196887943
 21
-34.8497385454
  0
LINE
  5
3D0
100
AcDbEntity
  8
CURVE
100
AcDbLine
 62
7
  6
CONTINUOUS
 10
-111.5494351436
 20
-34.7794848947
 11
-110.695314294
 21
-33.9253640451
  0
LINE
  5
3D1
100
AcDbEntity
  8
CURVE
100
AcDbLine
 62
7
  6
CONTINUOUS
 10
-110.2079124923
 20
-33.4379622434
 11
-110.0871982527
 21
-33.3172480038
  0
LINE
  5
3D2
100
AcDbEntity
  8
CURVE
100
AcDbLine
 62
7
  6
CONTINUOUS
 10
-112.5855603903
 20
-36.0256208554
 11
-112.2955445349
 21
-35.735605
  0
LINE
  5
3D3
100
AcDbEntity
  8
CURVE
100
AcDbLine
 62
7
  6
CONTINUOUS
 10
-111.854933741
 20
-35.2949942062
 11
-111.4232384853
 21
-34.8632989504
  0
LINE
  5
3D4
100
AcDbEntity
  8
CURVE
100
AcDbLine
 62
7
  6
CONTINUOUS
 10
-111.2132881395
 20
-34.6533486047
 11
-110.5433431998
 21
-33.9834036649
  0
LINE
  5
3D5
100
AcDbEntity
  8
CURVE
100
AcDbLine
 62
7
  6
CONTINUOUS
 10
-112.5855603903
 20
-36.2356315695
 11
-112.0855338209
 21
-35.735605
  0
LINE
  5
3D6
100
AcDbEntity
  8
CURVE
100
AcDbLine
 62
7
  6
CONTINUOUS
 10
-111.6623250973
 20
-35.3123962764
 11
-111.2267881762
 21
-34.8768593553
  0
LINE
  5
3D7
100
AcDbEntity
  8
CURVE
100
AcDbLine
 62
7
  6
CONTINUOUS
 10
-110.8771411355
 20
-34.5272123146
 11
-110.3913721056
 21
-34.0414432848
  0
LINE
  5
3D8
100
AcDbEntity
  8
CURVE
100
AcDbLine
 62
7
  6
CONTINUOUS
 10
-112.3973161069
 20
-36.257398
 11
-111.8755231069
 21
-35.735605
  0
LINE
  5
3D9
100
AcDbEntity
  8
CURVE
100
AcDbLine
 62
7
  6
CONTINUOUS
 10
-111.4697164536
 20
-35.3297983467
 11
-111.0303378672
 21
-34.8904197603
  0
LINE
  5
3DA
100
AcDbEntity
  8
CURVE
100
AcDbLine
 62
7
  6
CONTINUOUS
 10
-110.5409941315
 20
-34.4010760246
 11
-110.2394010115
 21
-34.0994829046
  0
LINE
  5
3DB
100
AcDbEntity
  8
CURVE
100
AcDbLine
 62
7
  6
CONTINUOUS
 10
-112.5854114811
 20
-36.6555040882
 11
-112.4307039009
 21
-36.5007965081
  0
LINE
  5
3DC
100
AcDbEntity
  8
CURVE
100
AcDbLine
 62
7
  6
CONTINUOUS
 10
-112.1873053929
 20
-36.257398
 11
-111.6655123929
 21
-35.735605
  0
LINE
  5
3DD
100
AcDbEntity
  8
CURVE
100
AcDbLine
 62
7
  6
CONTINUOUS
 10
-111.2771078099
 20
-35.347200417
 11
-110.8338875581
 21
-34.9039801653
  0
LINE
  5
3DE
100
AcDbEntity
  8
CURVE
100
AcDbLine
 62
7
  6
CONTINUOUS
 10
-110.2048471275
 20
-34.2749397346
 11
-110.0874299173
 21
-34.1575225245
  0
LINE
  5
3DF
100
AcDbEntity
  8
CURVE
100
AcDbLine
 62
7
  6
CONTINUOUS
 10
-112.5854114811
 20
-36.8655148023
 11
-112.2718018025
 21
-36.5519051237
  0
LINE
  5
3E0
100
AcDbEntity
  8
CURVE
100
AcDbLine
 62
7
  6
CONTINUOUS
 10
-111.9772946788
 20
-36.257398
 11
-111.4555016788
 21
-35.735605
  0
LINE
  5
3E1
100
AcDbEntity
  8
CURVE
100
AcDbLine
 62
7
  6
CONTINUOUS
 10
-111.0844991661
 20
-35.3646024873
 11
-110.6374372491
 21
-34.9175405702
  0
LINE
  5
3E2
100
AcDbEntity
  8
CURVE
100
AcDbLine
 62
7
  6
CONTINUOUS
 10
-112.5052500005
 20
-36.9953640357
 11
-112.1128997041
 21
-36.6030137393
  0
LINE
  5
3E3
100
AcDbEntity
  8
CURVE
100
AcDbLine
 62
7
  6
CONTINUOUS
 10
-111.7672839648
 20
-36.257398
 11
-111.2454909648
 21
-35.735605
  0
LINE
  5
3E4
100
AcDbEntity
  8
CURVE
100
AcDbLine
 62
7
  6
CONTINUOUS
 10
-110.8918905224
 20
-35.3820045576
 11
-110.44098694
 21
-34.9311009752
  0
LINE
  5
3E5
100
AcDbEntity
  8
CURVE
100
AcDbLine
 62
7
  6
CONTINUOUS
 10
-112.3418889261
 20
-37.0420136752
 11
-111.9539976057
 21
-36.6541223549
  0
LINE
  5
3E6
100
AcDbEntity
  8
CURVE
100
AcDbLine
 62
7
  6
CONTINUOUS
 10
-111.5572732508
 20
-36.257398
 11
-111.0354802508
 21
-35.735605
  0
LINE
  5
3E7
100
AcDbEntity
  8
CURVE
100
AcDbLine
 62
7
  6
CONTINUOUS
 10
-110.6992818787
 20
-35.3994066279
 11
-110.244536631
 21
-34.9446613802
  0
LINE
  5
3E8
100
AcDbEntity
  8
CURVE
100
AcDbLine
 62
7
  6
CONTINUOUS
 10
-112.1785278516
 20
-37.0886633148
 11
-111.7950955073
 21
-36.7052309705
  0
LINE
  5
3E9
100
AcDbEntity
  8
CURVE
100
AcDbLine
 62
7
  6
CONTINUOUS
 10
-111.3472625368
 20
-36.257398
 11
-110.8254695368
 21
-35.735605
  0
LINE
  5
3EA
100
AcDbEntity
  8
CURVE
100
AcDbLine
 62
7
  6
CONTINUOUS
 10
-110.506673235
 20
-35.4168086982
 11
-110.0871982527
 21
-34.9973337159
  0
LINE
  5
3EB
100
AcDbEntity
  8
CURVE
100
AcDbLine
 62
7
  6
CONTINUOUS
 10
-112.0151667772
 20
-37.1353129544
 11
-111.6361934089
 21
-36.7563395861
  0
LINE
  5
3EC
100
AcDbEntity
  8
CURVE
100
AcDbLine
 62
7
  6
CONTINUOUS
 10
-111.1372518228
 20
-36.257398
 11
-110.6154588228
 21
-35.735605
  0
LINE
  5
3ED
100
AcDbEntity
  8
CURVE
100
AcDbLine
 62
7
  6
CONTINUOUS
 10
-110.3140645912
 20
-35.4342107685
 11
-110.0871982527
 21
-35.2073444299
  0
LINE
  5
3EE
100
AcDbEntity
  8
CURVE
100
AcDbLine
 62
7
  6
CONTINUOUS
 10
-111.8518057028
 20
-37.181962594
 11
-111.4772913105
 21
-36.8074482017
  0
LINE
  5
3EF
100
AcDbEntity
  8
CURVE
100
AcDbLine
 62
7
  6
CONTINUOUS
 10
-110.9272411088
 20
-36.257398
 11
-110.4054481088
 21
-35.735605
  0
LINE
  5
3F0
100
AcDbEntity
  8
CURVE
100
AcDbLine
 62
7
  6
CONTINUOUS
 10
-110.1214559475
 20
-35.4516128387
 11
-110.0871982527
 21
-35.417355144
  0
LINE
  5
3F1
100
AcDbEntity
  8
CURVE
100
AcDbLine
 62
7
  6
CONTINUOUS
 10
-112.5854114811
 20
-38.1255790863
 11
-112.3287241708
 21
-37.868891776
  0
LINE
  5
3F2
100
AcDbEntity
  8
CURVE
100
AcDbLine
 62
7
  6
CONTINUOUS
 10
-111.6884446284
 20
-37.2286122336
 11
-111.3183892121
 21
-36.8585568173
  0
LINE
  5
3F3
100
AcDbEntity
  8
CURVE
100
AcDbLine
 62
7
  6
CONTINUOUS
 10
-110.7172303948
 20
-36.257398
 11
-110.1954373948
 21
-35.735605
  0
LINE
  5
3F4
100
AcDbEntity
  8
CURVE
100
AcDbLine
 62
7
  6
CONTINUOUS
 10
-112.5854114811
 20
-38.3355898003
 11
-112.038214038
 21
-37.7883923573
  0
LINE
  5
3F5
100
AcDbEntity
  8
CURVE
100
AcDbLine
 62
7
  6
CONTINUOUS
 10
-111.5250835539
 20
-37.2752618732
 11
-111.1594871137
 21
-36.9096654329
  0
LINE
  5
3F6
100
AcDbEntity
  8
CURVE
100
AcDbLine
 62
7
  6
CONTINUOUS
 10
-110.5072196808
 20
-36.257398
 11
-110.0871982527
 21
-35.837376572
  0
LINE
  5
3F7
100
AcDbEntity
  8
CURVE
100
AcDbLine
 62
7
  6
CONTINUOUS
 10
-112.5286536662
 20
-38.4888426995
 11
-111.7477039053
 21
-37.7078929385
  0
LINE
  5
3F8
100
AcDbEntity
  8
CURVE
100
AcDbLine
 62
7
  6
CONTINUOUS
 10
-111.3617224795
 20
-37.3219115128
 11
-111.0005850153
 21
-36.9607740485
  0
LINE
  5
3F9
100
AcDbEntity
  8
CURVE
100
AcDbLine
 62
7
  6
CONTINUOUS
 10
-110.2972089667
 20
-36.257398
 11
-110.0871982527
 21
-36.047387286
  0
LINE
  5
3FA
100
AcDbEntity
  8
CURVE
100
AcDbLine
 62
7
  6
CONTINUOUS
 10
-112.2210751296
 20
-38.3912748769
 11
-111.4571937725
 21
-37.6273935198
  0
LINE
  5
3FB
100
AcDbEntity
  8
CURVE
100
AcDbLine
 62
7
  6
CONTINUOUS
 10
-111.1983614051
 20
-37.3685611524
 11
-110.8416829169
 21
-37.0118826642
  0
LINE
  5
3FC
100
AcDbEntity
  8
CURVE
100
AcDbLine
 62
7
  6
CONTINUOUS
 10
-111.913496593
 20
-38.2937070543
 11
-111.1666836398
 21
-37.546894101
  0
LINE
  5
3FD
100
AcDbEntity
  8
CURVE
100
AcDbLine
 62
7
  6
CONTINUOUS
 10
-111.0350003307
 20
-37.415210792
 11
-110.6827808185
 21
-37.0629912798
  0
LINE
  5
3FE
100
AcDbEntity
  8
CURVE
100
AcDbLine
 62
7
  6
CONTINUOUS
 10
-111.6059180565
 20
-38.1961392318
 11
-110.876173507
 21
-37.4663946823
  0
LINE
  5
3FF
100
AcDbEntity
  8
CURVE
100
AcDbLine
 62
7
  6
CONTINUOUS
 10
-110.8716392562
 20
-37.4618604315
 11
-110.5238787201
 21
-37.1140998954
  0
LINE
  5
400
100
AcDbEntity
  8
CURVE
100
AcDbLine
 62
7
  6
CONTINUOUS
 10
-111.2983395199
 20
-38.0985714092
 11
-110.3649766217
 21
-37.165208511
  0
LINE
  5
401
100
AcDbEntity
  8
CURVE
100
AcDbLine
 62
7
  6
CONTINUOUS
 10
-110.9907609833
 20
-38.0010035866
 11
-110.2060745233
 21
-37.2163171266
  0
LINE
  5
402
100
AcDbEntity
  8
CURVE
100
AcDbLine
 62
7
  6
CONTINUOUS
 10
-110.6831824468
 20
-37.9034357641
 11
-110.0871982527
 21
-37.3074515701
  0
LINE
  5
403
100
AcDbEntity
  8
CURVE
100
AcDbLine
 62
7
  6
CONTINUOUS
 10
-110.3756039102
 20
-37.8058679415
 11
-110.0871982527
 21
-37.5174622841
  0
LINE
  5
404
100
AcDbEntity
  8
0
100
AcDbLine
 62
250
  6
CONTINUOUS
 10
-107.0544699088
 20
-26.9276792439
 11
-105.954951049
 21
-26.3440350289
  0
LINE
  5
405
100
AcDbEntity
  8
0
100
AcDbLine
 62
250
  6
CONTINUOUS
 10
-105.5301932604
 20
-26.2536973817
 11
-105.0081014076
 21
-25.9765617175
  0
LINE
  5
406
100
AcDbEntity
  8
0
100
AcDbLine
 62
7
  6
CONTINUOUS
 10
-104.9802424926
 20
-26.0883643404
 11
-106.9152305308
 21
-27.1154904916
  0
LINE
  5
407
100
AcDbEntity
  8
0
100
AcDbLine
 62
7
  6
CONTINUOUS
 10
-104.9802424926
 20
25.4
 11
-106.9306143947
 21
25.2049628098
  0
LINE
  5
408
100
AcDbEntity
  8
0
100
AcDbLine
 62
7
  6
CONTINUOUS
 10
-107.9802424926
 20
25.7558198745
 11
-105.1697753013
 21
25.8799866677
  0
LINE
  5
409
100
AcDbEntity
  8
0
100
AcDbLine
 62
7
  6
CONTINUOUS
 10
-104.9802424926
 20
25.3523612067
 11
-105.5021791469
 21
25.3478063346
  0
LINE
  5
40A
100
AcDbEntity
  8
0
100
AcDbLine
 62
7
  6
CONTINUOUS
 10
-107.9802424926
 20
25.05
 11
-107.8302424926
 21
25.05
  0
LINE
  5
40B
100
AcDbEntity
  8
0
100
AcDbLine
 62
7
  6
CONTINUOUS
 10
-107.5302424926
 20
25.05
 11
-107.3302424926
 21
25.05
  0
LINE
  5
40C
100
AcDbEntity
  8
0
100
AcDbLine
 62
7
  6
CONTINUOUS
 10
-107.9802424926
 20
25.2
 11
-107.0301181137
 21
25.2
  0
LINE
  5
40D
100
AcDbEntity
  8
0
100
AcDbLine
 62
7
  6
CONTINUOUS
 10
-104.9802424926
 20
26.1523612067
 11
-105.1008052596
 21
26.1523612067
  0
LINE
  5
40E
100
AcDbEntity
  8
0
100
AcDbLine
 62
250
  6
CONTINUOUS
 10
-107.0544699088
 20
26.9276792439
 11
-107.9802424926
 21
26.9280974384
  0
LINE
  5
40F
100
AcDbEntity
  8
0
100
AcDbLine
 62
7
  6
CONTINUOUS
 10
-107.0544053416
 20
27.1501294387
 11
-107.9802424926
 21
27.151745331
  0
LINE
  5
410
100
AcDbEntity
  8
0
100
AcDbLine
 62
250
  6
CONTINUOUS
 10
-105.5301932604
 20
26.2536973817
 11
-107.9802424926
 21
26.2679513512
  0
LINE
  5
411
100
AcDbEntity
  8
0
100
AcDbLine
 62
7
  6
CONTINUOUS
 10
-105.5301932604
 20
26.3415638603
 11
-107.9802424926
 21
26.3558178298
  0
LINE
  5
412
100
AcDbEntity
  8
0
100
AcDbLine
 62
250
  6
CONTINUOUS
 10
-105.954951049
 20
26.3440350289
 11
-107.0544699088
 21
26.9276792439
  0
LINE
  5
413
100
AcDbEntity
  8
0
100
AcDbLine
 62
250
  6
CONTINUOUS
 10
-105.0081014076
 20
25.9765617175
 11
-105.5301932604
 21
26.2536973817
  0
LINE
  5
414
100
AcDbEntity
  8
0
100
AcDbLine
 62
7
  6
CONTINUOUS
 10
-104.9802424926
 20
26.0883643404
 11
-106.9152305308
 21
27.1154904916
  0
LINE
  5
415
100
AcDbEntity
  8
ASSI
100
AcDbLine
 62
7
  6
CONTINUOUS
 10
-114.1308516656
 20
-43.8055596544
 11
-114.1457900348
 21
-43.8199854699
  0
LINE
  5
416
100
AcDbEntity
  8
CURVE
100
AcDbLine
 62
250
  6
CONTINUOUS
 10
-112.5854114811
 20
-31.54876
 11
-110.0871982527
 21
-30.781779
  0
LINE
  5
417
100
AcDbEntity
  8
ASSI
100
AcDbLine
 62
7
  6
CONTINUOUS
 10
-114.1457900348
 20
43.8199854699
 11
-114.1308516656
 21
43.8055596544
  0
LINE
  5
418
100
AcDbEntity
  8
CURVE
100
AcDbLine
 62
250
  6
CONTINUOUS
 10
-110.0871982527
 20
-34.230793
 11
-111.7184839119
 21
-34.842919
  0
LINE
  5
419
100
AcDbEntity
  8
CURVE
100
AcDbLine
 62
250
  6
CONTINUOUS
 10
-112.5854114811
 20
-34.707635
 11
-111.1983959285
 21
-34.191353
  0
LINE
  5
41A
100
AcDbEntity
  8
CURVE
100
AcDbLine
 62
250
  6
CONTINUOUS
 10
-110.0871982527
 20
-37.714382
 11
-112.5854114811
 21
-38.506847
  0
LINE
  5
41B
100
AcDbEntity
  8
0
100
AcDbLine
 62
250
  6
CONTINUOUS
 10
-108.5802424926
 20
41.1619414324
 11
-107.9802424926
 21
41.2038975196
  0
LINE
  5
41C
100
AcDbEntity
  8
0
100
AcDbLine
 62
7
  6
CONTINUOUS
 10
-108.5802424926
 20
42.7580439128
 11
-107.9802424926
 21
42.8
  0
LINE
  5
41D
100
AcDbEntity
  8
ASSI
100
AcDbLine
 62
7
  6
CONTINUOUS
 10
-114.1308516656
 20
43.8055596544
 11
-108.5802424926
 21
43.9993911979
  0
LINE
  5
41E
100
AcDbEntity
  8
ASSI
100
AcDbLine
 62
7
  6
CONTINUOUS
 10
-114.1308516656
 20
44.8061684565
 11
-108.5802424926
 21
45.0
  0
LWPOLYLINE
  5
41F
100
AcDbEntity
  8
0
100
AcDbPolyline
 62
7
  6
CONTINUOUS
 90
8
 70
0
 43
0.3500000006
 10
-120.2259770508
 20
55.7499985657
 10
-119.3688300476
 20
55.7499985657
 10
-118.9402610779
 20
56.1785675354
 10
-118.9402610779
 20
57.0357145386
 10
-119.3688300476
 20
57.4642835083
 10
-120.2259770508
 20
57.4642835083
 10
-120.2259770508
 20
58.7499994812
 10
-118.9402610779
 20
58.7499994812
  0
LWPOLYLINE
  5
420
100
AcDbEntity
  8
0
100
AcDbPolyline
 62
7
  6
CONTINUOUS
 90
8
 70
0
 43
0.3500000006
 10
-120.4164783325
 20
63.7500010071
 10
-119.5593313293
 20
63.7500010071
 10
-119.1307623596
 20
64.1785699768
 10
-119.1307623596
 20
65.03571698
 10
-119.5593313293
 20
65.4642859497
 10
-120.4164783325
 20
65.4642859497
 10
-120.4164783325
 20
66.7500019226
 10
-119.1307623596
 20
66.7500019226
  0
ARC
  5
421
100
AcDbEntity
  8
CURVE
100
AcDbCircle
 62
250
  6
CONTINUOUS
 10
111.9922937963
 20
-29.8716892664
 40
39.8681074
100
AcDbArc
 50
179.7782450657
 51
180.3657160807
  0
ARC
  5
422
100
AcDbEntity
  8
SMUSSO
100
AcDbCircle
 62
7
  6
CONTINUOUS
 10
11.25
 20
-2.0
 40
4.7
100
AcDbArc
 50
180.0
 51
360.0
  0
ARC
  5
423
100
AcDbEntity
  8
SMUSSO
100
AcDbCircle
 62
7
  6
CONTINUOUS
 10
11.25
 20
2.0
 40
4.7
100
AcDbArc
 50
0.0
 51
180.0
  0
ARC
  5
424
100
AcDbEntity
  8
SMUSSO
100
AcDbCircle
 62
7
  6
CONTINUOUS
 10
-11.25
 20
-2.0
 40
4.7
100
AcDbArc
 50
180.0
 51
360.0
  0
ARC
  5
425
100
AcDbEntity
  8
SMUSSO
100
AcDbCircle
 62
7
  6
CONTINUOUS
 10
-11.25
 20
2.0
 40
4.7
100
AcDbArc
 50
0.0
 51
180.0
  0
ARC
  5
426
100
AcDbEntity
  8
SMUSSO
100
AcDbCircle
 62
7
  6
CONTINUOUS
 10
-33.75
 20
-2.0
 40
4.7
100
AcDbArc
 50
180.0
 51
360.0
  0
ARC
  5
427
100
AcDbEntity
  8
SMUSSO
100
AcDbCircle
 62
7
  6
CONTINUOUS
 10
-33.75
 20
2.0
 40
4.7
100
AcDbArc
 50
0.0
 51
180.0
  0
ARC
  5
428
100
AcDbEntity
  8
SMUSSO
100
AcDbCircle
 62
7
  6
CONTINUOUS
 10
33.75
 20
-2.0
 40
4.7
100
AcDbArc
 50
180.0
 51
360.0
  0
ARC
  5
429
100
AcDbEntity
  8
SMUSSO
100
AcDbCircle
 62
7
  6
CONTINUOUS
 10
33.75
 20
2.0
 40
4.7
100
AcDbArc
 50
0.0
 51
180.0
  0
ARC
  5
42A
100
AcDbEntity
  8
ASSI
100
AcDbCircle
 62
7
  6
CONTINUOUS
 10
-33.75
 20
-2.0
 40
4.7
100
AcDbArc
 50
180.0
 51
360.0
  0
ARC
  5
42B
100
AcDbEntity
  8
ASSI
100
AcDbCircle
 62
7
  6
CONTINUOUS
 10
-33.75
 20
2.0
 40
4.7
100
AcDbArc
 50
0.0
 51
180.0
  0
ARC
  5
42C
100
AcDbEntity
  8
ASSI
100
AcDbCircle
 62
7
  6
CONTINUOUS
 10
11.25
 20
-2.0
 40
4.7
100
AcDbArc
 50
180.0
 51
360.0
  0
ARC
  5
42D
100
AcDbEntity
  8
ASSI
100
AcDbCircle
 62
7
  6
CONTINUOUS
 10
11.25
 20
2.0
 40
4.7
100
AcDbArc
 50
0.0
 51
180.0
  0
ARC
  5
42E
100
AcDbEntity
  8
ASSI
100
AcDbCircle
 62
7
  6
CONTINUOUS
 10
-11.25
 20
-2.0
 40
4.7
100
AcDbArc
 50
180.0
 51
360.0
  0
ARC
  5
42F
100
AcDbEntity
  8
ASSI
100
AcDbCircle
 62
7
  6
CONTINUOUS
 10
-11.25
 20
2.0
 40
4.7
100
AcDbArc
 50
0.0
 51
180.0
  0
ARC
  5
430
100
AcDbEntity
  8
ASSI
100
AcDbCircle
 62
7
  6
CONTINUOUS
 10
33.75
 20
-2.0
 40
4.7
100
AcDbArc
 50
180.0
 51
360.0
  0
ARC
  5
431
100
AcDbEntity
  8
ASSI
100
AcDbCircle
 62
7
  6
CONTINUOUS
 10
33.75
 20
2.0
 40
4.7
100
AcDbArc
 50
0.0
 51
180.0
  0
ARC
  5
432
100
AcDbEntity
  8
SMUSSO
100
AcDbCircle
 62
7
  6
CONTINUOUS
 10
-33.75
 20
-2.0
 40
3.5
100
AcDbArc
 50
180.0
 51
360.0
  0
ARC
  5
433
100
AcDbEntity
  8
SMUSSO
100
AcDbCircle
 62
7
  6
CONTINUOUS
 10
-33.75
 20
2.0
 40
3.5
100
AcDbArc
 50
0.0
 51
180.0
  0
ARC
  5
434
100
AcDbEntity
  8
SMUSSO
100
AcDbCircle
 62
7
  6
CONTINUOUS
 10
-11.25
 20
-2.0
 40
3.5
100
AcDbArc
 50
180.0
 51
360.0
  0
ARC
  5
435
100
AcDbEntity
  8
SMUSSO
100
AcDbCircle
 62
7
  6
CONTINUOUS
 10
-11.25
 20
2.0
 40
3.5
100
AcDbArc
 50
0.0
 51
180.0
  0
ARC
  5
436
100
AcDbEntity
  8
SMUSSO
100
AcDbCircle
 62
7
  6
CONTINUOUS
 10
11.25
 20
-2.0
 40
3.5
100
AcDbArc
 50
180.0
 51
360.0
  0
ARC
  5
437
100
AcDbEntity
  8
SMUSSO
100
AcDbCircle
 62
7
  6
CONTINUOUS
 10
11.25
 20
2.0
 40
3.5
100
AcDbArc
 50
0.0
 51
180.0
  0
ARC
  5
438
100
AcDbEntity
  8
SMUSSO
100
AcDbCircle
 62
7
  6
CONTINUOUS
 10
33.75
 20
-2.0
 40
3.5
100
AcDbArc
 50
180.0
 51
360.0
  0
ARC
  5
439
100
AcDbEntity
  8
SMUSSO
100
AcDbCircle
 62
7
  6
CONTINUOUS
 10
33.75
 20
2.0
 40
3.5
100
AcDbArc
 50
0.0
 51
180.0
  0
ARC
  5
43A
100
AcDbEntity
  8
ASSI
100
AcDbCircle
 62
7
  6
CONTINUOUS
 10
-33.75
 20
-2.0
 40
3.5
100
AcDbArc
 50
180.0
 51
360.0
  0
ARC
  5
43B
100
AcDbEntity
  8
ASSI
100
AcDbCircle
 62
7
  6
CONTINUOUS
 10
-33.75
 20
2.0
 40
3.5
100
AcDbArc
 50
0.0
 51
180.0
  0
ARC
  5
43C
100
AcDbEntity
  8
ASSI
100
AcDbCircle
 62
7
  6
CONTINUOUS
 10
-11.25
 20
-2.0
 40
3.5
100
AcDbArc
 50
180.0
 51
360.0
  0
ARC
  5
43D
100
AcDbEntity
  8
ASSI
100
AcDbCircle
 62
7
  6
CONTINUOUS
 10
-11.25
 20
2.0
 40
3.5
100
AcDbArc
 50
0.0
 51
180.0
  0
ARC
  5
43E
100
AcDbEntity
  8
ASSI
100
AcDbCircle
 62
7
  6
CONTINUOUS
 10
11.25
 20
-2.0
 40
3.5
100
AcDbArc
 50
180.0
 51
360.0
  0
ARC
  5
43F
100
AcDbEntity
  8
ASSI
100
AcDbCircle
 62
7
  6
CONTINUOUS
 10
11.25
 20
2.0
 40
3.5
100
AcDbArc
 50
0.0
 51
180.0
  0
ARC
  5
440
100
AcDbEntity
  8
ASSI
100
AcDbCircle
 62
7
  6
CONTINUOUS
 10
33.75
 20
-2.0
 40
3.5
100
AcDbArc
 50
180.0
 51
360.0
  0
ARC
  5
441
100
AcDbEntity
  8
ASSI
100
AcDbCircle
 62
7
  6
CONTINUOUS
 10
33.75
 20
2.0
 40
3.5
100
AcDbArc
 50
0.0
 51
180.0
  0
ARC
  5
442
100
AcDbEntity
  8
0
100
AcDbCircle
 62
7
  6
CONTINUOUS
 10
-107.0301181137
 20
-26.2
 40
1.0
100
AcDbArc
 50
84.2894068625
 51
90.0
  0
ARC
  5
443
100
AcDbEntity
  8
0
100
AcDbCircle
 62
7
  6
CONTINUOUS
 10
-107.0301181137
 20
26.2
 40
1.0
100
AcDbArc
 50
270.0
 51
275.7105931375
  0
ARC
  5
444
100
AcDbEntity
  8
0
100
AcDbCircle
 62
7
  6
CONTINUOUS
 10
-107.0549293077
 20
-26.8499995703
 40
0.3
100
AcDbArc
 50
270.0999999936
 51
297.9490718565
  0
ARC
  5
445
100
AcDbEntity
  8
0
100
AcDbCircle
 62
7
  6
CONTINUOUS
 10
-107.0549293077
 20
26.8499995703
 40
0.3
100
AcDbArc
 50
62.0509281435
 51
89.9000000064
  0
ARC
  5
446
100
AcDbEntity
  8
0
100
AcDbCircle
 62
7
  6
CONTINUOUS
 10
-108.0302424926
 20
2.6214065094
 40
0.3
100
AcDbArc
 50
0.0
 51
80.4010886585
  0
ARC
  5
447
100
AcDbEntity
  8
0
100
AcDbCircle
 62
7
  6
CONTINUOUS
 10
-108.0302424926
 20
-2.6214065094
 40
0.3
100
AcDbArc
 50
279.5989113415
 51
360.0
  0
ARC
  5
448
100
AcDbEntity
  8
0
100
AcDbCircle
 62
7
  6
CONTINUOUS
 10
-105.5319385798
 20
-26.0415689373
 40
0.3
100
AcDbArc
 50
270.3333333333
 51
297.9601595792
  0
ARC
  5
449
100
AcDbEntity
  8
0
100
AcDbCircle
 62
7
  6
CONTINUOUS
 10
-105.5319385798
 20
26.0415689373
 40
0.3
100
AcDbArc
 50
62.0398404207
 51
89.6666666667
  0
SPLINE
  5
44A
100
AcDbEntity
  8
CURVE
100
AcDbSpline
 62
250
  6
CONTINUOUS
 70
0
 71
3
 72
9
 73
5
 74
0
 42
0.0000001
 43
0.0000001
 44
0.0000000001
 40
0.0
 40
0.0
 40
0.0
 40
0.0
 40
0.2957417834
 40
1.0
 40
1.0
 40
1.0
 40
1.0
 10
72.1120741759
 20
-29.3408501143
 30
0.0
 10
72.1105585951
 20
-29.4610542637
 30
0.0
 10
72.1080881081
 20
-29.8931154132
 30
0.0
 10
72.1096096759
 20
-30.3274429247
 30
0.0
 10
72.1111556794
 20
-30.6285551388
 30
0.0
  0
SPLINE
  5
44B
100
AcDbEntity
  8
CURVE
100
AcDbSpline
 62
250
  6
CONTINUOUS
 70
0
 71
3
 72
17
 73
13
 74
0
 42
0.0000001
 43
0.0000001
 44
0.0000000001
 40
0.0
 40
0.0
 40
0.0
 40
0.0
 40
0.0559780952
 40
0.1687540387
 40
0.321006234
 40
0.4122750837
 40
0.516613223
 40
0.6013931059
 40
0.6776022439
 40
0.8103422694
 40
0.9200404832
 40
1.0
 40
1.0
 40
1.0
 40
1.0
 10
72.1561378054
 20
-29.2870512436
 30
0.0
 10
72.1560080221
 20
-29.2582307418
 30
0.0
 10
72.1539944413
 20
-29.184972753
 30
0.0
 10
72.1501559947
 20
-29.0634829078
 30
0.0
 10
72.144247302
 20
-28.9740276278
 30
0.0
 10
72.1380831982
 20
-28.9341773505
 30
0.0
 10
72.1329671207
 20
-28.9304334968
 30
0.0
 10
72.1281887457
 20
-28.9501640226
 30
0.0
 10
72.1231113496
 20
-28.9979840427
 30
0.0
 10
72.1181353908
 20
-29.0877998266
 30
0.0
 10
72.1142440602
 20
-29.2146127248
 30
0.0
 10
72.112565765
 20
-29.301804483
 30
0.0
 10
72.1120741759
 20
-29.3408501143
 30
0.0
  0
SPLINE
  5
44C
100
AcDbEntity
  8
CURVE
100
AcDbSpline
 62
250
  6
CONTINUOUS
 70
0
 71
3
 72
9
 73
5
 74
0
 42
0.0000001
 43
0.0000001
 44
0.0000000001
 40
0.0
 40
0.0
 40
0.0
 40
0.0
 40
0.2426586216
 40
1.0
 40
1.0
 40
1.0
 40
1.0
 10
72.1737639114
 20
-28.9862836897
 30
0.0
 10
72.1721786227
 20
-28.9986586641
 30
0.0
 10
72.1657768408
 20
-29.0459291565
 30
0.0
 10
72.1585526835
 20
-29.1505648409
 30
0.0
 10
72.1566533149
 20
-29.2870512436
 30
0.0
  0
LINE
  5
44D
100
AcDbEntity
  8
CURVE
100
AcDbLine
 62
250
  6
CONTINUOUS
 10
72.1973759458
 20
-28.8079038802
 11
72.1737639114
 21
-28.9862836897
  0
SPLINE
  5
44E
100
AcDbEntity
  8
CURVE
100
AcDbSpline
 62
250
  6
CONTINUOUS
 70
0
 71
3
 72
9
 73
5
 74
0
 42
0.0000001
 43
0.0000001
 44
0.0000000001
 40
0.0
 40
0.0
 40
0.0
 40
0.0
 40
0.5586214172
 40
1.0
 40
1.0
 40
1.0
 40
1.0
 10
72.1709220674
 20
-29.5379751749
 30
0.0
 10
72.1757378197
 20
-29.486134558
 30
0.0
 10
72.1846552336
 20
-29.4179595379
 30
0.0
 10
72.1934695024
 20
-29.3419894791
 30
0.0
 10
72.1973759458
 20
-29.3098079785
 30
0.0
  0
SPLINE
  5
44F
100
AcDbEntity
  8
CURVE
100
AcDbSpline
 62
250
  6
CONTINUOUS
 70
0
 71
3
 72
9
 73
5
 74
0
 42
0.0000001
 43
0.0000001
 44
0.0000000001
 40
0.0
 40
0.0
 40
0.0
 40
0.0
 40
0.3559141631
 40
1.0
 40
1.0
 40
1.0
 40
1.0
 10
72.1632352194
 20
-29.8290889245
 30
0.0
 10
72.1632352194
 20
-29.7836184402
 30
0.0
 10
72.1641961358
 20
-29.6528120506
 30
0.0
 10
72.1682334149
 20
-29.5668873007
 30
0.0
 10
72.1709220674
 20
-29.5379751749
 30
0.0
  0
SPLINE
  5
450
100
AcDbEntity
  8
CURVE
100
AcDbSpline
 62
250
  6
CONTINUOUS
 70
0
 71
3
 72
9
 73
5
 74
0
 42
0.0000001
 43
0.0000001
 44
0.0000000001
 40
0.0
 40
0.0
 40
0.0
 40
0.0
 40
0.5206208722
 40
1.0
 40
1.0
 40
1.0
 40
1.0
 10
72.135390512
 20
-29.4226356449
 30
0.0
 10
72.1391619261
 20
-29.4209681689
 30
0.0
 10
72.1474005432
 20
-29.4973108459
 30
0.0
 10
72.1488699409
 20
-29.728472706
 30
0.0
 10
72.1489474951
 20
-29.8279642095
 30
0.0
  0
SPLINE
  5
451
100
AcDbEntity
  8
CURVE
100
AcDbSpline
 62
250
  6
CONTINUOUS
 70
0
 71
3
 72
9
 73
5
 74
0
 42
0.0000001
 43
0.0000001
 44
0.0000000001
 40
0.0
 40
0.0
 40
0.0
 40
0.0
 40
0.5013510385
 40
1.0
 40
1.0
 40
1.0
 40
1.0
 10
72.1244850009
 20
-29.7173859732
 30
0.0
 10
72.124794863
 20
-29.6409112471
 30
0.0
 10
72.1271452432
 20
-29.4862321801
 30
0.0
 10
72.1327184632
 20
-29.423833145
 30
0.0
 10
72.135390512
 20
-29.4226356449
 30
0.0
  0
SPLINE
  5
452
100
AcDbEntity
  8
CURVE
100
AcDbSpline
 62
250
  6
CONTINUOUS
 70
0
 71
3
 72
9
 73
5
 74
0
 42
0.0000001
 43
0.0000001
 44
0.0000000001
 40
0.0
 40
0.0
 40
0.0
 40
0.0
 40
0.2957417834
 40
1.0
 40
1.0
 40
1.0
 40
1.0
 10
-112.5299213248
 20
-29.3408501143
 30
0.0
 10
-112.5733218805
 20
-29.4610542637
 30
0.0
 10
-112.644067373
 20
-29.8931154132
 30
0.0
 10
-112.6004953734
 20
-30.3274429247
 30
0.0
 10
-112.556223625
 20
-30.6285551388
 30
0.0
  0
SPLINE
  5
453
100
AcDbEntity
  8
CURVE
100
AcDbSpline
 62
250
  6
CONTINUOUS
 70
0
 71
3
 72
17
 73
13
 74
0
 42
0.0000001
 43
0.0000001
 44
0.0000000001
 40
0.0
 40
0.0
 40
0.0
 40
0.0
 40
0.0559780952
 40
0.1687540387
 40
0.321006234
 40
0.4122750837
 40
0.516613223
 40
0.6013931059
 40
0.6776022439
 40
0.8103422694
 40
0.9200404832
 40
1.0
 40
1.0
 40
1.0
 40
1.0
 10
-111.2681040703
 20
-29.2870512436
 30
0.0
 10
-111.2718205794
 20
-29.2582307418
 30
0.0
 10
-111.3294819876
 20
-29.184972753
 30
0.0
 10
-111.4394007176
 20
-29.0634829078
 30
0.0
 10
-111.6086035368
 20
-28.9740276278
 30
0.0
 10
-111.7851203761
 20
-28.9341773505
 30
0.0
 10
-111.931625668
 20
-28.9304334968
 30
0.0
 10
-112.0684604223
 20
-28.9501640226
 30
0.0
 10
-112.2138580231
 20
-28.9979840427
 30
0.0
 10
-112.3563508416
 20
-29.0877998266
 30
0.0
 10
-112.4677839689
 20
-29.2146127248
 30
0.0
 10
-112.5158440561
 20
-29.301804483
 30
0.0
 10
-112.5299213248
 20
-29.3408501143
 30
0.0
  0
SPLINE
  5
454
100
AcDbEntity
  8
CURVE
100
AcDbSpline
 62
250
  6
CONTINUOUS
 70
0
 71
3
 72
9
 73
5
 74
0
 42
0.0000001
 43
0.0000001
 44
0.0000000001
 40
0.0
 40
0.0
 40
0.0
 40
0.0
 40
0.2426586216
 40
1.0
 40
1.0
 40
1.0
 40
1.0
 10
-110.7633584347
 20
-28.9862836897
 30
0.0
 10
-110.8087551626
 20
-28.9986586641
 30
0.0
 10
-110.992078213
 20
-29.0459291565
 30
0.0
 10
-111.1989510112
 20
-29.1505648409
 30
0.0
 10
-111.2533418107
 20
-29.2870512436
 30
0.0
  0
SPLINE
  5
455
100
AcDbEntity
  8
CURVE
100
AcDbSpline
 62
250
  6
CONTINUOUS
 70
0
 71
3
 72
9
 73
5
 74
0
 42
0.0000001
 43
0.0000001
 44
0.0000000001
 40
0.0
 40
0.0
 40
0.0
 40
0.0
 40
0.1980141723
 40
1.0
 40
1.0
 40
1.0
 40
1.0
 10
-110.0871982362
 20
-28.8079038802
 30
0.0
 10
-110.1317395517
 20
-28.8200085492
 30
0.0
 10
-110.3571851957
 20
-28.8792554798
 30
0.0
 10
-110.5829984332
 20
-28.9371156095
 30
0.0
 10
-110.7633584347
 20
-28.9862836897
 30
0.0
  0
SPLINE
  5
456
100
AcDbEntity
  8
CURVE
100
AcDbSpline
 62
250
  6
CONTINUOUS
 70
0
 71
3
 72
9
 73
5
 74
0
 42
0.0000001
 43
0.0000001
 44
0.0000000001
 40
0.0
 40
0.0
 40
0.0
 40
0.0
 40
0.5586214172
 40
1.0
 40
1.0
 40
1.0
 40
1.0
 10
-110.8447382009
 20
-29.5379751749
 30
0.0
 10
-110.7068330976
 20
-29.486134558
 30
0.0
 10
-110.4514717732
 20
-29.4179595379
 30
0.0
 10
-110.1990641398
 20
-29.3419894791
 30
0.0
 10
-110.0871982362
 20
-29.3098079785
 30
0.0
  0
SPLINE
  5
457
100
AcDbEntity
  8
CURVE
100
AcDbSpline
 62
250
  6
CONTINUOUS
 70
0
 71
3
 72
9
 73
5
 74
0
 42
0.0000001
 43
0.0000001
 44
0.0000000001
 40
0.0
 40
0.0
 40
0.0
 40
0.0
 40
0.3559141631
 40
1.0
 40
1.0
 40
1.0
 40
1.0
 10
-111.0648607269
 20
-29.8290889245
 30
0.0
 10
-111.0648607269
 20
-29.7836184402
 30
0.0
 10
-111.037343679
 20
-29.6528120506
 30
0.0
 10
-110.9217311333
 20
-29.5668873007
 30
0.0
 10
-110.8447382009
 20
-29.5379751749
 30
0.0
  0
SPLINE
  5
458
100
AcDbEntity
  8
CURVE
100
AcDbSpline
 62
250
  6
CONTINUOUS
 70
0
 71
3
 72
9
 73
5
 74
0
 42
0.0000001
 43
0.0000001
 44
0.0000000001
 40
0.0
 40
0.0
 40
0.0
 40
0.0
 40
0.5206208722
 40
1.0
 40
1.0
 40
1.0
 40
1.0
 10
-111.8622288184
 20
-29.4226356449
 30
0.0
 10
-111.7542296488
 20
-29.4209681689
 30
0.0
 10
-111.5183065252
 20
-29.4973108459
 30
0.0
 10
-111.4762284794
 20
-29.728472706
 30
0.0
 10
-111.4740076179
 20
-29.8279642095
 30
0.0
  0
SPLINE
  5
459
100
AcDbEntity
  8
CURVE
100
AcDbSpline
 62
250
  6
CONTINUOUS
 70
0
 71
3
 72
9
 73
5
 74
0
 42
0.0000001
 43
0.0000001
 44
0.0000000001
 40
0.0
 40
0.0
 40
0.0
 40
0.0
 40
0.5013510385
 40
1.0
 40
1.0
 40
1.0
 40
1.0
 10
-112.1745217979
 20
-29.7173859732
 30
0.0
 10
-112.1656485082
 20
-29.6409112471
 30
0.0
 10
-112.0983424261
 20
-29.4862321801
 30
0.0
 10
-111.9387462858
 20
-29.423833145
 30
0.0
 10
-111.8622288184
 20
-29.4226356449
 30
0.0
  0
SPLINE
  5
45A
100
AcDbEntity
  8
CURVE
100
AcDbSpline
 62
250
  6
CONTINUOUS
 70
0
 71
3
 72
9
 73
5
 74
0
 42
0.0000001
 43
0.0000001
 44
0.0000000001
 40
0.0
 40
0.0
 40
0.0
 40
0.0
 40
0.2703953699
 40
1.0
 40
1.0
 40
1.0
 40
1.0
 10
-112.1598157398
 20
-30.126163664
 30
0.0
 10
-112.1660262715
 20
-30.0897447717
 30
0.0
 10
-112.1864522155
 20
-29.9546358143
 30
0.0
 10
-112.1860087914
 20
-29.8164101388
 30
0.0
 10
-112.1745217979
 20
-29.7173859732
 30
0.0
  0
SPLINE
  5
45B
100
AcDbEntity
  8
0
100
AcDbSpline
 62
250
  6
CONTINUOUS
 70
0
 71
3
 72
17
 73
13
 74
0
 42
0.0000001
 43
0.0000001
 44
0.0000000001
 40
0.0
 40
0.0
 40
0.0
 40
0.0
 40
0.2246664094
 40
0.4244159606
 40
0.5968698275
 40
0.740116107
 40
0.852966033
 40
0.9343261697
 40
0.9629605269
 40
0.9834868471
 40
0.9958490574
 40
1.0
 40
1.0
 40
1.0
 40
1.0
 10
-105.5301932604
 20
26.2536973817
 30
0.0
 10
-105.5301708349
 20
26.2602777389
 30
0.0
 10
-105.5301315817
 20
26.2727082659
 30
0.0
 10
-105.5300846288
 20
26.2901918491
 30
0.0
 10
-105.530060159
 20
26.3052846155
 30
0.0
 10
-105.5300387871
 20
26.3178494928
 30
0.0
 10
-105.5300732262
 20
26.3277000543
 30
0.0
 10
-105.5300351602
 20
26.3342971317
 30
0.0
 10
-105.5301422832
 20
26.3380251079
 30
0.0
 10
-105.5300350608
 20
26.3399838662
 30
0.0
 10
-105.5302888033
 20
26.3407901078
 30
0.0
 10
-105.5300716828
 20
26.341563153
 30
0.0
 10
-105.5301932604
 20
26.3415638603
 30
0.0
  0
SPLINE
  5
45C
100
AcDbEntity
  8
0
100
AcDbSpline
 62
250
  6
CONTINUOUS
 70
0
 71
3
 72
11
 73
7
 74
0
 42
0.0000001
 43
0.0000001
 44
0.0000000001
 40
0.0
 40
0.0
 40
0.0
 40
0.0
 40
0.2014202255
 40
0.426619486
 40
0.6906633363
 40
1.0
 40
1.0
 40
1.0
 40
1.0
 10
-105.3912813313
 20
-26.3065510847
 30
0.0
 10
-105.3975690029
 20
-26.3098886929
 30
0.0
 10
-105.4125053991
 20
-26.3141435322
 30
0.0
 10
-105.4371962989
 20
-26.3120196133
 30
0.0
 10
-105.4639574966
 20
-26.3023922165
 30
0.0
 10
-105.4815112797
 20
-26.2920716595
 30
0.0
 10
-105.4905597604
 20
-26.2859359948
 30
0.0
  0
SPLINE
  5
45D
100
AcDbEntity
  8
0
100
AcDbSpline
 62
250
  6
CONTINUOUS
 70
0
 71
3
 72
9
 73
5
 74
0
 42
0.0000001
 43
0.0000001
 44
0.0000000001
 40
0.0
 40
0.0
 40
0.0
 40
0.0
 40
0.2353640437
 40
1.0
 40
1.0
 40
1.0
 40
1.0
 10
-105.4905597604
 20
-26.2859359948
 30
0.0
 10
-105.4938792806
 20
-26.2836850685
 30
0.0
 10
-105.5077489288
 20
-26.2737769942
 30
0.0
 10
-105.520724097
 20
-26.2626478062
 30
0.0
 10
-105.5301932604
 20
-26.2536973817
 30
0.0
  0
SPLINE
  5
45E
100
AcDbEntity
  8
0
100
AcDbSpline
 62
250
  6
CONTINUOUS
 70
0
 71
3
 72
11
 73
7
 74
0
 42
0.0000001
 43
0.0000001
 44
0.0000000001
 40
0.0
 40
0.0
 40
0.0
 40
0.0
 40
0.2014183949
 40
0.4266166996
 40
0.6906612792
 40
1.0
 40
1.0
 40
1.0
 40
1.0
 10
-105.3912813313
 20
26.3065510847
 30
0.0
 10
-105.3975691821
 20
26.3098887881
 30
0.0
 10
-105.41250609
 20
26.3141436768
 30
0.0
 10
-105.4371978261
 20
26.3120193272
 30
0.0
 10
-105.4639599331
 20
26.3023911058
 30
0.0
 10
-105.4815142939
 20
26.2920698265
 30
0.0
 10
-105.4905630772
 20
26.2859337461
 30
0.0
  0
SPLINE
  5
45F
100
AcDbEntity
  8
0
100
AcDbSpline
 62
250
  6
CONTINUOUS
 70
0
 71
3
 72
9
 73
5
 74
0
 42
0.0000001
 43
0.0000001
 44
0.0000000001
 40
0.0
 40
0.0
 40
0.0
 40
0.0
 40
0.2353655658
 40
1.0
 40
1.0
 40
1.0
 40
1.0
 10
-105.4905630772
 20
26.2859337461
 30
0.0
 10
-105.4938823232
 20
26.2836829285
 30
0.0
 10
-105.5077507554
 20
26.2737754487
 30
0.0
 10
-105.520724857
 20
26.2626470879
 30
0.0
 10
-105.5301932604
 20
26.2536973817
 30
0.0
  0
SPLINE
  5
460
100
AcDbEntity
  8
0
100
AcDbSpline
 62
250
  6
CONTINUOUS
 70
0
 71
3
 72
9
 73
5
 74
0
 42
0.0000001
 43
0.0000001
 44
0.0000000001
 40
0.0
 40
0.0
 40
0.0
 40
0.0
 40
0.5592144859
 40
1.0
 40
1.0
 40
1.0
 40
1.0
 10
-107.0544699088
 20
-26.9276792439
 30
0.0
 10
-107.0382785784
 20
-26.9561475334
 30
0.0
 10
-107.0081934985
 20
-27.0064029529
 30
0.0
 10
-106.9754230189
 20
-27.0550509604
 30
0.0
 10
-106.959635337
 20
-27.0754752523
 30
0.0
  0
SPLINE
  5
461
100
AcDbEntity
  8
0
100
AcDbSpline
 62
250
  6
CONTINUOUS
 70
0
 71
3
 72
10
 73
6
 74
0
 42
0.0000001
 43
0.0000001
 44
0.0000000001
 40
0.0
 40
0.0
 40
0.0
 40
0.0
 40
0.6950016115
 40
0.8908811162
 40
1.0
 40
1.0
 40
1.0
 40
1.0
 10
-106.959635337
 20
-27.0754752523
 30
0.0
 10
-106.9508692539
 20
-27.0868158052
 30
0.0
 10
-106.9388307006
 20
-27.1012198751
 30
0.0
 10
-106.9233667791
 20
-27.1142344318
 30
0.0
 10
-106.9163261446
 20
-27.116066932
 30
0.0
 10
-106.9143362589
 20
-27.1150157961
 30
0.0
  0
SPLINE
  5
462
100
AcDbEntity
  8
0
100
AcDbSpline
 62
7
  6
CONTINUOUS
 70
0
 71
3
 72
9
 73
5
 74
0
 42
0.0000001
 43
0.0000001
 44
0.0000000001
 40
0.0
 40
0.0
 40
0.0
 40
0.0
 40
0.4298638959
 40
1.0
 40
1.0
 40
1.0
 40
1.0
 10
-104.9802424926
 20
26.0463167932
 30
0.0
 10
-104.9802424926
 20
26.0354717441
 30
0.0
 10
-104.9881519122
 20
26.0106368792
 30
0.0
 10
-105.0007519957
 20
25.9889263869
 30
0.0
 10
-105.0081014076
 20
25.9765617175
 30
0.0
  0
SPLINE
  5
463
100
AcDbEntity
  8
0
100
AcDbSpline
 62
250
  6
CONTINUOUS
 70
0
 71
3
 72
13
 73
9
 74
0
 42
0.0000001
 43
0.0000001
 44
0.0000000001
 40
0.0
 40
0.0
 40
0.0
 40
0.0
 40
0.3880505426
 40
0.7024996487
 40
0.8213626308
 40
0.910531391
 40
0.9687616585
 40
1.0
 40
1.0
 40
1.0
 40
1.0
 10
-107.0544699088
 20
26.9276792439
 30
0.0
 10
-107.039273392
 20
26.9543865333
 30
0.0
 10
-107.0107631581
 20
27.0021431798
 30
0.0
 10
-106.9745515495
 20
27.0563326342
 30
0.0
 10
-106.9492638694
 20
27.0889705478
 30
0.0
 10
-106.9346325489
 20
27.1045077282
 30
0.0
 10
-106.924443381
 20
27.1136621549
 30
0.0
 10
-106.916519039
 20
27.1161795474
 30
0.0
 10
-106.9143362589
 20
27.1150157961
 30
0.0
  0
SPLINE
  5
464
100
AcDbEntity
  8
0
100
AcDbSpline
 62
7
  6
CONTINUOUS
 70
0
 71
3
 72
9
 73
5
 74
0
 42
0.0000001
 43
0.0000001
 44
0.0000000001
 40
0.0
 40
0.0
 40
0.0
 40
0.0
 40
0.5701360159
 40
1.0
 40
1.0
 40
1.0
 40
1.0
 10
-105.0081014076
 20
-25.9765617175
 30
0.0
 10
-105.0007519968
 20
-25.988926385
 30
0.0
 10
-104.9881519139
 20
-26.0106368773
 30
0.0
 10
-104.9802424926
 20
-26.0354717419
 30
0.0
 10
-104.9802424926
 20
-26.0463167932
 30
0.0
  0
SPLINE
  5
465
100
AcDbEntity
  8
0
100
AcDbSpline
 62
250
  6
CONTINUOUS
 70
0
 71
3
 72
17
 73
13
 74
0
 42
0.0000001
 43
0.0000001
 44
0.0000000001
 40
0.0
 40
0.0
 40
0.0
 40
0.0
 40
0.0041509426
 40
0.0165131528
 40
0.0370394731
 40
0.0656738303
 40
0.147033967
 40
0.259883893
 40
0.4031301725
 40
0.5755840393
 40
0.7753335906
 40
1.0
 40
1.0
 40
1.0
 40
1.0
 10
-105.5301932604
 20
-26.3415638603
 30
0.0
 10
-105.5300716828
 20
-26.341563153
 30
0.0
 10
-105.5302888033
 20
-26.3407901078
 30
0.0
 10
-105.5300350608
 20
-26.3399838662
 30
0.0
 10
-105.5301422832
 20
-26.3380251079
 30
0.0
 10
-105.5300351602
 20
-26.3342971317
 30
0.0
 10
-105.5300732262
 20
-26.3277000543
 30
0.0
 10
-105.5300387871
 20
-26.3178494928
 30
0.0
 10
-105.530060159
 20
-26.3052846155
 30
0.0
 10
-105.5300846288
 20
-26.2901918491
 30
0.0
 10
-105.5301315817
 20
-26.2727082659
 30
0.0
 10
-105.5301708349
 20
-26.2602777389
 30
0.0
 10
-105.5301932604
 20
-26.2536973817
 30
0.0
  0
ELLIPSE
  5
466
100
AcDbEntity
  8
0
100
AcDbEllipse
 62
7
  6
CONTINUOUS
 10
-105.1802424926
 20
-26.079798695
 30
0.0
 11
0.1417119467
 21
0.1422961243
 31
0.0
 40
0.9918061237
 41
-0.2491986107
 42
0.7350951877
  0
ELLIPSE
  5
467
100
AcDbEntity
  8
0
100
AcDbEllipse
 62
7
  6
CONTINUOUS
 10
-105.1802424926
 20
26.079798695
 30
0.0
 11
-0.1417119467
 21
0.1422961243
 31
0.0
 40
0.9918061237
 41
-3.8766878413
 42
-2.8923940429
  0
ENDSEC
  0
SECTION
  2
OBJECTS
  0
DICTIONARY
  5
C
100
AcDbDictionary
280
0
281
1
  3
ACAD_GROUP
350
D
  3
ACAD_MLINESTYLE
350
17
  3
ACAD_LAYOUT
350
1A
  3
ACAD_PLOTSETTINGS
350
19
  3
ACAD_PLOTSTYLENAME
350
E
  0
DICTIONARY
  5
D
102
{ACAD_REACTORS
330
C
102
}
100
AcDbDictionary
280
0
281
1
  0
ACDBDICTIONARYWDFLT
  5
E
102
{ACAD_REACTORS
330
C
102
}
100
AcDbDictionary
281
1
  3
Normal
350
F
100
AcDbDictionaryWithDefault
340
F
  0
DICTIONARY
  5
17
102
{ACAD_REACTORS
330
C
102
}
100
AcDbDictionary
280
0
281
1
  3
Standard
350
18
  0
DICTIONARY
  5
19
102
{ACAD_REACTORS
330
C
102
}
100
AcDbDictionary
281
1
  0
DICTIONARY
  5
1A
102
{ACAD_REACTORS
330
C
102
}
100
AcDbDictionary
281
1
  3
Model
350
468
  3
Layout1
350
469
  0
ACDBPLACEHOLDER
  5
F
102
{ACAD_REACTORS
330
E
102
}
  0
MLINESTYLE
  5
18
102
{ACAD_REACTORS
330
17
102
}
100
AcDbMlineStyle
  2
STANDARD
 70
0
  3

 62
256
 51
90.0
 52
90.0
 71
2
 49
0.5
 62
256
  6
BYLAYER
 49
-0.5
 62
256
  6
BYLAYER
  0
LAYOUT
  5
468
102
{ACAD_REACTORS
330
1A
102
}
100
AcDbPlotSettings
  1

  2
none_device
  4
ISO_A4_(297.00_x_210.00_MM)
  6

 40
0.0
 41
0.0
 42
0.0
 43
0.0
 44
297.0
 45
210.0
 46
0.0
 47
0.0
 48
0.0
 49
0.0
140
0.0
141
0.0
142
1.0
143
1.0
 70
1024
 72
1
 73
0
 74
0
  7

 75
0
147
1.0
148
0.0
149
0.0
100
AcDbLayout
  1
Model
 70
0
 71
0
 10
0.0
 20
0.0
 11
297.0
 21
210.0
 12
0.0
 22
0.0
 32
0.0
 14
0.0
 24
0.0
 34
0.0
 15
0.0
 25
0.0
 35
0.0
146
0.0
 13
0.0
 23
0.0
 33
0.0
 16
1.0
 26
0.0
 36
0.0
 17
0.0
 27
1.0
 37
0.0
 76
0
330
21E
345
0
346
0
  0
LAYOUT
  5
469
102
{ACAD_REACTORS
330
1A
102
}
100
AcDbPlotSettings
  1

  2
none_device
  4
ISO_A4_(297.00_x_210.00_MM)
  6

 40
0.0
 41
0.0
 42
0.0
 43
0.0
 44
297.0
 45
210.0
 46
0.0
 47
0.0
 48
0.0
 49
0.0
140
0.0
141
0.0
142
1.0
143
1.0
 70
0
 72
1
 73
0
 74
0
  7

 75
0
147
1.0
148
0.0
149
0.0
100
AcDbLayout
  1
Layout1
 70
0
 71
1
 10
0.0
 20
0.0
 11
297.0
 21
210.0
 12
0.0
 22
0.0
 32
0.0
 14
0.0
 24
0.0
 34
0.0
 15
0.0
 25
0.0
 35
0.0
146
0.0
 13
0.0
 23
0.0
 33
0.0
 16
1.0
 26
0.0
 36
0.0
 17
0.0
 27
1.0
 37
0.0
 76
0
330
21F
345
0
346
0
  0
ENDSEC
  0
EOF
