  0
SECTION
  2
HEADER
  9
$ACADVER
  1
AC1024
  9
$DWGCODEPAGE
  3
ANSI_1252
  9
$EXTMAX
 10
297.0
 20
210.0
 30
0.0
  9
$EXTMIN
 10
0.0
 20
0.0
 30
0.0
  9
$LIMMIN
 10
0.0
 20
0.0
  9
$LIMMAX
 10
297.0
 20
210.0
  9
$VIEWCTR
 10
148.5
 20
105.0
  9
$VIEWSIZE
 40
210.0
  9
$CLAYER
  8
0
  9
$LTSCALE
 40
16.335
  9
$CELTYPE
  6
BYLAYER
  9
$DIMSCALE
 40
1.0
  9
$DIMASZ
 40
3.0
  9
$DIMEXO
 40
0.5
  9
$DIMDLI
 40
11.286
  9
$DIMEXE
 40
1.5
  9
$DIMCEN
 40
2.673
  9
$DIMLFAC
 40
1.0
  9
$DIMBLK
  1
_FILLED
  9
$DIMALT
 70
0
  9
$DIMALTF
 40
0.0393700787
  9
$DIMTXT
 40
3.0
  9
$DIMTOL
 70
1
  9
$DIMLIM
 70
0
  9
$DIMTFAC
 40
1.0
  9
$DIMTP
 40
0.01
  9
$DIMTM
 40
0.01
  9
$DIMGAP
 40
0.625
  9
$DIMDSEP
 70
44
  9
$AUNITS
 70
0
  9
$PDMODE
 70
3
  9
$PDSIZE
 40
3.0
  9
$HANDSEED
  5
485
  9
$TILEMODE
 70
1
  9
$MEASUREMENT
 70
1
  9
$INSUNITS
 70
4
  0
ENDSEC
  0
SECTION
  2
CLASSES
  0
CLASS
  1
ACDBDICTIONARYWDFLT
  2
AcDbDictionaryWithDefault
  3
AutoCAD 2000
 90
0
 91
1
280
0
281
0
  0
CLASS
  1
ACDBPLACEHOLDER
  2
AcDbPlaceHolder
  3
AutoCAD 2000
 90
0
 91
1
280
0
281
0
  0
CLASS
  1
LAYOUT
  2
AcDbLayout
  3
AutoCAD 2000
 90
0
 91
0
280
0
281
0
  0
ENDSEC
  0
SECTION
  2
TABLES
  0
TABLE
  2
VPORT
  5
8
100
AcDbSymbolTable
 70
2
  0
VPORT
  5
1F4
100
AcDbSymbolTableRecord
100
AcDbViewportTableRecord
  2
*ACTIVE
 70
0
 10
0.0
 20
0.0
 11
1.0
 21
1.0
 12
148.5
 22
105.0
 13
0.0
 23
0.0
 14
1.0
 24
1.0
 15
0.0
 25
0.0
 16
0.0
 26
0.0
 36
1.0
 17
0.0
 27
0.0
 37
0.0
 40
210.0
 41
1.4142857143
 42
50.0
 43
0.0
 44
0.0
 50
0.0
 51
0.0
 71
0
 72
100
 73
1
 74
1
 75
0
 76
0
 77
0
 78
0
  0
ENDTAB
  0
TABLE
  2
LTYPE
  5
5
100
AcDbSymbolTable
 70
6
  0
LTYPE
  5
14
100
AcDbSymbolTableRecord
100
AcDbLinetypeTableRecord
  2
BYBLOCK
 70
0
  3

 72
65
 73
0
 40
0.0
  0
LTYPE
  5
15
100
AcDbSymbolTableRecord
100
AcDbLinetypeTableRecord
  2
BYLAYER
 70
0
  3

 72
65
 73
0
 40
0.0
  0
LTYPE
  5
16
100
AcDbSymbolTableRecord
100
AcDbLinetypeTableRecord
  2
CONTINUOUS
 70
64
  3
Solid line
 72
65
 73
0
 40
0.0
  0
LTYPE
  5
1F5
100
AcDbSymbolTableRecord
100
AcDbLinetypeTableRecord
  2
CENTER
 70
64
  3
____ _ ____ _ ____ _ ____ _ ____ _ ____ _ ____
 72
65
 73
4
 40
0.6
 49
0.375
 74
0
 49
-0.075
 74
0
 49
0.075
 74
0
 49
-0.075
 74
0
  0
LTYPE
  5
1F6
100
AcDbSymbolTableRecord
100
AcDbLinetypeTableRecord
  2
HIDDEN
 70
64
  3
- - - - - - - - - - - - - - - - - - - -
 72
65
 73
2
 40
0.2
 49
0.1
 74
0
 49
-0.1
 74
0
  0
LTYPE
  5
1F7
100
AcDbSymbolTableRecord
100
AcDbLinetypeTableRecord
  2
PHANTOM
 70
64
  3
_____ _ _ _____ _ _ _____ _ _ _____
 72
65
 73
6
 40
0.8
 49
0.45
 74
0
 49
-0.05
 74
0
 49
0.1
 74
0
 49
-0.05
 74
0
 49
0.1
 74
0
 49
-0.05
 74
0
  0
LTYPE
  5
1F8
100
AcDbSymbolTableRecord
100
AcDbLinetypeTableRecord
  2
DOT
 70
64
  3
. . . . . . . . . . . . . . . . . . . .
 72
65
 73
2
 40
0.2
 49
0.1
 74
0
 49
-0.1
 74
0
  0
LTYPE
  5
1F9
100
AcDbSymbolTableRecord
100
AcDbLinetypeTableRecord
  2
DASHED
 70
64
  3
- - - - - - - - - - - - - - - - - - - -
 72
65
 73
2
 40
0.2
 49
0.1
 74
0
 49
-0.1
 74
0
  0
ENDTAB
  0
TABLE
  2
LAYER
  5
2
100
AcDbSymbolTable
 70
36
  0
LAYER
  5
10
100
AcDbSymbolTableRecord
100
AcDbLayerTableRecord
  2
0
 70
0
 62
7
  6
CONTINUOUS
370
-3
390
F
  0
LAYER
  5
1FA
100
AcDbSymbolTableRecord
100
AcDbLayerTableRecord
  2
DEFAULT_1
 70
0
 62
7
  6
CENTER
370
-3
390
F
  0
LAYER
  5
1FB
100
AcDbSymbolTableRecord
100
AcDbLayerTableRecord
  2
DEFAULT_2
 70
0
 62
7
  6
HIDDEN
370
-3
390
F
  0
LAYER
  5
1FC
100
AcDbSymbolTableRecord
100
AcDbLayerTableRecord
  2
DEFAULT_3
 70
0
 62
7
  6
PHANTOM
370
-3
390
F
  0
LAYER
  5
1FD
100
AcDbSymbolTableRecord
100
AcDbLayerTableRecord
  2
ASSI
 70
0
 62
7
  6
CONTINUOUS
370
-3
390
F
  0
LAYER
  5
1FE
100
AcDbSymbolTableRecord
100
AcDbLayerTableRecord
  2
COORDINATE
 70
0
 62
7
  6
CONTINUOUS
370
-3
390
F
  0
LAYER
  5
1FF
100
AcDbSymbolTableRecord
100
AcDbLayerTableRecord
  2
COORD_ORIGINE
 70
0
 62
7
  6
CONTINUOUS
370
-3
390
F
  0
LAYER
  5
200
100
AcDbSymbolTableRecord
100
AcDbLayerTableRecord
  2
COPY_PUBLISH
 70
0
 62
7
  6
CONTINUOUS
370
-3
390
F
  0
LAYER
  5
201
100
AcDbSymbolTableRecord
100
AcDbLayerTableRecord
  2
COSMETIC
 70
0
 62
7
  6
CONTINUOUS
370
-3
390
F
  0
LAYER
  5
202
100
AcDbSymbolTableRecord
100
AcDbLayerTableRecord
  2
COSMETICI
 70
0
 62
7
  6
CONTINUOUS
370
-3
390
F
  0
LAYER
  5
203
100
AcDbSymbolTableRecord
100
AcDbLayerTableRecord
  2
CURVE
 70
0
 62
7
  6
CONTINUOUS
370
-3
390
F
  0
LAYER
  5
204
100
AcDbSymbolTableRecord
100
AcDbLayerTableRecord
  2
CURVE_COSTRUZIONE
 70
0
 62
7
  6
CONTINUOUS
370
-3
390
F
  0
LAYER
  5
205
100
AcDbSymbolTableRecord
100
AcDbLayerTableRecord
  2
CURVE_TASSELLI
 70
0
 62
7
  6
CONTINUOUS
370
-3
390
F
  0
LAYER
  5
206
100
AcDbSymbolTableRecord
100
AcDbLayerTableRecord
  2
DRAFT
 70
0
 62
7
  6
CONTINUOUS
370
-3
390
F
  0
LAYER
  5
207
100
AcDbSymbolTableRecord
100
AcDbLayerTableRecord
  2
IMPORT_IGES
 70
0
 62
7
  6
CONTINUOUS
370
-3
390
F
  0
LAYER
  5
208
100
AcDbSymbolTableRecord
100
AcDbLayerTableRecord
  2
INTFCLR_2
 70
0
 62
7
  6
CONTINUOUS
370
-3
390
F
  0
LAYER
  5
209
100
AcDbSymbolTableRecord
100
AcDbLayerTableRecord
  2
INTF_1
 70
0
 62
7
  6
CONTINUOUS
370
-3
390
F
  0
LAYER
  5
20A
100
AcDbSymbolTableRecord
100
AcDbLayerTableRecord
  2
INTF_6
 70
0
 62
7
  6
CONTINUOUS
370
-3
390
F
  0
LAYER
  5
20B
100
AcDbSymbolTableRecord
100
AcDbLayerTableRecord
  2
INTF_7
 70
0
 62
7
  6
CONTINUOUS
370
-3
390
F
  0
LAYER
  5
20C
100
AcDbSymbolTableRecord
100
AcDbLayerTableRecord
  2
INTF_CYAN
 70
0
 62
7
  6
CONTINUOUS
370
-3
390
F
  0
LAYER
  5
20D
100
AcDbSymbolTableRecord
100
AcDbLayerTableRecord
  2
LIVELLO_1
 70
0
 62
7
  6
CONTINUOUS
370
-3
390
F
  0
LAYER
  5
20E
100
AcDbSymbolTableRecord
100
AcDbLayerTableRecord
  2
NOTE
 70
0
 62
7
  6
CONTINUOUS
370
-3
390
F
  0
LAYER
  5
20F
100
AcDbSymbolTableRecord
100
AcDbLayerTableRecord
  2
PIANI
 70
0
 62
7
  6
CONTINUOUS
370
-3
390
F
  0
LAYER
  5
210
100
AcDbSymbolTableRecord
100
AcDbLayerTableRecord
  2
PIANI_ORIGINE
 70
0
 62
7
  6
CONTINUOUS
370
-3
390
F
  0
LAYER
  5
211
100
AcDbSymbolTableRecord
100
AcDbLayerTableRecord
  2
PIANI_RIFERIMENTO
 70
0
 62
7
  6
CONTINUOUS
370
-3
390
F
  0
LAYER
  5
212
100
AcDbSymbolTableRecord
100
AcDbLayerTableRecord
  2
PUNTI
 70
0
 62
7
  6
CONTINUOUS
370
-3
390
F
  0
LAYER
  5
213
100
AcDbSymbolTableRecord
100
AcDbLayerTableRecord
  2
RACCORDO
 70
0
 62
7
  6
CONTINUOUS
370
-3
390
F
  0
LAYER
  5
214
100
AcDbSymbolTableRecord
100
AcDbLayerTableRecord
  2
RGB__255__255__255__
 70
0
 62
7
  6
CONTINUOUS
370
-3
390
F
  0
LAYER
  5
215
100
AcDbSymbolTableRecord
100
AcDbLayerTableRecord
  2
RGB____0____0____0__
 70
0
 62
7
  6
CONTINUOUS
370
-3
390
F
  0
LAYER
  5
216
100
AcDbSymbolTableRecord
100
AcDbLayerTableRecord
  2
SIMBOLI
 70
0
 62
7
  6
CONTINUOUS
370
-3
390
F
  0
LAYER
  5
217
100
AcDbSymbolTableRecord
100
AcDbLayerTableRecord
  2
SMUSSO
 70
0
 62
7
  6
CONTINUOUS
370
-3
390
F
  0
LAYER
  5
218
100
AcDbSymbolTableRecord
100
AcDbLayerTableRecord
  2
SUPERFICI
 70
0
 62
7
  6
CONTINUOUS
370
-3
390
F
  0
LAYER
  5
219
100
AcDbSymbolTableRecord
100
AcDbLayerTableRecord
  2
TRASH
 70
0
 62
7
  6
CONTINUOUS
370
-3
390
F
  0
LAYER
  5
21A
100
AcDbSymbolTableRecord
100
AcDbLayerTableRecord
  2
WHITE
 70
0
 62
7
  6
CONTINUOUS
370
-3
390
F
  0
LAYER
  5
21B
100
AcDbSymbolTableRecord
100
AcDbLayerTableRecord
  2
XSEC_DATUMS
 70
0
 62
7
  6
CONTINUOUS
370
-3
390
F
  0
ENDTAB
  0
TABLE
  2
STYLE
  5
3
100
AcDbSymbolTable
 70
1
  0
STYLE
  5
11
100
AcDbSymbolTableRecord
100
AcDbTextStyleTableRecord
  2
STANDARD
 70
0
 40
0.0
 41
0.8
 50
0.0
 71
0
 42
0.2
  3
txt
  4

  0
STYLE
  5
21C
100
AcDbSymbolTableRecord
100
AcDbTextStyleTableRecord
  2
TEXTSTYLE_1
 70
0
 40
0.0
 41
0.8
 50
0.0
 71
0
 42
0.2
  3
gdt
  4

  0
ENDTAB
  0
TABLE
  2
VIEW
  5
6
100
AcDbSymbolTable
 70
0
  0
ENDTAB
  0
TABLE
  2
UCS
  5
7
100
AcDbSymbolTable
 70
0
  0
ENDTAB
  0
TABLE
  2
APPID
  5
9
100
AcDbSymbolTable
 70
1
  0
APPID
  5
21D
100
AcDbSymbolTableRecord
100
AcDbRegAppTableRecord
  2
ACAD
 70
0
  0
ENDTAB
  0
TABLE
  2
BLOCK_RECORD
  5
1
100
AcDbSymbolTable
 70
0
  0
BLOCK_RECORD
  5
21E
100
AcDbSymbolTableRecord
100
AcDbBlockTableRecord
  2
*Model_Space
  0
BLOCK_RECORD
  5
21F
100
AcDbSymbolTableRecord
100
AcDbBlockTableRecord
  2
*Paper_Space
  0
BLOCK_RECORD
  5
220
100
AcDbSymbolTableRecord
100
AcDbBlockTableRecord
  2
_FILLED
  0
BLOCK_RECORD
  5
221
100
AcDbSymbolTableRecord
100
AcDbBlockTableRecord
  2
*D0
  0
BLOCK_RECORD
  5
222
100
AcDbSymbolTableRecord
100
AcDbBlockTableRecord
  2
*D1
  0
BLOCK_RECORD
  5
223
100
AcDbSymbolTableRecord
100
AcDbBlockTableRecord
  2
*D2
  0
BLOCK_RECORD
  5
224
100
AcDbSymbolTableRecord
100
AcDbBlockTableRecord
  2
*D3
  0
ENDTAB
  0
TABLE
  2
DIMSTYLE
  5
A
100
AcDbSymbolTable
 70
1
100
AcDbDimStyleTable
 71
0
  0
DIMSTYLE
105
225
100
AcDbSymbolTableRecord
100
AcDbDimStyleTableRecord
  2
STANDARD
 70
0
  3

  4

 40
1.0
 41
3.0
 42
0.5
 43
0.38
 44
1.5
 45
0.0
 46
0.0
 47
0.01
 48
0.01
140
3.0
141
0.09
142
0.0
143
25.4
144
1.0
145
0.0
146
1.0
147
0.625
 71
1
 72
0
 73
0
 74
0
 75
0
 76
0
 77
1
 78
8
 79
2
170
0
171
1
172
0
173
0
174
0
175
0
176
0
177
0
178
0
270
2
179
2
271
2
272
2
273
2
274
2
275
0
280
0
281
0
282
0
283
1
284
8
285
0
286
0
287
3
288
0
340
11
278
44
341
220
342
220
343
220
344
220
  0
DIMSTYLE
105
226
100
AcDbSymbolTableRecord
100
AcDbDimStyleTableRecord
  2
DIMSTYLE_1
 70
0
  3

  4

 40
1.0
 41
3.0
 42
0.5
 43
0.38
 44
1.5
 45
0.0
 46
0.0
 47
0.0
 48
0.0
140
3.0
141
0.09
142
0.0
143
25.4
144
1.0
145
0.0
146
1.0
147
0.75
 71
0
 72
0
 73
0
 74
0
 75
0
 76
0
 77
1
 78
8
 79
2
170
0
171
1
172
0
173
0
174
0
175
0
176
0
177
0
178
0
270
2
179
2
271
2
272
2
273
2
274
2
275
0
280
0
281
0
282
0
283
1
284
8
285
0
286
0
287
3
288
0
340
11
278
44
341
220
342
220
343
220
344
220
  0
ENDTAB
  0
ENDSEC
  0
SECTION
  2
BLOCKS
  0
BLOCK
  5
20
100
AcDbEntity
  8
0
100
AcDbBlockBegin
  2
*Model_Space
 70
0
 10
0.0
 20
0.0
 30
0.0
  3
*Model_Space
  1

  0
ENDBLK
  5
21
100
AcDbEntity
  8
0
100
AcDbBlockEnd
  0
BLOCK
  5
1C
100
AcDbEntity
  8
0
100
AcDbBlockBegin
  2
*Paper_Space
 70
0
 10
0.0
 20
0.0
 30
0.0
  3
*Paper_Space
  1

  0
ENDBLK
  5
1D
100
AcDbEntity
  8
0
100
AcDbBlockEnd
  0
BLOCK
  5
227
100
AcDbEntity
  8
0
100
AcDbBlockBegin
  2
_FILLED
 70
64
 10
0.0
 20
0.0
  3
_FILLED
  1

  0
SOLID
  5
228
100
AcDbEntity
  8
0
  6
BYBLOCK
 62
0
100
AcDbTrace
 10
0.0
 20
0.0
 11
-1.0
 21
0.3166666667
 12
-1.0
 22
-0.3166666667
 13
-1.0
 23
-0.3166666667
  0
ENDBLK
  5
229
100
AcDbEntity
  8
0
  6
BYBLOCK
 62
0
100
AcDbBlockEnd
  0
BLOCK
  5
22A
100
AcDbEntity
  8
0
100
AcDbBlockBegin
 62
7
  6
CONTINUOUS
  2
*D0
 70
65
 10
0.0
 20
0.0
  3
*D0
  1

  0
MTEXT
  5
22B
100
AcDbEntity
  8
0
100
AcDbMText
 62
7
  6
CONTINUOUS
  7
STANDARD
 71
2
 72
1
 10
0.0
 20
57.919320789
 30
0.0
 11
1.0
 21
0.0
 31
0.0
 73
2
 44
0.9
  1
{\ftxt;\W0.0001;\H0.0001;\~}{\ftxt;\W1.5714285714;\H3.0; }{\ftxt;\W0.0001;\H0.0001;\~}
 40
3.0
 41
7.0714285714
  0
LINE
  5
22C
100
AcDbEntity
  8
0
100
AcDbLine
 62
7
  6
CONTINUOUS
 10
-45.0
 20
44.4993911979
 11
-45.0
 21
55.669320789
  0
LINE
  5
22D
100
AcDbEntity
  8
0
100
AcDbLine
 62
7
  6
CONTINUOUS
 10
45.0
 20
44.4993911979
 11
45.0
 21
55.669320789
  0
LINE
  5
22E
100
AcDbEntity
  8
0
100
AcDbLine
 62
7
  6
CONTINUOUS
 10
-45.0
 20
54.169320789
 11
0.0
 21
54.169320789
  0
LINE
  5
22F
100
AcDbEntity
  8
0
100
AcDbLine
 62
7
  6
CONTINUOUS
 10
45.0
 20
54.169320789
 11
0.0
 21
54.169320789
  0
INSERT
  5
230
100
AcDbEntity
  8
0
100
AcDbBlockReference
 62
7
  6
CONTINUOUS
  2
_FILLED
 10
-45.0
 20
54.169320789
 41
3.0
 42
3.0
 43
3.0
 50
180.0
  0
INSERT
  5
231
100
AcDbEntity
  8
0
100
AcDbBlockReference
 62
7
  6
CONTINUOUS
  2
_FILLED
 10
45.0
 20
54.169320789
 41
3.0
 42
3.0
 43
3.0
 50
0.0
  0
ENDBLK
  5
232
100
AcDbEntity
  8
0
  6
BYBLOCK
 62
0
100
AcDbBlockEnd
  0
BLOCK
  5
233
100
AcDbEntity
  8
0
100
AcDbBlockBegin
 62
7
  6
CONTINUOUS
  2
*D1
 70
65
 10
0.0
 20
0.0
  3
*D1
  1

  0
MTEXT
  5
234
100
AcDbEntity
  8
0
100
AcDbMText
 62
7
  6
CONTINUOUS
  7
STANDARD
 71
2
 72
1
 10
53.9071204786
 20
0.0
 30
0.0
 11
0.0
 21
1.0
 31
0.0
 73
2
 44
0.9
  1
{\ftxt;\W0.0001;\H0.0001;\~}{\ftxt;\W1.5714285714;\H3.0; }{\ftxt;\W0.0001;\H0.0001;\~}
 40
3.0
 41
7.0714285714
  0
LINE
  5
235
100
AcDbEntity
  8
0
100
AcDbLine
 62
7
  6
CONTINUOUS
 10
44.4993911979
 20
45.0
 11
59.1571204786
 21
45.0
  0
LINE
  5
236
100
AcDbEntity
  8
0
100
AcDbLine
 62
7
  6
CONTINUOUS
 10
44.4993911979
 20
-45.0
 11
59.1571204786
 21
-45.0
  0
LINE
  5
237
100
AcDbEntity
  8
0
100
AcDbLine
 62
7
  6
CONTINUOUS
 10
57.6571204786
 20
45.0
 11
57.6571204786
 21
0.0
  0
LINE
  5
238
100
AcDbEntity
  8
0
100
AcDbLine
 62
7
  6
CONTINUOUS
 10
57.6571204786
 20
-45.0
 11
57.6571204786
 21
0.0
  0
INSERT
  5
239
100
AcDbEntity
  8
0
100
AcDbBlockReference
 62
7
  6
CONTINUOUS
  2
_FILLED
 10
57.6571204786
 20
45.0
 41
3.0
 42
3.0
 43
3.0
 50
90.0
  0
INSERT
  5
23A
100
AcDbEntity
  8
0
100
AcDbBlockReference
 62
7
  6
CONTINUOUS
  2
_FILLED
 10
57.6571204786
 20
-45.0
 41
3.0
 42
3.0
 43
3.0
 50
270.0
  0
ENDBLK
  5
23B
100
AcDbEntity
  8
0
  6
BYBLOCK
 62
0
100
AcDbBlockEnd
  0
BLOCK
  5
23C
100
AcDbEntity
  8
0
100
AcDbBlockBegin
 62
7
  6
CONTINUOUS
  2
*D2
 70
65
 10
0.0
 20
0.0
  3
*D2
  1

  0
MTEXT
  5
23D
100
AcDbEntity
  8
0
100
AcDbMText
 62
7
  6
CONTINUOUS
  7
STANDARD
 71
3
 72
1
 10
-77.1222517094
 20
67.3557392965
 30
0.0
 11
1.0
 21
0.0
 31
0.0
 73
2
 44
0.9
  1
{\ftxt;\W0.0001;\H0.0001;\~}{\ftxt;\W3.2142857143;\H3.0; }{\ftxt;\W0.0001;\H0.0001;\~}
 40
3.0
 41
14.4642857143
  0
LINE
  5
23E
100
AcDbEntity
  8
0
100
AcDbLine
 62
7
  6
CONTINUOUS
 10
-65.5820407213
 20
26.5463167932
 11
-65.5820407213
 21
65.1057392965
  0
LINE
  5
23F
100
AcDbEntity
  8
0
100
AcDbLine
 62
7
  6
CONTINUOUS
 10
-75.7320407213
 20
43.8767374102
 11
-75.7320407213
 21
65.1057392965
  0
LINE
  5
240
100
AcDbEntity
  8
0
100
AcDbLine
 62
7
  6
CONTINUOUS
 10
-65.5820407213
 20
63.6057392965
 11
-70.6570407213
 21
63.6057392965
  0
LINE
  5
241
100
AcDbEntity
  8
0
100
AcDbLine
 62
7
  6
CONTINUOUS
 10
-75.7320407213
 20
63.6057392965
 11
-70.6570407213
 21
63.6057392965
  0
LINE
  5
242
100
AcDbEntity
  8
0
100
AcDbLine
 62
7
  6
CONTINUOUS
 10
-70.6570407213
 20
63.6057392965
 11
-86.7651088523
 21
63.6057392965
  0
INSERT
  5
243
100
AcDbEntity
  8
0
100
AcDbBlockReference
 62
7
  6
CONTINUOUS
  2
_FILLED
 10
-65.5820407213
 20
63.6057392965
 41
3.0
 42
3.0
 43
3.0
  0
INSERT
  5
244
100
AcDbEntity
  8
0
100
AcDbBlockReference
 62
7
  6
CONTINUOUS
  2
_FILLED
 10
-75.7320407213
 20
63.6057392965
 41
3.0
 42
3.0
 43
3.0
 50
180.0
  0
ENDBLK
  5
245
100
AcDbEntity
  8
0
  6
BYBLOCK
 62
0
100
AcDbBlockEnd
  0
BLOCK
  5
246
100
AcDbEntity
  8
0
100
AcDbBlockBegin
 62
7
  6
CONTINUOUS
  2
*D3
 70
65
 10
0.0
 20
0.0
  3
*D3
  1

  0
MTEXT
  5
247
100
AcDbEntity
  8
0
100
AcDbMText
 62
7
  6
CONTINUOUS
  7
STANDARD
 71
3
 72
1
 10
-78.5042734262
 20
58.4774517043
 30
0.0
 11
1.0
 21
0.0
 31
0.0
 73
2
 44
0.9
  1
{\ftxt;\W0.0001;\H0.0001;\~}{\ftxt;\W2.6428571429;\H3.0; }{\ftxt;\W0.0001;\H0.0001;\~}
 40
3.0
 41
11.8928571429
  0
LINE
  5
248
100
AcDbEntity
  8
0
100
AcDbLine
 62
7
  6
CONTINUOUS
 10
-68.5820407213
 20
42.0031667347
 11
-68.5820407213
 21
56.2274517043
  0
LINE
  5
249
100
AcDbEntity
  8
0
100
AcDbLine
 62
7
  6
CONTINUOUS
 10
-75.7320407213
 20
43.8767374102
 11
-75.7320407213
 21
56.2274517043
  0
LINE
  5
24A
100
AcDbEntity
  8
0
100
AcDbLine
 62
7
  6
CONTINUOUS
 10
-68.5820407213
 20
54.7274517043
 11
-72.1570407213
 21
54.7274517043
  0
LINE
  5
24B
100
AcDbEntity
  8
0
100
AcDbLine
 62
7
  6
CONTINUOUS
 10
-75.7320407213
 20
54.7274517043
 11
-72.1570407213
 21
54.7274517043
  0
LINE
  5
24C
100
AcDbEntity
  8
0
100
AcDbLine
 62
7
  6
CONTINUOUS
 10
-72.1570407213
 20
54.7274517043
 11
-86.4328448548
 21
54.7274517043
  0
INSERT
  5
24D
100
AcDbEntity
  8
0
100
AcDbBlockReference
 62
7
  6
CONTINUOUS
  2
_FILLED
 10
-68.5820407213
 20
54.7274517043
 41
3.0
 42
3.0
 43
3.0
  0
INSERT
  5
24E
100
AcDbEntity
  8
0
100
AcDbBlockReference
 62
7
  6
CONTINUOUS
  2
_FILLED
 10
-75.7320407213
 20
54.7274517043
 41
3.0
 42
3.0
 43
3.0
 50
180.0
  0
ENDBLK
  5
24F
100
AcDbEntity
  8
0
  6
BYBLOCK
 62
0
100
AcDbBlockEnd
  0
ENDSEC
  0
SECTION
  2
ENTITIES
  0
DIMENSION
  5
250
100
AcDbEntity
  8
0
100
AcDbDimension
 62
7
  6
CONTINUOUS
  2
*D0
 10
45.0
 20
54.169320789
 11
-0.4285713773
 21
54.169320789
 70
160
 71
2
 72
2
 41
0.9
 42
90.0
  1
{\ftxt;\W0.0001;\H0.0001;\~}{\ftxt;\W1.5714285714;\H3.0; }{\ftxt;\W0.0001;\H0.0001;\~}
  3
DIMSTYLE_1
100
AcDbAlignedDimension
 13
-45.0
 23
43.9993911979
 14
45.0
 24
43.9993911979
100
AcDbRotatedDimension
  0
DIMENSION
  5
251
100
AcDbEntity
  8
0
100
AcDbDimension
 62
7
  6
CONTINUOUS
  2
*D1
 10
57.6571204786
 20
-45.0
 11
57.6571204786
 21
-0.4285728526
 70
160
 71
2
 72
2
 41
0.9
 42
90.0
  1
{\ftxt;\W0.0001;\H0.0001;\~}{\ftxt;\W1.5714285714;\H3.0; }{\ftxt;\W0.0001;\H0.0001;\~}
  3
DIMSTYLE_1
100
AcDbAlignedDimension
 13
43.9993911979
 23
45.0
 14
43.9993911979
 24
-45.0
 50
270.0
100
AcDbRotatedDimension
  0
DIMENSION
  5
252
100
AcDbEntity
  8
0
100
AcDbDimension
 62
7
  6
CONTINUOUS
  2
*D2
 10
-75.7320407213
 20
63.6057392965
 11
-82.3722539063
 21
63.6057392965
 70
160
 71
3
 72
2
 41
0.9
 42
10.15
  1
{\ftxt;\W0.0001;\H0.0001;\~}{\ftxt;\W3.2142857143;\H3.0; }{\ftxt;\W0.0001;\H0.0001;\~}
  3
DIMSTYLE_1
100
AcDbAlignedDimension
 13
-65.5820407213
 23
26.0463167932
 14
-75.7320407213
 24
43.3767374102
 50
180.0
100
AcDbRotatedDimension
  0
DIMENSION
  5
253
100
AcDbEntity
  8
0
100
AcDbDimension
 62
7
  6
CONTINUOUS
  2
*D3
 10
-75.7320407213
 20
54.7274517043
 11
-82.8971294403
 21
54.7274517043
 70
160
 71
3
 72
2
 41
0.9
 42
7.15
  1
{\ftxt;\W0.0001;\H0.0001;\~}{\ftxt;\W2.6428571429;\H3.0; }{\ftxt;\W0.0001;\H0.0001;\~}
  3
DIMSTYLE_1
100
AcDbAlignedDimension
 13
-68.5820407213
 23
41.5031667347
 14
-75.7320407213
 24
43.3767374102
 50
180.0
100
AcDbRotatedDimension
  0
LINE
  5
254
100
AcDbEntity
  8
0
100
AcDbLine
 62
7
  6
CONTINUOUS
 10
-43.8199854699
 20
44.7906993223
 11
-43.8055596544
 21
44.8061684565
  0
LINE
  5
255
100
AcDbEntity
  8
ASSI
100
AcDbLine
 62
7
  6
CONTINUOUS
 10
-43.8199854699
 20
44.7906993223
 11
-43.8055596544
 21
44.8061684565
  0
LINE
  5
256
100
AcDbEntity
  8
0
100
AcDbLine
 62
7
  6
CONTINUOUS
 10
-45.0
 20
43.9993911979
 11
-43.9993911979
 21
45.0
  0
LINE
  5
257
100
AcDbEntity
  8
ASSI
100
AcDbLine
 62
7
  6
CONTINUOUS
 10
-45.0
 20
43.9993911979
 11
-43.9993911979
 21
45.0
  0
LINE
  5
258
100
AcDbEntity
  8
0
100
AcDbLine
 62
7
  6
CONTINUOUS
 10
-43.8199854699
 20
44.7906993223
 11
-44.7906993223
 21
43.8199854699
  0
LINE
  5
259
100
AcDbEntity
  8
ASSI
100
AcDbLine
 62
7
  6
CONTINUOUS
 10
-43.8199854699
 20
44.7906993223
 11
-44.7906993223
 21
43.8199854699
  0
LINE
  5
25A
100
AcDbEntity
  8
0
100
AcDbLine
 62
7
  6
CONTINUOUS
 10
-43.3767374102
 20
43.7712689598
 11
-43.7712689598
 21
43.3767374102
  0
LINE
  5
25B
100
AcDbEntity
  8
ASSI
100
AcDbLine
 62
7
  6
CONTINUOUS
 10
-43.3767374102
 20
43.7712689598
 11
-43.7712689598
 21
43.3767374102
  0
LINE
  5
25C
100
AcDbEntity
  8
0
100
AcDbLine
 62
7
  6
CONTINUOUS
 10
-44.8061684565
 20
43.8055596544
 11
-44.7906993223
 21
43.8199854699
  0
LINE
  5
25D
100
AcDbEntity
  8
ASSI
100
AcDbLine
 62
7
  6
CONTINUOUS
 10
-44.8061684565
 20
43.8055596544
 11
-44.7906993223
 21
43.8199854699
  0
LINE
  5
25E
100
AcDbEntity
  8
0
100
AcDbLine
 62
7
  6
CONTINUOUS
 10
-44.7906993223
 20
-43.8199854699
 11
-44.8061684565
 21
-43.8055596544
  0
LINE
  5
25F
100
AcDbEntity
  8
ASSI
100
AcDbLine
 62
7
  6
CONTINUOUS
 10
-44.7906993223
 20
-43.8199854699
 11
-44.8061684565
 21
-43.8055596544
  0
LINE
  5
260
100
AcDbEntity
  8
0
100
AcDbLine
 62
7
  6
CONTINUOUS
 10
-43.9993911979
 20
-45.0
 11
-45.0
 21
-43.9993911979
  0
LINE
  5
261
100
AcDbEntity
  8
ASSI
100
AcDbLine
 62
7
  6
CONTINUOUS
 10
-43.9993911979
 20
-45.0
 11
-45.0
 21
-43.9993911979
  0
LINE
  5
262
100
AcDbEntity
  8
0
100
AcDbLine
 62
7
  6
CONTINUOUS
 10
-44.7906993223
 20
-43.8199854699
 11
-43.8199854699
 21
-44.7906993223
  0
LINE
  5
263
100
AcDbEntity
  8
ASSI
100
AcDbLine
 62
7
  6
CONTINUOUS
 10
-44.7906993223
 20
-43.8199854699
 11
-43.8199854699
 21
-44.7906993223
  0
LINE
  5
264
100
AcDbEntity
  8
0
100
AcDbLine
 62
7
  6
CONTINUOUS
 10
-43.7712689598
 20
-43.3767374102
 11
-43.3767374102
 21
-43.7712689598
  0
LINE
  5
265
100
AcDbEntity
  8
ASSI
100
AcDbLine
 62
7
  6
CONTINUOUS
 10
-43.7712689598
 20
-43.3767374102
 11
-43.3767374102
 21
-43.7712689598
  0
LINE
  5
266
100
AcDbEntity
  8
0
100
AcDbLine
 62
7
  6
CONTINUOUS
 10
-43.8055596544
 20
-44.8061684565
 11
-43.8199854699
 21
-44.7906993223
  0
LINE
  5
267
100
AcDbEntity
  8
ASSI
100
AcDbLine
 62
7
  6
CONTINUOUS
 10
-43.8055596544
 20
-44.8061684565
 11
-43.8199854699
 21
-44.7906993223
  0
LINE
  5
268
100
AcDbEntity
  8
0
100
AcDbLine
 62
7
  6
CONTINUOUS
 10
-45.0
 20
43.9993911979
 11
-45.0
 21
-43.9993911979
  0
LINE
  5
269
100
AcDbEntity
  8
ASSI
100
AcDbLine
 62
7
  6
CONTINUOUS
 10
-45.0
 20
43.9993911979
 11
-45.0
 21
-43.9993911979
  0
LINE
  5
26A
100
AcDbEntity
  8
0
100
AcDbLine
 62
7
  6
CONTINUOUS
 10
-44.8061684565
 20
43.8055596544
 11
-44.8061684565
 21
-43.8055596544
  0
LINE
  5
26B
100
AcDbEntity
  8
ASSI
100
AcDbLine
 62
7
  6
CONTINUOUS
 10
-44.8061684565
 20
43.8055596544
 11
-44.8061684565
 21
-43.8055596544
  0
LINE
  5
26C
100
AcDbEntity
  8
0
100
AcDbLine
 62
7
  6
CONTINUOUS
 10
-43.7712689598
 20
43.3767374102
 11
-43.7712689598
 21
-43.3767374102
  0
LINE
  5
26D
100
AcDbEntity
  8
ASSI
100
AcDbLine
 62
7
  6
CONTINUOUS
 10
-43.7712689598
 20
43.3767374102
 11
-43.7712689598
 21
-43.3767374102
  0
LINE
  5
26E
100
AcDbEntity
  8
0
100
AcDbLine
 62
7
  6
CONTINUOUS
 10
-43.9993911979
 20
-45.0
 11
43.9993911979
 21
-45.0
  0
LINE
  5
26F
100
AcDbEntity
  8
ASSI
100
AcDbLine
 62
7
  6
CONTINUOUS
 10
-43.9993911979
 20
-45.0
 11
43.9993911979
 21
-45.0
  0
LINE
  5
270
100
AcDbEntity
  8
0
100
AcDbLine
 62
7
  6
CONTINUOUS
 10
-43.8055596544
 20
-44.8061684565
 11
43.8055596544
 21
-44.8061684565
  0
LINE
  5
271
100
AcDbEntity
  8
ASSI
100
AcDbLine
 62
7
  6
CONTINUOUS
 10
-43.8055596544
 20
-44.8061684565
 11
43.8055596544
 21
-44.8061684565
  0
LINE
  5
272
100
AcDbEntity
  8
0
100
AcDbLine
 62
7
  6
CONTINUOUS
 10
-43.3767374102
 20
-43.7712689598
 11
43.3767374102
 21
-43.7712689598
  0
LINE
  5
273
100
AcDbEntity
  8
ASSI
100
AcDbLine
 62
7
  6
CONTINUOUS
 10
-43.3767374102
 20
-43.7712689598
 11
43.3767374102
 21
-43.7712689598
  0
LWPOLYLINE
  5
274
100
AcDbEntity
  8
0
100
AcDbPolyline
 62
7
  6
CONTINUOUS
 90
10
 70
0
 43
0.3500000006
 10
-1.9285714102
 20
54.9193221588
 10
-1.0714285848
 20
55.7764646301
 10
-0.8571428254
 20
56.6336025696
 10
-0.8571428254
 20
57.4907495728
 10
-1.2857142735
 20
57.9193185425
 10
-1.9285714102
 20
57.9193185425
 10
-2.3571427875
 20
57.4907495728
 10
-2.3571427875
 20
56.6336025696
 10
-1.9285714102
 20
56.2050335999
 10
-1.0000000219
 20
56.2050335999
  0
LINE
  5
275
100
AcDbEntity
  8
CURVE
100
AcDbLine
 62
250
  6
CONTINUOUS
 10
44.860131217
 20
-36.257398
 11
44.9473759453
 21
-36.257398
  0
LINE
  5
276
100
AcDbEntity
  8
CURVE
100
AcDbLine
 62
250
  6
CONTINUOUS
 10
44.9473759453
 20
-35.735605
 11
44.860131217
 21
-35.735605
  0
LINE
  5
277
100
AcDbEntity
  8
CURVE
100
AcDbLine
 62
250
  6
CONTINUOUS
 10
44.8611556794
 20
-30.6285551388
 11
44.9473759458
 21
-30.6285551388
  0
LINE
  5
278
100
AcDbEntity
  8
CURVE
100
AcDbLine
 62
250
  6
CONTINUOUS
 10
44.8989474951
 20
-30.126163664
 11
44.8749985478
 21
-30.126163664
  0
LINE
  5
279
100
AcDbEntity
  8
CURVE
100
AcDbLine
 62
250
  6
CONTINUOUS
 10
44.9473759458
 20
-30.1088617972
 11
44.9132352194
 21
-30.1088617972
  0
LINE
  5
27A
100
AcDbEntity
  8
CURVE
100
AcDbLine
 62
250
  6
CONTINUOUS
 10
44.9066533149
 20
-29.2870512436
 11
44.9061378054
 21
-29.2870512436
  0
LINE
  5
27B
100
AcDbEntity
  8
0
100
AcDbLine
 62
7
  6
CONTINUOUS
 10
-27.2
 20
-2.0
 11
-27.2
 21
2.0
  0
LINE
  5
27C
100
AcDbEntity
  8
ASSI
100
AcDbLine
 62
7
  6
CONTINUOUS
 10
-27.2
 20
-2.0
 11
-27.2
 21
2.0
  0
LINE
  5
27D
100
AcDbEntity
  8
0
100
AcDbLine
 62
7
  6
CONTINUOUS
 10
-26.0
 20
-2.0
 11
-26.0
 21
2.0
  0
LINE
  5
27E
100
AcDbEntity
  8
ASSI
100
AcDbLine
 62
7
  6
CONTINUOUS
 10
-26.0
 20
-2.0
 11
-26.0
 21
2.0
  0
LINE
  5
27F
100
AcDbEntity
  8
0
100
AcDbLine
 62
7
  6
CONTINUOUS
 10
-43.3767374102
 20
-43.7712689598
 11
-43.8199854699
 21
-44.7906993223
  0
LINE
  5
280
100
AcDbEntity
  8
ASSI
100
AcDbLine
 62
7
  6
CONTINUOUS
 10
-43.3767374102
 20
-43.7712689598
 11
-43.8199854699
 21
-44.7906993223
  0
LINE
  5
281
100
AcDbEntity
  8
0
100
AcDbLine
 62
7
  6
CONTINUOUS
 10
43.7712689598
 20
43.3767374102
 11
44.7906993223
 21
43.8199854699
  0
LINE
  5
282
100
AcDbEntity
  8
ASSI
100
AcDbLine
 62
7
  6
CONTINUOUS
 10
43.7712689598
 20
43.3767374102
 11
44.7906993223
 21
43.8199854699
  0
LINE
  5
283
100
AcDbEntity
  8
0
100
AcDbLine
 62
7
  6
CONTINUOUS
 10
43.7712689598
 20
-43.3767374102
 11
44.7906993223
 21
-43.8199854699
  0
LINE
  5
284
100
AcDbEntity
  8
ASSI
100
AcDbLine
 62
7
  6
CONTINUOUS
 10
43.7712689598
 20
-43.3767374102
 11
44.7906993223
 21
-43.8199854699
  0
LINE
  5
285
100
AcDbEntity
  8
0
100
AcDbLine
 62
7
  6
CONTINUOUS
 10
-43.3767374102
 20
43.7712689598
 11
-43.8199854699
 21
44.7906993223
  0
LINE
  5
286
100
AcDbEntity
  8
ASSI
100
AcDbLine
 62
7
  6
CONTINUOUS
 10
-43.3767374102
 20
43.7712689598
 11
-43.8199854699
 21
44.7906993223
  0
LINE
  5
287
100
AcDbEntity
  8
0
100
AcDbLine
 62
7
  6
CONTINUOUS
 10
-19.0
 20
2.0
 11
-19.0
 21
-2.0
  0
LINE
  5
288
100
AcDbEntity
  8
ASSI
100
AcDbLine
 62
7
  6
CONTINUOUS
 10
-19.0
 20
2.0
 11
-19.0
 21
-2.0
  0
LINE
  5
289
100
AcDbEntity
  8
0
100
AcDbLine
 62
7
  6
CONTINUOUS
 10
-17.8
 20
2.0
 11
-17.8
 21
-2.0
  0
LINE
  5
28A
100
AcDbEntity
  8
ASSI
100
AcDbLine
 62
7
  6
CONTINUOUS
 10
-17.8
 20
2.0
 11
-17.8
 21
-2.0
  0
LINE
  5
28B
100
AcDbEntity
  8
0
100
AcDbLine
 62
7
  6
CONTINUOUS
 10
-4.7
 20
-2.0
 11
-4.7
 21
2.0
  0
LINE
  5
28C
100
AcDbEntity
  8
ASSI
100
AcDbLine
 62
7
  6
CONTINUOUS
 10
-4.7
 20
-2.0
 11
-4.7
 21
2.0
  0
LINE
  5
28D
100
AcDbEntity
  8
0
100
AcDbLine
 62
7
  6
CONTINUOUS
 10
-3.5
 20
-2.0
 11
-3.5
 21
2.0
  0
LINE
  5
28E
100
AcDbEntity
  8
ASSI
100
AcDbLine
 62
7
  6
CONTINUOUS
 10
-3.5
 20
-2.0
 11
-3.5
 21
2.0
  0
LWPOLYLINE
  5
28F
100
AcDbEntity
  8
0
100
AcDbPolyline
 62
7
  6
CONTINUOUS
 90
13
 70
0
 43
0.3500000006
 10
0.0
 20
55.7764646301
 10
0.0
 20
57.062180603
 10
0.2142857063
 20
57.4907495728
 10
0.6428571367
 20
57.9193185425
 10
0.8571428254
 20
57.9193185425
 10
1.2857142735
 20
57.4907495728
 10
1.5000000329
 20
57.062180603
 10
1.5000000329
 20
55.7764646301
 10
1.2857142735
 20
55.3478911285
 10
0.8571428254
 20
54.9193221588
 10
0.6428571367
 20
54.9193221588
 10
0.2142857063
 20
55.3478911285
 10
0.0
 20
55.7764646301
  0
LINE
  5
290
100
AcDbEntity
  8
0
100
AcDbLine
 62
7
  6
CONTINUOUS
 10
-44.8061684565
 20
-43.8055596544
 11
-45.0
 21
-43.9993911979
  0
LINE
  5
291
100
AcDbEntity
  8
ASSI
100
AcDbLine
 62
7
  6
CONTINUOUS
 10
-44.8061684565
 20
-43.8055596544
 11
-45.0
 21
-43.9993911979
  0
LINE
  5
292
100
AcDbEntity
  8
0
100
AcDbLine
 62
7
  6
CONTINUOUS
 10
43.8055596544
 20
44.8061684565
 11
43.9993911979
 21
45.0
  0
LINE
  5
293
100
AcDbEntity
  8
ASSI
100
AcDbLine
 62
7
  6
CONTINUOUS
 10
43.8055596544
 20
44.8061684565
 11
43.9993911979
 21
45.0
  0
LINE
  5
294
100
AcDbEntity
  8
0
100
AcDbLine
 62
250
  6
CONTINUOUS
 10
-27.2
 20
-2.0
 11
-26.0
 21
-2.0
  0
LINE
  5
295
100
AcDbEntity
  8
ASSI
100
AcDbLine
 62
250
  6
CONTINUOUS
 10
-27.2
 20
-2.0
 11
-26.0
 21
-2.0
  0
LINE
  5
296
100
AcDbEntity
  8
0
100
AcDbLine
 62
250
  6
CONTINUOUS
 10
27.2
 20
-2.0
 11
26.0
 21
-2.0
  0
LINE
  5
297
100
AcDbEntity
  8
ASSI
100
AcDbLine
 62
250
  6
CONTINUOUS
 10
27.2
 20
-2.0
 11
26.0
 21
-2.0
  0
LINE
  5
298
100
AcDbEntity
  8
0
100
AcDbLine
 62
250
  6
CONTINUOUS
 10
-4.7
 20
-2.0
 11
-3.5
 21
-2.0
  0
LINE
  5
299
100
AcDbEntity
  8
ASSI
100
AcDbLine
 62
250
  6
CONTINUOUS
 10
-4.7
 20
-2.0
 11
-3.5
 21
-2.0
  0
LINE
  5
29A
100
AcDbEntity
  8
0
100
AcDbLine
 62
250
  6
CONTINUOUS
 10
4.7
 20
-2.0
 11
3.5
 21
-2.0
  0
LINE
  5
29B
100
AcDbEntity
  8
ASSI
100
AcDbLine
 62
250
  6
CONTINUOUS
 10
4.7
 20
-2.0
 11
3.5
 21
-2.0
  0
LINE
  5
29C
100
AcDbEntity
  8
0
100
AcDbLine
 62
250
  6
CONTINUOUS
 10
17.8
 20
-2.0
 11
19.0
 21
-2.0
  0
LINE
  5
29D
100
AcDbEntity
  8
ASSI
100
AcDbLine
 62
250
  6
CONTINUOUS
 10
17.8
 20
-2.0
 11
19.0
 21
-2.0
  0
LINE
  5
29E
100
AcDbEntity
  8
0
100
AcDbLine
 62
250
  6
CONTINUOUS
 10
-17.8
 20
-2.0
 11
-19.0
 21
-2.0
  0
LINE
  5
29F
100
AcDbEntity
  8
ASSI
100
AcDbLine
 62
250
  6
CONTINUOUS
 10
-17.8
 20
-2.0
 11
-19.0
 21
-2.0
  0
LWPOLYLINE
  5
2A0
100
AcDbEntity
  8
0
100
AcDbPolyline
 62
7
  6
CONTINUOUS
 90
13
 70
0
 43
0.3500000006
 10
56.0499763184
 20
-0.0000003204
 10
54.7642648773
 20
-0.0000003204
 10
54.3356913757
 20
0.2142864304
 10
53.907122406
 20
0.642857666
 10
53.907122406
 20
0.8571421509
 10
54.3356913757
 20
1.2857133865
 10
54.7642648773
 20
1.5000001373
 10
56.0499763184
 20
1.5000001373
 10
56.4785498199
 20
1.2857133865
 10
56.9071187897
 20
0.8571421509
 10
56.9071187897
 20
0.642857666
 10
56.4785498199
 20
0.2142864304
 10
56.0499763184
 20
-0.0000003204
  0
LINE
  5
2A1
100
AcDbEntity
  8
0
100
AcDbLine
 62
7
  6
CONTINUOUS
 10
43.8055596544
 20
-44.8061684565
 11
43.9993911979
 21
-45.0
  0
LINE
  5
2A2
100
AcDbEntity
  8
ASSI
100
AcDbLine
 62
7
  6
CONTINUOUS
 10
43.8055596544
 20
-44.8061684565
 11
43.9993911979
 21
-45.0
  0
LINE
  5
2A3
100
AcDbEntity
  8
0
100
AcDbLine
 62
7
  6
CONTINUOUS
 10
-44.8061684565
 20
43.8055596544
 11
-45.0
 21
43.9993911979
  0
LINE
  5
2A4
100
AcDbEntity
  8
ASSI
100
AcDbLine
 62
7
  6
CONTINUOUS
 10
-44.8061684565
 20
43.8055596544
 11
-45.0
 21
43.9993911979
  0
LINE
  5
2A5
100
AcDbEntity
  8
0
100
AcDbLine
 62
7
  6
CONTINUOUS
 10
3.5
 20
2.0
 11
3.5
 21
-2.0
  0
LINE
  5
2A6
100
AcDbEntity
  8
ASSI
100
AcDbLine
 62
7
  6
CONTINUOUS
 10
3.5
 20
2.0
 11
3.5
 21
-2.0
  0
LINE
  5
2A7
100
AcDbEntity
  8
0
100
AcDbLine
 62
7
  6
CONTINUOUS
 10
4.7
 20
2.0
 11
4.7
 21
-2.0
  0
LINE
  5
2A8
100
AcDbEntity
  8
ASSI
100
AcDbLine
 62
7
  6
CONTINUOUS
 10
4.7
 20
2.0
 11
4.7
 21
-2.0
  0
LINE
  5
2A9
100
AcDbEntity
  8
0
100
AcDbLine
 62
7
  6
CONTINUOUS
 10
-43.8055596544
 20
-44.8061684565
 11
-43.9993911979
 21
-45.0
  0
LINE
  5
2AA
100
AcDbEntity
  8
ASSI
100
AcDbLine
 62
7
  6
CONTINUOUS
 10
-43.8055596544
 20
-44.8061684565
 11
-43.9993911979
 21
-45.0
  0
LINE
  5
2AB
100
AcDbEntity
  8
0
100
AcDbLine
 62
7
  6
CONTINUOUS
 10
44.8061684565
 20
43.8055596544
 11
45.0
 21
43.9993911979
  0
LINE
  5
2AC
100
AcDbEntity
  8
ASSI
100
AcDbLine
 62
7
  6
CONTINUOUS
 10
44.8061684565
 20
43.8055596544
 11
45.0
 21
43.9993911979
  0
LINE
  5
2AD
100
AcDbEntity
  8
0
100
AcDbLine
 62
250
  6
CONTINUOUS
 10
-27.2
 20
2.0
 11
-26.0
 21
2.0
  0
LINE
  5
2AE
100
AcDbEntity
  8
ASSI
100
AcDbLine
 62
250
  6
CONTINUOUS
 10
-27.2
 20
2.0
 11
-26.0
 21
2.0
  0
LINE
  5
2AF
100
AcDbEntity
  8
0
100
AcDbLine
 62
250
  6
CONTINUOUS
 10
27.2
 20
2.0
 11
26.0
 21
2.0
  0
LINE
  5
2B0
100
AcDbEntity
  8
ASSI
100
AcDbLine
 62
250
  6
CONTINUOUS
 10
27.2
 20
2.0
 11
26.0
 21
2.0
  0
LINE
  5
2B1
100
AcDbEntity
  8
0
100
AcDbLine
 62
250
  6
CONTINUOUS
 10
-4.7
 20
2.0
 11
-3.5
 21
2.0
  0
LINE
  5
2B2
100
AcDbEntity
  8
ASSI
100
AcDbLine
 62
250
  6
CONTINUOUS
 10
-4.7
 20
2.0
 11
-3.5
 21
2.0
  0
LINE
  5
2B3
100
AcDbEntity
  8
0
100
AcDbLine
 62
250
  6
CONTINUOUS
 10
4.7
 20
2.0
 11
3.5
 21
2.0
  0
LINE
  5
2B4
100
AcDbEntity
  8
ASSI
100
AcDbLine
 62
250
  6
CONTINUOUS
 10
4.7
 20
2.0
 11
3.5
 21
2.0
  0
LINE
  5
2B5
100
AcDbEntity
  8
0
100
AcDbLine
 62
250
  6
CONTINUOUS
 10
17.8
 20
2.0
 11
19.0
 21
2.0
  0
LINE
  5
2B6
100
AcDbEntity
  8
ASSI
100
AcDbLine
 62
250
  6
CONTINUOUS
 10
17.8
 20
2.0
 11
19.0
 21
2.0
  0
LINE
  5
2B7
100
AcDbEntity
  8
0
100
AcDbLine
 62
250
  6
CONTINUOUS
 10
-17.8
 20
2.0
 11
-19.0
 21
2.0
  0
LINE
  5
2B8
100
AcDbEntity
  8
ASSI
100
AcDbLine
 62
250
  6
CONTINUOUS
 10
-17.8
 20
2.0
 11
-19.0
 21
2.0
  0
LINE
  5
2B9
100
AcDbEntity
  8
0
100
AcDbLine
 62
7
  6
CONTINUOUS
 10
44.8061684565
 20
-43.8055596544
 11
45.0
 21
-43.9993911979
  0
LINE
  5
2BA
100
AcDbEntity
  8
ASSI
100
AcDbLine
 62
7
  6
CONTINUOUS
 10
44.8061684565
 20
-43.8055596544
 11
45.0
 21
-43.9993911979
  0
LINE
  5
2BB
100
AcDbEntity
  8
0
100
AcDbLine
 62
7
  6
CONTINUOUS
 10
-43.8055596544
 20
44.8061684565
 11
-43.9993911979
 21
45.0
  0
LINE
  5
2BC
100
AcDbEntity
  8
ASSI
100
AcDbLine
 62
7
  6
CONTINUOUS
 10
-43.8055596544
 20
44.8061684565
 11
-43.9993911979
 21
45.0
  0
LINE
  5
2BD
100
AcDbEntity
  8
0
100
AcDbLine
 62
7
  6
CONTINUOUS
 10
17.8
 20
-2.0
 11
17.8
 21
2.0
  0
LINE
  5
2BE
100
AcDbEntity
  8
ASSI
100
AcDbLine
 62
7
  6
CONTINUOUS
 10
17.8
 20
-2.0
 11
17.8
 21
2.0
  0
LINE
  5
2BF
100
AcDbEntity
  8
0
100
AcDbLine
 62
7
  6
CONTINUOUS
 10
19.0
 20
-2.0
 11
19.0
 21
2.0
  0
LINE
  5
2C0
100
AcDbEntity
  8
ASSI
100
AcDbLine
 62
7
  6
CONTINUOUS
 10
19.0
 20
-2.0
 11
19.0
 21
2.0
  0
LINE
  5
2C1
100
AcDbEntity
  8
0
100
AcDbLine
 62
7
  6
CONTINUOUS
 10
26.0
 20
2.0
 11
26.0
 21
-2.0
  0
LINE
  5
2C2
100
AcDbEntity
  8
ASSI
100
AcDbLine
 62
7
  6
CONTINUOUS
 10
26.0
 20
2.0
 11
26.0
 21
-2.0
  0
LINE
  5
2C3
100
AcDbEntity
  8
0
100
AcDbLine
 62
7
  6
CONTINUOUS
 10
43.3767374102
 20
43.7712689598
 11
43.8199854699
 21
44.7906993223
  0
LINE
  5
2C4
100
AcDbEntity
  8
ASSI
100
AcDbLine
 62
7
  6
CONTINUOUS
 10
43.3767374102
 20
43.7712689598
 11
43.8199854699
 21
44.7906993223
  0
LINE
  5
2C5
100
AcDbEntity
  8
0
100
AcDbLine
 62
7
  6
CONTINUOUS
 10
-43.7712689598
 20
-43.3767374102
 11
-44.7906993223
 21
-43.8199854699
  0
LINE
  5
2C6
100
AcDbEntity
  8
ASSI
100
AcDbLine
 62
7
  6
CONTINUOUS
 10
-43.7712689598
 20
-43.3767374102
 11
-44.7906993223
 21
-43.8199854699
  0
LINE
  5
2C7
100
AcDbEntity
  8
0
100
AcDbLine
 62
7
  6
CONTINUOUS
 10
-43.7712689598
 20
43.3767374102
 11
-44.7906993223
 21
43.8199854699
  0
LINE
  5
2C8
100
AcDbEntity
  8
ASSI
100
AcDbLine
 62
7
  6
CONTINUOUS
 10
-43.7712689598
 20
43.3767374102
 11
-44.7906993223
 21
43.8199854699
  0
LINE
  5
2C9
100
AcDbEntity
  8
CURVE
100
AcDbLine
 62
250
  6
CONTINUOUS
 10
44.8904101948
 20
-34.842919
 11
44.9473759453
 21
-34.955522
  0
LINE
  5
2CA
100
AcDbEntity
  8
0
100
AcDbLine
 62
7
  6
CONTINUOUS
 10
43.3767374102
 20
-43.7712689598
 11
43.8199854699
 21
-44.7906993223
  0
LINE
  5
2CB
100
AcDbEntity
  8
ASSI
100
AcDbLine
 62
7
  6
CONTINUOUS
 10
43.3767374102
 20
-43.7712689598
 11
43.8199854699
 21
-44.7906993223
  0
LINE
  5
2CC
100
AcDbEntity
  8
0
100
AcDbLine
 62
7
  6
CONTINUOUS
 10
27.2
 20
2.0
 11
27.2
 21
-2.0
  0
LINE
  5
2CD
100
AcDbEntity
  8
ASSI
100
AcDbLine
 62
7
  6
CONTINUOUS
 10
27.2
 20
2.0
 11
27.2
 21
-2.0
  0
LINE
  5
2CE
100
AcDbEntity
  8
CURVE
100
AcDbLine
 62
250
  6
CONTINUOUS
 10
44.9473759453
 20
-35.454708
 11
44.860136417
 21
-35.228996
  0
LINE
  5
2CF
100
AcDbEntity
  8
CURVE
100
AcDbLine
 62
250
  6
CONTINUOUS
 10
44.860136417
 20
-36.451037
 11
44.9473759453
 21
-37.254552
  0
LINE
  5
2D0
100
AcDbEntity
  8
CURVE
100
AcDbLine
 62
250
  6
CONTINUOUS
 10
44.9085720674
 20
-34.191353
 11
44.860136417
 21
-33.66956
  0
LINE
  5
2D1
100
AcDbEntity
  8
CURVE
100
AcDbLine
 62
250
  6
CONTINUOUS
 10
44.890647651
 20
-33.5372
 11
44.9473759453
 21
-34.157611
  0
LWPOLYLINE
  5
2D2
100
AcDbEntity
  8
0
100
AcDbPolyline
 62
7
  6
CONTINUOUS
 90
10
 70
0
 43
0.3500000006
 10
56.9071187897
 20
-1.9285708809
 10
56.0499763184
 20
-1.0714295425
 10
55.192833847
 20
-0.8571427917
 10
54.3356913757
 20
-0.8571427917
 10
53.907122406
 20
-1.2857140274
 10
53.907122406
 20
-1.9285708809
 10
54.3356913757
 20
-2.3571432495
 10
55.192833847
 20
-2.3571432495
 10
55.6214073486
 20
-1.9285708809
 10
55.6214073486
 20
-1.0000006256
  0
LINE
  5
2D3
100
AcDbEntity
  8
CURVE
100
AcDbLine
 62
250
  6
CONTINUOUS
 10
44.8841076249
 20
-31.81095
 11
44.9164833296
 21
-32.070759
  0
LINE
  5
2D4
100
AcDbEntity
  8
CURVE
100
AcDbLine
 62
250
  6
CONTINUOUS
 10
44.9201860964
 20
-37.463524
 11
44.860136417
 21
-36.972473
  0
LINE
  5
2D5
100
AcDbEntity
  8
CURVE
100
AcDbLine
 62
250
  6
CONTINUOUS
 10
44.92995984
 20
-32.177494
 11
44.9473759453
 21
-32.321477
  0
LINE
  5
2D6
100
AcDbEntity
  8
CURVE
100
AcDbLine
 62
250
  6
CONTINUOUS
 10
44.9473759453
 20
-32.837608
 11
44.860136417
 21
-32.053532
  0
LINE
  5
2D7
100
AcDbEntity
  8
0
100
AcDbLine
 62
7
  6
CONTINUOUS
 10
43.7712689598
 20
-43.3767374102
 11
43.7712689598
 21
43.3767374102
  0
LINE
  5
2D8
100
AcDbEntity
  8
ASSI
100
AcDbLine
 62
7
  6
CONTINUOUS
 10
43.7712689598
 20
-43.3767374102
 11
43.7712689598
 21
43.3767374102
  0
LINE
  5
2D9
100
AcDbEntity
  8
0
100
AcDbLine
 62
7
  6
CONTINUOUS
 10
44.8061684565
 20
-43.8055596544
 11
44.8061684565
 21
43.8055596544
  0
LINE
  5
2DA
100
AcDbEntity
  8
ASSI
100
AcDbLine
 62
7
  6
CONTINUOUS
 10
44.8061684565
 20
-43.8055596544
 11
44.8061684565
 21
43.8055596544
  0
LINE
  5
2DB
100
AcDbEntity
  8
CURVE
100
AcDbLine
 62
250
  6
CONTINUOUS
 10
44.860131217
 20
-35.735605
 11
44.860131217
 21
-36.257398
  0
LINE
  5
2DC
100
AcDbEntity
  8
CURVE
100
AcDbLine
 62
250
  6
CONTINUOUS
 10
44.860136417
 20
-38.506847
 11
44.860136417
 21
-37.940019
  0
LINE
  5
2DD
100
AcDbEntity
  8
CURVE
100
AcDbLine
 62
250
  6
CONTINUOUS
 10
44.860136417
 20
-36.972473
 11
44.860136417
 21
-36.451037
  0
LINE
  5
2DE
100
AcDbEntity
  8
CURVE
100
AcDbLine
 62
250
  6
CONTINUOUS
 10
44.860136417
 20
-35.228996
 11
44.860136417
 21
-34.707635
  0
LINE
  5
2DF
100
AcDbEntity
  8
CURVE
100
AcDbLine
 62
250
  6
CONTINUOUS
 10
44.860136417
 20
-33.66956
 11
44.860136417
 21
-33.153297
  0
LINE
  5
2E0
100
AcDbEntity
  8
CURVE
100
AcDbLine
 62
250
  6
CONTINUOUS
 10
44.860136417
 20
-32.053532
 11
44.860136417
 21
-31.54876
  0
LINE
  5
2E1
100
AcDbEntity
  8
CURVE
100
AcDbLine
 62
250
  6
CONTINUOUS
 10
44.8989474951
 20
-29.8279642095
 11
44.8989474951
 21
-30.126163664
  0
LINE
  5
2E2
100
AcDbEntity
  8
CURVE
100
AcDbLine
 62
250
  6
CONTINUOUS
 10
44.9132352194
 20
-30.1088617972
 11
44.9132352194
 21
-29.8290889245
  0
LINE
  5
2E3
100
AcDbEntity
  8
CURVE
100
AcDbLine
 62
250
  6
CONTINUOUS
 10
44.9164833296
 20
-32.070759
 11
44.9164833296
 21
-31.571179
  0
LINE
  5
2E4
100
AcDbEntity
  8
CURVE
100
AcDbLine
 62
250
  6
CONTINUOUS
 10
44.92995984
 20
-31.466899
 11
44.92995984
 21
-32.177494
  0
LINE
  5
2E5
100
AcDbEntity
  8
CURVE
100
AcDbLine
 62
250
  6
CONTINUOUS
 10
44.9473759453
 20
-36.257398
 11
44.9473759453
 21
-35.735605
  0
LINE
  5
2E6
100
AcDbEntity
  8
CURVE
100
AcDbLine
 62
250
  6
CONTINUOUS
 10
44.9473759458
 20
-30.6285551388
 11
44.9473759458
 21
-30.1088617972
  0
LINE
  5
2E7
100
AcDbEntity
  8
CURVE
100
AcDbLine
 62
250
  6
CONTINUOUS
 10
44.9473759458
 20
-29.3098079785
 11
44.9473759458
 21
-28.8079038802
  0
LINE
  5
2E8
100
AcDbEntity
  8
CURVE
100
AcDbLine
 62
250
  6
CONTINUOUS
 10
44.9473759453
 20
-30.781779
 11
44.9473759453
 21
-31.331727
  0
LINE
  5
2E9
100
AcDbEntity
  8
CURVE
100
AcDbLine
 62
250
  6
CONTINUOUS
 10
44.9473759453
 20
-32.321477
 11
44.9473759453
 21
-32.837608
  0
LINE
  5
2EA
100
AcDbEntity
  8
CURVE
100
AcDbLine
 62
250
  6
CONTINUOUS
 10
44.9473759453
 20
-32.919544
 11
44.9473759453
 21
-33.429996
  0
LINE
  5
2EB
100
AcDbEntity
  8
CURVE
100
AcDbLine
 62
250
  6
CONTINUOUS
 10
44.9473759453
 20
-34.157611
 11
44.9473759453
 21
-34.230793
  0
LINE
  5
2EC
100
AcDbEntity
  8
CURVE
100
AcDbLine
 62
250
  6
CONTINUOUS
 10
44.9473759453
 20
-34.955522
 11
44.9473759453
 21
-35.454708
  0
LINE
  5
2ED
100
AcDbEntity
  8
CURVE
100
AcDbLine
 62
250
  6
CONTINUOUS
 10
44.9473759453
 20
-37.254552
 11
44.9473759453
 21
-37.714382
  0
LINE
  5
2EE
100
AcDbEntity
  8
0
100
AcDbLine
 62
7
  6
CONTINUOUS
 10
45.0
 20
-43.9993911979
 11
45.0
 21
43.9993911979
  0
LINE
  5
2EF
100
AcDbEntity
  8
ASSI
100
AcDbLine
 62
7
  6
CONTINUOUS
 10
45.0
 20
-43.9993911979
 11
45.0
 21
43.9993911979
  0
LINE
  5
2F0
100
AcDbEntity
  8
0
100
AcDbLine
 62
7
  6
CONTINUOUS
 10
43.3767374102
 20
43.7712689598
 11
-43.3767374102
 21
43.7712689598
  0
LINE
  5
2F1
100
AcDbEntity
  8
ASSI
100
AcDbLine
 62
7
  6
CONTINUOUS
 10
43.3767374102
 20
43.7712689598
 11
-43.3767374102
 21
43.7712689598
  0
LINE
  5
2F2
100
AcDbEntity
  8
0
100
AcDbLine
 62
7
  6
CONTINUOUS
 10
43.8055596544
 20
44.8061684565
 11
-43.8055596544
 21
44.8061684565
  0
LINE
  5
2F3
100
AcDbEntity
  8
ASSI
100
AcDbLine
 62
7
  6
CONTINUOUS
 10
43.8055596544
 20
44.8061684565
 11
-43.8055596544
 21
44.8061684565
  0
LINE
  5
2F4
100
AcDbEntity
  8
0
100
AcDbLine
 62
7
  6
CONTINUOUS
 10
43.9993911979
 20
45.0
 11
-43.9993911979
 21
45.0
  0
LINE
  5
2F5
100
AcDbEntity
  8
ASSI
100
AcDbLine
 62
7
  6
CONTINUOUS
 10
43.9993911979
 20
45.0
 11
-43.9993911979
 21
45.0
  0
LINE
  5
2F6
100
AcDbEntity
  8
CURVE
100
AcDbLine
 62
250
  6
CONTINUOUS
 10
44.9473759453
 20
-34.230793
 11
44.8904101948
 21
-34.842919
  0
LINE
  5
2F7
100
AcDbEntity
  8
CURVE
100
AcDbLine
 62
250
  6
CONTINUOUS
 10
44.860136417
 20
-34.707635
 11
44.9085720674
 21
-34.191353
  0
LINE
  5
2F8
100
AcDbEntity
  8
CURVE
100
AcDbLine
 62
250
  6
CONTINUOUS
 10
44.9473759453
 20
-37.714382
 11
44.860136417
 21
-38.506847
  0
LINE
  5
2F9
100
AcDbEntity
  8
CURVE
100
AcDbLine
 62
250
  6
CONTINUOUS
 10
44.860136417
 20
-31.54876
 11
44.9473759453
 21
-30.781779
  0
LINE
  5
2FA
100
AcDbEntity
  8
CURVE
100
AcDbLine
 62
250
  6
CONTINUOUS
 10
44.860136417
 20
-37.940019
 11
44.9201860964
 21
-37.463524
  0
LINE
  5
2FB
100
AcDbEntity
  8
CURVE
100
AcDbLine
 62
250
  6
CONTINUOUS
 10
44.9473759453
 20
-31.331727
 11
44.92995984
 21
-31.466899
  0
LINE
  5
2FC
100
AcDbEntity
  8
CURVE
100
AcDbLine
 62
250
  6
CONTINUOUS
 10
44.9164833296
 20
-31.571179
 11
44.8841076249
 21
-31.81095
  0
LINE
  5
2FD
100
AcDbEntity
  8
CURVE
100
AcDbLine
 62
250
  6
CONTINUOUS
 10
44.860136417
 20
-33.153297
 11
44.9473759453
 21
-32.919544
  0
LINE
  5
2FE
100
AcDbEntity
  8
CURVE
100
AcDbLine
 62
250
  6
CONTINUOUS
 10
44.9473759453
 20
-33.429996
 11
44.890647651
 21
-33.5372
  0
LINE
  5
2FF
100
AcDbEntity
  8
CURVE
100
AcDbLine
 62
7
  6
CONTINUOUS
 10
44.9324975919
 20
-28.9197046926
 11
44.9473759458
 21
-28.9048263387
  0
LINE
  5
300
100
AcDbEntity
  8
CURVE
100
AcDbLine
 62
7
  6
CONTINUOUS
 10
44.8755531683
 20
-28.9766491162
 11
44.8917284604
 21
-28.9604738241
  0
LINE
  5
301
100
AcDbEntity
  8
CURVE
100
AcDbLine
 62
7
  6
CONTINUOUS
 10
44.8649492422
 20
-29.1972637563
 11
44.903111229
 21
-29.1591017695
  0
LINE
  5
302
100
AcDbEntity
  8
CURVE
100
AcDbLine
 62
7
  6
CONTINUOUS
 10
44.9102747191
 20
-29.1519382794
 11
44.9473759458
 21
-29.1148370527
  0
LINE
  5
303
100
AcDbEntity
  8
CURVE
100
AcDbLine
 62
7
  6
CONTINUOUS
 10
44.8613109348
 20
-29.4109127777
 11
44.9453325953
 21
-29.3268911172
  0
LINE
  5
304
100
AcDbEntity
  8
CURVE
100
AcDbLine
 62
7
  6
CONTINUOUS
 10
44.8969435501
 20
-29.5852908764
 11
44.9190347261
 21
-29.5631997005
  0
LINE
  5
305
100
AcDbEntity
  8
CURVE
100
AcDbLine
 62
7
  6
CONTINUOUS
 10
44.8597994348
 20
-29.6224349918
 11
44.8755681946
 21
-29.606666232
  0
LINE
  5
306
100
AcDbEntity
  8
CURVE
100
AcDbLine
 62
7
  6
CONTINUOUS
 10
44.8988937906
 20
-29.79335135
 11
44.9133811384
 21
-29.7788640022
  0
LINE
  5
307
100
AcDbEntity
  8
CURVE
100
AcDbLine
 62
7
  6
CONTINUOUS
 10
44.8592207145
 20
-29.833024426
 11
44.8742222539
 21
-29.8180228866
  0
LINE
  5
308
100
AcDbEntity
  8
CURVE
100
AcDbLine
 62
7
  6
CONTINUOUS
 10
44.8989474951
 20
-30.0033083595
 11
44.9132352194
 21
-29.9890206352
  0
LINE
  5
309
100
AcDbEntity
  8
CURVE
100
AcDbLine
 62
7
  6
CONTINUOUS
 10
44.8591757532
 20
-30.0430801013
 11
44.8744997271
 21
-30.0277561275
  0
LINE
  5
30A
100
AcDbEntity
  8
CURVE
100
AcDbLine
 62
7
  6
CONTINUOUS
 10
44.8596096984
 20
-30.2526568702
 11
44.9473759458
 21
-30.1648906227
  0
LINE
  5
30B
100
AcDbEntity
  8
CURVE
100
AcDbLine
 62
7
  6
CONTINUOUS
 10
44.8603663752
 20
-30.4619109074
 11
44.9473759458
 21
-30.3749013368
  0
LINE
  5
30C
100
AcDbEntity
  8
CURVE
100
AcDbLine
 62
7
  6
CONTINUOUS
 10
44.9037328578
 20
-30.6285551388
 11
44.9473759458
 21
-30.5849120508
  0
LINE
  5
30D
100
AcDbEntity
  8
CURVE
100
AcDbLine
 62
7
  6
CONTINUOUS
 10
44.9456890453
 20
-30.7966096654
 11
44.9473759453
 21
-30.7949227654
  0
LINE
  5
30E
100
AcDbEntity
  8
CURVE
100
AcDbLine
 62
7
  6
CONTINUOUS
 10
44.9187358044
 20
-31.0335736202
 11
44.9473759453
 21
-31.0049334794
  0
LINE
  5
30F
100
AcDbEntity
  8
CURVE
100
AcDbLine
 62
7
  6
CONTINUOUS
 10
44.8917825635
 20
-31.2705375751
 11
44.9473759453
 21
-31.2149441934
  0
LINE
  5
310
100
AcDbEntity
  8
CURVE
100
AcDbLine
 62
7
  6
CONTINUOUS
 10
44.8648293226
 20
-31.50750153
 11
44.9335875311
 21
-31.4387433215
  0
LINE
  5
311
100
AcDbEntity
  8
CURVE
100
AcDbLine
 62
7
  6
CONTINUOUS
 10
44.9164833296
 20
-31.6658582371
 11
44.92995984
 21
-31.6523817266
  0
LINE
  5
312
100
AcDbEntity
  8
CURVE
100
AcDbLine
 62
7
  6
CONTINUOUS
 10
44.860136417
 20
-31.7222051497
 11
44.9017033076
 21
-31.6806382591
  0
LINE
  5
313
100
AcDbEntity
  8
CURVE
100
AcDbLine
 62
7
  6
CONTINUOUS
 10
44.9164833296
 20
-31.8758689511
 11
44.92995984
 21
-31.8623924406
  0
LINE
  5
314
100
AcDbEntity
  8
CURVE
100
AcDbLine
 62
7
  6
CONTINUOUS
 10
44.860136417
 20
-31.9322158637
 11
44.8948884187
 21
-31.897463862
  0
LINE
  5
315
100
AcDbEntity
  8
CURVE
100
AcDbLine
 62
7
  6
CONTINUOUS
 10
44.869016866
 20
-32.1333461287
 11
44.92995984
 21
-32.0724031547
  0
LINE
  5
316
100
AcDbEntity
  8
CURVE
100
AcDbLine
 62
7
  6
CONTINUOUS
 10
44.8900439624
 20
-32.3223297463
 11
44.9412814361
 21
-32.2710922726
  0
LINE
  5
317
100
AcDbEntity
  8
CURVE
100
AcDbLine
 62
7
  6
CONTINUOUS
 10
44.9110710588
 20
-32.5113133639
 11
44.9473759453
 21
-32.4750084775
  0
LINE
  5
318
100
AcDbEntity
  8
CURVE
100
AcDbLine
 62
7
  6
CONTINUOUS
 10
44.9320981552
 20
-32.7002969815
 11
44.9473759453
 21
-32.6850191915
  0
LINE
  5
319
100
AcDbEntity
  8
CURVE
100
AcDbLine
 62
7
  6
CONTINUOUS
 10
44.860136417
 20
-33.1922801478
 11
44.9473759453
 21
-33.1050406195
  0
LINE
  5
31A
100
AcDbEntity
  8
CURVE
100
AcDbLine
 62
7
  6
CONTINUOUS
 10
44.860136417
 20
-33.4022908618
 11
44.9473759453
 21
-33.3150513335
  0
LINE
  5
31B
100
AcDbEntity
  8
CURVE
100
AcDbLine
 62
7
  6
CONTINUOUS
 10
44.860136417
 20
-33.6123015758
 11
44.8943832694
 21
-33.5780547234
  0
LINE
  5
31C
100
AcDbEntity
  8
CURVE
100
AcDbLine
 62
7
  6
CONTINUOUS
 10
44.8731113113
 20
-33.8093373954
 11
44.9119772116
 21
-33.7704714952
  0
LINE
  5
31D
100
AcDbEntity
  8
0
100
AcDbLine
 62
7
  6
CONTINUOUS
 10
43.8199854699
 20
-44.7906993223
 11
43.8055596544
 21
-44.8061684565
  0
LINE
  5
31E
100
AcDbEntity
  8
ASSI
100
AcDbLine
 62
7
  6
CONTINUOUS
 10
43.8199854699
 20
-44.7906993223
 11
43.8055596544
 21
-44.8061684565
  0
LINE
  5
31F
100
AcDbEntity
  8
CURVE
100
AcDbLine
 62
7
  6
CONTINUOUS
 10
44.8909497793
 20
-34.0015096415
 11
44.9295711538
 21
-33.962888267
  0
LINE
  5
320
100
AcDbEntity
  8
CURVE
100
AcDbLine
 62
7
  6
CONTINUOUS
 10
44.9083085792
 20
-34.1941615557
 11
44.9471650959
 21
-34.1553050389
  0
LINE
  5
321
100
AcDbEntity
  8
CURVE
100
AcDbLine
 62
7
  6
CONTINUOUS
 10
44.8865663864
 20
-34.4259144624
 11
44.9335940176
 21
-34.3788868312
  0
LINE
  5
322
100
AcDbEntity
  8
CURVE
100
AcDbLine
 62
7
  6
CONTINUOUS
 10
44.8648241936
 20
-34.6576673692
 11
44.9120445318
 21
-34.610447031
  0
LINE
  5
323
100
AcDbEntity
  8
CURVE
100
AcDbLine
 62
7
  6
CONTINUOUS
 10
44.860136417
 20
-34.8723658599
 11
44.890495046
 21
-34.8420072309
  0
LINE
  5
324
100
AcDbEntity
  8
CURVE
100
AcDbLine
 62
7
  6
CONTINUOUS
 10
44.860136417
 20
-35.0823765739
 11
44.9473759453
 21
-34.9951370456
  0
LINE
  5
325
100
AcDbEntity
  8
CURVE
100
AcDbLine
 62
7
  6
CONTINUOUS
 10
44.8778076074
 20
-35.2747160975
 11
44.9473759453
 21
-35.2051477596
  0
LINE
  5
326
100
AcDbEntity
  8
CURVE
100
AcDbLine
 62
7
  6
CONTINUOUS
 10
44.9363509727
 20
-35.4261834462
 11
44.9473759453
 21
-35.4151584736
  0
LINE
  5
327
100
AcDbEntity
  8
CURVE
100
AcDbLine
 62
7
  6
CONTINUOUS
 10
44.860131217
 20
-35.92242463
 11
44.9473759453
 21
-35.8351799016
  0
LINE
  5
328
100
AcDbEntity
  8
CURVE
100
AcDbLine
 62
7
  6
CONTINUOUS
 10
44.860131217
 20
-36.132435344
 11
44.9473759453
 21
-36.0451906157
  0
LINE
  5
329
100
AcDbEntity
  8
CURVE
100
AcDbLine
 62
7
  6
CONTINUOUS
 10
44.9451792749
 20
-36.257398
 11
44.9473759453
 21
-36.2552013297
  0
LINE
  5
32A
100
AcDbEntity
  8
CURVE
100
AcDbLine
 62
7
  6
CONTINUOUS
 10
44.860136417
 20
-36.552451572
 11
44.8700688497
 21
-36.5425191393
  0
LINE
  5
32B
100
AcDbEntity
  8
CURVE
100
AcDbLine
 62
7
  6
CONTINUOUS
 10
44.860136417
 20
-36.762462286
 11
44.8906370703
 21
-36.7319616327
  0
LINE
  5
32C
100
AcDbEntity
  8
CURVE
100
AcDbLine
 62
7
  6
CONTINUOUS
 10
44.860136417
 20
-36.972473
 11
44.9112052909
 21
-36.9214041261
  0
LINE
  5
32D
100
AcDbEntity
  8
CURVE
100
AcDbLine
 62
7
  6
CONTINUOUS
 10
44.883019851
 20
-37.15960028
 11
44.9317735115
 21
-37.1108466195
  0
LINE
  5
32E
100
AcDbEntity
  8
CURVE
100
AcDbLine
 62
7
  6
CONTINUOUS
 10
44.9059032851
 20
-37.3467275599
 11
44.9473759453
 21
-37.3052548997
  0
LINE
  5
32F
100
AcDbEntity
  8
CURVE
100
AcDbLine
 62
7
  6
CONTINUOUS
 10
44.9088045085
 20
-37.5538370505
 11
44.9473759453
 21
-37.5152656137
  0
LINE
  5
330
100
AcDbEntity
  8
CURVE
100
AcDbLine
 62
7
  6
CONTINUOUS
 10
44.8785218389
 20
-37.7941304342
 11
44.9460282685
 21
-37.7266240046
  0
LINE
  5
331
100
AcDbEntity
  8
CURVE
100
AcDbLine
 62
7
  6
CONTINUOUS
 10
44.860136417
 20
-38.0225265701
 11
44.9200490088
 21
-37.9626139782
  0
LINE
  5
332
100
AcDbEntity
  8
CURVE
100
AcDbLine
 62
7
  6
CONTINUOUS
 10
44.860136417
 20
-38.2325372841
 11
44.8940697492
 21
-38.1986039519
  0
LINE
  5
333
100
AcDbEntity
  8
CURVE
100
AcDbLine
 62
7
  6
CONTINUOUS
 10
44.860136417
 20
-38.4425479981
 11
44.8680904896
 21
-38.4345939255
  0
LINE
  5
334
100
AcDbEntity
  8
0
100
AcDbLine
 62
7
  6
CONTINUOUS
 10
43.3767374102
 20
-43.7712689598
 11
43.7712689598
 21
-43.3767374102
  0
LINE
  5
335
100
AcDbEntity
  8
ASSI
100
AcDbLine
 62
7
  6
CONTINUOUS
 10
43.3767374102
 20
-43.7712689598
 11
43.7712689598
 21
-43.3767374102
  0
LINE
  5
336
100
AcDbEntity
  8
0
100
AcDbLine
 62
7
  6
CONTINUOUS
 10
43.8199854699
 20
-44.7906993223
 11
44.7906993223
 21
-43.8199854699
  0
LINE
  5
337
100
AcDbEntity
  8
ASSI
100
AcDbLine
 62
7
  6
CONTINUOUS
 10
43.8199854699
 20
-44.7906993223
 11
44.7906993223
 21
-43.8199854699
  0
LINE
  5
338
100
AcDbEntity
  8
0
100
AcDbLine
 62
7
  6
CONTINUOUS
 10
45.0
 20
-43.9993911979
 11
43.9993911979
 21
-45.0
  0
LINE
  5
339
100
AcDbEntity
  8
ASSI
100
AcDbLine
 62
7
  6
CONTINUOUS
 10
45.0
 20
-43.9993911979
 11
43.9993911979
 21
-45.0
  0
LINE
  5
33A
100
AcDbEntity
  8
0
100
AcDbLine
 62
7
  6
CONTINUOUS
 10
44.8061684565
 20
-43.8055596544
 11
44.7906993223
 21
-43.8199854699
  0
LINE
  5
33B
100
AcDbEntity
  8
ASSI
100
AcDbLine
 62
7
  6
CONTINUOUS
 10
44.8061684565
 20
-43.8055596544
 11
44.7906993223
 21
-43.8199854699
  0
LINE
  5
33C
100
AcDbEntity
  8
0
100
AcDbLine
 62
7
  6
CONTINUOUS
 10
44.7906993223
 20
43.8199854699
 11
44.8061684565
 21
43.8055596544
  0
LINE
  5
33D
100
AcDbEntity
  8
ASSI
100
AcDbLine
 62
7
  6
CONTINUOUS
 10
44.7906993223
 20
43.8199854699
 11
44.8061684565
 21
43.8055596544
  0
LINE
  5
33E
100
AcDbEntity
  8
0
100
AcDbLine
 62
7
  6
CONTINUOUS
 10
43.7712689598
 20
43.3767374102
 11
43.3767374102
 21
43.7712689598
  0
LINE
  5
33F
100
AcDbEntity
  8
ASSI
100
AcDbLine
 62
7
  6
CONTINUOUS
 10
43.7712689598
 20
43.3767374102
 11
43.3767374102
 21
43.7712689598
  0
LINE
  5
340
100
AcDbEntity
  8
0
100
AcDbLine
 62
7
  6
CONTINUOUS
 10
44.7906993223
 20
43.8199854699
 11
43.8199854699
 21
44.7906993223
  0
LINE
  5
341
100
AcDbEntity
  8
ASSI
100
AcDbLine
 62
7
  6
CONTINUOUS
 10
44.7906993223
 20
43.8199854699
 11
43.8199854699
 21
44.7906993223
  0
LINE
  5
342
100
AcDbEntity
  8
0
100
AcDbLine
 62
7
  6
CONTINUOUS
 10
43.9993911979
 20
45.0
 11
45.0
 21
43.9993911979
  0
LINE
  5
343
100
AcDbEntity
  8
ASSI
100
AcDbLine
 62
7
  6
CONTINUOUS
 10
43.9993911979
 20
45.0
 11
45.0
 21
43.9993911979
  0
LINE
  5
344
100
AcDbEntity
  8
0
100
AcDbLine
 62
7
  6
CONTINUOUS
 10
43.8055596544
 20
44.8061684565
 11
43.8199854699
 21
44.7906993223
  0
LINE
  5
345
100
AcDbEntity
  8
ASSI
100
AcDbLine
 62
7
  6
CONTINUOUS
 10
43.8055596544
 20
44.8061684565
 11
43.8199854699
 21
44.7906993223
  0
LWPOLYLINE
  5
346
100
AcDbEntity
  8
0
100
AcDbPolyline
 62
7
  6
CONTINUOUS
 90
3
 70
0
 43
0.3500000006
 10
-86.7651130371
 20
66.4985924377
 10
-85.9079660339
 20
67.3557394409
 10
-85.9079660339
 20
64.3557385254
  0
LWPOLYLINE
  5
347
100
AcDbEntity
  8
0
100
AcDbPolyline
 62
7
  6
CONTINUOUS
 90
3
 70
0
 43
0.3500000006
 10
-80.9793956909
 20
66.4985924377
 10
-80.1222486877
 20
67.3557394409
 10
-80.1222486877
 20
64.3557385254
  0
LWPOLYLINE
  5
348
100
AcDbEntity
  8
0
100
AcDbPolyline
 62
7
  6
CONTINUOUS
 90
3
 70
0
 43
0.3500000006
 10
-82.3614136963
 20
57.6203063965
 10
-81.5042757568
 20
58.4774533997
 10
-81.5042757568
 20
55.4774524841
  0
LINE
  5
349
100
AcDbEntity
  8
0
100
AcDbLine
 62
7
  6
CONTINUOUS
 10
-74.7326498943
 20
-44.8061684565
 11
-69.1820407213
 21
-45.0
  0
LINE
  5
34A
100
AcDbEntity
  8
ASSI
100
AcDbLine
 62
7
  6
CONTINUOUS
 10
-74.7326498943
 20
-44.8061684565
 11
-69.1820407213
 21
-45.0
  0
LINE
  5
34B
100
AcDbEntity
  8
0
100
AcDbLine
 62
7
  6
CONTINUOUS
 10
-74.7326498943
 20
-43.8055596544
 11
-69.1820407213
 21
-43.9993911979
  0
LINE
  5
34C
100
AcDbEntity
  8
ASSI
100
AcDbLine
 62
7
  6
CONTINUOUS
 10
-74.7326498943
 20
-43.8055596544
 11
-69.1820407213
 21
-43.9993911979
  0
LINE
  5
34D
100
AcDbEntity
  8
0
100
AcDbLine
 62
7
  6
CONTINUOUS
 10
-69.1820407213
 20
-42.7580439128
 11
-68.5820407213
 21
-42.8
  0
LINE
  5
34E
100
AcDbEntity
  8
0
100
AcDbLine
 62
7
  6
CONTINUOUS
 10
-75.7320407213
 20
43.3767374102
 11
-74.7475882636
 21
43.8199854699
  0
LINE
  5
34F
100
AcDbEntity
  8
ASSI
100
AcDbLine
 62
7
  6
CONTINUOUS
 10
-75.7320407213
 20
43.3767374102
 11
-74.7475882636
 21
43.8199854699
  0
LINE
  5
350
100
AcDbEntity
  8
0
100
AcDbLine
 62
250
  6
CONTINUOUS
 10
-69.1820407213
 20
-41.4612106475
 11
-68.5820407213
 21
-41.5031667347
  0
LINE
  5
351
100
AcDbEntity
  8
0
100
AcDbLine
 62
7
  6
CONTINUOUS
 10
-75.7320407213
 20
-43.3767374102
 11
-74.7475882636
 21
-43.8199854699
  0
LINE
  5
352
100
AcDbEntity
  8
ASSI
100
AcDbLine
 62
7
  6
CONTINUOUS
 10
-75.7320407213
 20
-43.3767374102
 11
-74.7475882636
 21
-43.8199854699
  0
LINE
  5
353
100
AcDbEntity
  8
CURVE
100
AcDbLine
 62
250
  6
CONTINUOUS
 10
-73.1872097099
 20
-37.940019
 11
-71.4676118809
 21
-37.463524
  0
LINE
  5
354
100
AcDbEntity
  8
CURVE
100
AcDbLine
 62
250
  6
CONTINUOUS
 10
-73.1873586191
 20
-36.257398
 11
-70.6889964815
 21
-36.257398
  0
LINE
  5
355
100
AcDbEntity
  8
CURVE
100
AcDbLine
 62
250
  6
CONTINUOUS
 10
-71.4676118809
 20
-37.463524
 11
-73.1872097099
 21
-36.972473
  0
LINE
  5
356
100
AcDbEntity
  8
0
100
AcDbLine
 62
7
  6
CONTINUOUS
 10
-74.7326498943
 20
44.8061684565
 11
-75.7320407213
 21
43.7712689598
  0
LINE
  5
357
100
AcDbEntity
  8
ASSI
100
AcDbLine
 62
7
  6
CONTINUOUS
 10
-74.7326498943
 20
44.8061684565
 11
-75.7320407213
 21
43.7712689598
  0
LINE
  5
358
100
AcDbEntity
  8
CURVE
100
AcDbLine
 62
250
  6
CONTINUOUS
 10
-70.6889964815
 20
-33.429996
 11
-72.3134822854
 21
-33.5372
  0
LINE
  5
359
100
AcDbEntity
  8
CURVE
100
AcDbLine
 62
250
  6
CONTINUOUS
 10
-70.6889964815
 20
-35.735605
 11
-73.1873586191
 21
-35.735605
  0
LINE
  5
35A
100
AcDbEntity
  8
CURVE
100
AcDbLine
 62
250
  6
CONTINUOUS
 10
-72.3202821406
 20
-34.842919
 11
-70.6889964815
 21
-34.955522
  0
LINE
  5
35B
100
AcDbEntity
  8
CURVE
100
AcDbLine
 62
250
  6
CONTINUOUS
 10
-70.6889964815
 20
-35.454708
 11
-73.1872097099
 21
-35.228996
  0
LINE
  5
35C
100
AcDbEntity
  8
CURVE
100
AcDbLine
 62
250
  6
CONTINUOUS
 10
-73.1872097099
 20
-36.451037
 11
-70.6889964815
 21
-37.254552
  0
LINE
  5
35D
100
AcDbEntity
  8
0
100
AcDbLine
 62
7
  6
CONTINUOUS
 10
-75.7320407213
 20
-43.7712689598
 11
-74.7326498943
 21
-44.8061684565
  0
LINE
  5
35E
100
AcDbEntity
  8
ASSI
100
AcDbLine
 62
7
  6
CONTINUOUS
 10
-75.7320407213
 20
-43.7712689598
 11
-74.7326498943
 21
-44.8061684565
  0
LWPOLYLINE
  5
35F
100
AcDbEntity
  8
0
100
AcDbPolyline
 62
7
  6
CONTINUOUS
 90
3
 70
0
 43
0.3500000006
 10
-81.9793959961
 20
64.6414541931
 10
-82.050827179
 20
64.4271697083
 10
-82.193680481
 20
64.1414540405
  0
LINE
  5
360
100
AcDbEntity
  8
CURVE
100
AcDbLine
 62
250
  6
CONTINUOUS
 10
-70.6889964815
 20
-31.331727
 11
-71.1877284822
 21
-31.466899
  0
LINE
  5
361
100
AcDbEntity
  8
CURVE
100
AcDbLine
 62
250
  6
CONTINUOUS
 10
-71.5736452489
 20
-31.571179
 11
-72.5007641289
 21
-31.81095
  0
LINE
  5
362
100
AcDbEntity
  8
CURVE
100
AcDbLine
 62
250
  6
CONTINUOUS
 10
-73.1872097099
 20
-33.153297
 11
-70.6889964815
 21
-32.919544
  0
LINE
  5
363
100
AcDbEntity
  8
CURVE
100
AcDbLine
 62
250
  6
CONTINUOUS
 10
-73.1580218537
 20
-30.6285551388
 11
-70.688996465
 21
-30.6285551388
  0
LINE
  5
364
100
AcDbEntity
  8
CURVE
100
AcDbLine
 62
250
  6
CONTINUOUS
 10
-72.0758058466
 20
-30.126163664
 11
-72.7616139686
 21
-30.126163664
  0
LINE
  5
365
100
AcDbEntity
  8
CURVE
100
AcDbLine
 62
250
  6
CONTINUOUS
 10
-70.688996465
 20
-30.1088617972
 11
-71.6666589557
 21
-30.1088617972
  0
LINE
  5
366
100
AcDbEntity
  8
CURVE
100
AcDbLine
 62
250
  6
CONTINUOUS
 10
-72.5007641289
 20
-31.81095
 11
-71.5736452489
 21
-32.070759
  0
LINE
  5
367
100
AcDbEntity
  8
CURVE
100
AcDbLine
 62
250
  6
CONTINUOUS
 10
-71.1877284822
 20
-32.177494
 11
-70.6889964815
 21
-32.321477
  0
LINE
  5
368
100
AcDbEntity
  8
CURVE
100
AcDbLine
 62
250
  6
CONTINUOUS
 10
-70.6889964815
 20
-32.837608
 11
-73.1872097099
 21
-32.053532
  0
LINE
  5
369
100
AcDbEntity
  8
CURVE
100
AcDbLine
 62
250
  6
CONTINUOUS
 10
-71.8001941573
 20
-34.191353
 11
-73.1872097099
 21
-33.66956
  0
LINE
  5
36A
100
AcDbEntity
  8
CURVE
100
AcDbLine
 62
250
  6
CONTINUOUS
 10
-72.3134822854
 20
-33.5372
 11
-70.6889964815
 21
-34.157611
  0
LWPOLYLINE
  5
36B
100
AcDbEntity
  8
0
100
AcDbPolyline
 62
7
  6
CONTINUOUS
 90
3
 70
0
 43
0.3500000006
 10
-83.3614140015
 20
55.7631681519
 10
-83.4328451843
 20
55.5488791351
 10
-83.5756984863
 20
55.2631679993
  0
LINE
  5
36C
100
AcDbEntity
  8
0
100
AcDbLine
 62
7
  6
CONTINUOUS
 10
-67.6562035703
 20
-27.1501294387
 11
-68.5820407213
 21
-27.151745331
  0
LINE
  5
36D
100
AcDbEntity
  8
0
100
AcDbLine
 62
250
  6
CONTINUOUS
 10
-67.6562681376
 20
-26.9276792439
 11
-68.5820407213
 21
-26.9280974384
  0
LINE
  5
36E
100
AcDbEntity
  8
CURVE
100
AcDbLine
 62
250
  6
CONTINUOUS
 10
-71.8551400395
 20
-29.2870512436
 11
-71.8699022991
 21
-29.2870512436
  0
LINE
  5
36F
100
AcDbEntity
  8
0
100
AcDbLine
 62
7
  6
CONTINUOUS
 10
-66.1319914891
 20
-26.3415638603
 11
-68.5820407213
 21
-26.3558178298
  0
LINE
  5
370
100
AcDbEntity
  8
0
100
AcDbLine
 62
250
  6
CONTINUOUS
 10
-66.1319914891
 20
-26.2536973817
 11
-68.5820407213
 21
-26.2679513512
  0
LINE
  5
371
100
AcDbEntity
  8
0
100
AcDbLine
 62
7
  6
CONTINUOUS
 10
-67.6319163425
 20
-25.2
 11
-68.5820407213
 21
-25.2
  0
LINE
  5
372
100
AcDbEntity
  8
0
100
AcDbLine
 62
7
  6
CONTINUOUS
 10
-68.5820407213
 20
-25.05
 11
-68.4320407213
 21
-25.05
  0
LINE
  5
373
100
AcDbEntity
  8
0
100
AcDbLine
 62
7
  6
CONTINUOUS
 10
-68.1320407213
 20
-25.05
 11
-67.9320407213
 21
-25.05
  0
LINE
  5
374
100
AcDbEntity
  8
0
100
AcDbLine
 62
7
  6
CONTINUOUS
 10
-68.5820407213
 20
-25.7558198745
 11
-65.7715735301
 21
-25.8799866677
  0
LINE
  5
375
100
AcDbEntity
  8
0
100
AcDbLine
 62
7
  6
CONTINUOUS
 10
-65.5820407213
 20
-25.4
 11
-67.5324126234
 21
-25.2049628098
  0
LWPOLYLINE
  5
376
100
AcDbEntity
  8
0
100
AcDbPolyline
 62
7
  6
CONTINUOUS
 90
4
 70
0
 43
0.3500000006
 10
-86.4328460999
 20
57.8345908813
 10
-86.4328460999
 20
58.4774533997
 10
-84.9328456421
 20
58.4774533997
 10
-85.7899835815
 20
55.4774524841
  0
LINE
  5
377
100
AcDbEntity
  8
0
100
AcDbLine
 62
7
  6
CONTINUOUS
 10
-68.4320407213
 20
25.05
 11
-68.2820407213
 21
25.2
  0
LINE
  5
378
100
AcDbEntity
  8
0
100
AcDbLine
 62
7
  6
CONTINUOUS
 10
-67.9320407213
 20
25.05
 11
-67.7820407213
 21
25.2
  0
LINE
  5
379
100
AcDbEntity
  8
0
100
AcDbLine
 62
7
  6
CONTINUOUS
 10
-68.4320407213
 20
-25.05
 11
-68.2820407213
 21
-25.2
  0
LINE
  5
37A
100
AcDbEntity
  8
0
100
AcDbLine
 62
7
  6
CONTINUOUS
 10
-67.9320407213
 20
-25.05
 11
-67.7820407213
 21
-25.2
  0
LWPOLYLINE
  5
37B
100
AcDbEntity
  8
0
100
AcDbPolyline
 62
7
  6
CONTINUOUS
 90
13
 70
0
 43
0.3500000006
 10
-85.0508190308
 20
65.2128855286
 10
-85.0508190308
 20
66.4985924377
 10
-84.8365345459
 20
66.9271704712
 10
-84.4079655762
 20
67.3557394409
 10
-84.1936810913
 20
67.3557394409
 10
-83.7651121216
 20
66.9271704712
 10
-83.5508276367
 20
66.4985924377
 10
-83.5508276367
 20
65.2128855286
 10
-83.7651121216
 20
64.7843074951
 10
-84.1936810913
 20
64.3557385254
 10
-84.4079655762
 20
64.3557385254
 10
-84.8365345459
 20
64.7843074951
 10
-85.0508190308
 20
65.2128855286
  0
LINE
  5
37C
100
AcDbEntity
  8
0
100
AcDbLine
 62
7
  6
CONTINUOUS
 10
-75.7320407213
 20
-43.7712689598
 11
-75.7320407213
 21
43.7712689598
  0
LINE
  5
37D
100
AcDbEntity
  8
ASSI
100
AcDbLine
 62
7
  6
CONTINUOUS
 10
-75.7320407213
 20
-43.7712689598
 11
-75.7320407213
 21
43.7712689598
  0
LINE
  5
37E
100
AcDbEntity
  8
0
100
AcDbLine
 62
7
  6
CONTINUOUS
 10
-74.7475882636
 20
-44.7906993223
 11
-74.7475882636
 21
-43.8199854699
  0
LINE
  5
37F
100
AcDbEntity
  8
ASSI
100
AcDbLine
 62
7
  6
CONTINUOUS
 10
-74.7475882636
 20
-44.7906993223
 11
-74.7475882636
 21
-43.8199854699
  0
LINE
  5
380
100
AcDbEntity
  8
0
100
AcDbLine
 62
7
  6
CONTINUOUS
 10
-74.7475882636
 20
43.8199854699
 11
-74.7475882636
 21
44.7906993223
  0
LINE
  5
381
100
AcDbEntity
  8
ASSI
100
AcDbLine
 62
7
  6
CONTINUOUS
 10
-74.7475882636
 20
43.8199854699
 11
-74.7475882636
 21
44.7906993223
  0
LINE
  5
382
100
AcDbEntity
  8
0
100
AcDbLine
 62
7
  6
CONTINUOUS
 10
-74.7326498943
 20
-43.8055596544
 11
-74.7326498943
 21
43.8055596544
  0
LINE
  5
383
100
AcDbEntity
  8
ASSI
100
AcDbLine
 62
7
  6
CONTINUOUS
 10
-74.7326498943
 20
-43.8055596544
 11
-74.7326498943
 21
43.8055596544
  0
LINE
  5
384
100
AcDbEntity
  8
CURVE
100
AcDbLine
 62
250
  6
CONTINUOUS
 10
-73.1873586191
 20
-35.735605
 11
-73.1873586191
 21
-36.257398
  0
LINE
  5
385
100
AcDbEntity
  8
CURVE
100
AcDbLine
 62
250
  6
CONTINUOUS
 10
-73.1872097099
 20
-38.506847
 11
-73.1872097099
 21
-37.940019
  0
LINE
  5
386
100
AcDbEntity
  8
CURVE
100
AcDbLine
 62
250
  6
CONTINUOUS
 10
-73.1872097099
 20
-36.972473
 11
-73.1872097099
 21
-36.451037
  0
LINE
  5
387
100
AcDbEntity
  8
CURVE
100
AcDbLine
 62
250
  6
CONTINUOUS
 10
-73.1872097099
 20
-35.228996
 11
-73.1872097099
 21
-34.707635
  0
LINE
  5
388
100
AcDbEntity
  8
CURVE
100
AcDbLine
 62
250
  6
CONTINUOUS
 10
-73.1872097099
 20
-33.66956
 11
-73.1872097099
 21
-33.153297
  0
LINE
  5
389
100
AcDbEntity
  8
CURVE
100
AcDbLine
 62
250
  6
CONTINUOUS
 10
-73.1872097099
 20
-32.053532
 11
-73.1872097099
 21
-31.54876
  0
LINE
  5
38A
100
AcDbEntity
  8
CURVE
100
AcDbLine
 62
250
  6
CONTINUOUS
 10
-72.0758058466
 20
-29.8279642095
 11
-72.0758058466
 21
-30.126163664
  0
LINE
  5
38B
100
AcDbEntity
  8
CURVE
100
AcDbLine
 62
250
  6
CONTINUOUS
 10
-71.6666589557
 20
-30.1088617972
 11
-71.6666589557
 21
-29.8290889245
  0
LINE
  5
38C
100
AcDbEntity
  8
CURVE
100
AcDbLine
 62
250
  6
CONTINUOUS
 10
-71.5736452489
 20
-32.070759
 11
-71.5736452489
 21
-31.571179
  0
LINE
  5
38D
100
AcDbEntity
  8
CURVE
100
AcDbLine
 62
250
  6
CONTINUOUS
 10
-71.1877284822
 20
-31.466899
 11
-71.1877284822
 21
-32.177494
  0
LINE
  5
38E
100
AcDbEntity
  8
CURVE
100
AcDbLine
 62
250
  6
CONTINUOUS
 10
-70.6889964815
 20
-36.257398
 11
-70.6889964815
 21
-35.735605
  0
LINE
  5
38F
100
AcDbEntity
  8
CURVE
100
AcDbLine
 62
250
  6
CONTINUOUS
 10
-70.6889964815
 20
-30.781779
 11
-70.6889964815
 21
-31.331727
  0
LINE
  5
390
100
AcDbEntity
  8
CURVE
100
AcDbLine
 62
250
  6
CONTINUOUS
 10
-70.6889964815
 20
-32.321477
 11
-70.6889964815
 21
-32.837608
  0
LINE
  5
391
100
AcDbEntity
  8
CURVE
100
AcDbLine
 62
250
  6
CONTINUOUS
 10
-70.6889964815
 20
-32.919544
 11
-70.6889964815
 21
-33.429996
  0
LINE
  5
392
100
AcDbEntity
  8
CURVE
100
AcDbLine
 62
250
  6
CONTINUOUS
 10
-70.6889964815
 20
-34.157611
 11
-70.6889964815
 21
-34.230793
  0
LINE
  5
393
100
AcDbEntity
  8
CURVE
100
AcDbLine
 62
250
  6
CONTINUOUS
 10
-70.6889964815
 20
-34.955522
 11
-70.6889964815
 21
-35.454708
  0
LINE
  5
394
100
AcDbEntity
  8
CURVE
100
AcDbLine
 62
250
  6
CONTINUOUS
 10
-70.6889964815
 20
-37.254552
 11
-70.6889964815
 21
-37.714382
  0
LINE
  5
395
100
AcDbEntity
  8
CURVE
100
AcDbLine
 62
250
  6
CONTINUOUS
 10
-70.688996465
 20
-30.6285551388
 11
-70.688996465
 21
-30.1088617972
  0
LINE
  5
396
100
AcDbEntity
  8
CURVE
100
AcDbLine
 62
250
  6
CONTINUOUS
 10
-70.688996465
 20
-29.3098079785
 11
-70.688996465
 21
-28.8079038802
  0
LINE
  5
397
100
AcDbEntity
  8
0
100
AcDbLine
 62
250
  6
CONTINUOUS
 10
-67.6562036414
 20
-27.1500750748
 11
-67.6562681376
 21
-26.9276792439
  0
LINE
  5
398
100
AcDbEntity
  8
0
100
AcDbLine
 62
7
  6
CONTINUOUS
 10
-69.1820407213
 20
-45.0
 11
-69.1820407213
 21
45.0
  0
LINE
  5
399
100
AcDbEntity
  8
ASSI
100
AcDbLine
 62
7
  6
CONTINUOUS
 10
-69.1820407213
 20
-45.0
 11
-69.1820407213
 21
45.0
  0
LINE
  5
39A
100
AcDbEntity
  8
0
100
AcDbLine
 62
7
  6
CONTINUOUS
 10
-68.5820407213
 20
-42.8
 11
-68.5820407213
 21
42.8
  0
LINE
  5
39B
100
AcDbEntity
  8
0
100
AcDbLine
 62
250
  6
CONTINUOUS
 10
-67.6562681376
 20
26.9276792439
 11
-67.6562036729
 21
27.1501232517
  0
LINE
  5
39C
100
AcDbEntity
  8
0
100
AcDbLine
 62
250
  6
CONTINUOUS
 10
-65.7715735301
 20
25.8799866677
 11
-65.7715735301
 21
25.3810467191
  0
LINE
  5
39D
100
AcDbEntity
  8
0
100
AcDbLine
 62
250
  6
CONTINUOUS
 10
-65.7715735301
 20
-25.3810467191
 11
-65.7715735301
 21
-25.8799866677
  0
LINE
  5
39E
100
AcDbEntity
  8
0
100
AcDbLine
 62
7
  6
CONTINUOUS
 10
-65.5820407213
 20
26.0883643404
 11
-65.5820407213
 21
25.4
  0
LINE
  5
39F
100
AcDbEntity
  8
0
100
AcDbLine
 62
7
  6
CONTINUOUS
 10
-65.5820407213
 20
-25.4
 11
-65.5820407213
 21
-26.0883643404
  0
LWPOLYLINE
  5
3A0
100
AcDbEntity
  8
0
100
AcDbPolyline
 62
7
  6
CONTINUOUS
 90
10
 70
0
 43
0.3500000006
 10
-83.4328451843
 20
55.9774526367
 10
-83.3614140015
 20
55.834590271
 10
-83.3614140015
 20
55.7631681519
 10
-83.5042763672
 20
55.620310318
 10
-83.5756984863
 20
55.620310318
 10
-83.6471296692
 20
55.691736969
 10
-83.6471296692
 20
55.7631681519
 10
-83.5756984863
 20
55.9060214539
 10
-83.5042763672
 20
55.9774526367
 10
-83.4328451843
 20
55.9774526367
  0
LINE
  5
3A1
100
AcDbEntity
  8
CURVE
100
AcDbLine
 62
7
  6
CONTINUOUS
 10
-73.138859134
 20
-29.3637367197
 11
-72.7554765744
 21
-28.9803541601
  0
LINE
  5
3A2
100
AcDbEntity
  8
CURVE
100
AcDbLine
 62
7
  6
CONTINUOUS
 10
-73.1979765692
 20
-29.6328648689
 11
-72.4994586946
 21
-28.9343469943
  0
LINE
  5
3A3
100
AcDbEntity
  8
CURVE
100
AcDbLine
 62
7
  6
CONTINUOUS
 10
-73.2149228869
 20
-29.8598219006
 11
-72.3083380735
 21
-28.9532370872
  0
LINE
  5
3A4
100
AcDbEntity
  8
CURVE
100
AcDbLine
 62
7
  6
CONTINUOUS
 10
-73.213580897
 20
-30.0684906248
 11
-72.7387095626
 21
-29.5936192903
  0
LINE
  5
3A5
100
AcDbEntity
  8
CURVE
100
AcDbLine
 62
7
  6
CONTINUOUS
 10
-72.6021511486
 20
-29.4570608763
 11
-72.1539278686
 21
-29.0088375964
  0
LINE
  5
3A6
100
AcDbEntity
  8
0
100
AcDbLine
 62
7
  6
CONTINUOUS
 10
-68.2820407213
 20
-25.2
 11
-68.1320407213
 21
-25.05
  0
LINE
  5
3A7
100
AcDbEntity
  8
CURVE
100
AcDbLine
 62
7
  6
CONTINUOUS
 10
-73.2011720744
 20
-30.2660925161
 11
-72.784792759
 21
-29.8497132007
  0
LINE
  5
3A8
100
AcDbEntity
  8
CURVE
100
AcDbLine
 62
7
  6
CONTINUOUS
 10
-72.3670054876
 20
-29.4319259293
 11
-72.0264253592
 21
-29.091345801
  0
LINE
  5
3A9
100
AcDbEntity
  8
CURVE
100
AcDbLine
 62
7
  6
CONTINUOUS
 10
-73.1812771052
 20
-30.4562082609
 11
-72.7732809147
 21
-30.0482120705
  0
LINE
  5
3AA
100
AcDbEntity
  8
CURVE
100
AcDbLine
 62
7
  6
CONTINUOUS
 10
-72.2184774936
 20
-29.4934086494
 11
-71.9228756493
 21
-29.197806805
  0
LINE
  5
3AB
100
AcDbEntity
  8
CURVE
100
AcDbLine
 62
7
  6
CONTINUOUS
 10
-73.143613269
 20
-30.6285551388
 11
-72.6412217942
 21
-30.126163664
  0
LINE
  5
3AC
100
AcDbEntity
  8
CURVE
100
AcDbLine
 62
7
  6
CONTINUOUS
 10
-72.1217643266
 20
-29.6067061963
 11
-71.5616437791
 21
-29.0465856489
  0
LINE
  5
3AD
100
AcDbEntity
  8
CURVE
100
AcDbLine
 62
7
  6
CONTINUOUS
 10
-72.933602555
 20
-30.6285551388
 11
-72.4312110802
 21
-30.126163664
  0
LINE
  5
3AE
100
AcDbEntity
  8
CURVE
100
AcDbLine
 62
7
  6
CONTINUOUS
 10
-72.0790470718
 20
-29.7739996556
 11
-71.2645481517
 21
-28.9595007355
  0
LINE
  5
3AF
100
AcDbEntity
  8
CURVE
100
AcDbLine
 62
7
  6
CONTINUOUS
 10
-72.723591841
 20
-30.6285551388
 11
-72.2212003662
 21
-30.126163664
  0
LINE
  5
3B0
100
AcDbEntity
  8
CURVE
100
AcDbLine
 62
7
  6
CONTINUOUS
 10
-72.0758058466
 20
-29.9807691444
 11
-70.9792173574
 21
-28.8841806552
  0
LINE
  5
3B1
100
AcDbEntity
  8
CURVE
100
AcDbLine
 62
7
  6
CONTINUOUS
 10
-72.513581127
 20
-30.6285551388
 11
-71.6621584021
 21
-29.7771324139
  0
LINE
  5
3B2
100
AcDbEntity
  8
CURVE
100
AcDbLine
 62
7
  6
CONTINUOUS
 10
-71.4102889742
 20
-29.525262986
 11
-70.6943505668
 21
-28.8093245785
  0
LINE
  5
3B3
100
AcDbEntity
  8
CURVE
100
AcDbLine
 62
7
  6
CONTINUOUS
 10
-72.303570413
 20
-30.6285551388
 11
-71.6666589557
 21
-29.9916436815
  0
LINE
  5
3B4
100
AcDbEntity
  8
CURVE
100
AcDbLine
 62
7
  6
CONTINUOUS
 10
-71.1056428269
 20
-29.4306275527
 11
-70.688996465
 21
-29.0139811908
  0
LINE
  5
3B5
100
AcDbEntity
  8
CURVE
100
AcDbLine
 62
7
  6
CONTINUOUS
 10
-73.1872097099
 20
-31.7222051497
 11
-72.9369238382
 21
-31.471919278
  0
LINE
  5
3B6
100
AcDbEntity
  8
CURVE
100
AcDbLine
 62
7
  6
CONTINUOUS
 10
-72.093559699
 20
-30.6285551388
 11
-71.5738663574
 21
-30.1088617972
  0
LINE
  5
3B7
100
AcDbEntity
  8
CURVE
100
AcDbLine
 62
7
  6
CONTINUOUS
 10
-70.8101970631
 20
-29.3451925029
 11
-70.688996465
 21
-29.2239919048
  0
LINE
  5
3B8
100
AcDbEntity
  8
CURVE
100
AcDbLine
 62
7
  6
CONTINUOUS
 10
-73.1872097099
 20
-31.9322158637
 11
-72.6338729042
 21
-31.378879058
  0
LINE
  5
3B9
100
AcDbEntity
  8
CURVE
100
AcDbLine
 62
7
  6
CONTINUOUS
 10
-71.883548985
 20
-30.6285551388
 11
-71.3638556434
 21
-30.1088617972
  0
LINE
  5
3BA
100
AcDbEntity
  8
CURVE
100
AcDbLine
 62
7
  6
CONTINUOUS
 10
-73.1197025672
 20
-32.074719435
 11
-72.3308219701
 21
-31.285838838
  0
LINE
  5
3BB
100
AcDbEntity
  8
CURVE
100
AcDbLine
 62
7
  6
CONTINUOUS
 10
-71.673538271
 20
-30.6285551388
 11
-71.1538449294
 21
-30.1088617972
  0
LINE
  5
3BC
100
AcDbEntity
  8
CURVE
100
AcDbLine
 62
7
  6
CONTINUOUS
 10
-72.9598593884
 20
-32.1248869703
 11
-72.0277710361
 21
-31.1927986179
  0
LINE
  5
3BD
100
AcDbEntity
  8
CURVE
100
AcDbLine
 62
7
  6
CONTINUOUS
 10
-71.4635275569
 20
-30.6285551388
 11
-70.9438342154
 21
-30.1088617972
  0
LINE
  5
3BE
100
AcDbEntity
  8
CURVE
100
AcDbLine
 62
7
  6
CONTINUOUS
 10
-72.8000162097
 20
-32.1750545055
 11
-72.4501073801
 21
-31.825145676
  0
LINE
  5
3BF
100
AcDbEntity
  8
CURVE
100
AcDbLine
 62
7
  6
CONTINUOUS
 10
-72.4132889083
 20
-31.7883272042
 11
-71.724720102
 21
-31.0997583979
  0
LINE
  5
3C0
100
AcDbEntity
  8
CURVE
100
AcDbLine
 62
7
  6
CONTINUOUS
 10
-71.2535168429
 20
-30.6285551388
 11
-70.7338235014
 21
-30.1088617972
  0
LINE
  5
3C1
100
AcDbEntity
  8
CURVE
100
AcDbLine
 62
7
  6
CONTINUOUS
 10
-72.6401730309
 20
-32.2252220408
 11
-72.2860663282
 21
-31.8711153381
  0
LINE
  5
3C2
100
AcDbEntity
  8
CURVE
100
AcDbLine
 62
7
  6
CONTINUOUS
 10
-72.1300191062
 20
-31.7150681161
 11
-71.421669168
 21
-31.0067181779
  0
LINE
  5
3C3
100
AcDbEntity
  8
CURVE
100
AcDbLine
 62
7
  6
CONTINUOUS
 10
-71.0435061289
 20
-30.6285551388
 11
-70.688996465
 21
-30.2740454749
  0
LINE
  5
3C4
100
AcDbEntity
  8
CURVE
100
AcDbLine
 62
7
  6
CONTINUOUS
 10
-72.4803298522
 20
-32.2753895761
 11
-72.1220252763
 21
-31.9170850002
  0
LINE
  5
3C5
100
AcDbEntity
  8
CURVE
100
AcDbLine
 62
7
  6
CONTINUOUS
 10
-71.8467493041
 20
-31.641809028
 11
-71.118618234
 21
-30.9136779579
  0
LINE
  5
3C6
100
AcDbEntity
  8
CURVE
100
AcDbLine
 62
7
  6
CONTINUOUS
 10
-70.8334954149
 20
-30.6285551388
 11
-70.688996465
 21
-30.4840561889
  0
LINE
  5
3C7
100
AcDbEntity
  8
0
100
AcDbLine
 62
7
  6
CONTINUOUS
 10
-68.2820407213
 20
25.2
 11
-68.1320407213
 21
25.05
  0
LWPOLYLINE
  5
3C8
100
AcDbEntity
  8
0
100
AcDbPolyline
 62
7
  6
CONTINUOUS
 90
10
 70
0
 43
0.3500000006
 10
-82.050827179
 20
64.855738678
 10
-81.9793959961
 20
64.712885376
 10
-81.9793959961
 20
64.6414541931
 10
-82.1222492981
 20
64.4986008911
 10
-82.193680481
 20
64.4986008911
 10
-82.2651116638
 20
64.5700230103
 10
-82.2651116638
 20
64.6414541931
 10
-82.193680481
 20
64.7843074951
 10
-82.1222492981
 20
64.855738678
 10
-82.050827179
 20
64.855738678
  0
LINE
  5
3C9
100
AcDbEntity
  8
CURVE
100
AcDbLine
 62
7
  6
CONTINUOUS
 10
-73.1872097099
 20
-33.1922801478
 11
-73.1442024562
 21
-33.1492728941
  0
LINE
  5
3CA
100
AcDbEntity
  8
CURVE
100
AcDbLine
 62
7
  6
CONTINUOUS
 10
-72.3204866734
 20
-32.3255571113
 11
-71.9579842244
 21
-31.9630546623
  0
LINE
  5
3CB
100
AcDbEntity
  8
CURVE
100
AcDbLine
 62
7
  6
CONTINUOUS
 10
-71.5736452489
 20
-31.5787156868
 11
-70.8155672999
 21
-30.8206377378
  0
LINE
  5
3CC
100
AcDbEntity
  8
CURVE
100
AcDbLine
 62
7
  6
CONTINUOUS
 10
-73.1872097099
 20
-33.4022908618
 11
-72.9125130066
 21
-33.1275941586
  0
LINE
  5
3CD
100
AcDbEntity
  8
CURVE
100
AcDbLine
 62
7
  6
CONTINUOUS
 10
-72.1606434947
 20
-32.3757246466
 11
-71.7939431725
 21
-32.0090243245
  0
LINE
  5
3CE
100
AcDbEntity
  8
CURVE
100
AcDbLine
 62
7
  6
CONTINUOUS
 10
-71.5736452489
 20
-31.7887264008
 11
-70.6889964815
 21
-30.9040776334
  0
LINE
  5
3CF
100
AcDbEntity
  8
CURVE
100
AcDbLine
 62
7
  6
CONTINUOUS
 10
-73.1872097099
 20
-33.6123015758
 11
-72.6808235571
 21
-33.105915423
  0
LINE
  5
3D0
100
AcDbEntity
  8
CURVE
100
AcDbLine
 62
7
  6
CONTINUOUS
 10
-72.0008003159
 20
-32.4258921818
 11
-71.6299021206
 21
-32.0549939866
  0
LINE
  5
3D1
100
AcDbEntity
  8
CURVE
100
AcDbLine
 62
7
  6
CONTINUOUS
 10
-71.5736452489
 20
-31.9987371148
 11
-71.1877284822
 21
-31.6128203482
  0
LINE
  5
3D2
100
AcDbEntity
  8
CURVE
100
AcDbLine
 62
7
  6
CONTINUOUS
 10
-70.9875534196
 20
-31.4126452855
 11
-70.6889964815
 21
-31.1140883474
  0
LINE
  5
3D3
100
AcDbEntity
  8
CURVE
100
AcDbLine
 62
7
  6
CONTINUOUS
 10
-73.0762138735
 20
-33.7113164535
 11
-72.4491341075
 21
-33.0842366875
  0
LINE
  5
3D4
100
AcDbEntity
  8
CURVE
100
AcDbLine
 62
7
  6
CONTINUOUS
 10
-71.8409571371
 20
-32.4760597171
 11
-71.1877284822
 21
-31.8228310622
  0
LINE
  5
3D5
100
AcDbEntity
  8
CURVE
100
AcDbLine
 62
7
  6
CONTINUOUS
 10
-70.6994604958
 20
-31.3345630758
 11
-70.6889964815
 21
-31.3240990614
  0
LINE
  5
3D6
100
AcDbEntity
  8
CURVE
100
AcDbLine
 62
7
  6
CONTINUOUS
 10
-72.9236118087
 20
-33.7687251026
 11
-72.217444658
 21
-33.0625579519
  0
LINE
  5
3D7
100
AcDbEntity
  8
CURVE
100
AcDbLine
 62
7
  6
CONTINUOUS
 10
-71.6811139584
 20
-32.5262272524
 11
-71.1877284822
 21
-32.0328417762
  0
LINE
  5
3D8
100
AcDbEntity
  8
CURVE
100
AcDbLine
 62
7
  6
CONTINUOUS
 10
-72.7710097438
 20
-33.8261337518
 11
-71.9857552084
 21
-33.0408792164
  0
LINE
  5
3D9
100
AcDbEntity
  8
CURVE
100
AcDbLine
 62
7
  6
CONTINUOUS
 10
-71.5212707796
 20
-32.5763947876
 11
-71.1370118029
 21
-32.1921358109
  0
LINE
  5
3DA
100
AcDbEntity
  8
CURVE
100
AcDbLine
 62
7
  6
CONTINUOUS
 10
-72.618407679
 20
-33.883542401
 11
-72.283511491
 21
-33.548646213
  0
LINE
  5
3DB
100
AcDbEntity
  8
CURVE
100
AcDbLine
 62
7
  6
CONTINUOUS
 10
-72.269138947
 20
-33.5342736689
 11
-71.7540657589
 21
-33.0192004809
  0
LINE
  5
3DC
100
AcDbEntity
  8
CURVE
100
AcDbLine
 62
7
  6
CONTINUOUS
 10
-71.3614276009
 20
-32.6265623229
 11
-70.9740483378
 21
-32.2391830598
  0
LINE
  5
3DD
100
AcDbEntity
  8
CURVE
100
AcDbLine
 62
7
  6
CONTINUOUS
 10
-72.4658056141
 20
-33.9409510501
 11
-72.1315403969
 21
-33.6066858328
  0
LINE
  5
3DE
100
AcDbEntity
  8
CURVE
100
AcDbLine
 62
7
  6
CONTINUOUS
 10
-72.0442898631
 20
-33.5194352991
 11
-71.5223763093
 21
-32.9975217453
  0
LINE
  5
3DF
100
AcDbEntity
  8
CURVE
100
AcDbLine
 62
7
  6
CONTINUOUS
 10
-71.2015844221
 20
-32.6767298581
 11
-70.8110848728
 21
-32.2862303088
  0
LINE
  5
3E0
100
AcDbEntity
  8
CURVE
100
AcDbLine
 62
7
  6
CONTINUOUS
 10
-73.1872097099
 20
-34.8723658599
 11
-72.9248053682
 21
-34.6099615182
  0
LINE
  5
3E1
100
AcDbEntity
  8
CURVE
100
AcDbLine
 62
7
  6
CONTINUOUS
 10
-72.3132035493
 20
-33.9983596993
 11
-71.9795693027
 21
-33.6647254527
  0
LINE
  5
3E2
100
AcDbEntity
  8
CURVE
100
AcDbLine
 62
7
  6
CONTINUOUS
 10
-71.8194407792
 20
-33.5045969292
 11
-71.2906868598
 21
-32.9758430098
  0
LINE
  5
3E3
100
AcDbEntity
  8
CURVE
100
AcDbLine
 62
7
  6
CONTINUOUS
 10
-71.0417412434
 20
-32.7268973934
 11
-70.6889964815
 21
-32.3741526315
  0
LINE
  5
3E4
100
AcDbEntity
  8
CURVE
100
AcDbLine
 62
7
  6
CONTINUOUS
 10
-73.1872097099
 20
-35.0823765739
 11
-72.5902734948
 21
-34.4854403589
  0
LINE
  5
3E5
100
AcDbEntity
  8
CURVE
100
AcDbLine
 62
7
  6
CONTINUOUS
 10
-72.1606014844
 20
-34.0557683484
 11
-71.8275982085
 21
-33.7227650725
  0
LINE
  5
3E6
100
AcDbEntity
  8
CURVE
100
AcDbLine
 62
7
  6
CONTINUOUS
 10
-71.5945916953
 20
-33.4897585594
 11
-71.0589974102
 21
-32.9541642742
  0
LINE
  5
3E7
100
AcDbEntity
  8
CURVE
100
AcDbLine
 62
7
  6
CONTINUOUS
 10
-70.8818980646
 20
-32.7770649287
 11
-70.6889964815
 21
-32.5841633455
  0
LINE
  5
3E8
100
AcDbEntity
  8
CURVE
100
AcDbLine
 62
7
  6
CONTINUOUS
 10
-73.1290711999
 20
-35.2342487779
 11
-72.2557416215
 21
-34.3609191995
  0
LINE
  5
3E9
100
AcDbEntity
  8
CURVE
100
AcDbLine
 62
7
  6
CONTINUOUS
 10
-72.0079994195
 20
-34.1131769976
 11
-71.6756271143
 21
-33.7808046924
  0
LINE
  5
3EA
100
AcDbEntity
  8
CURVE
100
AcDbLine
 62
7
  6
CONTINUOUS
 10
-70.7220548859
 20
-32.8272324639
 11
-70.6889964815
 21
-32.7941740595
  0
LINE
  5
3EB
100
AcDbEntity
  8
CURVE
100
AcDbLine
 62
7
  6
CONTINUOUS
 10
-71.3697426115
 20
-33.4749201895
 11
-70.8273079607
 21
-32.9324855387
  0
LINE
  5
3EC
100
AcDbEntity
  8
CURVE
100
AcDbLine
 62
7
  6
CONTINUOUS
 10
-72.9364625562
 20
-35.2516508482
 11
-71.9212097481
 21
-34.2363980402
  0
LINE
  5
3ED
100
AcDbEntity
  8
CURVE
100
AcDbLine
 62
7
  6
CONTINUOUS
 10
-71.8553973547
 20
-34.1705856467
 11
-71.5236560202
 21
-33.8388443122
  0
LINE
  5
3EE
100
AcDbEntity
  8
CURVE
100
AcDbLine
 62
7
  6
CONTINUOUS
 10
-71.1448935276
 20
-33.4600818197
 11
-70.6889964815
 21
-33.0041847735
  0
LINE
  5
3EF
100
AcDbEntity
  8
CURVE
100
AcDbLine
 62
7
  6
CONTINUOUS
 10
-72.7438539125
 20
-35.2690529185
 11
-72.3178854319
 21
-34.843084438
  0
LINE
  5
3F0
100
AcDbEntity
  8
CURVE
100
AcDbLine
 62
7
  6
CONTINUOUS
 10
-72.3161811216
 20
-34.8413801277
 11
-71.371684926
 21
-33.8968839321
  0
LINE
  5
3F1
100
AcDbEntity
  8
CURVE
100
AcDbLine
 62
7
  6
CONTINUOUS
 10
-70.9200444437
 20
-33.4452434498
 11
-70.6889964815
 21
-33.2141954876
  0
LINE
  5
3F2
100
AcDbEntity
  8
CURVE
100
AcDbLine
 62
7
  6
CONTINUOUS
 10
-73.1873586191
 20
-35.9225683392
 11
-73.0003952799
 21
-35.735605
  0
LINE
  5
3F3
100
AcDbEntity
  8
CURVE
100
AcDbLine
 62
7
  6
CONTINUOUS
 10
-72.5512452687
 20
-35.2864549888
 11
-72.1214351229
 21
-34.8566448429
  0
LINE
  5
3F4
100
AcDbEntity
  8
CURVE
100
AcDbLine
 62
7
  6
CONTINUOUS
 10
-71.9800341176
 20
-34.7152438377
 11
-71.2197138318
 21
-33.9549235519
  0
LINE
  5
3F5
100
AcDbEntity
  8
CURVE
100
AcDbLine
 62
7
  6
CONTINUOUS
 10
-70.6951953599
 20
-33.4304050799
 11
-70.6889964815
 21
-33.4242062016
  0
LINE
  5
3F6
100
AcDbEntity
  8
CURVE
100
AcDbLine
 62
7
  6
CONTINUOUS
 10
-73.1873586191
 20
-36.1325790532
 11
-72.7903845659
 21
-35.735605
  0
LINE
  5
3F7
100
AcDbEntity
  8
CURVE
100
AcDbLine
 62
7
  6
CONTINUOUS
 10
-72.358636625
 20
-35.3038570591
 11
-71.9249848138
 21
-34.8702052479
  0
LINE
  5
3F8
100
AcDbEntity
  8
CURVE
100
AcDbLine
 62
7
  6
CONTINUOUS
 10
-71.6438871136
 20
-34.5891075477
 11
-71.0677427377
 21
-34.0129631718
  0
LINE
  5
3F9
100
AcDbEntity
  8
CURVE
100
AcDbLine
 62
7
  6
CONTINUOUS
 10
-73.1021668519
 20
-36.257398
 11
-72.5803738519
 21
-35.735605
  0
LINE
  5
3FA
100
AcDbEntity
  8
CURVE
100
AcDbLine
 62
7
  6
CONTINUOUS
 10
-72.1660279813
 20
-35.3212591294
 11
-71.7285345048
 21
-34.8837656529
  0
LINE
  5
3FB
100
AcDbEntity
  8
CURVE
100
AcDbLine
 62
7
  6
CONTINUOUS
 10
-71.3077401096
 20
-34.4629712577
 11
-70.9157716435
 21
-34.0710027916
  0
LINE
  5
3FC
100
AcDbEntity
  8
CURVE
100
AcDbLine
 62
7
  6
CONTINUOUS
 10
-73.1872097099
 20
-36.552451572
 11
-73.1104755853
 21
-36.4757174474
  0
LINE
  5
3FD
100
AcDbEntity
  8
CURVE
100
AcDbLine
 62
7
  6
CONTINUOUS
 10
-72.8921561379
 20
-36.257398
 11
-72.3703631379
 21
-35.735605
  0
LINE
  5
3FE
100
AcDbEntity
  8
CURVE
100
AcDbLine
 62
7
  6
CONTINUOUS
 10
-71.9734193376
 20
-35.3386611997
 11
-71.5320841957
 21
-34.8973260578
  0
LINE
  5
3FF
100
AcDbEntity
  8
CURVE
100
AcDbLine
 62
7
  6
CONTINUOUS
 10
-70.9715931055
 20
-34.3368349676
 11
-70.7638005493
 21
-34.1290424115
  0
LINE
  5
400
100
AcDbEntity
  8
CURVE
100
AcDbLine
 62
7
  6
CONTINUOUS
 10
-73.1872097099
 20
-36.762462286
 11
-72.9515734869
 21
-36.526826063
  0
LINE
  5
401
100
AcDbEntity
  8
CURVE
100
AcDbLine
 62
7
  6
CONTINUOUS
 10
-72.6821454239
 20
-36.257398
 11
-72.1603524239
 21
-35.735605
  0
LINE
  5
402
100
AcDbEntity
  8
CURVE
100
AcDbLine
 62
7
  6
CONTINUOUS
 10
-71.7808106938
 20
-35.35606327
 11
-71.3356338867
 21
-34.9108864628
  0
LINE
  5
403
100
AcDbEntity
  8
CURVE
100
AcDbLine
 62
7
  6
CONTINUOUS
 10
-73.1872097099
 20
-36.972473
 11
-72.7926713885
 21
-36.5779346786
  0
LINE
  5
404
100
AcDbEntity
  8
CURVE
100
AcDbLine
 62
7
  6
CONTINUOUS
 10
-72.4721347099
 20
-36.257398
 11
-71.9503417099
 21
-35.735605
  0
LINE
  5
405
100
AcDbEntity
  8
CURVE
100
AcDbLine
 62
7
  6
CONTINUOUS
 10
-71.5882020501
 20
-35.3734653402
 11
-71.1391835776
 21
-34.9244468678
  0
LINE
  5
406
100
AcDbEntity
  8
CURVE
100
AcDbLine
 62
7
  6
CONTINUOUS
 10
-73.0238486354
 20
-37.0191226396
 11
-72.6337692901
 21
-36.6290432942
  0
LINE
  5
407
100
AcDbEntity
  8
CURVE
100
AcDbLine
 62
7
  6
CONTINUOUS
 10
-72.2621239959
 20
-36.257398
 11
-71.7403309959
 21
-35.735605
  0
LINE
  5
408
100
AcDbEntity
  8
CURVE
100
AcDbLine
 62
7
  6
CONTINUOUS
 10
-71.3955934064
 20
-35.3908674105
 11
-70.9427332686
 21
-34.9380072727
  0
LINE
  5
409
100
AcDbEntity
  8
CURVE
100
AcDbLine
 62
7
  6
CONTINUOUS
 10
-72.860487561
 20
-37.0657722792
 11
-72.4748671917
 21
-36.6801519098
  0
LINE
  5
40A
100
AcDbEntity
  8
CURVE
100
AcDbLine
 62
7
  6
CONTINUOUS
 10
-72.0521132818
 20
-36.257398
 11
-71.5303202818
 21
-35.735605
  0
LINE
  5
40B
100
AcDbEntity
  8
CURVE
100
AcDbLine
 62
7
  6
CONTINUOUS
 10
-71.2029847627
 20
-35.4082694808
 11
-70.7462829595
 21
-34.9515676777
  0
LINE
  5
40C
100
AcDbEntity
  8
CURVE
100
AcDbLine
 62
7
  6
CONTINUOUS
 10
-72.6971264866
 20
-37.1124219188
 11
-72.3159650933
 21
-36.7312605254
  0
LINE
  5
40D
100
AcDbEntity
  8
CURVE
100
AcDbLine
 62
7
  6
CONTINUOUS
 10
-71.8421025678
 20
-36.257398
 11
-71.3203095678
 21
-35.735605
  0
LINE
  5
40E
100
AcDbEntity
  8
CURVE
100
AcDbLine
 62
7
  6
CONTINUOUS
 10
-71.0103761189
 20
-35.4256715511
 11
-70.6889964815
 21
-35.1042919137
  0
LINE
  5
40F
100
AcDbEntity
  8
CURVE
100
AcDbLine
 62
7
  6
CONTINUOUS
 10
-72.5337654122
 20
-37.1590715584
 11
-72.1570629949
 21
-36.782369141
  0
LINE
  5
410
100
AcDbEntity
  8
CURVE
100
AcDbLine
 62
7
  6
CONTINUOUS
 10
-71.6320918538
 20
-36.257398
 11
-71.1102988538
 21
-35.735605
  0
LINE
  5
411
100
AcDbEntity
  8
CURVE
100
AcDbLine
 62
7
  6
CONTINUOUS
 10
-70.8177674752
 20
-35.4430736214
 11
-70.6889964815
 21
-35.3143026277
  0
LINE
  5
412
100
AcDbEntity
  8
CURVE
100
AcDbLine
 62
7
  6
CONTINUOUS
 10
-73.1872097099
 20
-38.0225265701
 11
-73.0730760799
 21
-37.90839294
  0
LINE
  5
413
100
AcDbEntity
  8
CURVE
100
AcDbLine
 62
7
  6
CONTINUOUS
 10
-72.3704043377
 20
-37.2057211979
 11
-71.9981608964
 21
-36.8334777566
  0
LINE
  5
414
100
AcDbEntity
  8
CURVE
100
AcDbLine
 62
7
  6
CONTINUOUS
 10
-71.4220811398
 20
-36.257398
 11
-70.9002881398
 21
-35.735605
  0
LINE
  5
415
100
AcDbEntity
  8
CURVE
100
AcDbLine
 62
7
  6
CONTINUOUS
 10
-73.1872097099
 20
-38.2325372841
 11
-72.7825659471
 21
-37.8278935213
  0
LINE
  5
416
100
AcDbEntity
  8
CURVE
100
AcDbLine
 62
7
  6
CONTINUOUS
 10
-72.2070432633
 20
-37.2523708375
 11
-71.839258798
 21
-36.8845863723
  0
LINE
  5
417
100
AcDbEntity
  8
CURVE
100
AcDbLine
 62
7
  6
CONTINUOUS
 10
-71.2120704258
 20
-36.257398
 11
-70.6902774258
 21
-35.735605
  0
LINE
  5
418
100
AcDbEntity
  8
CURVE
100
AcDbLine
 62
7
  6
CONTINUOUS
 10
-73.1872097099
 20
-38.4425479981
 11
-72.4920558143
 21
-37.7473941026
  0
LINE
  5
419
100
AcDbEntity
  8
CURVE
100
AcDbLine
 62
7
  6
CONTINUOUS
 10
-72.0436821889
 20
-37.2990204771
 11
-71.6803566996
 21
-36.9356949879
  0
LINE
  5
41A
100
AcDbEntity
  8
CURVE
100
AcDbLine
 62
7
  6
CONTINUOUS
 10
-71.0020597118
 20
-36.257398
 11
-70.6889964815
 21
-35.9443347697
  0
LINE
  5
41B
100
AcDbEntity
  8
CURVE
100
AcDbLine
 62
7
  6
CONTINUOUS
 10
-72.9738025255
 20
-38.4391515277
 11
-72.2015456816
 21
-37.6668946838
  0
LINE
  5
41C
100
AcDbEntity
  8
CURVE
100
AcDbLine
 62
7
  6
CONTINUOUS
 10
-71.8803211145
 20
-37.3456701167
 11
-71.5214546012
 21
-36.9868036035
  0
LINE
  5
41D
100
AcDbEntity
  8
CURVE
100
AcDbLine
 62
7
  6
CONTINUOUS
 10
-70.7920489978
 20
-36.257398
 11
-70.6889964815
 21
-36.1543454837
  0
LINE
  5
41E
100
AcDbEntity
  8
CURVE
100
AcDbLine
 62
7
  6
CONTINUOUS
 10
-72.6662239889
 20
-38.3415837051
 11
-71.9110355488
 21
-37.5863952651
  0
LINE
  5
41F
100
AcDbEntity
  8
CURVE
100
AcDbLine
 62
7
  6
CONTINUOUS
 10
-71.71696004
 20
-37.3923197563
 11
-71.3625525028
 21
-37.0379122191
  0
LINE
  5
420
100
AcDbEntity
  8
CURVE
100
AcDbLine
 62
7
  6
CONTINUOUS
 10
-72.3586454523
 20
-38.2440158826
 11
-71.6205254161
 21
-37.5058958463
  0
LINE
  5
421
100
AcDbEntity
  8
CURVE
100
AcDbLine
 62
7
  6
CONTINUOUS
 10
-71.5535989656
 20
-37.4389693959
 11
-71.2036504044
 21
-37.0890208347
  0
LINE
  5
422
100
AcDbEntity
  8
CURVE
100
AcDbLine
 62
7
  6
CONTINUOUS
 10
-72.0510669158
 20
-38.14644806
 11
-71.044748306
 21
-37.1401294503
  0
LINE
  5
423
100
AcDbEntity
  8
CURVE
100
AcDbLine
 62
7
  6
CONTINUOUS
 10
-71.7434883792
 20
-38.0488802375
 11
-70.8858462076
 21
-37.1912380659
  0
LINE
  5
424
100
AcDbEntity
  8
CURVE
100
AcDbLine
 62
7
  6
CONTINUOUS
 10
-71.4359098426
 20
-37.9513124149
 11
-70.7269441092
 21
-37.2423466815
  0
LINE
  5
425
100
AcDbEntity
  8
CURVE
100
AcDbLine
 62
7
  6
CONTINUOUS
 10
-71.128331306
 20
-37.8537445923
 11
-70.6889964815
 21
-37.4144097678
  0
LINE
  5
426
100
AcDbEntity
  8
CURVE
100
AcDbLine
 62
7
  6
CONTINUOUS
 10
-70.8207527695
 20
-37.7561767698
 11
-70.6889964815
 21
-37.6244204818
  0
LINE
  5
427
100
AcDbEntity
  8
0
100
AcDbLine
 62
250
  6
CONTINUOUS
 10
-67.6562681376
 20
-26.9276792439
 11
-66.5567492777
 21
-26.3440350289
  0
LINE
  5
428
100
AcDbEntity
  8
0
100
AcDbLine
 62
250
  6
CONTINUOUS
 10
-66.1319914891
 20
-26.2536973817
 11
-65.6098996364
 21
-25.9765617175
  0
LINE
  5
429
100
AcDbEntity
  8
0
100
AcDbLine
 62
7
  6
CONTINUOUS
 10
-65.5820407213
 20
-26.0883643404
 11
-67.5170287596
 21
-27.1154904916
  0
LINE
  5
42A
100
AcDbEntity
  8
0
100
AcDbLine
 62
7
  6
CONTINUOUS
 10
-65.5820407213
 20
25.4
 11
-67.5324126234
 21
25.2049628098
  0
LINE
  5
42B
100
AcDbEntity
  8
0
100
AcDbLine
 62
7
  6
CONTINUOUS
 10
-68.5820407213
 20
25.7558198745
 11
-65.7715735301
 21
25.8799866677
  0
LINE
  5
42C
100
AcDbEntity
  8
0
100
AcDbLine
 62
7
  6
CONTINUOUS
 10
-68.5820407213
 20
25.05
 11
-68.4320407213
 21
25.05
  0
LINE
  5
42D
100
AcDbEntity
  8
0
100
AcDbLine
 62
7
  6
CONTINUOUS
 10
-68.1320407213
 20
25.05
 11
-67.9320407213
 21
25.05
  0
LINE
  5
42E
100
AcDbEntity
  8
0
100
AcDbLine
 62
7
  6
CONTINUOUS
 10
-68.5820407213
 20
25.2
 11
-67.6319163425
 21
25.2
  0
LINE
  5
42F
100
AcDbEntity
  8
0
100
AcDbLine
 62
250
  6
CONTINUOUS
 10
-67.6562681376
 20
26.9276792439
 11
-68.5820407213
 21
26.9280974384
  0
LINE
  5
430
100
AcDbEntity
  8
0
100
AcDbLine
 62
7
  6
CONTINUOUS
 10
-67.6562035703
 20
27.1501294387
 11
-68.5820407213
 21
27.151745331
  0
LINE
  5
431
100
AcDbEntity
  8
0
100
AcDbLine
 62
250
  6
CONTINUOUS
 10
-66.1319914891
 20
26.2536973817
 11
-68.5820407213
 21
26.2679513512
  0
LINE
  5
432
100
AcDbEntity
  8
0
100
AcDbLine
 62
7
  6
CONTINUOUS
 10
-66.1319914891
 20
26.3415638603
 11
-68.5820407213
 21
26.3558178298
  0
LINE
  5
433
100
AcDbEntity
  8
0
100
AcDbLine
 62
250
  6
CONTINUOUS
 10
-66.5567492777
 20
26.3440350289
 11
-67.6562681376
 21
26.9276792439
  0
LINE
  5
434
100
AcDbEntity
  8
0
100
AcDbLine
 62
250
  6
CONTINUOUS
 10
-65.6098996364
 20
25.9765617175
 11
-66.1319914891
 21
26.2536973817
  0
LINE
  5
435
100
AcDbEntity
  8
0
100
AcDbLine
 62
7
  6
CONTINUOUS
 10
-65.5820407213
 20
26.0883643404
 11
-67.5170287596
 21
27.1154904916
  0
LINE
  5
436
100
AcDbEntity
  8
0
100
AcDbLine
 62
7
  6
CONTINUOUS
 10
-74.7326498943
 20
-43.8055596544
 11
-74.7475882636
 21
-43.8199854699
  0
LINE
  5
437
100
AcDbEntity
  8
ASSI
100
AcDbLine
 62
7
  6
CONTINUOUS
 10
-74.7326498943
 20
-43.8055596544
 11
-74.7475882636
 21
-43.8199854699
  0
LINE
  5
438
100
AcDbEntity
  8
CURVE
100
AcDbLine
 62
250
  6
CONTINUOUS
 10
-73.1872097099
 20
-31.54876
 11
-70.6889964815
 21
-30.781779
  0
LINE
  5
439
100
AcDbEntity
  8
0
100
AcDbLine
 62
7
  6
CONTINUOUS
 10
-74.7475882636
 20
43.8199854699
 11
-74.7326498943
 21
43.8055596544
  0
LINE
  5
43A
100
AcDbEntity
  8
ASSI
100
AcDbLine
 62
7
  6
CONTINUOUS
 10
-74.7475882636
 20
43.8199854699
 11
-74.7326498943
 21
43.8055596544
  0
LINE
  5
43B
100
AcDbEntity
  8
CURVE
100
AcDbLine
 62
250
  6
CONTINUOUS
 10
-70.6889964815
 20
-34.230793
 11
-72.3202821406
 21
-34.842919
  0
LINE
  5
43C
100
AcDbEntity
  8
CURVE
100
AcDbLine
 62
250
  6
CONTINUOUS
 10
-73.1872097099
 20
-34.707635
 11
-71.8001941573
 21
-34.191353
  0
LINE
  5
43D
100
AcDbEntity
  8
CURVE
100
AcDbLine
 62
250
  6
CONTINUOUS
 10
-70.6889964815
 20
-37.714382
 11
-73.1872097099
 21
-38.506847
  0
LINE
  5
43E
100
AcDbEntity
  8
0
100
AcDbLine
 62
250
  6
CONTINUOUS
 10
-69.1820407213
 20
41.4612106475
 11
-68.5820407213
 21
41.5031667347
  0
LINE
  5
43F
100
AcDbEntity
  8
0
100
AcDbLine
 62
7
  6
CONTINUOUS
 10
-69.1820407213
 20
42.7580439128
 11
-68.5820407213
 21
42.8
  0
LINE
  5
440
100
AcDbEntity
  8
0
100
AcDbLine
 62
7
  6
CONTINUOUS
 10
-74.7326498943
 20
43.8055596544
 11
-69.1820407213
 21
43.9993911979
  0
LINE
  5
441
100
AcDbEntity
  8
ASSI
100
AcDbLine
 62
7
  6
CONTINUOUS
 10
-74.7326498943
 20
43.8055596544
 11
-69.1820407213
 21
43.9993911979
  0
LINE
  5
442
100
AcDbEntity
  8
0
100
AcDbLine
 62
7
  6
CONTINUOUS
 10
-74.7326498943
 20
44.8061684565
 11
-69.1820407213
 21
45.0
  0
LINE
  5
443
100
AcDbEntity
  8
ASSI
100
AcDbLine
 62
7
  6
CONTINUOUS
 10
-74.7326498943
 20
44.8061684565
 11
-69.1820407213
 21
45.0
  0
LWPOLYLINE
  5
444
100
AcDbEntity
  8
0
100
AcDbPolyline
 62
7
  6
CONTINUOUS
 90
8
 70
0
 43
0.3500000006
 10
-80.6471287537
 20
55.4774524841
 10
-79.7899908142
 20
55.4774524841
 10
-79.3614127808
 20
55.9060214539
 10
-79.3614127808
 20
56.763168457
 10
-79.7899908142
 20
57.1917374268
 10
-80.6471287537
 20
57.1917374268
 10
-80.6471287537
 20
58.4774533997
 10
-79.3614127808
 20
58.4774533997
  0
LWPOLYLINE
  5
445
100
AcDbEntity
  8
0
100
AcDbPolyline
 62
7
  6
CONTINUOUS
 90
8
 70
0
 43
0.3500000006
 10
-79.2651107483
 20
64.3557385254
 10
-78.4079637451
 20
64.3557385254
 10
-77.9793947754
 20
64.7843074951
 10
-77.9793947754
 20
65.6414544983
 10
-78.4079637451
 20
66.070023468
 10
-79.2651107483
 20
66.070023468
 10
-79.2651107483
 20
67.3557394409
 10
-77.9793947754
 20
67.3557394409
  0
ARC
  5
446
100
AcDbEntity
  8
CURVE
100
AcDbCircle
 62
250
  6
CONTINUOUS
 10
84.7422937963
 20
-29.8716892664
 40
39.8681074
100
AcDbArc
 50
179.7782450657
 51
180.3657160807
  0
ARC
  5
447
100
AcDbEntity
  8
0
100
AcDbCircle
 62
7
  6
CONTINUOUS
 10
22.5
 20
-2.0
 40
4.7
100
AcDbArc
 50
180.0
 51
360.0
  0
ARC
  5
448
100
AcDbEntity
  8
0
100
AcDbCircle
 62
7
  6
CONTINUOUS
 10
22.5
 20
2.0
 40
4.7
100
AcDbArc
 50
0.0
 51
180.0
  0
ARC
  5
449
100
AcDbEntity
  8
0
100
AcDbCircle
 62
7
  6
CONTINUOUS
 10
0.0
 20
-2.0
 40
4.7
100
AcDbArc
 50
180.0
 51
360.0
  0
ARC
  5
44A
100
AcDbEntity
  8
0
100
AcDbCircle
 62
7
  6
CONTINUOUS
 10
0.0
 20
2.0
 40
4.7
100
AcDbArc
 50
0.0
 51
180.0
  0
ARC
  5
44B
100
AcDbEntity
  8
0
100
AcDbCircle
 62
7
  6
CONTINUOUS
 10
-22.5
 20
-2.0
 40
4.7
100
AcDbArc
 50
180.0
 51
360.0
  0
ARC
  5
44C
100
AcDbEntity
  8
0
100
AcDbCircle
 62
7
  6
CONTINUOUS
 10
-22.5
 20
2.0
 40
4.7
100
AcDbArc
 50
0.0
 51
180.0
  0
ARC
  5
44D
100
AcDbEntity
  8
ASSI
100
AcDbCircle
 62
7
  6
CONTINUOUS
 10
22.5
 20
-2.0
 40
4.7
100
AcDbArc
 50
180.0
 51
360.0
  0
ARC
  5
44E
100
AcDbEntity
  8
ASSI
100
AcDbCircle
 62
7
  6
CONTINUOUS
 10
22.5
 20
2.0
 40
4.7
100
AcDbArc
 50
0.0
 51
180.0
  0
ARC
  5
44F
100
AcDbEntity
  8
ASSI
100
AcDbCircle
 62
7
  6
CONTINUOUS
 10
0.0
 20
-2.0
 40
4.7
100
AcDbArc
 50
180.0
 51
360.0
  0
ARC
  5
450
100
AcDbEntity
  8
ASSI
100
AcDbCircle
 62
7
  6
CONTINUOUS
 10
0.0
 20
2.0
 40
4.7
100
AcDbArc
 50
0.0
 51
180.0
  0
ARC
  5
451
100
AcDbEntity
  8
ASSI
100
AcDbCircle
 62
7
  6
CONTINUOUS
 10
-22.5
 20
-2.0
 40
4.7
100
AcDbArc
 50
180.0
 51
360.0
  0
ARC
  5
452
100
AcDbEntity
  8
ASSI
100
AcDbCircle
 62
7
  6
CONTINUOUS
 10
-22.5
 20
2.0
 40
4.7
100
AcDbArc
 50
0.0
 51
180.0
  0
ARC
  5
453
100
AcDbEntity
  8
0
100
AcDbCircle
 62
7
  6
CONTINUOUS
 10
-22.5
 20
-2.0
 40
3.5
100
AcDbArc
 50
180.0
 51
360.0
  0
ARC
  5
454
100
AcDbEntity
  8
0
100
AcDbCircle
 62
7
  6
CONTINUOUS
 10
-22.5
 20
2.0
 40
3.5
100
AcDbArc
 50
0.0
 51
180.0
  0
ARC
  5
455
100
AcDbEntity
  8
0
100
AcDbCircle
 62
7
  6
CONTINUOUS
 10
0.0
 20
-2.0
 40
3.5
100
AcDbArc
 50
180.0
 51
360.0
  0
ARC
  5
456
100
AcDbEntity
  8
0
100
AcDbCircle
 62
7
  6
CONTINUOUS
 10
0.0
 20
2.0
 40
3.5
100
AcDbArc
 50
0.0
 51
180.0
  0
ARC
  5
457
100
AcDbEntity
  8
0
100
AcDbCircle
 62
7
  6
CONTINUOUS
 10
22.5
 20
-2.0
 40
3.5
100
AcDbArc
 50
180.0
 51
360.0
  0
ARC
  5
458
100
AcDbEntity
  8
0
100
AcDbCircle
 62
7
  6
CONTINUOUS
 10
22.5
 20
2.0
 40
3.5
100
AcDbArc
 50
0.0
 51
180.0
  0
ARC
  5
459
100
AcDbEntity
  8
ASSI
100
AcDbCircle
 62
7
  6
CONTINUOUS
 10
-22.5
 20
-2.0
 40
3.5
100
AcDbArc
 50
180.0
 51
360.0
  0
ARC
  5
45A
100
AcDbEntity
  8
ASSI
100
AcDbCircle
 62
7
  6
CONTINUOUS
 10
-22.5
 20
2.0
 40
3.5
100
AcDbArc
 50
0.0
 51
180.0
  0
ARC
  5
45B
100
AcDbEntity
  8
ASSI
100
AcDbCircle
 62
7
  6
CONTINUOUS
 10
0.0
 20
-2.0
 40
3.5
100
AcDbArc
 50
180.0
 51
360.0
  0
ARC
  5
45C
100
AcDbEntity
  8
ASSI
100
AcDbCircle
 62
7
  6
CONTINUOUS
 10
0.0
 20
2.0
 40
3.5
100
AcDbArc
 50
0.0
 51
180.0
  0
ARC
  5
45D
100
AcDbEntity
  8
ASSI
100
AcDbCircle
 62
7
  6
CONTINUOUS
 10
22.5
 20
-2.0
 40
3.5
100
AcDbArc
 50
180.0
 51
360.0
  0
ARC
  5
45E
100
AcDbEntity
  8
ASSI
100
AcDbCircle
 62
7
  6
CONTINUOUS
 10
22.5
 20
2.0
 40
3.5
100
AcDbArc
 50
0.0
 51
180.0
  0
ARC
  5
45F
100
AcDbEntity
  8
0
100
AcDbCircle
 62
7
  6
CONTINUOUS
 10
-67.6319163425
 20
26.2
 40
1.0
100
AcDbArc
 50
270.0
 51
275.7105931375
  0
ARC
  5
460
100
AcDbEntity
  8
0
100
AcDbCircle
 62
7
  6
CONTINUOUS
 10
-67.6319163425
 20
-26.2
 40
1.0
100
AcDbArc
 50
84.2894068625
 51
90.0
  0
ARC
  5
461
100
AcDbEntity
  8
0
100
AcDbCircle
 62
7
  6
CONTINUOUS
 10
-67.6567273964
 20
26.849999496
 40
0.3
100
AcDbArc
 50
62.0510370175
 51
89.9000000064
  0
ARC
  5
462
100
AcDbEntity
  8
0
100
AcDbCircle
 62
7
  6
CONTINUOUS
 10
-67.6567273964
 20
-26.849999496
 40
0.3
100
AcDbArc
 50
270.0999999936
 51
297.9489629825
  0
ARC
  5
463
100
AcDbEntity
  8
0
100
AcDbCircle
 62
7
  6
CONTINUOUS
 10
-66.1337368085
 20
-26.0415689373
 40
0.3
100
AcDbArc
 50
270.3333333333
 51
297.9601595781
  0
ARC
  5
464
100
AcDbEntity
  8
0
100
AcDbCircle
 62
7
  6
CONTINUOUS
 10
-66.1337368085
 20
26.0415689373
 40
0.3
100
AcDbArc
 50
62.0398404207
 51
89.6666666667
  0
SPLINE
  5
465
100
AcDbEntity
  8
CURVE
100
AcDbSpline
 62
250
  6
CONTINUOUS
 70
0
 71
3
 72
9
 73
5
 74
0
 42
0.0000001
 43
0.0000001
 44
0.0000000001
 40
0.0
 40
0.0
 40
0.0
 40
0.0
 40
0.5206208722
 40
1.0
 40
1.0
 40
1.0
 40
1.0
 10
44.885390512
 20
-29.4226356449
 30
0.0
 10
44.8891619261
 20
-29.4209681689
 30
0.0
 10
44.8974005432
 20
-29.4973108459
 30
0.0
 10
44.8988699409
 20
-29.728472706
 30
0.0
 10
44.8989474951
 20
-29.8279642095
 30
0.0
  0
SPLINE
  5
466
100
AcDbEntity
  8
CURVE
100
AcDbSpline
 62
250
  6
CONTINUOUS
 70
0
 71
3
 72
9
 73
5
 74
0
 42
0.0000001
 43
0.0000001
 44
0.0000000001
 40
0.0
 40
0.0
 40
0.0
 40
0.0
 40
0.5013510385
 40
1.0
 40
1.0
 40
1.0
 40
1.0
 10
44.8744850009
 20
-29.7173859732
 30
0.0
 10
44.874794863
 20
-29.6409112471
 30
0.0
 10
44.8771452432
 20
-29.4862321801
 30
0.0
 10
44.8827184632
 20
-29.423833145
 30
0.0
 10
44.885390512
 20
-29.4226356449
 30
0.0
  0
SPLINE
  5
467
100
AcDbEntity
  8
CURVE
100
AcDbSpline
 62
250
  6
CONTINUOUS
 70
0
 71
3
 72
9
 73
5
 74
0
 42
0.0000001
 43
0.0000001
 44
0.0000000001
 40
0.0
 40
0.0
 40
0.0
 40
0.0
 40
0.2957417834
 40
1.0
 40
1.0
 40
1.0
 40
1.0
 10
44.8620741759
 20
-29.3408501143
 30
0.0
 10
44.8605585951
 20
-29.4610542637
 30
0.0
 10
44.8580881081
 20
-29.8931154132
 30
0.0
 10
44.8596096759
 20
-30.3274429247
 30
0.0
 10
44.8611556794
 20
-30.6285551388
 30
0.0
  0
SPLINE
  5
468
100
AcDbEntity
  8
CURVE
100
AcDbSpline
 62
250
  6
CONTINUOUS
 70
0
 71
3
 72
17
 73
13
 74
0
 42
0.0000001
 43
0.0000001
 44
0.0000000001
 40
0.0
 40
0.0
 40
0.0
 40
0.0
 40
0.0559780952
 40
0.1687540387
 40
0.321006234
 40
0.4122750837
 40
0.516613223
 40
0.6013931059
 40
0.6776022439
 40
0.8103422694
 40
0.9200404832
 40
1.0
 40
1.0
 40
1.0
 40
1.0
 10
44.9061378054
 20
-29.2870512436
 30
0.0
 10
44.9060080221
 20
-29.2582307418
 30
0.0
 10
44.9039944413
 20
-29.184972753
 30
0.0
 10
44.9001559947
 20
-29.0634829078
 30
0.0
 10
44.894247302
 20
-28.9740276278
 30
0.0
 10
44.8880831982
 20
-28.9341773505
 30
0.0
 10
44.8829671207
 20
-28.9304334968
 30
0.0
 10
44.8781887457
 20
-28.9501640226
 30
0.0
 10
44.8731113496
 20
-28.9979840427
 30
0.0
 10
44.8681353908
 20
-29.0877998266
 30
0.0
 10
44.8642440602
 20
-29.2146127248
 30
0.0
 10
44.862565765
 20
-29.301804483
 30
0.0
 10
44.8620741759
 20
-29.3408501143
 30
0.0
  0
SPLINE
  5
469
100
AcDbEntity
  8
CURVE
100
AcDbSpline
 62
250
  6
CONTINUOUS
 70
0
 71
3
 72
9
 73
5
 74
0
 42
0.0000001
 43
0.0000001
 44
0.0000000001
 40
0.0
 40
0.0
 40
0.0
 40
0.0
 40
0.2426586216
 40
1.0
 40
1.0
 40
1.0
 40
1.0
 10
44.9237639114
 20
-28.9862836897
 30
0.0
 10
44.9221786227
 20
-28.9986586641
 30
0.0
 10
44.9157768408
 20
-29.0459291565
 30
0.0
 10
44.9085526835
 20
-29.1505648409
 30
0.0
 10
44.9066533149
 20
-29.2870512436
 30
0.0
  0
LINE
  5
46A
100
AcDbEntity
  8
CURVE
100
AcDbLine
 62
250
  6
CONTINUOUS
 10
44.9473759458
 20
-28.8079038802
 11
44.9237639114
 21
-28.9862836897
  0
SPLINE
  5
46B
100
AcDbEntity
  8
CURVE
100
AcDbSpline
 62
250
  6
CONTINUOUS
 70
0
 71
3
 72
9
 73
5
 74
0
 42
0.0000001
 43
0.0000001
 44
0.0000000001
 40
0.0
 40
0.0
 40
0.0
 40
0.0
 40
0.5586214172
 40
1.0
 40
1.0
 40
1.0
 40
1.0
 10
44.9209220674
 20
-29.5379751749
 30
0.0
 10
44.9257378197
 20
-29.486134558
 30
0.0
 10
44.9346552336
 20
-29.4179595379
 30
0.0
 10
44.9434695024
 20
-29.3419894791
 30
0.0
 10
44.9473759458
 20
-29.3098079785
 30
0.0
  0
SPLINE
  5
46C
100
AcDbEntity
  8
CURVE
100
AcDbSpline
 62
250
  6
CONTINUOUS
 70
0
 71
3
 72
9
 73
5
 74
0
 42
0.0000001
 43
0.0000001
 44
0.0000000001
 40
0.0
 40
0.0
 40
0.0
 40
0.0
 40
0.3559141631
 40
1.0
 40
1.0
 40
1.0
 40
1.0
 10
44.9132352194
 20
-29.8290889245
 30
0.0
 10
44.9132352194
 20
-29.7836184402
 30
0.0
 10
44.9141961358
 20
-29.6528120506
 30
0.0
 10
44.9182334149
 20
-29.5668873007
 30
0.0
 10
44.9209220674
 20
-29.5379751749
 30
0.0
  0
SPLINE
  5
46D
100
AcDbEntity
  8
CURVE
100
AcDbSpline
 62
250
  6
CONTINUOUS
 70
0
 71
3
 72
9
 73
5
 74
0
 42
0.0000001
 43
0.0000001
 44
0.0000000001
 40
0.0
 40
0.0
 40
0.0
 40
0.0
 40
0.5206208722
 40
1.0
 40
1.0
 40
1.0
 40
1.0
 10
-72.4640270472
 20
-29.4226356449
 30
0.0
 10
-72.3560278776
 20
-29.4209681689
 30
0.0
 10
-72.120104754
 20
-29.4973108459
 30
0.0
 10
-72.0780267081
 20
-29.728472706
 30
0.0
 10
-72.0758058466
 20
-29.8279642095
 30
0.0
  0
SPLINE
  5
46E
100
AcDbEntity
  8
CURVE
100
AcDbSpline
 62
250
  6
CONTINUOUS
 70
0
 71
3
 72
9
 73
5
 74
0
 42
0.0000001
 43
0.0000001
 44
0.0000000001
 40
0.0
 40
0.0
 40
0.0
 40
0.0
 40
0.5013510385
 40
1.0
 40
1.0
 40
1.0
 40
1.0
 10
-72.7763200267
 20
-29.7173859732
 30
0.0
 10
-72.767446737
 20
-29.6409112471
 30
0.0
 10
-72.7001406549
 20
-29.4862321801
 30
0.0
 10
-72.5405445146
 20
-29.423833145
 30
0.0
 10
-72.4640270472
 20
-29.4226356449
 30
0.0
  0
SPLINE
  5
46F
100
AcDbEntity
  8
CURVE
100
AcDbSpline
 62
250
  6
CONTINUOUS
 70
0
 71
3
 72
9
 73
5
 74
0
 42
0.0000001
 43
0.0000001
 44
0.0000000001
 40
0.0
 40
0.0
 40
0.0
 40
0.0
 40
0.2703953699
 40
1.0
 40
1.0
 40
1.0
 40
1.0
 10
-72.7616139686
 20
-30.126163664
 30
0.0
 10
-72.7678245003
 20
-30.0897447717
 30
0.0
 10
-72.7882504442
 20
-29.9546358143
 30
0.0
 10
-72.7878070201
 20
-29.8164101388
 30
0.0
 10
-72.7763200267
 20
-29.7173859732
 30
0.0
  0
SPLINE
  5
470
100
AcDbEntity
  8
CURVE
100
AcDbSpline
 62
250
  6
CONTINUOUS
 70
0
 71
3
 72
9
 73
5
 74
0
 42
0.0000001
 43
0.0000001
 44
0.0000000001
 40
0.0
 40
0.0
 40
0.0
 40
0.0
 40
0.2957417834
 40
1.0
 40
1.0
 40
1.0
 40
1.0
 10
-73.1317195536
 20
-29.3408501143
 30
0.0
 10
-73.1751201093
 20
-29.4610542637
 30
0.0
 10
-73.2458656018
 20
-29.8931154132
 30
0.0
 10
-73.2022936022
 20
-30.3274429247
 30
0.0
 10
-73.1580218537
 20
-30.6285551388
 30
0.0
  0
SPLINE
  5
471
100
AcDbEntity
  8
CURVE
100
AcDbSpline
 62
250
  6
CONTINUOUS
 70
0
 71
3
 72
17
 73
13
 74
0
 42
0.0000001
 43
0.0000001
 44
0.0000000001
 40
0.0
 40
0.0
 40
0.0
 40
0.0
 40
0.0559780952
 40
0.1687540387
 40
0.321006234
 40
0.4122750837
 40
0.516613223
 40
0.6013931059
 40
0.6776022439
 40
0.8103422694
 40
0.9200404832
 40
1.0
 40
1.0
 40
1.0
 40
1.0
 10
-71.8699022991
 20
-29.2870512436
 30
0.0
 10
-71.8736188082
 20
-29.2582307418
 30
0.0
 10
-71.9312802164
 20
-29.184972753
 30
0.0
 10
-72.0411989464
 20
-29.0634829078
 30
0.0
 10
-72.2104017656
 20
-28.9740276278
 30
0.0
 10
-72.3869186049
 20
-28.9341773505
 30
0.0
 10
-72.5334238968
 20
-28.9304334968
 30
0.0
 10
-72.670258651
 20
-28.9501640226
 30
0.0
 10
-72.8156562519
 20
-28.9979840427
 30
0.0
 10
-72.9581490704
 20
-29.0877998266
 30
0.0
 10
-73.0695821977
 20
-29.2146127248
 30
0.0
 10
-73.1176422849
 20
-29.301804483
 30
0.0
 10
-73.1317195536
 20
-29.3408501143
 30
0.0
  0
SPLINE
  5
472
100
AcDbEntity
  8
CURVE
100
AcDbSpline
 62
250
  6
CONTINUOUS
 70
0
 71
3
 72
9
 73
5
 74
0
 42
0.0000001
 43
0.0000001
 44
0.0000000001
 40
0.0
 40
0.0
 40
0.0
 40
0.0
 40
0.2426586216
 40
1.0
 40
1.0
 40
1.0
 40
1.0
 10
-71.3651566635
 20
-28.9862836897
 30
0.0
 10
-71.4105533914
 20
-28.9986586641
 30
0.0
 10
-71.5938764417
 20
-29.0459291565
 30
0.0
 10
-71.80074924
 20
-29.1505648409
 30
0.0
 10
-71.8551400395
 20
-29.2870512436
 30
0.0
  0
SPLINE
  5
473
100
AcDbEntity
  8
CURVE
100
AcDbSpline
 62
250
  6
CONTINUOUS
 70
0
 71
3
 72
9
 73
5
 74
0
 42
0.0000001
 43
0.0000001
 44
0.0000000001
 40
0.0
 40
0.0
 40
0.0
 40
0.0
 40
0.1980141723
 40
1.0
 40
1.0
 40
1.0
 40
1.0
 10
-70.688996465
 20
-28.8079038802
 30
0.0
 10
-70.7335377805
 20
-28.8200085492
 30
0.0
 10
-70.9589834245
 20
-28.8792554798
 30
0.0
 10
-71.184796662
 20
-28.9371156095
 30
0.0
 10
-71.3651566635
 20
-28.9862836897
 30
0.0
  0
SPLINE
  5
474
100
AcDbEntity
  8
CURVE
100
AcDbSpline
 62
250
  6
CONTINUOUS
 70
0
 71
3
 72
9
 73
5
 74
0
 42
0.0000001
 43
0.0000001
 44
0.0000000001
 40
0.0
 40
0.0
 40
0.0
 40
0.0
 40
0.5586214172
 40
1.0
 40
1.0
 40
1.0
 40
1.0
 10
-71.4465364297
 20
-29.5379751749
 30
0.0
 10
-71.3086313264
 20
-29.486134558
 30
0.0
 10
-71.0532700019
 20
-29.4179595379
 30
0.0
 10
-70.8008623686
 20
-29.3419894791
 30
0.0
 10
-70.688996465
 20
-29.3098079785
 30
0.0
  0
SPLINE
  5
475
100
AcDbEntity
  8
CURVE
100
AcDbSpline
 62
250
  6
CONTINUOUS
 70
0
 71
3
 72
9
 73
5
 74
0
 42
0.0000001
 43
0.0000001
 44
0.0000000001
 40
0.0
 40
0.0
 40
0.0
 40
0.0
 40
0.3559141631
 40
1.0
 40
1.0
 40
1.0
 40
1.0
 10
-71.6666589557
 20
-29.8290889245
 30
0.0
 10
-71.6666589557
 20
-29.7836184402
 30
0.0
 10
-71.6391419078
 20
-29.6528120506
 30
0.0
 10
-71.5235293621
 20
-29.5668873007
 30
0.0
 10
-71.4465364297
 20
-29.5379751749
 30
0.0
  0
SPLINE
  5
476
100
AcDbEntity
  8
0
100
AcDbSpline
 62
7
  6
CONTINUOUS
 70
0
 71
3
 72
9
 73
5
 74
0
 42
0.0000001
 43
0.0000001
 44
0.0000000001
 40
0.0
 40
0.0
 40
0.0
 40
0.0
 40
0.4298640935
 40
1.0
 40
1.0
 40
1.0
 40
1.0
 10
-65.5820407213
 20
26.0463167932
 30
0.0
 10
-65.5820407213
 20
26.0354717391
 30
0.0
 10
-65.5899501448
 20
26.010636875
 30
0.0
 10
-65.602550227
 20
25.9889263826
 30
0.0
 10
-65.6098996364
 20
25.9765617175
 30
0.0
  0
SPLINE
  5
477
100
AcDbEntity
  8
0
100
AcDbSpline
 62
250
  6
CONTINUOUS
 70
0
 71
3
 72
9
 73
5
 74
0
 42
0.0000001
 43
0.0000001
 44
0.0000000001
 40
0.0
 40
0.0
 40
0.0
 40
0.0
 40
0.5590518811
 40
1.0
 40
1.0
 40
1.0
 40
1.0
 10
-67.6562681376
 20
-26.9276792439
 30
0.0
 10
-67.6401004705
 20
-26.9561059275
 30
0.0
 10
-67.6100522948
 20
-27.0063036493
 30
0.0
 10
-67.5773261778
 20
-27.054897917
 30
0.0
 10
-67.5615594848
 20
-27.0753122436
 30
0.0
  0
SPLINE
  5
478
100
AcDbEntity
  8
0
100
AcDbSpline
 62
250
  6
CONTINUOUS
 70
0
 71
3
 72
10
 73
6
 74
0
 42
0.0000001
 43
0.0000001
 44
0.0000000001
 40
0.0
 40
0.0
 40
0.0
 40
0.0
 40
0.695089043
 40
0.8909700174
 40
1.0
 40
1.0
 40
1.0
 40
1.0
 10
-67.5615594848
 20
-27.0753122436
 30
0.0
 10
-67.5527679144
 20
-27.0866953529
 30
0.0
 10
-67.540693313
 20
-27.1011551843
 30
0.0
 10
-67.5251910011
 20
-27.1142214526
 30
0.0
 10
-67.5181293377
 20
-27.1160695457
 30
0.0
 10
-67.5161344877
 20
-27.1150157961
 30
0.0
  0
SPLINE
  5
479
100
AcDbEntity
  8
0
100
AcDbSpline
 62
250
  6
CONTINUOUS
 70
0
 71
3
 72
13
 73
9
 74
0
 42
0.0000001
 43
0.0000001
 44
0.0000000001
 40
0.0
 40
0.0
 40
0.0
 40
0.0
 40
0.3880873771
 40
0.7025988043
 40
0.8214552685
 40
0.9105861306
 40
0.9687926621
 40
1.0
 40
1.0
 40
1.0
 40
1.0
 10
-67.6562681376
 20
26.9276792439
 30
0.0
 10
-67.6410702326
 20
26.954388973
 30
0.0
 10
-67.6125557112
 20
27.002152232
 30
0.0
 10
-67.5763373656
 20
27.0563451371
 30
0.0
 10
-67.5510526991
 20
27.088987444
 30
0.0
 10
-67.5364194969
 20
27.1045153452
 30
0.0
 10
-67.5262343385
 20
27.113663453
 30
0.0
 10
-67.5183150897
 20
27.1161783955
 30
0.0
 10
-67.5161344877
 20
27.1150157961
 30
0.0
  0
SPLINE
  5
47A
100
AcDbEntity
  8
0
100
AcDbSpline
 62
250
  6
CONTINUOUS
 70
0
 71
3
 72
11
 73
7
 74
0
 42
0.0000001
 43
0.0000001
 44
0.0000000001
 40
0.0
 40
0.0
 40
0.0
 40
0.0
 40
0.2000269844
 40
0.4247287562
 40
0.6891834224
 40
1.0
 40
1.0
 40
1.0
 40
1.0
 10
-65.9930795601
 20
26.3065510847
 30
0.0
 10
-65.9995006486
 20
26.309959513
 30
0.0
 10
-66.0148348992
 20
26.3142240282
 30
0.0
 10
-66.0401537211
 20
26.3118059158
 30
0.0
 10
-66.0676013165
 20
26.3015467889
 30
0.0
 10
-66.0855743711
 20
26.2906707683
 30
0.0
 10
-66.0948458145
 20
26.2842176744
 30
0.0
  0
SPLINE
  5
47B
100
AcDbEntity
  8
0
100
AcDbSpline
 62
250
  6
CONTINUOUS
 70
0
 71
3
 72
9
 73
5
 74
0
 42
0.0000001
 43
0.0000001
 44
0.0000000001
 40
0.0
 40
0.0
 40
0.0
 40
0.0
 40
0.2366932103
 40
1.0
 40
1.0
 40
1.0
 40
1.0
 10
-66.0948458145
 20
26.2842176744
 30
0.0
 10
-66.0979606963
 20
26.2820496599
 30
0.0
 10
-66.1109182666
 20
26.2726000078
 30
0.0
 10
-66.1230972057
 20
26.2621044193
 30
0.0
 10
-66.1319914891
 20
26.2536973817
 30
0.0
  0
SPLINE
  5
47C
100
AcDbEntity
  8
0
100
AcDbSpline
 62
250
  6
CONTINUOUS
 70
0
 71
3
 72
11
 73
7
 74
0
 42
0.0000001
 43
0.0000001
 44
0.0000000001
 40
0.0
 40
0.0
 40
0.0
 40
0.0
 40
0.2000370051
 40
0.4247427346
 40
0.6891997178
 40
1.0
 40
1.0
 40
1.0
 40
1.0
 10
-65.9930795601
 20
-26.3065510847
 30
0.0
 10
-65.9994989416
 20
-26.3099586069
 30
0.0
 10
-66.0148282532
 20
-26.3142233188
 30
0.0
 10
-66.040139942
 20
-26.3118084799
 30
0.0
 10
-66.0675798464
 20
-26.3015565779
 30
0.0
 10
-66.0855485309
 20
-26.2906870918
 30
0.0
 10
-66.0948174295
 20
-26.2842376253
 30
0.0
  0
SPLINE
  5
47D
100
AcDbEntity
  8
0
100
AcDbSpline
 62
250
  6
CONTINUOUS
 70
0
 71
3
 72
9
 73
5
 74
0
 42
0.0000001
 43
0.0000001
 44
0.0000000001
 40
0.0
 40
0.0
 40
0.0
 40
0.0
 40
0.236679886
 40
1.0
 40
1.0
 40
1.0
 40
1.0
 10
-66.0948174295
 20
-26.2842376253
 30
0.0
 10
-66.0979346732
 20
-26.2820685911
 30
0.0
 10
-66.1109026146
 20
-26.2726135297
 30
0.0
 10
-66.1230906408
 20
-26.2621106246
 30
0.0
 10
-66.1319914891
 20
-26.2536973817
 30
0.0
  0
SPLINE
  5
47E
100
AcDbEntity
  8
0
100
AcDbSpline
 62
250
  6
CONTINUOUS
 70
0
 71
3
 72
17
 73
13
 74
0
 42
0.0000001
 43
0.0000001
 44
0.0000000001
 40
0.0
 40
0.0
 40
0.0
 40
0.0
 40
0.0041509426
 40
0.0165131528
 40
0.0370394731
 40
0.0656738303
 40
0.147033967
 40
0.259883893
 40
0.4031301725
 40
0.5755840393
 40
0.7753335906
 40
1.0
 40
1.0
 40
1.0
 40
1.0
 10
-66.1319914891
 20
-26.3415638603
 30
0.0
 10
-66.1318699116
 20
-26.341563153
 30
0.0
 10
-66.1320870321
 20
-26.3407901078
 30
0.0
 10
-66.1318332896
 20
-26.3399838662
 30
0.0
 10
-66.1319405119
 20
-26.3380251079
 30
0.0
 10
-66.131833389
 20
-26.3342971317
 30
0.0
 10
-66.131871455
 20
-26.3277000543
 30
0.0
 10
-66.1318370158
 20
-26.3178494928
 30
0.0
 10
-66.1318583877
 20
-26.3052846155
 30
0.0
 10
-66.1318828576
 20
-26.2901918491
 30
0.0
 10
-66.1319298105
 20
-26.2727082659
 30
0.0
 10
-66.1319690637
 20
-26.2602777389
 30
0.0
 10
-66.1319914891
 20
-26.2536973817
 30
0.0
  0
SPLINE
  5
47F
100
AcDbEntity
  8
0
100
AcDbSpline
 62
7
  6
CONTINUOUS
 70
0
 71
3
 72
9
 73
5
 74
0
 42
0.0000001
 43
0.0000001
 44
0.0000000001
 40
0.0
 40
0.0
 40
0.0
 40
0.0
 40
0.5701357943
 40
1.0
 40
1.0
 40
1.0
 40
1.0
 10
-65.6098996364
 20
-25.9765617175
 30
0.0
 10
-65.6025502285
 20
-25.9889263801
 30
0.0
 10
-65.589950147
 20
-26.0106368726
 30
0.0
 10
-65.5820407213
 20
-26.0354717363
 30
0.0
 10
-65.5820407213
 20
-26.0463167932
 30
0.0
  0
SPLINE
  5
480
100
AcDbEntity
  8
0
100
AcDbSpline
 62
250
  6
CONTINUOUS
 70
0
 71
3
 72
17
 73
13
 74
0
 42
0.0000001
 43
0.0000001
 44
0.0000000001
 40
0.0
 40
0.0
 40
0.0
 40
0.0
 40
0.2246664094
 40
0.4244159606
 40
0.5968698275
 40
0.740116107
 40
0.852966033
 40
0.9343261697
 40
0.9629605269
 40
0.9834868471
 40
0.9958490574
 40
1.0
 40
1.0
 40
1.0
 40
1.0
 10
-66.1319914891
 20
26.2536973817
 30
0.0
 10
-66.1319690637
 20
26.2602777389
 30
0.0
 10
-66.1319298105
 20
26.2727082659
 30
0.0
 10
-66.1318828576
 20
26.2901918491
 30
0.0
 10
-66.1318583877
 20
26.3052846155
 30
0.0
 10
-66.1318370158
 20
26.3178494928
 30
0.0
 10
-66.131871455
 20
26.3277000543
 30
0.0
 10
-66.131833389
 20
26.3342971317
 30
0.0
 10
-66.1319405119
 20
26.3380251079
 30
0.0
 10
-66.1318332896
 20
26.3399838662
 30
0.0
 10
-66.1320870321
 20
26.3407901078
 30
0.0
 10
-66.1318699116
 20
26.341563153
 30
0.0
 10
-66.1319914891
 20
26.3415638603
 30
0.0
  0
ELLIPSE
  5
481
100
AcDbEntity
  8
0
100
AcDbEllipse
 62
7
  6
CONTINUOUS
 10
-65.7820407213
 20
-26.079798695
 30
0.0
 11
0.1417119467
 21
0.1422961243
 31
0.0
 40
0.9918061237
 41
-0.2491986107
 42
0.7350951877
  0
ELLIPSE
  5
482
100
AcDbEntity
  8
0
100
AcDbEllipse
 62
7
  6
CONTINUOUS
 10
-65.7820407213
 20
26.079798695
 30
0.0
 11
-0.1417119467
 21
0.1422961243
 31
0.0
 40
0.9918061237
 41
-3.8766878413
 42
-2.8923940429
  0
ENDSEC
  0
SECTION
  2
OBJECTS
  0
DICTIONARY
  5
C
100
AcDbDictionary
280
0
281
1
  3
ACAD_GROUP
350
D
  3
ACAD_MLINESTYLE
350
17
  3
ACAD_LAYOUT
350
1A
  3
ACAD_PLOTSETTINGS
350
19
  3
ACAD_PLOTSTYLENAME
350
E
  0
DICTIONARY
  5
D
102
{ACAD_REACTORS
330
C
102
}
100
AcDbDictionary
280
0
281
1
  0
ACDBDICTIONARYWDFLT
  5
E
102
{ACAD_REACTORS
330
C
102
}
100
AcDbDictionary
281
1
  3
Normal
350
F
100
AcDbDictionaryWithDefault
340
F
  0
DICTIONARY
  5
17
102
{ACAD_REACTORS
330
C
102
}
100
AcDbDictionary
280
0
281
1
  3
Standard
350
18
  0
DICTIONARY
  5
19
102
{ACAD_REACTORS
330
C
102
}
100
AcDbDictionary
281
1
  0
DICTIONARY
  5
1A
102
{ACAD_REACTORS
330
C
102
}
100
AcDbDictionary
281
1
  3
Model
350
483
  3
Layout1
350
484
  0
ACDBPLACEHOLDER
  5
F
102
{ACAD_REACTORS
330
E
102
}
  0
MLINESTYLE
  5
18
102
{ACAD_REACTORS
330
17
102
}
100
AcDbMlineStyle
  2
STANDARD
 70
0
  3

 62
256
 51
90.0
 52
90.0
 71
2
 49
0.5
 62
256
  6
BYLAYER
 49
-0.5
 62
256
  6
BYLAYER
  0
LAYOUT
  5
483
102
{ACAD_REACTORS
330
1A
102
}
100
AcDbPlotSettings
  1

  2
none_device
  4
ISO_A4_(297.00_x_210.00_MM)
  6

 40
0.0
 41
0.0
 42
0.0
 43
0.0
 44
297.0
 45
210.0
 46
0.0
 47
0.0
 48
0.0
 49
0.0
140
0.0
141
0.0
142
1.0
143
1.0
 70
1024
 72
1
 73
0
 74
0
  7

 75
0
147
1.0
148
0.0
149
0.0
100
AcDbLayout
  1
Model
 70
0
 71
0
 10
0.0
 20
0.0
 11
297.0
 21
210.0
 12
0.0
 22
0.0
 32
0.0
 14
0.0
 24
0.0
 34
0.0
 15
0.0
 25
0.0
 35
0.0
146
0.0
 13
0.0
 23
0.0
 33
0.0
 16
1.0
 26
0.0
 36
0.0
 17
0.0
 27
1.0
 37
0.0
 76
0
330
21E
345
0
346
0
  0
LAYOUT
  5
484
102
{ACAD_REACTORS
330
1A
102
}
100
AcDbPlotSettings
  1

  2
none_device
  4
ISO_A4_(297.00_x_210.00_MM)
  6

 40
0.0
 41
0.0
 42
0.0
 43
0.0
 44
297.0
 45
210.0
 46
0.0
 47
0.0
 48
0.0
 49
0.0
140
0.0
141
0.0
142
1.0
143
1.0
 70
0
 72
1
 73
0
 74
0
  7

 75
0
147
1.0
148
0.0
149
0.0
100
AcDbLayout
  1
Layout1
 70
0
 71
1
 10
0.0
 20
0.0
 11
297.0
 21
210.0
 12
0.0
 22
0.0
 32
0.0
 14
0.0
 24
0.0
 34
0.0
 15
0.0
 25
0.0
 35
0.0
146
0.0
 13
0.0
 23
0.0
 33
0.0
 16
1.0
 26
0.0
 36
0.0
 17
0.0
 27
1.0
 37
0.0
 76
0
330
21F
345
0
346
0
  0
ENDSEC
  0
EOF
