  0
SECTION
  2
HEADER
  9
$ACADVER
  1
AC1024
  9
$DWGCODEPAGE
  3
ANSI_1252
  9
$EXTMAX
 10
297.0
 20
210.0
 30
0.0
  9
$EXTMIN
 10
0.0
 20
0.0
 30
0.0
  9
$LIMMIN
 10
0.0
 20
0.0
  9
$LIMMAX
 10
297.0
 20
210.0
  9
$VIEWCTR
 10
148.5
 20
105.0
  9
$VIEWSIZE
 40
210.0
  9
$CLAYER
  8
0
  9
$LTSCALE
 40
16.335
  9
$CELTYPE
  6
BYLAYER
  9
$DIMSCALE
 40
1.0
  9
$DIMASZ
 40
3.0
  9
$DIMEXO
 40
0.5
  9
$DIMDLI
 40
11.286
  9
$DIMEXE
 40
1.5
  9
$DIMCEN
 40
2.673
  9
$DIMLFAC
 40
1.0
  9
$DIMBLK
  1
_FILLED
  9
$DIMALT
 70
0
  9
$DIMALTF
 40
0.0393700787
  9
$DIMTXT
 40
3.0
  9
$DIMTOL
 70
1
  9
$DIMLIM
 70
0
  9
$DIMTFAC
 40
1.0
  9
$DIMTP
 40
0.01
  9
$DIMTM
 40
0.01
  9
$DIMGAP
 40
0.625
  9
$DIMDSEP
 70
44
  9
$AUNITS
 70
0
  9
$PDMODE
 70
3
  9
$PDSIZE
 40
3.0
  9
$HANDSEED
  5
3D0
  9
$TILEMODE
 70
1
  9
$MEASUREMENT
 70
1
  9
$INSUNITS
 70
4
  0
ENDSEC
  0
SECTION
  2
CLASSES
  0
CLASS
  1
ACDBDICTIONARYWDFLT
  2
AcDbDictionaryWithDefault
  3
AutoCAD 2000
 90
0
 91
1
280
0
281
0
  0
CLASS
  1
ACDBPLACEHOLDER
  2
AcDbPlaceHolder
  3
AutoCAD 2000
 90
0
 91
1
280
0
281
0
  0
CLASS
  1
LAYOUT
  2
AcDbLayout
  3
AutoCAD 2000
 90
0
 91
0
280
0
281
0
  0
ENDSEC
  0
SECTION
  2
TABLES
  0
TABLE
  2
VPORT
  5
8
100
AcDbSymbolTable
 70
2
  0
VPORT
  5
1F4
100
AcDbSymbolTableRecord
100
AcDbViewportTableRecord
  2
*ACTIVE
 70
0
 10
0.0
 20
0.0
 11
1.0
 21
1.0
 12
148.5
 22
105.0
 13
0.0
 23
0.0
 14
1.0
 24
1.0
 15
0.0
 25
0.0
 16
0.0
 26
0.0
 36
1.0
 17
0.0
 27
0.0
 37
0.0
 40
210.0
 41
1.4142857143
 42
50.0
 43
0.0
 44
0.0
 50
0.0
 51
0.0
 71
0
 72
100
 73
1
 74
1
 75
0
 76
0
 77
0
 78
0
  0
ENDTAB
  0
TABLE
  2
LTYPE
  5
5
100
AcDbSymbolTable
 70
6
  0
LTYPE
  5
14
100
AcDbSymbolTableRecord
100
AcDbLinetypeTableRecord
  2
BYBLOCK
 70
0
  3

 72
65
 73
0
 40
0.0
  0
LTYPE
  5
15
100
AcDbSymbolTableRecord
100
AcDbLinetypeTableRecord
  2
BYLAYER
 70
0
  3

 72
65
 73
0
 40
0.0
  0
LTYPE
  5
16
100
AcDbSymbolTableRecord
100
AcDbLinetypeTableRecord
  2
CONTINUOUS
 70
64
  3
Solid line
 72
65
 73
0
 40
0.0
  0
LTYPE
  5
1F5
100
AcDbSymbolTableRecord
100
AcDbLinetypeTableRecord
  2
CENTER
 70
64
  3
____ _ ____ _ ____ _ ____ _ ____ _ ____ _ ____
 72
65
 73
4
 40
0.6
 49
0.375
 74
0
 49
-0.075
 74
0
 49
0.075
 74
0
 49
-0.075
 74
0
  0
LTYPE
  5
1F6
100
AcDbSymbolTableRecord
100
AcDbLinetypeTableRecord
  2
HIDDEN
 70
64
  3
- - - - - - - - - - - - - - - - - - - -
 72
65
 73
2
 40
0.2
 49
0.1
 74
0
 49
-0.1
 74
0
  0
LTYPE
  5
1F7
100
AcDbSymbolTableRecord
100
AcDbLinetypeTableRecord
  2
PHANTOM
 70
64
  3
_____ _ _ _____ _ _ _____ _ _ _____
 72
65
 73
6
 40
0.8
 49
0.45
 74
0
 49
-0.05
 74
0
 49
0.1
 74
0
 49
-0.05
 74
0
 49
0.1
 74
0
 49
-0.05
 74
0
  0
LTYPE
  5
1F8
100
AcDbSymbolTableRecord
100
AcDbLinetypeTableRecord
  2
DOT
 70
64
  3
. . . . . . . . . . . . . . . . . . . .
 72
65
 73
2
 40
0.2
 49
0.1
 74
0
 49
-0.1
 74
0
  0
LTYPE
  5
1F9
100
AcDbSymbolTableRecord
100
AcDbLinetypeTableRecord
  2
DASHED
 70
64
  3
- - - - - - - - - - - - - - - - - - - -
 72
65
 73
2
 40
0.2
 49
0.1
 74
0
 49
-0.1
 74
0
  0
ENDTAB
  0
TABLE
  2
LAYER
  5
2
100
AcDbSymbolTable
 70
36
  0
LAYER
  5
10
100
AcDbSymbolTableRecord
100
AcDbLayerTableRecord
  2
0
 70
0
 62
7
  6
CONTINUOUS
370
-3
390
F
  0
LAYER
  5
1FA
100
AcDbSymbolTableRecord
100
AcDbLayerTableRecord
  2
DEFAULT_1
 70
0
 62
7
  6
CENTER
370
-3
390
F
  0
LAYER
  5
1FB
100
AcDbSymbolTableRecord
100
AcDbLayerTableRecord
  2
DEFAULT_2
 70
0
 62
7
  6
HIDDEN
370
-3
390
F
  0
LAYER
  5
1FC
100
AcDbSymbolTableRecord
100
AcDbLayerTableRecord
  2
DEFAULT_3
 70
0
 62
7
  6
PHANTOM
370
-3
390
F
  0
LAYER
  5
1FD
100
AcDbSymbolTableRecord
100
AcDbLayerTableRecord
  2
ASSI
 70
0
 62
7
  6
CONTINUOUS
370
-3
390
F
  0
LAYER
  5
1FE
100
AcDbSymbolTableRecord
100
AcDbLayerTableRecord
  2
COORDINATE
 70
0
 62
7
  6
CONTINUOUS
370
-3
390
F
  0
LAYER
  5
1FF
100
AcDbSymbolTableRecord
100
AcDbLayerTableRecord
  2
COORD_ORIGINE
 70
0
 62
7
  6
CONTINUOUS
370
-3
390
F
  0
LAYER
  5
200
100
AcDbSymbolTableRecord
100
AcDbLayerTableRecord
  2
COPY_PUBLISH
 70
0
 62
7
  6
CONTINUOUS
370
-3
390
F
  0
LAYER
  5
201
100
AcDbSymbolTableRecord
100
AcDbLayerTableRecord
  2
COSMETIC
 70
0
 62
7
  6
CONTINUOUS
370
-3
390
F
  0
LAYER
  5
202
100
AcDbSymbolTableRecord
100
AcDbLayerTableRecord
  2
COSMETICI
 70
0
 62
7
  6
CONTINUOUS
370
-3
390
F
  0
LAYER
  5
203
100
AcDbSymbolTableRecord
100
AcDbLayerTableRecord
  2
CURVE
 70
0
 62
7
  6
CONTINUOUS
370
-3
390
F
  0
LAYER
  5
204
100
AcDbSymbolTableRecord
100
AcDbLayerTableRecord
  2
DRAFT
 70
0
 62
7
  6
CONTINUOUS
370
-3
390
F
  0
LAYER
  5
205
100
AcDbSymbolTableRecord
100
AcDbLayerTableRecord
  2
IMPORT_IGES
 70
0
 62
7
  6
CONTINUOUS
370
-3
390
F
  0
LAYER
  5
206
100
AcDbSymbolTableRecord
100
AcDbLayerTableRecord
  2
INTFCLR_2
 70
0
 62
7
  6
CONTINUOUS
370
-3
390
F
  0
LAYER
  5
207
100
AcDbSymbolTableRecord
100
AcDbLayerTableRecord
  2
INTF_1
 70
0
 62
7
  6
CONTINUOUS
370
-3
390
F
  0
LAYER
  5
208
100
AcDbSymbolTableRecord
100
AcDbLayerTableRecord
  2
INTF_21
 70
0
 62
7
  6
CONTINUOUS
370
-3
390
F
  0
LAYER
  5
209
100
AcDbSymbolTableRecord
100
AcDbLayerTableRecord
  2
INTF_6
 70
0
 62
7
  6
CONTINUOUS
370
-3
390
F
  0
LAYER
  5
20A
100
AcDbSymbolTableRecord
100
AcDbLayerTableRecord
  2
INTF_7
 70
0
 62
7
  6
CONTINUOUS
370
-3
390
F
  0
LAYER
  5
20B
100
AcDbSymbolTableRecord
100
AcDbLayerTableRecord
  2
INTF_CYAN
 70
0
 62
7
  6
CONTINUOUS
370
-3
390
F
  0
LAYER
  5
20C
100
AcDbSymbolTableRecord
100
AcDbLayerTableRecord
  2
LINEA_CHIUSURA
 70
0
 62
7
  6
CONTINUOUS
370
-3
390
F
  0
LAYER
  5
20D
100
AcDbSymbolTableRecord
100
AcDbLayerTableRecord
  2
LIVELLO_1
 70
0
 62
7
  6
CONTINUOUS
370
-3
390
F
  0
LAYER
  5
20E
100
AcDbSymbolTableRecord
100
AcDbLayerTableRecord
  2
NOTE
 70
0
 62
7
  6
CONTINUOUS
370
-3
390
F
  0
LAYER
  5
20F
100
AcDbSymbolTableRecord
100
AcDbLayerTableRecord
  2
PIANI
 70
0
 62
7
  6
CONTINUOUS
370
-3
390
F
  0
LAYER
  5
210
100
AcDbSymbolTableRecord
100
AcDbLayerTableRecord
  2
PIANI_ORIGINE
 70
0
 62
7
  6
CONTINUOUS
370
-3
390
F
  0
LAYER
  5
211
100
AcDbSymbolTableRecord
100
AcDbLayerTableRecord
  2
PIANI_RIFERIMENTO
 70
0
 62
7
  6
CONTINUOUS
370
-3
390
F
  0
LAYER
  5
212
100
AcDbSymbolTableRecord
100
AcDbLayerTableRecord
  2
PUNTI
 70
0
 62
7
  6
CONTINUOUS
370
-3
390
F
  0
LAYER
  5
213
100
AcDbSymbolTableRecord
100
AcDbLayerTableRecord
  2
RACCORDO
 70
0
 62
7
  6
CONTINUOUS
370
-3
390
F
  0
LAYER
  5
214
100
AcDbSymbolTableRecord
100
AcDbLayerTableRecord
  2
RGB__255__255__255__
 70
0
 62
7
  6
CONTINUOUS
370
-3
390
F
  0
LAYER
  5
215
100
AcDbSymbolTableRecord
100
AcDbLayerTableRecord
  2
RGB____0____0____0__
 70
0
 62
7
  6
CONTINUOUS
370
-3
390
F
  0
LAYER
  5
216
100
AcDbSymbolTableRecord
100
AcDbLayerTableRecord
  2
SIMBOLI
 70
0
 62
7
  6
CONTINUOUS
370
-3
390
F
  0
LAYER
  5
217
100
AcDbSymbolTableRecord
100
AcDbLayerTableRecord
  2
SMUSSO
 70
0
 62
7
  6
CONTINUOUS
370
-3
390
F
  0
LAYER
  5
218
100
AcDbSymbolTableRecord
100
AcDbLayerTableRecord
  2
SUPERFICI
 70
0
 62
7
  6
CONTINUOUS
370
-3
390
F
  0
LAYER
  5
219
100
AcDbSymbolTableRecord
100
AcDbLayerTableRecord
  2
TRASH
 70
0
 62
7
  6
CONTINUOUS
370
-3
390
F
  0
LAYER
  5
21A
100
AcDbSymbolTableRecord
100
AcDbLayerTableRecord
  2
WHITE
 70
0
 62
7
  6
CONTINUOUS
370
-3
390
F
  0
LAYER
  5
21B
100
AcDbSymbolTableRecord
100
AcDbLayerTableRecord
  2
XSEC_DATUMS
 70
0
 62
7
  6
CONTINUOUS
370
-3
390
F
  0
ENDTAB
  0
TABLE
  2
STYLE
  5
3
100
AcDbSymbolTable
 70
1
  0
STYLE
  5
11
100
AcDbSymbolTableRecord
100
AcDbTextStyleTableRecord
  2
STANDARD
 70
0
 40
0.0
 41
0.8
 50
0.0
 71
0
 42
0.2
  3
txt
  4

  0
STYLE
  5
21C
100
AcDbSymbolTableRecord
100
AcDbTextStyleTableRecord
  2
TEXTSTYLE_1
 70
0
 40
0.0
 41
0.8
 50
0.0
 71
0
 42
0.2
  3
gdt
  4

  0
ENDTAB
  0
TABLE
  2
VIEW
  5
6
100
AcDbSymbolTable
 70
0
  0
ENDTAB
  0
TABLE
  2
UCS
  5
7
100
AcDbSymbolTable
 70
0
  0
ENDTAB
  0
TABLE
  2
APPID
  5
9
100
AcDbSymbolTable
 70
1
  0
APPID
  5
21D
100
AcDbSymbolTableRecord
100
AcDbRegAppTableRecord
  2
ACAD
 70
0
  0
ENDTAB
  0
TABLE
  2
BLOCK_RECORD
  5
1
100
AcDbSymbolTable
 70
0
  0
BLOCK_RECORD
  5
21E
100
AcDbSymbolTableRecord
100
AcDbBlockTableRecord
  2
*Model_Space
  0
BLOCK_RECORD
  5
21F
100
AcDbSymbolTableRecord
100
AcDbBlockTableRecord
  2
*Paper_Space
  0
BLOCK_RECORD
  5
220
100
AcDbSymbolTableRecord
100
AcDbBlockTableRecord
  2
_FILLED
  0
BLOCK_RECORD
  5
221
100
AcDbSymbolTableRecord
100
AcDbBlockTableRecord
  2
*D0
  0
BLOCK_RECORD
  5
222
100
AcDbSymbolTableRecord
100
AcDbBlockTableRecord
  2
*D1
  0
BLOCK_RECORD
  5
223
100
AcDbSymbolTableRecord
100
AcDbBlockTableRecord
  2
*D2
  0
BLOCK_RECORD
  5
224
100
AcDbSymbolTableRecord
100
AcDbBlockTableRecord
  2
*D3
  0
ENDTAB
  0
TABLE
  2
DIMSTYLE
  5
A
100
AcDbSymbolTable
 70
1
100
AcDbDimStyleTable
 71
0
  0
DIMSTYLE
105
225
100
AcDbSymbolTableRecord
100
AcDbDimStyleTableRecord
  2
STANDARD
 70
0
  3

  4

 40
1.0
 41
3.0
 42
0.5
 43
0.38
 44
1.5
 45
0.0
 46
0.0
 47
0.01
 48
0.01
140
3.0
141
0.09
142
0.0
143
25.4
144
1.0
145
0.0
146
1.0
147
0.625
 71
1
 72
0
 73
0
 74
0
 75
0
 76
0
 77
1
 78
8
 79
2
170
0
171
1
172
0
173
0
174
0
175
0
176
0
177
0
178
0
270
2
179
2
271
2
272
2
273
2
274
2
275
0
280
0
281
0
282
0
283
1
284
8
285
0
286
0
287
3
288
0
340
11
278
44
341
220
342
220
343
220
344
220
  0
DIMSTYLE
105
226
100
AcDbSymbolTableRecord
100
AcDbDimStyleTableRecord
  2
DIMSTYLE_1
 70
0
  3

  4

 40
1.0
 41
3.0
 42
0.5
 43
0.38
 44
1.5
 45
0.0
 46
0.0
 47
0.0
 48
0.0
140
3.0
141
0.09
142
0.0
143
25.4
144
1.0
145
0.0
146
1.0
147
0.75
 71
0
 72
0
 73
0
 74
0
 75
0
 76
0
 77
1
 78
8
 79
2
170
0
171
1
172
0
173
0
174
0
175
0
176
0
177
0
178
0
270
2
179
2
271
2
272
2
273
2
274
2
275
0
280
0
281
0
282
0
283
1
284
8
285
0
286
0
287
3
288
0
340
11
278
44
341
220
342
220
343
220
344
220
  0
ENDTAB
  0
ENDSEC
  0
SECTION
  2
BLOCKS
  0
BLOCK
  5
20
100
AcDbEntity
  8
0
100
AcDbBlockBegin
  2
*Model_Space
 70
0
 10
0.0
 20
0.0
 30
0.0
  3
*Model_Space
  1

  0
ENDBLK
  5
21
100
AcDbEntity
  8
0
100
AcDbBlockEnd
  0
BLOCK
  5
1C
100
AcDbEntity
  8
0
100
AcDbBlockBegin
  2
*Paper_Space
 70
0
 10
0.0
 20
0.0
 30
0.0
  3
*Paper_Space
  1

  0
ENDBLK
  5
1D
100
AcDbEntity
  8
0
100
AcDbBlockEnd
  0
BLOCK
  5
227
100
AcDbEntity
  8
0
100
AcDbBlockBegin
  2
_FILLED
 70
64
 10
0.0
 20
0.0
  3
_FILLED
  1

  0
SOLID
  5
228
100
AcDbEntity
  8
0
  6
BYBLOCK
 62
0
100
AcDbTrace
 10
0.0
 20
0.0
 11
-1.0
 21
0.3166666667
 12
-1.0
 22
-0.3166666667
 13
-1.0
 23
-0.3166666667
  0
ENDBLK
  5
229
100
AcDbEntity
  8
0
  6
BYBLOCK
 62
0
100
AcDbBlockEnd
  0
BLOCK
  5
22A
100
AcDbEntity
  8
0
100
AcDbBlockBegin
 62
7
  6
CONTINUOUS
  2
*D0
 70
65
 10
0.0
 20
0.0
  3
*D0
  1

  0
LINE
  5
22B
100
AcDbEntity
  8
0
100
AcDbLine
 62
7
  6
CONTINUOUS
 10
58.6253939145
 20
155.2998508971
 11
58.6253939145
 21
166.7701049407
  0
LINE
  5
22C
100
AcDbEntity
  8
0
100
AcDbLine
 62
7
  6
CONTINUOUS
 10
65.7753939145
 20
153.1270110064
 11
65.7753939145
 21
166.7701049407
  0
LINE
  5
22D
100
AcDbEntity
  8
0
100
AcDbLine
 62
7
  6
CONTINUOUS
 10
58.6253939145
 20
165.2701049407
 11
62.2003939145
 21
165.2701049407
  0
LINE
  5
22E
100
AcDbEntity
  8
0
100
AcDbLine
 62
7
  6
CONTINUOUS
 10
62.2003939145
 20
165.2701049407
 11
48.9023479258
 21
165.2701049407
  0
LINE
  5
22F
100
AcDbEntity
  8
0
100
AcDbLine
 62
7
  6
CONTINUOUS
 10
65.7753939145
 20
165.2701049407
 11
62.2003939145
 21
165.2701049407
  0
INSERT
  5
230
100
AcDbEntity
  8
0
100
AcDbBlockReference
 62
7
  6
CONTINUOUS
  2
_FILLED
 10
58.6253939145
 20
165.2701049407
 41
3.0
 42
3.0
 43
3.0
 50
180.0
  0
INSERT
  5
231
100
AcDbEntity
  8
0
100
AcDbBlockReference
 62
7
  6
CONTINUOUS
  2
_FILLED
 10
65.7753939145
 20
165.2701049407
 41
3.0
 42
3.0
 43
3.0
  0
ENDBLK
  5
232
100
AcDbEntity
  8
0
  6
BYBLOCK
 62
0
100
AcDbBlockEnd
  0
BLOCK
  5
233
100
AcDbEntity
  8
0
100
AcDbBlockBegin
 62
7
  6
CONTINUOUS
  2
*D1
 70
65
 10
0.0
 20
0.0
  3
*D1
  1

  0
LINE
  5
234
100
AcDbEntity
  8
0
100
AcDbLine
 62
7
  6
CONTINUOUS
 10
68.7753939145
 20
137.9694302801
 11
68.7753939145
 21
174.4866965089
  0
LINE
  5
235
100
AcDbEntity
  8
0
100
AcDbLine
 62
7
  6
CONTINUOUS
 10
58.6253939145
 20
155.2998508971
 11
58.6253939145
 21
174.4866965089
  0
LINE
  5
236
100
AcDbEntity
  8
0
100
AcDbLine
 62
7
  6
CONTINUOUS
 10
68.7753939145
 20
172.9866965089
 11
63.7003939145
 21
172.9866965089
  0
LINE
  5
237
100
AcDbEntity
  8
0
100
AcDbLine
 62
7
  6
CONTINUOUS
 10
58.6253939145
 20
172.9866965089
 11
63.7003939145
 21
172.9866965089
  0
LINE
  5
238
100
AcDbEntity
  8
0
100
AcDbLine
 62
7
  6
CONTINUOUS
 10
63.7003939145
 20
172.9866965089
 11
47.2580791351
 21
172.9866965089
  0
INSERT
  5
239
100
AcDbEntity
  8
0
100
AcDbBlockReference
 62
7
  6
CONTINUOUS
  2
_FILLED
 10
68.7753939145
 20
172.9866965089
 41
3.0
 42
3.0
 43
3.0
  0
INSERT
  5
23A
100
AcDbEntity
  8
0
100
AcDbBlockReference
 62
7
  6
CONTINUOUS
  2
_FILLED
 10
58.6253939145
 20
172.9866965089
 41
3.0
 42
3.0
 43
3.0
 50
180.0
  0
ENDBLK
  5
23B
100
AcDbEntity
  8
0
  6
BYBLOCK
 62
0
100
AcDbBlockEnd
  0
BLOCK
  5
23C
100
AcDbEntity
  8
0
100
AcDbBlockBegin
 62
7
  6
CONTINUOUS
  2
*D2
 70
65
 10
0.0
 20
0.0
  3
*D2
  1

  0
LINE
  5
23D
100
AcDbEntity
  8
0
100
AcDbLine
 62
7
  6
CONTINUOUS
 10
97.2792014803
 20
155.9225046847
 11
97.2792014803
 21
166.6361087954
  0
LINE
  5
23E
100
AcDbEntity
  8
0
100
AcDbLine
 62
7
  6
CONTINUOUS
 10
256.5792014803
 20
155.9225046847
 11
256.5792014803
 21
166.6361087954
  0
LINE
  5
23F
100
AcDbEntity
  8
0
100
AcDbLine
 62
7
  6
CONTINUOUS
 10
97.2792014803
 20
165.1361087954
 11
176.9292014803
 21
165.1361087954
  0
LINE
  5
240
100
AcDbEntity
  8
0
100
AcDbLine
 62
7
  6
CONTINUOUS
 10
256.5792014803
 20
165.1361087954
 11
176.9292014803
 21
165.1361087954
  0
INSERT
  5
241
100
AcDbEntity
  8
0
100
AcDbBlockReference
 62
7
  6
CONTINUOUS
  2
_FILLED
 10
97.2792014803
 20
165.1361087954
 41
3.0
 42
3.0
 43
3.0
 50
180.0
  0
INSERT
  5
242
100
AcDbEntity
  8
0
100
AcDbBlockReference
 62
7
  6
CONTINUOUS
  2
_FILLED
 10
256.5792014803
 20
165.1361087954
 41
3.0
 42
3.0
 43
3.0
  0
ENDBLK
  5
243
100
AcDbEntity
  8
0
  6
BYBLOCK
 62
0
100
AcDbBlockEnd
  0
BLOCK
  5
244
100
AcDbEntity
  8
0
100
AcDbBlockBegin
 62
7
  6
CONTINUOUS
  2
*D3
 70
65
 10
0.0
 20
0.0
  3
*D3
  1

  0
LINE
  5
245
100
AcDbEntity
  8
0
100
AcDbLine
 62
7
  6
CONTINUOUS
 10
256.0785926781
 20
66.4231134868
 11
269.8442663242
 21
66.4231134868
  0
LINE
  5
246
100
AcDbEntity
  8
0
100
AcDbLine
 62
7
  6
CONTINUOUS
 10
256.0785926781
 20
156.4231134868
 11
269.8442663242
 21
156.4231134868
  0
LINE
  5
247
100
AcDbEntity
  8
0
100
AcDbLine
 62
7
  6
CONTINUOUS
 10
268.3442663242
 20
66.4231134868
 11
268.3442663242
 21
111.4231134868
  0
LINE
  5
248
100
AcDbEntity
  8
0
100
AcDbLine
 62
7
  6
CONTINUOUS
 10
268.3442663242
 20
156.4231134868
 11
268.3442663242
 21
111.4231134868
  0
INSERT
  5
249
100
AcDbEntity
  8
0
100
AcDbBlockReference
 62
7
  6
CONTINUOUS
  2
_FILLED
 10
268.3442663242
 20
66.4231134868
 41
3.0
 42
3.0
 43
3.0
 50
270.0
  0
INSERT
  5
24A
100
AcDbEntity
  8
0
100
AcDbBlockReference
 62
7
  6
CONTINUOUS
  2
_FILLED
 10
268.3442663242
 20
156.4231134868
 41
3.0
 42
3.0
 43
3.0
 50
90.0
  0
ENDBLK
  5
24B
100
AcDbEntity
  8
0
  6
BYBLOCK
 62
0
100
AcDbBlockEnd
  0
ENDSEC
  0
SECTION
  2
ENTITIES
  0
DIMENSION
  5
24C
100
AcDbEntity
  8
0
100
AcDbDimension
 62
7
  6
CONTINUOUS
  2
*D0
 10
65.7753939145
 20
165.2701049407
 11
48.9023479258
 21
165.2701049407
 70
160
 71
3
 72
2
 41
0.9
 42
7.15
  3
DIMSTYLE_1
100
AcDbAlignedDimension
 13
58.6253939145
 23
154.7998508971
 14
65.7753939145
 24
152.6270110064
100
AcDbRotatedDimension
  0
DIMENSION
  5
24D
100
AcDbEntity
  8
0
100
AcDbDimension
 62
7
  6
CONTINUOUS
  2
*D1
 10
58.6253939145
 20
172.9866965089
 11
47.2580791351
 21
172.9866965089
 70
160
 71
3
 72
2
 41
0.9
 42
10.15
  3
DIMSTYLE_1
100
AcDbAlignedDimension
 13
68.7753939145
 23
137.4694302801
 14
58.6253939145
 24
154.7998508971
 50
180.0
100
AcDbRotatedDimension
  0
DIMENSION
  5
24E
100
AcDbEntity
  8
0
100
AcDbDimension
 62
7
  6
CONTINUOUS
  2
*D2
 10
256.5792014803
 20
165.1361087954
 11
171.8934871945
 21
165.1361087954
 70
160
 71
2
 72
2
 41
0.9
 42
159.3
  3
DIMSTYLE_1
100
AcDbAlignedDimension
 13
97.2792014803
 23
155.4225046847
 14
256.5792014803
 24
155.4225046847
100
AcDbRotatedDimension
  0
DIMENSION
  5
24F
100
AcDbEntity
  8
0
100
AcDbDimension
 62
7
  6
CONTINUOUS
  2
*D3
 10
268.3442663242
 20
156.4231134868
 11
268.3442663242
 21
109.0659706297
 70
160
 71
2
 72
2
 41
0.9
 42
90.0
  3
DIMSTYLE_1
100
AcDbAlignedDimension
 13
255.5785926781
 23
66.4231134868
 14
255.5785926781
 24
156.4231134868
 50
90.0
100
AcDbRotatedDimension
  0
LINE
  5
250
100
AcDbEntity
  8
ASSI
100
AcDbLine
 62
7
  6
CONTINUOUS
 10
98.4592160103
 20
156.2138128092
 11
98.4736418258
 21
156.2292819434
  0
LINE
  5
251
100
AcDbEntity
  8
ASSI
100
AcDbLine
 62
7
  6
CONTINUOUS
 10
97.2792014803
 20
155.4225046847
 11
98.2798102824
 21
156.4231134868
  0
LINE
  5
252
100
AcDbEntity
  8
ASSI
100
AcDbLine
 62
7
  6
CONTINUOUS
 10
98.4592160103
 20
156.2138128092
 11
97.4885021579
 21
155.2430989568
  0
LINE
  5
253
100
AcDbEntity
  8
ASSI
100
AcDbLine
 62
7
  6
CONTINUOUS
 10
98.9024640701
 20
155.1943824467
 11
98.5079325204
 21
154.7998508971
  0
LINE
  5
254
100
AcDbEntity
  8
ASSI
100
AcDbLine
 62
7
  6
CONTINUOUS
 10
97.4730330237
 20
155.2286731413
 11
97.4885021579
 21
155.2430989568
  0
LINE
  5
255
100
AcDbEntity
  8
ASSI
100
AcDbLine
 62
7
  6
CONTINUOUS
 10
97.4885021579
 20
67.6031280169
 11
97.4730330237
 21
67.6175538324
  0
LINE
  5
256
100
AcDbEntity
  8
ASSI
100
AcDbLine
 62
7
  6
CONTINUOUS
 10
98.2798102824
 20
66.4231134868
 11
97.2792014803
 21
67.423722289
  0
LINE
  5
257
100
AcDbEntity
  8
ASSI
100
AcDbLine
 62
7
  6
CONTINUOUS
 10
97.4885021579
 20
67.6031280169
 11
98.4592160103
 21
66.6324141645
  0
LINE
  5
258
100
AcDbEntity
  8
ASSI
100
AcDbLine
 62
7
  6
CONTINUOUS
 10
98.5079325204
 20
68.0463760766
 11
98.9024640701
 21
67.651844527
  0
LINE
  5
259
100
AcDbEntity
  8
ASSI
100
AcDbLine
 62
7
  6
CONTINUOUS
 10
98.4736418258
 20
66.6169450303
 11
98.4592160103
 21
66.6324141645
  0
LINE
  5
25A
100
AcDbEntity
  8
ASSI
100
AcDbLine
 62
7
  6
CONTINUOUS
 10
97.2792014803
 20
155.4225046847
 11
97.2792014803
 21
67.423722289
  0
LINE
  5
25B
100
AcDbEntity
  8
ASSI
100
AcDbLine
 62
7
  6
CONTINUOUS
 10
97.4730330237
 20
155.2286731413
 11
97.4730330237
 21
67.6175538324
  0
LINE
  5
25C
100
AcDbEntity
  8
ASSI
100
AcDbLine
 62
7
  6
CONTINUOUS
 10
98.5079325204
 20
154.7998508971
 11
98.5079325204
 21
68.0463760766
  0
LINE
  5
25D
100
AcDbEntity
  8
ASSI
100
AcDbLine
 62
7
  6
CONTINUOUS
 10
98.9024640701
 20
67.651844527
 11
98.4592160103
 21
66.6324141645
  0
LINE
  5
25E
100
AcDbEntity
  8
ASSI
100
AcDbLine
 62
7
  6
CONTINUOUS
 10
98.9024640701
 20
155.1943824467
 11
98.4592160103
 21
156.2138128092
  0
LINE
  5
25F
100
AcDbEntity
  8
SMUSSO
100
AcDbLine
 62
7
  6
CONTINUOUS
 10
127.2292014803
 20
109.4231134868
 11
127.2292014803
 21
113.4231134868
  0
LINE
  5
260
100
AcDbEntity
  8
ASSI
100
AcDbLine
 62
7
  6
CONTINUOUS
 10
127.2292014803
 20
109.4231134868
 11
127.2292014803
 21
113.4231134868
  0
LINE
  5
261
100
AcDbEntity
  8
SMUSSO
100
AcDbLine
 62
7
  6
CONTINUOUS
 10
128.4292014803
 20
109.4231134868
 11
128.4292014803
 21
113.4231134868
  0
LINE
  5
262
100
AcDbEntity
  8
ASSI
100
AcDbLine
 62
7
  6
CONTINUOUS
 10
128.4292014803
 20
109.4231134868
 11
128.4292014803
 21
113.4231134868
  0
LWPOLYLINE
  5
263
100
AcDbEntity
  8
CURVE
100
AcDbPolyline
 62
250
  6
CONTINUOUS
 90
73
 70
0
 10
251.9345566132
 20
71.6994505958
 10
251.939749887
 20
71.7004966239
 10
251.9447866818
 20
71.7021709208
 10
251.949694185
 20
71.7043218994
 10
251.9544995842
 20
71.7067979725
 10
251.9592300671
 20
71.709447553
 10
251.9738302272
 20
71.718048986
 10
251.9879990751
 20
71.7269969889
 10
252.0017800864
 20
71.736420078
 10
252.0157005424
 20
71.7467944137
 10
252.0292539235
 20
71.7577405353
 10
252.0424434816
 20
71.7691811118
 10
252.055272469
 20
71.7810388127
 10
252.0704844372
 20
71.796028288
 10
252.0851475896
 20
71.8115198672
 10
252.0992483334
 20
71.8275066814
 10
252.1127730757
 20
71.8439818622
 10
252.1247430943
 20
71.8596268231
 10
252.1361977674
 20
71.8756625878
 10
252.147124889
 20
71.8920690662
 10
252.1575122529
 20
71.9088261685
 10
252.1673476531
 20
71.9259138047
 10
252.177761527
 20
71.9455523601
 10
252.1874490247
 20
71.9655583541
 10
252.1964010228
 20
71.9859045447
 10
252.2046083978
 20
72.0065636898
 10
252.2120620265
 20
72.0275085475
 10
252.2183692399
 20
72.0474127035
 10
252.2240084993
 20
72.0675186579
 10
252.2289846049
 20
72.0878002711
 10
252.233302357
 20
72.1082314032
 10
252.2369665558
 20
72.1287859145
 10
252.2399820016
 20
72.1494376653
 10
252.2425654541
 20
72.1723118627
 10
252.2443890492
 20
72.1952520131
 10
252.245477154
 20
72.218237482
 10
252.2458509437
 20
72.242957296
 10
252.2454132699
 20
72.2676781844
 10
252.2441733841
 20
72.2923727331
 10
252.2425902363
 20
72.3122559054
 10
252.2404683301
 20
72.3320863538
 10
252.2377849652
 20
72.3518463371
 10
252.2347172165
 20
72.3704243554
 10
252.2311208504
 20
72.388909246
 10
252.2269881037
 20
72.4072865289
 10
252.2217669439
 20
72.4275313441
 10
252.2158731481
 20
72.4475968913
 10
252.2093039321
 20
72.4674541955
 10
252.2020565118
 20
72.4870742814
 10
252.1941281031
 20
72.5064281739
 10
252.1863080193
 20
72.5238122053
 10
252.1779281137
 20
72.5409322523
 10
252.1689965881
 20
72.5577695327
 10
252.1595216438
 20
72.5743052642
 10
252.1495114824
 20
72.5905206648
 10
252.1373916275
 20
72.6086884903
 10
252.1245972759
 20
72.6263876291
 10
252.1111462423
 20
72.6435948691
 10
252.0970563418
 20
72.6602869981
 10
252.082582782
 20
72.6761913247
 10
252.0675289485
 20
72.6915575087
 10
252.0519161906
 20
72.7063688899
 10
252.0357658575
 20
72.7206088078
 10
252.0190992987
 20
72.734260602
 10
252.0019378634
 20
72.7473076122
 10
251.984302901
 20
72.759733178
 10
251.9711610309
 20
72.7683824197
 10
251.9577779871
 20
72.7766460703
 10
251.9441528387
 20
72.7844775649
 10
251.9302846548
 20
72.7918303388
 10
251.9161725046
 20
72.7986578269
 10
251.9018154571
 20
72.8049134644
 10
251.8872125815
 20
72.8105506863
  0
LWPOLYLINE
  5
264
100
AcDbEntity
  8
CURVE
100
AcDbPolyline
 62
250
  6
CONTINUOUS
 90
23
 70
0
 10
251.1961216871
 20
72.4846521875
 10
251.2128231194
 20
72.4874341159
 10
251.2295541479
 20
72.4900759739
 10
251.2463130687
 20
72.4925635233
 10
251.2630981775
 20
72.4948825261
 10
251.2799077704
 20
72.4970187442
 10
251.2967401432
 20
72.4989579394
 10
251.3135935918
 20
72.5006858737
 10
251.3304664123
 20
72.502188309
 10
251.3473569004
 20
72.5034510072
 10
251.3642633522
 20
72.5044597301
 10
251.3811840635
 20
72.5052002396
 10
251.3970830913
 20
72.5056416036
 10
251.4129894235
 20
72.5058395917
 10
251.4288992949
 20
72.5057998533
 10
251.4448089401
 20
72.5055280375
 10
251.4607145941
 20
72.5050297933
 10
251.4766124915
 20
72.5043107701
 10
251.4924988672
 20
72.5033766169
 10
251.5083699558
 20
72.5022329828
 10
251.5242219923
 20
72.5008855172
 10
251.5400512113
 20
72.499339869
 10
251.5558538476
 20
72.4976016875
  0
LWPOLYLINE
  5
265
100
AcDbEntity
  8
0
100
AcDbPolyline
 62
7
  6
CONTINUOUS
 90
3
 70
0
 43
0.3500000006
 10
171.8934812622
 20
168.02896875
 10
172.7506373291
 20
168.8861066895
 10
172.7506373291
 20
165.8861057739
  0
LWPOLYLINE
  5
266
100
AcDbEntity
  8
0
100
AcDbPolyline
 62
7
  6
CONTINUOUS
 90
5
 70
0
 43
0.3500000006
 10
180.6791995239
 20
167.6003997803
 10
181.0363463745
 20
167.8146842651
 10
181.0363463745
 20
168.4575377197
 10
180.6791995239
 20
168.8861066895
 10
179.8220615845
 20
168.8861066895
  0
LINE
  5
267
100
AcDbEntity
  8
ASSI
100
AcDbLine
 62
7
  6
CONTINUOUS
 10
98.2798102824
 20
66.4231134868
 11
255.5785926781
 21
66.4231134868
  0
LINE
  5
268
100
AcDbEntity
  8
ASSI
100
AcDbLine
 62
7
  6
CONTINUOUS
 10
98.4736418258
 20
66.6169450303
 11
255.3847611347
 21
66.6169450303
  0
LINE
  5
269
100
AcDbEntity
  8
ASSI
100
AcDbLine
 62
7
  6
CONTINUOUS
 10
98.9024640701
 20
67.651844527
 11
254.9559388905
 21
67.651844527
  0
LINE
  5
26A
100
AcDbEntity
  8
SMUSSO
100
AcDbLine
 62
7
  6
CONTINUOUS
 10
135.4292014803
 20
113.4231134868
 11
135.4292014803
 21
109.4231134868
  0
LINE
  5
26B
100
AcDbEntity
  8
ASSI
100
AcDbLine
 62
7
  6
CONTINUOUS
 10
135.4292014803
 20
113.4231134868
 11
135.4292014803
 21
109.4231134868
  0
LINE
  5
26C
100
AcDbEntity
  8
SMUSSO
100
AcDbLine
 62
7
  6
CONTINUOUS
 10
136.6292014803
 20
113.4231134868
 11
136.6292014803
 21
109.4231134868
  0
LINE
  5
26D
100
AcDbEntity
  8
ASSI
100
AcDbLine
 62
7
  6
CONTINUOUS
 10
136.6292014803
 20
113.4231134868
 11
136.6292014803
 21
109.4231134868
  0
LWPOLYLINE
  5
26E
100
AcDbEntity
  8
0
100
AcDbPolyline
 62
7
  6
CONTINUOUS
 90
10
 70
0
 43
0.3500000006
 10
176.1792072144
 20
165.8861057739
 10
177.0363451538
 20
166.7432437134
 10
177.2506296387
 20
167.6003997803
 10
177.2506296387
 20
168.4575377197
 10
176.8220606689
 20
168.8861066895
 10
176.1792072144
 20
168.8861066895
 10
175.7506382446
 20
168.4575377197
 10
175.7506382446
 20
167.6003997803
 10
176.1792072144
 20
167.1718308105
 10
177.1077672729
 20
167.1718308105
  0
LINE
  5
26F
100
AcDbEntity
  8
CURVE
100
AcDbLine
 62
250
  6
CONTINUOUS
 10
250.6191676528
 20
70.6595979161
 11
250.1352032938
 21
70.6595979161
  0
LINE
  5
270
100
AcDbEntity
  8
CURVE
100
AcDbLine
 62
250
  6
CONTINUOUS
 10
249.2642044763
 20
70.6595979161
 11
248.8099987827
 21
70.6595979161
  0
LINE
  5
271
100
AcDbEntity
  8
CURVE
100
AcDbLine
 62
250
  6
CONTINUOUS
 10
248.7378943097
 20
70.6595979161
 11
248.2886868063
 21
70.6595979161
  0
LINE
  5
272
100
AcDbEntity
  8
CURVE
100
AcDbLine
 62
250
  6
CONTINUOUS
 10
247.6483705497
 20
70.6595979161
 11
247.583970267
 21
70.6595979161
  0
LINE
  5
273
100
AcDbEntity
  8
CURVE
100
AcDbLine
 62
250
  6
CONTINUOUS
 10
246.9461944864
 20
70.6595979161
 11
246.5069016492
 21
70.6595979161
  0
LINE
  5
274
100
AcDbEntity
  8
CURVE
100
AcDbLine
 62
250
  6
CONTINUOUS
 10
244.9230043879
 20
70.6595979161
 11
244.5183447873
 21
70.6595979161
  0
LINE
  5
275
100
AcDbEntity
  8
CURVE
100
AcDbLine
 62
250
  6
CONTINUOUS
 10
245.800518348
 20
70.6595979161
 11
246.2597065176
 21
70.6595979161
  0
LINE
  5
276
100
AcDbEntity
  8
CURVE
100
AcDbLine
 62
250
  6
CONTINUOUS
 10
250.754007612
 20
70.6595974995
 11
251.2113476597
 21
70.6595974995
  0
LINE
  5
277
100
AcDbEntity
  8
CURVE
100
AcDbLine
 62
250
  6
CONTINUOUS
 10
251.9145302528
 20
70.6595974995
 11
252.3562154272
 21
70.6595974995
  0
LINE
  5
278
100
AcDbEntity
  8
CURVE
100
AcDbLine
 62
250
  6
CONTINUOUS
 10
250.0162492993
 20
71.0987587533
 11
249.3909118991
 21
71.0987587533
  0
LINE
  5
279
100
AcDbEntity
  8
CURVE
100
AcDbLine
 62
250
  6
CONTINUOUS
 10
249.4848414186
 20
71.4385801664
 11
249.9244810177
 21
71.4385801664
  0
LINE
  5
27A
100
AcDbEntity
  8
CURVE
100
AcDbLine
 62
250
  6
CONTINUOUS
 10
251.2113476597
 20
71.5204835573
 11
251.4575531211
 21
71.5204835573
  0
LINE
  5
27B
100
AcDbEntity
  8
CURVE
100
AcDbLine
 62
250
  6
CONTINUOUS
 10
251.4585428917
 20
71.8807600917
 11
251.1961216871
 21
71.8807600917
  0
LINE
  5
27C
100
AcDbEntity
  8
CURVE
100
AcDbLine
 62
250
  6
CONTINUOUS
 10
243.8209605332
 20
72.8594123876
 11
244.3197801296
 21
72.8594123876
  0
LINE
  5
27D
100
AcDbEntity
  8
CURVE
100
AcDbLine
 62
250
  6
CONTINUOUS
 10
245.1712387576
 20
72.8594123876
 11
245.6301136891
 21
72.8594123876
  0
LINE
  5
27E
100
AcDbEntity
  8
CURVE
100
AcDbLine
 62
250
  6
CONTINUOUS
 10
246.7055323069
 20
72.8594123876
 11
247.1643401908
 21
72.8594123876
  0
LINE
  5
27F
100
AcDbEntity
  8
CURVE
100
AcDbLine
 62
250
  6
CONTINUOUS
 10
248.077866054
 20
72.8594123876
 11
248.5321869858
 21
72.8594123876
  0
LINE
  5
280
100
AcDbEntity
  8
CURVE
100
AcDbLine
 62
250
  6
CONTINUOUS
 10
249.5000015132
 20
72.8594123876
 11
249.9442097787
 21
72.8594123876
  0
LINE
  5
281
100
AcDbEntity
  8
CURVE
100
AcDbLine
 62
250
  6
CONTINUOUS
 10
246.2597065176
 20
72.8595443876
 11
245.800518348
 21
72.8595443876
  0
LWPOLYLINE
  5
282
100
AcDbEntity
  8
CURVE
100
AcDbPolyline
 62
250
  6
CONTINUOUS
 90
46
 70
0
 10
251.4575531211
 20
71.5204835573
 10
251.4650646391
 20
71.5203777465
 10
251.4725880599
 20
71.5200603281
 10
251.4801150602
 20
71.5195313225
 10
251.4876373172
 20
71.5187907504
 10
251.4951465078
 20
71.5178386324
 10
251.5026343089
 20
71.5166749892
 10
251.5100923976
 20
71.5152998414
 10
251.5175124509
 20
71.5137132095
 10
251.5248861457
 20
71.5119151143
 10
251.532205159
 20
71.5099055762
 10
251.5394611679
 20
71.5076846161
 10
251.5466458492
 20
71.5052522544
 10
251.55375088
 20
71.5026085117
 10
251.5607679373
 20
71.4997534088
 10
251.5676886981
 20
71.4966869662
 10
251.5745048392
 20
71.4934092046
 10
251.5810387635
 20
71.4900129025
 10
251.5874621333
 20
71.4864211992
 10
251.5937716321
 20
71.482639319
 10
251.5999639433
 20
71.4786724867
 10
251.6060357504
 20
71.4745259267
 10
251.6119837369
 20
71.4702048636
 10
251.6178045862
 20
71.4657145219
 10
251.6234949817
 20
71.4610601261
 10
251.6290516069
 20
71.4562469009
 10
251.6344711453
 20
71.4512800708
 10
251.6397502802
 20
71.4461648603
 10
251.6448856952
 20
71.4409064939
 10
251.6498740737
 20
71.4355101963
 10
251.655088579
 20
71.429539395
 10
251.6601301672
 20
71.4234217753
 10
251.66500095
 20
71.4171650058
 10
251.6697030394
 20
71.4107767546
 10
251.6742385474
 20
71.4042646902
 10
251.6786095859
 20
71.3976364809
 10
251.6828182668
 20
71.3908997951
 10
251.686866702
 20
71.3840623013
 10
251.6907570034
 20
71.3771316676
 10
251.6944912831
 20
71.3701155626
 10
251.6980716528
 20
71.3630216546
 10
251.7015002246
 20
71.3558576119
 10
251.7047791103
 20
71.348631103
 10
251.7079104218
 20
71.3413497961
 10
251.7108962712
 20
71.3340213597
 10
251.7137387703
 20
71.3266534621
  0
LINE
  5
283
100
AcDbEntity
  8
SMUSSO
100
AcDbLine
 62
7
  6
CONTINUOUS
 10
149.7292014803
 20
109.4231134868
 11
149.7292014803
 21
113.4231134868
  0
LINE
  5
284
100
AcDbEntity
  8
ASSI
100
AcDbLine
 62
7
  6
CONTINUOUS
 10
149.7292014803
 20
109.4231134868
 11
149.7292014803
 21
113.4231134868
  0
LINE
  5
285
100
AcDbEntity
  8
SMUSSO
100
AcDbLine
 62
7
  6
CONTINUOUS
 10
150.9292014803
 20
109.4231134868
 11
150.9292014803
 21
113.4231134868
  0
LINE
  5
286
100
AcDbEntity
  8
ASSI
100
AcDbLine
 62
7
  6
CONTINUOUS
 10
150.9292014803
 20
109.4231134868
 11
150.9292014803
 21
113.4231134868
  0
LINE
  5
287
100
AcDbEntity
  8
ASSI
100
AcDbLine
 62
7
  6
CONTINUOUS
 10
97.4730330237
 20
67.6175538324
 11
97.2792014803
 21
67.423722289
  0
LINE
  5
288
100
AcDbEntity
  8
ASSI
100
AcDbLine
 62
7
  6
CONTINUOUS
 10
98.4736418258
 20
66.6169450303
 11
98.2798102824
 21
66.4231134868
  0
LWPOLYLINE
  5
289
100
AcDbEntity
  8
CURVE
100
AcDbPolyline
 62
250
  6
CONTINUOUS
 90
49
 70
0
 10
251.5558538476
 20
72.4976016875
 10
251.5642696264
 20
72.4965110535
 10
251.572685979
 20
72.4951929339
 10
251.5810936359
 20
72.4936479681
 10
251.5894833276
 20
72.4918767957
 10
251.5978457847
 20
72.4898800561
 10
251.6061717376
 20
72.487658389
 10
251.614451917
 20
72.4852124338
 10
251.6226770533
 20
72.48254283
 10
251.6308378771
 20
72.4796502171
 10
251.6389251188
 20
72.4765352348
 10
251.6469295091
 20
72.4731985224
 10
251.6548417785
 20
72.4696407195
 10
251.6626526574
 20
72.4658624656
 10
251.6703528765
 20
72.4618644003
 10
251.6779331662
 20
72.457647163
 10
251.6853842571
 20
72.4532113933
 10
251.6926968797
 20
72.4485577306
 10
251.6998617645
 20
72.4436868146
 10
251.7068696421
 20
72.4385992847
 10
251.7137112429
 20
72.4332957804
 10
251.7203772976
 20
72.4277769412
 10
251.7268585366
 20
72.4220434068
 10
251.7331456905
 20
72.4160958165
 10
251.7392294898
 20
72.4099348099
 10
251.7450706845
 20
72.4035974998
 10
251.7506988777
 20
72.3970596421
 10
251.7561114066
 20
72.3903311786
 10
251.7613056079
 20
72.383422051
 10
251.7662788187
 20
72.3763422012
 10
251.7710283758
 20
72.3691015708
 10
251.7755516163
 20
72.3617101018
 10
251.7798458771
 20
72.3541777358
 10
251.7839084951
 20
72.3465144148
 10
251.7877368073
 20
72.3387300803
 10
251.7913281506
 20
72.3308346743
 10
251.794679862
 20
72.3228381385
 10
251.7977892784
 20
72.3147504147
 10
251.8006537367
 20
72.3065814447
 10
251.803270574
 20
72.2983411702
 10
251.8056371271
 20
72.2900395331
 10
251.8077507329
 20
72.2816864751
 10
251.8096087285
 20
72.2732919381
 10
251.8112084508
 20
72.2648658637
 10
251.8125472367
 20
72.2564181939
 10
251.8136224232
 20
72.2479588703
 10
251.8144313472
 20
72.2394978347
 10
251.8149713456
 20
72.231045029
 10
251.8152397555
 20
72.222610395
  0
LINE
  5
28A
100
AcDbEntity
  8
ASSI
100
AcDbLine
 62
7
  6
CONTINUOUS
 10
97.4730330237
 20
155.2286731413
 11
97.2792014803
 21
155.4225046847
  0
LINE
  5
28B
100
AcDbEntity
  8
ASSI
100
AcDbLine
 62
7
  6
CONTINUOUS
 10
98.4736418258
 20
156.2292819434
 11
98.2798102824
 21
156.4231134868
  0
LINE
  5
28C
100
AcDbEntity
  8
SMUSSO
100
AcDbLine
 62
7
  6
CONTINUOUS
 10
157.9292014803
 20
113.4231134868
 11
157.9292014803
 21
109.4231134868
  0
LINE
  5
28D
100
AcDbEntity
  8
ASSI
100
AcDbLine
 62
7
  6
CONTINUOUS
 10
157.9292014803
 20
113.4231134868
 11
157.9292014803
 21
109.4231134868
  0
LINE
  5
28E
100
AcDbEntity
  8
SMUSSO
100
AcDbLine
 62
7
  6
CONTINUOUS
 10
159.1292014803
 20
113.4231134868
 11
159.1292014803
 21
109.4231134868
  0
LINE
  5
28F
100
AcDbEntity
  8
ASSI
100
AcDbLine
 62
7
  6
CONTINUOUS
 10
159.1292014803
 20
113.4231134868
 11
159.1292014803
 21
109.4231134868
  0
LWPOLYLINE
  5
290
100
AcDbEntity
  8
0
100
AcDbPolyline
 62
7
  6
CONTINUOUS
 90
3
 70
0
 43
0.3500000006
 10
178.8220612793
 20
166.1718305054
 10
178.7506210327
 20
165.9575460205
 10
178.6077767944
 20
165.6718212891
  0
LWPOLYLINE
  5
291
100
AcDbEntity
  8
CURVE
100
AcDbPolyline
 62
250
  6
CONTINUOUS
 90
30
 70
0
 10
251.8872125815
 20
72.8105506863
 10
251.8606301945
 20
72.8197053775
 10
251.8337896822
 20
72.8280842111
 10
251.8067145602
 20
72.8357217747
 10
251.7794283441
 20
72.8426526559
 10
251.7519545496
 20
72.8489114422
 10
251.7243166923
 20
72.8545327213
 10
251.6965382878
 20
72.8595510807
 10
251.6686428517
 20
72.864001108
 10
251.6406538998
 20
72.8679173909
 10
251.6125949477
 20
72.8713345169
 10
251.5844895109
 20
72.8742870736
 10
251.5563611051
 20
72.8768096486
 10
251.5150172014
 20
72.8797991708
 10
251.4736762177
 20
72.8819839058
 10
251.4323398933
 20
72.8834130877
 10
251.3910099673
 20
72.8841359508
 10
251.349688179
 20
72.8842017294
 10
251.3083762676
 20
72.8836596577
 10
251.2670759725
 20
72.88255897
 10
251.2257890328
 20
72.8809489006
 10
251.1731776501
 20
72.8782244813
 10
251.1205977816
 20
72.8747872629
 10
251.0680564096
 20
72.8706722806
 10
251.0155605164
 20
72.8659145696
 10
250.9631170843
 20
72.8605491653
 10
250.9107330956
 20
72.8546111029
 10
250.8584155324
 20
72.8481354179
 10
250.8061713771
 20
72.8411571454
 10
250.754007612
 20
72.8337113207
  0
LINE
  5
292
100
AcDbEntity
  8
ASSI
100
AcDbLine
 62
7
  6
CONTINUOUS
 10
255.3504704401
 20
154.7998508971
 11
256.3699008026
 21
155.2430989568
  0
LINE
  5
293
100
AcDbEntity
  8
ASSI
100
AcDbLine
 62
7
  6
CONTINUOUS
 10
255.3504704401
 20
68.0463760766
 11
256.3699008026
 21
67.6031280169
  0
LINE
  5
294
100
AcDbEntity
  8
SMUSSO
100
AcDbLine
 62
7
  6
CONTINUOUS
 10
172.2292014803
 20
109.4231134868
 11
172.2292014803
 21
113.4231134868
  0
LINE
  5
295
100
AcDbEntity
  8
ASSI
100
AcDbLine
 62
7
  6
CONTINUOUS
 10
172.2292014803
 20
109.4231134868
 11
172.2292014803
 21
113.4231134868
  0
LINE
  5
296
100
AcDbEntity
  8
SMUSSO
100
AcDbLine
 62
7
  6
CONTINUOUS
 10
173.4292014803
 20
109.4231134868
 11
173.4292014803
 21
113.4231134868
  0
LINE
  5
297
100
AcDbEntity
  8
ASSI
100
AcDbLine
 62
7
  6
CONTINUOUS
 10
173.4292014803
 20
109.4231134868
 11
173.4292014803
 21
113.4231134868
  0
LINE
  5
298
100
AcDbEntity
  8
SMUSSO
100
AcDbLine
 62
250
  6
CONTINUOUS
 10
226.6292014803
 20
109.4231134868
 11
225.4292014803
 21
109.4231134868
  0
LINE
  5
299
100
AcDbEntity
  8
ASSI
100
AcDbLine
 62
250
  6
CONTINUOUS
 10
226.6292014803
 20
109.4231134868
 11
225.4292014803
 21
109.4231134868
  0
LINE
  5
29A
100
AcDbEntity
  8
SMUSSO
100
AcDbLine
 62
250
  6
CONTINUOUS
 10
204.1292014803
 20
109.4231134868
 11
202.9292014803
 21
109.4231134868
  0
LINE
  5
29B
100
AcDbEntity
  8
ASSI
100
AcDbLine
 62
250
  6
CONTINUOUS
 10
204.1292014803
 20
109.4231134868
 11
202.9292014803
 21
109.4231134868
  0
LINE
  5
29C
100
AcDbEntity
  8
SMUSSO
100
AcDbLine
 62
250
  6
CONTINUOUS
 10
181.6292014803
 20
109.4231134868
 11
180.4292014803
 21
109.4231134868
  0
LINE
  5
29D
100
AcDbEntity
  8
ASSI
100
AcDbLine
 62
250
  6
CONTINUOUS
 10
181.6292014803
 20
109.4231134868
 11
180.4292014803
 21
109.4231134868
  0
LINE
  5
29E
100
AcDbEntity
  8
SMUSSO
100
AcDbLine
 62
250
  6
CONTINUOUS
 10
159.1292014803
 20
109.4231134868
 11
157.9292014803
 21
109.4231134868
  0
LINE
  5
29F
100
AcDbEntity
  8
ASSI
100
AcDbLine
 62
250
  6
CONTINUOUS
 10
159.1292014803
 20
109.4231134868
 11
157.9292014803
 21
109.4231134868
  0
LINE
  5
2A0
100
AcDbEntity
  8
SMUSSO
100
AcDbLine
 62
250
  6
CONTINUOUS
 10
136.6292014803
 20
109.4231134868
 11
135.4292014803
 21
109.4231134868
  0
LINE
  5
2A1
100
AcDbEntity
  8
ASSI
100
AcDbLine
 62
250
  6
CONTINUOUS
 10
136.6292014803
 20
109.4231134868
 11
135.4292014803
 21
109.4231134868
  0
LINE
  5
2A2
100
AcDbEntity
  8
SMUSSO
100
AcDbLine
 62
250
  6
CONTINUOUS
 10
127.2292014803
 20
109.4231134868
 11
128.4292014803
 21
109.4231134868
  0
LINE
  5
2A3
100
AcDbEntity
  8
ASSI
100
AcDbLine
 62
250
  6
CONTINUOUS
 10
127.2292014803
 20
109.4231134868
 11
128.4292014803
 21
109.4231134868
  0
LINE
  5
2A4
100
AcDbEntity
  8
SMUSSO
100
AcDbLine
 62
250
  6
CONTINUOUS
 10
149.7292014803
 20
109.4231134868
 11
150.9292014803
 21
109.4231134868
  0
LINE
  5
2A5
100
AcDbEntity
  8
ASSI
100
AcDbLine
 62
250
  6
CONTINUOUS
 10
149.7292014803
 20
109.4231134868
 11
150.9292014803
 21
109.4231134868
  0
LINE
  5
2A6
100
AcDbEntity
  8
SMUSSO
100
AcDbLine
 62
250
  6
CONTINUOUS
 10
172.2292014803
 20
109.4231134868
 11
173.4292014803
 21
109.4231134868
  0
LINE
  5
2A7
100
AcDbEntity
  8
ASSI
100
AcDbLine
 62
250
  6
CONTINUOUS
 10
172.2292014803
 20
109.4231134868
 11
173.4292014803
 21
109.4231134868
  0
LINE
  5
2A8
100
AcDbEntity
  8
SMUSSO
100
AcDbLine
 62
250
  6
CONTINUOUS
 10
194.7292014803
 20
109.4231134868
 11
195.9292014803
 21
109.4231134868
  0
LINE
  5
2A9
100
AcDbEntity
  8
ASSI
100
AcDbLine
 62
250
  6
CONTINUOUS
 10
194.7292014803
 20
109.4231134868
 11
195.9292014803
 21
109.4231134868
  0
LINE
  5
2AA
100
AcDbEntity
  8
SMUSSO
100
AcDbLine
 62
250
  6
CONTINUOUS
 10
217.2292014803
 20
109.4231134868
 11
218.4292014803
 21
109.4231134868
  0
LINE
  5
2AB
100
AcDbEntity
  8
ASSI
100
AcDbLine
 62
250
  6
CONTINUOUS
 10
217.2292014803
 20
109.4231134868
 11
218.4292014803
 21
109.4231134868
  0
LWPOLYLINE
  5
2AC
100
AcDbEntity
  8
0
100
AcDbPolyline
 62
7
  6
CONTINUOUS
 90
13
 70
0
 43
0.3500000006
 10
266.7371248169
 20
111.4231144409
 10
265.4514179077
 20
111.4231144409
 10
265.0228308105
 20
111.6373989258
 10
264.5942618408
 20
112.0659678955
 10
264.5942618408
 20
112.2802523804
 10
265.0228308105
 20
112.7088304138
 10
265.4514179077
 20
112.9231148987
 10
266.7371248169
 20
112.9231148987
 10
267.1656937866
 20
112.7088304138
 10
267.5942627563
 20
112.2802523804
 10
267.5942627563
 20
112.0659678955
 10
267.1656937866
 20
111.6373989258
 10
266.7371248169
 20
111.4231144409
  0
LINE
  5
2AD
100
AcDbEntity
  8
SMUSSO
100
AcDbLine
 62
7
  6
CONTINUOUS
 10
180.4292014803
 20
113.4231134868
 11
180.4292014803
 21
109.4231134868
  0
LINE
  5
2AE
100
AcDbEntity
  8
ASSI
100
AcDbLine
 62
7
  6
CONTINUOUS
 10
180.4292014803
 20
113.4231134868
 11
180.4292014803
 21
109.4231134868
  0
LINE
  5
2AF
100
AcDbEntity
  8
SMUSSO
100
AcDbLine
 62
7
  6
CONTINUOUS
 10
181.6292014803
 20
113.4231134868
 11
181.6292014803
 21
109.4231134868
  0
LINE
  5
2B0
100
AcDbEntity
  8
ASSI
100
AcDbLine
 62
7
  6
CONTINUOUS
 10
181.6292014803
 20
113.4231134868
 11
181.6292014803
 21
109.4231134868
  0
LINE
  5
2B1
100
AcDbEntity
  8
SMUSSO
100
AcDbLine
 62
250
  6
CONTINUOUS
 10
226.6292014803
 20
113.4231134868
 11
225.4292014803
 21
113.4231134868
  0
LINE
  5
2B2
100
AcDbEntity
  8
ASSI
100
AcDbLine
 62
250
  6
CONTINUOUS
 10
226.6292014803
 20
113.4231134868
 11
225.4292014803
 21
113.4231134868
  0
LINE
  5
2B3
100
AcDbEntity
  8
SMUSSO
100
AcDbLine
 62
250
  6
CONTINUOUS
 10
204.1292014803
 20
113.4231134868
 11
202.9292014803
 21
113.4231134868
  0
LINE
  5
2B4
100
AcDbEntity
  8
ASSI
100
AcDbLine
 62
250
  6
CONTINUOUS
 10
204.1292014803
 20
113.4231134868
 11
202.9292014803
 21
113.4231134868
  0
LINE
  5
2B5
100
AcDbEntity
  8
SMUSSO
100
AcDbLine
 62
250
  6
CONTINUOUS
 10
181.6292014803
 20
113.4231134868
 11
180.4292014803
 21
113.4231134868
  0
LINE
  5
2B6
100
AcDbEntity
  8
ASSI
100
AcDbLine
 62
250
  6
CONTINUOUS
 10
181.6292014803
 20
113.4231134868
 11
180.4292014803
 21
113.4231134868
  0
LINE
  5
2B7
100
AcDbEntity
  8
SMUSSO
100
AcDbLine
 62
250
  6
CONTINUOUS
 10
159.1292014803
 20
113.4231134868
 11
157.9292014803
 21
113.4231134868
  0
LINE
  5
2B8
100
AcDbEntity
  8
ASSI
100
AcDbLine
 62
250
  6
CONTINUOUS
 10
159.1292014803
 20
113.4231134868
 11
157.9292014803
 21
113.4231134868
  0
LINE
  5
2B9
100
AcDbEntity
  8
SMUSSO
100
AcDbLine
 62
250
  6
CONTINUOUS
 10
136.6292014803
 20
113.4231134868
 11
135.4292014803
 21
113.4231134868
  0
LINE
  5
2BA
100
AcDbEntity
  8
ASSI
100
AcDbLine
 62
250
  6
CONTINUOUS
 10
136.6292014803
 20
113.4231134868
 11
135.4292014803
 21
113.4231134868
  0
LINE
  5
2BB
100
AcDbEntity
  8
SMUSSO
100
AcDbLine
 62
250
  6
CONTINUOUS
 10
127.2292014803
 20
113.4231134868
 11
128.4292014803
 21
113.4231134868
  0
LINE
  5
2BC
100
AcDbEntity
  8
ASSI
100
AcDbLine
 62
250
  6
CONTINUOUS
 10
127.2292014803
 20
113.4231134868
 11
128.4292014803
 21
113.4231134868
  0
LINE
  5
2BD
100
AcDbEntity
  8
SMUSSO
100
AcDbLine
 62
250
  6
CONTINUOUS
 10
149.7292014803
 20
113.4231134868
 11
150.9292014803
 21
113.4231134868
  0
LINE
  5
2BE
100
AcDbEntity
  8
ASSI
100
AcDbLine
 62
250
  6
CONTINUOUS
 10
149.7292014803
 20
113.4231134868
 11
150.9292014803
 21
113.4231134868
  0
LINE
  5
2BF
100
AcDbEntity
  8
SMUSSO
100
AcDbLine
 62
250
  6
CONTINUOUS
 10
172.2292014803
 20
113.4231134868
 11
173.4292014803
 21
113.4231134868
  0
LINE
  5
2C0
100
AcDbEntity
  8
ASSI
100
AcDbLine
 62
250
  6
CONTINUOUS
 10
172.2292014803
 20
113.4231134868
 11
173.4292014803
 21
113.4231134868
  0
LINE
  5
2C1
100
AcDbEntity
  8
SMUSSO
100
AcDbLine
 62
250
  6
CONTINUOUS
 10
194.7292014803
 20
113.4231134868
 11
195.9292014803
 21
113.4231134868
  0
LINE
  5
2C2
100
AcDbEntity
  8
ASSI
100
AcDbLine
 62
250
  6
CONTINUOUS
 10
194.7292014803
 20
113.4231134868
 11
195.9292014803
 21
113.4231134868
  0
LINE
  5
2C3
100
AcDbEntity
  8
SMUSSO
100
AcDbLine
 62
250
  6
CONTINUOUS
 10
217.2292014803
 20
113.4231134868
 11
218.4292014803
 21
113.4231134868
  0
LINE
  5
2C4
100
AcDbEntity
  8
ASSI
100
AcDbLine
 62
250
  6
CONTINUOUS
 10
217.2292014803
 20
113.4231134868
 11
218.4292014803
 21
113.4231134868
  0
LINE
  5
2C5
100
AcDbEntity
  8
ASSI
100
AcDbLine
 62
7
  6
CONTINUOUS
 10
98.5079325204
 20
68.0463760766
 11
97.4885021579
 21
67.6031280169
  0
LINE
  5
2C6
100
AcDbEntity
  8
ASSI
100
AcDbLine
 62
7
  6
CONTINUOUS
 10
98.5079325204
 20
154.7998508971
 11
97.4885021579
 21
155.2430989568
  0
LINE
  5
2C7
100
AcDbEntity
  8
SMUSSO
100
AcDbLine
 62
7
  6
CONTINUOUS
 10
194.7292014803
 20
109.4231134868
 11
194.7292014803
 21
113.4231134868
  0
LINE
  5
2C8
100
AcDbEntity
  8
ASSI
100
AcDbLine
 62
7
  6
CONTINUOUS
 10
194.7292014803
 20
109.4231134868
 11
194.7292014803
 21
113.4231134868
  0
LINE
  5
2C9
100
AcDbEntity
  8
SMUSSO
100
AcDbLine
 62
7
  6
CONTINUOUS
 10
195.9292014803
 20
109.4231134868
 11
195.9292014803
 21
113.4231134868
  0
LINE
  5
2CA
100
AcDbEntity
  8
ASSI
100
AcDbLine
 62
7
  6
CONTINUOUS
 10
195.9292014803
 20
109.4231134868
 11
195.9292014803
 21
113.4231134868
  0
LINE
  5
2CB
100
AcDbEntity
  8
ASSI
100
AcDbLine
 62
7
  6
CONTINUOUS
 10
255.3847611347
 20
156.2292819434
 11
255.5785926781
 21
156.4231134868
  0
LINE
  5
2CC
100
AcDbEntity
  8
ASSI
100
AcDbLine
 62
7
  6
CONTINUOUS
 10
256.3853699368
 20
155.2286731413
 11
256.5792014803
 21
155.4225046847
  0
LINE
  5
2CD
100
AcDbEntity
  8
ASSI
100
AcDbLine
 62
7
  6
CONTINUOUS
 10
255.3847611347
 20
66.6169450303
 11
255.5785926781
 21
66.4231134868
  0
LINE
  5
2CE
100
AcDbEntity
  8
ASSI
100
AcDbLine
 62
7
  6
CONTINUOUS
 10
256.3853699368
 20
67.6175538324
 11
256.5792014803
 21
67.423722289
  0
LINE
  5
2CF
100
AcDbEntity
  8
SMUSSO
100
AcDbLine
 62
7
  6
CONTINUOUS
 10
202.9292014803
 20
113.4231134868
 11
202.9292014803
 21
109.4231134868
  0
LINE
  5
2D0
100
AcDbEntity
  8
ASSI
100
AcDbLine
 62
7
  6
CONTINUOUS
 10
202.9292014803
 20
113.4231134868
 11
202.9292014803
 21
109.4231134868
  0
LINE
  5
2D1
100
AcDbEntity
  8
SMUSSO
100
AcDbLine
 62
7
  6
CONTINUOUS
 10
204.1292014803
 20
113.4231134868
 11
204.1292014803
 21
109.4231134868
  0
LINE
  5
2D2
100
AcDbEntity
  8
ASSI
100
AcDbLine
 62
7
  6
CONTINUOUS
 10
204.1292014803
 20
113.4231134868
 11
204.1292014803
 21
109.4231134868
  0
LWPOLYLINE
  5
2D3
100
AcDbEntity
  8
0
100
AcDbPolyline
 62
7
  6
CONTINUOUS
 90
10
 70
0
 43
0.3500000006
 10
178.7506210327
 20
166.3861149902
 10
178.8220612793
 20
166.2432526245
 10
178.8220612793
 20
166.1718305054
 10
178.6791989136
 20
166.0289681396
 10
178.6077767944
 20
166.0289681396
 10
178.5363365479
 20
166.1003902588
 10
178.5363365479
 20
166.1718305054
 10
178.6077767944
 20
166.3146747437
 10
178.6791989136
 20
166.3861149902
 10
178.7506210327
 20
166.3861149902
  0
LINE
  5
2D4
100
AcDbEntity
  8
SMUSSO
100
AcDbLine
 62
7
  6
CONTINUOUS
 10
217.2292014803
 20
109.4231134868
 11
217.2292014803
 21
113.4231134868
  0
LINE
  5
2D5
100
AcDbEntity
  8
ASSI
100
AcDbLine
 62
7
  6
CONTINUOUS
 10
217.2292014803
 20
109.4231134868
 11
217.2292014803
 21
113.4231134868
  0
LINE
  5
2D6
100
AcDbEntity
  8
SMUSSO
100
AcDbLine
 62
7
  6
CONTINUOUS
 10
218.4292014803
 20
109.4231134868
 11
218.4292014803
 21
113.4231134868
  0
LINE
  5
2D7
100
AcDbEntity
  8
ASSI
100
AcDbLine
 62
7
  6
CONTINUOUS
 10
218.4292014803
 20
109.4231134868
 11
218.4292014803
 21
113.4231134868
  0
LINE
  5
2D8
100
AcDbEntity
  8
SMUSSO
100
AcDbLine
 62
7
  6
CONTINUOUS
 10
225.4292014803
 20
113.4231134868
 11
225.4292014803
 21
109.4231134868
  0
LINE
  5
2D9
100
AcDbEntity
  8
ASSI
100
AcDbLine
 62
7
  6
CONTINUOUS
 10
225.4292014803
 20
113.4231134868
 11
225.4292014803
 21
109.4231134868
  0
LINE
  5
2DA
100
AcDbEntity
  8
ASSI
100
AcDbLine
 62
7
  6
CONTINUOUS
 10
254.9559388905
 20
155.1943824467
 11
98.9024640701
 21
155.1943824467
  0
LINE
  5
2DB
100
AcDbEntity
  8
ASSI
100
AcDbLine
 62
7
  6
CONTINUOUS
 10
255.3847611347
 20
156.2292819434
 11
98.4736418258
 21
156.2292819434
  0
LINE
  5
2DC
100
AcDbEntity
  8
ASSI
100
AcDbLine
 62
7
  6
CONTINUOUS
 10
255.5785926781
 20
156.4231134868
 11
98.2798102824
 21
156.4231134868
  0
LINE
  5
2DD
100
AcDbEntity
  8
SMUSSO
100
AcDbLine
 62
7
  6
CONTINUOUS
 10
226.6292014803
 20
113.4231134868
 11
226.6292014803
 21
109.4231134868
  0
LINE
  5
2DE
100
AcDbEntity
  8
ASSI
100
AcDbLine
 62
7
  6
CONTINUOUS
 10
226.6292014803
 20
113.4231134868
 11
226.6292014803
 21
109.4231134868
  0
LINE
  5
2DF
100
AcDbEntity
  8
ASSI
100
AcDbLine
 62
7
  6
CONTINUOUS
 10
254.9559388905
 20
155.1943824467
 11
255.3991869502
 21
156.2138128092
  0
LWPOLYLINE
  5
2E0
100
AcDbEntity
  8
0
100
AcDbPolyline
 62
7
  6
CONTINUOUS
 90
8
 70
0
 43
0.3500000006
 10
173.6077752686
 20
165.8861057739
 10
174.464913208
 20
165.8861057739
 10
174.8934821777
 20
166.3146747437
 10
174.8934821777
 20
167.1718308105
 10
174.464913208
 20
167.6003997803
 10
173.6077752686
 20
167.6003997803
 10
173.6077752686
 20
168.8861066895
 10
174.8934821777
 20
168.8861066895
  0
LWPOLYLINE
  5
2E1
100
AcDbEntity
  8
0
100
AcDbPolyline
 62
7
  6
CONTINUOUS
 90
6
 70
0
 43
0.3500000006
 10
179.8220615845
 20
165.8861057739
 10
180.8934840088
 20
165.8861057739
 10
181.1077684937
 20
166.1003902588
 10
181.1077684937
 20
167.1718308105
 10
180.6791995239
 20
167.6003997803
 10
180.2506305542
 20
167.6003997803
  0
LINE
  5
2E2
100
AcDbEntity
  8
ASSI
100
AcDbLine
 62
7
  6
CONTINUOUS
 10
254.9559388905
 20
67.651844527
 11
255.3991869502
 21
66.6324141645
  0
LINE
  5
2E3
100
AcDbEntity
  8
CURVE
100
AcDbLine
 62
250
  6
CONTINUOUS
 10
247.583970267
 20
70.6595979161
 11
247.04528772
 21
72.0960354699
  0
LINE
  5
2E4
100
AcDbEntity
  8
CURVE
100
AcDbLine
 62
250
  6
CONTINUOUS
 10
247.1643401908
 20
72.8594123876
 11
247.6186778844
 21
71.638068824
  0
LINE
  5
2E5
100
AcDbEntity
  8
CURVE
100
AcDbLine
 62
250
  6
CONTINUOUS
 10
244.5183447873
 20
70.6595979161
 11
243.8209605332
 21
72.8594123876
  0
LINE
  5
2E6
100
AcDbEntity
  8
CURVE
100
AcDbLine
 62
250
  6
CONTINUOUS
 10
244.3197801296
 20
72.8594123876
 11
244.7391053486
 21
71.3452121707
  0
LWPOLYLINE
  5
2E7
100
AcDbEntity
  8
CURVE
100
AcDbPolyline
 62
250
  6
CONTINUOUS
 90
6
 70
0
 10
251.7137387703
 20
71.3266534621
 10
251.7213132129
 20
71.3058770427
 10
251.7285220851
 20
71.2849721028
 10
251.7354289269
 20
71.2639615085
 10
251.7420972782
 20
71.2428681257
 10
251.748590679
 20
71.2217148206
  0
LINE
  5
2E8
100
AcDbEntity
  8
CURVE
100
AcDbLine
 62
250
  6
CONTINUOUS
 10
249.9442097787
 20
72.8594123876
 11
250.6191676528
 21
70.6595979161
  0
LINE
  5
2E9
100
AcDbEntity
  8
CURVE
100
AcDbLine
 62
250
  6
CONTINUOUS
 10
251.748590679
 20
71.2217148206
 11
251.8285294891
 21
70.9548089826
  0
LWPOLYLINE
  5
2EA
100
AcDbEntity
  8
CURVE
100
AcDbPolyline
 62
250
  6
CONTINUOUS
 90
3
 70
0
 10
251.8285294891
 20
70.9548089826
 10
251.8885547002
 20
70.7494563068
 10
251.9145302528
 20
70.6595974995
  0
LWPOLYLINE
  5
2EB
100
AcDbEntity
  8
CURVE
100
AcDbPolyline
 62
250
  6
CONTINUOUS
 90
39
 70
0
 10
252.1864168414
 20
71.3018342942
 10
252.1820481625
 20
71.3174421569
 10
252.1775933585
 20
71.3330289439
 10
252.1730292626
 20
71.3485836741
 10
252.1683327082
 20
71.3640953663
 10
252.1634805285
 20
71.3795530395
 10
252.1584495568
 20
71.3949457124
 10
252.1532166264
 20
71.410262404
 10
252.1477585706
 20
71.4254921331
 10
252.1420522227
 20
71.4406239185
 10
252.136074416
 20
71.4556467792
 10
252.1298019837
 20
71.470549734
 10
252.1232117591
 20
71.4853218017
 10
252.1162805756
 20
71.4999520013
 10
252.111317849
 20
71.5098958624
 10
252.1061742856
 20
71.5197546326
 10
252.1008402966
 20
71.5295151065
 10
252.0953062937
 20
71.5391640781
 10
252.089562688
 20
71.548688342
 10
252.0835998912
 20
71.5580746922
 10
252.0774083145
 20
71.5673099231
 10
252.0709783695
 20
71.5763808291
 10
252.0643004674
 20
71.5852742044
 10
252.0573650199
 20
71.5939768432
 10
252.0501624382
 20
71.6024755399
 10
252.0426831338
 20
71.6107570888
 10
252.0355842703
 20
71.6181398346
 10
252.0282531669
 20
71.6253150272
 10
252.0206977727
 20
71.6322683587
 10
252.0129260366
 20
71.6389855215
 10
252.0049459077
 20
71.6454522077
 10
251.9967653349
 20
71.6516541096
 10
251.9883922673
 20
71.6575769193
 10
251.9798346538
 20
71.6632063292
 10
251.9711004434
 20
71.6685280313
 10
251.9621975852
 20
71.673527718
 10
251.9531340281
 20
71.6781910814
 10
251.9439177211
 20
71.6825038138
 10
251.9345566132
 20
71.6864516073
  0
LINE
  5
2EC
100
AcDbEntity
  8
CURVE
100
AcDbLine
 62
250
  6
CONTINUOUS
 10
250.1352032938
 20
70.6595979161
 11
250.0162492993
 21
71.0987587533
  0
LINE
  5
2ED
100
AcDbEntity
  8
CURVE
100
AcDbLine
 62
250
  6
CONTINUOUS
 10
249.9244810177
 20
71.4385801664
 11
249.7134779797
 21
72.2549592722
  0
LINE
  5
2EE
100
AcDbEntity
  8
CURVE
100
AcDbLine
 62
250
  6
CONTINUOUS
 10
248.5321869858
 20
72.8594123876
 11
248.7378943097
 21
70.6595979161
  0
LWPOLYLINE
  5
2EF
100
AcDbEntity
  8
0
100
AcDbPolyline
 62
7
  6
CONTINUOUS
 90
10
 70
0
 43
0.3500000006
 10
267.5942627563
 20
109.4945450134
 10
266.7371248169
 20
110.3516829529
 10
265.8799868774
 20
110.5659674377
 10
265.0228308105
 20
110.5659674377
 10
264.5942618408
 20
110.137398468
 10
264.5942618408
 20
109.4945450134
 10
265.0228308105
 20
109.06596698
 10
265.8799868774
 20
109.06596698
 10
266.3085558472
 20
109.4945450134
 10
266.3085558472
 20
110.4231141357
  0
LINE
  5
2F0
100
AcDbEntity
  8
CURVE
100
AcDbLine
 62
250
  6
CONTINUOUS
 10
252.1992377943
 20
71.2549940635
 11
252.1864168414
 21
71.3018342942
  0
LINE
  5
2F1
100
AcDbEntity
  8
CURVE
100
AcDbLine
 62
250
  6
CONTINUOUS
 10
252.2418147306
 20
71.0959919747
 11
252.1992377943
 21
71.2549940635
  0
LINE
  5
2F2
100
AcDbEntity
  8
CURVE
100
AcDbLine
 62
250
  6
CONTINUOUS
 10
252.3562154272
 20
70.6595974995
 11
252.3352652736
 21
70.7381348821
  0
LINE
  5
2F3
100
AcDbEntity
  8
CURVE
100
AcDbLine
 62
250
  6
CONTINUOUS
 10
252.3352652736
 20
70.7381348821
 11
252.2418147306
 21
71.0959919747
  0
LINE
  5
2F4
100
AcDbEntity
  8
CURVE
100
AcDbLine
 62
250
  6
CONTINUOUS
 10
248.2886868063
 20
70.6595979161
 11
248.1943455725
 21
72.0900472797
  0
LINE
  5
2F5
100
AcDbEntity
  8
CURVE
100
AcDbLine
 62
250
  6
CONTINUOUS
 10
245.800518348
 20
72.8595443876
 11
245.800518348
 21
70.6595979161
  0
LINE
  5
2F6
100
AcDbEntity
  8
CURVE
100
AcDbLine
 62
250
  6
CONTINUOUS
 10
246.2597065176
 20
70.6595979161
 11
246.2597065176
 21
72.8595443876
  0
LINE
  5
2F7
100
AcDbEntity
  8
CURVE
100
AcDbLine
 62
250
  6
CONTINUOUS
 10
250.754007612
 20
72.8337113207
 11
250.754007612
 21
70.6595974995
  0
LINE
  5
2F8
100
AcDbEntity
  8
CURVE
100
AcDbLine
 62
250
  6
CONTINUOUS
 10
247.04528772
 20
72.0960354699
 11
246.9461944864
 21
70.6595979161
  0
LINE
  5
2F9
100
AcDbEntity
  8
CURVE
100
AcDbLine
 62
250
  6
CONTINUOUS
 10
246.5069016492
 20
70.6595979161
 11
246.7055323069
 21
72.8594123876
  0
LWPOLYLINE
  5
2FA
100
AcDbEntity
  8
CURVE
100
AcDbPolyline
 62
250
  6
CONTINUOUS
 90
58
 70
0
 10
251.8152397555
 20
72.222610395
 10
251.8153089324
 20
72.2124114973
 10
251.8151946992
 20
72.2021831595
 10
251.8148856764
 20
72.1919362861
 10
251.8143704845
 20
72.1816817819
 10
251.8136377441
 20
72.1714305513
 10
251.8126760756
 20
72.1611934991
 10
251.8114740998
 20
72.1509815297
 10
251.810020437
 20
72.1408055479
 10
251.8083037078
 20
72.1306764583
 10
251.8063125328
 20
72.1206051654
 10
251.8040355326
 20
72.1106025739
 10
251.8014613276
 20
72.1006795884
 10
251.7985785384
 20
72.0908471135
 10
251.7953757856
 20
72.0811160538
 10
251.7918416897
 20
72.071497314
 10
251.7879648712
 20
72.0620017986
 10
251.784107528
 20
72.0534256405
 10
251.7799596568
 20
72.0449735677
 10
251.7755275789
 20
72.0366572228
 10
251.7708176161
 20
72.0284882483
 10
251.7658360897
 20
72.0204782871
 10
251.7605893215
 20
72.0126389815
 10
251.7550836328
 20
72.0049819743
 10
251.7493253454
 20
71.9975189082
 10
251.7433207806
 20
71.9902614256
 10
251.7370762601
 20
71.9832211693
 10
251.7305981055
 20
71.9764097819
 10
251.7238926382
 20
71.9698389059
 10
251.7169661799
 20
71.963520184
 10
251.709825052
 20
71.9574652589
 10
251.7021496218
 20
71.9514359251
 10
251.6942580692
 20
71.9457008123
 10
251.6861612705
 20
71.9402540453
 10
251.6778701021
 20
71.935089749
 10
251.6693954405
 20
71.9302020484
 10
251.660748162
 20
71.9255850682
 10
251.651939143
 20
71.9212329334
 10
251.6429792598
 20
71.9171397689
 10
251.6338793889
 20
71.9132996996
 10
251.6246504067
 20
71.9097068502
 10
251.6153031895
 20
71.9063553458
 10
251.6058486138
 20
71.9032393112
 10
251.5962975558
 20
71.9003528713
 10
251.5866608921
 20
71.897690151
 10
251.5769494989
 20
71.8952452751
 10
251.5671742528
 20
71.8930123686
 10
251.55734603
 20
71.8909855563
 10
251.5474757069
 20
71.8891589632
 10
251.53757416
 20
71.8875267141
 10
251.5276522655
 20
71.8860829338
 10
251.5177209
 20
71.8848217474
 10
251.5077909398
 20
71.8837372796
 10
251.4978732613
 20
71.8828236554
 10
251.4879787408
 20
71.8820749996
 10
251.4781182548
 20
71.8814854371
 10
251.4683026797
 20
71.8810490929
 10
251.4585428917
 20
71.8807600917
  0
LINE
  5
2FB
100
AcDbEntity
  8
CURVE
100
AcDbLine
 62
250
  6
CONTINUOUS
 10
251.1961216871
 20
71.8807600917
 11
251.1961216871
 21
72.4846521875
  0
LINE
  5
2FC
100
AcDbEntity
  8
CURVE
100
AcDbLine
 62
250
  6
CONTINUOUS
 10
251.2113476597
 20
70.6595974995
 11
251.2113476597
 21
71.5204835573
  0
LINE
  5
2FD
100
AcDbEntity
  8
CURVE
100
AcDbLine
 62
250
  6
CONTINUOUS
 10
251.9345566132
 20
71.6864516073
 11
251.9345566132
 21
71.6994505958
  0
LINE
  5
2FE
100
AcDbEntity
  8
ASSI
100
AcDbLine
 62
7
  6
CONTINUOUS
 10
255.3504704401
 20
68.0463760766
 11
255.3504704401
 21
154.7998508971
  0
LINE
  5
2FF
100
AcDbEntity
  8
ASSI
100
AcDbLine
 62
7
  6
CONTINUOUS
 10
256.3853699368
 20
67.6175538324
 11
256.3853699368
 21
155.2286731413
  0
LINE
  5
300
100
AcDbEntity
  8
ASSI
100
AcDbLine
 62
7
  6
CONTINUOUS
 10
256.5792014803
 20
67.423722289
 11
256.5792014803
 21
155.4225046847
  0
LINE
  5
301
100
AcDbEntity
  8
CURVE
100
AcDbLine
 62
250
  6
CONTINUOUS
 10
244.7391053486
 20
71.3452121707
 11
245.1712387576
 21
72.8594123876
  0
LINE
  5
302
100
AcDbEntity
  8
CURVE
100
AcDbLine
 62
250
  6
CONTINUOUS
 10
245.6301136891
 20
72.8594123876
 11
244.9230043879
 21
70.6595979161
  0
LINE
  5
303
100
AcDbEntity
  8
CURVE
100
AcDbLine
 62
7
  6
CONTINUOUS
 10
243.908027289
 20
72.5847708134
 11
244.1826688632
 21
72.8594123876
  0
LINE
  5
304
100
AcDbEntity
  8
CURVE
100
AcDbLine
 62
7
  6
CONTINUOUS
 10
244.0091305815
 20
72.2658526779
 11
244.3811350843
 21
72.6378571807
  0
LINE
  5
305
100
AcDbEntity
  8
CURVE
100
AcDbLine
 62
7
  6
CONTINUOUS
 10
244.1102338741
 20
71.9469345424
 11
244.4722254698
 21
72.3089261381
  0
LINE
  5
306
100
AcDbEntity
  8
CURVE
100
AcDbLine
 62
7
  6
CONTINUOUS
 10
244.2113371666
 20
71.6280164069
 11
244.5633158553
 21
71.9799950956
  0
LINE
  5
307
100
AcDbEntity
  8
CURVE
100
AcDbLine
 62
7
  6
CONTINUOUS
 10
245.0628149567
 20
72.479494197
 11
245.4427331472
 21
72.8594123876
  0
LINE
  5
308
100
AcDbEntity
  8
CURVE
100
AcDbLine
 62
7
  6
CONTINUOUS
 10
244.3124404591
 20
71.3090982714
 11
244.6544062407
 21
71.651064053
  0
LINE
  5
309
100
AcDbEntity
  8
CURVE
100
AcDbLine
 62
7
  6
CONTINUOUS
 10
244.8950755064
 20
71.8917333187
 11
245.519909385
 21
72.5165671973
  0
LINE
  5
30A
100
AcDbEntity
  8
CURVE
100
AcDbLine
 62
7
  6
CONTINUOUS
 10
245.800518348
 20
72.7971761603
 11
245.8628865753
 21
72.8595443876
  0
LINE
  5
30B
100
AcDbEntity
  8
CURVE
100
AcDbLine
 62
7
  6
CONTINUOUS
 10
244.4135437516
 20
70.9901801359
 11
245.3209410527
 21
71.8975774369
  0
LINE
  5
30C
100
AcDbEntity
  8
CURVE
100
AcDbLine
 62
7
  6
CONTINUOUS
 10
245.800518348
 20
72.3771547323
 11
246.2597065176
 21
72.8363429019
  0
LINE
  5
30D
100
AcDbEntity
  8
CURVE
100
AcDbLine
 62
7
  6
CONTINUOUS
 10
244.5146470442
 20
70.6712620004
 11
245.1219727203
 21
71.2785876765
  0
LINE
  5
30E
100
AcDbEntity
  8
CURVE
100
AcDbLine
 62
7
  6
CONTINUOUS
 10
245.800518348
 20
71.9571333043
 11
246.2597065176
 21
72.4163214739
  0
LINE
  5
30F
100
AcDbEntity
  8
CURVE
100
AcDbLine
 62
7
  6
CONTINUOUS
 10
245.800518348
 20
71.5371118762
 11
246.2597065176
 21
71.9963000459
  0
LINE
  5
310
100
AcDbEntity
  8
CURVE
100
AcDbLine
 62
7
  6
CONTINUOUS
 10
246.6641138716
 20
72.4007073998
 11
247.1228188593
 21
72.8594123876
  0
LINE
  5
311
100
AcDbEntity
  8
CURVE
100
AcDbLine
 62
7
  6
CONTINUOUS
 10
245.800518348
 20
71.1170904482
 11
246.2597065176
 21
71.5762786178
  0
LINE
  5
312
100
AcDbEntity
  8
CURVE
100
AcDbLine
 62
7
  6
CONTINUOUS
 10
246.6224239819
 20
71.9389960821
 11
247.2669652337
 21
72.5835373339
  0
LINE
  5
313
100
AcDbEntity
  8
CURVE
100
AcDbLine
 62
7
  6
CONTINUOUS
 10
245.800518348
 20
70.6970690202
 11
246.2597065176
 21
71.1562571898
  0
LINE
  5
314
100
AcDbEntity
  8
CURVE
100
AcDbLine
 62
7
  6
CONTINUOUS
 10
246.5807340922
 20
71.4772847643
 11
247.0338621755
 21
71.9304128477
  0
LINE
  5
315
100
AcDbEntity
  8
CURVE
100
AcDbLine
 62
7
  6
CONTINUOUS
 10
247.0873425168
 20
71.983893189
 11
247.3808482088
 21
72.277398881
  0
LINE
  5
316
100
AcDbEntity
  8
CURVE
100
AcDbLine
 62
7
  6
CONTINUOUS
 10
246.183068672
 20
70.6595979161
 11
246.2597065176
 21
70.7362357618
  0
LINE
  5
317
100
AcDbEntity
  8
CURVE
100
AcDbLine
 62
7
  6
CONTINUOUS
 10
246.5390442025
 20
71.0155734466
 11
247.0027398379
 21
71.479269082
  0
LINE
  5
318
100
AcDbEntity
  8
CURVE
100
AcDbLine
 62
7
  6
CONTINUOUS
 10
247.2018966711
 20
71.6784259152
 11
247.4947311839
 21
71.9712604281
  0
LINE
  5
319
100
AcDbEntity
  8
CURVE
100
AcDbLine
 62
7
  6
CONTINUOUS
 10
247.8940974419
 20
72.370626686
 11
248.3828831434
 21
72.8594123876
  0
LINE
  5
31A
100
AcDbEntity
  8
CURVE
100
AcDbLine
 62
7
  6
CONTINUOUS
 10
246.6030901
 20
70.6595979161
 11
246.9716175002
 21
71.0281253164
  0
LINE
  5
31B
100
AcDbEntity
  8
CURVE
100
AcDbLine
 62
7
  6
CONTINUOUS
 10
247.3164508253
 20
71.3729586414
 11
247.608614159
 21
71.6651219751
  0
LINE
  5
31C
100
AcDbEntity
  8
CURVE
100
AcDbLine
 62
7
  6
CONTINUOUS
 10
247.6410402934
 20
71.6975481095
 11
248.5553373019
 21
72.6118451181
  0
LINE
  5
31D
100
AcDbEntity
  8
CURVE
100
AcDbLine
 62
7
  6
CONTINUOUS
 10
247.4310049795
 20
71.0674913676
 11
248.0343351763
 21
71.6708215644
  0
LINE
  5
31E
100
AcDbEntity
  8
CURVE
100
AcDbLine
 62
7
  6
CONTINUOUS
 10
248.2103836391
 20
71.8468700272
 11
248.591255282
 21
72.2277416701
  0
LINE
  5
31F
100
AcDbEntity
  8
CURVE
100
AcDbLine
 62
7
  6
CONTINUOUS
 10
247.5455591337
 20
70.7620240938
 11
247.7750611667
 21
70.9915261268
  0
LINE
  5
320
100
AcDbEntity
  8
CURVE
100
AcDbLine
 62
7
  6
CONTINUOUS
 10
248.2363710368
 20
71.4528359969
 11
248.6271732621
 21
71.8436382222
  0
LINE
  5
321
100
AcDbEntity
  8
CURVE
100
AcDbLine
 62
7
  6
CONTINUOUS
 10
249.4346734537
 20
72.6511384138
 11
249.6429474275
 21
72.8594123876
  0
LINE
  5
322
100
AcDbEntity
  8
CURVE
100
AcDbLine
 62
7
  6
CONTINUOUS
 10
248.2623584346
 20
71.0588019666
 11
248.6630912422
 21
71.4595347743
  0
LINE
  5
323
100
AcDbEntity
  8
CURVE
100
AcDbLine
 62
7
  6
CONTINUOUS
 10
249.2427184408
 20
72.0391619729
 11
249.9720928124
 21
72.7685363444
  0
LINE
  5
324
100
AcDbEntity
  8
CURVE
100
AcDbLine
 62
7
  6
CONTINUOUS
 10
248.2883458323
 20
70.6647679363
 11
248.6990092223
 21
71.0754313263
  0
LINE
  5
325
100
AcDbEntity
  8
CURVE
100
AcDbLine
 62
7
  6
CONTINUOUS
 10
249.0507634279
 20
71.4271855319
 11
249.6492686323
 21
72.0256907363
  0
LINE
  5
326
100
AcDbEntity
  8
CURVE
100
AcDbLine
 62
7
  6
CONTINUOUS
 10
249.7473777223
 20
72.1237998263
 11
250.0707081933
 21
72.4471302974
  0
LINE
  5
327
100
AcDbEntity
  8
CURVE
100
AcDbLine
 62
7
  6
CONTINUOUS
 10
248.7031972401
 20
70.6595979161
 11
248.7349272024
 21
70.6913278784
  0
LINE
  5
328
100
AcDbEntity
  8
CURVE
100
AcDbLine
 62
7
  6
CONTINUOUS
 10
248.858808415
 20
70.815209091
 11
249.4858769301
 21
71.4422776061
  0
LINE
  5
329
100
AcDbEntity
  8
CURVE
100
AcDbLine
 62
7
  6
CONTINUOUS
 10
249.8336414343
 20
71.7900421103
 11
250.1693235743
 21
72.1257242504
  0
LINE
  5
32A
100
AcDbEntity
  8
CURVE
100
AcDbLine
 62
7
  6
CONTINUOUS
 10
250.754007612
 20
72.710408288
 11
250.896283538
 21
72.852684214
  0
LINE
  5
32B
100
AcDbEntity
  8
CURVE
100
AcDbLine
 62
7
  6
CONTINUOUS
 10
249.1232186682
 20
70.6595979161
 11
249.3213776342
 21
70.8577568822
  0
LINE
  5
32C
100
AcDbEntity
  8
CURVE
100
AcDbLine
 62
7
  6
CONTINUOUS
 10
249.5623795053
 20
71.0987587533
 11
249.9022009185
 21
71.4385801664
  0
LINE
  5
32D
100
AcDbEntity
  8
CURVE
100
AcDbLine
 62
7
  6
CONTINUOUS
 10
249.9199051462
 20
71.4562843942
 11
250.2679389553
 21
71.8043182033
  0
LINE
  5
32E
100
AcDbEntity
  8
CURVE
100
AcDbLine
 62
7
  6
CONTINUOUS
 10
250.754007612
 20
72.29038686
 11
251.3475936725
 21
72.8839729204
  0
LINE
  5
32F
100
AcDbEntity
  8
CURVE
100
AcDbLine
 62
250
  6
CONTINUOUS
 10
249.7134779797
 20
72.2549592722
 11
249.4848414186
 21
71.4385801664
  0
LINE
  5
330
100
AcDbEntity
  8
CURVE
100
AcDbLine
 62
250
  6
CONTINUOUS
 10
249.3909118991
 20
71.0987587533
 11
249.2642044763
 21
70.6595979161
  0
LINE
  5
331
100
AcDbEntity
  8
CURVE
100
AcDbLine
 62
250
  6
CONTINUOUS
 10
248.8099987827
 20
70.6595979161
 11
249.5000015132
 21
72.8594123876
  0
LINE
  5
332
100
AcDbEntity
  8
CURVE
100
AcDbLine
 62
250
  6
CONTINUOUS
 10
247.6186778844
 20
71.638068824
 11
248.077866054
 21
72.8594123876
  0
LINE
  5
333
100
AcDbEntity
  8
CURVE
100
AcDbLine
 62
250
  6
CONTINUOUS
 10
248.1943455725
 20
72.0900472797
 11
247.6483705497
 21
70.6595979161
  0
LINE
  5
334
100
AcDbEntity
  8
ASSI
100
AcDbLine
 62
7
  6
CONTINUOUS
 10
255.3991869502
 20
66.6324141645
 11
255.3847611347
 21
66.6169450303
  0
LINE
  5
335
100
AcDbEntity
  8
CURVE
100
AcDbLine
 62
7
  6
CONTINUOUS
 10
249.9824009334
 20
71.0987587533
 11
250.3665543363
 21
71.4829121563
  0
LINE
  5
336
100
AcDbEntity
  8
CURVE
100
AcDbLine
 62
7
  6
CONTINUOUS
 10
250.754007612
 20
71.870365432
 11
251.1961216871
 21
72.3124795071
  0
LINE
  5
337
100
AcDbEntity
  8
CURVE
100
AcDbLine
 62
7
  6
CONTINUOUS
 10
251.3889546184
 20
72.5053124384
 11
251.7355991767
 21
72.8519569967
  0
LINE
  5
338
100
AcDbEntity
  8
CURVE
100
AcDbLine
 62
7
  6
CONTINUOUS
 10
250.0985564263
 20
70.7948928182
 11
250.4651697173
 21
71.1615061093
  0
LINE
  5
339
100
AcDbEntity
  8
CURVE
100
AcDbLine
 62
7
  6
CONTINUOUS
 10
250.754007612
 20
71.450344004
 11
251.1961216871
 21
71.892458079
  0
LINE
  5
33A
100
AcDbEntity
  8
CURVE
100
AcDbLine
 62
7
  6
CONTINUOUS
 10
251.7260611889
 20
72.4223975809
 11
252.0293497306
 21
72.7256861225
  0
LINE
  5
33B
100
AcDbEntity
  8
CURVE
100
AcDbLine
 62
7
  6
CONTINUOUS
 10
250.3832829522
 20
70.6595979161
 11
250.5637850983
 21
70.8401000622
  0
LINE
  5
33C
100
AcDbEntity
  8
CURVE
100
AcDbLine
 62
7
  6
CONTINUOUS
 10
250.754007612
 20
71.0303225759
 11
251.2113476597
 21
71.4876626236
  0
LINE
  5
33D
100
AcDbEntity
  8
CURVE
100
AcDbLine
 62
7
  6
CONTINUOUS
 10
251.2441685934
 20
71.5204835573
 11
251.6396007455
 21
71.9159157094
  0
LINE
  5
33E
100
AcDbEntity
  8
CURVE
100
AcDbLine
 62
7
  6
CONTINUOUS
 10
251.7892691624
 20
72.0655841263
 11
252.2040264552
 21
72.4803414191
  0
LINE
  5
33F
100
AcDbEntity
  8
CURVE
100
AcDbLine
 62
7
  6
CONTINUOUS
 10
250.8033039636
 20
70.6595974995
 11
251.2113476597
 21
71.0676411956
  0
LINE
  5
340
100
AcDbEntity
  8
CURVE
100
AcDbLine
 62
7
  6
CONTINUOUS
 10
251.6130130004
 20
71.4693065363
 11
252.2280004733
 21
72.0842940092
  0
LINE
  5
341
100
AcDbEntity
  8
CURVE
100
AcDbLine
 62
7
  6
CONTINUOUS
 10
251.7570866943
 20
71.1933588022
 11
252.0979804599
 21
71.5342525677
  0
LINE
  5
342
100
AcDbEntity
  8
CURVE
100
AcDbLine
 62
7
  6
CONTINUOUS
 10
251.8534166523
 20
70.8696673321
 11
252.2075395065
 21
71.2237901863
  0
LINE
  5
343
100
AcDbEntity
  8
CURVE
100
AcDbLine
 62
7
  6
CONTINUOUS
 10
252.0633682477
 20
70.6595974995
 11
252.2952559799
 21
70.8914852317
  0
LINE
  5
344
100
AcDbEntity
  8
ASSI
100
AcDbLine
 62
7
  6
CONTINUOUS
 10
254.9559388905
 20
67.651844527
 11
255.3504704401
 21
68.0463760766
  0
LINE
  5
345
100
AcDbEntity
  8
ASSI
100
AcDbLine
 62
7
  6
CONTINUOUS
 10
255.3991869502
 20
66.6324141645
 11
256.3699008026
 21
67.6031280169
  0
LINE
  5
346
100
AcDbEntity
  8
ASSI
100
AcDbLine
 62
7
  6
CONTINUOUS
 10
256.5792014803
 20
67.423722289
 11
255.5785926781
 21
66.4231134868
  0
LINE
  5
347
100
AcDbEntity
  8
ASSI
100
AcDbLine
 62
7
  6
CONTINUOUS
 10
256.3853699368
 20
67.6175538324
 11
256.3699008026
 21
67.6031280169
  0
LINE
  5
348
100
AcDbEntity
  8
ASSI
100
AcDbLine
 62
7
  6
CONTINUOUS
 10
256.3699008026
 20
155.2430989568
 11
256.3853699368
 21
155.2286731413
  0
LINE
  5
349
100
AcDbEntity
  8
ASSI
100
AcDbLine
 62
7
  6
CONTINUOUS
 10
255.3504704401
 20
154.7998508971
 11
254.9559388905
 21
155.1943824467
  0
LINE
  5
34A
100
AcDbEntity
  8
ASSI
100
AcDbLine
 62
7
  6
CONTINUOUS
 10
256.3699008026
 20
155.2430989568
 11
255.3991869502
 21
156.2138128092
  0
LINE
  5
34B
100
AcDbEntity
  8
ASSI
100
AcDbLine
 62
7
  6
CONTINUOUS
 10
255.5785926781
 20
156.4231134868
 11
256.5792014803
 21
155.4225046847
  0
LINE
  5
34C
100
AcDbEntity
  8
ASSI
100
AcDbLine
 62
7
  6
CONTINUOUS
 10
255.3847611347
 20
156.2292819434
 11
255.3991869502
 21
156.2138128092
  0
LWPOLYLINE
  5
34D
100
AcDbEntity
  8
0
100
AcDbPolyline
 62
7
  6
CONTINUOUS
 90
3
 70
0
 43
0.3500000006
 10
47.258081131
 20
175.8795466919
 10
48.1152236023
 20
176.7367027588
 10
48.1152236023
 20
173.7367018433
  0
LWPOLYLINE
  5
34E
100
AcDbEntity
  8
0
100
AcDbPolyline
 62
7
  6
CONTINUOUS
 90
3
 70
0
 43
0.3500000006
 10
53.0437939453
 20
175.8795466919
 10
53.9009364166
 20
176.7367027588
 10
53.9009364166
 20
173.7367018433
  0
LWPOLYLINE
  5
34F
100
AcDbEntity
  8
0
100
AcDbPolyline
 62
7
  6
CONTINUOUS
 90
3
 70
0
 43
0.3500000006
 10
52.9737767029
 20
168.1629667969
 10
53.8309191742
 20
169.0201047363
 10
53.8309191742
 20
166.0201038208
  0
LINE
  5
350
100
AcDbEntity
  8
ASSI
100
AcDbLine
 62
7
  6
CONTINUOUS
 10
59.6247847415
 20
66.6169450303
 11
65.1753939145
 21
66.4231134868
  0
LINE
  5
351
100
AcDbEntity
  8
ASSI
100
AcDbLine
 62
7
  6
CONTINUOUS
 10
59.6247847415
 20
67.6175538324
 11
65.1753939145
 21
67.423722289
  0
LINE
  5
352
100
AcDbEntity
  8
0
100
AcDbLine
 62
7
  6
CONTINUOUS
 10
65.1753939145
 20
68.665069574
 11
65.7753939145
 21
68.6231134868
  0
LINE
  5
353
100
AcDbEntity
  8
ASSI
100
AcDbLine
 62
7
  6
CONTINUOUS
 10
58.6253939145
 20
154.7998508971
 11
59.6098463722
 21
155.2430989568
  0
LINE
  5
354
100
AcDbEntity
  8
0
100
AcDbLine
 62
250
  6
CONTINUOUS
 10
65.1753939145
 20
70.2611720544
 11
65.7753939145
 21
70.2192159673
  0
LINE
  5
355
100
AcDbEntity
  8
ASSI
100
AcDbLine
 62
7
  6
CONTINUOUS
 10
58.6253939145
 20
68.0463760766
 11
59.6098463722
 21
67.6031280169
  0
LINE
  5
356
100
AcDbEntity
  8
ASSI
100
AcDbLine
 62
7
  6
CONTINUOUS
 10
58.6253939145
 20
155.1943824467
 11
59.6247847415
 21
156.2292819434
  0
LINE
  5
357
100
AcDbEntity
  8
ASSI
100
AcDbLine
 62
7
  6
CONTINUOUS
 10
58.6253939145
 20
67.651844527
 11
59.6247847415
 21
66.6169450303
  0
LWPOLYLINE
  5
358
100
AcDbEntity
  8
0
100
AcDbPolyline
 62
7
  6
CONTINUOUS
 90
3
 70
0
 43
0.3500000006
 10
52.0437936401
 20
174.0224084473
 10
51.9723669891
 20
173.8081239624
 10
51.8295091553
 20
173.5224173584
  0
LWPOLYLINE
  5
359
100
AcDbEntity
  8
0
100
AcDbPolyline
 62
7
  6
CONTINUOUS
 90
3
 70
0
 43
0.3500000006
 10
51.9737763977
 20
166.3058104248
 10
51.9023497467
 20
166.0915259399
 10
51.7594919128
 20
165.8058193359
  0
LINE
  5
35A
100
AcDbEntity
  8
0
100
AcDbLine
 62
7
  6
CONTINUOUS
 10
66.7012310655
 20
84.2729840481
 11
65.7753939145
 21
84.2713681558
  0
LINE
  5
35B
100
AcDbEntity
  8
0
100
AcDbLine
 62
250
  6
CONTINUOUS
 10
66.7011664982
 20
84.4954342429
 11
65.7753939145
 21
84.4950160484
  0
LINE
  5
35C
100
AcDbEntity
  8
0
100
AcDbLine
 62
7
  6
CONTINUOUS
 10
68.2254431467
 20
85.0815496265
 11
65.7753939145
 21
85.067295657
  0
LINE
  5
35D
100
AcDbEntity
  8
0
100
AcDbLine
 62
250
  6
CONTINUOUS
 10
68.2254431467
 20
85.1694161051
 11
65.7753939145
 21
85.1551621357
  0
LINE
  5
35E
100
AcDbEntity
  8
0
100
AcDbLine
 62
7
  6
CONTINUOUS
 10
66.7255182934
 20
86.2231134868
 11
65.7753939145
 21
86.2231134868
  0
LINE
  5
35F
100
AcDbEntity
  8
0
100
AcDbLine
 62
7
  6
CONTINUOUS
 10
65.7753939145
 20
86.3731134868
 11
65.9253939145
 21
86.3731134868
  0
LINE
  5
360
100
AcDbEntity
  8
0
100
AcDbLine
 62
7
  6
CONTINUOUS
 10
66.2253939145
 20
86.3731134868
 11
66.4253939145
 21
86.3731134868
  0
LINE
  5
361
100
AcDbEntity
  8
0
100
AcDbLine
 62
7
  6
CONTINUOUS
 10
65.7753939145
 20
85.6672936123
 11
68.5858611057
 21
85.5431268192
  0
LINE
  5
362
100
AcDbEntity
  8
0
100
AcDbLine
 62
7
  6
CONTINUOUS
 10
66.8250220124
 20
86.2181506771
 11
68.7753939145
 21
86.0231134868
  0
LWPOLYLINE
  5
363
100
AcDbEntity
  8
0
100
AcDbPolyline
 62
250
  6
CONTINUOUS
 90
4
 70
0
 10
68.2650667317
 20
137.7090427593
 10
68.2519912398
 20
137.6995787422
 10
68.2387589768
 20
137.6888149502
 10
68.2254431467
 20
137.6768108685
  0
LWPOLYLINE
  5
364
100
AcDbEntity
  8
0
100
AcDbPolyline
 62
250
  6
CONTINUOUS
 90
4
 70
0
 10
68.2650767382
 20
85.13717743
 10
68.2519991896
 20
85.1466421191
 10
68.2387635831
 20
85.1574080731
 10
68.2254431467
 20
85.1694161051
  0
LWPOLYLINE
  5
365
100
AcDbEntity
  8
0
100
AcDbPolyline
 62
7
  6
CONTINUOUS
 90
4
 70
0
 43
0.3500000006
 10
48.9023488312
 20
168.3772512817
 10
48.9023488312
 20
169.0201047363
 10
50.4023492889
 20
169.0201047363
 10
49.5452068176
 20
166.0201038208
  0
LWPOLYLINE
  5
366
100
AcDbEntity
  8
0
100
AcDbPolyline
 62
7
  6
CONTINUOUS
 90
13
 70
0
 43
0.3500000006
 10
48.9723660736
 20
174.5938397827
 10
48.9723660736
 20
175.8795466919
 10
49.1866505585
 20
176.3081337891
 10
49.6152240601
 20
176.7367027588
 10
49.8295085449
 20
176.7367027588
 10
50.2580775146
 20
176.3081337891
 10
50.4723665314
 20
175.8795466919
 10
50.4723665314
 20
174.5938397827
 10
50.2580775146
 20
174.165270813
 10
49.8295085449
 20
173.7367018433
 10
49.6152240601
 20
173.7367018433
 10
49.1866505585
 20
174.165270813
 10
48.9723660736
 20
174.5938397827
  0
LINE
  5
367
100
AcDbEntity
  8
0
100
AcDbLine
 62
7
  6
CONTINUOUS
 10
65.9253939145
 20
136.4731134868
 11
66.0753939145
 21
136.6231134868
  0
LINE
  5
368
100
AcDbEntity
  8
0
100
AcDbLine
 62
7
  6
CONTINUOUS
 10
66.4253939145
 20
136.4731134868
 11
66.5753939145
 21
136.6231134868
  0
LINE
  5
369
100
AcDbEntity
  8
0
100
AcDbLine
 62
7
  6
CONTINUOUS
 10
65.9253939145
 20
86.3731134868
 11
66.0753939145
 21
86.2231134868
  0
LINE
  5
36A
100
AcDbEntity
  8
0
100
AcDbLine
 62
7
  6
CONTINUOUS
 10
66.4253939145
 20
86.3731134868
 11
66.5753939145
 21
86.2231134868
  0
LWPOLYLINE
  5
36B
100
AcDbEntity
  8
0
100
AcDbPolyline
 62
250
  6
CONTINUOUS
 90
9
 70
0
 10
66.7947206007
 20
84.3493025215
 10
66.8021102869
 20
84.3399067753
 10
66.8092942064
 20
84.3313099826
 10
66.8162008061
 20
84.3236775893
 10
66.8226730248
 20
84.3172690817
 10
66.8285271933
 20
84.3123424032
 10
66.8336422357
 20
84.3090730043
 10
66.8379351828
 20
84.30760581
 10
66.8413001481
 20
84.3080976908
  0
LWPOLYLINE
  5
36C
100
AcDbEntity
  8
0
100
AcDbPolyline
 62
250
  6
CONTINUOUS
 90
19
 70
0
 10
66.7011664982
 20
138.3507927307
 10
66.7096281944
 20
138.365478735
 10
66.7181740937
 20
138.3800598453
 10
66.7267722238
 20
138.3944696931
 10
66.7353263553
 20
138.4085429692
 10
66.7438636111
 20
138.4223100789
 10
66.7525243671
 20
138.4359601827
 10
66.76126294
 20
138.449383122
 10
66.7700091847
 20
138.4624408397
 10
66.7788322049
 20
138.4751893083
 10
66.7876837346
 20
138.4874929078
 10
66.7964017435
 20
138.4990540885
 10
66.8048529575
 20
138.5096220502
 10
66.8129568215
 20
138.5190033055
 10
66.8205072828
 20
138.5268627179
 10
66.8272219337
 20
138.5328403168
 10
66.832964641
 20
138.5367741913
 10
66.837688071
 20
138.5385763957
 10
66.8413001481
 20
138.5381292829
  0
LWPOLYLINE
  5
36D
100
AcDbEntity
  8
0
100
AcDbPolyline
 62
7
  6
CONTINUOUS
 90
7
 70
0
 10
68.7475349994
 20
85.4465517694
 10
68.7558061447
 20
85.4324978475
 10
68.7627176894
 20
85.419415156
 10
68.7681932553
 20
85.4073036949
 10
68.7721663346
 20
85.3961634641
 10
68.7745812263
 20
85.3859944637
 10
68.7753939145
 20
85.3767966936
  0
LWPOLYLINE
  5
36E
100
AcDbEntity
  8
0
100
AcDbPolyline
 62
250
  6
CONTINUOUS
 90
14
 70
0
 10
66.7011664982
 20
84.4954342429
 10
66.7077580489
 20
84.4839559115
 10
66.7144779036
 20
84.4724096212
 10
66.7213100039
 20
84.4608339972
 10
66.7281994308
 20
84.4493293348
 10
66.7351639263
 20
84.4378788267
 10
66.7422899811
 20
84.4263647007
 10
66.7495629689
 20
84.4148354933
 10
66.7569347412
 20
84.4033883791
 10
66.7644278733
 20
84.3920156326
 10
66.7719966991
 20
84.3808190074
 10
66.77958574
 20
84.3699152351
 10
66.7871838529
 20
84.3593610504
 10
66.7947206007
 20
84.3493025215
  0
LINE
  5
36F
100
AcDbEntity
  8
ASSI
100
AcDbLine
 62
7
  6
CONTINUOUS
 10
58.6253939145
 20
67.651844527
 11
58.6253939145
 21
155.1943824467
  0
LINE
  5
370
100
AcDbEntity
  8
ASSI
100
AcDbLine
 62
7
  6
CONTINUOUS
 10
59.6098463722
 20
66.6324141645
 11
59.6098463722
 21
67.6031280169
  0
LINE
  5
371
100
AcDbEntity
  8
ASSI
100
AcDbLine
 62
7
  6
CONTINUOUS
 10
59.6098463722
 20
155.2430989568
 11
59.6098463722
 21
156.2138128092
  0
LINE
  5
372
100
AcDbEntity
  8
ASSI
100
AcDbLine
 62
7
  6
CONTINUOUS
 10
59.6247847415
 20
67.6175538324
 11
59.6247847415
 21
155.2286731413
  0
LINE
  5
373
100
AcDbEntity
  8
ASSI
100
AcDbLine
 62
7
  6
CONTINUOUS
 10
65.1753939145
 20
66.4231134868
 11
65.1753939145
 21
156.4231134868
  0
LINE
  5
374
100
AcDbEntity
  8
0
100
AcDbLine
 62
7
  6
CONTINUOUS
 10
65.7753939145
 20
68.6231134868
 11
65.7753939145
 21
154.2231134868
  0
LINE
  5
375
100
AcDbEntity
  8
0
100
AcDbLine
 62
250
  6
CONTINUOUS
 10
66.7012310461
 20
84.2729840481
 11
66.7011664982
 21
84.4954342429
  0
LINE
  5
376
100
AcDbEntity
  8
0
100
AcDbLine
 62
250
  6
CONTINUOUS
 10
66.7011664982
 20
138.3507927307
 11
66.7012310436
 21
138.5720992013
  0
LWPOLYLINE
  5
377
100
AcDbEntity
  8
0
100
AcDbPolyline
 62
7
  6
CONTINUOUS
 90
7
 70
0
 10
68.7753939145
 20
137.4694302801
 10
68.7745813549
 20
137.4602334258
 10
68.7721667435
 20
137.4500649749
 10
68.768193939
 20
137.4389249273
 10
68.7627184902
 20
137.426813283
 10
68.7558067613
 20
137.413730042
 10
68.7475349994
 20
137.3996752043
  0
LWPOLYLINE
  5
378
100
AcDbEntity
  8
0
100
AcDbPolyline
 62
250
  6
CONTINUOUS
 90
3
 70
0
 10
68.2255421672
 20
137.7601187727
 10
68.2254995131
 20
137.7635353562
 10
68.2254431467
 20
137.7646773472
  0
LINE
  5
379
100
AcDbEntity
  8
0
100
AcDbLine
 62
250
  6
CONTINUOUS
 10
68.2255851456
 20
137.746582534
 11
68.2255421672
 21
137.7601187727
  0
LINE
  5
37A
100
AcDbEntity
  8
0
100
AcDbLine
 62
250
  6
CONTINUOUS
 10
68.2255851456
 20
85.0996444397
 11
68.2254431467
 21
85.1694161051
  0
LINE
  5
37B
100
AcDbEntity
  8
0
100
AcDbLine
 62
250
  6
CONTINUOUS
 10
68.5858611057
 20
137.3031001545
 11
68.5858611057
 21
136.804160206
  0
LINE
  5
37C
100
AcDbEntity
  8
0
100
AcDbLine
 62
250
  6
CONTINUOUS
 10
68.5858611057
 20
86.0420667677
 11
68.5858611057
 21
85.5431268192
  0
LINE
  5
37D
100
AcDbEntity
  8
0
100
AcDbLine
 62
7
  6
CONTINUOUS
 10
68.7753939145
 20
137.5114778272
 11
68.7753939145
 21
136.8231134868
  0
LINE
  5
37E
100
AcDbEntity
  8
0
100
AcDbLine
 62
7
  6
CONTINUOUS
 10
68.7753939145
 20
86.0231134868
 11
68.7753939145
 21
85.3347491465
  0
LINE
  5
37F
100
AcDbEntity
  8
0
100
AcDbLine
 62
250
  6
CONTINUOUS
 10
68.2254431467
 20
137.6768108685
 11
68.2255851456
 21
137.746582534
  0
LWPOLYLINE
  5
380
100
AcDbEntity
  8
0
100
AcDbPolyline
 62
250
  6
CONTINUOUS
 90
4
 70
0
 10
68.2254431467
 20
85.0815496265
 10
68.2254995131
 20
85.0826916175
 10
68.2255421672
 20
85.086108201
 10
68.2255851456
 20
85.0996444397
  0
LWPOLYLINE
  5
381
100
AcDbEntity
  8
0
100
AcDbPolyline
 62
7
  6
CONTINUOUS
 90
10
 70
0
 43
0.3500000006
 10
51.9023497467
 20
166.5201130371
 10
51.9737763977
 20
166.3772506714
 10
51.9737763977
 20
166.3058104248
 10
51.8309185638
 20
166.1629661865
 10
51.7594919128
 20
166.1629661865
 10
51.68806073
 20
166.2343883057
 10
51.68806073
 20
166.3058104248
 10
51.7594919128
 20
166.4486727905
 10
51.8309185638
 20
166.5201130371
 10
51.9023497467
 20
166.5201130371
  0
LWPOLYLINE
  5
382
100
AcDbEntity
  8
0
100
AcDbPolyline
 62
7
  6
CONTINUOUS
 90
10
 70
0
 43
0.3500000006
 10
51.9723669891
 20
174.2366929321
 10
52.0437936401
 20
174.0938305664
 10
52.0437936401
 20
174.0224084473
 10
51.9009358063
 20
173.8795460815
 10
51.8295091553
 20
173.8795460815
 10
51.7580779724
 20
173.9509863281
 10
51.7580779724
 20
174.0224084473
 10
51.8295091553
 20
174.165270813
 10
51.9009358063
 20
174.2366929321
 10
51.9723669891
 20
174.2366929321
  0
LINE
  5
383
100
AcDbEntity
  8
0
100
AcDbLine
 62
7
  6
CONTINUOUS
 10
66.0753939145
 20
86.2231134868
 11
66.2253939145
 21
86.3731134868
  0
LINE
  5
384
100
AcDbEntity
  8
0
100
AcDbLine
 62
7
  6
CONTINUOUS
 10
66.0753939145
 20
136.6231134868
 11
66.2253939145
 21
136.4731134868
  0
LINE
  5
385
100
AcDbEntity
  8
0
100
AcDbLine
 62
250
  6
CONTINUOUS
 10
66.7011664982
 20
84.4954342429
 11
67.8006853581
 21
85.079078458
  0
LINE
  5
386
100
AcDbEntity
  8
0
100
AcDbLine
 62
250
  6
CONTINUOUS
 10
68.2254431467
 20
85.1694161051
 11
68.7475349994
 21
85.4465517694
  0
LINE
  5
387
100
AcDbEntity
  8
0
100
AcDbLine
 62
7
  6
CONTINUOUS
 10
66.8404058762
 20
84.3076229953
 11
68.7753939145
 21
85.3347491465
  0
LWPOLYLINE
  5
388
100
AcDbEntity
  8
0
100
AcDbPolyline
 62
250
  6
CONTINUOUS
 90
10
 70
0
 10
68.3643550757
 20
85.1165624021
 10
68.3557014715
 20
85.1129105436
 10
68.3463210741
 20
85.1107489458
 10
68.336266957
 20
85.1100872175
 10
68.3255988821
 20
85.110926195
 10
68.3143739705
 20
85.1132584719
 10
68.3026448531
 20
85.1170726821
 10
68.2904714713
 20
85.1223512986
 10
68.2779248149
 20
85.1290654345
 10
68.2650767382
 20
85.13717743
  0
LINE
  5
389
100
AcDbEntity
  8
0
100
AcDbLine
 62
7
  6
CONTINUOUS
 10
66.8250220124
 20
136.6280762966
 11
68.7753939145
 21
136.8231134868
  0
LINE
  5
38A
100
AcDbEntity
  8
0
100
AcDbLine
 62
7
  6
CONTINUOUS
 10
65.7753939145
 20
137.1789333614
 11
68.5858611057
 21
137.3031001545
  0
LINE
  5
38B
100
AcDbEntity
  8
0
100
AcDbLine
 62
7
  6
CONTINUOUS
 10
65.7753939145
 20
136.4731134868
 11
65.9253939145
 21
136.4731134868
  0
LINE
  5
38C
100
AcDbEntity
  8
0
100
AcDbLine
 62
7
  6
CONTINUOUS
 10
66.2253939145
 20
136.4731134868
 11
66.4253939145
 21
136.4731134868
  0
LINE
  5
38D
100
AcDbEntity
  8
0
100
AcDbLine
 62
7
  6
CONTINUOUS
 10
65.7753939145
 20
136.6231134868
 11
66.7255182934
 21
136.6231134868
  0
LINE
  5
38E
100
AcDbEntity
  8
0
100
AcDbLine
 62
250
  6
CONTINUOUS
 10
66.7011664982
 20
138.3507927307
 11
65.7753939145
 21
138.3512109253
  0
LINE
  5
38F
100
AcDbEntity
  8
0
100
AcDbLine
 62
7
  6
CONTINUOUS
 10
66.7012310655
 20
138.5732429256
 11
65.7753939145
 21
138.5748588179
  0
LINE
  5
390
100
AcDbEntity
  8
0
100
AcDbLine
 62
250
  6
CONTINUOUS
 10
68.2254431467
 20
137.6768108685
 11
65.7753939145
 21
137.691064838
  0
LINE
  5
391
100
AcDbEntity
  8
0
100
AcDbLine
 62
7
  6
CONTINUOUS
 10
68.2254431467
 20
137.7646773472
 11
65.7753939145
 21
137.7789313167
  0
LWPOLYLINE
  5
392
100
AcDbEntity
  8
0
100
AcDbPolyline
 62
250
  6
CONTINUOUS
 90
10
 70
0
 10
68.3643550757
 20
137.7296645716
 10
68.3557107391
 20
137.7333134421
 10
68.3463365848
 20
137.7354757732
 10
68.3362846205
 20
137.7361399062
 10
68.325611028
 20
137.7353025375
 10
68.3143745686
 20
137.7329686619
 10
68.3026360397
 20
137.7291509388
 10
68.2904596435
 20
137.7238699366
 10
68.2779132705
 20
137.7171547988
 10
68.2650667317
 20
137.7090427593
  0
LINE
  5
393
100
AcDbEntity
  8
0
100
AcDbLine
 62
250
  6
CONTINUOUS
 10
67.8006853581
 20
137.7671485157
 11
66.7011664982
 21
138.3507927307
  0
LINE
  5
394
100
AcDbEntity
  8
0
100
AcDbLine
 62
250
  6
CONTINUOUS
 10
68.7475349994
 20
137.3996752043
 11
68.2254431467
 21
137.6768108685
  0
LINE
  5
395
100
AcDbEntity
  8
0
100
AcDbLine
 62
7
  6
CONTINUOUS
 10
68.7753939145
 20
137.5114778272
 11
66.8404058762
 21
138.5386039784
  0
LINE
  5
396
100
AcDbEntity
  8
ASSI
100
AcDbLine
 62
7
  6
CONTINUOUS
 10
59.6247847415
 20
67.6175538324
 11
59.6098463722
 21
67.6031280169
  0
LINE
  5
397
100
AcDbEntity
  8
ASSI
100
AcDbLine
 62
7
  6
CONTINUOUS
 10
59.6098463722
 20
155.2430989568
 11
59.6247847415
 21
155.2286731413
  0
LINE
  5
398
100
AcDbEntity
  8
0
100
AcDbLine
 62
250
  6
CONTINUOUS
 10
65.1753939145
 20
152.5850549193
 11
65.7753939145
 21
152.6270110064
  0
LINE
  5
399
100
AcDbEntity
  8
0
100
AcDbLine
 62
7
  6
CONTINUOUS
 10
65.1753939145
 20
154.1811573997
 11
65.7753939145
 21
154.2231134868
  0
LINE
  5
39A
100
AcDbEntity
  8
ASSI
100
AcDbLine
 62
7
  6
CONTINUOUS
 10
59.6247847415
 20
155.2286731413
 11
65.1753939145
 21
155.4225046847
  0
LINE
  5
39B
100
AcDbEntity
  8
ASSI
100
AcDbLine
 62
7
  6
CONTINUOUS
 10
59.6247847415
 20
156.2292819434
 11
65.1753939145
 21
156.4231134868
  0
LWPOLYLINE
  5
39C
100
AcDbEntity
  8
0
100
AcDbPolyline
 62
7
  6
CONTINUOUS
 90
8
 70
0
 43
0.3500000006
 10
54.6880616455
 20
166.0201038208
 10
55.5452041168
 20
166.0201038208
 10
55.9737776184
 20
166.4486727905
 10
55.9737776184
 20
167.30581073
 10
55.5452041168
 20
167.7343978271
 10
54.6880616455
 20
167.7343978271
 10
54.6880616455
 20
169.0201047363
 10
55.9737776184
 20
169.0201047363
  0
LWPOLYLINE
  5
39D
100
AcDbEntity
  8
0
100
AcDbPolyline
 62
7
  6
CONTINUOUS
 90
8
 70
0
 43
0.3500000006
 10
54.7580788879
 20
173.7367018433
 10
55.6152213593
 20
173.7367018433
 10
56.0437948608
 20
174.165270813
 10
56.0437948608
 20
175.0224087524
 10
55.6152213593
 20
175.4509777222
 10
54.7580788879
 20
175.4509777222
 10
54.7580788879
 20
176.7367027588
 10
56.0437948608
 20
176.7367027588
  0
ARC
  5
39E
100
AcDbEntity
  8
SMUSSO
100
AcDbCircle
 62
7
  6
CONTINUOUS
 10
154.4292014803
 20
109.4231134868
 40
4.7
100
AcDbArc
 50
180.0
 51
360.0
  0
ARC
  5
39F
100
AcDbEntity
  8
SMUSSO
100
AcDbCircle
 62
7
  6
CONTINUOUS
 10
131.9292014803
 20
109.4231134868
 40
4.7
100
AcDbArc
 50
180.0
 51
360.0
  0
ARC
  5
3A0
100
AcDbEntity
  8
ASSI
100
AcDbCircle
 62
7
  6
CONTINUOUS
 10
131.9292014803
 20
109.4231134868
 40
4.7
100
AcDbArc
 50
180.0
 51
360.0
  0
ARC
  5
3A1
100
AcDbEntity
  8
ASSI
100
AcDbCircle
 62
7
  6
CONTINUOUS
 10
154.4292014803
 20
109.4231134868
 40
4.7
100
AcDbArc
 50
180.0
 51
360.0
  0
ARC
  5
3A2
100
AcDbEntity
  8
SMUSSO
100
AcDbCircle
 62
7
  6
CONTINUOUS
 10
131.9292014803
 20
109.4231134868
 40
3.5
100
AcDbArc
 50
180.0
 51
360.0
  0
ARC
  5
3A3
100
AcDbEntity
  8
SMUSSO
100
AcDbCircle
 62
7
  6
CONTINUOUS
 10
154.4292014803
 20
109.4231134868
 40
3.5
100
AcDbArc
 50
180.0
 51
360.0
  0
ARC
  5
3A4
100
AcDbEntity
  8
ASSI
100
AcDbCircle
 62
7
  6
CONTINUOUS
 10
131.9292014803
 20
109.4231134868
 40
3.5
100
AcDbArc
 50
180.0
 51
360.0
  0
ARC
  5
3A5
100
AcDbEntity
  8
ASSI
100
AcDbCircle
 62
7
  6
CONTINUOUS
 10
154.4292014803
 20
109.4231134868
 40
3.5
100
AcDbArc
 50
180.0
 51
360.0
  0
ARC
  5
3A6
100
AcDbEntity
  8
SMUSSO
100
AcDbCircle
 62
7
  6
CONTINUOUS
 10
154.4292014803
 20
113.4231134868
 40
4.7
100
AcDbArc
 50
0.0
 51
180.0
  0
ARC
  5
3A7
100
AcDbEntity
  8
SMUSSO
100
AcDbCircle
 62
7
  6
CONTINUOUS
 10
131.9292014803
 20
113.4231134868
 40
4.7
100
AcDbArc
 50
0.0
 51
180.0
  0
ARC
  5
3A8
100
AcDbEntity
  8
ASSI
100
AcDbCircle
 62
7
  6
CONTINUOUS
 10
131.9292014803
 20
113.4231134868
 40
4.7
100
AcDbArc
 50
0.0
 51
180.0
  0
ARC
  5
3A9
100
AcDbEntity
  8
ASSI
100
AcDbCircle
 62
7
  6
CONTINUOUS
 10
154.4292014803
 20
113.4231134868
 40
4.7
100
AcDbArc
 50
0.0
 51
180.0
  0
ARC
  5
3AA
100
AcDbEntity
  8
SMUSSO
100
AcDbCircle
 62
7
  6
CONTINUOUS
 10
131.9292014803
 20
113.4231134868
 40
3.5
100
AcDbArc
 50
0.0
 51
180.0
  0
ARC
  5
3AB
100
AcDbEntity
  8
SMUSSO
100
AcDbCircle
 62
7
  6
CONTINUOUS
 10
154.4292014803
 20
113.4231134868
 40
3.5
100
AcDbArc
 50
0.0
 51
180.0
  0
ARC
  5
3AC
100
AcDbEntity
  8
ASSI
100
AcDbCircle
 62
7
  6
CONTINUOUS
 10
131.9292014803
 20
113.4231134868
 40
3.5
100
AcDbArc
 50
0.0
 51
180.0
  0
ARC
  5
3AD
100
AcDbEntity
  8
ASSI
100
AcDbCircle
 62
7
  6
CONTINUOUS
 10
154.4292014803
 20
113.4231134868
 40
3.5
100
AcDbArc
 50
0.0
 51
180.0
  0
ARC
  5
3AE
100
AcDbEntity
  8
SMUSSO
100
AcDbCircle
 62
7
  6
CONTINUOUS
 10
176.9292014803
 20
109.4231134868
 40
4.7
100
AcDbArc
 50
180.0
 51
360.0
  0
ARC
  5
3AF
100
AcDbEntity
  8
SMUSSO
100
AcDbCircle
 62
7
  6
CONTINUOUS
 10
221.9292014803
 20
109.4231134868
 40
4.7
100
AcDbArc
 50
180.0
 51
360.0
  0
ARC
  5
3B0
100
AcDbEntity
  8
SMUSSO
100
AcDbCircle
 62
7
  6
CONTINUOUS
 10
199.4292014803
 20
109.4231134868
 40
4.7
100
AcDbArc
 50
180.0
 51
360.0
  0
ARC
  5
3B1
100
AcDbEntity
  8
ASSI
100
AcDbCircle
 62
7
  6
CONTINUOUS
 10
176.9292014803
 20
109.4231134868
 40
4.7
100
AcDbArc
 50
180.0
 51
360.0
  0
ARC
  5
3B2
100
AcDbEntity
  8
ASSI
100
AcDbCircle
 62
7
  6
CONTINUOUS
 10
199.4292014803
 20
109.4231134868
 40
4.7
100
AcDbArc
 50
180.0
 51
360.0
  0
ARC
  5
3B3
100
AcDbEntity
  8
ASSI
100
AcDbCircle
 62
7
  6
CONTINUOUS
 10
221.9292014803
 20
109.4231134868
 40
4.7
100
AcDbArc
 50
180.0
 51
360.0
  0
ARC
  5
3B4
100
AcDbEntity
  8
SMUSSO
100
AcDbCircle
 62
7
  6
CONTINUOUS
 10
176.9292014803
 20
109.4231134868
 40
3.5
100
AcDbArc
 50
180.0
 51
360.0
  0
ARC
  5
3B5
100
AcDbEntity
  8
SMUSSO
100
AcDbCircle
 62
7
  6
CONTINUOUS
 10
199.4292014803
 20
109.4231134868
 40
3.5
100
AcDbArc
 50
180.0
 51
360.0
  0
ARC
  5
3B6
100
AcDbEntity
  8
SMUSSO
100
AcDbCircle
 62
7
  6
CONTINUOUS
 10
221.9292014803
 20
109.4231134868
 40
3.5
100
AcDbArc
 50
180.0
 51
360.0
  0
ARC
  5
3B7
100
AcDbEntity
  8
ASSI
100
AcDbCircle
 62
7
  6
CONTINUOUS
 10
176.9292014803
 20
109.4231134868
 40
3.5
100
AcDbArc
 50
180.0
 51
360.0
  0
ARC
  5
3B8
100
AcDbEntity
  8
ASSI
100
AcDbCircle
 62
7
  6
CONTINUOUS
 10
199.4292014803
 20
109.4231134868
 40
3.5
100
AcDbArc
 50
180.0
 51
360.0
  0
ARC
  5
3B9
100
AcDbEntity
  8
ASSI
100
AcDbCircle
 62
7
  6
CONTINUOUS
 10
221.9292014803
 20
109.4231134868
 40
3.5
100
AcDbArc
 50
180.0
 51
360.0
  0
ARC
  5
3BA
100
AcDbEntity
  8
SMUSSO
100
AcDbCircle
 62
7
  6
CONTINUOUS
 10
176.9292014803
 20
113.4231134868
 40
4.7
100
AcDbArc
 50
0.0
 51
180.0
  0
ARC
  5
3BB
100
AcDbEntity
  8
SMUSSO
100
AcDbCircle
 62
7
  6
CONTINUOUS
 10
221.9292014803
 20
113.4231134868
 40
4.7
100
AcDbArc
 50
0.0
 51
180.0
  0
ARC
  5
3BC
100
AcDbEntity
  8
SMUSSO
100
AcDbCircle
 62
7
  6
CONTINUOUS
 10
199.4292014803
 20
113.4231134868
 40
4.7
100
AcDbArc
 50
0.0
 51
180.0
  0
ARC
  5
3BD
100
AcDbEntity
  8
ASSI
100
AcDbCircle
 62
7
  6
CONTINUOUS
 10
176.9292014803
 20
113.4231134868
 40
4.7
100
AcDbArc
 50
0.0
 51
180.0
  0
ARC
  5
3BE
100
AcDbEntity
  8
ASSI
100
AcDbCircle
 62
7
  6
CONTINUOUS
 10
199.4292014803
 20
113.4231134868
 40
4.7
100
AcDbArc
 50
0.0
 51
180.0
  0
ARC
  5
3BF
100
AcDbEntity
  8
ASSI
100
AcDbCircle
 62
7
  6
CONTINUOUS
 10
221.9292014803
 20
113.4231134868
 40
4.7
100
AcDbArc
 50
0.0
 51
180.0
  0
ARC
  5
3C0
100
AcDbEntity
  8
SMUSSO
100
AcDbCircle
 62
7
  6
CONTINUOUS
 10
176.9292014803
 20
113.4231134868
 40
3.5
100
AcDbArc
 50
0.0
 51
180.0
  0
ARC
  5
3C1
100
AcDbEntity
  8
SMUSSO
100
AcDbCircle
 62
7
  6
CONTINUOUS
 10
199.4292014803
 20
113.4231134868
 40
3.5
100
AcDbArc
 50
0.0
 51
180.0
  0
ARC
  5
3C2
100
AcDbEntity
  8
SMUSSO
100
AcDbCircle
 62
7
  6
CONTINUOUS
 10
221.9292014803
 20
113.4231134868
 40
3.5
100
AcDbArc
 50
0.0
 51
180.0
  0
ARC
  5
3C3
100
AcDbEntity
  8
ASSI
100
AcDbCircle
 62
7
  6
CONTINUOUS
 10
176.9292014803
 20
113.4231134868
 40
3.5
100
AcDbArc
 50
0.0
 51
180.0
  0
ARC
  5
3C4
100
AcDbEntity
  8
ASSI
100
AcDbCircle
 62
7
  6
CONTINUOUS
 10
199.4292014803
 20
113.4231134868
 40
3.5
100
AcDbArc
 50
0.0
 51
180.0
  0
ARC
  5
3C5
100
AcDbEntity
  8
ASSI
100
AcDbCircle
 62
7
  6
CONTINUOUS
 10
221.9292014803
 20
113.4231134868
 40
3.5
100
AcDbArc
 50
0.0
 51
180.0
  0
ARC
  5
3C6
100
AcDbEntity
  8
0
100
AcDbCircle
 62
7
  6
CONTINUOUS
 10
66.7255182934
 20
137.6231134868
 40
1.0
100
AcDbArc
 50
270.0
 51
275.7105931375
  0
ARC
  5
3C7
100
AcDbEntity
  8
0
100
AcDbCircle
 62
7
  6
CONTINUOUS
 10
66.7255182934
 20
85.2231134868
 40
1.0
100
AcDbArc
 50
84.2894068625
 51
90.0
  0
ARC
  5
3C8
100
AcDbEntity
  8
0
100
AcDbCircle
 62
7
  6
CONTINUOUS
 10
66.7007072394
 20
84.5731139908
 40
0.3
100
AcDbArc
 50
270.1000001427
 51
297.9489684598
  0
ARC
  5
3C9
100
AcDbEntity
  8
0
100
AcDbCircle
 62
7
  6
CONTINUOUS
 10
66.7007072394
 20
138.2731129828
 40
0.3
100
AcDbArc
 50
62.0510315402
 51
89.8999998573
  0
ARC
  5
3CA
100
AcDbEntity
  8
0
100
AcDbCircle
 62
7
  6
CONTINUOUS
 10
68.2236978273
 20
85.3815445496
 40
0.3
100
AcDbArc
 50
270.3333333333
 51
297.9601595792
  0
ARC
  5
3CB
100
AcDbEntity
  8
0
100
AcDbCircle
 62
7
  6
CONTINUOUS
 10
68.2236978273
 20
137.4646824241
 40
0.3
100
AcDbArc
 50
62.0398404207
 51
89.6666666667
  0
ELLIPSE
  5
3CC
100
AcDbEntity
  8
0
100
AcDbEllipse
 62
7
  6
CONTINUOUS
 10
68.5753939145
 20
137.5029121819
 30
0.0
 11
-0.1417119467
 21
0.1422961243
 31
0.0
 40
0.9918061237
 41
-3.8766878413
 42
-2.8923940429
  0
ELLIPSE
  5
3CD
100
AcDbEntity
  8
0
100
AcDbEllipse
 62
7
  6
CONTINUOUS
 10
68.5753939145
 20
85.3433147918
 30
0.0
 11
0.1417119467
 21
0.1422961243
 31
0.0
 40
0.9918061237
 41
-0.2491986107
 42
0.7350951877
  0
ENDSEC
  0
SECTION
  2
OBJECTS
  0
DICTIONARY
  5
C
100
AcDbDictionary
280
0
281
1
  3
ACAD_GROUP
350
D
  3
ACAD_MLINESTYLE
350
17
  3
ACAD_LAYOUT
350
1A
  3
ACAD_PLOTSETTINGS
350
19
  3
ACAD_PLOTSTYLENAME
350
E
  0
DICTIONARY
  5
D
102
{ACAD_REACTORS
330
C
102
}
100
AcDbDictionary
280
0
281
1
  0
ACDBDICTIONARYWDFLT
  5
E
102
{ACAD_REACTORS
330
C
102
}
100
AcDbDictionary
281
1
  3
Normal
350
F
100
AcDbDictionaryWithDefault
340
F
  0
DICTIONARY
  5
17
102
{ACAD_REACTORS
330
C
102
}
100
AcDbDictionary
280
0
281
1
  3
Standard
350
18
  0
DICTIONARY
  5
19
102
{ACAD_REACTORS
330
C
102
}
100
AcDbDictionary
281
1
  0
DICTIONARY
  5
1A
102
{ACAD_REACTORS
330
C
102
}
100
AcDbDictionary
281
1
  3
Model
350
3CE
  3
Layout1
350
3CF
  0
ACDBPLACEHOLDER
  5
F
102
{ACAD_REACTORS
330
E
102
}
  0
MLINESTYLE
  5
18
102
{ACAD_REACTORS
330
17
102
}
100
AcDbMlineStyle
  2
STANDARD
 70
0
  3

 62
256
 51
90.0
 52
90.0
 71
2
 49
0.5
 62
256
  6
BYLAYER
 49
-0.5
 62
256
  6
BYLAYER
  0
LAYOUT
  5
3CE
102
{ACAD_REACTORS
330
1A
102
}
100
AcDbPlotSettings
  1

  2
none_device
  4
ISO_A4_(297.00_x_210.00_MM)
  6

 40
0.0
 41
0.0
 42
0.0
 43
0.0
 44
297.0
 45
210.0
 46
0.0
 47
0.0
 48
0.0
 49
0.0
140
0.0
141
0.0
142
1.0
143
1.0
 70
1024
 72
1
 73
0
 74
0
  7

 75
0
147
1.0
148
0.0
149
0.0
100
AcDbLayout
  1
Model
 70
0
 71
0
 10
0.0
 20
0.0
 11
297.0
 21
210.0
 12
0.0
 22
0.0
 32
0.0
 14
0.0
 24
0.0
 34
0.0
 15
0.0
 25
0.0
 35
0.0
146
0.0
 13
0.0
 23
0.0
 33
0.0
 16
1.0
 26
0.0
 36
0.0
 17
0.0
 27
1.0
 37
0.0
 76
0
330
21E
345
0
346
0
  0
LAYOUT
  5
3CF
102
{ACAD_REACTORS
330
1A
102
}
100
AcDbPlotSettings
  1

  2
none_device
  4
ISO_A4_(297.00_x_210.00_MM)
  6

 40
0.0
 41
0.0
 42
0.0
 43
0.0
 44
297.0
 45
210.0
 46
0.0
 47
0.0
 48
0.0
 49
0.0
140
0.0
141
0.0
142
1.0
143
1.0
 70
0
 72
1
 73
0
 74
0
  7

 75
0
147
1.0
148
0.0
149
0.0
100
AcDbLayout
  1
Layout1
 70
0
 71
1
 10
0.0
 20
0.0
 11
297.0
 21
210.0
 12
0.0
 22
0.0
 32
0.0
 14
0.0
 24
0.0
 34
0.0
 15
0.0
 25
0.0
 35
0.0
146
0.0
 13
0.0
 23
0.0
 33
0.0
 16
1.0
 26
0.0
 36
0.0
 17
0.0
 27
1.0
 37
0.0
 76
0
330
21F
345
0
346
0
  0
ENDSEC
  0
EOF
